  0
SECTION
  2
HEADER
  9
$ACADVER
  1
AC1027
  9
$ACADMAINTVER
 70
   125
  9
$DWGCODEPAGE
  3
ANSI_932
  9
$LASTSAVEDBY
  1
yasukiyo.ogawa
  9
$REQUIREDVERSIONS
160
                 0
  9
$INSBASE
 10
0.0
 20
0.0
 30
0.0
  9
$EXTMIN
 10
0.0
 20
0.0
 30
0.0
  9
$EXTMAX
 10
6300.0
 20
8850.0
 30
0.0
  9
$LIMMIN
 10
0.0
 20
0.0
  9
$LIMMAX
 10
297.0
 20
210.0
  9
$ORTHOMODE
 70
     1
  9
$REGENMODE
 70
     1
  9
$FILLMODE
 70
     0
  9
$QTEXTMODE
 70
     0
  9
$MIRRTEXT
 70
     1
  9
$LTSCALE
 40
100.0
  9
$ATTMODE
 70
     1
  9
$TEXTSIZE
 40
180.0
  9
$TRACEWID
 40
0.05
  9
$TEXTSTYLE
  7
STANDARD
  9
$CLAYER
  8
3
  9
$CELTYPE
  6
BYLAYER
  9
$CECOLOR
 62
   256
  9
$CELTSCALE
 40
1.0
  9
$DISPSILH
 70
     0
  9
$DIMSCALE
 40
30.0
  9
$DIMASZ
 40
2.0
  9
$DIMEXO
 40
0.5
  9
$DIMDLI
 40
10.0
  9
$DIMRND
 40
0.0
  9
$DIMDLE
 40
0.0
  9
$DIMEXE
 40
1.0
  9
$DIMTP
 40
1.0
  9
$DIMTM
 40
1.0
  9
$DIMTXT
 40
3.0
  9
$DIMCEN
 40
0.0
  9
$DIMTSZ
 40
0.0
  9
$DIMTOL
 70
     0
  9
$DIMLIM
 70
     0
  9
$DIMTIH
 70
     0
  9
$DIMTOH
 70
     0
  9
$DIMSE1
 70
     0
  9
$DIMSE2
 70
     0
  9
$DIMTAD
 70
     1
  9
$DIMZIN
 70
     8
  9
$DIMBLK
  1

  9
$DIMASO
 70
     1
  9
$DIMSHO
 70
     1
  9
$DIMPOST
  1

  9
$DIMAPOST
  1

  9
$DIMALT
 70
     0
  9
$DIMALTD
 70
     2
  9
$DIMALTF
 40
0.039
  9
$DIMLFAC
 40
1.0
  9
$DIMTOFL
 70
     1
  9
$DIMTVP
 40
0.0
  9
$DIMTIX
 70
     0
  9
$DIMSOXD
 70
     0
  9
$DIMSAH
 70
     1
  9
$DIMBLK1
  1
OPEN
  9
$DIMBLK2
  1
OPEN
  9
$DIMSTYLE
  2
IGA
  9
$DIMCLRD
 70
     0
  9
$DIMCLRE
 70
     0
  9
$DIMCLRT
 70
     0
  9
$DIMTFAC
 40
10.0
  9
$DIMGAP
 40
1.0
  9
$DIMJUST
 70
     0
  9
$DIMSD1
 70
     0
  9
$DIMSD2
 70
     0
  9
$DIMTOLJ
 70
     1
  9
$DIMTZIN
 70
     8
  9
$DIMALTZ
 70
     0
  9
$DIMALTTZ
 70
     0
  9
$DIMUPT
 70
     0
  9
$DIMDEC
 70
     0
  9
$DIMTDEC
 70
     0
  9
$DIMALTU
 70
     2
  9
$DIMALTTD
 70
     2
  9
$DIMTXSTY
  7
STANDARD
  9
$DIMAUNIT
 70
     0
  9
$DIMADEC
 70
     0
  9
$DIMALTRND
 40
0.0
  9
$DIMAZIN
 70
     0
  9
$DIMDSEP
 70
    46
  9
$DIMATFIT
 70
     3
  9
$DIMFRAC
 70
     0
  9
$DIMLDRBLK
  1
OPEN
  9
$DIMLUNIT
 70
     2
  9
$DIMLWD
 70
    -2
  9
$DIMLWE
 70
    -2
  9
$DIMTMOVE
 70
     2
  9
$DIMFXL
 40
1.0
  9
$DIMFXLON
 70
     0
  9
$DIMJOGANG
 40
0.7853981633974483
  9
$DIMTFILL
 70
     0
  9
$DIMTFILLCLR
 70
     0
  9
$DIMARCSYM
 70
     0
  9
$DIMLTYPE
  6

  9
$DIMLTEX1
  6

  9
$DIMLTEX2
  6

  9
$DIMTXTDIRECTION
 70
     0
  9
$LUNITS
 70
     2
  9
$LUPREC
 70
     3
  9
$SKETCHINC
 40
0.1
  9
$FILLETRAD
 40
50.0
  9
$AUNITS
 70
     0
  9
$AUPREC
 70
     0
  9
$MENU
  1
acad
  9
$ELEVATION
 40
0.0
  9
$PELEVATION
 40
0.0
  9
$THICKNESS
 40
0.0
  9
$LIMCHECK
 70
     0
  9
$CHAMFERA
 40
0.5
  9
$CHAMFERB
 40
0.5
  9
$CHAMFERC
 40
20.0
  9
$CHAMFERD
 40
0.0
  9
$SKPOLY
 70
     0
  9
$TDCREATE
 40
2451117.500219908
  9
$TDUCREATE
 40
2451117.125223032
  9
$TDUPDATE
 40
2460241.643541667
  9
$TDUUPDATE
 40
2460241.268550532
  9
$TDINDWG
 40
0.0806920486
  9
$TDUSRTIMER
 40
0.0806920486
  9
$USRTIMER
 70
     1
  9
$ANGBASE
 50
0.0
  9
$ANGDIR
 70
     0
  9
$PDMODE
 70
     0
  9
$PDSIZE
 40
0.0
  9
$PLINEWID
 40
0.0
  9
$SPLFRAME
 70
     0
  9
$SPLINETYPE
 70
     6
  9
$SPLINESEGS
 70
     8
  9
$HANDSEED
  5
81D6
  9
$SURFTAB1
 70
     6
  9
$SURFTAB2
 70
     6
  9
$SURFTYPE
 70
     6
  9
$SURFU
 70
     6
  9
$SURFV
 70
     6
  9
$UCSBASE
  2

  9
$UCSNAME
  2

  9
$UCSORG
 10
0.0
 20
0.0
 30
0.0
  9
$UCSXDIR
 10
1.0
 20
0.0
 30
0.0
  9
$UCSYDIR
 10
0.0
 20
1.0
 30
0.0
  9
$UCSORTHOREF
  2

  9
$UCSORTHOVIEW
 70
     0
  9
$UCSORGTOP
 10
0.0
 20
0.0
 30
0.0
  9
$UCSORGBOTTOM
 10
0.0
 20
0.0
 30
0.0
  9
$UCSORGLEFT
 10
0.0
 20
0.0
 30
0.0
  9
$UCSORGRIGHT
 10
0.0
 20
0.0
 30
0.0
  9
$UCSORGFRONT
 10
0.0
 20
0.0
 30
0.0
  9
$UCSORGBACK
 10
0.0
 20
0.0
 30
0.0
  9
$PUCSBASE
  2

  9
$PUCSNAME
  2

  9
$PUCSORG
 10
0.0
 20
0.0
 30
0.0
  9
$PUCSXDIR
 10
1.0
 20
0.0
 30
0.0
  9
$PUCSYDIR
 10
0.0
 20
1.0
 30
0.0
  9
$PUCSORTHOREF
  2

  9
$PUCSORTHOVIEW
 70
     0
  9
$PUCSORGTOP
 10
0.0
 20
0.0
 30
0.0
  9
$PUCSORGBOTTOM
 10
0.0
 20
0.0
 30
0.0
  9
$PUCSORGLEFT
 10
0.0
 20
0.0
 30
0.0
  9
$PUCSORGRIGHT
 10
0.0
 20
0.0
 30
0.0
  9
$PUCSORGFRONT
 10
0.0
 20
0.0
 30
0.0
  9
$PUCSORGBACK
 10
0.0
 20
0.0
 30
0.0
  9
$USERI1
 70
     0
  9
$USERI2
 70
     0
  9
$USERI3
 70
     0
  9
$USERI4
 70
     0
  9
$USERI5
 70
     0
  9
$USERR1
 40
0.0
  9
$USERR2
 40
0.0
  9
$USERR3
 40
0.0
  9
$USERR4
 40
0.0
  9
$USERR5
 40
0.0
  9
$WORLDVIEW
 70
     1
  9
$SHADEDGE
 70
     3
  9
$SHADEDIF
 70
    70
  9
$TILEMODE
 70
     1
  9
$MAXACTVP
 70
    16
  9
$PINSBASE
 10
0.0
 20
0.0
 30
0.0
  9
$PLIMCHECK
 70
     0
  9
$PEXTMIN
 10
1.000000000000000E+20
 20
1.000000000000000E+20
 30
1.000000000000000E+20
  9
$PEXTMAX
 10
-1.000000000000000E+20
 20
-1.000000000000000E+20
 30
-1.000000000000000E+20
  9
$PLIMMIN
 10
0.0
 20
0.0
  9
$PLIMMAX
 10
12.0
 20
9.0
  9
$UNITMODE
 70
     0
  9
$VISRETAIN
 70
     0
  9
$PLINEGEN
 70
     0
  9
$PSLTSCALE
 70
     1
  9
$TREEDEPTH
 70
  3020
  9
$CMLSTYLE
  2
STANDARD
  9
$CMLJUST
 70
     0
  9
$CMLSCALE
 40
20.0
  9
$PROXYGRAPHICS
 70
     1
  9
$MEASUREMENT
 70
     1
  9
$CELWEIGHT
370
    -1
  9
$ENDCAPS
280
     0
  9
$JOINSTYLE
280
     0
  9
$LWDISPLAY
290
     0
  9
$INSUNITS
 70
     0
  9
$HYPERLINKBASE
  1

  9
$STYLESHEET
  1

  9
$XEDIT
290
     1
  9
$CEPSNTYPE
380
     0
  9
$PSTYLEMODE
290
     1
  9
$FINGERPRINTGUID
  2
{5992C1BD-32F9-457F-9D2F-675C3BEEB1A9}
  9
$VERSIONGUID
  2
{63451387-EEC7-4E9F-94E8-B9CB37D9C5DC}
  9
$EXTNAMES
290
     1
  9
$PSVPSCALE
 40
0.0
  9
$OLESTARTUP
290
     0
  9
$SORTENTS
280
   127
  9
$INDEXCTL
280
     0
  9
$HIDETEXT
280
     0
  9
$XCLIPFRAME
280
     2
  9
$HALOGAP
280
     0
  9
$OBSCOLOR
 70
   257
  9
$OBSLTYPE
280
     0
  9
$INTERSECTIONDISPLAY
280
     0
  9
$INTERSECTIONCOLOR
 70
   257
  9
$DIMASSOC
280
     1
  9
$PROJECTNAME
  1

  9
$CAMERADISPLAY
290
     0
  9
$LENSLENGTH
 40
50.0
  9
$CAMERAHEIGHT
 40
0.0
  9
$STEPSPERSEC
 40
2.0
  9
$STEPSIZE
 40
6.0
  9
$3DDWFPREC
 40
2.0
  9
$PSOLWIDTH
 40
0.25
  9
$PSOLHEIGHT
 40
4.0
  9
$LOFTANG1
 40
1.570796326794896
  9
$LOFTANG2
 40
1.570796326794896
  9
$LOFTMAG1
 40
0.0
  9
$LOFTMAG2
 40
0.0
  9
$LOFTPARAM
 70
     7
  9
$LOFTNORMALS
280
     1
  9
$LATITUDE
 40
37.795
  9
$LONGITUDE
 40
-122.394
  9
$NORTHDIRECTION
 40
0.0
  9
$TIMEZONE
 70
 -8000
  9
$LIGHTGLYPHDISPLAY
280
     1
  9
$TILEMODELIGHTSYNCH
280
     1
  9
$CMATERIAL
347
80C0
  9
$SOLIDHIST
280
     0
  9
$SHOWHIST
280
     1
  9
$DWFFRAME
280
     2
  9
$DGNFRAME
280
     0
  9
$REALWORLDSCALE
290
     1
  9
$INTERFERECOLOR
 62
     1
  9
$INTERFEREOBJVS
345
80E2
  9
$INTERFEREVPVS
346
80DF
  9
$CSHADOW
280
     0
  9
$SHADOWPLANELOCATION
 40
0.0
  0
ENDSEC
  0
SECTION
  2
CLASSES
  0
CLASS
  1
ACDBDICTIONARYWDFLT
  2
AcDbDictionaryWithDefault
  3
ObjectDBX Classes
 90
        0
 91
        1
280
     0
281
     0
  0
CLASS
  1
DICTIONARYVAR
  2
AcDbDictionaryVar
  3
ObjectDBX Classes
 90
        0
 91
       11
280
     0
281
     0
  0
CLASS
  1
MATERIAL
  2
AcDbMaterial
  3
ObjectDBX Classes
 90
     1153
 91
        3
280
     0
281
     0
  0
CLASS
  1
VISUALSTYLE
  2
AcDbVisualStyle
  3
ObjectDBX Classes
 90
     4095
 91
       24
280
     0
281
     0
  0
CLASS
  1
TABLESTYLE
  2
AcDbTableStyle
  3
ObjectDBX Classes
 90
     4095
 91
        1
280
     0
281
     0
  0
CLASS
  1
SCALE
  2
AcDbScale
  3
ObjectDBX Classes
 90
     1153
 91
       17
280
     0
281
     0
  0
CLASS
  1
MLEADERSTYLE
  2
AcDbMLeaderStyle
  3
ACDB_MLEADERSTYLE_CLASS
 90
     4095
 91
        1
280
     0
281
     0
  0
CLASS
  1
ACDBSECTIONVIEWSTYLE
  2
AcDbSectionViewStyle
  3
ObjectDBX Classes
 90
     1025
 91
        1
280
     0
281
     0
  0
CLASS
  1
ACDBDETAILVIEWSTYLE
  2
AcDbDetailViewStyle
  3
ObjectDBX Classes
 90
     1025
 91
        1
280
     0
281
     0
  0
CLASS
  1
CELLSTYLEMAP
  2
AcDbCellStyleMap
  3
ObjectDBX Classes
 90
     1152
 91
        1
280
     0
281
     0
  0
ENDSEC
  0
SECTION
  2
TABLES
  0
TABLE
  2
VPORT
  5
8
330
0
100
AcDbSymbolTable
 70
     1
1001
ACAD
1000
DbSaveVer
1071
      278
  0
VPORT
  5
80BD
330
8
100
AcDbSymbolTableRecord
100
AcDbViewportTableRecord
  2
*Active
 70
     0
 10
0.0
 20
0.0
 11
1.0
 21
1.0
 12
4041.232715208578
 22
4425.000020605514
 13
0.0
 23
0.0
 14
10.0
 24
10.0
 15
10.0
 25
10.0
 16
0.0
 26
0.0
 36
1.0
 17
0.0
 27
0.0
 37
0.0
 40
8907.837891805931
 41
2.250314465408805
 42
50.0
 43
0.0
 44
0.0
 50
0.0
 51
0.0
 71
     0
 72
   100
 73
     1
 74
     0
 75
     0
 76
     0
 77
     0
 78
     0
281
     0
 65
     1
110
0.0
120
0.0
130
0.0
111
1.0
121
0.0
131
0.0
112
0.0
122
1.0
132
0.0
 79
     0
146
0.0
348
80DE
 60
     3
 61
     5
292
     1
282
     1
141
0.0
142
0.0
 63
   250
421
  3355443
1001
ACAD_NAV_VCDISPLAY
1070
     3
  0
ENDTAB
  0
TABLE
  2
LTYPE
  5
5
330
0
100
AcDbSymbolTable
 70
     2
  0
LTYPE
  5
13
330
5
100
AcDbSymbolTableRecord
100
AcDbLinetypeTableRecord
  2
BYBLOCK
 70
     0
  3

 72
    65
 73
     0
 40
0.0
  0
LTYPE
  5
14
330
5
100
AcDbSymbolTableRecord
100
AcDbLinetypeTableRecord
  2
BYLAYER
 70
     0
  3

 72
    65
 73
     0
 40
0.0
  0
LTYPE
  5
15
330
5
100
AcDbSymbolTableRecord
100
AcDbLinetypeTableRecord
  2
CONTINUOUS
 70
     0
  3
Solid line
 72
    65
 73
     0
 40
0.0
  0
LTYPE
  5
1F
330
5
100
AcDbSymbolTableRecord
100
AcDbLinetypeTableRecord
  2
CENTER
 70
     0
  3
____ _ ____ _ ____ _ ____ _ ____ _ ____ _ ____ 
 72
    65
 73
     4
 40
2.0
 49
1.25
 74
     0
 49
-0.25
 74
     0
 49
0.25
 74
     0
 49
-0.25
 74
     0
  0
ENDTAB
  0
TABLE
  2
LAYER
  5
2
102
{ACAD_XDICTIONARY
360
818A
102
}
330
0
100
AcDbSymbolTable
 70
     6
  0
LAYER
  5
F
102
{ACAD_XDICTIONARY
360
817D
102
}
330
2
100
AcDbSymbolTableRecord
100
AcDbLayerTableRecord
  2
0
 70
     0
 62
     7
  6
CONTINUOUS
370
    -3
390
8007
347
80D0
348
0
  0
LAYER
  5
31
102
{ACAD_XDICTIONARY
360
817F
102
}
330
2
100
AcDbSymbolTableRecord
100
AcDbLayerTableRecord
  2
3
 70
     0
 62
     2
  6
CONTINUOUS
370
    -3
390
8007
347
80D0
348
0
  0
LAYER
  5
76D0
102
{ACAD_XDICTIONARY
360
8181
102
}
330
2
100
AcDbSymbolTableRecord
100
AcDbLayerTableRecord
  2
2
 70
     0
 62
     3
  6
CENTER
370
    -3
390
8007
347
80D0
348
0
  0
LAYER
  5
76D1
102
{ACAD_XDICTIONARY
360
8183
102
}
330
2
100
AcDbSymbolTableRecord
100
AcDbLayerTableRecord
  2
1
 70
     0
 62
     4
  6
CONTINUOUS
370
    -3
390
8007
347
80D0
348
0
  0
LAYER
  5
76D2
102
{ACAD_XDICTIONARY
360
8185
102
}
330
2
100
AcDbSymbolTableRecord
100
AcDbLayerTableRecord
  2
4
 70
     0
 62
     7
  6
CONTINUOUS
370
    -3
390
8007
347
80D0
348
0
  0
LAYER
  5
7AF5
330
2
100
AcDbSymbolTableRecord
100
AcDbLayerTableRecord
  2
DEFPOINTS
 70
     0
 62
     7
  6
CONTINUOUS
290
     0
370
    -3
390
8007
347
80D0
348
0
  0
ENDTAB
  0
TABLE
  2
STYLE
  5
3
330
0
100
AcDbSymbolTable
 70
     1
  0
STYLE
  5
10
330
3
100
AcDbSymbolTableRecord
100
AcDbTextStyleTableRecord
  2
STANDARD
 70
     0
 40
0.0
 41
1.0
 50
0.0
 71
     0
 42
180.0
  3
simplex.shx
  4
extfont.shx
  0
ENDTAB
  0
TABLE
  2
VIEW
  5
6
330
0
100
AcDbSymbolTable
 70
     0
  0
ENDTAB
  0
TABLE
  2
UCS
  5
7
330
0
100
AcDbSymbolTable
 70
     0
  0
ENDTAB
  0
TABLE
  2
APPID
  5
9
330
0
100
AcDbSymbolTable
 70
     4
  0
APPID
  5
11
330
9
100
AcDbSymbolTableRecord
100
AcDbRegAppTableRecord
  2
ACAD
 70
     0
  0
APPID
  5
8129
330
9
100
AcDbSymbolTableRecord
100
AcDbRegAppTableRecord
  2
AcadAnnoMonitorAlertIconDisabled
 70
     0
  0
APPID
  5
812A
330
9
100
AcDbSymbolTableRecord
100
AcDbRegAppTableRecord
  2
ACAD_EXEMPT_FROM_CAD_STANDARDS
 70
     0
  0
APPID
  5
8190
330
9
100
AcDbSymbolTableRecord
100
AcDbRegAppTableRecord
  2
ACAD_NAV_VCDISPLAY
 70
     0
  0
ENDTAB
  0
TABLE
  2
DIMSTYLE
  5
A
330
0
100
AcDbSymbolTable
 70
     2
100
AcDbDimStyleTable
 71
     1
340
1D
  0
DIMSTYLE
105
1D
102
{ACAD_REACTORS
330
7FCB
330
7FD8
330
7FE5
330
7FF2
330
7FFF
330
810F
330
811C
102
}
330
A
100
AcDbSymbolTableRecord
100
AcDbDimStyleTableRecord
  2
IGA
 70
     0
 40
2.0
 41
2.0
 42
0.5
 43
10.0
 44
1.0
 47
1.0
 48
1.0
 73
     0
 74
     0
 77
     1
 78
     8
140
3.0
141
0.0
143
0.03937
146
10.0
147
1.0
173
     1
271
     1
272
     0
279
     2
284
     8
340
10
341
7ED7
343
7ED7
344
7ED7
  0
DIMSTYLE
105
7AF6
102
{ACAD_REACTORS
330
7BE7
330
7BE8
330
7BEF
330
7BF4
330
7C10
330
7C12
330
7C38
330
7C40
330
7C45
330
7C52
330
7C61
330
7C69
330
7C83
102
}
330
A
100
AcDbSymbolTableRecord
100
AcDbDimStyleTableRecord
  2
DIA1
 70
     0
 41
2.0
 42
1.0
 43
10.0
 44
1.0
 73
     0
 74
     0
 77
     1
 78
     8
140
2.5
141
0.0
172
     1
176
     2
177
     2
178
     2
271
     1
272
     1
279
     2
284
     8
285
     8
286
     8
340
10
341
79FC
342
79FC
  0
ENDTAB
  0
TABLE
  2
BLOCK_RECORD
  5
1
330
0
100
AcDbSymbolTable
 70
    24
  0
BLOCK_RECORD
  5
19
102
{ACAD_XDICTIONARY
360
8035
102
}
330
1
100
AcDbSymbolTableRecord
100
AcDbBlockTableRecord
  2
*MODEL_SPACE
340
800A
 70
     0
280
     1
281
     0
  0
BLOCK_RECORD
  5
16
102
{ACAD_XDICTIONARY
360
8033
102
}
330
1
100
AcDbSymbolTableRecord
100
AcDbBlockTableRecord
  2
*PAPER_SPACE
340
800B
 70
     0
280
     1
281
     0
  0
BLOCK_RECORD
  5
79FC
330
1
100
AcDbSymbolTableRecord
100
AcDbBlockTableRecord
  2
ARROW
340
0
102
{BLKREFS
331
8049
331
804A
331
8052
331
8053
331
805B
331
805C
331
8064
331
8065
331
806C
331
806D
331
8075
331
8076
331
807E
331
807F
331
8087
331
8088
331
8090
331
8091
331
8099
331
809A
331
80A2
331
80A3
331
80AB
331
80AC
331
8040
331
8041
102
}
 70
     0
280
     1
281
     0
  0
BLOCK_RECORD
  5
7CB7
330
1
100
AcDbSymbolTableRecord
100
AcDbBlockTableRecord
  2
*D1
340
0
 70
     0
280
     1
281
     0
  0
BLOCK_RECORD
  5
7CC3
330
1
100
AcDbSymbolTableRecord
100
AcDbBlockTableRecord
  2
*D2
340
0
 70
     0
280
     1
281
     0
  0
BLOCK_RECORD
  5
7CE7
330
1
100
AcDbSymbolTableRecord
100
AcDbBlockTableRecord
  2
*D3
340
0
 70
     0
280
     1
281
     0
  0
BLOCK_RECORD
  5
7CF3
330
1
100
AcDbSymbolTableRecord
100
AcDbBlockTableRecord
  2
*D4
340
0
 70
     0
280
     1
281
     0
  0
BLOCK_RECORD
  5
7D17
330
1
100
AcDbSymbolTableRecord
100
AcDbBlockTableRecord
  2
*D5
340
0
 70
     0
280
     1
281
     0
  0
BLOCK_RECORD
  5
7D23
330
1
100
AcDbSymbolTableRecord
100
AcDbBlockTableRecord
  2
*D6
340
0
 70
     0
280
     1
281
     0
  0
BLOCK_RECORD
  5
7D2E
330
1
100
AcDbSymbolTableRecord
100
AcDbBlockTableRecord
  2
*D7
340
0
 70
     0
280
     1
281
     0
  0
BLOCK_RECORD
  5
7D3A
330
1
100
AcDbSymbolTableRecord
100
AcDbBlockTableRecord
  2
*D8
340
0
 70
     0
280
     1
281
     0
  0
BLOCK_RECORD
  5
7D46
330
1
100
AcDbSymbolTableRecord
100
AcDbBlockTableRecord
  2
*D9
340
0
 70
     0
280
     1
281
     0
  0
BLOCK_RECORD
  5
7D52
330
1
100
AcDbSymbolTableRecord
100
AcDbBlockTableRecord
  2
*D10
340
0
 70
     0
280
     1
281
     0
  0
BLOCK_RECORD
  5
7D5E
330
1
100
AcDbSymbolTableRecord
100
AcDbBlockTableRecord
  2
*D11
340
0
 70
     0
280
     1
281
     0
  0
BLOCK_RECORD
  5
7D6A
330
1
100
AcDbSymbolTableRecord
100
AcDbBlockTableRecord
  2
*D12
340
0
 70
     0
280
     1
281
     0
  0
BLOCK_RECORD
  5
7D9A
330
1
100
AcDbSymbolTableRecord
100
AcDbBlockTableRecord
  2
*D13
340
0
 70
     0
280
     1
281
     0
  0
BLOCK_RECORD
  5
7ED7
330
1
100
AcDbSymbolTableRecord
100
AcDbBlockTableRecord
  2
_OPEN
340
0
102
{BLKREFS
331
816E
331
816F
331
8177
331
8178
331
7FC4
331
7FC5
331
7FD1
331
7FD2
331
7FDE
331
7FDF
331
7FEB
331
7FEC
331
7FF8
331
7FF9
102
}
 70
     0
280
     1
281
     0
  0
BLOCK_RECORD
  5
7F53
330
1
100
AcDbSymbolTableRecord
100
AcDbBlockTableRecord
  2
_DOT
340
0
 70
     0
280
     1
281
     0
  0
BLOCK_RECORD
  5
7FA2
330
1
100
AcDbSymbolTableRecord
100
AcDbBlockTableRecord
  2
_NONE
340
0
 70
     0
280
     1
281
     0
  0
BLOCK_RECORD
  5
7FBF
330
1
100
AcDbSymbolTableRecord
100
AcDbBlockTableRecord
  2
*D17
340
0
 70
     0
280
     1
281
     0
  0
BLOCK_RECORD
  5
7FCC
330
1
100
AcDbSymbolTableRecord
100
AcDbBlockTableRecord
  2
*D18
340
0
 70
     0
280
     1
281
     0
  0
BLOCK_RECORD
  5
7FD9
330
1
100
AcDbSymbolTableRecord
100
AcDbBlockTableRecord
  2
*D19
340
0
 70
     0
280
     1
281
     0
  0
BLOCK_RECORD
  5
7FE6
330
1
100
AcDbSymbolTableRecord
100
AcDbBlockTableRecord
  2
*D20
340
0
 70
     0
280
     1
281
     0
  0
BLOCK_RECORD
  5
7FF3
330
1
100
AcDbSymbolTableRecord
100
AcDbBlockTableRecord
  2
*D21
340
0
 70
     0
280
     1
281
     0
  0
BLOCK_RECORD
  5
8110
330
1
100
AcDbSymbolTableRecord
100
AcDbBlockTableRecord
  2
*D22
340
0
 70
     0
280
     1
281
     0
  0
BLOCK_RECORD
  5
811D
330
1
100
AcDbSymbolTableRecord
100
AcDbBlockTableRecord
  2
*D23
340
0
 70
     0
280
     1
281
     0
  0
ENDTAB
  0
ENDSEC
  0
SECTION
  2
BLOCKS
  0
BLOCK
  5
1A
330
19
100
AcDbEntity
  8
0
100
AcDbBlockBegin
  2
*MODEL_SPACE
 70
     0
 10
0.0
 20
0.0
 30
0.0
  3
*MODEL_SPACE
  1

  0
ENDBLK
  5
1B
330
19
100
AcDbEntity
  8
0
100
AcDbBlockEnd
  0
BLOCK
  5
17
330
16
100
AcDbEntity
 67
     1
  8
0
100
AcDbBlockBegin
  2
*PAPER_SPACE
 70
     0
 10
0.0
 20
0.0
 30
0.0
  3
*PAPER_SPACE
  1

  0
ENDBLK
  5
18
330
16
100
AcDbEntity
 67
     1
  8
0
100
AcDbBlockEnd
  0
BLOCK
  5
7A00
330
79FC
100
AcDbEntity
  8
0
100
AcDbBlockBegin
  2
ARROW
 70
     0
 10
0.0
 20
0.0
 30
0.0
  3
ARROW
  1

  0
LINE
  5
79FD
330
79FC
100
AcDbEntity
  8
0
100
AcDbLine
 10
-0.9999999999999991
 20
0.1666666667000003
 30
0.0
 11
0.0
 21
0.0
 31
0.0
  0
LINE
  5
79FE
330
79FC
100
AcDbEntity
  8
0
100
AcDbLine
 10
-0.9999999999999991
 20
0.0
 30
0.0
 11
0.0
 21
0.0
 31
0.0
  0
LINE
  5
79FF
330
79FC
100
AcDbEntity
  8
0
100
AcDbLine
 10
-0.9999999999999991
 20
-0.1666666667000003
 30
0.0
 11
0.0
 21
0.0
 31
0.0
  0
ENDBLK
  5
7A01
330
79FC
100
AcDbEntity
  8
0
100
AcDbBlockEnd
  0
BLOCK
  5
7DA6
330
7CB7
100
AcDbEntity
  8
0
100
AcDbBlockBegin
  2
*D1
 70
     1
 10
0.0
 20
0.0
 30
0.0
  3
*D1
  1

  0
LINE
  5
803D
330
7CB7
100
AcDbEntity
  8
3
 62
     2
440
 16777216
100
AcDbLine
 10
2848.291387383866
 20
3531.092559194899
 30
0.0
 11
2848.291387383866
 21
3710.707667638111
 31
0.0
  0
LINE
  5
803E
330
7CB7
100
AcDbEntity
  8
3
 62
     2
440
 16777216
100
AcDbLine
 10
1923.291387383866
 20
3531.092559194899
 30
0.0
 11
1923.291387383866
 21
3710.707667638111
 31
0.0
  0
LINE
  5
803F
330
7CB7
100
AcDbEntity
  8
3
 62
     2
440
 16777216
100
AcDbLine
 10
2773.291387383866
 20
3680.707667638111
 30
0.0
 11
1998.291387383866
 21
3680.707667638111
 31
0.0
  0
INSERT
  5
8040
330
7CB7
100
AcDbEntity
  8
3
 62
     2
440
 16777216
100
AcDbBlockReference
  2
ARROW
 10
2848.291387383866
 20
3680.707667638111
 30
0.0
 41
75.0
 42
75.0
 43
75.0
  0
INSERT
  5
8041
330
7CB7
100
AcDbEntity
  8
3
 62
     2
440
 16777216
100
AcDbBlockReference
  2
ARROW
 10
1923.291387383866
 20
3680.707667638111
 30
0.0
 41
75.0
 42
75.0
 43
75.0
 50
180.0
  0
MTEXT
  5
8042
330
7CB7
100
AcDbEntity
  8
3
 62
     2
440
 16777216
100
AcDbMText
 10
2385.791387383866
 20
3755.707667638111
 30
0.0
 40
90.0
 41
0.0
 46
0.0
 71
     5
 72
     5
  1
\A1;925
 73
     1
 44
1.0
  0
POINT
  5
8043
330
7CB7
100
AcDbEntity
  8
DEFPOINTS
 62
     0
440
 16777216
100
AcDbPoint
 10
2848.291387383866
 20
3531.092559194899
 30
0.0
  0
POINT
  5
8044
330
7CB7
100
AcDbEntity
  8
DEFPOINTS
 62
     0
440
 16777216
100
AcDbPoint
 10
1923.291387383866
 20
3531.092559194899
 30
0.0
  0
POINT
  5
8045
330
7CB7
100
AcDbEntity
  8
DEFPOINTS
 62
     0
440
 16777216
100
AcDbPoint
 10
1923.291387383866
 20
3680.707667638111
 30
0.0
  0
ENDBLK
  5
7DB0
330
7CB7
100
AcDbEntity
  8
0
100
AcDbBlockEnd
  0
BLOCK
  5
7DB1
330
7CC3
100
AcDbEntity
  8
0
100
AcDbBlockBegin
  2
*D2
 70
     1
 10
0.0
 20
0.0
 30
0.0
  3
*D2
  1

  0
LINE
  5
8046
330
7CC3
100
AcDbEntity
  8
3
 62
     2
440
 16777216
100
AcDbLine
 10
2848.291387383866
 20
3531.092559194899
 30
0.0
 11
2848.291387383866
 21
3879.506360823564
 31
0.0
  0
LINE
  5
8047
330
7CC3
100
AcDbEntity
  8
3
 62
     2
440
 16777216
100
AcDbLine
 10
1887.291387383866
 20
3567.347897973446
 30
0.0
 11
1887.291387383866
 21
3879.506360823564
 31
0.0
  0
LINE
  5
8048
330
7CC3
100
AcDbEntity
  8
3
 62
     2
440
 16777216
100
AcDbLine
 10
2773.291387383866
 20
3849.506360823565
 30
0.0
 11
1962.291387383866
 21
3849.506360823565
 31
0.0
  0
INSERT
  5
8049
330
7CC3
100
AcDbEntity
  8
3
 62
     2
440
 16777216
100
AcDbBlockReference
  2
ARROW
 10
2848.291387383866
 20
3849.506360823565
 30
0.0
 41
75.0
 42
75.0
 43
75.0
  0
INSERT
  5
804A
330
7CC3
100
AcDbEntity
  8
3
 62
     2
440
 16777216
100
AcDbBlockReference
  2
ARROW
 10
1887.291387383866
 20
3849.506360823565
 30
0.0
 41
75.0
 42
75.0
 43
75.0
 50
180.0
  0
MTEXT
  5
804B
330
7CC3
100
AcDbEntity
  8
3
 62
     2
440
 16777216
100
AcDbMText
 10
2367.791387383866
 20
3924.506360823565
 30
0.0
 40
90.0
 41
0.0
 46
0.0
 71
     5
 72
     5
  1
\A1;961
 73
     1
 44
1.0
  0
POINT
  5
804C
330
7CC3
100
AcDbEntity
  8
DEFPOINTS
 62
     0
440
 16777216
100
AcDbPoint
 10
2848.291387383866
 20
3531.092559194899
 30
0.0
  0
POINT
  5
804D
330
7CC3
100
AcDbEntity
  8
DEFPOINTS
 62
     0
440
 16777216
100
AcDbPoint
 10
1887.291387383866
 20
3567.347897973446
 30
0.0
  0
POINT
  5
804E
330
7CC3
100
AcDbEntity
  8
DEFPOINTS
 62
     0
440
 16777216
100
AcDbPoint
 10
1887.291387383866
 20
3849.506360823565
 30
0.0
  0
ENDBLK
  5
7DBB
330
7CC3
100
AcDbEntity
  8
0
100
AcDbBlockEnd
  0
BLOCK
  5
7DD2
330
7CE7
100
AcDbEntity
  8
0
100
AcDbBlockBegin
  2
*D3
 70
     1
 10
0.0
 20
0.0
 30
0.0
  3
*D3
  1

  0
LINE
  5
804F
330
7CE7
100
AcDbEntity
  8
3
 62
     2
440
 16777216
100
AcDbLine
 10
1244.291387383866
 20
2844.0925591949
 30
0.0
 11
1244.291387383866
 21
4033.976862521996
 31
0.0
  0
LINE
  5
8050
330
7CE7
100
AcDbEntity
  8
3
 62
     2
440
 16777216
100
AcDbLine
 10
3327.291387383865
 20
2216.092559194899
 30
0.0
 11
3327.291387383865
 21
4033.976862521996
 31
0.0
  0
LINE
  5
8051
330
7CE7
100
AcDbEntity
  8
3
 62
     2
440
 16777216
100
AcDbLine
 10
1319.291387383866
 20
4003.976862521996
 30
0.0
 11
3252.291387383865
 21
4003.976862521996
 31
0.0
  0
INSERT
  5
8052
330
7CE7
100
AcDbEntity
  8
3
 62
     2
440
 16777216
100
AcDbBlockReference
  2
ARROW
 10
1244.291387383866
 20
4003.976862521996
 30
0.0
 41
75.0
 42
75.0
 43
75.0
 50
180.0
  0
INSERT
  5
8053
330
7CE7
100
AcDbEntity
  8
3
 62
     2
440
 16777216
100
AcDbBlockReference
  2
ARROW
 10
3327.291387383865
 20
4003.976862521996
 30
0.0
 41
75.0
 42
75.0
 43
75.0
  0
MTEXT
  5
8054
330
7CE7
100
AcDbEntity
  8
3
 62
     2
440
 16777216
100
AcDbMText
 10
2285.791387383865
 20
4078.976862521996
 30
0.0
 40
90.0
 41
0.0
 46
0.0
 71
     5
 72
     5
  1
\A1;2083
 73
     1
 44
1.0
  0
POINT
  5
8055
330
7CE7
100
AcDbEntity
  8
DEFPOINTS
 62
     0
440
 16777216
100
AcDbPoint
 10
1244.291387383866
 20
2844.0925591949
 30
0.0
  0
POINT
  5
8056
330
7CE7
100
AcDbEntity
  8
DEFPOINTS
 62
     0
440
 16777216
100
AcDbPoint
 10
3327.291387383865
 20
2216.092559194899
 30
0.0
  0
POINT
  5
8057
330
7CE7
100
AcDbEntity
  8
DEFPOINTS
 62
     0
440
 16777216
100
AcDbPoint
 10
3327.291387383865
 20
4003.976862521996
 30
0.0
  0
ENDBLK
  5
7DDC
330
7CE7
100
AcDbEntity
  8
0
100
AcDbBlockEnd
  0
BLOCK
  5
7DDD
330
7CF3
100
AcDbEntity
  8
0
100
AcDbBlockBegin
  2
*D4
 70
     1
 10
0.0
 20
0.0
 30
0.0
  3
*D4
  1

  0
LINE
  5
8058
330
7CF3
100
AcDbEntity
  8
3
 62
     2
440
 16777216
100
AcDbLine
 10
1164.698938296647
 20
2911.0925591949
 30
0.0
 11
1046.304033753951
 21
2911.0925591949
 31
0.0
  0
LINE
  5
8059
330
7CF3
100
AcDbEntity
  8
3
 62
     2
440
 16777216
100
AcDbLine
 10
1327.291387383864
 20
2091.0925591949
 30
0.0
 11
1046.30403375395
 21
2091.0925591949
 31
0.0
  0
LINE
  5
805A
330
7CF3
100
AcDbEntity
  8
3
 62
     2
440
 16777216
100
AcDbLine
 10
1076.304033753951
 20
2836.092559194899
 30
0.0
 11
1076.30403375395
 21
2166.0925591949
 31
0.0
  0
INSERT
  5
805B
330
7CF3
100
AcDbEntity
  8
3
 62
     2
440
 16777216
100
AcDbBlockReference
  2
ARROW
 10
1076.304033753951
 20
2911.0925591949
 30
0.0
 41
75.0
 42
75.0
 43
75.0
 50
90.0
  0
INSERT
  5
805C
330
7CF3
100
AcDbEntity
  8
3
 62
     2
440
 16777216
100
AcDbBlockReference
  2
ARROW
 10
1076.30403375395
 20
2091.0925591949
 30
0.0
 41
75.0
 42
75.0
 43
75.0
 50
270.0
  0
MTEXT
  5
805D
330
7CF3
100
AcDbEntity
  8
3
 62
     2
440
 16777216
100
AcDbMText
 10
1001.30403375395
 20
2501.0925591949
 30
0.0
 40
90.0
 41
0.0
 46
0.0
 71
     5
 72
     5
  1
\A1;820
 11
0.0000000000000001
 21
1.0
 31
0.0
 73
     1
 44
1.0
  0
POINT
  5
805E
330
7CF3
100
AcDbEntity
  8
DEFPOINTS
 62
     0
440
 16777216
100
AcDbPoint
 10
1164.698938296647
 20
2911.0925591949
 30
0.0
  0
POINT
  5
805F
330
7CF3
100
AcDbEntity
  8
DEFPOINTS
 62
     0
440
 16777216
100
AcDbPoint
 10
1327.291387383864
 20
2091.0925591949
 30
0.0
  0
POINT
  5
8060
330
7CF3
100
AcDbEntity
  8
DEFPOINTS
 62
     0
440
 16777216
100
AcDbPoint
 10
1076.30403375395
 20
2091.0925591949
 30
0.0
  0
ENDBLK
  5
7DE7
330
7CF3
100
AcDbEntity
  8
0
100
AcDbBlockEnd
  0
BLOCK
  5
7DFE
330
7D17
100
AcDbEntity
  8
0
100
AcDbBlockBegin
  2
*D5
 70
     1
 10
0.0
 20
0.0
 30
0.0
  3
*D5
  1

  0
LINE
  5
8061
330
7D17
100
AcDbEntity
  8
3
 62
     2
440
 16777216
100
AcDbLine
 10
1880.791387383866
 20
3531.092559194899
 30
0.0
 11
1046.30403375395
 21
3531.092559194899
 31
0.0
  0
LINE
  5
8062
330
7D17
100
AcDbEntity
  8
3
 62
     2
440
 16777216
100
AcDbLine
 10
1164.698938296647
 20
2911.0925591949
 30
0.0
 11
1046.30403375395
 21
2911.0925591949
 31
0.0
  0
LINE
  5
8063
330
7D17
100
AcDbEntity
  8
3
 62
     2
440
 16777216
100
AcDbLine
 10
1076.30403375395
 20
3456.0925591949
 30
0.0
 11
1076.30403375395
 21
2986.092559194899
 31
0.0
  0
INSERT
  5
8064
330
7D17
100
AcDbEntity
  8
3
 62
     2
440
 16777216
100
AcDbBlockReference
  2
ARROW
 10
1076.30403375395
 20
3531.092559194899
 30
0.0
 41
75.0
 42
75.0
 43
75.0
 50
90.0
  0
INSERT
  5
8065
330
7D17
100
AcDbEntity
  8
3
 62
     2
440
 16777216
100
AcDbBlockReference
  2
ARROW
 10
1076.30403375395
 20
2911.0925591949
 30
0.0
 41
75.0
 42
75.0
 43
75.0
 50
270.0
  0
MTEXT
  5
8066
330
7D17
100
AcDbEntity
  8
3
 62
     2
440
 16777216
100
AcDbMText
 10
1001.30403375395
 20
3221.0925591949
 30
0.0
 40
90.0
 41
0.0
 46
0.0
 71
     5
 72
     5
  1
\A1;620
 11
0.0000000000000001
 21
1.0
 31
0.0
 73
     1
 44
1.0
  0
POINT
  5
8067
330
7D17
100
AcDbEntity
  8
DEFPOINTS
 62
     0
440
 16777216
100
AcDbPoint
 10
1880.791387383866
 20
3531.092559194899
 30
0.0
  0
POINT
  5
8068
330
7D17
100
AcDbEntity
  8
DEFPOINTS
 62
     0
440
 16777216
100
AcDbPoint
 10
1164.698938296647
 20
2911.0925591949
 30
0.0
  0
POINT
  5
8069
330
7D17
100
AcDbEntity
  8
DEFPOINTS
 62
     0
440
 16777216
100
AcDbPoint
 10
1076.30403375395
 20
2911.0925591949
 30
0.0
  0
ENDBLK
  5
7E08
330
7D17
100
AcDbEntity
  8
0
100
AcDbBlockEnd
  0
BLOCK
  5
7EAC
330
7D23
100
AcDbEntity
  8
0
100
AcDbBlockBegin
  2
*D6
 70
     1
 10
0.0
 20
0.0
 30
0.0
  3
*D6
  1

  0
LINE
  5
806A
330
7D23
100
AcDbEntity
  8
3
 62
     2
440
 16777216
100
AcDbLine
 10
1244.291387383866
 20
2844.0925591949
 30
0.0
 11
1244.291387383866
 21
3879.506360823564
 31
0.0
  0
LINE
  5
806B
330
7D23
100
AcDbEntity
  8
3
 62
     2
440
 16777216
100
AcDbLine
 10
1812.291387383866
 20
3849.506360823565
 30
0.0
 11
1319.291387383866
 21
3849.506360823565
 31
0.0
  0
INSERT
  5
806C
330
7D23
100
AcDbEntity
  8
3
 62
     2
440
 16777216
100
AcDbBlockReference
  2
ARROW
 10
1887.291387383866
 20
3849.506360823565
 30
0.0
 41
75.0
 42
75.0
 43
75.0
  0
INSERT
  5
806D
330
7D23
100
AcDbEntity
  8
3
 62
     2
440
 16777216
100
AcDbBlockReference
  2
ARROW
 10
1244.291387383866
 20
3849.506360823565
 30
0.0
 41
75.0
 42
75.0
 43
75.0
 50
180.0
  0
MTEXT
  5
806E
330
7D23
100
AcDbEntity
  8
3
 62
     2
440
 16777216
100
AcDbMText
 10
1565.791387383866
 20
3924.506360823565
 30
0.0
 40
90.0
 41
0.0
 46
0.0
 71
     5
 72
     5
  1
\A1;643
 73
     1
 44
1.0
  0
POINT
  5
806F
330
7D23
100
AcDbEntity
  8
DEFPOINTS
 62
     0
440
 16777216
100
AcDbPoint
 10
1887.291387383866
 20
3567.347897973446
 30
0.0
  0
POINT
  5
8070
330
7D23
100
AcDbEntity
  8
DEFPOINTS
 62
     0
440
 16777216
100
AcDbPoint
 10
1244.291387383866
 20
2844.0925591949
 30
0.0
  0
POINT
  5
8071
330
7D23
100
AcDbEntity
  8
DEFPOINTS
 62
     0
440
 16777216
100
AcDbPoint
 10
1244.291387383866
 20
3849.506360823565
 30
0.0
  0
ENDBLK
  5
7EB5
330
7D23
100
AcDbEntity
  8
0
100
AcDbBlockEnd
  0
BLOCK
  5
7E13
330
7D2E
100
AcDbEntity
  8
0
100
AcDbBlockBegin
  2
*D7
 70
     1
 10
0.0
 20
0.0
 30
0.0
  3
*D7
  1

  0
LINE
  5
8072
330
7D2E
100
AcDbEntity
  8
3
 62
     2
440
 16777216
100
AcDbLine
 10
2447.291387383864
 20
6517.965017524321
 30
0.0
 11
2447.291387383864
 21
6846.047573119307
 31
0.0
  0
LINE
  5
8073
330
7D2E
100
AcDbEntity
  8
3
 62
     2
440
 16777216
100
AcDbLine
 10
1327.291387383864
 20
6517.965017524321
 30
0.0
 11
1327.291387383864
 21
6846.047573119307
 31
0.0
  0
LINE
  5
8074
330
7D2E
100
AcDbEntity
  8
3
 62
     2
440
 16777216
100
AcDbLine
 10
2372.291387383864
 20
6816.047573119307
 30
0.0
 11
1402.291387383864
 21
6816.047573119307
 31
0.0
  0
INSERT
  5
8075
330
7D2E
100
AcDbEntity
  8
3
 62
     2
440
 16777216
100
AcDbBlockReference
  2
ARROW
 10
2447.291387383864
 20
6816.047573119307
 30
0.0
 41
75.0
 42
75.0
 43
75.0
  0
INSERT
  5
8076
330
7D2E
100
AcDbEntity
  8
3
 62
     2
440
 16777216
100
AcDbBlockReference
  2
ARROW
 10
1327.291387383864
 20
6816.047573119307
 30
0.0
 41
75.0
 42
75.0
 43
75.0
 50
180.0
  0
MTEXT
  5
8077
330
7D2E
100
AcDbEntity
  8
3
 62
     2
440
 16777216
100
AcDbMText
 10
1887.291387383864
 20
6891.047573119307
 30
0.0
 40
90.0
 41
0.0
 46
0.0
 71
     5
 72
     5
  1
\A1;1120
 73
     1
 44
1.0
  0
POINT
  5
8078
330
7D2E
100
AcDbEntity
  8
DEFPOINTS
 62
     0
440
 16777216
100
AcDbPoint
 10
2447.291387383864
 20
6517.965017524321
 30
0.0
  0
POINT
  5
8079
330
7D2E
100
AcDbEntity
  8
DEFPOINTS
 62
     0
440
 16777216
100
AcDbPoint
 10
1327.291387383864
 20
6517.965017524321
 30
0.0
  0
POINT
  5
807A
330
7D2E
100
AcDbEntity
  8
DEFPOINTS
 62
     0
440
 16777216
100
AcDbPoint
 10
1327.291387383864
 20
6816.047573119307
 30
0.0
  0
ENDBLK
  5
7E1D
330
7D2E
100
AcDbEntity
  8
0
100
AcDbBlockEnd
  0
BLOCK
  5
7E1E
330
7D3A
100
AcDbEntity
  8
0
100
AcDbBlockBegin
  2
*D8
 70
     1
 10
0.0
 20
0.0
 30
0.0
  3
*D8
  1

  0
LINE
  5
807B
330
7D3A
100
AcDbEntity
  8
3
 62
     2
440
 16777216
100
AcDbLine
 10
3327.291387383866
 20
5017.96501752432
 30
0.0
 11
3327.291387383866
 21
4591.925593105003
 31
0.0
  0
LINE
  5
807C
330
7D3A
100
AcDbEntity
  8
3
 62
     2
440
 16777216
100
AcDbLine
 10
1327.291387383864
 20
5017.96501752432
 30
0.0
 11
1327.291387383864
 21
4591.925593105003
 31
0.0
  0
LINE
  5
807D
330
7D3A
100
AcDbEntity
  8
3
 62
     2
440
 16777216
100
AcDbLine
 10
3252.291387383865
 20
4621.925593105003
 30
0.0
 11
1402.291387383864
 21
4621.925593105003
 31
0.0
  0
INSERT
  5
807E
330
7D3A
100
AcDbEntity
  8
3
 62
     2
440
 16777216
100
AcDbBlockReference
  2
ARROW
 10
3327.291387383866
 20
4621.925593105003
 30
0.0
 41
75.0
 42
75.0
 43
75.0
  0
INSERT
  5
807F
330
7D3A
100
AcDbEntity
  8
3
 62
     2
440
 16777216
100
AcDbBlockReference
  2
ARROW
 10
1327.291387383864
 20
4621.925593105003
 30
0.0
 41
75.0
 42
75.0
 43
75.0
 50
180.0
  0
MTEXT
  5
8080
330
7D3A
100
AcDbEntity
  8
3
 62
     2
440
 16777216
100
AcDbMText
 10
2327.291387383866
 20
4696.925593105002
 30
0.0
 40
90.0
 41
0.0
 46
0.0
 71
     5
 72
     5
  1
\A1;2000
 73
     1
 44
1.0
  0
POINT
  5
8081
330
7D3A
100
AcDbEntity
  8
DEFPOINTS
 62
     0
440
 16777216
100
AcDbPoint
 10
3327.291387383866
 20
5017.96501752432
 30
0.0
  0
POINT
  5
8082
330
7D3A
100
AcDbEntity
  8
DEFPOINTS
 62
     0
440
 16777216
100
AcDbPoint
 10
1327.291387383864
 20
5017.96501752432
 30
0.0
  0
POINT
  5
8083
330
7D3A
100
AcDbEntity
  8
DEFPOINTS
 62
     0
440
 16777216
100
AcDbPoint
 10
1327.291387383864
 20
4621.925593105003
 30
0.0
  0
ENDBLK
  5
7E28
330
7D3A
100
AcDbEntity
  8
0
100
AcDbBlockEnd
  0
BLOCK
  5
7E29
330
7D46
100
AcDbEntity
  8
0
100
AcDbBlockBegin
  2
*D9
 70
     1
 10
0.0
 20
0.0
 30
0.0
  3
*D9
  1

  0
LINE
  5
8084
330
7D46
100
AcDbEntity
  8
3
 62
     2
440
 16777216
100
AcDbLine
 10
1327.291387383864
 20
6517.965017524321
 30
0.0
 11
997.9871411539502
 21
6517.965017524321
 31
0.0
  0
LINE
  5
8085
330
7D46
100
AcDbEntity
  8
3
 62
     2
440
 16777216
100
AcDbLine
 10
1327.291387383864
 20
5017.96501752432
 30
0.0
 11
997.9871411539498
 21
5017.96501752432
 31
0.0
  0
LINE
  5
8086
330
7D46
100
AcDbEntity
  8
3
 62
     2
440
 16777216
100
AcDbLine
 10
1027.98714115395
 20
6442.965017524321
 30
0.0
 11
1027.98714115395
 21
5092.965017524321
 31
0.0
  0
INSERT
  5
8087
330
7D46
100
AcDbEntity
  8
3
 62
     2
440
 16777216
100
AcDbBlockReference
  2
ARROW
 10
1027.98714115395
 20
6517.965017524321
 30
0.0
 41
75.0
 42
75.0
 43
75.0
 50
90.0
  0
INSERT
  5
8088
330
7D46
100
AcDbEntity
  8
3
 62
     2
440
 16777216
100
AcDbBlockReference
  2
ARROW
 10
1027.98714115395
 20
5017.96501752432
 30
0.0
 41
75.0
 42
75.0
 43
75.0
 50
270.0
  0
MTEXT
  5
8089
330
7D46
100
AcDbEntity
  8
3
 62
     2
440
 16777216
100
AcDbMText
 10
952.987141153949
 20
5767.96501752432
 30
0.0
 40
90.0
 41
0.0
 46
0.0
 71
     5
 72
     5
  1
\A1;1500
 11
0.0000000000000001
 21
1.0
 31
0.0
 73
     1
 44
1.0
  0
POINT
  5
808A
330
7D46
100
AcDbEntity
  8
DEFPOINTS
 62
     0
440
 16777216
100
AcDbPoint
 10
1327.291387383864
 20
6517.965017524321
 30
0.0
  0
POINT
  5
808B
330
7D46
100
AcDbEntity
  8
DEFPOINTS
 62
     0
440
 16777216
100
AcDbPoint
 10
1327.291387383864
 20
5017.96501752432
 30
0.0
  0
POINT
  5
808C
330
7D46
100
AcDbEntity
  8
DEFPOINTS
 62
     0
440
 16777216
100
AcDbPoint
 10
1027.98714115395
 20
5017.96501752432
 30
0.0
  0
ENDBLK
  5
7E33
330
7D46
100
AcDbEntity
  8
0
100
AcDbBlockEnd
  0
BLOCK
  5
7E34
330
7D52
100
AcDbEntity
  8
0
100
AcDbBlockBegin
  2
*D10
 70
     1
 10
0.0
 20
0.0
 30
0.0
  3
*D10
  1

  0
LINE
  5
808D
330
7D52
100
AcDbEntity
  8
3
 62
     2
440
 16777216
100
AcDbLine
 10
3327.291387383866
 20
5867.96501752432
 30
0.0
 11
3327.291387383866
 21
6846.047573119307
 31
0.0
  0
LINE
  5
808E
330
7D52
100
AcDbEntity
  8
3
 62
     2
440
 16777216
100
AcDbLine
 10
2447.291387383864
 20
6517.965017524321
 30
0.0
 11
2447.291387383864
 21
6846.047573119307
 31
0.0
  0
LINE
  5
808F
330
7D52
100
AcDbEntity
  8
3
 62
     2
440
 16777216
100
AcDbLine
 10
3252.291387383865
 20
6816.047573119307
 30
0.0
 11
2522.291387383865
 21
6816.047573119307
 31
0.0
  0
INSERT
  5
8090
330
7D52
100
AcDbEntity
  8
3
 62
     2
440
 16777216
100
AcDbBlockReference
  2
ARROW
 10
3327.291387383866
 20
6816.047573119307
 30
0.0
 41
75.0
 42
75.0
 43
75.0
  0
INSERT
  5
8091
330
7D52
100
AcDbEntity
  8
3
 62
     2
440
 16777216
100
AcDbBlockReference
  2
ARROW
 10
2447.291387383864
 20
6816.047573119307
 30
0.0
 41
75.0
 42
75.0
 43
75.0
 50
180.0
  0
MTEXT
  5
8092
330
7D52
100
AcDbEntity
  8
3
 62
     2
440
 16777216
100
AcDbMText
 10
2887.291387383865
 20
6891.047573119307
 30
0.0
 40
90.0
 41
0.0
 46
0.0
 71
     5
 72
     5
  1
\A1;880
 73
     1
 44
1.0
  0
POINT
  5
8093
330
7D52
100
AcDbEntity
  8
DEFPOINTS
 62
     0
440
 16777216
100
AcDbPoint
 10
3327.291387383866
 20
5867.96501752432
 30
0.0
  0
POINT
  5
8094
330
7D52
100
AcDbEntity
  8
DEFPOINTS
 62
     0
440
 16777216
100
AcDbPoint
 10
2447.291387383864
 20
6517.965017524321
 30
0.0
  0
POINT
  5
8095
330
7D52
100
AcDbEntity
  8
DEFPOINTS
 62
     0
440
 16777216
100
AcDbPoint
 10
2447.291387383864
 20
6816.047573119307
 30
0.0
  0
ENDBLK
  5
7E3E
330
7D52
100
AcDbEntity
  8
0
100
AcDbBlockEnd
  0
BLOCK
  5
7E3F
330
7D5E
100
AcDbEntity
  8
0
100
AcDbBlockBegin
  2
*D11
 70
     1
 10
0.0
 20
0.0
 30
0.0
  3
*D11
  1

  0
LINE
  5
8096
330
7D5E
100
AcDbEntity
  8
3
 62
     2
440
 16777216
100
AcDbLine
 10
3327.291387383866
 20
5867.965017524319
 30
0.0
 11
3655.274992467712
 21
5867.965017524319
 31
0.0
  0
LINE
  5
8097
330
7D5E
100
AcDbEntity
  8
3
 62
     2
440
 16777216
100
AcDbLine
 10
3327.291387383866
 20
5017.96501752432
 30
0.0
 11
3655.274992467712
 21
5017.96501752432
 31
0.0
  0
LINE
  5
8098
330
7D5E
100
AcDbEntity
  8
3
 62
     2
440
 16777216
100
AcDbLine
 10
3625.274992467713
 20
5792.96501752432
 30
0.0
 11
3625.274992467712
 21
5092.965017524321
 31
0.0
  0
INSERT
  5
8099
330
7D5E
100
AcDbEntity
  8
3
 62
     2
440
 16777216
100
AcDbBlockReference
  2
ARROW
 10
3625.274992467713
 20
5867.965017524319
 30
0.0
 41
75.0
 42
75.0
 43
75.0
 50
90.0
  0
INSERT
  5
809A
330
7D5E
100
AcDbEntity
  8
3
 62
     2
440
 16777216
100
AcDbBlockReference
  2
ARROW
 10
3625.274992467712
 20
5017.96501752432
 30
0.0
 41
75.0
 42
75.0
 43
75.0
 50
270.0
  0
MTEXT
  5
809B
330
7D5E
100
AcDbEntity
  8
3
 62
     2
440
 16777216
100
AcDbMText
 10
3550.274992467711
 20
5442.96501752432
 30
0.0
 40
90.0
 41
0.0
 46
0.0
 71
     5
 72
     5
  1
\A1;850
 11
0.0000000000000001
 21
1.0
 31
0.0
 73
     1
 44
1.0
  0
POINT
  5
809C
330
7D5E
100
AcDbEntity
  8
DEFPOINTS
 62
     0
440
 16777216
100
AcDbPoint
 10
3327.291387383866
 20
5867.965017524319
 30
0.0
  0
POINT
  5
809D
330
7D5E
100
AcDbEntity
  8
DEFPOINTS
 62
     0
440
 16777216
100
AcDbPoint
 10
3327.291387383866
 20
5017.96501752432
 30
0.0
  0
POINT
  5
809E
330
7D5E
100
AcDbEntity
  8
DEFPOINTS
 62
     0
440
 16777216
100
AcDbPoint
 10
3625.274992467712
 20
5017.96501752432
 30
0.0
  0
ENDBLK
  5
7E49
330
7D5E
100
AcDbEntity
  8
0
100
AcDbBlockEnd
  0
BLOCK
  5
7E4A
330
7D6A
100
AcDbEntity
  8
0
100
AcDbBlockBegin
  2
*D12
 70
     1
 10
0.0
 20
0.0
 30
0.0
  3
*D12
  1

  0
LINE
  5
809F
330
7D6A
100
AcDbEntity
  8
3
 62
     2
440
 16777216
100
AcDbLine
 10
5471.392396101392
 20
2461.092559194899
 30
0.0
 11
5787.725947091665
 21
2461.092559194899
 31
0.0
  0
LINE
  5
80A0
330
7D6A
100
AcDbEntity
  8
3
 62
     2
440
 16777216
100
AcDbLine
 10
5471.392396101392
 20
3361.0925591949
 30
0.0
 11
5787.725947091665
 21
3361.0925591949
 31
0.0
  0
LINE
  5
80A1
330
7D6A
100
AcDbEntity
  8
3
 62
     2
440
 16777216
100
AcDbLine
 10
5757.725947091665
 20
2536.0925591949
 30
0.0
 11
5757.725947091665
 21
3286.0925591949
 31
0.0
  0
INSERT
  5
80A2
330
7D6A
100
AcDbEntity
  8
3
 62
     2
440
 16777216
100
AcDbBlockReference
  2
ARROW
 10
5757.725947091665
 20
2461.092559194899
 30
0.0
 41
75.0
 42
75.0
 43
75.0
 50
270.0
  0
INSERT
  5
80A3
330
7D6A
100
AcDbEntity
  8
3
 62
     2
440
 16777216
100
AcDbBlockReference
  2
ARROW
 10
5757.725947091665
 20
3361.0925591949
 30
0.0
 41
75.0
 42
75.0
 43
75.0
 50
90.0
  0
MTEXT
  5
80A4
330
7D6A
100
AcDbEntity
  8
3
 62
     2
440
 16777216
100
AcDbMText
 10
5682.725947091665
 20
2911.092559194901
 30
0.0
 40
90.0
 41
0.0
 46
0.0
 71
     5
 72
     5
  1
\A1;φ900
 11
0.0000000000000001
 21
1.0
 31
0.0
 73
     1
 44
1.0
  0
POINT
  5
80A5
330
7D6A
100
AcDbEntity
  8
DEFPOINTS
 62
     0
440
 16777216
100
AcDbPoint
 10
5471.392396101392
 20
2461.092559194899
 30
0.0
  0
POINT
  5
80A6
330
7D6A
100
AcDbEntity
  8
DEFPOINTS
 62
     0
440
 16777216
100
AcDbPoint
 10
5471.392396101392
 20
3361.0925591949
 30
0.0
  0
POINT
  5
80A7
330
7D6A
100
AcDbEntity
  8
DEFPOINTS
 62
     0
440
 16777216
100
AcDbPoint
 10
5757.725947091665
 20
3361.0925591949
 30
0.0
  0
ENDBLK
  5
7E54
330
7D6A
100
AcDbEntity
  8
0
100
AcDbBlockEnd
  0
BLOCK
  5
7E82
330
7D9A
100
AcDbEntity
  8
0
100
AcDbBlockBegin
  2
*D13
 70
     1
 10
0.0
 20
0.0
 30
0.0
  3
*D13
  1

  0
LINE
  5
80A8
330
7D9A
100
AcDbEntity
  8
3
 62
     2
440
 16777216
100
AcDbLine
 10
4285.892396101391
 20
3531.092559194899
 30
0.0
 11
4285.892396101391
 21
3683.66250512382
 31
0.0
  0
LINE
  5
80A9
330
7D9A
100
AcDbEntity
  8
3
 62
     2
440
 16777216
100
AcDbLine
 10
5465.892396101391
 20
3531.092559194899
 30
0.0
 11
5465.892396101391
 21
3683.66250512382
 31
0.0
  0
LINE
  5
80AA
330
7D9A
100
AcDbEntity
  8
3
 62
     2
440
 16777216
100
AcDbLine
 10
4360.892396101391
 20
3653.662505123821
 30
0.0
 11
5390.892396101392
 21
3653.662505123821
 31
0.0
  0
INSERT
  5
80AB
330
7D9A
100
AcDbEntity
  8
3
 62
     2
440
 16777216
100
AcDbBlockReference
  2
ARROW
 10
4285.892396101391
 20
3653.662505123821
 30
0.0
 41
75.0
 42
75.0
 43
75.0
 50
180.0
  0
INSERT
  5
80AC
330
7D9A
100
AcDbEntity
  8
3
 62
     2
440
 16777216
100
AcDbBlockReference
  2
ARROW
 10
5465.892396101391
 20
3653.662505123821
 30
0.0
 41
75.0
 42
75.0
 43
75.0
  0
MTEXT
  5
80AD
330
7D9A
100
AcDbEntity
  8
3
 62
     2
440
 16777216
100
AcDbMText
 10
4875.892396101392
 20
3728.66250512382
 30
0.0
 40
90.0
 41
0.0
 46
0.0
 71
     5
 72
     5
  1
\A1;1180
 73
     1
 44
1.0
  0
POINT
  5
80AE
330
7D9A
100
AcDbEntity
  8
DEFPOINTS
 62
     0
440
 16777216
100
AcDbPoint
 10
4285.892396101391
 20
3531.092559194899
 30
0.0
  0
POINT
  5
80AF
330
7D9A
100
AcDbEntity
  8
DEFPOINTS
 62
     0
440
 16777216
100
AcDbPoint
 10
5465.892396101391
 20
3531.092559194899
 30
0.0
  0
POINT
  5
80B0
330
7D9A
100
AcDbEntity
  8
DEFPOINTS
 62
     0
440
 16777216
100
AcDbPoint
 10
5465.892396101391
 20
3653.662505123821
 30
0.0
  0
ENDBLK
  5
7E8C
330
7D9A
100
AcDbEntity
  8
0
100
AcDbBlockEnd
  0
BLOCK
  5
7ED8
330
7ED7
100
AcDbEntity
  8
0
100
AcDbBlockBegin
  2
_OPEN
 70
     0
 10
0.0
 20
0.0
 30
0.0
  3
_OPEN
  1

  0
LINE
  5
7ED9
330
7ED7
100
AcDbEntity
  8
0
  6
ByBlock
 62
     0
100
AcDbLine
 10
-1.0
 20
0.1666666666666666
 30
0.0
 11
0.0
 21
0.0
 31
0.0
  0
LINE
  5
7EDA
330
7ED7
100
AcDbEntity
  8
0
  6
ByBlock
 62
     0
100
AcDbLine
 10
0.0
 20
0.0
 30
0.0
 11
-1.0
 21
-0.1666666666666666
 31
0.0
  0
LINE
  5
7EDB
330
7ED7
100
AcDbEntity
  8
0
  6
ByBlock
 62
     0
100
AcDbLine
 10
0.0
 20
0.0
 30
0.0
 11
-1.0
 21
0.0
 31
0.0
  0
ENDBLK
  5
7EDC
330
7ED7
100
AcDbEntity
  8
0
100
AcDbBlockEnd
  0
BLOCK
  5
7F59
330
7F53
100
AcDbEntity
  8
0
100
AcDbBlockBegin
  2
_DOT
 70
     0
 10
0.0
 20
0.0
 30
0.0
  3
_DOT
  1

  0
LWPOLYLINE
  5
7F54
330
7F53
100
AcDbEntity
  8
0
  6
ByBlock
 62
     0
100
AcDbPolyline
 90
        2
 70
     1
 43
0.25
 10
-0.125
 20
0.0
 42
1.0
 10
0.125
 20
0.0
 42
1.0
  0
LINE
  5
7F58
330
7F53
100
AcDbEntity
  8
0
  6
ByBlock
 62
     0
100
AcDbLine
 10
-0.25
 20
0.0
 30
0.0
 11
-1.0
 21
0.0
 31
0.0
  0
ENDBLK
  5
7F5A
330
7F53
100
AcDbEntity
  8
0
100
AcDbBlockEnd
  0
BLOCK
  5
7FA3
330
7FA2
100
AcDbEntity
  8
0
100
AcDbBlockBegin
  2
_NONE
 70
     0
 10
0.0
 20
0.0
 30
0.0
  3
_NONE
  1

  0
CIRCLE
  5
7FA4
330
7FA2
100
AcDbEntity
  8
0
  6
ByBlock
 62
     0
100
AcDbCircle
 10
0.0
 20
0.0
 30
0.0
 40
0.25
  0
ENDBLK
  5
7FA5
330
7FA2
100
AcDbEntity
  8
0
100
AcDbBlockEnd
  0
BLOCK
  5
7FC0
330
7FBF
100
AcDbEntity
  8
0
100
AcDbBlockBegin
  2
*D17
 70
     1
 10
0.0
 20
0.0
 30
0.0
  3
*D17
  1

  0
LINE
  5
7FC1
330
7FBF
100
AcDbEntity
  8
0
  6
ByBlock
 62
     0
440
 16777216
100
AcDbLine
 10
1327.291387383864
 20
2076.092559194899
 30
0.0
 11
1327.291387383864
 21
1874.298510860455
 31
0.0
  0
LINE
  5
7FC2
330
7FBF
100
AcDbEntity
  8
0
  6
ByBlock
 62
     0
440
 16777216
100
AcDbLine
 10
1887.291387383866
 20
2076.0925591949
 30
0.0
 11
1887.291387383866
 21
1874.298510860455
 31
0.0
  0
LINE
  5
7FC3
330
7FBF
100
AcDbEntity
  8
0
  6
ByBlock
 62
     0
440
 16777216
100
AcDbLine
 10
1387.291387383864
 20
1904.298510860455
 30
0.0
 11
1827.291387383866
 21
1904.298510860455
 31
0.0
  0
INSERT
  5
7FC4
330
7FBF
100
AcDbEntity
  8
0
  6
ByBlock
 62
     0
440
 16777216
100
AcDbBlockReference
  2
_OPEN
 10
1327.291387383864
 20
1904.298510860455
 30
0.0
 41
60.0
 42
60.0
 43
60.0
 50
180.0
  0
INSERT
  5
7FC5
330
7FBF
100
AcDbEntity
  8
0
  6
ByBlock
 62
     0
440
 16777216
100
AcDbBlockReference
  2
_OPEN
 10
1887.291387383866
 20
1904.298510860455
 30
0.0
 41
60.0
 42
60.0
 43
60.0
  0
MTEXT
  5
7FC6
330
7FBF
100
AcDbEntity
  8
0
  6
ByBlock
 62
     0
440
 16777216
100
AcDbMText
 10
1607.291387383865
 20
1979.298510860455
 30
0.0
 40
90.0
 41
0.0
 46
0.0
 71
     5
 72
     5
  1
\A1;560
 73
     1
 44
1.0
  0
POINT
  5
7FC7
330
7FBF
100
AcDbEntity
  8
DEFPOINTS
  6
ByBlock
 62
     0
440
 16777216
100
AcDbPoint
 10
1327.291387383864
 20
2091.092559194899
 30
0.0
  0
POINT
  5
7FC8
330
7FBF
100
AcDbEntity
  8
DEFPOINTS
  6
ByBlock
 62
     0
440
 16777216
100
AcDbPoint
 10
1887.291387383866
 20
2091.0925591949
 30
0.0
  0
POINT
  5
7FC9
330
7FBF
100
AcDbEntity
  8
DEFPOINTS
  6
ByBlock
 62
     0
440
 16777216
100
AcDbPoint
 10
1887.291387383866
 20
1904.298510860455
 30
0.0
  0
ENDBLK
  5
7FCA
330
7FBF
100
AcDbEntity
  8
0
100
AcDbBlockEnd
  0
BLOCK
  5
7FCD
330
7FCC
100
AcDbEntity
  8
0
100
AcDbBlockBegin
  2
*D18
 70
     1
 10
0.0
 20
0.0
 30
0.0
  3
*D18
  1

  0
LINE
  5
7FCE
330
7FCC
100
AcDbEntity
  8
0
  6
ByBlock
 62
     0
440
 16777216
100
AcDbLine
 10
1887.291387383866
 20
2076.0925591949
 30
0.0
 11
1887.291387383866
 21
1874.298510860455
 31
0.0
  0
LINE
  5
7FCF
330
7FCC
100
AcDbEntity
  8
0
  6
ByBlock
 62
     0
440
 16777216
100
AcDbLine
 10
3327.291387383865
 20
2076.0925591949
 30
0.0
 11
3327.291387383865
 21
1874.298510860455
 31
0.0
  0
LINE
  5
7FD0
330
7FCC
100
AcDbEntity
  8
0
  6
ByBlock
 62
     0
440
 16777216
100
AcDbLine
 10
1947.291387383866
 20
1904.298510860455
 30
0.0
 11
3267.291387383865
 21
1904.298510860455
 31
0.0
  0
INSERT
  5
7FD1
330
7FCC
100
AcDbEntity
  8
0
  6
ByBlock
 62
     0
440
 16777216
100
AcDbBlockReference
  2
_OPEN
 10
1887.291387383866
 20
1904.298510860455
 30
0.0
 41
60.0
 42
60.0
 43
60.0
 50
180.0
  0
INSERT
  5
7FD2
330
7FCC
100
AcDbEntity
  8
0
  6
ByBlock
 62
     0
440
 16777216
100
AcDbBlockReference
  2
_OPEN
 10
3327.291387383865
 20
1904.298510860455
 30
0.0
 41
60.0
 42
60.0
 43
60.0
  0
MTEXT
  5
7FD3
330
7FCC
100
AcDbEntity
  8
0
  6
ByBlock
 62
     0
440
 16777216
100
AcDbMText
 10
2607.291387383865
 20
1979.298510860455
 30
0.0
 40
90.0
 41
0.0
 46
0.0
 71
     5
 72
     5
  1
\A1;1440
 73
     1
 44
1.0
  0
POINT
  5
7FD4
330
7FCC
100
AcDbEntity
  8
DEFPOINTS
  6
ByBlock
 62
     0
440
 16777216
100
AcDbPoint
 10
1887.291387383866
 20
2091.0925591949
 30
0.0
  0
POINT
  5
7FD5
330
7FCC
100
AcDbEntity
  8
DEFPOINTS
  6
ByBlock
 62
     0
440
 16777216
100
AcDbPoint
 10
3327.291387383865
 20
2091.0925591949
 30
0.0
  0
POINT
  5
7FD6
330
7FCC
100
AcDbEntity
  8
DEFPOINTS
  6
ByBlock
 62
     0
440
 16777216
100
AcDbPoint
 10
3327.291387383865
 20
1904.298510860455
 30
0.0
  0
ENDBLK
  5
7FD7
330
7FCC
100
AcDbEntity
  8
0
100
AcDbBlockEnd
  0
BLOCK
  5
7FDA
330
7FD9
100
AcDbEntity
  8
0
100
AcDbBlockBegin
  2
*D19
 70
     1
 10
0.0
 20
0.0
 30
0.0
  3
*D19
  1

  0
LINE
  5
7FDB
330
7FD9
100
AcDbEntity
  8
0
  6
ByBlock
 62
     0
440
 16777216
100
AcDbLine
 10
4033.89239610139
 20
2076.092559194899
 30
0.0
 11
4033.89239610139
 21
1874.298510860455
 31
0.0
  0
LINE
  5
7FDC
330
7FD9
100
AcDbEntity
  8
0
  6
ByBlock
 62
     0
440
 16777216
100
AcDbLine
 10
4875.892396101391
 20
2076.092559194899
 30
0.0
 11
4875.892396101391
 21
1874.298510860455
 31
0.0
  0
LINE
  5
7FDD
330
7FD9
100
AcDbEntity
  8
0
  6
ByBlock
 62
     0
440
 16777216
100
AcDbLine
 10
4093.892396101391
 20
1904.298510860455
 30
0.0
 11
4815.89239610139
 21
1904.298510860455
 31
0.0
  0
INSERT
  5
7FDE
330
7FD9
100
AcDbEntity
  8
0
  6
ByBlock
 62
     0
440
 16777216
100
AcDbBlockReference
  2
_OPEN
 10
4033.89239610139
 20
1904.298510860455
 30
0.0
 41
60.0
 42
60.0
 43
60.0
 50
180.0
  0
INSERT
  5
7FDF
330
7FD9
100
AcDbEntity
  8
0
  6
ByBlock
 62
     0
440
 16777216
100
AcDbBlockReference
  2
_OPEN
 10
4875.892396101391
 20
1904.298510860455
 30
0.0
 41
60.0
 42
60.0
 43
60.0
  0
MTEXT
  5
7FE0
330
7FD9
100
AcDbEntity
  8
0
  6
ByBlock
 62
     0
440
 16777216
100
AcDbMText
 10
4454.89239610139
 20
1979.298510860455
 30
0.0
 40
90.0
 41
0.0
 46
0.0
 71
     5
 72
     5
  1
\A1;842
 73
     1
 44
1.0
  0
POINT
  5
7FE1
330
7FD9
100
AcDbEntity
  8
DEFPOINTS
  6
ByBlock
 62
     0
440
 16777216
100
AcDbPoint
 10
4033.89239610139
 20
2091.092559194899
 30
0.0
  0
POINT
  5
7FE2
330
7FD9
100
AcDbEntity
  8
DEFPOINTS
  6
ByBlock
 62
     0
440
 16777216
100
AcDbPoint
 10
4875.892396101391
 20
2091.092559194899
 30
0.0
  0
POINT
  5
7FE3
330
7FD9
100
AcDbEntity
  8
DEFPOINTS
  6
ByBlock
 62
     0
440
 16777216
100
AcDbPoint
 10
4875.892396101391
 20
1904.298510860455
 30
0.0
  0
ENDBLK
  5
7FE4
330
7FD9
100
AcDbEntity
  8
0
100
AcDbBlockEnd
  0
BLOCK
  5
7FE7
330
7FE6
100
AcDbEntity
  8
0
100
AcDbBlockBegin
  2
*D20
 70
     1
 10
0.0
 20
0.0
 30
0.0
  3
*D20
  1

  0
LINE
  5
7FE8
330
7FE6
100
AcDbEntity
  8
0
  6
ByBlock
 62
     0
440
 16777216
100
AcDbLine
 10
4875.892396101391
 20
2076.092559194899
 30
0.0
 11
4875.892396101391
 21
1874.298510860455
 31
0.0
  0
LINE
  5
7FE9
330
7FE6
100
AcDbEntity
  8
0
  6
ByBlock
 62
     0
440
 16777216
100
AcDbLine
 10
5533.892396101392
 20
2076.092559194899
 30
0.0
 11
5533.892396101392
 21
1874.298510860455
 31
0.0
  0
LINE
  5
7FEA
330
7FE6
100
AcDbEntity
  8
0
  6
ByBlock
 62
     0
440
 16777216
100
AcDbLine
 10
4935.89239610139
 20
1904.298510860455
 30
0.0
 11
5473.892396101391
 21
1904.298510860455
 31
0.0
  0
INSERT
  5
7FEB
330
7FE6
100
AcDbEntity
  8
0
  6
ByBlock
 62
     0
440
 16777216
100
AcDbBlockReference
  2
_OPEN
 10
4875.892396101391
 20
1904.298510860455
 30
0.0
 41
60.0
 42
60.0
 43
60.0
 50
180.0
  0
INSERT
  5
7FEC
330
7FE6
100
AcDbEntity
  8
0
  6
ByBlock
 62
     0
440
 16777216
100
AcDbBlockReference
  2
_OPEN
 10
5533.892396101392
 20
1904.298510860455
 30
0.0
 41
60.0
 42
60.0
 43
60.0
  0
MTEXT
  5
7FED
330
7FE6
100
AcDbEntity
  8
0
  6
ByBlock
 62
     0
440
 16777216
100
AcDbMText
 10
5204.892396101392
 20
1979.298510860455
 30
0.0
 40
90.0
 41
0.0
 46
0.0
 71
     5
 72
     5
  1
\A1;658
 73
     1
 44
1.0
  0
POINT
  5
7FEE
330
7FE6
100
AcDbEntity
  8
DEFPOINTS
  6
ByBlock
 62
     0
440
 16777216
100
AcDbPoint
 10
4875.892396101391
 20
2091.092559194899
 30
0.0
  0
POINT
  5
7FEF
330
7FE6
100
AcDbEntity
  8
DEFPOINTS
  6
ByBlock
 62
     0
440
 16777216
100
AcDbPoint
 10
5533.892396101392
 20
2091.092559194899
 30
0.0
  0
POINT
  5
7FF0
330
7FE6
100
AcDbEntity
  8
DEFPOINTS
  6
ByBlock
 62
     0
440
 16777216
100
AcDbPoint
 10
5533.892396101392
 20
1904.298510860455
 30
0.0
  0
ENDBLK
  5
7FF1
330
7FE6
100
AcDbEntity
  8
0
100
AcDbBlockEnd
  0
BLOCK
  5
7FF4
330
7FF3
100
AcDbEntity
  8
0
100
AcDbBlockBegin
  2
*D21
 70
     1
 10
0.0
 20
0.0
 30
0.0
  3
*D21
  1

  0
LINE
  5
7FF5
330
7FF3
100
AcDbEntity
  8
0
  6
ByBlock
 62
     0
440
 16777216
100
AcDbLine
 10
1865.791387383866
 20
3531.092559194899
 30
0.0
 11
863.7763956359522
 21
3531.092559194899
 31
0.0
  0
LINE
  5
7FF6
330
7FF3
100
AcDbEntity
  8
0
  6
ByBlock
 62
     0
440
 16777216
100
AcDbLine
 10
1312.291387383866
 20
2091.0925591949
 30
0.0
 11
863.7763956359522
 21
2091.0925591949
 31
0.0
  0
LINE
  5
7FF7
330
7FF3
100
AcDbEntity
  8
0
  6
ByBlock
 62
     0
440
 16777216
100
AcDbLine
 10
893.7763956359521
 20
3471.092559194899
 30
0.0
 11
893.7763956359521
 21
2151.0925591949
 31
0.0
  0
INSERT
  5
7FF8
330
7FF3
100
AcDbEntity
  8
0
  6
ByBlock
 62
     0
440
 16777216
100
AcDbBlockReference
  2
_OPEN
 10
893.7763956359521
 20
3531.092559194899
 30
0.0
 41
60.0
 42
60.0
 43
60.0
 50
90.0
  0
INSERT
  5
7FF9
330
7FF3
100
AcDbEntity
  8
0
  6
ByBlock
 62
     0
440
 16777216
100
AcDbBlockReference
  2
_OPEN
 10
893.7763956359521
 20
2091.0925591949
 30
0.0
 41
60.0
 42
60.0
 43
60.0
 50
270.0
  0
MTEXT
  5
7FFA
330
7FF3
100
AcDbEntity
  8
0
  6
ByBlock
 62
     0
440
 16777216
100
AcDbMText
 10
818.7763956359521
 20
2811.0925591949
 30
0.0
 40
90.0
 41
0.0
 46
0.0
 71
     5
 72
     5
  1
\A1;1440
 11
0.0
 21
1.0
 31
0.0
 73
     1
 44
1.0
  0
POINT
  5
7FFB
330
7FF3
100
AcDbEntity
  8
DEFPOINTS
  6
ByBlock
 62
     0
440
 16777216
100
AcDbPoint
 10
1880.791387383865
 20
3531.092559194899
 30
0.0
  0
POINT
  5
7FFC
330
7FF3
100
AcDbEntity
  8
DEFPOINTS
  6
ByBlock
 62
     0
440
 16777216
100
AcDbPoint
 10
1327.291387383866
 20
2091.0925591949
 30
0.0
  0
POINT
  5
7FFD
330
7FF3
100
AcDbEntity
  8
DEFPOINTS
  6
ByBlock
 62
     0
440
 16777216
100
AcDbPoint
 10
893.7763956359521
 20
2091.0925591949
 30
0.0
  0
ENDBLK
  5
7FFE
330
7FF3
100
AcDbEntity
  8
0
100
AcDbBlockEnd
  0
BLOCK
  5
8111
330
8110
100
AcDbEntity
  8
0
100
AcDbBlockBegin
  2
*D22
 70
     1
 10
0.0
 20
0.0
 30
0.0
  3
*D22
  1

  0
LINE
  5
816B
330
8110
100
AcDbEntity
  8
3
 62
     0
440
 16777216
370
    -2
100
AcDbLine
 10
3905.892396101389
 20
3146.0925591949
 30
0.0
 11
3905.892396101389
 21
4039.412318889568
 31
0.0
  0
LINE
  5
816C
330
8110
100
AcDbEntity
  8
3
 62
     0
440
 16777216
370
    -2
100
AcDbLine
 10
4875.892396101392
 20
3788.66250512382
 30
0.0
 11
4875.892396101392
 21
4039.412318889568
 31
0.0
  0
LINE
  5
816D
330
8110
100
AcDbEntity
  8
3
 62
     0
440
 16777216
370
    -2
100
AcDbLine
 10
3965.89239610139
 20
4009.412318889569
 30
0.0
 11
4815.892396101392
 21
4009.412318889569
 31
0.0
  0
INSERT
  5
816E
330
8110
100
AcDbEntity
  8
3
 62
     0
440
 16777216
370
    -2
100
AcDbBlockReference
  2
_OPEN
 10
3905.892396101389
 20
4009.412318889569
 30
0.0
 41
60.0
 42
60.0
 43
60.0
 50
180.0
  0
INSERT
  5
816F
330
8110
100
AcDbEntity
  8
3
 62
     0
440
 16777216
370
    -2
100
AcDbBlockReference
  2
_OPEN
 10
4875.892396101392
 20
4009.412318889569
 30
0.0
 41
60.0
 42
60.0
 43
60.0
  0
MTEXT
  5
8170
330
8110
100
AcDbEntity
  8
3
 62
     0
440
 16777216
100
AcDbMText
 10
4390.89239610139
 20
4107.983747460997
 30
0.0
 40
90.0
 41
0.0
 46
0.0
 71
     5
 72
     1
  1
\A1;(970)
 73
     1
 44
1.0
  0
POINT
  5
8171
330
8110
100
AcDbEntity
  8
DEFPOINTS
 62
     0
440
 16777216
100
AcDbPoint
 10
3905.892396101389
 20
3131.092559194899
 30
0.0
  0
POINT
  5
8172
330
8110
100
AcDbEntity
  8
DEFPOINTS
 62
     0
440
 16777216
100
AcDbPoint
 10
4875.892396101392
 20
3773.66250512382
 30
0.0
  0
POINT
  5
8173
330
8110
100
AcDbEntity
  8
DEFPOINTS
 62
     0
440
 16777216
100
AcDbPoint
 10
4875.892396101392
 20
4009.412318889569
 30
0.0
  0
ENDBLK
  5
8112
330
8110
100
AcDbEntity
  8
0
100
AcDbBlockEnd
  0
BLOCK
  5
811E
330
811D
100
AcDbEntity
  8
0
100
AcDbBlockBegin
  2
*D23
 70
     1
 10
0.0
 20
0.0
 30
0.0
  3
*D23
  1

  0
LINE
  5
8174
330
811D
100
AcDbEntity
  8
3
 62
     0
440
 16777216
370
    -2
100
AcDbLine
 10
4875.892396101392
 20
3788.66250512382
 30
0.0
 11
4875.892396101392
 21
4039.412318889568
 31
0.0
  0
LINE
  5
8175
330
811D
100
AcDbEntity
  8
3
 62
     0
440
 16777216
370
    -2
100
AcDbLine
 10
5595.39239610139
 20
2886.5925591949
 30
0.0
 11
5595.39239610139
 21
4039.412318889568
 31
0.0
  0
LINE
  5
8176
330
811D
100
AcDbEntity
  8
3
 62
     0
440
 16777216
370
    -2
100
AcDbLine
 10
4935.892396101391
 20
4009.412318889569
 30
0.0
 11
5535.392396101389
 21
4009.412318889569
 31
0.0
  0
INSERT
  5
8177
330
811D
100
AcDbEntity
  8
3
 62
     0
440
 16777216
370
    -2
100
AcDbBlockReference
  2
_OPEN
 10
4875.892396101392
 20
4009.412318889569
 30
0.0
 41
60.0
 42
60.0
 43
60.0
 50
180.0
  0
INSERT
  5
8178
330
811D
100
AcDbEntity
  8
3
 62
     0
440
 16777216
370
    -2
100
AcDbBlockReference
  2
_OPEN
 10
5595.39239610139
 20
4009.412318889569
 30
0.0
 41
60.0
 42
60.0
 43
60.0
  0
MTEXT
  5
8179
330
811D
100
AcDbEntity
  8
3
 62
     0
440
 16777216
100
AcDbMText
 10
5235.642396101391
 20
4107.983747460997
 30
0.0
 40
90.0
 41
0.0
 46
0.0
 71
     5
 72
     1
  1
\A1;(720)
 73
     1
 44
1.0
  0
POINT
  5
817A
330
811D
100
AcDbEntity
  8
DEFPOINTS
 62
     0
440
 16777216
100
AcDbPoint
 10
4875.892396101392
 20
3773.66250512382
 30
0.0
  0
POINT
  5
817B
330
811D
100
AcDbEntity
  8
DEFPOINTS
 62
     0
440
 16777216
100
AcDbPoint
 10
5595.39239610139
 20
2871.5925591949
 30
0.0
  0
POINT
  5
817C
330
811D
100
AcDbEntity
  8
DEFPOINTS
 62
     0
440
 16777216
100
AcDbPoint
 10
5595.39239610139
 20
4009.412318889569
 30
0.0
  0
ENDBLK
  5
811F
330
811D
100
AcDbEntity
  8
0
100
AcDbBlockEnd
  0
ENDSEC
  0
SECTION
  2
ENTITIES
  0
ARC
  5
7BDA
330
19
100
AcDbEntity
  8
1
 48
10.0
100
AcDbCircle
 10
1887.291387383866
 20
2911.0925591949
 30
0.0
 40
450.0
100
AcDbArc
 50
245.3056313963424
 51
294.6943686036576
  0
ARC
  5
7BDB
330
19
100
AcDbEntity
  8
1
 48
10.0
100
AcDbCircle
 10
1887.291387383866
 20
2911.0925591949
 30
0.0
 40
490.0
100
AcDbArc
 50
247.4385877197119
 51
292.5614122802881
  0
ARC
  5
7BDC
330
19
100
AcDbEntity
  8
1
 48
10.0
100
AcDbCircle
 10
1887.291387383866
 20
2911.0925591949
 30
0.0
 40
490.0
100
AcDbArc
 50
0.0
 51
180.0
  0
ARC
  5
7BDD
330
19
100
AcDbEntity
  8
1
 48
10.0
100
AcDbCircle
 10
1887.291387383866
 20
2911.0925591949
 30
0.0
 40
450.0
100
AcDbArc
 50
0.0
 51
180.0
  0
LINE
  5
7BDE
330
19
100
AcDbEntity
  8
2
100
AcDbLine
 10
1164.698938296647
 20
2911.0925591949
 30
0.0
 11
2895.558330299818
 21
2911.0925591949
 31
0.0
  0
ARC
  5
7BDF
330
19
100
AcDbEntity
  8
1
 48
10.0
100
AcDbCircle
 10
1954.291387383866
 20
2978.0925591949
 30
0.0
 40
844.0
100
AcDbArc
 50
295.4655994299652
 51
355.4468476127809
  0
LINE
  5
7BE0
330
19
100
AcDbEntity
  8
1
 48
10.0
100
AcDbLine
 10
2890.791387383866
 20
3531.092559194899
 30
0.0
 11
1880.791387383866
 21
3531.092559194899
 31
0.0
  0
LINE
  5
7BE1
330
19
100
AcDbEntity
  8
1
 48
10.0
100
AcDbLine
 10
2844.893738149476
 20
3491.0925591949
 30
0.0
 11
1923.291387383866
 21
3491.0925591949
 31
0.0
  0
LINE
  5
7BE2
330
19
100
AcDbEntity
  8
1
 48
10.0
100
AcDbLine
 10
2890.791387383866
 20
3528.092559194899
 30
0.0
 11
1880.791387383866
 21
3528.092559194899
 31
0.0
  0
LINE
  5
7BE3
330
19
100
AcDbEntity
  8
1
 48
10.0
100
AcDbLine
 10
3327.291387383865
 20
2091.0925591949
 30
0.0
 11
1327.291387383864
 21
2091.0925591949
 31
0.0
1001
ACAD
1000
ASC_BOUNDS
1002
{
1070
    19
1002
}
  0
LINE
  5
7BE4
330
19
100
AcDbEntity
  8
1
 48
10.0
100
AcDbLine
 10
3327.291387383865
 20
2216.092559194899
 30
0.0
 11
1327.291387383864
 21
2216.0925591949
 31
0.0
  0
DIMENSION
  5
7BE7
330
19
100
AcDbEntity
  8
3
 48
10.0
100
AcDbDimension
280
     0
  2
*D1
 10
1923.291387383866
 20
3680.707667638111
 30
0.0
 11
2385.791387383866
 21
3755.707667638111
 31
0.0
 70
    32
 71
     5
 42
-1.0
 73
     0
 74
     0
 75
     0
  3
DIA1
100
AcDbAlignedDimension
 13
2848.291387383866
 23
3531.092559194899
 33
0.0
 14
1923.291387383866
 24
3531.092559194899
 34
0.0
100
AcDbRotatedDimension
1001
ACAD
1000
DSTYLE
1002
{
1070
   287
1070
     3
1070
    40
1040
30.0
1070
    41
1040
2.5
1070
    42
1040
0.0
1070
   140
1040
3.0
1070
   147
1040
1.0
1070
   173
1070
     1
1070
   271
1070
     4
1070
   272
1070
     4
1070
   279
1070
     0
1070
   284
1070
     0
1070
   285
1070
     0
1070
   286
1070
     0
1070
     6
1000
ARROW
1070
     7
1000
ARROW
1002
}
  0
DIMENSION
  5
7BE8
330
19
100
AcDbEntity
  8
3
 48
10.0
100
AcDbDimension
280
     0
  2
*D2
 10
1887.291387383866
 20
3849.506360823565
 30
0.0
 11
2367.791387383866
 21
3924.506360823565
 31
0.0
 70
    32
 71
     5
 42
-1.0
 73
     0
 74
     0
 75
     0
  3
DIA1
100
AcDbAlignedDimension
 13
2848.291387383866
 23
3531.092559194899
 33
0.0
 14
1887.291387383866
 24
3567.347897973446
 34
0.0
100
AcDbRotatedDimension
1001
ACAD
1000
DSTYLE
1002
{
1070
   287
1070
     3
1070
    40
1040
30.0
1070
    41
1040
2.5
1070
    42
1040
0.0
1070
   140
1040
3.0
1070
   147
1040
1.0
1070
   173
1070
     1
1070
   271
1070
     4
1070
   272
1070
     4
1070
   279
1070
     0
1070
   284
1070
     0
1070
   285
1070
     0
1070
   286
1070
     0
1070
     6
1000
ARROW
1070
     7
1000
ARROW
1002
}
  0
LINE
  5
7BEB
330
19
100
AcDbEntity
  8
1
 48
10.0
100
AcDbLine
 10
1926.603087926511
 20
3023.411703602456
 30
0.0
 11
3126.603087926511
 21
2603.411703602456
 31
0.0
  0
LINE
  5
7BEC
330
19
100
AcDbEntity
  8
1
 48
10.0
100
AcDbLine
 10
1847.979686841221
 20
2798.773414787344
 30
0.0
 11
3047.979686841222
 21
2378.773414787343
 31
0.0
  0
LINE
  5
7BED
330
19
100
AcDbEntity
  8
1
 48
10.0
100
AcDbLine
 10
1814.614293943683
 20
2703.443720794376
 30
0.0
 11
3014.614293943683
 21
2283.443720794376
 31
0.0
  0
LINE
  5
7BEE
330
19
100
AcDbEntity
  8
1
 48
10.0
100
AcDbLine
 10
1959.968480824049
 20
3118.741397595423
 30
0.0
 11
3159.968480824049
 21
2698.741397595423
 31
0.0
  0
DIMENSION
  5
7BEF
330
19
100
AcDbEntity
  8
3
 48
10.0
100
AcDbDimension
280
     0
  2
*D3
 10
3327.291387383865
 20
4003.976862521996
 30
0.0
 11
2285.791387383865
 21
4078.976862521996
 31
0.0
 70
    32
 71
     5
 42
-1.0
 73
     0
 74
     0
 75
     0
  3
DIA1
100
AcDbAlignedDimension
 13
1244.291387383866
 23
2844.0925591949
 33
0.0
 14
3327.291387383865
 24
2216.092559194899
 34
0.0
100
AcDbRotatedDimension
1001
ACAD
1000
DSTYLE
1002
{
1070
   287
1070
     3
1070
    40
1040
30.0
1070
    41
1040
2.5
1070
    42
1040
0.0
1070
   140
1040
3.0
1070
   147
1040
1.0
1070
   173
1070
     1
1070
   271
1070
     4
1070
   272
1070
     4
1070
   279
1070
     0
1070
   284
1070
     0
1070
   285
1070
     0
1070
   286
1070
     0
1070
     6
1000
ARROW
1070
     7
1000
ARROW
1002
}
  0
LINE
  5
7BF0
330
19
100
AcDbEntity
  8
2
100
AcDbLine
 10
1887.291387383866
 20
3567.347897973446
 30
0.0
 11
1887.291387383866
 21
2091.0925591949
 31
0.0
  0
ARC
  5
7BF1
330
19
100
AcDbEntity
  8
1
 48
10.0
100
AcDbCircle
 10
1954.291387383866
 20
2844.0925591949
 30
0.0
 40
710.0
100
AcDbArc
 50
174.5851582938705
 51
242.1909186719969
  0
ARC
  5
7BF2
330
19
100
AcDbEntity
  8
1
 48
10.0
100
AcDbCircle
 10
1887.291387383866
 20
2911.0925591949
 30
0.0
 40
450.0
100
AcDbArc
 50
180.0
 51
243.612200038757
  0
ARC
  5
7BF3
330
19
100
AcDbEntity
  8
1
 48
10.0
100
AcDbCircle
 10
1887.291387383866
 20
2911.0925591949
 30
0.0
 40
490.0
100
AcDbArc
 50
180.0
 51
245.9104938882195
  0
DIMENSION
  5
7BF4
330
19
100
AcDbEntity
  8
3
 48
10.0
100
AcDbDimension
280
     0
  2
*D4
 10
1076.30403375395
 20
2091.0925591949
 30
0.0
 11
1001.30403375395
 21
2501.0925591949
 31
0.0
 70
    32
 71
     5
 42
-1.0
 73
     0
 74
     0
 75
     0
  3
DIA1
100
AcDbAlignedDimension
 13
1164.698938296647
 23
2911.0925591949
 33
0.0
 14
1327.291387383864
 24
2091.0925591949
 34
0.0
 50
90.0
100
AcDbRotatedDimension
1001
ACAD
1000
DSTYLE
1002
{
1070
   287
1070
     3
1070
    40
1040
30.0
1070
    41
1040
2.5
1070
    42
1040
0.0
1070
   140
1040
3.0
1070
   147
1040
1.0
1070
   173
1070
     1
1070
   271
1070
     4
1070
   272
1070
     4
1070
   279
1070
     0
1070
   284
1070
     0
1070
   285
1070
     0
1070
   286
1070
     0
1070
     6
1000
ARROW
1070
     7
1000
ARROW
1002
}
  0
LINE
  5
7BFA
330
19
100
AcDbEntity
  8
1
 48
10.0
100
AcDbLine
 10
1327.291387383866
 20
2216.0925591949
 30
0.0
 11
1327.291387383866
 21
2091.0925591949
 31
0.0
  0
POINT
  5
7C0E
330
19
100
AcDbEntity
  8
1
 48
10.0
100
AcDbPoint
 10
1327.291387383866
 20
2091.0925591949
 30
0.0
  0
POINT
  5
7C0F
330
19
100
AcDbEntity
  8
1
 48
10.0
100
AcDbPoint
 10
1327.291387383866
 20
2091.0925591949
 30
0.0
  0
DIMENSION
  5
7C10
330
19
100
AcDbEntity
  8
3
 48
10.0
100
AcDbDimension
280
     0
  2
*D5
 10
1076.30403375395
 20
2911.0925591949
 30
0.0
 11
1001.30403375395
 21
3221.0925591949
 31
0.0
 70
    32
 71
     5
 42
-1.0
 73
     0
 74
     0
 75
     0
  3
DIA1
100
AcDbAlignedDimension
 13
1880.791387383866
 23
3531.092559194899
 33
0.0
 14
1164.698938296647
 24
2911.0925591949
 34
0.0
 50
90.0
100
AcDbRotatedDimension
1001
ACAD
1000
DSTYLE
1002
{
1070
   287
1070
     3
1070
    40
1040
30.0
1070
    41
1040
2.5
1070
    42
1040
0.0
1070
   140
1040
3.0
1070
   147
1040
1.0
1070
   173
1070
     1
1070
   271
1070
     4
1070
   272
1070
     4
1070
   279
1070
     0
1070
   284
1070
     0
1070
   285
1070
     0
1070
   286
1070
     0
1070
     6
1000
ARROW
1070
     7
1000
ARROW
1002
}
  0
ARC
  5
7C11
330
19
100
AcDbEntity
  8
1
 48
10.0
100
AcDbCircle
 10
1833.791387383866
 20
2857.5925591949
 30
0.0
 40
589.5
100
AcDbArc
 50
84.7929639116505
 51
174.7929639116504
  0
DIMENSION
  5
7C12
330
19
100
AcDbEntity
  8
3
 48
10.0
100
AcDbDimension
280
     0
  2
*D6
 10
1244.291387383866
 20
3849.506360823565
 30
0.0
 11
1565.791387383866
 21
3924.506360823565
 31
0.0
 70
    32
 71
     5
 42
-1.0
 73
     0
 74
     0
 75
     0
  3
DIA1
100
AcDbAlignedDimension
 13
1887.291387383866
 23
3567.347897973446
 33
0.0
 14
1244.291387383866
 24
2844.0925591949
 34
0.0
100
AcDbRotatedDimension
1001
ACAD
1000
DSTYLE
1002
{
1070
   287
1070
     4
1070
    40
1040
30.0
1070
    41
1040
2.5
1070
    42
1040
0.0
1070
    75
1070
     1
1070
   140
1040
3.0
1070
   147
1040
1.0
1070
   173
1070
     1
1070
   271
1070
     4
1070
   272
1070
     4
1070
   279
1070
     1
1070
   284
1070
     0
1070
   285
1070
     0
1070
   286
1070
     0
1070
     6
1000
ARROW
1070
     7
1000
ARROW
1002
}
  0
LINE
  5
7C13
330
19
100
AcDbEntity
  8
1
 48
10.0
100
AcDbLine
 10
1337.291387383866
 20
3191.092559194899
 30
0.0
 11
1346.291387383866
 21
3191.092559194899
 31
0.0
  0
CIRCLE
  5
7C14
330
19
100
AcDbEntity
  8
1
 48
10.0
100
AcDbCircle
 10
1887.291387383866
 20
2911.0925591949
 30
0.0
 40
119.0
  0
ARC
  5
7C15
330
19
100
AcDbEntity
  8
1
 48
10.0
100
AcDbCircle
 10
1887.291387383866
 20
2911.0925591949
 30
0.0
 40
220.0
100
AcDbArc
 50
70.70995378081128
 51
250.7099537808113
  0
LINE
  5
7C16
330
19
100
AcDbEntity
  8
1
 48
10.0
100
AcDbLine
 10
1880.791387383866
 20
3531.092559194899
 30
0.0
 11
1880.791387383866
 21
3528.092559194899
 31
0.0
  0
LINE
  5
7C17
330
19
100
AcDbEntity
  8
1
 48
10.0
100
AcDbLine
 10
1923.291387383866
 20
3531.092559194899
 30
0.0
 11
1923.291387383866
 21
3438.719124575916
 31
0.0
  0
ARC
  5
7C18
330
19
100
AcDbEntity
  8
1
 48
10.0
100
AcDbCircle
 10
1833.791387383866
 20
2964.5925591949
 30
0.0
 40
482.5
100
AcDbArc
 50
79.31016829309045
 51
83.63390601947992
  0
ARC
  5
7C19
330
19
100
AcDbEntity
  8
1
 48
10.0
100
AcDbCircle
 10
1887.291387383866
 20
2911.0925591949
 30
0.0
 40
450.0
100
AcDbArc
 50
296.3877999612431
 51
0.0
  0
ARC
  5
7C1A
330
19
100
AcDbEntity
  8
1
 48
10.0
100
AcDbCircle
 10
1887.291387383866
 20
2911.0925591949
 30
0.0
 40
490.0
100
AcDbArc
 50
294.0895061117806
 51
0.0
  0
LINE
  5
7C1B
330
19
100
AcDbEntity
  8
2
100
AcDbLine
 10
3087.291387383866
 20
2767.687386910756
 30
0.0
 11
3087.291387383866
 21
2091.0925591949
 31
0.0
  0
ARC
  5
7C1C
330
19
100
AcDbEntity
  8
1
 48
10.0
100
AcDbCircle
 10
3087.291387383866
 20
2491.0925591949
 30
0.0
 40
185.0
100
AcDbArc
 50
287.945251
 51
252.054749
  0
CIRCLE
  5
7C1D
330
19
100
AcDbEntity
  8
1
 48
10.0
100
AcDbCircle
 10
3087.291387383866
 20
2491.0925591949
 30
0.0
 40
119.0
  0
ARC
  5
7C1E
330
19
100
AcDbEntity
  8
1
 48
10.0
100
AcDbCircle
 10
3087.291387383866
 20
2491.0925591949
 30
0.0
 40
220.0
100
AcDbArc
 50
250.7099537808112
 51
70.70995378081123
  0
LINE
  5
7C1F
330
19
100
AcDbEntity
  8
1
 48
10.0
100
AcDbLine
 10
3030.291387383866
 20
2315.0925591949
 30
0.0
 11
3144.291387383866
 21
2315.0925591949
 31
0.0
  0
LINE
  5
7C21
330
19
100
AcDbEntity
  8
1
 48
10.0
100
AcDbLine
 10
3157.291387383866
 20
2301.0925591949
 30
0.0
 11
3017.291387383866
 21
2301.0925591949
 31
0.0
  0
LINE
  5
7C22
330
19
100
AcDbEntity
  8
2
100
AcDbLine
 10
3448.227355509461
 20
2491.0925591949
 30
0.0
 11
2872.448460930033
 21
2491.0925591949
 31
0.0
  0
LINE
  5
7C23
330
19
100
AcDbEntity
  8
1
 48
10.0
100
AcDbLine
 10
3312.291387383866
 20
2256.0925591949
 30
0.0
 11
2862.291387383866
 21
2256.0925591949
 31
0.0
  0
LINE
  5
7C24
330
19
100
AcDbEntity
  8
1
 48
10.0
100
AcDbLine
 10
2925.291387383866
 20
2386.351592194899
 30
0.0
 11
2925.291387383866
 21
2311.0925591949
 31
0.0
  0
LINE
  5
7C25
330
19
100
AcDbEntity
  8
1
 48
10.0
100
AcDbLine
 10
3017.291387383866
 20
2311.0925591949
 30
0.0
 11
2877.493704018378
 21
2311.0925591949
 31
0.0
  0
LINE
  5
7C26
330
19
100
AcDbEntity
  8
1
 48
10.0
100
AcDbLine
 10
2862.291387383866
 20
2256.0925591949
 30
0.0
 11
2877.493704018378
 21
2311.0925591949
 31
0.0
  0
LINE
  5
7C27
330
19
100
AcDbEntity
  8
1
 48
10.0
100
AcDbLine
 10
2887.291387383866
 20
2256.0925591949
 30
0.0
 11
2887.291387383866
 21
2216.0925591949
 31
0.0
  0
LINE
  5
7C29
330
19
100
AcDbEntity
  8
1
 48
10.0
100
AcDbLine
 10
3017.291387383866
 20
2311.0925591949
 30
0.0
 11
3017.291387383866
 21
2301.0925591949
 31
0.0
  0
LINE
  5
7C2A
330
19
100
AcDbEntity
  8
1
 48
10.0
100
AcDbLine
 10
2925.291387383866
 20
2386.351592194899
 30
0.0
 11
2931.675359383866
 21
2391.049346194899
 31
0.0
  0
LINE
  5
7C2B
330
19
100
AcDbEntity
  8
1
 48
10.0
100
AcDbLine
 10
3327.291387383865
 20
2216.0925591949
 30
0.0
 11
3327.291387383865
 21
2091.0925591949
 31
0.0
  0
LINE
  5
7C2E
330
19
100
AcDbEntity
  8
1
 48
10.0
100
AcDbLine
 10
3249.291387383866
 20
2386.351592194899
 30
0.0
 11
3249.291387383866
 21
2311.0925591949
 31
0.0
  0
LINE
  5
7C2F
330
19
100
AcDbEntity
  8
1
 48
10.0
100
AcDbLine
 10
3297.392925784989
 20
2311.0925591949
 30
0.0
 11
3157.291387383866
 21
2311.0925591949
 31
0.0
  0
LINE
  5
7C31
330
19
100
AcDbEntity
  8
1
 48
10.0
100
AcDbLine
 10
3157.291387383866
 20
2311.0925591949
 30
0.0
 11
3157.291387383866
 21
2301.0925591949
 31
0.0
  0
LINE
  5
7C32
330
19
100
AcDbEntity
  8
1
 48
10.0
100
AcDbLine
 10
3312.291387383866
 20
2256.0925591949
 30
0.0
 11
3297.392925784989
 21
2311.0925591949
 31
0.0
  0
LINE
  5
7C33
330
19
100
AcDbEntity
  8
1
 48
10.0
100
AcDbLine
 10
3287.291387383866
 20
2256.0925591949
 30
0.0
 11
3287.291387383866
 21
2216.0925591949
 31
0.0
  0
LINE
  5
7C34
330
19
100
AcDbEntity
  8
1
 48
10.0
100
AcDbLine
 10
3249.291387383866
 20
2386.351592194899
 30
0.0
 11
3242.907476383866
 21
2391.049346194899
 31
0.0
  0
LINE
  5
7C35
330
19
100
AcDbEntity
  8
1
 48
10.0
100
AcDbLine
 10
2848.291387383866
 20
3531.092559194899
 30
0.0
 11
2795.627824250831
 21
2911.0925591949
 31
0.0
  0
POINT
  5
7C36
330
19
100
AcDbEntity
  8
1
 48
10.0
100
AcDbPoint
 10
2661.123050511659
 20
2911.0925591949
 30
0.0
  0
LINE
  5
7C37
330
19
100
AcDbEntity
  8
1
 48
10.0
100
AcDbLine
 10
2890.791387383866
 20
3531.092559194899
 30
0.0
 11
2890.791387383866
 21
3528.092559194899
 31
0.0
  0
DIMENSION
  5
7C38
330
19
100
AcDbEntity
  8
3
 48
10.0
100
AcDbDimension
280
     0
  2
*D7
 10
1327.291387383864
 20
6816.047573119307
 30
0.0
 11
1887.291387383864
 21
6891.047573119307
 31
0.0
 70
    32
 71
     5
 42
-1.0
 73
     0
 74
     0
 75
     0
  3
DIA1
100
AcDbAlignedDimension
 13
2447.291387383864
 23
6517.965017524321
 33
0.0
 14
1327.291387383864
 24
6517.965017524321
 34
0.0
100
AcDbRotatedDimension
1001
ACAD
1000
DSTYLE
1002
{
1070
   287
1070
     3
1070
    40
1040
30.0
1070
    41
1040
2.5
1070
    42
1040
0.0
1070
   140
1040
3.0
1070
   147
1040
1.0
1070
   173
1070
     1
1070
   271
1070
     4
1070
   272
1070
     4
1070
   279
1070
     0
1070
   284
1070
     0
1070
   285
1070
     0
1070
   286
1070
     0
1070
     6
1000
ARROW
1070
     7
1000
ARROW
1002
}
  0
LINE
  5
7C39
330
19
100
AcDbEntity
  8
1
 48
10.0
100
AcDbLine
 10
2447.291387383864
 20
6517.965017524321
 30
0.0
 11
1327.291387383864
 21
6517.965017524321
 31
0.0
  0
LINE
  5
7C3A
330
19
100
AcDbEntity
  8
1
 48
10.0
100
AcDbLine
 10
2848.291387383865
 20
6449.965017524322
 30
0.0
 11
1244.291387383865
 21
6449.96501752432
 31
0.0
  0
LINE
  5
7C3B
330
19
100
AcDbEntity
  8
1
 48
10.0
100
AcDbLine
 10
2848.291387383865
 20
5269.96501752432
 30
0.0
 11
1244.291387383864
 21
5269.96501752432
 31
0.0
  0
LINE
  5
7C3C
330
19
100
AcDbEntity
  8
1
 48
10.0
100
AcDbLine
 10
1923.291387383864
 20
6449.96501752432
 30
0.0
 11
2848.291387383865
 21
5269.96501752432
 31
0.0
  0
LINE
  5
7C3D
330
19
100
AcDbEntity
  8
1
 48
10.0
100
AcDbLine
 10
2848.291387383865
 20
6449.965017524322
 30
0.0
 11
1923.291387383864
 21
5269.96501752432
 31
0.0
  0
LINE
  5
7C3E
330
19
100
AcDbEntity
  8
1
 48
10.0
100
AcDbLine
 10
3307.291387383866
 20
5089.96501752432
 30
0.0
 11
1667.291387383866
 21
5089.96501752432
 31
0.0
  0
LINE
  5
7C3F
330
19
100
AcDbEntity
  8
1
 48
10.0
100
AcDbLine
 10
3307.291387383866
 20
4889.965017524321
 30
0.0
 11
1667.291387383866
 21
4889.965017524321
 31
0.0
  0
DIMENSION
  5
7C40
330
19
100
AcDbEntity
  8
3
 48
10.0
100
AcDbDimension
280
     0
  2
*D8
 10
1327.291387383864
 20
4621.925593105003
 30
0.0
 11
2327.291387383866
 21
4621.925593105003
 31
0.0
 70
   160
 71
     5
 42
-1.0
 73
     0
 74
     0
 75
     0
  3
DIA1
100
AcDbAlignedDimension
 13
3327.291387383866
 23
5017.96501752432
 33
0.0
 14
1327.291387383864
 24
5017.96501752432
 34
0.0
100
AcDbRotatedDimension
1001
ACAD
1000
DSTYLE
1002
{
1070
   287
1070
     3
1070
    40
1040
30.0
1070
    41
1040
2.5
1070
    42
1040
0.0
1070
   140
1040
3.0
1070
   147
1040
1.0
1070
   173
1070
     1
1070
   271
1070
     4
1070
   272
1070
     4
1070
   279
1070
     0
1070
   284
1070
     0
1070
   285
1070
     0
1070
   286
1070
     0
1070
     6
1000
ARROW
1070
     7
1000
ARROW
1002
}
  0
LINE
  5
7C41
330
19
100
AcDbEntity
  8
2
100
AcDbLine
 10
2848.291387383865
 20
5859.965017524321
 30
0.0
 11
1195.207113971115
 21
5859.96501752432
 31
0.0
  0
LINE
  5
7C42
330
19
100
AcDbEntity
  8
1
 48
10.0
100
AcDbLine
 10
3327.291387383866
 20
5017.96501752432
 30
0.0
 11
1327.291387383864
 21
5017.96501752432
 31
0.0
  0
LINE
  5
7C43
330
19
100
AcDbEntity
  8
1
 48
10.0
100
AcDbLine
 10
1244.291387383864
 20
5269.96501752432
 30
0.0
 11
1244.291387383864
 21
6449.965017524322
 31
0.0
  0
LINE
  5
7C44
330
19
100
AcDbEntity
  8
1
 48
10.0
100
AcDbLine
 10
1923.291387383864
 20
5269.96501752432
 30
0.0
 11
1923.291387383864
 21
6449.965017524322
 31
0.0
  0
DIMENSION
  5
7C45
330
19
100
AcDbEntity
  8
3
 48
10.0
100
AcDbDimension
280
     0
  2
*D9
 10
1027.98714115395
 20
5017.96501752432
 30
0.0
 11
952.987141153949
 21
5767.96501752432
 31
0.0
 70
    32
 71
     5
 42
-1.0
 73
     0
 74
     0
 75
     0
  3
DIA1
100
AcDbAlignedDimension
 13
1327.291387383864
 23
6517.965017524321
 33
0.0
 14
1327.291387383864
 24
5017.96501752432
 34
0.0
 50
270.0
100
AcDbRotatedDimension
1001
ACAD
1000
DSTYLE
1002
{
1070
   287
1070
     3
1070
    40
1040
30.0
1070
    41
1040
2.5
1070
    42
1040
0.0
1070
   140
1040
3.0
1070
   147
1040
1.0
1070
   173
1070
     1
1070
   271
1070
     4
1070
   272
1070
     4
1070
   279
1070
     0
1070
   284
1070
     0
1070
   285
1070
     0
1070
   286
1070
     0
1070
     6
1000
ARROW
1070
     7
1000
ARROW
1002
}
  0
LINE
  5
7C46
330
19
100
AcDbEntity
  8
2
100
AcDbLine
 10
1887.291387383864
 20
4889.965017524321
 30
0.0
 11
1887.291387383864
 21
6657.052434257133
 31
0.0
  0
LINE
  5
7C47
330
19
100
AcDbEntity
  8
1
 48
10.0
100
AcDbLine
 10
1327.291387383864
 20
5017.96501752432
 30
0.0
 11
1327.291387383864
 21
5269.96501752432
 31
0.0
  0
LINE
  5
7C48
330
19
100
AcDbEntity
  8
1
 48
10.0
100
AcDbLine
 10
1922.291387383864
 20
5064.965017524321
 30
0.0
 11
1922.291387383864
 21
5269.96501752432
 31
0.0
  0
LINE
  5
7C49
330
19
100
AcDbEntity
  8
1
 48
10.0
100
AcDbLine
 10
1852.291387383864
 20
5064.965017524321
 30
0.0
 11
1852.291387383864
 21
5269.96501752432
 31
0.0
  0
LINE
  5
7C4A
330
19
100
AcDbEntity
  8
1
 48
10.0
100
AcDbLine
 10
1667.291387383866
 20
4889.965017524321
 30
0.0
 11
1667.291387383866
 21
5089.96501752432
 31
0.0
  0
LINE
  5
7C4B
330
19
100
AcDbEntity
  8
1
 48
10.0
100
AcDbLine
 10
2006.291387383864
 20
4954.965017524321
 30
0.0
 11
1768.291387383864
 21
4954.965017524321
 31
0.0
  0
LINE
  5
7C4C
330
19
100
AcDbEntity
  8
1
 48
10.0
100
AcDbLine
 10
2006.291387383864
 20
5064.965017524321
 30
0.0
 11
1768.291387383864
 21
5064.965017524321
 31
0.0
  0
LINE
  5
7C4D
330
19
100
AcDbEntity
  8
1
 48
10.0
100
AcDbLine
 10
1768.291387383864
 20
4954.965017524321
 30
0.0
 11
1768.291387383864
 21
5064.965017524321
 31
0.0
  0
LINE
  5
7C4E
330
19
100
AcDbEntity
  8
1
 48
10.0
100
AcDbLine
 10
2006.291387383864
 20
4954.965017524321
 30
0.0
 11
2006.291387383864
 21
5064.965017524321
 31
0.0
  0
LINE
  5
7C4F
330
19
100
AcDbEntity
  8
1
 48
10.0
100
AcDbLine
 10
2447.291387383864
 20
6449.965017524322
 30
0.0
 11
2447.291387383864
 21
6517.965017524321
 31
0.0
  0
LINE
  5
7C50
330
19
100
AcDbEntity
  8
1
 48
10.0
100
AcDbLine
 10
2848.291387383865
 20
5269.96501752432
 30
0.0
 11
2848.291387383865
 21
6449.965017524322
 31
0.0
  0
LINE
  5
7C51
330
19
100
AcDbEntity
  8
2
100
AcDbLine
 10
3087.291387383864
 20
4889.965017524321
 30
0.0
 11
3087.291387383864
 21
5631.465017524321
 31
0.0
  0
DIMENSION
  5
7C52
330
19
100
AcDbEntity
  8
3
 48
10.0
100
AcDbDimension
280
     0
  2
*D10
 10
2447.291387383864
 20
6816.047573119307
 30
0.0
 11
2887.291387383865
 21
6891.047573119307
 31
0.0
 70
    32
 71
     5
 42
-1.0
 73
     0
 74
     0
 75
     0
  3
DIA1
100
AcDbAlignedDimension
 13
3327.291387383866
 23
5867.96501752432
 33
0.0
 14
2447.291387383864
 24
6517.965017524321
 34
0.0
100
AcDbRotatedDimension
1001
ACAD
1000
DSTYLE
1002
{
1070
   287
1070
     3
1070
    40
1040
30.0
1070
    41
1040
2.5
1070
    42
1040
0.0
1070
   140
1040
3.0
1070
   147
1040
1.0
1070
   173
1070
     1
1070
   271
1070
     4
1070
   272
1070
     4
1070
   279
1070
     0
1070
   284
1070
     0
1070
   285
1070
     0
1070
   286
1070
     0
1070
     6
1000
ARROW
1070
     7
1000
ARROW
1002
}
  0
LINE
  5
7C53
330
19
100
AcDbEntity
  8
1
 48
10.0
100
AcDbLine
 10
3272.291387383865
 20
5631.465017524321
 30
0.0
 11
2902.291387383865
 21
5631.465017524321
 31
0.0
  0
LINE
  5
7C54
330
19
100
AcDbEntity
  8
1
 48
10.0
100
AcDbLine
 10
3112.291387383864
 20
5064.965017524321
 30
0.0
 11
3062.291387383865
 21
5064.965017524321
 31
0.0
  0
LINE
  5
7C55
330
19
100
AcDbEntity
  8
1
 48
10.0
100
AcDbLine
 10
3059.791387383864
 20
4954.965017524321
 30
0.0
 11
3111.291387383865
 21
4954.965017524321
 31
0.0
  0
LINE
  5
7C56
330
19
100
AcDbEntity
  8
1
 48
10.0
100
AcDbLine
 10
3206.291387383865
 20
4954.965017524321
 30
0.0
 11
2968.291387383864
 21
4954.965017524321
 31
0.0
  0
LINE
  5
7C57
330
19
100
AcDbEntity
  8
1
 48
10.0
100
AcDbLine
 10
2902.291387383865
 20
5074.96501752432
 30
0.0
 11
3087.291387383864
 21
5074.96501752432
 31
0.0
  0
LINE
  5
7C58
330
19
100
AcDbEntity
  8
1
 48
10.0
100
AcDbLine
 10
3206.291387383865
 20
5064.965017524321
 30
0.0
 11
2968.291387383864
 21
5064.965017524321
 31
0.0
  0
LINE
  5
7C59
330
19
100
AcDbEntity
  8
1
 48
10.0
100
AcDbLine
 10
3327.291387383866
 20
5867.965017524319
 30
0.0
 11
2848.291387383865
 21
5867.965017524319
 31
0.0
  0
LINE
  5
7C5A
330
19
100
AcDbEntity
  8
1
 48
10.0
100
AcDbLine
 10
2902.291387383865
 20
5074.96501752432
 30
0.0
 11
2902.291387383865
 21
5631.465017524321
 31
0.0
  0
LINE
  5
7C5B
330
19
100
AcDbEntity
  8
1
 48
10.0
100
AcDbLine
 10
2968.291387383864
 20
4954.965017524321
 30
0.0
 11
2968.291387383864
 21
5064.965017524321
 31
0.0
  0
LINE
  5
7C5C
330
19
100
AcDbEntity
  8
1
 48
10.0
100
AcDbLine
 10
3062.291387383865
 20
5064.965017524321
 30
0.0
 11
3062.291387383865
 21
5074.96501752432
 31
0.0
  0
ARC
  5
7C5D
330
19
100
AcDbEntity
  8
1
 48
10.0
100
AcDbCircle
 10
3024.291387383864
 20
5076.965017524321
 30
0.0
 40
2.0
100
AcDbArc
 50
180.0
 51
270.0
  0
LINE
  5
7C5E
330
19
100
AcDbEntity
  8
1
 48
10.0
100
AcDbLine
 10
3022.291387383865
 20
5089.96501752432
 30
0.0
 11
3022.291387383865
 21
5076.965017524321
 31
0.0
  0
LINE
  5
7C5F
330
19
100
AcDbEntity
  8
1
 48
10.0
100
AcDbLine
 10
3327.291387383866
 20
5867.96501752432
 30
0.0
 11
3327.291387383866
 21
5017.96501752432
 31
0.0
  0
LINE
  5
7C60
330
19
100
AcDbEntity
  8
1
 48
10.0
100
AcDbLine
 10
3272.291387383865
 20
5074.96501752432
 30
0.0
 11
3272.291387383865
 21
5631.465017524321
 31
0.0
  0
DIMENSION
  5
7C61
330
19
100
AcDbEntity
  8
3
 48
10.0
100
AcDbDimension
280
     0
  2
*D11
 10
3625.274992467712
 20
5017.96501752432
 30
0.0
 11
3550.274992467711
 21
5442.96501752432
 31
0.0
 70
    32
 71
     5
 42
-1.0
 73
     0
 74
     0
 75
     0
  3
DIA1
100
AcDbAlignedDimension
 13
3327.291387383866
 23
5867.965017524319
 33
0.0
 14
3327.291387383866
 24
5017.96501752432
 34
0.0
 50
270.0
100
AcDbRotatedDimension
1001
ACAD
1000
DSTYLE
1002
{
1070
   287
1070
     3
1070
    40
1040
30.0
1070
    41
1040
2.5
1070
    42
1040
0.0
1070
   140
1040
3.0
1070
   147
1040
1.0
1070
   173
1070
     1
1070
   271
1070
     4
1070
   272
1070
     4
1070
   279
1070
     0
1070
   284
1070
     0
1070
   285
1070
     0
1070
   286
1070
     0
1070
     6
1000
ARROW
1070
     7
1000
ARROW
1002
}
  0
LINE
  5
7C62
330
19
100
AcDbEntity
  8
1
 48
10.0
100
AcDbLine
 10
3272.291387383865
 20
5074.96501752432
 30
0.0
 11
3087.291387383864
 21
5074.96501752432
 31
0.0
  0
LINE
  5
7C63
330
19
100
AcDbEntity
  8
1
 48
10.0
100
AcDbLine
 10
3112.291387383864
 20
5064.965017524321
 30
0.0
 11
3112.291387383864
 21
5074.96501752432
 31
0.0
  0
ARC
  5
7C64
330
19
100
AcDbEntity
  8
1
 48
10.0
100
AcDbCircle
 10
3150.291387383865
 20
5076.965017524321
 30
0.0
 40
2.0
100
AcDbArc
 50
270.0
 51
0.0
  0
LINE
  5
7C65
330
19
100
AcDbEntity
  8
1
 48
10.0
100
AcDbLine
 10
3152.291387383864
 20
5089.96501752432
 30
0.0
 11
3152.291387383864
 21
5076.965017524321
 31
0.0
  0
LINE
  5
7C66
330
19
100
AcDbEntity
  8
1
 48
10.0
100
AcDbLine
 10
3206.291387383865
 20
4954.965017524321
 30
0.0
 11
3206.291387383865
 21
5064.965017524321
 31
0.0
  0
LINE
  5
7C67
330
19
100
AcDbEntity
  8
1
 48
10.0
100
AcDbLine
 10
3307.291387383866
 20
4889.965017524321
 30
0.0
 11
3307.291387383866
 21
5089.96501752432
 31
0.0
  0
LINE
  5
7C68
330
19
100
AcDbEntity
  8
1
 48
10.0
100
AcDbLine
 10
4132.892396101392
 20
2676.092559194899
 30
0.0
 11
4132.892396101396
 21
2306.092559194899
 31
0.0
  0
DIMENSION
  5
7C69
330
19
100
AcDbEntity
  8
3
 48
10.0
100
AcDbDimension
280
     0
  2
*D12
 10
5757.725947091665
 20
3361.0925591949
 30
0.0
 11
5682.725947091665
 21
2911.092559194901
 31
0.0
 70
    32
  1
φ<>
 71
     5
 42
-1.0
 73
     0
 74
     0
 75
     0
  3
DIA1
100
AcDbAlignedDimension
 13
5471.392396101392
 23
2461.092559194899
 33
0.0
 14
5471.392396101392
 24
3361.0925591949
 34
0.0
 50
90.0
100
AcDbRotatedDimension
1001
ACAD
1000
DSTYLE
1002
{
1070
   287
1070
     3
1070
    40
1040
30.0
1070
    41
1040
2.5
1070
    42
1040
0.0
1070
   140
1040
3.0
1070
   147
1040
1.0
1070
   173
1070
     1
1070
   271
1070
     4
1070
   272
1070
     4
1070
   279
1070
     0
1070
   284
1070
     0
1070
   285
1070
     0
1070
   286
1070
     0
1070
     6
1000
ARROW
1070
     7
1000
ARROW
1002
}
  0
LINE
  5
7C6A
330
19
100
AcDbEntity
  8
1
 48
10.0
100
AcDbLine
 10
3905.892396101389
 20
3131.092559194899
 30
0.0
 11
3905.892396101395
 21
2271.0925591949
 31
0.0
  0
LINE
  5
7C6B
330
19
100
AcDbEntity
  8
1
 48
10.0
100
AcDbLine
 10
4122.892396101392
 20
3030.0925591949
 30
0.0
 11
4122.892396101386
 21
2372.0925591949
 31
0.0
  0
LINE
  5
7C6C
330
19
100
AcDbEntity
  8
1
 48
10.0
100
AcDbLine
 10
4012.892396101392
 20
3030.0925591949
 30
0.0
 11
4012.892396101386
 21
2372.0925591949
 31
0.0
  0
LINE
  5
7C6D
330
19
100
AcDbEntity
  8
1
 48
10.0
100
AcDbLine
 10
4285.892396101391
 20
3531.092559194899
 30
0.0
 11
4285.892396101391
 21
2676.092559194899
 31
0.0
  0
LINE
  5
7C6E
330
19
100
AcDbEntity
  8
1
 48
10.0
100
AcDbLine
 10
5465.892396101391
 20
3531.092559194899
 30
0.0
 11
5465.892396101391
 21
2216.092559194899
 31
0.0
  0
LINE
  5
7C6F
330
19
100
AcDbEntity
  8
2
100
AcDbLine
 10
4875.892396101392
 20
3648.384568863742
 30
0.0
 11
4875.892396101391
 21
2091.092559194899
 31
0.0
  0
LINE
  5
7C74
330
19
100
AcDbEntity
  8
1
 48
10.0
100
AcDbLine
 10
4033.89239610139
 20
2091.092559194899
 30
0.0
 11
5533.892396101392
 21
2091.092559194899
 31
0.0
  0
LINE
  5
7C75
330
19
100
AcDbEntity
  8
1
 48
10.0
100
AcDbLine
 10
4033.59239610139
 20
2216.092559194899
 30
0.0
 11
5533.892396101393
 21
2216.092559194899
 31
0.0
  0
LINE
  5
7C76
330
19
100
AcDbEntity
  8
1
 48
10.0
100
AcDbLine
 10
4132.892396101396
 20
2306.092559194899
 30
0.0
 11
4689.392396101395
 21
2306.092559194899
 31
0.0
  0
LINE
  5
7C77
330
19
100
AcDbEntity
  8
2
100
AcDbLine
 10
3905.892396101394
 20
2491.0925591949
 30
0.0
 11
4689.392396101395
 21
2491.0925591949
 31
0.0
  0
LINE
  5
7C78
330
19
100
AcDbEntity
  8
1
 48
10.0
100
AcDbLine
 10
4033.892396101392
 20
2216.092559194899
 30
0.0
 11
4033.89239610139
 21
2091.092559194899
 31
0.0
  0
LINE
  5
7C7A
330
19
100
AcDbEntity
  8
1
 48
10.0
100
AcDbLine
 10
3905.892396101395
 20
2271.0925591949
 30
0.0
 11
4147.892396101395
 21
2271.0925591949
 31
0.0
  0
LINE
  5
7C7B
330
19
100
AcDbEntity
  8
1
 48
10.0
100
AcDbLine
 10
4012.892396101388
 20
2372.0925591949
 30
0.0
 11
4122.892396101388
 21
2372.0925591949
 31
0.0
  0
LINE
  5
7C7C
330
19
100
AcDbEntity
  8
1
 48
10.0
100
AcDbLine
 10
4147.892396101394
 20
2291.0925591949
 30
0.0
 11
4147.892396101394
 21
2271.0925591949
 31
0.0
  0
LINE
  5
7C7D
330
19
100
AcDbEntity
  8
1
 48
10.0
100
AcDbLine
 10
4122.892396101387
 20
2466.0925591949
 30
0.0
 11
4132.892396101394
 21
2466.0925591949
 31
0.0
  0
LINE
  5
7C7E
330
19
100
AcDbEntity
  8
1
 48
10.0
100
AcDbLine
 10
4122.892396101388
 20
2516.0925591949
 30
0.0
 11
4132.892396101394
 21
2516.0925591949
 31
0.0
  0
LINE
  5
7C80
330
19
100
AcDbEntity
  8
1
 48
10.0
100
AcDbLine
 10
5533.892396101392
 20
2216.092559194899
 30
0.0
 11
5533.892396101392
 21
2091.092559194899
 31
0.0
  0
DIMENSION
  5
7C83
330
19
100
AcDbEntity
  8
3
 48
10.0
100
AcDbDimension
280
     0
  2
*D13
 10
5465.892396101391
 20
3653.662505123821
 30
0.0
 11
4875.892396101392
 21
3728.66250512382
 31
0.0
 70
    32
 71
     5
 42
-1.0
 73
     0
 74
     0
 75
     0
  3
DIA1
100
AcDbAlignedDimension
 13
4285.892396101391
 23
3531.092559194899
 33
0.0
 14
5465.892396101391
 24
3531.092559194899
 34
0.0
100
AcDbRotatedDimension
1001
ACAD
1000
DSTYLE
1002
{
1070
   287
1070
     3
1070
    40
1040
30.0
1070
    41
1040
2.5
1070
    42
1040
0.0
1070
   140
1040
3.0
1070
   147
1040
1.0
1070
   173
1070
     1
1070
   271
1070
     4
1070
   272
1070
     4
1070
   279
1070
     0
1070
   284
1070
     0
1070
   285
1070
     0
1070
   286
1070
     0
1070
     6
1000
ARROW
1070
     7
1000
ARROW
1002
}
  0
LINE
  5
7C84
330
19
100
AcDbEntity
  8
1
 48
10.0
100
AcDbLine
 10
4243.892396101386
 20
3528.092559194899
 30
0.0
 11
5507.892396101391
 21
3528.092559194899
 31
0.0
  0
LINE
  5
7C85
330
19
100
AcDbEntity
  8
1
 48
10.0
100
AcDbLine
 10
4285.892396101391
 20
3491.0925591949
 30
0.0
 11
5465.89239610139
 21
3491.0925591949
 31
0.0
  0
LINE
  5
7C86
330
19
100
AcDbEntity
  8
1
 48
10.0
100
AcDbLine
 10
4243.892396101386
 20
3531.092559194899
 30
0.0
 11
5507.892396101391
 21
3531.092559194899
 31
0.0
  0
LINE
  5
7C87
330
19
100
AcDbEntity
  8
2
100
AcDbLine
 10
3923.313297455694
 20
2911.0925591949
 30
0.0
 11
5586.412043859129
 21
2911.0925591949
 31
0.0
  0
LINE
  5
7C89
330
19
100
AcDbEntity
  8
1
 48
10.0
100
AcDbLine
 10
4132.892396101393
 20
2676.092559194899
 30
0.0
 11
4689.392396101392
 21
2676.092559194899
 31
0.0
  0
LINE
  5
7C8A
330
19
100
AcDbEntity
  8
1
 48
10.0
100
AcDbLine
 10
4154.892396101391
 20
2859.631951209069
 30
0.0
 11
4285.892396101391
 21
2859.631951209069
 31
0.0
  0
LINE
  5
7C8B
330
19
100
AcDbEntity
  8
1
 48
10.0
100
AcDbLine
 10
4154.892396101391
 20
2961.8925591949
 30
0.0
 11
4285.892396101391
 21
2961.8925591949
 31
0.0
  0
LINE
  5
7C8C
330
19
100
AcDbEntity
  8
1
 48
10.0
100
AcDbLine
 10
4157.892396101392
 20
2710.0925591949
 30
0.0
 11
4285.892396101391
 21
2710.0925591949
 31
0.0
  0
LINE
  5
7C8D
330
19
100
AcDbEntity
  8
1
 48
10.0
100
AcDbLine
 10
4147.892396101392
 20
2850.0925591949
 30
0.0
 11
4147.892396101393
 21
2720.092559194899
 31
0.0
  0
LINE
  5
7C8E
330
19
100
AcDbEntity
  8
1
 48
10.0
100
AcDbLine
 10
4012.892396101389
 20
2610.0925591949
 30
0.0
 11
4122.89239610139
 21
2610.0925591949
 31
0.0
  0
LINE
  5
7C8F
330
19
100
AcDbEntity
  8
1
 48
10.0
100
AcDbLine
 10
4012.892396101389
 20
2792.092559194899
 30
0.0
 11
4122.892396101391
 21
2792.092559194899
 31
0.0
  0
ARC
  5
7C90
330
19
100
AcDbEntity
  8
1
 48
10.0
100
AcDbCircle
 10
4157.892396101392
 20
2720.092559194899
 30
0.0
 40
10.0
100
AcDbArc
 50
180.0000000000003
 51
270.0
  0
LINE
  5
7C91
330
19
100
AcDbEntity
  8
1
 48
10.0
100
AcDbLine
 10
4122.892396101391
 20
2883.5925591949
 30
0.0
 11
4127.892396101391
 21
2883.5925591949
 31
0.0
  0
LINE
  5
7C92
330
19
100
AcDbEntity
  8
1
 48
10.0
100
AcDbLine
 10
4122.892396101391
 20
2938.5925591949
 30
0.0
 11
4127.892396101391
 21
2938.5925591949
 31
0.0
  0
LINE
  5
7C93
330
19
100
AcDbEntity
  8
1
 48
10.0
100
AcDbLine
 10
4127.892396101391
 20
2946.0925591949
 30
0.0
 11
4127.892396101391
 21
2876.0925591949
 31
0.0
  0
LINE
  5
7C94
330
19
100
AcDbEntity
  8
1
 48
10.0
100
AcDbLine
 10
4154.892396101391
 20
2961.8925591949
 30
0.0
 11
4154.892396101391
 21
2859.631951209069
 31
0.0
  0
LINE
  5
7C95
330
19
100
AcDbEntity
  8
1
 48
10.0
100
AcDbLine
 10
4127.892396101391
 20
2876.0925591949
 30
0.0
 11
4154.892396101391
 21
2876.0925591949
 31
0.0
  0
ARC
  5
7C96
330
19
100
AcDbEntity
  8
1
 48
10.0
100
AcDbCircle
 10
4157.892396101391
 20
2850.0925591949
 30
0.0
 40
10.0
100
AcDbArc
 50
107.4576031237193
 51
180.0000000000003
  0
LINE
  5
7C97
330
19
100
AcDbEntity
  8
1
 48
10.0
100
AcDbLine
 10
4127.892396101391
 20
2946.0925591949
 30
0.0
 11
4154.892396101391
 21
2946.0925591949
 31
0.0
  0
LINE
  5
7C98
330
19
100
AcDbEntity
  8
1
 48
10.0
100
AcDbLine
 10
3905.892396101389
 20
3131.092559194899
 30
0.0
 11
4147.89239610139
 21
3131.092559194899
 31
0.0
  0
POINT
  5
7C99
330
19
100
AcDbEntity
  8
1
 48
10.0
100
AcDbPoint
 10
3905.892396101389
 20
3131.092559194899
 30
0.0
  0
LINE
  5
7C9A
330
19
100
AcDbEntity
  8
1
 48
10.0
100
AcDbLine
 10
4012.892396101392
 20
3030.0925591949
 30
0.0
 11
4122.892396101392
 21
3030.0925591949
 31
0.0
  0
LINE
  5
7C9B
330
19
100
AcDbEntity
  8
1
 48
10.0
100
AcDbLine
 10
4147.892396101389
 20
3131.092559194901
 30
0.0
 11
4147.89239610139
 21
3111.092559194899
 31
0.0
  0
LINE
  5
7C9D
330
19
100
AcDbEntity
  8
1
 48
10.0
100
AcDbLine
 10
4243.892396101386
 20
3531.092559194899
 30
0.0
 11
4243.892396101386
 21
3528.092559194899
 31
0.0
  0
LINE
  5
7CA0
330
19
100
AcDbEntity
  8
1
 48
10.0
100
AcDbLine
 10
5465.89239610139
 20
2881.5925591949
 30
0.0
 11
5585.39239610139
 21
2881.5925591949
 31
0.0
  0
LINE
  5
7CA1
330
19
100
AcDbEntity
  8
1
 48
10.0
100
AcDbLine
 10
5465.89239610139
 20
2761.592559194899
 30
0.0
 11
5585.39239610139
 21
2761.592559194899
 31
0.0
  0
LINE
  5
7CA2
330
19
100
AcDbEntity
  8
1
 48
10.0
100
AcDbLine
 10
5595.39239610139
 20
2871.5925591949
 30
0.0
 11
5595.392396101391
 21
2771.5925591949
 31
0.0
  0
ARC
  5
7CA3
330
19
100
AcDbEntity
  8
1
 48
10.0
100
AcDbCircle
 10
5585.39239610139
 20
2771.5925591949
 30
0.0
 40
10.0
100
AcDbArc
 50
270.0
 51
0.0000000000003257
  0
POINT
  5
7CA4
330
19
100
AcDbEntity
  8
1
 48
10.0
100
AcDbPoint
 10
5595.392396101391
 20
2871.5925591949
 30
0.0
  0
POINT
  5
7CA5
330
19
100
AcDbEntity
  8
1
 48
10.0
100
AcDbPoint
 10
5595.392396101391
 20
2871.5925591949
 30
0.0
  0
ARC
  5
7CA6
330
19
100
AcDbEntity
  8
1
 48
10.0
100
AcDbCircle
 10
5585.39239610139
 20
2871.5925591949
 30
0.0
 40
10.0
100
AcDbArc
 50
0.0000000000003257
 51
90.0
  0
LINE
  5
7CAE
330
19
100
AcDbEntity
  8
1
 48
10.0
100
AcDbLine
 10
5507.892396101391
 20
3531.092559194899
 30
0.0
 11
5507.892396101391
 21
3528.092559194899
 31
0.0
  0
LINE
  5
7E8D
330
19
100
AcDbEntity
  8
4
100
AcDbLine
 10
5550.0
 20
1210.115599408851
 30
0.0
 11
5550.0
 21
610.1155994088513
 31
0.0
  0
LINE
  5
7E8E
330
19
100
AcDbEntity
  8
4
100
AcDbLine
 10
3450.0
 20
1210.115599408851
 30
0.0
 11
3450.0
 21
610.1155994088513
 31
0.0
  0
LINE
  5
7E8F
330
19
100
AcDbEntity
  8
4
100
AcDbLine
 10
1950.0
 20
1210.115599408851
 30
0.0
 11
1950.0
 21
610.1155994088513
 31
0.0
  0
LINE
  5
7E92
330
19
100
AcDbEntity
  8
4
100
AcDbLine
 10
1950.0
 20
610.1155994088513
 30
0.0
 11
5550.0
 21
610.1155994088513
 31
0.0
  0
LINE
  5
7E93
330
19
100
AcDbEntity
  8
4
100
AcDbLine
 10
1950.0
 20
910.1155994088513
 30
0.0
 11
5550.0
 21
910.1155994088513
 31
0.0
  0
TEXT
  5
7E94
330
19
100
AcDbEntity
  8
4
100
AcDbText
 10
2065.506242540705
 20
1004.74467700869
 30
0.0
 40
150.0
  1
機器名称
100
AcDbText
  0
TEXT
  5
7E95
330
19
100
AcDbEntity
  8
4
100
AcDbText
 10
2058.774318074393
 20
675.0510696048841
 30
0.0
 40
150.0
  1
機器型番
100
AcDbText
  0
TEXT
  5
7E96
330
19
100
AcDbEntity
  8
4
100
AcDbText
 10
3465.857116573647
 20
978.5057078642816
 30
0.0
 40
135.0
  1
ミツヤリミットロードファン
100
AcDbText
  0
TEXT
  5
7E97
330
19
100
AcDbEntity
  8
4
100
AcDbText
 10
3559.963486756442
 20
661.5943522486814
 30
0.0
 40
150.0
  1
LL#5 1/2-5
100
AcDbText
  0
TEXT
  5
7E99
330
19
100
AcDbEntity
  8
4
100
AcDbText
 10
2286.641903263946
 20
7150.286523997547
 30
0.0
 40
161.9999999999999
  1
床置ベット
100
AcDbText
  0
TEXT
  5
7E9A
330
19
100
AcDbEntity
  8
4
100
AcDbText
 10
948.5027799883392
 20
7601.642928597894
 30
0.0
 40
216.0
  1
遠心式両吸込両持リミットロードファン
100
AcDbText
  0
LINE
  5
7E9B
330
19
100
AcDbEntity
  8
4
100
AcDbLine
 10
750.0
 20
7408.226262794414
 30
0.0
 11
5550.0
 21
7408.226262794414
 31
0.0
  0
LINE
  5
7E9C
330
19
100
AcDbEntity
  8
4
100
AcDbLine
 10
750.0
 20
8008.226262794414
 30
0.0
 11
5550.0
 21
8008.226262794414
 31
0.0
  0
LINE
  5
7E9D
330
19
100
AcDbEntity
  8
4
100
AcDbLine
 10
1950.0
 20
1210.115599408851
 30
0.0
 11
5550.0
 21
1210.115599408851
 31
0.0
  0
LINE
  5
7E9E
330
19
100
AcDbEntity
  8
4
100
AcDbLine
 10
750.0
 20
8008.226262794414
 30
0.0
 11
750.0
 21
7408.226262794414
 31
0.0
  0
TEXT
  5
7E9F
330
19
100
AcDbEntity
  8
4
100
AcDbText
 10
979.0654065358394
 20
7146.95843263903
 30
0.0
 40
161.9999999999999
  1
左回転上向
100
AcDbText
  0
TEXT
  5
7EA0
330
19
100
AcDbEntity
  8
4
100
AcDbText
 10
4406.908677747869
 20
8118.183244485926
 30
0.0
 40
168.0
  1
No.
100
AcDbText
  0
TEXT
  5
7EA1
330
19
100
AcDbEntity
  8
4
100
AcDbText
 10
3933.88818780004
 20
7150.286523997547
 30
0.0
 40
161.9999999999999
  1
縮尺：1/30
100
AcDbText
  0
LINE
  5
7EA2
330
19
100
AcDbEntity
  8
4
100
AcDbLine
 10
5550.0
 20
8008.226262794414
 30
0.0
 11
5550.0
 21
7408.226262794414
 31
0.0
  0
LINE
  5
7EA3
330
19
100
AcDbEntity
  8
4
100
AcDbLine
 10
6300.0
 20
8850.0
 30
0.0
 11
6300.0
 21
8850.0
 31
0.0
  0
LINE
  5
7EA4
330
19
100
AcDbEntity
  8
4
100
AcDbLine
 10
4321.852267079594
 20
8043.790749376205
 30
0.0
 11
4321.852267079594
 21
8359.956784649257
 31
0.0
  0
LINE
  5
7EA5
330
19
100
AcDbEntity
  8
4
100
AcDbLine
 10
4321.852267079594
 20
8359.956784649257
 30
0.0
 11
5550.0
 21
8359.956784649257
 31
0.0
  0
LINE
  5
7EA6
330
19
100
AcDbEntity
  8
4
100
AcDbLine
 10
5550.0
 20
8359.956784649257
 30
0.0
 11
5550.0
 21
8043.790749376205
 31
0.0
  0
LINE
  5
7EA7
330
19
100
AcDbEntity
  8
4
100
AcDbLine
 10
5550.0
 20
8043.790749376205
 30
0.0
 11
4321.852267079594
 21
8043.790749376205
 31
0.0
  0
LINE
  5
7EA8
330
19
100
AcDbEntity
  8
4
100
AcDbLine
 10
0.0
 20
0.0
 30
0.0
 11
0.0
 21
8850.0
 31
0.0
  0
LINE
  5
7EA9
330
19
100
AcDbEntity
  8
4
100
AcDbLine
 10
0.0
 20
8850.0
 30
0.0
 11
6300.0
 21
8850.0
 31
0.0
  0
LINE
  5
7EAA
330
19
100
AcDbEntity
  8
4
100
AcDbLine
 10
6300.0
 20
8850.0
 30
0.0
 11
6300.0
 21
0.0
 31
0.0
  0
LINE
  5
7EAB
330
19
100
AcDbEntity
  8
4
100
AcDbLine
 10
6300.0
 20
0.0
 30
0.0
 11
0.0
 21
0.0
 31
0.0
  0
LINE
  5
7EBA
330
19
100
AcDbEntity
  8
1
 48
10.0
100
AcDbLine
 10
4689.392396101392
 20
2676.092559194904
 30
0.0
 11
4689.392396101395
 21
2306.092559194904
 31
0.0
  0
LINE
  5
7EBC
330
19
100
AcDbEntity
  8
1
 48
10.0
100
AcDbLine
 10
4569.392396101394
 20
2306.092559194899
 30
0.0
 11
4569.392396101396
 21
2216.092559194899
 31
0.0
  0
LINE
  5
7EBD
330
19
100
AcDbEntity
  8
1
 48
10.0
100
AcDbLine
 10
4159.392396101394
 20
2306.092559194899
 30
0.0
 11
4159.392396101396
 21
2216.092559194899
 31
0.0
  0
LINE
  5
7EBE
330
19
100
AcDbEntity
  8
1
 48
10.0
100
AcDbLine
 10
4159.392396101396
 20
2251.0925591949
 30
0.0
 11
4569.392396101396
 21
2251.0925591949
 31
0.0
  0
LINE
  5
7FBD
330
19
100
AcDbEntity
  8
1
 48
10.0
100
AcDbLine
 10
1327.291387383864
 20
6449.965017524322
 30
0.0
 11
1327.291387383864
 21
6517.965017524321
 31
0.0
  0
DIMENSION
  5
7FCB
330
19
100
AcDbEntity
  8
3
100
AcDbDimension
280
     0
  2
*D17
 10
1887.291387383866
 20
1904.298510860455
 30
0.0
 11
1607.291387383865
 21
1979.298510860455
 31
0.0
 70
    32
 71
     5
 42
-1.0
 73
     0
 74
     0
 75
     0
  3
IGA
100
AcDbAlignedDimension
 13
1327.291387383864
 23
2091.092559194899
 33
0.0
 14
1887.291387383866
 24
2091.0925591949
 34
0.0
100
AcDbRotatedDimension
1001
ACAD
1000
DSTYLE
1002
{
1070
   172
1070
     1
1070
    40
1040
30.0
1070
   271
1070
     0
1070
   143
1040
0.039
1002
}
  0
DIMENSION
  5
7FD8
330
19
100
AcDbEntity
  8
3
100
AcDbDimension
280
     0
  2
*D18
 10
3327.291387383865
 20
1904.298510860455
 30
0.0
 11
2607.291387383865
 21
1979.298510860455
 31
0.0
 70
    32
 71
     5
 42
-1.0
 73
     0
 74
     0
 75
     0
  3
IGA
100
AcDbAlignedDimension
 13
1887.291387383866
 23
2091.0925591949
 33
0.0
 14
3327.291387383865
 24
2091.0925591949
 34
0.0
100
AcDbRotatedDimension
1001
ACAD
1000
DSTYLE
1002
{
1070
   172
1070
     1
1070
    40
1040
30.0
1070
   271
1070
     0
1070
   143
1040
0.039
1002
}
  0
DIMENSION
  5
7FE5
330
19
100
AcDbEntity
  8
3
100
AcDbDimension
280
     0
  2
*D19
 10
4875.892396101391
 20
1904.298510860455
 30
0.0
 11
4454.89239610139
 21
1979.298510860455
 31
0.0
 70
    32
 71
     5
 42
-1.0
 73
     0
 74
     0
 75
     0
  3
IGA
100
AcDbAlignedDimension
 13
4033.89239610139
 23
2091.092559194899
 33
0.0
 14
4875.892396101391
 24
2091.092559194899
 34
0.0
100
AcDbRotatedDimension
1001
ACAD
1000
DSTYLE
1002
{
1070
   172
1070
     1
1070
    40
1040
30.0
1070
   271
1070
     0
1070
   143
1040
0.039
1002
}
  0
DIMENSION
  5
7FF2
330
19
100
AcDbEntity
  8
3
100
AcDbDimension
280
     0
  2
*D20
 10
5533.892396101392
 20
1904.298510860455
 30
0.0
 11
5204.892396101392
 21
1979.298510860455
 31
0.0
 70
    32
 71
     5
 42
-1.0
 73
     0
 74
     0
 75
     0
  3
IGA
100
AcDbAlignedDimension
 13
4875.892396101391
 23
2091.092559194899
 33
0.0
 14
5533.892396101392
 24
2091.092559194899
 34
0.0
100
AcDbRotatedDimension
1001
ACAD
1000
DSTYLE
1002
{
1070
   172
1070
     1
1070
    40
1040
30.0
1070
   271
1070
     0
1070
   143
1040
0.039
1002
}
  0
DIMENSION
  5
7FFF
330
19
100
AcDbEntity
  8
3
100
AcDbDimension
280
     0
  2
*D21
 10
893.7763956359521
 20
2091.0925591949
 30
0.0
 11
818.7763956359521
 21
2811.0925591949
 31
0.0
 70
    32
 71
     5
 42
-1.0
 73
     0
 74
     0
 75
     0
  3
IGA
100
AcDbAlignedDimension
 13
1880.791387383865
 23
3531.092559194899
 33
0.0
 14
1327.291387383866
 24
2091.0925591949
 34
0.0
 50
90.0
100
AcDbRotatedDimension
1001
ACAD
1000
DSTYLE
1002
{
1070
   172
1070
     1
1070
    40
1040
30.0
1070
   271
1070
     0
1070
   143
1040
0.039
1002
}
  0
DIMENSION
  5
810F
330
19
100
AcDbEntity
  8
3
100
AcDbDimension
280
     0
  2
*D22
 10
4875.892396101392
 20
4009.412318889569
 30
0.0
 11
4390.89239610139
 21
4107.983747460997
 31
0.0
 70
    32
  1
(<>)
 71
     5
 42
970.0000000000018
 73
     0
 74
     0
 75
     0
  3
IGA
100
AcDbAlignedDimension
 13
3905.892396101389
 23
3131.092559194899
 33
0.0
 14
4875.892396101392
 24
3773.66250512382
 34
0.0
100
AcDbRotatedDimension
1001
ACAD
1000
DSTYLE
1002
{
1070
    40
1040
30.0
1070
   143
1040
0.039
1070
   172
1070
     1
1070
   271
1070
     0
1002
}
  0
DIMENSION
  5
811C
330
19
100
AcDbEntity
  8
3
100
AcDbDimension
280
     0
  2
*D23
 10
5595.39239610139
 20
4009.412318889569
 30
0.0
 11
5235.642396101391
 21
4107.983747460997
 31
0.0
 70
    32
  1
(<>)
 71
     5
 42
719.4999999999981
 73
     0
 74
     0
 75
     0
  3
IGA
100
AcDbAlignedDimension
 13
4875.892396101392
 23
3773.66250512382
 33
0.0
 14
5595.39239610139
 24
2871.5925591949
 34
0.0
100
AcDbRotatedDimension
1001
ACAD
1000
DSTYLE
1002
{
1070
    40
1040
30.0
1070
   143
1040
0.039
1070
   172
1070
     1
1070
   271
1070
     0
1002
}
  0
ENDSEC
  0
SECTION
  2
OBJECTS
  0
DICTIONARY
  5
C
330
0
100
AcDbDictionary
281
     1
  3
ACAD_CIP_PREVIOUS_PRODUCT_INFO
350
810E
  3
ACAD_COLOR
350
80F1
  3
ACAD_DETAILVIEWSTYLE
350
810A
  3
ACAD_GROUP
350
D
  3
ACAD_LAYOUT
350
8008
  3
ACAD_MATERIAL
350
80BF
  3
ACAD_MLEADERSTYLE
350
8106
  3
ACAD_MLINESTYLE
350
E
  3
ACAD_PLOTSETTINGS
350
8009
  3
ACAD_PLOTSTYLENAME
350
8006
  3
ACAD_SCALELIST
350
80F4
  3
ACAD_SECTIONVIEWSTYLE
350
8108
  3
ACAD_TABLESTYLE
350
80F2
  3
ACAD_VISUALSTYLE
350
80D8
  3
ACDB_RECOMPOSE_DATA
350
81C9
  3
AcDbVariableDictionary
350
80B6
  3
AcDsDecomposeData
350
81CF
  0
DICTIONARY
  5
818A
330
2
100
AcDbDictionary
280
     1
281
     1
  3
ACAD_LAYERSTATES
360
818B
  0
DICTIONARY
  5
817D
330
F
100
AcDbDictionary
280
     1
281
     1
  3
ADSK_XREC_LAYER_RECONCILED
360
817E
  0
DICTIONARY
  5
817F
330
31
100
AcDbDictionary
280
     1
281
     1
  3
ADSK_XREC_LAYER_RECONCILED
360
8180
  0
DICTIONARY
  5
8181
330
76D0
100
AcDbDictionary
280
     1
281
     1
  3
ADSK_XREC_LAYER_RECONCILED
360
8182
  0
DICTIONARY
  5
8183
330
76D1
100
AcDbDictionary
280
     1
281
     1
  3
ADSK_XREC_LAYER_RECONCILED
360
8184
  0
DICTIONARY
  5
8185
330
76D2
100
AcDbDictionary
280
     1
281
     1
  3
ADSK_XREC_LAYER_RECONCILED
360
8186
  0
DICTIONARY
  5
8035
330
19
100
AcDbDictionary
280
     1
281
     1
  3
ACAD_LAYOUTSELFREF
360
8036
  0
DICTIONARY
  5
8033
330
16
100
AcDbDictionary
280
     1
281
     1
  3
ACAD_LAYOUTSELFREF
360
8034
  0
XRECORD
  5
810E
102
{ACAD_REACTORS
330
C
102
}
330
C
100
AcDbXrecord
280
     1
300
ACDLT
300
2023
300

  0
DICTIONARY
  5
80F1
102
{ACAD_REACTORS
330
C
102
}
330
C
100
AcDbDictionary
281
     1
  0
DICTIONARY
  5
810A
102
{ACAD_REACTORS
330
C
102
}
330
C
100
AcDbDictionary
281
     1
  3
Metric50
350
810B
  0
DICTIONARY
  5
D
102
{ACAD_REACTORS
330
C
102
}
330
C
100
AcDbDictionary
281
     1
  0
DICTIONARY
  5
8008
102
{ACAD_REACTORS
330
C
102
}
330
C
100
AcDbDictionary
281
     1
  3
Model
350
800A
  3
ﾚｲｱｳﾄ1
350
800B
  0
DICTIONARY
  5
80BF
102
{ACAD_REACTORS
330
C
102
}
330
C
100
AcDbDictionary
281
     1
  3
ByBlock
350
80C8
  3
ByLayer
350
80C0
  3
Global
350
80D0
  0
DICTIONARY
  5
8106
102
{ACAD_REACTORS
330
C
102
}
330
C
100
AcDbDictionary
281
     1
  3
Standard
350
8107
  0
DICTIONARY
  5
E
102
{ACAD_REACTORS
330
C
102
}
330
C
100
AcDbDictionary
281
     1
  3
STANDARD
350
1C
  0
DICTIONARY
  5
8009
102
{ACAD_REACTORS
330
C
102
}
330
C
100
AcDbDictionary
281
     1
  0
ACDBDICTIONARYWDFLT
  5
8006
102
{ACAD_REACTORS
330
C
102
}
330
C
100
AcDbDictionary
281
     1
  3
Normal
350
8007
100
AcDbDictionaryWithDefault
340
8007
  0
DICTIONARY
  5
80F4
102
{ACAD_REACTORS
330
C
102
}
330
C
100
AcDbDictionary
281
     1
  3
A0
350
80F5
  3
A1
350
80F6
  3
A2
350
80F7
  3
A3
350
80F8
  3
A4
350
80F9
  3
A5
350
80FA
  3
A6
350
80FB
  3
A7
350
80FC
  3
A8
350
80FD
  3
A9
350
80FE
  3
B0
350
80FF
  3
B1
350
8100
  3
B2
350
8101
  3
B3
350
8102
  3
B4
350
8103
  3
B5
350
8104
  3
B6
350
8105
  0
DICTIONARY
  5
8108
102
{ACAD_REACTORS
330
C
102
}
330
C
100
AcDbDictionary
281
     1
  3
Metric50
350
8109
  0
DICTIONARY
  5
80F2
102
{ACAD_REACTORS
330
C
102
}
330
C
100
AcDbDictionary
281
     1
  3
Standard
350
80F3
  0
DICTIONARY
  5
80D8
102
{ACAD_REACTORS
330
C
102
}
330
C
100
AcDbDictionary
281
     1
  3
2dWireframe
350
80DE
  3
Basic
350
80DD
  3
Brighten
350
80E4
  3
ColorChange
350
80E8
  3
Conceptual
350
80E1
  3
Dim
350
80E3
  3
EdgeColorOff
350
80F0
  3
Facepattern
350
80E7
  3
Flat
350
80D9
  3
FlatWithEdges
350
80DA
  3
Gouraud
350
80DB
  3
GouraudWithEdges
350
80DC
  3
Hidden
350
80E0
  3
JitterOff
350
80EE
  3
Linepattern
350
80E6
  3
OverhangOff
350
80EF
  3
Realistic
350
80E2
  3
Shaded
350
80ED
  3
Shaded with edges
350
80EC
  3
Shades of Gray
350
80E9
  3
Sketchy
350
80EA
  3
Thicken
350
80E5
  3
Wireframe
350
80DF
  3
X-Ray
350
80EB
  0
XRECORD
  5
81C9
102
{ACAD_REACTORS
330
C
102
}
330
C
100
AcDbXrecord
280
     1
 90
        1
330
80F3
  0
DICTIONARY
  5
80B6
102
{ACAD_REACTORS
330
C
102
}
330
C
100
AcDbDictionary
281
     1
  3
CANNOSCALE
350
81BE
  3
CMLEADERSTYLE
350
81BA
  3
CTABLESTYLE
350
81B9
  3
CVIEWDETAILSTYLE
350
81BB
  3
CVIEWSECTIONSTYLE
350
81BC
  3
DIMASSOC
350
80B7
  3
LAYEREVAL
350
81C0
  3
LAYERNOTIFY
350
81C1
  3
LIGHTINGUNITS
350
81BF
  3
MARKUPASSISTMODE
350
81C6
  3
MSLTSCALE
350
81BD
  0
DICTIONARY
  5
81CF
102
{ACAD_REACTORS
330
C
102
}
330
C
100
AcDbDictionary
281
     1
  3
AcDsRecords
350
81D1
  3
AcDsSchemas
350
81D0
1001
ACAD
1070
     2
  0
DICTIONARY
  5
818B
102
{ACAD_REACTORS
330
818A
102
}
330
818A
100
AcDbDictionary
281
     1
  0
XRECORD
  5
817E
102
{ACAD_REACTORS
330
817D
102
}
330
817D
100
AcDbXrecord
280
     1
290
     1
  0
XRECORD
  5
8180
102
{ACAD_REACTORS
330
817F
102
}
330
817F
100
AcDbXrecord
280
     1
290
     1
  0
XRECORD
  5
8182
102
{ACAD_REACTORS
330
8181
102
}
330
8181
100
AcDbXrecord
280
     1
290
     1
  0
XRECORD
  5
8184
102
{ACAD_REACTORS
330
8183
102
}
330
8183
100
AcDbXrecord
280
     1
290
     1
  0
XRECORD
  5
8186
102
{ACAD_REACTORS
330
8185
102
}
330
8185
100
AcDbXrecord
280
     1
290
     1
  0
XRECORD
  5
8036
102
{ACAD_REACTORS
330
8035
102
}
330
8035
100
AcDbXrecord
280
     1
340
19
  0
XRECORD
  5
8034
102
{ACAD_REACTORS
330
8033
102
}
330
8033
100
AcDbXrecord
280
     1
340
16
  0
ACDBDETAILVIEWSTYLE
  5
810B
102
{ACAD_XDICTIONARY
360
81D4
102
}
102
{ACAD_REACTORS
330
810A
102
}
330
810A
100
AcDbModelDocViewStyle
 70
     0
  3
Metric50
290
     0
100
AcDbDetailViewStyle
 70
     0
 71
     0
 90
        3
 71
     1
340
10
 62
   256
 40
5.0
340
0
 62
   256
 40
5.0
300

 40
0.0
280
     1
 71
     2
340
15
 90
       25
 62
   256
 71
     3
340
10
 62
   256
 40
5.0
 90
        0
 40
15.0
 90
        1
300
%<\AcVar ViewDetailId>% (%<\AcVar ViewScale \f "%sn">%)
 71
     4
340
15
 90
       25
 62
   256
340
15
 90
       25
 62
   256
280
     0
  0
LAYOUT
  5
800A
102
{ACAD_REACTORS
330
8008
102
}
330
8008
100
AcDbPlotSettings
  1

  2
\\Txbo34x8944cqyd\EPSON LP-6100
  4

  6

 40
0.0
 41
0.0
 42
0.0
 43
0.0
 44
0.0
 45
0.0
 46
0.0
 47
0.0
 48
0.0
 49
0.0
140
0.0
141
0.0
142
1.0
143
1.0
 70
  1712
 72
     0
 73
     0
 74
     0
  7
GOD2000TABLE.ctb
 75
     0
147
1.0
 76
     0
 77
     2
 78
   300
148
0.0
149
0.0
100
AcDbLayout
  1
Model
 70
     1
 71
     0
 10
0.0
 20
0.0
 11
12.0
 21
9.0
 12
0.0
 22
0.0
 32
0.0
 14
0.0
 24
0.0
 34
0.0
 15
0.0
 25
0.0
 35
0.0
146
0.0
 13
0.0
 23
0.0
 33
0.0
 16
1.0
 26
0.0
 36
0.0
 17
0.0
 27
1.0
 37
0.0
 76
     0
330
19
331
80BD
  0
LAYOUT
  5
800B
102
{ACAD_REACTORS
330
8008
102
}
330
8008
100
AcDbPlotSettings
  1

  2
\\Txbo34x8944cqyd\EPSON LP-6100
  4

  6

 40
0.0
 41
0.0
 42
0.0
 43
0.0
 44
0.0
 45
0.0
 46
0.0
 47
0.0
 48
0.0
 49
0.0
140
0.0
141
0.0
142
1.0
143
1.0
 70
   688
 72
     0
 73
     0
 74
     5
  7
GOD2000TABLE.ctb
 75
    16
147
1.0
 76
     0
 77
     2
 78
   300
148
0.0
149
0.0
100
AcDbLayout
  1
ﾚｲｱｳﾄ1
 70
     1
 71
     1
 10
0.0
 20
0.0
 11
12.0
 21
9.0
 12
0.0
 22
0.0
 32
0.0
 14
1.000000000000000E+20
 24
1.000000000000000E+20
 34
1.000000000000000E+20
 15
-1.000000000000000E+20
 25
-1.000000000000000E+20
 35
-1.000000000000000E+20
146
0.0
 13
0.0
 23
0.0
 33
0.0
 16
1.0
 26
0.0
 36
0.0
 17
0.0
 27
1.0
 37
0.0
 76
     0
330
16
  0
MATERIAL
  5
80C8
102
{ACAD_XDICTIONARY
360
80C9
102
}
102
{ACAD_REACTORS
330
80BF
102
}
330
80BF
100
AcDbMaterial
  1
ByBlock
 72
     0
 43
0.0208333333333333
 43
0.0
 43
0.0
 43
0.0
 43
0.0
 43
0.0208333333333333
 43
0.0
 43
0.0
 43
0.0
 43
0.0
 43
1.0
 43
0.0
 43
0.0
 43
0.0
 43
0.0
 43
1.0
 77
     0
 47
0.0208333333333333
 47
0.0
 47
0.0
 47
0.0
 47
0.0
 47
0.0208333333333333
 47
0.0
 47
0.0
 47
0.0
 47
0.0
 47
1.0
 47
0.0
 47
0.0
 47
0.0
 47
0.0
 47
1.0
171
     0
 49
0.0208333333333333
 49
0.0
 49
0.0
 49
0.0
 49
0.0
 49
0.0208333333333333
 49
0.0
 49
0.0
 49
0.0
 49
0.0
 49
1.0
 49
0.0
 49
0.0
 49
0.0
 49
0.0
 49
1.0
175
     0
142
0.0208333333333333
142
0.0
142
0.0
142
0.0
142
0.0
142
0.0208333333333333
142
0.0
142
0.0
142
0.0
142
0.0
142
1.0
142
0.0
142
0.0
142
0.0
142
0.0
142
1.0
179
     0
144
0.0208333333333333
144
0.0
144
0.0
144
0.0
144
0.0
144
0.0208333333333333
144
0.0
144
0.0
144
0.0
144
0.0
144
1.0
144
0.0
144
0.0
144
0.0
144
0.0
144
1.0
147
0.0208333333333333
147
0.0
147
0.0
147
0.0
147
0.0
147
0.0208333333333333
147
0.0
147
0.0
147
0.0
147
0.0
147
1.0
147
0.0
147
0.0
147
0.0
147
0.0
147
1.0
  0
MATERIAL
  5
80C0
102
{ACAD_XDICTIONARY
360
80C1
102
}
102
{ACAD_REACTORS
330
80BF
102
}
330
80BF
100
AcDbMaterial
  1
ByLayer
 72
     0
 43
0.0208333333333333
 43
0.0
 43
0.0
 43
0.0
 43
0.0
 43
0.0208333333333333
 43
0.0
 43
0.0
 43
0.0
 43
0.0
 43
1.0
 43
0.0
 43
0.0
 43
0.0
 43
0.0
 43
1.0
 77
     0
 47
0.0208333333333333
 47
0.0
 47
0.0
 47
0.0
 47
0.0
 47
0.0208333333333333
 47
0.0
 47
0.0
 47
0.0
 47
0.0
 47
1.0
 47
0.0
 47
0.0
 47
0.0
 47
0.0
 47
1.0
171
     0
 49
0.0208333333333333
 49
0.0
 49
0.0
 49
0.0
 49
0.0
 49
0.0208333333333333
 49
0.0
 49
0.0
 49
0.0
 49
0.0
 49
1.0
 49
0.0
 49
0.0
 49
0.0
 49
0.0
 49
1.0
175
     0
142
0.0208333333333333
142
0.0
142
0.0
142
0.0
142
0.0
142
0.0208333333333333
142
0.0
142
0.0
142
0.0
142
0.0
142
1.0
142
0.0
142
0.0
142
0.0
142
0.0
142
1.0
179
     0
144
0.0208333333333333
144
0.0
144
0.0
144
0.0
144
0.0
144
0.0208333333333333
144
0.0
144
0.0
144
0.0
144
0.0
144
1.0
144
0.0
144
0.0
144
0.0
144
0.0
144
1.0
147
0.0208333333333333
147
0.0
147
0.0
147
0.0
147
0.0
147
0.0208333333333333
147
0.0
147
0.0
147
0.0
147
0.0
147
1.0
147
0.0
147
0.0
147
0.0
147
0.0
147
1.0
  0
MATERIAL
  5
80D0
102
{ACAD_XDICTIONARY
360
80D1
102
}
102
{ACAD_REACTORS
330
80BF
102
}
330
80BF
100
AcDbMaterial
  1
Global
 72
     0
 43
0.0208333333333333
 43
0.0
 43
0.0
 43
0.0
 43
0.0
 43
0.0208333333333333
 43
0.0
 43
0.0
 43
0.0
 43
0.0
 43
1.0
 43
0.0
 43
0.0
 43
0.0
 43
0.0
 43
1.0
 77
     0
 47
0.0208333333333333
 47
0.0
 47
0.0
 47
0.0
 47
0.0
 47
0.0208333333333333
 47
0.0
 47
0.0
 47
0.0
 47
0.0
 47
1.0
 47
0.0
 47
0.0
 47
0.0
 47
0.0
 47
1.0
171
     0
 49
0.0208333333333333
 49
0.0
 49
0.0
 49
0.0
 49
0.0
 49
0.0208333333333333
 49
0.0
 49
0.0
 49
0.0
 49
0.0
 49
1.0
 49
0.0
 49
0.0
 49
0.0
 49
0.0
 49
1.0
175
     0
142
0.0208333333333333
142
0.0
142
0.0
142
0.0
142
0.0
142
0.0208333333333333
142
0.0
142
0.0
142
0.0
142
0.0
142
1.0
142
0.0
142
0.0
142
0.0
142
0.0
142
1.0
179
     0
144
0.0208333333333333
144
0.0
144
0.0
144
0.0
144
0.0
144
0.0208333333333333
144
0.0
144
0.0
144
0.0
144
0.0
144
1.0
144
0.0
144
0.0
144
0.0
144
0.0
144
1.0
147
0.0208333333333333
147
0.0
147
0.0
147
0.0
147
0.0
147
0.0208333333333333
147
0.0
147
0.0
147
0.0
147
0.0
147
1.0
147
0.0
147
0.0
147
0.0
147
0.0
147
1.0
  0
MLEADERSTYLE
  5
8107
102
{ACAD_REACTORS
330
8106
102
}
330
8106
100
AcDbMLeaderStyle
179
     2
170
     2
171
     1
172
     0
 90
        2
 40
0.0
 41
0.0
173
     1
 91
-1056964608
340
13
 92
       -2
290
     1
 42
2.0
291
     1
 43
0.36
  3
Standard
 44
4.0
300

342
10
174
     1
178
     6
175
     1
176
     0
 93
-1056964608
 45
4.0
292
     0
297
     0
 46
4.0
 94
-1056964608
 47
1.0
 49
1.0
140
1.0
293
     1
141
0.0
294
     1
177
     0
142
1.0
295
     0
296
     0
143
0.125
271
     0
272
     9
273
     9
298
     1
  0
MLINESTYLE
  5
1C
102
{ACAD_REACTORS
330
E
102
}
330
E
100
AcDbMlineStyle
  2
STANDARD
 70
     0
  3

 62
     0
 51
90.0
 52
90.0
 71
     2
 49
0.5
 62
   256
  6
BYLAYER
 49
-0.5
 62
   256
  6
BYLAYER
  0
ACDBPLACEHOLDER
  5
8007
102
{ACAD_REACTORS
330
8006
102
}
330
8006
  0
SCALE
  5
80F5
102
{ACAD_REACTORS
330
80F4
102
}
330
80F4
100
AcDbScale
 70
     0
300
1:1
140
1.0
141
1.0
290
     1
  0
SCALE
  5
80F6
102
{ACAD_REACTORS
330
80F4
102
}
330
80F4
100
AcDbScale
 70
     0
300
1:2
140
1.0
141
2.0
290
     0
  0
SCALE
  5
80F7
102
{ACAD_REACTORS
330
80F4
102
}
330
80F4
100
AcDbScale
 70
     0
300
1:4
140
1.0
141
4.0
290
     0
  0
SCALE
  5
80F8
102
{ACAD_REACTORS
330
80F4
102
}
330
80F4
100
AcDbScale
 70
     0
300
1:5
140
1.0
141
5.0
290
     0
  0
SCALE
  5
80F9
102
{ACAD_REACTORS
330
80F4
102
}
330
80F4
100
AcDbScale
 70
     0
300
1:8
140
1.0
141
8.0
290
     0
  0
SCALE
  5
80FA
102
{ACAD_REACTORS
330
80F4
102
}
330
80F4
100
AcDbScale
 70
     0
300
1:10
140
1.0
141
10.0
290
     0
  0
SCALE
  5
80FB
102
{ACAD_REACTORS
330
80F4
102
}
330
80F4
100
AcDbScale
 70
     0
300
1:16
140
1.0
141
16.0
290
     0
  0
SCALE
  5
80FC
102
{ACAD_REACTORS
330
80F4
102
}
330
80F4
100
AcDbScale
 70
     0
300
1:20
140
1.0
141
20.0
290
     0
  0
SCALE
  5
80FD
102
{ACAD_REACTORS
330
80F4
102
}
330
80F4
100
AcDbScale
 70
     0
300
1:30
140
1.0
141
30.0
290
     0
  0
SCALE
  5
80FE
102
{ACAD_REACTORS
330
80F4
102
}
330
80F4
100
AcDbScale
 70
     0
300
1:40
140
1.0
141
40.0
290
     0
  0
SCALE
  5
80FF
102
{ACAD_REACTORS
330
80F4
102
}
330
80F4
100
AcDbScale
 70
     0
300
1:50
140
1.0
141
50.0
290
     0
  0
SCALE
  5
8100
102
{ACAD_REACTORS
330
80F4
102
}
330
80F4
100
AcDbScale
 70
     0
300
1:100
140
1.0
141
100.0
290
     0
  0
SCALE
  5
8101
102
{ACAD_REACTORS
330
80F4
102
}
330
80F4
100
AcDbScale
 70
     0
300
2:1
140
2.0
141
1.0
290
     0
  0
SCALE
  5
8102
102
{ACAD_REACTORS
330
80F4
102
}
330
80F4
100
AcDbScale
 70
     0
300
4:1
140
4.0
141
1.0
290
     0
  0
SCALE
  5
8103
102
{ACAD_REACTORS
330
80F4
102
}
330
80F4
100
AcDbScale
 70
     0
300
8:1
140
8.0
141
1.0
290
     0
  0
SCALE
  5
8104
102
{ACAD_REACTORS
330
80F4
102
}
330
80F4
100
AcDbScale
 70
     0
300
10:1
140
10.0
141
1.0
290
     0
  0
SCALE
  5
8105
102
{ACAD_REACTORS
330
80F4
102
}
330
80F4
100
AcDbScale
 70
     0
300
100:1
140
100.0
141
1.0
290
     0
  0
ACDBSECTIONVIEWSTYLE
  5
8109
102
{ACAD_XDICTIONARY
360
81D2
102
}
102
{ACAD_REACTORS
330
8108
102
}
330
8108
100
AcDbModelDocViewStyle
 70
     0
  3
Metric50
290
     0
100
AcDbSectionViewStyle
 70
     0
 71
     0
 90
      102
 71
     1
340
10
 62
   256
 40
5.0
340
0
340
0
 62
   256
 40
5.0
300
I, O, Q, S, X, Z
 40
10.0
 90
        0
 40
2.5
 90
        0
 71
     2
340
15
 90
       25
 62
   256
340
15
 90
       50
 62
   256
 40
5.0
 40
2.5
 40
5.0
 71
     3
340
10
 62
   256
 40
5.0
 90
        0
 40
15.0
 90
        1
300
%<\AcVar ViewSectionStartId>%-%<\AcVar ViewSectionEndId>% (%<\AcVar ViewScale \f "%sn">%)
 71
     4
 62
   256
 62
   257
300
ANSI31
 40
1.0
 90
        0
290
     0
290
     0
 90
        6
 40
0.0
 40
1.570796326794896
 40
0.2617993877991494
 40
1.308996938995747
 40
-0.2617993877991494
 40
1.832595714594046
  0
TABLESTYLE
  5
80F3
102
{ACAD_XDICTIONARY
360
81C7
102
}
102
{ACAD_REACTORS
330
80F2
102
}
330
80F2
100
AcDbTableStyle
280
     0
  3
Standard
 70
     0
 71
     0
 40
1.5
 41
1.5
280
     0
281
     0
  7
STANDARD
140
4.5
170
     2
 62
     0
 63
     7
283
     0
 90
      512
 91
        0
  1

274
    -2
284
     1
 64
     0
275
    -2
285
     1
 65
     0
276
    -2
286
     1
 66
     0
277
    -2
287
     1
 67
     0
278
    -2
288
     1
 68
     0
279
    -2
289
     1
 69
     0
  7
STANDARD
140
6.0
170
     5
 62
     0
 63
     7
283
     0
 90
      512
 91
        0
  1

274
    -2
284
     1
 64
     0
275
    -2
285
     1
 65
     0
276
    -2
286
     1
 66
     0
277
    -2
287
     1
 67
     0
278
    -2
288
     1
 68
     0
279
    -2
289
     1
 69
     0
  7
STANDARD
140
4.5
170
     5
 62
     0
 63
     7
283
     0
 90
      512
 91
        0
  1

274
    -2
284
     1
 64
     0
275
    -2
285
     1
 65
     0
276
    -2
286
     1
 66
     0
277
    -2
287
     1
 67
     0
278
    -2
288
     1
 68
     0
279
    -2
289
     1
 69
     0
  0
VISUALSTYLE
  5
80DE
102
{ACAD_REACTORS
330
80D8
102
}
330
80D8
100
AcDbVisualStyle
  2
2dWireframe
 70
     4
177
     3
291
     0
 70
    58
 90
        0
176
     1
 90
        2
176
     1
 90
        0
176
     1
 90
        0
176
     1
 40
0.6
176
     1
 40
30.0
176
     1
 62
     7
420
 16777215
176
     1
 90
        1
176
     1
 90
        4
176
     1
 62
     7
176
     1
 62
   257
176
     1
 90
        1
176
     1
 90
        1
176
     1
 40
1.0
176
     1
 90
        0
176
     1
 62
   257
176
     1
 40
1.0
176
     1
 90
        1
176
     1
 90
        6
176
     1
 90
        2
176
     1
 62
     7
176
     1
 90
        5
176
     1
 90
        0
176
     1
 90
        0
176
     1
290
     0
176
     1
 90
        1
176
     1
 40
0.0
176
     1
 90
        0
176
     1
290
     1
176
     1
290
     1
176
     1
290
     0
176
     1
290
     0
176
     1
290
     0
176
     1
290
     0
176
     1
290
     0
176
     1
290
     0
176
     1
290
     0
176
     1
 90
       50
176
     1
 40
0.0
176
     1
 40
1.0
176
     1
 90
        0
176
     1
 62
    18
420
        0
176
     1
 90
       50
176
     1
 90
        3
176
     1
 62
     5
420
      255
176
     1
290
     0
176
     1
 90
       50
176
     1
 90
       50
176
     1
 90
       50
176
     1
290
     0
176
     1
 90
       50
176
     1
 62
   256
176
     0
 40
1.0
176
     0
 90
        2
176
     1
  1
strokes_ogs.tif
176
     1
290
     0
176
     1
 40
1.0
176
     1
 40
1.0
176
     1
1001
ACAD
1000
AcDbSavedByObjectVersion
1070
     0
  0
VISUALSTYLE
  5
80DD
102
{ACAD_REACTORS
330
80D8
102
}
330
80D8
100
AcDbVisualStyle
  2
Basic
 70
     7
177
     3
291
     1
 70
    58
 90
        1
176
     1
 90
        0
176
     1
 90
        1
176
     1
 90
        0
176
     1
 40
0.6
176
     1
 40
30.0
176
     1
 62
     7
420
 16777215
176
     1
 90
        0
176
     1
 90
        4
176
     1
 62
     7
176
     1
 62
   257
176
     1
 90
        1
176
     1
 90
        1
176
     1
 40
1.0
176
     1
 90
        8
176
     1
 62
     7
176
     1
 40
1.0
176
     1
 90
        1
176
     1
 90
        6
176
     1
 90
        2
176
     1
 62
     7
176
     1
 90
        5
176
     1
 90
        0
176
     1
 90
        0
176
     1
290
     0
176
     1
 90
        1
176
     1
 40
0.0
176
     1
 90
        0
176
     1
290
     0
176
     1
290
     1
176
     1
290
     1
176
     1
290
     0
176
     1
290
     0
176
     1
290
     0
176
     1
290
     0
176
     1
290
     0
176
     1
290
     0
176
     1
 90
       50
176
     1
 40
0.0
176
     1
 40
1.0
176
     1
 90
        0
176
     1
 62
    18
420
        0
176
     1
 90
       50
176
     1
 90
        3
176
     1
 62
     5
420
      255
176
     1
290
     0
176
     1
 90
       50
176
     1
 90
       50
176
     1
 90
       50
176
     1
290
     0
176
     1
 90
       50
176
     1
 62
   256
176
     0
 40
1.0
176
     0
 90
        2
176
     1
  1
strokes_ogs.tif
176
     1
290
     0
176
     1
 40
1.0
176
     1
 40
1.0
176
     1
1001
ACAD
1000
AcDbSavedByObjectVersion
1070
     0
  0
VISUALSTYLE
  5
80E4
102
{ACAD_REACTORS
330
80D8
102
}
330
80D8
100
AcDbVisualStyle
  2
Brighten
 70
    12
177
     3
291
     1
 70
    58
 90
        2
176
     1
 90
        2
176
     1
 90
        0
176
     1
 90
        0
176
     1
 40
0.6
176
     1
 40
30.0
176
     1
 62
     7
420
 16777215
176
     1
 90
        1
176
     1
 90
        4
176
     1
 62
     7
176
     1
 62
   257
176
     1
 90
        1
176
     1
 90
        1
176
     1
 40
1.0
176
     1
 90
        8
176
     1
 62
     7
176
     1
 40
1.0
176
     1
 90
        1
176
     1
 90
        6
176
     1
 90
        2
176
     1
 62
     7
176
     1
 90
        5
176
     1
 90
        0
176
     1
 90
        0
176
     1
290
     0
176
     1
 90
        1
176
     1
 40
50.0
176
     1
 90
        0
176
     1
290
     0
176
     1
290
     1
176
     1
290
     1
176
     1
290
     0
176
     1
290
     0
176
     1
290
     0
176
     1
290
     0
176
     1
290
     0
176
     1
290
     0
176
     1
 90
       50
176
     1
 40
0.0
176
     1
 40
1.0
176
     1
 90
        0
176
     1
 62
    18
420
        0
176
     1
 90
       50
176
     1
 90
        3
176
     1
 62
     5
420
      255
176
     1
290
     0
176
     1
 90
       50
176
     1
 90
       50
176
     1
 90
       50
176
     1
290
     0
176
     1
 90
       50
176
     1
 62
   256
176
     0
 40
1.0
176
     0
 90
        2
176
     1
  1
strokes_ogs.tif
176
     1
290
     0
176
     1
 40
1.0
176
     1
 40
1.0
176
     1
1001
ACAD
1000
AcDbSavedByObjectVersion
1070
     0
  0
VISUALSTYLE
  5
80E8
102
{ACAD_REACTORS
330
80D8
102
}
330
80D8
100
AcDbVisualStyle
  2
ColorChange
 70
    16
177
     3
291
     1
 70
    58
 90
        2
176
     1
 90
        2
176
     1
 90
        3
176
     1
 90
        0
176
     1
 40
0.6
176
     1
 40
30.0
176
     1
 62
     8
420
  8421504
176
     1
 90
        1
176
     1
 90
        4
176
     1
 62
     7
176
     1
 62
   257
176
     1
 90
        1
176
     1
 90
        1
176
     1
 40
1.0
176
     1
 90
        8
176
     1
 62
     8
420
  8421504
176
     1
 40
1.0
176
     1
 90
        1
176
     1
 90
        6
176
     1
 90
        2
176
     1
 62
     7
176
     1
 90
        5
176
     1
 90
        0
176
     1
 90
        0
176
     1
290
     0
176
     1
 90
        1
176
     1
 40
0.0
176
     1
 90
        0
176
     1
290
     0
176
     1
290
     1
176
     1
290
     1
176
     1
290
     0
176
     1
290
     0
176
     1
290
     0
176
     1
290
     0
176
     1
290
     0
176
     1
290
     0
176
     1
 90
       50
176
     1
 40
0.0
176
     1
 40
1.0
176
     1
 90
        0
176
     1
 62
    18
420
        0
176
     1
 90
       50
176
     1
 90
        3
176
     1
 62
     5
420
      255
176
     1
290
     0
176
     1
 90
       50
176
     1
 90
       50
176
     1
 90
       50
176
     1
290
     0
176
     1
 90
       50
176
     1
 62
   256
176
     0
 40
1.0
176
     0
 90
        2
176
     1
  1
strokes_ogs.tif
176
     1
290
     0
176
     1
 40
1.0
176
     1
 40
1.0
176
     1
1001
ACAD
1000
AcDbSavedByObjectVersion
1070
     0
  0
VISUALSTYLE
  5
80E1
102
{ACAD_REACTORS
330
80D8
102
}
330
80D8
100
AcDbVisualStyle
  2
Conceptual
 70
     9
177
     3
291
     0
 70
    58
 90
        3
176
     1
 90
        2
176
     1
 90
        0
176
     1
 90
        0
176
     1
 40
0.6
176
     1
 40
30.0
176
     1
 62
     7
420
 16777215
176
     1
 90
        2
176
     1
 90
        2
176
     1
 62
     7
176
     1
 62
   257
176
     1
 90
        1
176
     1
 90
        1
176
     1
 40
179.0
176
     1
 90
        8
176
     1
 62
     7
176
     1
 40
1.0
176
     1
 90
        1
176
     1
 90
        6
176
     1
 90
        2
176
     1
 62
     7
176
     1
 90
        3
176
     1
 90
        0
176
     1
 90
        0
176
     1
290
     0
176
     1
 90
        1
176
     1
 40
0.0
176
     1
 90
        0
176
     1
290
     0
176
     1
290
     1
176
     1
290
     1
176
     1
290
     0
176
     1
290
     0
176
     1
290
     0
176
     1
290
     0
176
     1
290
     0
176
     1
290
     0
176
     1
 90
       50
176
     1
 40
0.0
176
     1
 40
1.0
176
     1
 90
        0
176
     1
 62
    18
420
        0
176
     1
 90
       50
176
     1
 90
        3
176
     1
 62
     5
420
      255
176
     1
290
     0
176
     1
 90
       50
176
     1
 90
       50
176
     1
 90
       50
176
     1
290
     0
176
     1
 90
       50
176
     1
 62
   256
176
     0
 40
1.0
176
     0
 90
        2
176
     1
  1
strokes_ogs.tif
176
     1
290
     0
176
     1
 40
1.0
176
     1
 40
1.0
176
     1
1001
ACAD
1000
AcDbSavedByObjectVersion
1070
     0
  0
VISUALSTYLE
  5
80E3
102
{ACAD_REACTORS
330
80D8
102
}
330
80D8
100
AcDbVisualStyle
  2
Dim
 70
    11
177
     3
291
     1
 70
    58
 90
        2
176
     1
 90
        2
176
     1
 90
        0
176
     1
 90
        0
176
     1
 40
0.6
176
     1
 40
30.0
176
     1
 62
     7
420
 16777215
176
     1
 90
        1
176
     1
 90
        4
176
     1
 62
     7
176
     1
 62
   257
176
     1
 90
        1
176
     1
 90
        1
176
     1
 40
1.0
176
     1
 90
        8
176
     1
 62
     7
176
     1
 40
1.0
176
     1
 90
        1
176
     1
 90
        6
176
     1
 90
        2
176
     1
 62
     7
176
     1
 90
        5
176
     1
 90
        0
176
     1
 90
        0
176
     1
290
     0
176
     1
 90
        1
176
     1
 40
-50.0
176
     1
 90
        0
176
     1
290
     0
176
     1
290
     1
176
     1
290
     1
176
     1
290
     0
176
     1
290
     0
176
     1
290
     0
176
     1
290
     0
176
     1
290
     0
176
     1
290
     0
176
     1
 90
       50
176
     1
 40
0.0
176
     1
 40
1.0
176
     1
 90
        0
176
     1
 62
    18
420
        0
176
     1
 90
       50
176
     1
 90
        3
176
     1
 62
     5
420
      255
176
     1
290
     0
176
     1
 90
       50
176
     1
 90
       50
176
     1
 90
       50
176
     1
290
     0
176
     1
 90
       50
176
     1
 62
   256
176
     0
 40
1.0
176
     0
 90
        2
176
     1
  1
strokes_ogs.tif
176
     1
290
     0
176
     1
 40
1.0
176
     1
 40
1.0
176
     1
1001
ACAD
1000
AcDbSavedByObjectVersion
1070
     0
  0
VISUALSTYLE
  5
80F0
102
{ACAD_REACTORS
330
80D8
102
}
330
80D8
100
AcDbVisualStyle
  2
EdgeColorOff
 70
    22
177
     3
291
     1
 70
    58
 90
        2
176
     0
 90
        2
176
     0
 90
        0
176
     0
 90
        0
176
     0
 40
0.6
176
     0
 40
30.0
176
     0
 62
     7
420
 16777215
176
     0
 90
        1
176
     0
 90
        4
176
     0
 62
     7
176
     0
 62
   257
176
     0
 90
        1
176
     0
 90
        1
176
     0
 40
1.0
176
     0
 90
        8
176
     2
 62
     7
176
     0
 40
1.0
176
     0
 90
        1
176
     0
 90
        6
176
     0
 90
        2
176
     0
 62
     7
176
     0
 90
        5
176
     0
 90
        0
176
     0
 90
        0
176
     0
290
     0
176
     0
 90
        1
176
     0
 40
0.0
176
     0
 90
        0
176
     0
290
     0
176
     0
290
     1
176
     0
290
     1
176
     0
290
     0
176
     0
290
     0
176
     0
290
     0
176
     0
290
     0
176
     0
290
     0
176
     0
290
     0
176
     0
 90
       50
176
     0
 40
0.0
176
     0
 40
1.0
176
     0
 90
        0
176
     0
 62
    18
420
        0
176
     0
 90
       50
176
     0
 90
        3
176
     0
 62
     5
420
      255
176
     0
290
     0
176
     0
 90
       50
176
     0
 90
       50
176
     0
 90
       50
176
     0
290
     0
176
     0
 90
       50
176
     0
 62
   256
176
     0
 40
1.0
176
     0
 90
        2
176
     0
  1
strokes_ogs.tif
176
     0
290
     0
176
     0
 40
1.0
176
     0
 40
1.0
176
     0
1001
ACAD
1000
AcDbSavedByObjectVersion
1070
     0
  0
VISUALSTYLE
  5
80E7
102
{ACAD_REACTORS
330
80D8
102
}
330
80D8
100
AcDbVisualStyle
  2
Facepattern
 70
    15
177
     3
291
     1
 70
    58
 90
        2
176
     1
 90
        2
176
     1
 90
        0
176
     1
 90
        0
176
     1
 40
0.6
176
     1
 40
30.0
176
     1
 62
     7
420
 16777215
176
     1
 90
        1
176
     1
 90
        4
176
     1
 62
     7
176
     1
 62
   257
176
     1
 90
        1
176
     1
 90
        1
176
     1
 40
1.0
176
     1
 90
        8
176
     1
 62
     7
176
     1
 40
1.0
176
     1
 90
        1
176
     1
 90
        6
176
     1
 90
        2
176
     1
 62
     7
176
     1
 90
        5
176
     1
 90
        0
176
     1
 90
        0
176
     1
290
     0
176
     1
 90
        1
176
     1
 40
0.0
176
     1
 90
        0
176
     1
290
     0
176
     1
290
     1
176
     1
290
     1
176
     1
290
     0
176
     1
290
     0
176
     1
290
     0
176
     1
290
     0
176
     1
290
     0
176
     1
290
     0
176
     1
 90
       50
176
     1
 40
0.0
176
     1
 40
1.0
176
     1
 90
        0
176
     1
 62
    18
420
        0
176
     1
 90
       50
176
     1
 90
        3
176
     1
 62
     5
420
      255
176
     1
290
     0
176
     1
 90
       50
176
     1
 90
       50
176
     1
 90
       50
176
     1
290
     0
176
     1
 90
       50
176
     1
 62
   256
176
     0
 40
1.0
176
     0
 90
        2
176
     1
  1
strokes_ogs.tif
176
     1
290
     0
176
     1
 40
1.0
176
     1
 40
1.0
176
     1
1001
ACAD
1000
AcDbSavedByObjectVersion
1070
     0
  0
VISUALSTYLE
  5
80D9
102
{ACAD_REACTORS
330
80D8
102
}
330
80D8
100
AcDbVisualStyle
  2
Flat
 70
     0
177
     3
291
     1
 70
    58
 90
        2
176
     1
 90
        1
176
     1
 90
        1
176
     1
 90
        2
176
     1
 40
0.6
176
     1
 40
30.0
176
     1
 62
     7
420
 16777215
176
     1
 90
        0
176
     1
 90
        0
176
     1
 62
     7
176
     1
 62
   257
176
     1
 90
        1
176
     1
 90
        1
176
     1
 40
1.0
176
     1
 90
        8
176
     1
 62
     7
176
     1
 40
1.0
176
     1
 90
        1
176
     1
 90
        6
176
     1
 90
        2
176
     1
 62
     7
176
     1
 90
        5
176
     1
 90
        0
176
     1
 90
        0
176
     1
290
     0
176
     1
 90
       13
176
     1
 40
0.0
176
     1
 90
        0
176
     1
290
     0
176
     1
290
     1
176
     1
290
     1
176
     1
290
     0
176
     1
290
     0
176
     1
290
     0
176
     1
290
     0
176
     1
290
     0
176
     1
290
     0
176
     1
 90
       50
176
     1
 40
0.0
176
     1
 40
1.0
176
     1
 90
        0
176
     1
 62
    18
420
        0
176
     1
 90
       50
176
     1
 90
        3
176
     1
 62
     5
420
      255
176
     1
290
     0
176
     1
 90
       50
176
     1
 90
       50
176
     1
 90
       50
176
     1
290
     0
176
     1
 90
       50
176
     1
 62
   256
176
     0
 40
1.0
176
     0
 90
        2
176
     1
  1
strokes_ogs.tif
176
     1
290
     0
176
     1
 40
1.0
176
     1
 40
1.0
176
     1
1001
ACAD
1000
AcDbSavedByObjectVersion
1070
     0
  0
VISUALSTYLE
  5
80DA
102
{ACAD_REACTORS
330
80D8
102
}
330
80D8
100
AcDbVisualStyle
  2
FlatWithEdges
 70
     1
177
     3
291
     1
 70
    58
 90
        2
176
     1
 90
        1
176
     1
 90
        1
176
     1
 90
        2
176
     1
 40
0.6
176
     1
 40
30.0
176
     1
 62
     7
420
 16777215
176
     1
 90
        1
176
     1
 90
        0
176
     1
 62
     7
176
     1
 62
   257
176
     1
 90
        1
176
     1
 90
        1
176
     1
 40
1.0
176
     1
 90
        0
176
     1
 62
   257
176
     1
 40
1.0
176
     1
 90
        1
176
     1
 90
        6
176
     1
 90
        2
176
     1
 62
     7
176
     1
 90
        5
176
     1
 90
        0
176
     1
 90
        0
176
     1
290
     0
176
     1
 90
       13
176
     1
 40
0.0
176
     1
 90
        0
176
     1
290
     0
176
     1
290
     1
176
     1
290
     1
176
     1
290
     0
176
     1
290
     0
176
     1
290
     0
176
     1
290
     0
176
     1
290
     0
176
     1
290
     0
176
     1
 90
       50
176
     1
 40
0.0
176
     1
 40
1.0
176
     1
 90
        0
176
     1
 62
    18
420
        0
176
     1
 90
       50
176
     1
 90
        3
176
     1
 62
     5
420
      255
176
     1
290
     0
176
     1
 90
       50
176
     1
 90
       50
176
     1
 90
       50
176
     1
290
     0
176
     1
 90
       50
176
     1
 62
   256
176
     0
 40
1.0
176
     0
 90
        2
176
     1
  1
strokes_ogs.tif
176
     1
290
     0
176
     1
 40
1.0
176
     1
 40
1.0
176
     1
1001
ACAD
1000
AcDbSavedByObjectVersion
1070
     0
  0
VISUALSTYLE
  5
80DB
102
{ACAD_REACTORS
330
80D8
102
}
330
80D8
100
AcDbVisualStyle
  2
Gouraud
 70
     2
177
     3
291
     1
 70
    58
 90
        2
176
     1
 90
        2
176
     1
 90
        1
176
     1
 90
        2
176
     1
 40
0.6
176
     1
 40
30.0
176
     1
 62
     7
420
 16777215
176
     1
 90
        0
176
     1
 90
        0
176
     1
 62
     7
176
     1
 62
   257
176
     1
 90
        1
176
     1
 90
        1
176
     1
 40
1.0
176
     1
 90
        0
176
     1
 62
     7
176
     1
 40
1.0
176
     1
 90
        1
176
     1
 90
        6
176
     1
 90
        2
176
     1
 62
     7
176
     1
 90
        5
176
     1
 90
        0
176
     1
 90
        0
176
     1
290
     0
176
     1
 90
       13
176
     1
 40
0.0
176
     1
 90
        0
176
     1
290
     0
176
     1
290
     1
176
     1
290
     1
176
     1
290
     0
176
     1
290
     0
176
     1
290
     0
176
     1
290
     0
176
     1
290
     0
176
     1
290
     0
176
     1
 90
       50
176
     1
 40
0.0
176
     1
 40
1.0
176
     1
 90
        0
176
     1
 62
    18
420
        0
176
     1
 90
       50
176
     1
 90
        3
176
     1
 62
     5
420
      255
176
     1
290
     0
176
     1
 90
       50
176
     1
 90
       50
176
     1
 90
       50
176
     1
290
     0
176
     1
 90
       50
176
     1
 62
   256
176
     0
 40
1.0
176
     0
 90
        2
176
     1
  1
strokes_ogs.tif
176
     1
290
     0
176
     1
 40
1.0
176
     1
 40
1.0
176
     1
1001
ACAD
1000
AcDbSavedByObjectVersion
1070
     0
  0
VISUALSTYLE
  5
80DC
102
{ACAD_REACTORS
330
80D8
102
}
330
80D8
100
AcDbVisualStyle
  2
GouraudWithEdges
 70
     3
177
     3
291
     1
 70
    58
 90
        2
176
     1
 90
        2
176
     1
 90
        1
176
     1
 90
        2
176
     1
 40
0.6
176
     1
 40
30.0
176
     1
 62
     7
420
 16777215
176
     1
 90
        1
176
     1
 90
        0
176
     1
 62
     7
176
     1
 62
   257
176
     1
 90
        1
176
     1
 90
        1
176
     1
 40
1.0
176
     1
 90
        0
176
     1
 62
   257
176
     1
 40
1.0
176
     1
 90
        1
176
     1
 90
        6
176
     1
 90
        2
176
     1
 62
     7
176
     1
 90
        5
176
     1
 90
        0
176
     1
 90
        0
176
     1
290
     0
176
     1
 90
       13
176
     1
 40
0.0
176
     1
 90
        0
176
     1
290
     0
176
     1
290
     1
176
     1
290
     1
176
     1
290
     0
176
     1
290
     0
176
     1
290
     0
176
     1
290
     0
176
     1
290
     0
176
     1
290
     0
176
     1
 90
       50
176
     1
 40
0.0
176
     1
 40
1.0
176
     1
 90
        0
176
     1
 62
    18
420
        0
176
     1
 90
       50
176
     1
 90
        3
176
     1
 62
     5
420
      255
176
     1
290
     0
176
     1
 90
       50
176
     1
 90
       50
176
     1
 90
       50
176
     1
290
     0
176
     1
 90
       50
176
     1
 62
   256
176
     0
 40
1.0
176
     0
 90
        2
176
     1
  1
strokes_ogs.tif
176
     1
290
     0
176
     1
 40
1.0
176
     1
 40
1.0
176
     1
1001
ACAD
1000
AcDbSavedByObjectVersion
1070
     0
  0
VISUALSTYLE
  5
80E0
102
{ACAD_REACTORS
330
80D8
102
}
330
80D8
100
AcDbVisualStyle
  2
Hidden
 70
     6
177
     3
291
     0
 70
    58
 90
        1
176
     1
 90
        2
176
     1
 90
        2
176
     1
 90
        0
176
     1
 40
0.6
176
     1
 40
30.0
176
     1
 62
     7
420
 16777215
176
     1
 90
        2
176
     1
 90
        2
176
     1
 62
     7
176
     1
 62
   257
176
     1
 90
        2
176
     1
 90
        1
176
     1
 40
40.0
176
     1
 90
        0
176
     1
 62
   257
176
     1
 40
1.0
176
     1
 90
        1
176
     1
 90
        6
176
     1
 90
        2
176
     1
 62
     7
176
     1
 90
        3
176
     1
 90
        0
176
     1
 90
        0
176
     1
290
     0
176
     1
 90
        1
176
     1
 40
0.0
176
     1
 90
        0
176
     1
290
     0
176
     1
290
     1
176
     1
290
     1
176
     1
290
     0
176
     1
290
     0
176
     1
290
     0
176
     1
290
     0
176
     1
290
     0
176
     1
290
     0
176
     1
 90
       50
176
     1
 40
0.0
176
     1
 40
1.0
176
     1
 90
        0
176
     1
 62
    18
420
        0
176
     1
 90
       50
176
     1
 90
        3
176
     1
 62
     5
420
      255
176
     1
290
     0
176
     1
 90
       50
176
     1
 90
       50
176
     1
 90
       50
176
     1
290
     0
176
     1
 90
       50
176
     1
 62
   256
176
     0
 40
1.0
176
     0
 90
        2
176
     1
  1
strokes_ogs.tif
176
     1
290
     0
176
     1
 40
1.0
176
     1
 40
1.0
176
     1
1001
ACAD
1000
AcDbSavedByObjectVersion
1070
     0
  0
VISUALSTYLE
  5
80EE
102
{ACAD_REACTORS
330
80D8
102
}
330
80D8
100
AcDbVisualStyle
  2
JitterOff
 70
    20
177
     3
291
     1
 70
    58
 90
        2
176
     0
 90
        2
176
     0
 90
        0
176
     0
 90
        0
176
     0
 40
0.6
176
     0
 40
30.0
176
     0
 62
     7
420
 16777215
176
     0
 90
        1
176
     0
 90
        4
176
     0
 62
     7
176
     0
 62
   257
176
     0
 90
        1
176
     0
 90
        1
176
     0
 40
1.0
176
     0
 90
       10
176
     2
 62
     7
176
     0
 40
1.0
176
     0
 90
        1
176
     0
 90
        6
176
     0
 90
        2
176
     0
 62
     7
176
     0
 90
        5
176
     0
 90
        0
176
     0
 90
        0
176
     0
290
     0
176
     0
 90
        1
176
     0
 40
0.0
176
     0
 90
        0
176
     0
290
     0
176
     0
290
     1
176
     0
290
     1
176
     0
290
     0
176
     0
290
     0
176
     0
290
     0
176
     0
290
     0
176
     0
290
     0
176
     0
290
     0
176
     0
 90
       50
176
     0
 40
0.0
176
     0
 40
1.0
176
     0
 90
        0
176
     0
 62
    18
420
        0
176
     0
 90
       50
176
     0
 90
        3
176
     0
 62
     5
420
      255
176
     0
290
     0
176
     0
 90
       50
176
     0
 90
       50
176
     0
 90
       50
176
     0
290
     0
176
     0
 90
       50
176
     0
 62
   256
176
     0
 40
1.0
176
     0
 90
        2
176
     0
  1
strokes_ogs.tif
176
     0
290
     0
176
     0
 40
1.0
176
     0
 40
1.0
176
     0
1001
ACAD
1000
AcDbSavedByObjectVersion
1070
     0
  0
VISUALSTYLE
  5
80E6
102
{ACAD_REACTORS
330
80D8
102
}
330
80D8
100
AcDbVisualStyle
  2
Linepattern
 70
    14
177
     3
291
     1
 70
    58
 90
        2
176
     1
 90
        2
176
     1
 90
        0
176
     1
 90
        0
176
     1
 40
0.6
176
     1
 40
30.0
176
     1
 62
     7
420
 16777215
176
     1
 90
        1
176
     1
 90
        4
176
     1
 62
     7
176
     1
 62
   257
176
     1
 90
        7
176
     1
 90
        7
176
     1
 40
1.0
176
     1
 90
        8
176
     1
 62
     7
176
     1
 40
1.0
176
     1
 90
        1
176
     1
 90
        6
176
     1
 90
        2
176
     1
 62
     7
176
     1
 90
        5
176
     1
 90
        0
176
     1
 90
        0
176
     1
290
     0
176
     1
 90
        1
176
     1
 40
0.0
176
     1
 90
        0
176
     1
290
     0
176
     1
290
     1
176
     1
290
     1
176
     1
290
     0
176
     1
290
     0
176
     1
290
     0
176
     1
290
     0
176
     1
290
     0
176
     1
290
     0
176
     1
 90
       50
176
     1
 40
0.0
176
     1
 40
1.0
176
     1
 90
        0
176
     1
 62
    18
420
        0
176
     1
 90
       50
176
     1
 90
        3
176
     1
 62
     5
420
      255
176
     1
290
     0
176
     1
 90
       50
176
     1
 90
       50
176
     1
 90
       50
176
     1
290
     0
176
     1
 90
       50
176
     1
 62
   256
176
     0
 40
1.0
176
     0
 90
        2
176
     1
  1
strokes_ogs.tif
176
     1
290
     0
176
     1
 40
1.0
176
     1
 40
1.0
176
     1
1001
ACAD
1000
AcDbSavedByObjectVersion
1070
     0
  0
VISUALSTYLE
  5
80EF
102
{ACAD_REACTORS
330
80D8
102
}
330
80D8
100
AcDbVisualStyle
  2
OverhangOff
 70
    21
177
     3
291
     1
 70
    58
 90
        2
176
     0
 90
        2
176
     0
 90
        0
176
     0
 90
        0
176
     0
 40
0.6
176
     0
 40
30.0
176
     0
 62
     7
420
 16777215
176
     0
 90
        1
176
     0
 90
        4
176
     0
 62
     7
176
     0
 62
   257
176
     0
 90
        1
176
     0
 90
        1
176
     0
 40
1.0
176
     0
 90
        9
176
     2
 62
     7
176
     0
 40
1.0
176
     0
 90
        1
176
     0
 90
        6
176
     0
 90
        2
176
     0
 62
     7
176
     0
 90
        5
176
     0
 90
        0
176
     0
 90
        0
176
     0
290
     0
176
     0
 90
        1
176
     0
 40
0.0
176
     0
 90
        0
176
     0
290
     0
176
     0
290
     1
176
     0
290
     1
176
     0
290
     0
176
     0
290
     0
176
     0
290
     0
176
     0
290
     0
176
     0
290
     0
176
     0
290
     0
176
     0
 90
       50
176
     0
 40
0.0
176
     0
 40
1.0
176
     0
 90
        0
176
     0
 62
    18
420
        0
176
     0
 90
       50
176
     0
 90
        3
176
     0
 62
     5
420
      255
176
     0
290
     0
176
     0
 90
       50
176
     0
 90
       50
176
     0
 90
       50
176
     0
290
     0
176
     0
 90
       50
176
     0
 62
   256
176
     0
 40
1.0
176
     0
 90
        2
176
     0
  1
strokes_ogs.tif
176
     0
290
     0
176
     0
 40
1.0
176
     0
 40
1.0
176
     0
1001
ACAD
1000
AcDbSavedByObjectVersion
1070
     0
  0
VISUALSTYLE
  5
80E2
102
{ACAD_REACTORS
330
80D8
102
}
330
80D8
100
AcDbVisualStyle
  2
Realistic
 70
     8
177
     3
291
     0
 70
    58
 90
        2
176
     1
 90
        3
176
     1
 90
        0
176
     1
 90
        2
176
     1
 40
0.6
176
     1
 40
30.0
176
     1
 62
     7
420
 16777215
176
     1
 90
        0
176
     1
 90
        0
176
     1
 62
     7
176
     1
 62
   257
176
     1
 90
        1
176
     1
 90
        1
176
     1
 40
1.0
176
     1
 90
        8
176
     1
 62
   257
176
     1
 40
1.0
176
     1
 90
        1
176
     1
 90
        6
176
     1
 90
        2
176
     1
 62
     7
176
     1
 90
        3
176
     1
 90
        0
176
     1
 90
        0
176
     1
290
     0
176
     1
 90
       13
176
     1
 40
0.0
176
     1
 90
        0
176
     1
290
     0
176
     1
290
     1
176
     1
290
     1
176
     1
290
     0
176
     1
290
     0
176
     1
290
     0
176
     1
290
     0
176
     1
290
     0
176
     1
290
     0
176
     1
 90
       50
176
     1
 40
0.0
176
     1
 40
1.0
176
     1
 90
        0
176
     1
 62
    18
420
        0
176
     1
 90
       50
176
     1
 90
        3
176
     1
 62
     5
420
      255
176
     1
290
     0
176
     1
 90
       50
176
     1
 90
       50
176
     1
 90
       50
176
     1
290
     0
176
     1
 90
       50
176
     1
 62
   256
176
     0
 40
1.0
176
     0
 90
        2
176
     1
  1
strokes_ogs.tif
176
     1
290
     0
176
     1
 40
1.0
176
     1
 40
1.0
176
     1
1001
ACAD
1000
AcDbSavedByObjectVersion
1070
     0
  0
VISUALSTYLE
  5
80ED
102
{ACAD_REACTORS
330
80D8
102
}
330
80D8
100
AcDbVisualStyle
  2
Shaded
 70
    27
177
     3
291
     0
 70
    58
 90
        2
176
     1
 90
        2
176
     1
 90
        1
176
     1
 90
        2
176
     1
 40
0.6
176
     1
 40
30.0
176
     1
 62
     7
420
 16777215
176
     1
 90
        0
176
     1
 90
        4
176
     1
 62
     7
176
     1
 62
   257
176
     1
 90
        1
176
     1
 90
        1
176
     1
 40
1.0
176
     1
 90
        8
176
     1
 62
   257
176
     1
 40
1.0
176
     1
 90
        1
176
     1
 90
        6
176
     1
 90
        2
176
     1
 62
     8
420
  7895160
176
     1
 90
        3
176
     1
 90
        0
176
     1
 90
        0
176
     1
290
     0
176
     1
 90
        5
176
     1
 40
0.0
176
     1
 90
        0
176
     1
290
     0
176
     1
290
     1
176
     1
290
     1
176
     1
290
     0
176
     1
290
     0
176
     1
290
     0
176
     1
290
     0
176
     1
290
     0
176
     1
290
     0
176
     1
 90
       50
176
     1
 40
0.0
176
     1
 40
1.0
176
     1
 90
        0
176
     1
 62
    18
420
        0
176
     1
 90
       50
176
     1
 90
        3
176
     1
 62
     5
420
      255
176
     1
290
     0
176
     1
 90
       50
176
     1
 90
       50
176
     1
 90
       50
176
     1
290
     0
176
     1
 90
       50
176
     1
 62
   256
176
     0
 40
1.0
176
     0
 90
        2
176
     1
  1
strokes_ogs.tif
176
     1
290
     0
176
     1
 40
1.0
176
     1
 40
1.0
176
     1
1001
ACAD
1000
AcDbSavedByObjectVersion
1070
     0
  0
VISUALSTYLE
  5
80EC
102
{ACAD_REACTORS
330
80D8
102
}
330
80D8
100
AcDbVisualStyle
  2
Shaded with edges
 70
    26
177
     3
291
     0
 70
    58
 90
        2
176
     1
 90
        2
176
     1
 90
        1
176
     1
 90
        2
176
     1
 40
0.6
176
     1
 40
30.0
176
     1
 62
     7
420
 16777215
176
     1
 90
        1
176
     1
 90
        2
176
     1
 62
     7
176
     1
 62
   257
176
     1
 90
        2
176
     1
 90
        1
176
     1
 40
1.0
176
     1
 90
        8
176
     1
 62
   257
176
     1
 40
1.0
176
     1
 90
        1
176
     1
 90
        6
176
     1
 90
        2
176
     1
 62
     7
176
     1
 90
        3
176
     1
 90
        0
176
     1
 90
        0
176
     1
290
     0
176
     1
 90
        5
176
     1
 40
0.0
176
     1
 90
        0
176
     1
290
     0
176
     1
290
     1
176
     1
290
     1
176
     1
290
     0
176
     1
290
     0
176
     1
290
     0
176
     1
290
     0
176
     1
290
     0
176
     1
290
     0
176
     1
 90
       50
176
     1
 40
0.0
176
     1
 40
1.0
176
     1
 90
        0
176
     1
 62
    18
420
        0
176
     1
 90
       50
176
     1
 90
        3
176
     1
 62
     5
420
      255
176
     1
290
     0
176
     1
 90
       50
176
     1
 90
       50
176
     1
 90
       50
176
     1
290
     0
176
     1
 90
       50
176
     1
 62
   256
176
     0
 40
1.0
176
     0
 90
        2
176
     1
  1
strokes_ogs.tif
176
     1
290
     0
176
     1
 40
1.0
176
     1
 40
1.0
176
     1
1001
ACAD
1000
AcDbSavedByObjectVersion
1070
     0
  0
VISUALSTYLE
  5
80E9
102
{ACAD_REACTORS
330
80D8
102
}
330
80D8
100
AcDbVisualStyle
  2
Shades of Gray
 70
    23
177
     3
291
     0
 70
    58
 90
        2
176
     1
 90
        2
176
     1
 90
        3
176
     1
 90
        0
176
     1
 40
0.6
176
     1
 40
30.0
176
     1
 62
     7
420
 16777215
176
     1
 90
        2
176
     1
 90
        2
176
     1
 62
     7
176
     1
 62
     7
176
     1
 90
        1
176
     1
 90
        1
176
     1
 40
40.0
176
     1
 90
        8
176
     1
 62
     7
176
     1
 40
1.0
176
     1
 90
        1
176
     1
 90
        6
176
     1
 90
        2
176
     1
 62
     7
176
     1
 90
        3
176
     1
 90
        0
176
     1
 90
        0
176
     1
290
     0
176
     1
 90
        1
176
     1
 40
0.0
176
     1
 90
        0
176
     1
290
     0
176
     1
290
     1
176
     1
290
     1
176
     1
290
     0
176
     1
290
     0
176
     1
290
     0
176
     1
290
     0
176
     1
290
     0
176
     1
290
     0
176
     1
 90
       50
176
     1
 40
0.0
176
     1
 40
1.0
176
     1
 90
        0
176
     1
 62
    18
420
        0
176
     1
 90
       50
176
     1
 90
        3
176
     1
 62
     5
420
      255
176
     1
290
     0
176
     1
 90
       50
176
     1
 90
       50
176
     1
 90
       50
176
     1
290
     0
176
     1
 90
       50
176
     1
 62
   256
176
     0
 40
1.0
176
     0
 90
        2
176
     1
  1
strokes_ogs.tif
176
     1
290
     0
176
     1
 40
1.0
176
     1
 40
1.0
176
     1
1001
ACAD
1000
AcDbSavedByObjectVersion
1070
     0
  0
VISUALSTYLE
  5
80EA
102
{ACAD_REACTORS
330
80D8
102
}
330
80D8
100
AcDbVisualStyle
  2
Sketchy
 70
    24
177
     3
291
     0
 70
    58
 90
        1
176
     1
 90
        2
176
     1
 90
        2
176
     1
 90
        0
176
     1
 40
0.6
176
     1
 40
30.0
176
     1
 62
     7
420
 16777215
176
     1
 90
        2
176
     1
 90
        2
176
     1
 62
     7
176
     1
 62
     7
176
     1
 90
        1
176
     1
 90
        1
176
     1
 40
40.0
176
     1
 90
       11
176
     1
 62
     7
176
     1
 40
1.0
176
     1
 90
        1
176
     1
 90
        6
176
     1
 90
        2
176
     1
 62
     7
176
     1
 90
        6
176
     1
 90
        0
176
     1
 90
        0
176
     1
290
     0
176
     1
 90
        1
176
     1
 40
0.0
176
     1
 90
        0
176
     1
290
     0
176
     1
290
     1
176
     1
290
     1
176
     1
290
     0
176
     1
290
     0
176
     1
290
     0
176
     1
290
     0
176
     1
290
     0
176
     1
290
     0
176
     1
 90
       50
176
     1
 40
0.0
176
     1
 40
1.0
176
     1
 90
        0
176
     1
 62
    18
420
        0
176
     1
 90
       50
176
     1
 90
        3
176
     1
 62
     5
420
      255
176
     1
290
     0
176
     1
 90
       50
176
     1
 90
       50
176
     1
 90
       50
176
     1
290
     0
176
     1
 90
       50
176
     1
 62
   256
176
     0
 40
1.0
176
     0
 90
        2
176
     1
  1
strokes_ogs.tif
176
     1
290
     0
176
     1
 40
1.0
176
     1
 40
1.0
176
     1
1001
ACAD
1000
AcDbSavedByObjectVersion
1070
     0
  0
VISUALSTYLE
  5
80E5
102
{ACAD_REACTORS
330
80D8
102
}
330
80D8
100
AcDbVisualStyle
  2
Thicken
 70
    13
177
     3
291
     1
 70
    58
 90
        2
176
     1
 90
        2
176
     1
 90
        0
176
     1
 90
        0
176
     1
 40
0.6
176
     1
 40
30.0
176
     1
 62
     7
420
 16777215
176
     1
 90
        1
176
     1
 90
        4
176
     1
 62
     7
176
     1
 62
   257
176
     1
 90
        1
176
     1
 90
        1
176
     1
 40
1.0
176
     1
 90
       12
176
     1
 62
     7
176
     1
 40
1.0
176
     1
 90
        1
176
     1
 90
        6
176
     1
 90
        2
176
     1
 62
     7
176
     1
 90
        5
176
     1
 90
        0
176
     1
 90
        0
176
     1
290
     0
176
     1
 90
        1
176
     1
 40
0.0
176
     1
 90
        0
176
     1
290
     0
176
     1
290
     1
176
     1
290
     1
176
     1
290
     0
176
     1
290
     0
176
     1
290
     0
176
     1
290
     0
176
     1
290
     0
176
     1
290
     0
176
     1
 90
       50
176
     1
 40
0.0
176
     1
 40
1.0
176
     1
 90
        0
176
     1
 62
    18
420
        0
176
     1
 90
       50
176
     1
 90
        3
176
     1
 62
     5
420
      255
176
     1
290
     0
176
     1
 90
       50
176
     1
 90
       50
176
     1
 90
       50
176
     1
290
     0
176
     1
 90
       50
176
     1
 62
   256
176
     0
 40
1.0
176
     0
 90
        2
176
     1
  1
strokes_ogs.tif
176
     1
290
     0
176
     1
 40
1.0
176
     1
 40
1.0
176
     1
1001
ACAD
1000
AcDbSavedByObjectVersion
1070
     0
  0
VISUALSTYLE
  5
80DF
102
{ACAD_REACTORS
330
80D8
102
}
330
80D8
100
AcDbVisualStyle
  2
Wireframe
 70
     5
177
     3
291
     0
 70
    58
 90
        0
176
     1
 90
        2
176
     1
 90
        0
176
     1
 90
        0
176
     1
 40
0.6
176
     1
 40
30.0
176
     1
 62
     7
420
 16777215
176
     1
 90
        1
176
     1
 90
        4
176
     1
 62
     7
176
     1
 62
   257
176
     1
 90
        1
176
     1
 90
        1
176
     1
 40
1.0
176
     1
 90
        0
176
     1
 62
   257
176
     1
 40
1.0
176
     1
 90
        1
176
     1
 90
        6
176
     1
 90
        2
176
     1
 62
     7
176
     1
 90
        3
176
     1
 90
        0
176
     1
 90
        0
176
     1
290
     0
176
     1
 90
        1
176
     1
 40
0.0
176
     1
 90
        0
176
     1
290
     0
176
     1
290
     1
176
     1
290
     1
176
     1
290
     0
176
     1
290
     0
176
     1
290
     0
176
     1
290
     0
176
     1
290
     0
176
     1
290
     0
176
     1
 90
       50
176
     1
 40
0.0
176
     1
 40
1.0
176
     1
 90
        0
176
     1
 62
    18
420
        0
176
     1
 90
       50
176
     1
 90
        3
176
     1
 62
     5
420
      255
176
     1
290
     0
176
     1
 90
       50
176
     1
 90
       50
176
     1
 90
       50
176
     1
290
     0
176
     1
 90
       50
176
     1
 62
   256
176
     0
 40
1.0
176
     0
 90
        2
176
     1
  1
strokes_ogs.tif
176
     1
290
     0
176
     1
 40
1.0
176
     1
 40
1.0
176
     1
1001
ACAD
1000
AcDbSavedByObjectVersion
1070
     0
  0
VISUALSTYLE
  5
80EB
102
{ACAD_REACTORS
330
80D8
102
}
330
80D8
100
AcDbVisualStyle
  2
X-Ray
 70
    25
177
     3
291
     0
 70
    58
 90
        2
176
     1
 90
        2
176
     1
 90
        1
176
     1
 90
        1
176
     1
 40
0.5
176
     1
 40
30.0
176
     1
 62
     7
420
 16777215
176
     1
 90
        1
176
     1
 90
        0
176
     1
 62
     7
176
     1
 62
   257
176
     1
 90
        1
176
     1
 90
        1
176
     1
 40
1.0
176
     1
 90
        8
176
     1
 62
     7
176
     1
 40
1.0
176
     1
 90
        1
176
     1
 90
        6
176
     1
 90
        2
176
     1
 62
     7
176
     1
 90
        3
176
     1
 90
        0
176
     1
 90
        0
176
     1
290
     0
176
     1
 90
       13
176
     1
 40
0.0
176
     1
 90
        0
176
     1
290
     0
176
     1
290
     1
176
     1
290
     1
176
     1
290
     0
176
     1
290
     0
176
     1
290
     0
176
     1
290
     0
176
     1
290
     0
176
     1
290
     0
176
     1
 90
       50
176
     1
 40
0.0
176
     1
 40
1.0
176
     1
 90
        0
176
     1
 62
    18
420
        0
176
     1
 90
       50
176
     1
 90
        3
176
     1
 62
     5
420
      255
176
     1
290
     0
176
     1
 90
       50
176
     1
 90
       50
176
     1
 90
       50
176
     1
290
     0
176
     1
 90
       50
176
     1
 62
   256
176
     0
 40
1.0
176
     0
 90
        2
176
     1
  1
strokes_ogs.tif
176
     1
290
     0
176
     1
 40
1.0
176
     1
 40
1.0
176
     1
1001
ACAD
1000
AcDbSavedByObjectVersion
1070
     0
  0
DICTIONARYVAR
  5
81BE
102
{ACAD_REACTORS
330
80B6
102
}
330
80B6
100
DictionaryVariables
280
     0
  1
1:1
  0
DICTIONARYVAR
  5
81BA
102
{ACAD_REACTORS
330
80B6
102
}
330
80B6
100
DictionaryVariables
280
     0
  1
STANDARD
  0
DICTIONARYVAR
  5
81B9
102
{ACAD_REACTORS
330
80B6
102
}
330
80B6
100
DictionaryVariables
280
     0
  1
STANDARD
  0
DICTIONARYVAR
  5
81BB
102
{ACAD_REACTORS
330
80B6
102
}
330
80B6
100
DictionaryVariables
280
     0
  1
Metric50
  0
DICTIONARYVAR
  5
81BC
102
{ACAD_REACTORS
330
80B6
102
}
330
80B6
100
DictionaryVariables
280
     0
  1
Metric50
  0
DICTIONARYVAR
  5
80B7
102
{ACAD_REACTORS
330
80B6
102
}
330
80B6
100
DictionaryVariables
280
     0
  1
1
  0
DICTIONARYVAR
  5
81C0
102
{ACAD_REACTORS
330
80B6
102
}
330
80B6
100
DictionaryVariables
280
     0
  1
1
  0
DICTIONARYVAR
  5
81C1
102
{ACAD_REACTORS
330
80B6
102
}
330
80B6
100
DictionaryVariables
280
     0
  1
15
  0
DICTIONARYVAR
  5
81BF
102
{ACAD_REACTORS
330
80B6
102
}
330
80B6
100
DictionaryVariables
280
     0
  1
0
  0
DICTIONARYVAR
  5
81C6
102
{ACAD_REACTORS
330
80B6
102
}
330
80B6
100
DictionaryVariables
280
     0
  1
0
  0
DICTIONARYVAR
  5
81BD
102
{ACAD_REACTORS
330
80B6
102
}
330
80B6
100
DictionaryVariables
280
     0
  1
0
  0
DICTIONARY
  5
81D1
102
{ACAD_REACTORS
330
81CF
102
}
330
81CF
100
AcDbDictionary
281
     1
  0
DICTIONARY
  5
81D0
102
{ACAD_REACTORS
330
81CF
102
}
330
81CF
100
AcDbDictionary
281
     1
  3
2039782427808
350
81CA
  3
2039782427824
350
81CB
  3
2039782427840
350
81CC
  3
2039782427856
350
81CD
  3
2039782427872
350
81CE
  0
DICTIONARY
  5
81D4
330
810B
100
AcDbDictionary
280
     1
281
     1
  3
ACAD_XREC_ROUNDTRIP
360
81D5
  0
DICTIONARY
  5
80C9
330
80C8
100
AcDbDictionary
280
     1
281
     1
  3
BUMPTILE
360
80CB
  3
DIFFUSETILE
360
80CA
  3
OPACITYTILE
360
80CE
  3
REFLECTIONTILE
360
80CD
  3
REFRACTIONTILE
360
80CF
  3
SPECULARTILE
360
80CC
  0
DICTIONARY
  5
80C1
330
80C0
100
AcDbDictionary
280
     1
281
     1
  3
BUMPTILE
360
80C3
  3
DIFFUSETILE
360
80C2
  3
OPACITYTILE
360
80C6
  3
REFLECTIONTILE
360
80C5
  3
REFRACTIONTILE
360
80C7
  3
SPECULARTILE
360
80C4
  0
DICTIONARY
  5
80D1
330
80D0
100
AcDbDictionary
280
     1
281
     1
  3
BUMPTILE
360
80D3
  3
DIFFUSETILE
360
80D2
  3
OPACITYTILE
360
80D6
  3
REFLECTIONTILE
360
80D5
  3
REFRACTIONTILE
360
80D7
  3
SPECULARTILE
360
80D4
  0
DICTIONARY
  5
81D2
330
8109
100
AcDbDictionary
280
     1
281
     1
  3
ACAD_XREC_ROUNDTRIP
360
81D3
  0
DICTIONARY
  5
81C7
330
80F3
100
AcDbDictionary
280
     1
281
     1
  3
ACAD_ROUNDTRIP_2008_TABLESTYLE_CELLSTYLEMAP
360
81C8
  0
XRECORD
  5
81CA
102
{ACAD_REACTORS
330
81D0
102
}
330
81D0
100
AcDbXrecord
280
     1
  1
AcDb_Thumbnail_Schema
102
{ATTRRECORD
341
81CB
  2
AcDbDs::TreatedAsObjectData
280
     1
291
     1
102
ATTRRECORD}
102
{ATTRRECORD
341
81CC
  2
AcDbDs::Legacy
280
     1
291
     1
102
ATTRRECORD}
  2
AcDbDs::ID
280
    10
 91
        8
102
{ATTRRECORD
341
81CD
  2
AcDs:Indexable
280
     1
291
     1
102
ATTRRECORD}
102
{ATTRRECORD
341
81CE
  2
AcDbDs::HandleAttribute
280
     7
282
     1
102
ATTRRECORD}
  2
Thumbnail_Data
280
    15
 91
        0
  0
XRECORD
  5
81CB
102
{ACAD_REACTORS
330
81D0
102
}
330
81D0
100
AcDbXrecord
280
     1
  1
AcDbDs::TreatedAsObjectDataSchema
  2
AcDbDs::TreatedAsObjectData
280
     1
 91
        0
  0
XRECORD
  5
81CC
102
{ACAD_REACTORS
330
81D0
102
}
330
81D0
100
AcDbXrecord
280
     1
  1
AcDbDs::LegacySchema
  2
AcDbDs::Legacy
280
     1
 91
        0
  0
XRECORD
  5
81CD
102
{ACAD_REACTORS
330
81D0
102
}
330
81D0
100
AcDbXrecord
280
     1
  1
AcDbDs::IndexedPropertySchema
  2
AcDs:Indexable
280
     1
 91
        0
  0
XRECORD
  5
81CE
102
{ACAD_REACTORS
330
81D0
102
}
330
81D0
100
AcDbXrecord
280
     1
  1
AcDbDs::HandleAttributeSchema
  2
AcDbDs::HandleAttribute
280
     7
 91
        1
284
     1
  0
XRECORD
  5
81D5
102
{ACAD_REACTORS
330
81D4
102
}
330
81D4
100
AcDbXrecord
280
     1
102
DISPLAYNAME
  1
Metric50
102
FLAGS
 90
        0
  0
XRECORD
  5
80CB
102
{ACAD_REACTORS
330
80C9
102
}
330
80C9
100
AcDbXrecord
280
     1
270
     1
271
     1
  0
XRECORD
  5
80CA
102
{ACAD_REACTORS
330
80C9
102
}
330
80C9
100
AcDbXrecord
280
     1
270
     1
271
     1
  0
XRECORD
  5
80CE
102
{ACAD_REACTORS
330
80C9
102
}
330
80C9
100
AcDbXrecord
280
     1
270
     1
271
     1
  0
XRECORD
  5
80CD
102
{ACAD_REACTORS
330
80C9
102
}
330
80C9
100
AcDbXrecord
280
     1
270
     1
271
     1
  0
XRECORD
  5
80CF
102
{ACAD_REACTORS
330
80C9
102
}
330
80C9
100
AcDbXrecord
280
     1
270
     1
271
     1
  0
XRECORD
  5
80CC
102
{ACAD_REACTORS
330
80C9
102
}
330
80C9
100
AcDbXrecord
280
     1
270
     1
271
     1
  0
XRECORD
  5
80C3
102
{ACAD_REACTORS
330
80C1
102
}
330
80C1
100
AcDbXrecord
280
     1
270
     1
271
     1
  0
XRECORD
  5
80C2
102
{ACAD_REACTORS
330
80C1
102
}
330
80C1
100
AcDbXrecord
280
     1
270
     1
271
     1
  0
XRECORD
  5
80C6
102
{ACAD_REACTORS
330
80C1
102
}
330
80C1
100
AcDbXrecord
280
     1
270
     1
271
     1
  0
XRECORD
  5
80C5
102
{ACAD_REACTORS
330
80C1
102
}
330
80C1
100
AcDbXrecord
280
     1
270
     1
271
     1
  0
XRECORD
  5
80C7
102
{ACAD_REACTORS
330
80C1
102
}
330
80C1
100
AcDbXrecord
280
     1
270
     1
271
     1
  0
XRECORD
  5
80C4
102
{ACAD_REACTORS
330
80C1
102
}
330
80C1
100
AcDbXrecord
280
     1
270
     1
271
     1
  0
XRECORD
  5
80D3
102
{ACAD_REACTORS
330
80D1
102
}
330
80D1
100
AcDbXrecord
280
     1
270
     1
271
     1
  0
XRECORD
  5
80D2
102
{ACAD_REACTORS
330
80D1
102
}
330
80D1
100
AcDbXrecord
280
     1
270
     1
271
     1
  0
XRECORD
  5
80D6
102
{ACAD_REACTORS
330
80D1
102
}
330
80D1
100
AcDbXrecord
280
     1
270
     1
271
     1
  0
XRECORD
  5
80D5
102
{ACAD_REACTORS
330
80D1
102
}
330
80D1
100
AcDbXrecord
280
     1
270
     1
271
     1
  0
XRECORD
  5
80D7
102
{ACAD_REACTORS
330
80D1
102
}
330
80D1
100
AcDbXrecord
280
     1
270
     1
271
     1
  0
XRECORD
  5
80D4
102
{ACAD_REACTORS
330
80D1
102
}
330
80D1
100
AcDbXrecord
280
     1
270
     1
271
     1
  0
XRECORD
  5
81D3
102
{ACAD_REACTORS
330
81D2
102
}
330
81D2
100
AcDbXrecord
280
     1
102
DISPLAYNAME
  1
Metric50
102
FLAGS
 90
        0
  0
CELLSTYLEMAP
  5
81C8
102
{ACAD_REACTORS
330
81C7
102
}
330
81C7
100
AcDbCellStyleMap
 90
        3
300
CELLSTYLE
  1
TABLEFORMAT_BEGIN
 90
        5
170
     1
 91
        0
 92
    32768
 62
   257
 93
        1
300
CONTENTFORMAT
  1
CONTENTFORMAT_BEGIN
 90
        0
 91
        0
 92
      512
 93
        0
300

 40
0.0
140
1.0
 94
        5
 62
     0
340
10
144
6.0
309
CONTENTFORMAT_END
171
     1
301
MARGIN
  1
CELLMARGIN_BEGIN
 40
1.5
 40
1.5
 40
1.5
 40
1.5
 40
4.5
 40
4.5
309
CELLMARGIN_END
 94
        6
 95
        1
302
GRIDFORMAT
  1
GRIDFORMAT_BEGIN
 90
        0
 91
        1
 62
     0
 92
       -2
340
0
 93
        0
 40
1.125
309
GRIDFORMAT_END
 95
        2
302
GRIDFORMAT
  1
GRIDFORMAT_BEGIN
 90
        0
 91
        1
 62
     0
 92
       -2
340
0
 93
        0
 40
1.125
309
GRIDFORMAT_END
 95
        4
302
GRIDFORMAT
  1
GRIDFORMAT_BEGIN
 90
        0
 91
        1
 62
     0
 92
       -2
340
0
 93
        0
 40
1.125
309
GRIDFORMAT_END
 95
        8
302
GRIDFORMAT
  1
GRIDFORMAT_BEGIN
 90
        0
 91
        1
 62
     0
 92
       -2
340
0
 93
        0
 40
1.125
309
GRIDFORMAT_END
 95
       16
302
GRIDFORMAT
  1
GRIDFORMAT_BEGIN
 90
        0
 91
        1
 62
     0
 92
       -2
340
0
 93
        0
 40
1.125
309
GRIDFORMAT_END
 95
       32
302
GRIDFORMAT
  1
GRIDFORMAT_BEGIN
 90
        0
 91
        1
 62
     0
 92
       -2
340
0
 93
        0
 40
1.125
309
GRIDFORMAT_END
309
TABLEFORMAT_END
  1
CELLSTYLE_BEGIN
 90
        1
 91
        1
300
_TITLE
309
CELLSTYLE_END
300
CELLSTYLE
  1
TABLEFORMAT_BEGIN
 90
        5
170
     1
 91
        0
 92
        0
 62
   257
 93
        1
300
CONTENTFORMAT
  1
CONTENTFORMAT_BEGIN
 90
        0
 91
        0
 92
      512
 93
        0
300

 40
0.0
140
1.0
 94
        5
 62
     0
340
10
144
4.5
309
CONTENTFORMAT_END
171
     1
301
MARGIN
  1
CELLMARGIN_BEGIN
 40
1.5
 40
1.5
 40
1.5
 40
1.5
 40
4.5
 40
4.5
309
CELLMARGIN_END
 94
        6
 95
        1
302
GRIDFORMAT
  1
GRIDFORMAT_BEGIN
 90
        0
 91
        1
 62
     0
 92
       -2
340
0
 93
        0
 40
1.125
309
GRIDFORMAT_END
 95
        2
302
GRIDFORMAT
  1
GRIDFORMAT_BEGIN
 90
        0
 91
        1
 62
     0
 92
       -2
340
0
 93
        0
 40
1.125
309
GRIDFORMAT_END
 95
        4
302
GRIDFORMAT
  1
GRIDFORMAT_BEGIN
 90
        0
 91
        1
 62
     0
 92
       -2
340
0
 93
        0
 40
1.125
309
GRIDFORMAT_END
 95
        8
302
GRIDFORMAT
  1
GRIDFORMAT_BEGIN
 90
        0
 91
        1
 62
     0
 92
       -2
340
0
 93
        0
 40
1.125
309
GRIDFORMAT_END
 95
       16
302
GRIDFORMAT
  1
GRIDFORMAT_BEGIN
 90
        0
 91
        1
 62
     0
 92
       -2
340
0
 93
        0
 40
1.125
309
GRIDFORMAT_END
 95
       32
302
GRIDFORMAT
  1
GRIDFORMAT_BEGIN
 90
        0
 91
        1
 62
     0
 92
       -2
340
0
 93
        0
 40
1.125
309
GRIDFORMAT_END
309
TABLEFORMAT_END
  1
CELLSTYLE_BEGIN
 90
        2
 91
        1
300
_HEADER
309
CELLSTYLE_END
300
CELLSTYLE
  1
TABLEFORMAT_BEGIN
 90
        5
170
     1
 91
        0
 92
        0
 62
   257
 93
        1
300
CONTENTFORMAT
  1
CONTENTFORMAT_BEGIN
 90
        0
 91
        0
 92
      512
 93
        0
300

 40
0.0
140
1.0
 94
        2
 62
     0
340
10
144
4.5
309
CONTENTFORMAT_END
171
     1
301
MARGIN
  1
CELLMARGIN_BEGIN
 40
1.5
 40
1.5
 40
1.5
 40
1.5
 40
4.5
 40
4.5
309
CELLMARGIN_END
 94
        6
 95
        1
302
GRIDFORMAT
  1
GRIDFORMAT_BEGIN
 90
        0
 91
        1
 62
     0
 92
       -2
340
0
 93
        0
 40
1.125
309
GRIDFORMAT_END
 95
        2
302
GRIDFORMAT
  1
GRIDFORMAT_BEGIN
 90
        0
 91
        1
 62
     0
 92
       -2
340
0
 93
        0
 40
1.125
309
GRIDFORMAT_END
 95
        4
302
GRIDFORMAT
  1
GRIDFORMAT_BEGIN
 90
        0
 91
        1
 62
     0
 92
       -2
340
0
 93
        0
 40
1.125
309
GRIDFORMAT_END
 95
        8
302
GRIDFORMAT
  1
GRIDFORMAT_BEGIN
 90
        0
 91
        1
 62
     0
 92
       -2
340
0
 93
        0
 40
1.125
309
GRIDFORMAT_END
 95
       16
302
GRIDFORMAT
  1
GRIDFORMAT_BEGIN
 90
        0
 91
        1
 62
     0
 92
       -2
340
0
 93
        0
 40
1.125
309
GRIDFORMAT_END
 95
       32
302
GRIDFORMAT
  1
GRIDFORMAT_BEGIN
 90
        0
 91
        1
 62
     0
 92
       -2
340
0
 93
        0
 40
1.125
309
GRIDFORMAT_END
309
TABLEFORMAT_END
  1
CELLSTYLE_BEGIN
 90
        3
 91
        2
300
_DATA
309
CELLSTYLE_END
  0
ENDSEC
  0
SECTION
  2
ACDSDATA
 70
     2
 71
     8
  0
ACDSSCHEMA
 90
        0
  1
AcDb_Thumbnail_Schema
  2
AcDbDs::ID
280
    10
 91
        8
  2
Thumbnail_Data
280
    15
 91
        0
101
ACDSRECORD
 95
        0
 90
        1
  2
AcDbDs::TreatedAsObjectData
280
     1
291
     1
101
ACDSRECORD
 95
        0
 90
        2
  2
AcDbDs::Legacy
280
     1
291
     1
101
ACDSRECORD
  1
AcDbDs::ID
 90
        3
  2
AcDs:Indexable
280
     1
291
     1
101
ACDSRECORD
  1
AcDbDs::ID
 90
        4
  2
AcDbDs::HandleAttribute
280
     7
282
     1
  0
ACDSSCHEMA
 90
        1
  1
AcDbDs::TreatedAsObjectDataSchema
  2
AcDbDs::TreatedAsObjectData
280
     1
 91
        0
  0
ACDSSCHEMA
 90
        2
  1
AcDbDs::LegacySchema
  2
AcDbDs::Legacy
280
     1
 91
        0
  0
ACDSSCHEMA
 90
        3
  1
AcDbDs::IndexedPropertySchema
  2
AcDs:Indexable
280
     1
 91
        0
  0
ACDSSCHEMA
 90
        4
  1
AcDbDs::HandleAttributeSchema
  2
AcDbDs::HandleAttribute
280
     7
 91
        1
284
     1
  0
ACDSRECORD
 90
        0
  2
AcDbDs::ID
280
    10
320
800A
  2
Thumbnail_Data
280
    15
 94
     1755
310
89504E470D0A1A0A0000000D49484452000001000000007C0803000000B13B9E5A00000300504C5445000000000000C8C8C80000000000000000000000000000000000000000000000000000330000660000990000CC0000FF0033000033330033660033990033CC0033FF0066000066330066660066990066CC0066FF0099
310
000099330099660099990099CC0099FF00CC0000CC3300CC6600CC9900CCCC00CCFF00FF0000FF3300FF6600FF9900FFCC00FFFF3300003300333300663300993300CC3300FF3333003333333333663333993333CC3333FF3366003366333366663366993366CC3366FF3399003399333399663399993399CC3399FF33CC00
310
33CC3333CC6633CC9933CCCC33CCFF33FF0033FF3333FF6633FF9933FFCC33FFFF6600006600336600666600996600CC6600FF6633006633336633666633996633CC6633FF6666006666336666666666996666CC6666FF6699006699336699666699996699CC6699FF66CC0066CC3366CC6666CC9966CCCC66CCFF66FF0066
310
FF3366FF6666FF9966FFCC66FFFF9900009900339900669900999900CC9900FF9933009933339933669933999933CC9933FF9966009966339966669966999966CC9966FF9999009999339999669999999999CC9999FF99CC0099CC3399CC6699CC9999CCCC99CCFF99FF0099FF3399FF6699FF9999FFCC99FFFFCC0000CC00
310
33CC0066CC0099CC00CCCC00FFCC3300CC3333CC3366CC3399CC33CCCC33FFCC6600CC6633CC6666CC6699CC66CCCC66FFCC9900CC9933CC9966CC9999CC99CCCC99FFCCCC00CCCC33CCCC66CCCC99CCCCCCCCCCFFCCFF00CCFF33CCFF66CCFF99CCFFCCCCFFFFFF0000FF0033FF0066FF0099FF00CCFF00FFFF3300FF3333
310
FF3366FF3399FF33CCFF33FFFF6600FF6633FF6666FF6699FF66CCFF66FFFF9900FF9933FF9966FF9999FF99CCFF99FFFFCC00FFCC33FFCC66FFCC99FFCCCCFFCCFFFFFF00FFFF33FFFF66FFFF99FFFFCCFFFFFF0000000D0D0D1A1A1A2828283535354343435050505D5D5D6B6B6B787878868686939393A1A1A1AEAEAEBB
310
BBBBC9C9C9D6D6D6E4E4E4F1F1F1FFFFFF00000000000000000000000000000000000000000000000000000000000008F1915C000003964944415478DAED9D4B72C3200C86751C36BAFF657C0DF68D6D0412C88F453B8D1EB49DDA7192A93EFF1202140AF007ADFE51032BAD9A7ADB0490001240024800DFF397DE747E5100
310
4C2FAF2115101E408D0C60F202DB007E75046012C097BD5902F807004DC74CD2551C0389FC7CEEF09CF6A00700701A0DC36C68A714F36A6D1940A54338C9388801CB5D17F1AD929D5201EC821717A024AF729FB8B7AD6610CC3C20E060E8D125CC0190FD9F78687A6AEF21783FE809409D01B024608C0347A4740800AA18F1
310
56F1546EBE2700BFF7FA9C13340F60DB9B380B0360BB6B3100CC3CAE2E790570731E0A404900F1001C710E5B2BED7728057C0CC419C0D90201A0E382E3F19800C62142020809808E11A202384F10E202E8373F068023ED970028FEC70150B0688D92A2B74342AF0AC0B72A7003608A01E1008C5E6064C48E01DCE501786446
310
082F6785FC658209202000311A0C04E0A23500FE83608F7C28AE4403A069A0F8EF06C59CA0DA7CA7C26CC0C327027B1C4440EFC3610EA05CB8400C00172DDCD2D8ECF209200480E8CBE3DFFCB6092001248004F0357F29EF16962EC20980DBAECF2B80ED4D1EF098275806B07F0B4B954C70BBC81D37BF0A8804A083180AB8
310
03C045E2C405D80159F700607309E0C905143FF1A780E94402A08BA3A4D23880E97EE25A282800286B07D6014057F13225AA280067053800D054BCCE81BE033082855D17F8D8D6EE7EE136BE56800300D8EA220B37321880511583A80310AB24CE009C461F31004471100380AC7C5600301E03A003C0A32460F47F0B00F407
310
E0B8FD9FF6B9F3A5FDB4F5B1B27F090067E5E05A4EE800002900CF0A113C4F505100AE0A40F30076F3990B90D85B62F0E8023B01C33180003493CF44A8CBE0281A7A50C018371B55C02E02A4BEAFB031004E1FA04290C543A3ABB0DF0D22F5FE850C6F9592338061B52F0064ED5113859D410FF4BD17A03A727700C8EDCBA4
310
7F60A3A30B05B8180CF5ACA7B0819016037417B03F1CEE0380427D1B8F82A3C3BB08820E00E89F1C5D26082ECA49EDCF08F5FB58E6A7167E8F515E981F343D2748FEAE28802D81F0EA495C3E676DBB484A4E71ABF3FEC0564D0ED76989B40B00AF8AA41E2E7B2893D396C5955540509712B242240124800490001240024800
310
A60184DF5556B78CB6D104B6CF2ADB723C0000BEEFAC730580F2AFD3D89EDB2405601BB0670C08A280B6ED6EDF5F1F22C580D9014200002D080E89045040EE2E9FA970024800092001248004E01080A17FBDFD0347771936FC4FED8B0000000049454E44AE426082
  0
ENDSEC
  0
EOF
