  0
SECTION
  2
HEADER
  9
$ACADVER
  1
AC1009
  9
$INSBASE
 10
0.0
 20
0.0
 30
0.0
  9
$EXTMIN
 10
0.0
 20
0.0
 30
0.0
  9
$EXTMAX
 10
6300.0
 20
8850.0
 30
0.0
  9
$LIMMIN
 10
0.0
 20
0.0
  9
$LIMMAX
 10
297.0
 20
210.0
  9
$ORTHOMODE
 70
     0
  9
$REGENMODE
 70
     1
  9
$FILLMODE
 70
     0
  9
$QTEXTMODE
 70
     0
  9
$MIRRTEXT
 70
     1
  9
$DRAGMODE
 70
     2
  9
$LTSCALE
 40
100.0
  9
$OSMODE
 70
    37
  9
$ATTMODE
 70
     1
  9
$TEXTSIZE
 40
180.0
  9
$TRACEWID
 40
0.05
  9
$TEXTSTYLE
  7
STANDARD
  9
$CLAYER
  8
3
  9
$CELTYPE
  6
BYLAYER
  9
$CECOLOR
 62
   256
  9
$DIMSCALE
 40
30.0
  9
$DIMASZ
 40
2.0
  9
$DIMEXO
 40
0.5
  9
$DIMDLI
 40
10.0
  9
$DIMRND
 40
0.0
  9
$DIMDLE
 40
0.0
  9
$DIMEXE
 40
1.0
  9
$DIMTP
 40
1.0
  9
$DIMTM
 40
1.0
  9
$DIMTXT
 40
3.0
  9
$DIMCEN
 40
0.0
  9
$DIMTSZ
 40
0.0
  9
$DIMTOL
 70
     0
  9
$DIMLIM
 70
     0
  9
$DIMTIH
 70
     0
  9
$DIMTOH
 70
     0
  9
$DIMSE1
 70
     0
  9
$DIMSE2
 70
     0
  9
$DIMTAD
 70
     1
  9
$DIMZIN
 70
     8
  9
$DIMBLK
  1

  9
$DIMASO
 70
     1
  9
$DIMSHO
 70
     1
  9
$DIMPOST
  1
(<>)
  9
$DIMAPOST
  1

  9
$DIMALT
 70
     0
  9
$DIMALTD
 70
     2
  9
$DIMALTF
 40
0.039
  9
$DIMLFAC
 40
1.0
  9
$DIMTOFL
 70
     1
  9
$DIMTVP
 40
0.0
  9
$DIMTIX
 70
     0
  9
$DIMSOXD
 70
     0
  9
$DIMSAH
 70
     1
  9
$DIMBLK1
  1
OPEN
  9
$DIMBLK2
  1
OPEN
  9
$DIMSTYLE
  2
IGA
  9
$DIMCLRD
 70
     0
  9
$DIMCLRE
 70
     0
  9
$DIMCLRT
 70
     0
  9
$DIMTFAC
 40
10.0
  9
$DIMGAP
 40
1.0
  9
$LUNITS
 70
     2
  9
$LUPREC
 70
     3
  9
$SKETCHINC
 40
0.1
  9
$FILLETRAD
 40
50.0
  9
$AUNITS
 70
     0
  9
$AUPREC
 70
     0
  9
$MENU
  1
acad
  9
$ELEVATION
 40
0.0
  9
$PELEVATION
 40
0.0
  9
$THICKNESS
 40
0.0
  9
$LIMCHECK
 70
     0
  9
$BLIPMODE
 70
     0
  9
$CHAMFERA
 40
0.0
  9
$CHAMFERB
 40
0.0
  9
$SKPOLY
 70
     0
  9
$TDCREATE
 40
2452521.4636486112
  9
$TDUPDATE
 40
2454953.645059132
  9
$TDINDWG
 40
0.0764079167
  9
$TDUSRTIMER
 40
0.0764079167
  9
$USRTIMER
 70
     1
  9
$ANGBASE
 50
0.0
  9
$ANGDIR
 70
     0
  9
$PDMODE
 70
     0
  9
$PDSIZE
 40
0.0
  9
$PLINEWID
 40
0.0
  9
$COORDS
 70
     1
  9
$SPLFRAME
 70
     0
  9
$SPLINETYPE
 70
     6
  9
$SPLINESEGS
 70
     8
  9
$ATTDIA
 70
     0
  9
$ATTREQ
 70
     1
  9
$HANDLING
 70
 10241
  9
$HANDSEED
  5
8747
  9
$SURFTAB1
 70
     6
  9
$SURFTAB2
 70
     6
  9
$SURFTYPE
 70
     6
  9
$SURFU
 70
     6
  9
$SURFV
 70
     6
  9
$UCSNAME
  2

  9
$UCSORG
 10
0.0
 20
0.0
 30
0.0
  9
$UCSXDIR
 10
1.0
 20
0.0
 30
0.0
  9
$UCSYDIR
 10
0.0
 20
1.0
 30
0.0
  9
$PUCSNAME
  2

  9
$PUCSORG
 10
0.0
 20
0.0
 30
0.0
  9
$PUCSXDIR
 10
1.0
 20
0.0
 30
0.0
  9
$PUCSYDIR
 10
0.0
 20
1.0
 30
0.0
  9
$USERI1
 70
     0
  9
$USERI2
 70
     0
  9
$USERI3
 70
     0
  9
$USERI4
 70
     0
  9
$USERI5
 70
     0
  9
$USERR1
 40
0.0
  9
$USERR2
 40
0.0
  9
$USERR3
 40
0.0
  9
$USERR4
 40
0.0
  9
$USERR5
 40
0.0
  9
$WORLDVIEW
 70
     1
  9
$SHADEDGE
 70
     3
  9
$SHADEDIF
 70
    70
  9
$TILEMODE
 70
     1
  9
$MAXACTVP
 70
    16
  9
$PLIMCHECK
 70
     0
  9
$PEXTMIN
 10
1.0000000000000000E+020
 20
1.0000000000000000E+020
 30
1.0000000000000000E+020
  9
$PEXTMAX
 10
-1.0000000000000000E+020
 20
-1.0000000000000000E+020
 30
-1.0000000000000000E+020
  9
$PLIMMIN
 10
0.0
 20
0.0
  9
$PLIMMAX
 10
12.0
 20
9.0
  9
$UNITMODE
 70
     0
  9
$VISRETAIN
 70
     0
  9
$PLINEGEN
 70
     0
  9
$PSLTSCALE
 70
     1
  0
ENDSEC
  0
SECTION
  2
TABLES
  0
TABLE
  2
VPORT
 70
     2
  0
VPORT
  2
*ACTIVE
 70
     0
 10
0.0
 20
0.0
 11
1.0
 21
1.0
 12
5897.0213989596741
 22
964.64321944882431
 13
0.0
 23
0.0
 14
10.0
 24
10.0
 15
10.0
 25
10.0
 16
0.0
 26
0.0
 36
1.0
 17
0.0
 27
0.0
 37
0.0
 40
2600.1928274312399
 41
3.1666666666666661
 42
50.0
 43
0.0
 44
0.0
 50
0.0
 51
0.0
 71
     0
 72
   100
 73
     1
 74
     0
 75
     0
 76
     0
 77
     0
 78
     0
  0
ENDTAB
  0
TABLE
  2
LTYPE
 70
     2
  0
LTYPE
  2
CONTINUOUS
 70
     0
  3
Solid line
 72
    65
 73
     0
 40
0.0
  0
LTYPE
  2
CENTER
 70
     0
  3
____ _ ____ _ ____ _ ____ _ ____ _ ____ _ ____ 
 72
    65
 73
     4
 40
2.0
 49
1.25
 49
-0.25
 49
0.25
 49
-0.25
  0
ENDTAB
  0
TABLE
  2
LAYER
 70
     6
  0
LAYER
  2
0
 70
     0
 62
     7
  6
CONTINUOUS
  0
LAYER
  2
3
 70
     0
 62
     2
  6
CONTINUOUS
  0
LAYER
  2
2
 70
     0
 62
     3
  6
CENTER
  0
LAYER
  2
1
 70
     0
 62
     4
  6
CONTINUOUS
  0
LAYER
  2
4
 70
     0
 62
     7
  6
CONTINUOUS
  0
LAYER
  2
DEFPOINTS
 70
     0
 62
     7
  6
CONTINUOUS
  0
ENDTAB
  0
TABLE
  2
STYLE
 70
     1
  0
STYLE
  2
STANDARD
 70
     0
 40
0.0
 41
1.0
 50
0.0
 71
     0
 42
180.0
  3
simplex.shx
  4
extfont.shx
  0
ENDTAB
  0
TABLE
  2
VIEW
 70
     0
  0
ENDTAB
  0
TABLE
  2
UCS
 70
     0
  0
ENDTAB
  0
TABLE
  2
APPID
 70
     1
  0
APPID
  2
ACAD
 70
     0
  0
ENDTAB
  0
TABLE
  2
DIMSTYLE
 70
     1
  0
DIMSTYLE
  2
IGA
 70
     0
  3

  4

  5

  6
OPEN
  7
OPEN
 40
2.0
 41
2.0
 42
0.5
 43
10.0
 44
1.0
 45
0.0
 46
0.0
 47
1.0
 48
1.0
140
3.0
141
0.0
142
0.0
143
0.03937
144
1.0
145
0.0
146
10.0
147
1.0
 71
     0
 72
     0
 73
     0
 74
     0
 75
     0
 76
     0
 77
     1
 78
     8
170
     0
171
     2
172
     0
173
     1
174
     0
175
     0
176
     0
177
     0
178
     0
  0
ENDTAB
  0
ENDSEC
  0
SECTION
  2
BLOCKS
  0
BLOCK
  8
0
  2
$MODEL_SPACE
 70
     0
 10
0.0
 20
0.0
 30
0.0
  3
$MODEL_SPACE
  1

  0
ENDBLK
  5
1B
  8
0
  0
BLOCK
 67
     1
  8
0
  2
$PAPER_SPACE
 70
     0
 10
0.0
 20
0.0
 30
0.0
  3
$PAPER_SPACE
  1

  0
ENDBLK
  5
18
 67
     1
  8
0
  0
BLOCK
  8
0
  2
YA_N
 70
     0
 10
0.0
 20
0.0
 30
0.0
  3
YA_N
  1

  0
ENDBLK
  5
79FE
  8
0
  0
BLOCK
  8
0
  2
_OPEN
 70
     0
 10
0.0
 20
0.0
 30
0.0
  3
_OPEN
  1

  0
LINE
  5
7BB9
  8
0
  6
BYBLOCK
 62
     0
 10
-1.0
 20
0.1666666666666666
 30
0.0
 11
0.0
 21
0.0
 31
0.0
  0
LINE
  5
7BBA
  8
0
  6
BYBLOCK
 62
     0
 10
0.0
 20
0.0
 30
0.0
 11
-1.0
 21
-0.1666666666666666
 31
0.0
  0
LINE
  5
7BBB
  8
0
  6
BYBLOCK
 62
     0
 10
0.0
 20
0.0
 30
0.0
 11
-1.0
 21
0.0
 31
0.0
  0
ENDBLK
  5
7BBC
  8
0
  0
BLOCK
  8
0
  2
*D2
 70
     1
 10
0.0
 20
0.0
 30
0.0
  3
*D2
  1

  0
LINE
  5
8687
  8
3
 62
     0
 10
1201.8086280306541
 20
6625.6824699157196
 30
0.0
 11
1201.8086280306541
 21
6919.7609109744399
 31
0.0
  0
LINE
  5
8688
  8
3
 62
     0
 10
2321.8086280306538
 20
6625.6824699157196
 30
0.0
 11
2321.8086280306538
 21
6919.7609109744399
 31
0.0
  0
LINE
  5
8689
  8
3
 62
     0
 10
1261.8086280306541
 20
6889.7609109744408
 30
0.0
 11
2261.8086280306538
 21
6889.7609109744408
 31
0.0
  0
INSERT
  5
868A
  8
3
 62
     0
  2
_OPEN
 10
1201.8086280306541
 20
6889.7609109744408
 30
0.0
 41
60.0
 42
60.0
 43
60.0
 50
180.0
  0
INSERT
  5
868B
  8
3
 62
     0
  2
_OPEN
 10
2321.8086280306538
 20
6889.7609109744408
 30
0.0
 41
60.0
 42
60.0
 43
60.0
  0
TEXT
  8
3
  40
90
  5
8733
  62
0
  72
0
  71
0
 10
1579.63
 20
6805.46
 30
0.000000
  1
1120
  0
POINT
  5
868D
  8
DEFPOINTS
 62
     0
 10
1201.8086280306541
 20
6610.6824699157196
 30
0.0
  0
POINT
  5
868E
  8
DEFPOINTS
 62
     0
 10
2321.8086280306538
 20
6610.6824699157196
 30
0.0
  0
POINT
  5
868F
  8
DEFPOINTS
 62
     0
 10
2321.8086280306538
 20
6889.7609109744408
 30
0.0
  0
ENDBLK
  5
8137
  8
0
  0
BLOCK
  8
0
  2
*D3
 70
     1
 10
0.0
 20
0.0
 30
0.0
  3
*D3
  1

  0
LINE
  5
80F6
  8
0
  6
BYBLOCK
 62
     0
 10
2321.8086280306538
 20
6625.6824699157196
 30
0.0
 11
2321.8086280306538
 21
6919.7609109744399
 31
0.0
  0
LINE
  5
80F7
  8
0
  6
BYBLOCK
 62
     0
 10
2631.8086280306538
 20
5880.6824699157196
 30
0.0
 11
2631.8086280306538
 21
6919.7609109744399
 31
0.0
  0
LINE
  5
80F8
  8
0
  6
BYBLOCK
 62
     0
 10
2381.8086280306538
 20
6889.7609109744408
 30
0.0
 11
2571.8086280306538
 21
6889.7609109744408
 31
0.0
  0
TEXT
  5
80F9
  8
3
 62
     0
 10
2369.665770887797
 20
6920.84949998507
 30
0.0
 40
90.0
  1
310
  0
INSERT
  5
80FA
  8
0
  6
BYBLOCK
 62
     0
  2
_OPEN
 10
2321.8086280306538
 20
6889.7609109744408
 30
0.0
 41
60.0
 42
60.0
 43
60.0
 50
180.0
  0
INSERT
  5
80FB
  8
0
  6
BYBLOCK
 62
     0
  2
_OPEN
 10
2631.8086280306538
 20
6889.7609109744408
 30
0.0
 41
60.0
 42
60.0
 43
60.0
  0
POINT
  5
80FC
  8
DEFPOINTS
  6
BYBLOCK
 62
     0
 10
2321.8086280306538
 20
6610.6824699157196
 30
0.0
  0
POINT
  5
80FD
  8
DEFPOINTS
  6
BYBLOCK
 62
     0
 10
2631.8086280306538
 20
5865.6824699157214
 30
0.0
  0
POINT
  5
80FE
  8
DEFPOINTS
  6
BYBLOCK
 62
     0
 10
2631.8086280306538
 20
6889.7609109744408
 30
0.0
  0
ENDBLK
  5
80FF
  8
0
  0
BLOCK
  8
0
  2
*D4
 70
     1
 10
0.0
 20
0.0
 30
0.0
  3
*D4
  1

  0
LINE
  5
8690
  8
3
 62
     0
 10
2631.8086280306529
 20
5012.6824699157196
 30
0.0
 11
2631.8086280306529
 21
4623.9264775967931
 31
0.0
  0
LINE
  5
8691
  8
3
 62
     0
 10
1446.808628030652
 20
5012.6824699157196
 30
0.0
 11
1446.808628030652
 21
4623.9264775967931
 31
0.0
  0
LINE
  5
8692
  8
3
 62
     0
 10
2571.8086280306529
 20
4653.9264775967931
 30
0.0
 11
1506.808628030652
 21
4653.9264775967931
 31
0.0
  0
INSERT
  5
8693
  8
3
 62
     0
  2
_OPEN
 10
2631.8086280306529
 20
4653.9264775967931
 30
0.0
 41
60.0
 42
60.0
 43
60.0
  0
INSERT
  5
8694
  8
3
 62
     0
  2
_OPEN
 10
1446.808628030652
 20
4653.9264775967931
 30
0.0
 41
60.0
 42
60.0
 43
60.0
 50
180.0
  0
TEXT
  8
3
  40
90
  5
8734
  62
0
  72
0
  71
0
 10
1860.81
 20
4569.63
 30
0.000000
  1
1185
  0
POINT
  5
8696
  8
DEFPOINTS
 62
     0
 10
2631.8086280306529
 20
5027.6824699157196
 30
0.0
  0
POINT
  5
8697
  8
DEFPOINTS
 62
     0
 10
1446.808628030652
 20
5027.6824699157196
 30
0.0
  0
POINT
  5
8698
  8
DEFPOINTS
 62
     0
 10
1446.808628030652
 20
4653.9264775967931
 30
0.0
  0
ENDBLK
  5
80F4
  8
0
  0
BLOCK
  8
0
  2
*D5
 70
     1
 10
0.0
 20
0.0
 30
0.0
  3
*D5
  1

  0
LINE
  5
8699
  8
3
 62
     0
 10
1446.808628030652
 20
5012.6824699157196
 30
0.0
 11
1446.808628030652
 21
4623.9264775967931
 31
0.0
  0
LINE
  5
869A
  8
3
 62
     0
 10
1201.8086280306541
 20
5785.6824699157196
 30
0.0
 11
1201.8086280306541
 21
4623.9264775967931
 31
0.0
  0
LINE
  5
869B
  8
3
 62
     0
 10
1386.808628030652
 20
4653.9264775967931
 30
0.0
 11
1261.8086280306541
 21
4653.9264775967931
 31
0.0
  0
LINE
  5
869C
  8
3
 62
     0
 10
1201.8086280306541
 20
4653.9264775967931
 30
0.0
 11
820.3800566020825
 21
4653.9264775967931
 31
0.0
  0
INSERT
  5
869D
  8
3
 62
     0
  2
_OPEN
 10
1446.808628030652
 20
4653.9264775967931
 30
0.0
 41
60.0
 42
60.0
 43
60.0
  0
INSERT
  5
869E
  8
3
 62
     0
  2
_OPEN
 10
1201.8086280306541
 20
4653.9264775967931
 30
0.0
 41
60.0
 42
60.0
 43
60.0
 50
180.0
  0
TEXT
  8
3
  40
90
  5
8735
  62
0
  72
0
  71
0
 10
786.094
 20
4569.63
 30
0.000000
  1
245
  0
POINT
  5
86A0
  8
DEFPOINTS
 62
     0
 10
1446.808628030652
 20
5027.6824699157196
 30
0.0
  0
POINT
  5
86A1
  8
DEFPOINTS
 62
     0
 10
1201.8086280306541
 20
5800.6824699157196
 30
0.0
  0
POINT
  5
86A2
  8
DEFPOINTS
 62
     0
 10
1201.8086280306541
 20
4653.9264775967931
 30
0.0
  0
ENDBLK
  5
812C
  8
0
  0
BLOCK
  8
0
  2
*D6
 70
     1
 10
0.0
 20
0.0
 30
0.0
  3
*D6
  1

  0
LINE
  5
86A3
  8
3
 62
     0
 10
2722.8086280306538
 20
3686.2806296530612
 30
0.0
 11
2722.8086280306538
 21
3867.8121743971692
 31
0.0
  0
LINE
  5
86A4
  8
3
 62
     0
 10
1797.8086280306541
 20
3686.2806296530612
 30
0.0
 11
1797.8086280306541
 21
3867.8121743971692
 31
0.0
  0
LINE
  5
86A5
  8
3
 62
     0
 10
2662.8086280306538
 20
3837.8121743971701
 30
0.0
 11
1857.8086280306541
 21
3837.8121743971701
 31
0.0
  0
INSERT
  5
86A6
  8
3
 62
     0
  2
_OPEN
 10
2722.8086280306538
 20
3837.8121743971701
 30
0.0
 41
60.0
 42
60.0
 43
60.0
  0
INSERT
  5
86A7
  8
3
 62
     0
  2
_OPEN
 10
1797.8086280306541
 20
3837.8121743971701
 30
0.0
 41
60.0
 42
60.0
 43
60.0
 50
180.0
  0
TEXT
  8
3
  40
90
  5
8736
  62
0
  72
0
  71
0
 10
2062.31
 20
3753.51
 30
0.000000
  1
925
  0
POINT
  5
86A9
  8
DEFPOINTS
 62
     0
 10
2722.8086280306538
 20
3671.2806296530612
 30
0.0
  0
POINT
  5
86AA
  8
DEFPOINTS
 62
     0
 10
1797.8086280306541
 20
3671.2806296530612
 30
0.0
  0
POINT
  5
86AB
  8
DEFPOINTS
 62
     0
 10
1797.8086280306541
 20
3837.8121743971701
 30
0.0
  0
ENDBLK
  5
8162
  8
0
  0
BLOCK
  8
0
  2
*D7
 70
     1
 10
0.0
 20
0.0
 30
0.0
  3
*D7
  1

  0
LINE
  5
86AC
  8
3
 62
     0
 10
2722.8086280306538
 20
3686.2806296530612
 30
0.0
 11
2722.8086280306538
 21
4045.338103975836
 31
0.0
  0
LINE
  5
86AD
  8
3
 62
     0
 10
1761.8086280306541
 20
3722.5359684316081
 30
0.0
 11
1761.8086280306541
 21
4045.338103975836
 31
0.0
  0
LINE
  5
86AE
  8
3
 62
     0
 10
2662.8086280306538
 20
4015.3381039758369
 30
0.0
 11
1821.8086280306541
 21
4015.3381039758369
 31
0.0
  0
INSERT
  5
86AF
  8
3
 62
     0
  2
_OPEN
 10
2722.8086280306538
 20
4015.3381039758369
 30
0.0
 41
60.0
 42
60.0
 43
60.0
  0
INSERT
  5
86B0
  8
3
 62
     0
  2
_OPEN
 10
1761.8086280306541
 20
4015.3381039758369
 30
0.0
 41
60.0
 42
60.0
 43
60.0
 50
180.0
  0
TEXT
  8
3
  40
90
  5
8737
  62
0
  72
0
  71
0
 10
2081.32
 20
3931.04
 30
0.000000
  1
961
  0
POINT
  5
86B2
  8
DEFPOINTS
 62
     0
 10
2722.8086280306538
 20
3671.2806296530612
 30
0.0
  0
POINT
  5
86B3
  8
DEFPOINTS
 62
     0
 10
1761.8086280306541
 20
3707.5359684316081
 30
0.0
  0
POINT
  5
86B4
  8
DEFPOINTS
 62
     0
 10
1761.8086280306541
 20
4015.3381039758369
 30
0.0
  0
ENDBLK
  5
8157
  8
0
  0
BLOCK
  8
0
  2
*D8
 70
     1
 10
0.0
 20
0.0
 30
0.0
  3
*D8
  1

  0
LINE
  5
86B5
  8
3
 62
     0
 10
1090.5532892521071
 20
3051.2806296530612
 30
0.0
 11
767.75115370787921
 21
3051.2806296530621
 31
0.0
  0
LINE
  5
86B6
  8
3
 62
     0
 10
1186.8086280306541
 20
2231.2806296530612
 30
0.0
 11
767.75115370787898
 21
2231.2806296530621
 31
0.0
  0
LINE
  5
86B7
  8
3
 62
     0
 10
797.7511537078791
 20
2991.2806296530621
 30
0.0
 11
797.75115370787898
 21
2291.2806296530621
 31
0.0
  0
INSERT
  5
86B8
  8
3
 62
     0
  2
_OPEN
 10
797.7511537078791
 20
3051.2806296530621
 30
0.0
 41
60.0
 42
60.0
 43
60.0
 50
90.0
  0
INSERT
  5
86B9
  8
3
 62
     0
  2
_OPEN
 10
797.75115370787898
 20
2231.2806296530621
 30
0.0
 41
60.0
 42
60.0
 43
60.0
 50
270.0
  0
TEXT
  8
3
  40
90
  5
8738
  62
0
  72
0
  71
0
 10
542.751
 20
2481.98
 30
0.000000
  1
820
  0
POINT
  5
86BB
  8
DEFPOINTS
 62
     0
 10
1105.5532892521071
 20
3051.2806296530612
 30
0.0
  0
POINT
  5
86BC
  8
DEFPOINTS
 62
     0
 10
1201.8086280306541
 20
2231.2806296530612
 30
0.0
  0
POINT
  5
86BD
  8
DEFPOINTS
 62
     0
 10
797.75115370787898
 20
2231.2806296530621
 30
0.0
  0
ENDBLK
  5
818C
  8
0
  0
BLOCK
  8
0
  2
*D9
 70
     1
 10
0.0
 20
0.0
 30
0.0
  3
*D9
  1

  0
LINE
  5
86BE
  8
3
 62
     0
 10
1186.8086280306541
 20
2136.2806296530612
 30
0.0
 11
767.65723288837387
 21
2136.2806296530621
 31
0.0
  0
LINE
  5
86BF
  8
3
 62
     0
 10
1186.8086280306541
 20
2011.2806296530609
 30
0.0
 11
767.65723288837387
 21
2011.2806296530609
 31
0.0
  0
LINE
  5
86C0
  8
3
 62
     0
 10
797.65723288837387
 20
2196.2806296530621
 30
0.0
 11
797.65723288837387
 21
2256.2806296530612
 31
0.0
  0
LINE
  5
86C1
  8
3
 62
     0
 10
797.65723288837387
 20
1951.2806296530609
 30
0.0
 11
797.65723288837376
 21
1616.9949153673469
 31
0.0
  0
LINE
  5
86C2
  8
3
 62
     0
 10
797.65723288837387
 20
2136.2806296530621
 30
0.0
 11
797.65723288837387
 21
2011.2806296530609
 31
0.0
  0
INSERT
  5
86C3
  8
3
 62
     0
  2
_DOT
 10
797.65723288837387
 20
2136.2806296530621
 30
0.0
 41
60.0
 42
60.0
 43
60.0
 50
270.0
  0
INSERT
  5
86C4
  8
3
 62
     0
  2
_OPEN
 10
797.65723288837387
 20
2011.2806296530609
 30
0.0
 41
60.0
 42
60.0
 43
60.0
 50
90.0
  0
TEXT
  8
3
  40
90
  5
8739
  62
0
  72
0
  71
0
 10
542.657
 20
1594.84
 30
0.000000
  1
125
  0
POINT
  5
86C6
  8
DEFPOINTS
 62
     0
 10
1201.8086280306541
 20
2136.2806296530612
 30
0.0
  0
POINT
  5
86C7
  8
DEFPOINTS
 62
     0
 10
1201.8086280306541
 20
2011.2806296530609
 30
0.0
  0
POINT
  5
86C8
  8
DEFPOINTS
 62
     0
 10
797.65723288837387
 20
2011.2806296530609
 30
0.0
  0
ENDBLK
  5
81DB
  8
0
  0
BLOCK
  8
0
  2
_DOT
 70
     0
 10
0.0
 20
0.0
 30
0.0
  3
_DOT
  1

  0
LINE
  5
7D1D
  8
0
  6
BYBLOCK
 62
     0
 10
0.0
 20
0.0
 30
0.0
 11
-1.0
 21
-0.0000000000000284
 31
0.0
  0
POLYLINE
  5
7D1E
  8
0
  6
BYBLOCK
 62
     0
 66
     1
 10
0.0
 20
0.0
 30
0.0
 70
     1
 40
0.1666666666666666
 41
0.1666666666666666
  0
VERTEX
  5
86C9
  8
0
  6
BYBLOCK
 62
     0
 10
-0.0833333333333286
 20
-0.0000000000000284
 30
0.0
 42
1.0
  0
VERTEX
  5
86CA
  8
0
  6
BYBLOCK
 62
     0
 10
0.0833333333333286
 20
-0.0000000000000284
 30
0.0
 42
1.0
  0
SEQEND
  5
86CB
  8
0
  6
BYBLOCK
 62
     0
  0
ENDBLK
  5
7CE9
  8
0
  0
BLOCK
  8
0
  2
*D11
 70
     1
 10
0.0
 20
0.0
 30
0.0
  3
*D11
  1

  0
LINE
  5
86CC
  8
3
 62
     0
 10
1201.8086280306541
 20
1996.2806296530609
 30
0.0
 11
1201.8086280306541
 21
1758.719807794517
 31
0.0
  0
LINE
  5
86CD
  8
3
 62
     0
 10
1761.8086280306541
 20
1957.0890991552001
 30
0.0
 11
1761.8086280306541
 21
1758.719807794517
 31
0.0
  0
LINE
  5
86CE
  8
3
 62
     0
 10
1261.8086280306541
 20
1788.719807794517
 30
0.0
 11
1701.8086280306541
 21
1788.719807794517
 31
0.0
  0
INSERT
  5
86CF
  8
3
 62
     0
  2
_OPEN
 10
1201.8086280306541
 20
1788.719807794517
 30
0.0
 41
60.0
 42
60.0
 43
60.0
 50
180.0
  0
INSERT
  5
86D0
  8
3
 62
     0
  2
_OPEN
 10
1761.8086280306541
 20
1788.719807794517
 30
0.0
 41
60.0
 42
60.0
 43
60.0
  0
TEXT
  8
3
  40
90
  5
873A
  62
0
  72
0
  71
0
 10
1278.71
 20
1704.42
 30
0.000000
  1
560
  0
POINT
  5
86D2
  8
DEFPOINTS
 62
     0
 10
1201.8086280306541
 20
2011.2806296530609
 30
0.0
  0
POINT
  5
86D3
  8
DEFPOINTS
 62
     0
 10
1761.8086280306541
 20
1972.0890991552001
 30
0.0
  0
POINT
  5
86D4
  8
DEFPOINTS
 62
     0
 10
1761.8086280306541
 20
1788.719807794517
 30
0.0
  0
ENDBLK
  5
8181
  8
0
  0
BLOCK
  8
0
  2
*D12
 70
     1
 10
0.0
 20
0.0
 30
0.0
  3
*D12
  1

  0
LINE
  5
86D5
  8
3
 62
     0
 10
2631.8086280306538
 20
1996.2806296530609
 30
0.0
 11
2631.8086280306538
 21
1758.719807794517
 31
0.0
  0
LINE
  5
86D6
  8
3
 62
     0
 10
1821.8086280306541
 20
1788.719807794517
 30
0.0
 11
2571.8086280306538
 21
1788.719807794517
 31
0.0
  0
INSERT
  5
86D7
  8
3
 62
     0
  2
_OPEN
 10
1761.8086280306541
 20
1788.719807794517
 30
0.0
 41
60.0
 42
60.0
 43
60.0
 50
180.0
  0
INSERT
  5
86D8
  8
3
 62
     0
  2
_OPEN
 10
2631.8086280306538
 20
1788.719807794517
 30
0.0
 41
60.0
 42
60.0
 43
60.0
  0
TEXT
  8
3
  40
90
  5
873B
  62
0
  72
0
  71
0
 10
2016.81
 20
1704.42
 30
0.000000
  1
870
  0
POINT
  5
86DA
  8
DEFPOINTS
 62
     0
 10
1761.8086280306541
 20
1972.0890991552001
 30
0.0
  0
POINT
  5
86DB
  8
DEFPOINTS
 62
     0
 10
2631.8086280306538
 20
2011.2806296530609
 30
0.0
  0
POINT
  5
86DC
  8
DEFPOINTS
 62
     0
 10
2631.8086280306538
 20
1788.719807794517
 30
0.0
  0
ENDBLK
  5
814C
  8
0
  0
BLOCK
  8
0
  2
*D13
 70
     1
 10
0.0
 20
0.0
 30
0.0
  3
*D13
  1

  0
LINE
  5
86DD
  8
3
 62
     0
 10
4516.3914073276082
 20
3643.7806296530612
 30
0.0
 11
4516.3914073276082
 21
3818.1745876517812
 31
0.0
  0
LINE
  5
86DE
  8
3
 62
     0
 10
5186.3914073276082
 20
3643.7806296530612
 30
0.0
 11
5186.3914073276082
 21
3818.1745876517812
 31
0.0
  0
LINE
  5
86DF
  8
3
 62
     0
 10
4576.3914073276082
 20
3788.1745876517821
 30
0.0
 11
5126.3914073276082
 21
3788.1745876517821
 31
0.0
  0
INSERT
  5
86E0
  8
3
 62
     0
  2
_OPEN
 10
4516.3914073276082
 20
3788.1745876517821
 30
0.0
 41
60.0
 42
60.0
 43
60.0
 50
180.0
  0
INSERT
  5
86E1
  8
3
 62
     0
  2
_OPEN
 10
5186.3914073276082
 20
3788.1745876517821
 30
0.0
 41
60.0
 42
60.0
 43
60.0
  0
TEXT
  8
3
  40
90
  5
873C
  62
0
  72
0
  71
0
 10
4670.69
 20
3703.87
 30
0.000000
  1
670
  0
POINT
  5
86E3
  8
DEFPOINTS
 62
     0
 10
4516.3914073276082
 20
3628.7806296530621
 30
0.0
  0
POINT
  5
86E4
  8
DEFPOINTS
 62
     0
 10
5186.3914073276082
 20
3628.7806296530621
 30
0.0
  0
POINT
  5
86E5
  8
DEFPOINTS
 62
     0
 10
5186.3914073276082
 20
3788.1745876517821
 30
0.0
  0
ENDBLK
  5
8070
  8
0
  0
BLOCK
  8
0
  2
*D14
 70
     1
 10
0.0
 20
0.0
 30
0.0
  3
*D14
  1

  0
LINE
  5
8072
  8
0
  6
BYBLOCK
 62
     0
 10
5189.3914073276101
 20
3981.584016832448
 30
0.0
 11
5189.3914073276101
 21
4343.3375045385537
 31
0.0
  0
LINE
  5
8073
  8
0
  6
BYBLOCK
 62
     0
 10
4851.391407327611
 20
4260.7122151344502
 30
0.0
 11
4851.391407327611
 21
4343.3375045385537
 31
0.0
  0
LINE
  5
8074
  8
0
  6
BYBLOCK
 62
     0
 10
5129.3914073276092
 20
4313.3375045385537
 30
0.0
 11
4911.3914073276092
 21
4313.3375045385537
 31
0.0
  0
TEXT
  5
8075
  8
3
 62
     0
 10
4904.6771216133247
 20
4339.2592865431279
 30
0.0
 40
90.0
  1
338
  0
INSERT
  5
8076
  8
0
  6
BYBLOCK
 62
     0
  2
_OPEN
 10
5189.3914073276101
 20
4313.3375045385537
 30
0.0
 41
60.0
 42
60.0
 43
60.0
  0
INSERT
  5
8077
  8
0
  6
BYBLOCK
 62
     0
  2
_OPEN
 10
4851.391407327611
 20
4313.3375045385537
 30
0.0
 41
60.0
 42
60.0
 43
60.0
 50
180.0
  0
POINT
  5
8078
  8
DEFPOINTS
  6
BYBLOCK
 62
     0
 10
5189.3914073276101
 20
3966.584016832448
 30
0.0
  0
POINT
  5
8079
  8
DEFPOINTS
  6
BYBLOCK
 62
     0
 10
4851.391407327611
 20
4245.7122151344493
 30
0.0
  0
POINT
  5
807A
  8
DEFPOINTS
  6
BYBLOCK
 62
     0
 10
4851.391407327611
 20
4313.3375045385537
 30
0.0
  0
ENDBLK
  5
807B
  8
0
  0
BLOCK
  8
0
  2
*D15
 70
     1
 10
0.0
 20
0.0
 30
0.0
  3
*D15
  1

  0
LINE
  5
86E6
  8
3
 62
     0
 10
3526.3914073276101
 20
3346.2806296530612
 30
0.0
 11
3526.3914073276101
 21
4010.8267285752331
 31
0.0
  0
LINE
  5
86E7
  8
3
 62
     0
 10
4791.3914073276101
 20
3980.8267285752331
 30
0.0
 11
3586.3914073276101
 21
3980.8267285752331
 31
0.0
  0
INSERT
  5
86E8
  8
3
 62
     0
  2
_OPEN
 10
4851.391407327611
 20
3980.8267285752331
 30
0.0
 41
60.0
 42
60.0
 43
60.0
  0
INSERT
  5
86E9
  8
3
 62
     0
  2
_OPEN
 10
3526.3914073276101
 20
3980.8267285752331
 30
0.0
 41
60.0
 42
60.0
 43
60.0
 50
180.0
  0
TEXT
  8
3
  40
90
  5
873D
  62
0
  72
0
  71
0
 10
4008.89
 20
3971.53
 30
0.000000
  1
MAX
  0
TEXT
  8
3
  40
90
  5
873E
  62
0
  72
0
  71
0
 10
4008.89
 20
3854.53
 30
0.000000
  1
1340
  0
POINT
  5
86EB
  8
DEFPOINTS
 62
     0
 10
4851.391407327611
 20
3913.2014391711291
 30
0.0
  0
POINT
  5
86EC
  8
DEFPOINTS
 62
     0
 10
3526.3914073276101
 20
3331.2806296530612
 30
0.0
  0
POINT
  5
86ED
  8
DEFPOINTS
 62
     0
 10
3526.3914073276101
 20
3980.8267285752331
 30
0.0
  0
ENDBLK
  5
8085
  8
0
  0
BLOCK
  8
0
  2
*D16
 70
     1
 10
0.0
 20
0.0
 30
0.0
  3
*D16
  1

  0
LINE
  5
86EE
  8
3
 62
     0
 10
3673.3914073276078
 20
1997.8738194847169
 30
0.0
 11
3673.3914073276078
 21
1760.485136073275
 31
0.0
  0
LINE
  5
86EF
  8
3
 62
     0
 10
4851.3914073276082
 20
1948.295486651813
 30
0.0
 11
4851.3914073276082
 21
1760.485136073275
 31
0.0
  0
LINE
  5
86F0
  8
3
 62
     0
 10
3733.3914073276078
 20
1790.485136073275
 30
0.0
 11
4791.3914073276082
 21
1790.485136073275
 31
0.0
  0
INSERT
  5
86F1
  8
3
 62
     0
  2
_OPEN
 10
3673.3914073276078
 20
1790.485136073275
 30
0.0
 41
60.0
 42
60.0
 43
60.0
 50
180.0
  0
INSERT
  5
86F2
  8
3
 62
     0
  2
_OPEN
 10
4851.3914073276082
 20
1790.485136073275
 30
0.0
 41
60.0
 42
60.0
 43
60.0
  0
TEXT
  8
3
  40
90
  5
873F
  62
0
  72
0
  71
0
 10
4076.13
 20
1706.19
 30
0.000000
  1
1178
  0
POINT
  5
86F4
  8
DEFPOINTS
 62
     0
 10
3673.3914073276078
 20
2012.8738194847169
 30
0.0
  0
POINT
  5
86F5
  8
DEFPOINTS
 62
     0
 10
4851.3914073276082
 20
1963.2954866518139
 30
0.0
  0
POINT
  5
86F6
  8
DEFPOINTS
 62
     0
 10
4851.3914073276082
 20
1790.485136073275
 30
0.0
  0
ENDBLK
  5
7DCB
  8
0
  0
BLOCK
  8
0
  2
*D17
 70
     1
 10
0.0
 20
0.0
 30
0.0
  3
*D17
  1

  0
LINE
  5
853C
  8
3
 62
     0
 10
5256.3914073276082
 20
2047.8738194847169
 30
0.0
 11
5256.3914073276082
 21
1810.485136073275
 31
0.0
  0
LINE
  5
853D
  8
3
 62
     0
 10
4791.3914073276082
 20
1840.485136073275
 30
0.0
 11
4731.3914073276082
 21
1840.485136073275
 31
0.0
  0
LINE
  5
853E
  8
3
 62
     0
 10
5316.3914073276082
 20
1840.485136073275
 30
0.0
 11
5376.3914073276082
 21
1840.485136073275
 31
0.0
  0
TEXT
  5
853F
  8
3
 62
     0
 10
4938.1771216133229
 20
1866.1339156495919
 30
0.0
 40
90.0
  1
405
  0
LINE
  5
8540
  8
3
 62
     0
 10
4851.3914073276082
 20
1840.485136073275
 30
0.0
 11
5256.3914073276082
 21
1840.485136073275
 31
0.0
  0
INSERT
  5
8541
  8
3
 62
     0
  2
_OPEN
 10
4851.3914073276082
 20
1840.485136073275
 30
0.0
 41
60.0
 42
60.0
 43
60.0
  0
INSERT
  5
8542
  8
3
 62
     0
  2
_OPEN
 10
5256.3914073276082
 20
1840.485136073275
 30
0.0
 41
60.0
 42
60.0
 43
60.0
 50
180.0
  0
POINT
  5
8543
  8
DEFPOINTS
 62
     0
 10
4851.3914073276082
 20
2013.2954866518139
 30
0.0
  0
POINT
  5
8544
  8
DEFPOINTS
 62
     0
 10
5256.3914073276082
 20
2062.8738194847169
 30
0.0
  0
POINT
  5
8545
  8
DEFPOINTS
 62
     0
 10
5256.3914073276082
 20
1840.485136073275
 30
0.0
  0
ENDBLK
  5
7DEE
  8
0
  0
BLOCK
  8
0
  2
*D18
 70
     1
 10
0.0
 20
0.0
 30
0.0
  3
*D18
  1

  0
LINE
  5
86F7
  8
3
 62
     0
 10
5201.3914073276092
 20
3501.2806296530621
 30
0.0
 11
5477.0337941012704
 21
3501.2806296530621
 31
0.0
  0
LINE
  5
86F8
  8
3
 62
     0
 10
5201.3914073276101
 20
2601.2806296530612
 30
0.0
 11
5477.0337941012704
 21
2601.2806296530612
 31
0.0
  0
LINE
  5
86F9
  8
3
 62
     0
 10
5447.0337941012704
 20
3441.2806296530621
 30
0.0
 11
5447.0337941012704
 21
2661.2806296530612
 31
0.0
  0
INSERT
  5
86FA
  8
3
 62
     0
  2
_OPEN
 10
5447.0337941012704
 20
3501.2806296530621
 30
0.0
 41
60.0
 42
60.0
 43
60.0
 50
90.0
  0
INSERT
  5
86FB
  8
3
 62
     0
  2
_OPEN
 10
5447.0337941012704
 20
2601.2806296530612
 30
0.0
 41
60.0
 42
60.0
 43
60.0
 50
270.0
  0
TEXT
  8
3
  40
90
  5
8740
  62
0
  72
0
  71
0
 10
5192.03
 20
2895.35
 30
0.000000
  1
φ900
  0
POINT
  5
86FD
  8
DEFPOINTS
 62
     0
 10
5186.3914073276082
 20
3501.2806296530621
 30
0.0
  0
POINT
  5
86FE
  8
DEFPOINTS
 62
     0
 10
5186.3914073276101
 20
2601.2806296530612
 30
0.0
  0
POINT
  5
86FF
  8
DEFPOINTS
 62
     0
 10
5447.0337941012704
 20
2601.2806296530612
 30
0.0
  0
ENDBLK
  5
7E08
  8
0
  0
BLOCK
  8
0
  2
*D19
 70
     1
 10
0.0
 20
0.0
 30
0.0
  3
*D19
  1

  0
LINE
  5
8700
  8
1
 62
     0
 10
1740.3086280306541
 20
3671.2806296530612
 30
0.0
 11
767.75115370787898
 21
3671.2806296530621
 31
0.0
  0
LINE
  5
8701
  8
1
 62
     0
 10
797.75115370787887
 20
3111.2806296530621
 30
0.0
 11
797.75115370787898
 21
3611.2806296530621
 31
0.0
  0
INSERT
  5
8702
  8
1
 62
     0
  2
_OPEN
 10
797.75115370787887
 20
3051.2806296530621
 30
0.0
 41
60.0
 42
60.0
 43
60.0
 50
270.0
  0
INSERT
  5
8703
  8
1
 62
     0
  2
_OPEN
 10
797.75115370787898
 20
3671.2806296530621
 30
0.0
 41
60.0
 42
60.0
 43
60.0
 50
90.0
  0
TEXT
  8
1
  40
90
  5
8741
  62
0
  72
0
  71
0
 10
542.751
 20
3201.98
 30
0.000000
  1
620
  0
POINT
  5
8705
  8
DEFPOINTS
 62
     0
 10
1105.5532892521071
 20
3051.2806296530612
 30
0.0
  0
POINT
  5
8706
  8
DEFPOINTS
 62
     0
 10
1755.3086280306541
 20
3671.2806296530612
 30
0.0
  0
POINT
  5
8707
  8
DEFPOINTS
 62
     0
 10
797.75115370787898
 20
3671.2806296530621
 30
0.0
  0
ENDBLK
  5
8176
  8
0
  0
BLOCK
  8
0
  2
*D20
 70
     1
 10
0.0
 20
0.0
 30
0.0
  3
*D20
  1

  0
LINE
  5
8708
  8
1
 62
     0
 10
1118.8086280306541
 20
2999.2806296530612
 30
0.0
 11
1118.8086280306541
 21
4045.338103975836
 31
0.0
  0
LINE
  5
8709
  8
1
 62
     0
 10
1701.8086280306541
 20
4015.3381039758369
 30
0.0
 11
1178.8086280306541
 21
4015.3381039758369
 31
0.0
  0
INSERT
  5
870A
  8
1
 62
     0
  2
_OPEN
 10
1761.8086280306541
 20
4015.3381039758369
 30
0.0
 41
60.0
 42
60.0
 43
60.0
  0
INSERT
  5
870B
  8
1
 62
     0
  2
_OPEN
 10
1118.8086280306541
 20
4015.3381039758369
 30
0.0
 41
60.0
 42
60.0
 43
60.0
 50
180.0
  0
TEXT
  8
1
  40
90
  5
8742
  62
0
  72
0
  71
0
 10
1260.31
 20
3931.04
 30
0.000000
  1
643
  0
POINT
  5
870D
  8
DEFPOINTS
 62
     0
 10
1761.8086280306541
 20
3707.5359684316081
 30
0.0
  0
POINT
  5
870E
  8
DEFPOINTS
 62
     0
 10
1118.8086280306541
 20
2984.2806296530621
 30
0.0
  0
POINT
  5
870F
  8
DEFPOINTS
 62
     0
 10
1118.8086280306541
 20
4015.3381039758369
 30
0.0
  0
ENDBLK
  5
816C
  8
0
  0
BLOCK
  8
0
  2
*D21
 70
     1
 10
0.0
 20
0.0
 30
0.0
  3
*D21
  1

  0
LINE
  5
8710
  8
3
 62
     0
 10
1186.8086280306541
 20
6610.6824699157196
 30
0.0
 11
811.77682486662991
 21
6610.6824699157196
 31
0.0
  0
LINE
  5
8711
  8
3
 62
     0
 10
1186.8086280306541
 20
5800.6824699157196
 30
0.0
 11
811.77682486662979
 21
5800.6824699157196
 31
0.0
  0
LINE
  5
8712
  8
3
 62
     0
 10
841.77682486663002
 20
6550.6824699157196
 30
0.0
 11
841.77682486662979
 21
5860.6824699157214
 31
0.0
  0
INSERT
  5
8713
  8
3
 62
     0
  2
_OPEN
 10
841.77682486663002
 20
6610.6824699157196
 30
0.0
 41
60.0
 42
60.0
 43
60.0
 50
90.0
  0
INSERT
  5
8714
  8
3
 62
     0
  2
_OPEN
 10
841.77682486662979
 20
5800.6824699157196
 30
0.0
 41
60.0
 42
60.0
 43
60.0
 50
270.0
  0
TEXT
  8
3
  40
90
  5
8743
  62
0
  72
0
  71
0
 10
586.777
 20
6043.58
 30
0.000000
  1
810
  0
POINT
  5
8716
  8
DEFPOINTS
 62
     0
 10
1201.8086280306541
 20
6610.6824699157196
 30
0.0
  0
POINT
  5
8717
  8
DEFPOINTS
 62
     0
 10
1201.8086280306541
 20
5800.6824699157196
 30
0.0
  0
POINT
  5
8718
  8
DEFPOINTS
 62
     0
 10
841.77682486662979
 20
5800.6824699157196
 30
0.0
  0
ENDBLK
  5
8142
  8
0
  0
BLOCK
  8
0
  2
*D22
 70
     1
 10
0.0
 20
0.0
 30
0.0
  3
*D22
  1

  0
LINE
  5
8719
  8
3
 62
     0
 10
1431.808628030652
 20
5027.6824699157196
 30
0.0
 11
811.77682486662889
 21
5027.6824699157196
 31
0.0
  0
LINE
  5
871A
  8
3
 62
     0
 10
841.77682486662889
 20
5740.6824699157214
 30
0.0
 11
841.77682486662877
 21
5087.6824699157196
 31
0.0
  0
INSERT
  5
871B
  8
3
 62
     0
  2
_OPEN
 10
841.77682486662889
 20
5800.6824699157196
 30
0.0
 41
60.0
 42
60.0
 43
60.0
 50
90.0
  0
INSERT
  5
871C
  8
3
 62
     0
  2
_OPEN
 10
841.77682486662877
 20
5027.6824699157196
 30
0.0
 41
60.0
 42
60.0
 43
60.0
 50
270.0
  0
TEXT
  8
3
  40
90
  5
8744
  62
0
  72
0
  71
0
 10
586.777
 20
5254.88
 30
0.000000
  1
773
  0
POINT
  5
871E
  8
DEFPOINTS
 62
     0
 10
1201.8086280306541
 20
5800.6824699157196
 30
0.0
  0
POINT
  5
871F
  8
DEFPOINTS
 62
     0
 10
1446.808628030652
 20
5027.6824699157196
 30
0.0
  0
POINT
  5
8720
  8
DEFPOINTS
 62
     0
 10
841.77682486662877
 20
5027.6824699157196
 30
0.0
  0
ENDBLK
  5
8114
  8
0
  0
BLOCK
  8
0
  2
*D23
 70
     1
 10
0.0
 20
0.0
 30
0.0
  3
*D23
  1

  0
LINE
  5
8721
  8
3
 62
     0
 10
2646.8086280306538
 20
5865.6824699157214
 30
0.0
 11
2890.2622963344511
 21
5865.6824699157214
 31
0.0
  0
LINE
  5
8722
  8
3
 62
     0
 10
2646.8086280306529
 20
5027.6824699157196
 30
0.0
 11
2890.2622963344511
 21
5027.6824699157196
 31
0.0
  0
LINE
  5
8723
  8
3
 62
     0
 10
2860.262296334452
 20
5805.6824699157196
 30
0.0
 11
2860.2622963344511
 21
5087.6824699157196
 31
0.0
  0
INSERT
  5
8724
  8
3
 62
     0
  2
_OPEN
 10
2860.262296334452
 20
5865.6824699157214
 30
0.0
 41
60.0
 42
60.0
 43
60.0
 50
90.0
  0
INSERT
  5
8725
  8
3
 62
     0
  2
_OPEN
 10
2860.2622963344511
 20
5027.6824699157196
 30
0.0
 41
60.0
 42
60.0
 43
60.0
 50
270.0
  0
TEXT
  8
3
  40
90
  5
8745
  62
0
  72
0
  71
0
 10
2605.26
 20
5297.49
 30
0.000000
  1
838
  0
POINT
  5
8727
  8
DEFPOINTS
 62
     0
 10
2631.8086280306538
 20
5865.6824699157214
 30
0.0
  0
POINT
  5
8728
  8
DEFPOINTS
 62
     0
 10
2631.8086280306529
 20
5027.6824699157196
 30
0.0
  0
POINT
  5
8729
  8
DEFPOINTS
 62
     0
 10
2860.2622963344511
 20
5027.6824699157196
 30
0.0
  0
ENDBLK
  5
810A
  8
0
  0
BLOCK
  8
0
  2
*D24
 70
     1
 10
0.0
 20
0.0
 30
0.0
  3
*D24
  1

  0
LINE
  5
872A
  8
3
 62
     0
 10
1118.8086280306541
 20
2999.2806296530612
 30
0.0
 11
1118.8086280306541
 21
4245.3797041884427
 31
0.0
  0
LINE
  5
872B
  8
3
 62
     0
 10
2765.3086280306538
 20
3686.2806296530612
 30
0.0
 11
2765.3086280306538
 21
4245.3797041884427
 31
0.0
  0
LINE
  5
872C
  8
3
 62
     0
 10
1178.8086280306541
 20
4215.3797041884427
 30
0.0
 11
2705.3086280306538
 21
4215.3797041884427
 31
0.0
  0
INSERT
  5
872D
  8
3
 62
     0
  2
_OPEN
 10
1118.8086280306541
 20
4215.3797041884427
 30
0.0
 41
60.0
 42
60.0
 43
60.0
 50
180.0
  0
INSERT
  5
872E
  8
3
 62
     0
  2
_OPEN
 10
2765.3086280306538
 20
4215.3797041884427
 30
0.0
 41
60.0
 42
60.0
 43
60.0
  0
TEXT
  8
3
  40
90
  5
8746
  62
0
  72
0
  71
0
 10
1704.88
 20
4131.08
 30
0.000000
  1
1647
  0
POINT
  5
8730
  8
DEFPOINTS
 62
     0
 10
1118.8086280306541
 20
2984.2806296530621
 30
0.0
  0
POINT
  5
8731
  8
DEFPOINTS
 62
     0
 10
2765.3086280306538
 20
3671.2806296530612
 30
0.0
  0
POINT
  5
8732
  8
DEFPOINTS
 62
     0
 10
2765.3086280306538
 20
4215.3797041884427
 30
0.0
  0
ENDBLK
  5
81F3
  8
0
  0
BLOCK
  8
0
  2
*D25
 70
     1
 10
0.0
 20
0.0
 30
0.0
  3
*D25
  1

  0
LINE
  5
8648
  8
0
  6
BYBLOCK
 62
     0
 10
1186.8086280306541
 20
2136.2806296530612
 30
0.0
 11
767.57996767340592
 21
2136.2806296530612
 31
0.0
  0
LINE
  5
8649
  8
0
  6
BYBLOCK
 62
     0
 10
1186.8086280306541
 20
2231.2806296530612
 30
0.0
 11
767.57996767340592
 21
2231.2806296530612
 31
0.0
  0
LINE
  5
864A
  8
0
  6
BYBLOCK
 62
     0
 10
797.57996767340592
 20
2076.2806296530612
 30
0.0
 11
797.57996767340592
 21
2016.2806296530609
 31
0.0
  0
LINE
  5
864B
  8
0
  6
BYBLOCK
 62
     0
 10
797.57996767340592
 20
2291.2806296530612
 30
0.0
 11
797.57996767340592
 21
2351.2806296530612
 31
0.0
  0
TEXT
  5
864C
  8
3
 62
     0
 10
684.00853910197736
 20
2053.0663439387749
 30
0.0
 40
90.0
  1
(95)
 50
90.0
  0
LINE
  5
864D
  8
0
  6
BYBLOCK
 62
     0
 10
797.57996767340592
 20
2136.2806296530612
 30
0.0
 11
797.57996767340592
 21
2231.2806296530612
 31
0.0
  0
INSERT
  5
864E
  8
0
  6
BYBLOCK
 62
     0
  2
_DOT
 10
797.57996767340592
 20
2136.2806296530612
 30
0.0
 41
60.0
 42
60.0
 43
60.0
 50
90.0
  0
INSERT
  5
864F
  8
0
  6
BYBLOCK
 62
     0
  2
_OPEN
 10
797.57996767340592
 20
2231.2806296530612
 30
0.0
 41
60.0
 42
60.0
 43
60.0
 50
270.0
  0
POINT
  5
8650
  8
DEFPOINTS
  6
BYBLOCK
 62
     0
 10
1201.8086280306541
 20
2136.2806296530612
 30
0.0
  0
POINT
  5
8651
  8
DEFPOINTS
  6
BYBLOCK
 62
     0
 10
1201.8086280306541
 20
2231.2806296530612
 30
0.0
  0
POINT
  5
8652
  8
DEFPOINTS
  6
BYBLOCK
 62
     0
 10
797.57996767340592
 20
2231.2806296530612
 30
0.0
  0
ENDBLK
  5
8653
  8
0
  0
BLOCK
  8
0
  2
*D26
 70
     1
 10
0.0
 20
0.0
 30
0.0
  3
*D26
  1

  0
LINE
  5
8657
  8
0
  6
BYBLOCK
 62
     0
 10
1740.3086280306541
 20
3671.2806296530612
 30
0.0
 11
503.20328859348228
 21
3671.2806296530612
 31
0.0
  0
LINE
  5
8658
  8
0
  6
BYBLOCK
 62
     0
 10
1186.8086280306541
 20
2011.2806296530609
 30
0.0
 11
503.20328859348228
 21
2011.2806296530609
 31
0.0
  0
LINE
  5
8659
  8
0
  6
BYBLOCK
 62
     0
 10
533.20328859348228
 20
3611.2806296530612
 30
0.0
 11
533.20328859348228
 21
2071.2806296530612
 31
0.0
  0
INSERT
  5
865A
  8
0
  6
BYBLOCK
 62
     0
  2
_OPEN
 10
533.20328859348228
 20
3671.2806296530612
 30
0.0
 41
60.0
 42
60.0
 43
60.0
 50
90.0
  0
INSERT
  5
865B
  8
0
  6
BYBLOCK
 62
     0
  2
_OPEN
 10
533.20328859348228
 20
2011.2806296530609
 30
0.0
 41
60.0
 42
60.0
 43
60.0
 50
270.0
  0
TEXT
  5
865C
  8
3
 62
     0
 10
464.63186002205367
 20
2633.423486795919
 30
0.0
 40
90.0
  1
(1660)
 50
90.0
  0
POINT
  5
865D
  8
DEFPOINTS
  6
BYBLOCK
 62
     0
 10
1755.3086280306541
 20
3671.2806296530612
 30
0.0
  0
POINT
  5
865E
  8
DEFPOINTS
  6
BYBLOCK
 62
     0
 10
1201.8086280306541
 20
2011.2806296530609
 30
0.0
  0
POINT
  5
865F
  8
DEFPOINTS
  6
BYBLOCK
 62
     0
 10
533.20328859348228
 20
2011.2806296530609
 30
0.0
  0
ENDBLK
  5
8660
  8
0
  0
ENDSEC
  0
SECTION
  2
ENTITIES
  0
INSERT
  5
7AE3
  8
0
  2
YA_N
 10
791.5023376026661
 20
124.5017017181089
 30
0.0
  0
LINE
  5
7AE5
  8
2
 10
1042.0349388972461
 20
3051.2806296530612
 30
0.0
 11
2743.645159945434
 21
3051.2806296530612
 31
0.0
  0
LINE
  5
7AE6
  8
2
 10
1761.8086280306541
 20
3711.8054912884731
 30
0.0
 11
1761.8086280306541
 21
2011.2806296530609
 31
0.0
  0
ARC
  5
7AE7
  8
1
 10
1828.8086280306541
 20
3118.2806296530621
 30
0.0
 40
844.0
 50
295.46559942996521
 51
298.52147734483373
  0
ARC
  5
7AE8
  8
1
 10
1828.8086280306541
 20
2984.2806296530621
 30
0.0
 40
710.0
 50
174.58515829387051
 51
237.78948715968349
  0
ARC
  5
7AE9
  8
1
 10
1708.3086280306541
 20
2997.7806296530612
 30
0.0
 40
589.5
 50
84.792963911650503
 51
174.7929639116505
  0
LINE
  5
7AEA
  8
1
 10
2765.3086280306538
 20
3671.2806296530612
 30
0.0
 11
1755.3086280306541
 21
3671.2806296530612
 31
0.0
  0
LINE
  5
7AEB
  8
1
 10
1797.8086280306541
 20
3671.2806296530612
 30
0.0
 11
1797.8086280306541
 21
3586.0703079378982
 31
0.0
  0
LINE
  5
7AEC
  8
1
 10
2722.8086280306538
 20
3671.2806296530612
 30
0.0
 11
2670.1450648976188
 21
3051.2806296530612
 31
0.0
  0
LINE
  5
7AED
  8
1
 10
2765.3086280306538
 20
3671.2806296530612
 30
0.0
 11
2765.3086280306538
 21
3631.2806296530612
 31
0.0
  0
LINE
  5
7AEE
  8
1
 10
1755.3086280306541
 20
3671.2806296530612
 30
0.0
 11
1755.3086280306541
 21
3631.2806296530612
 31
0.0
  0
LINE
  5
7AEF
  8
1
 10
2765.3086280306538
 20
3631.2806296530612
 30
0.0
 11
1755.3086280306541
 21
3631.2806296530612
 31
0.0
  0
LINE
  5
7AF0
  8
1
 10
2765.3086280306538
 20
3668.2806296530612
 30
0.0
 11
1755.3086280306541
 21
3668.2806296530612
 31
0.0
  0
LINE
  5
7AF1
  8
1
 10
1201.8086280306541
 20
2356.2806296530612
 30
0.0
 11
1201.8086280306541
 21
2231.2806296530612
 31
0.0
  0
LINE
  5
7AF2
  8
1
 10
2631.8086280306538
 20
2231.2806296530612
 30
0.0
 11
1201.808628030652
 21
2231.2806296530612
 31
0.0
1001
ACAD
1000
ASC_BOUNDS
1002
{
1070
    19
1005
0
1002
}
  0
LINE
  5
7AF3
  8
1
 10
2631.8086280306538
 20
2356.2806296530612
 30
0.0
 11
1201.808628030652
 21
2356.2806296530612
 31
0.0
  0
LINE
  5
7AF4
  8
2
 10
2431.8086280306538
 20
2838.8562286371762
 30
0.0
 11
2431.8086280306538
 21
2360.4644890429699
 31
0.0
1001
ACAD
1000
ASC_BOUNDS
1002
{
1070
    19
1002
}
  0
LINE
  5
7AF5
  8
2
 10
2675.4430346133809
 20
2631.2806296530612
 30
0.0
 11
2216.9657015768212
 21
2631.2806296530612
 31
0.0
  0
LINE
  5
7AF6
  8
1
 10
5186.3914073276082
 20
3628.7806296530621
 30
0.0
 11
5186.3914073276101
 21
3051.2806296530612
 31
0.0
  0
LINE
  5
7AF7
  8
1
 10
4516.3914073276082
 20
3628.7806296530621
 30
0.0
 11
4516.3914073276092
 21
3051.2806296530612
 31
0.0
  0
LINE
  5
7AF8
  8
1
 10
3673.3914073276078
 20
2357.8738194847169
 30
0.0
 11
5256.3914073276082
 21
2357.8738194847169
 31
0.0
  0
LINE
  5
7AF9
  8
1
 10
3673.3914073276078
 20
2357.8738194847169
 30
0.0
 11
3673.3914073276078
 21
2232.8738194847169
 31
0.0
  0
LINE
  5
7AFA
  8
1
 10
5256.3914073276082
 20
2357.8738194847169
 30
0.0
 11
5256.3914073276082
 21
2232.8738194847169
 31
0.0
  0
LINE
  5
7AFB
  8
1
 10
4474.3914073276073
 20
3671.2806296530612
 30
0.0
 11
5228.3914073276092
 21
3671.2806296530612
 31
0.0
  0
LINE
  5
7AFC
  8
1
 10
5228.3914073276092
 20
3671.2806296530612
 30
0.0
 11
5228.3914073276092
 21
3631.2806296530612
 31
0.0
  0
LINE
  5
7AFD
  8
1
 10
4474.3914073276073
 20
3671.2806296530612
 30
0.0
 11
4474.3914073276073
 21
3631.2806296530612
 31
0.0
  0
LINE
  5
7AFF
  8
2
 10
3563.863566744611
 20
3051.2806296530612
 30
0.0
 11
5256.2417092423557
 21
3051.2806296530612
 31
0.0
  0
LINE
  5
7B00
  8
1
 10
3673.3914073276078
 20
2232.8738194847169
 30
0.0
 11
5256.3914073276082
 21
2232.8738194847169
 31
0.0
1001
ACAD
1000
ASC_BOUNDS
1002
{
1070
    19
1002
}
  0
LINE
  5
7B03
  8
2
 10
2806.8714754771172
 20
6205.6824699157196
 30
0.0
 11
1037.28529445238
 21
6205.6824699157196
 31
0.0
  0
LINE
  5
7B04
  8
2
 10
4851.391407327611
 20
3775.4724434232048
 30
0.0
 11
4851.3914073276092
 21
2012.8738194847181
 31
0.0
  0
INSERT
  5
7B06
  8
0
  2
YA_N
 10
-853.1654824878492
 20
-861.23841843369883
 30
0.0
 41
20.0
 42
20.0
 43
20.0
  0
INSERT
  5
7B08
  8
0
  2
YA_N
 10
-767.31428752034788
 20
-950.9038503398732
 30
0.0
 41
20.0
 42
20.0
 43
20.0
  0
ARC
  5
7B0A
  8
1
 10
2431.8086280306538
 20
2631.2806296530612
 30
0.0
 40
185.0
 50
287.94525099999993
 51
252.05474899999999
  0
LINE
  5
7B0B
  8
1
 10
2374.8086280306538
 20
2455.2806296530612
 30
0.0
 11
2488.8086280306538
 21
2455.2806296530612
 31
0.0
  0
LINE
  5
7B0C
  8
1
 10
2269.8086280306538
 20
2526.539662653061
 30
0.0
 11
2269.8086280306538
 21
2451.2806296530612
 31
0.0
  0
LINE
  5
7B0D
  8
1
 10
2269.8086280306538
 20
2526.539662653061
 30
0.0
 11
2276.1926000306539
 21
2531.2374166530608
 31
0.0
  0
LINE
  5
7B0E
  8
1
 10
2593.8086280306538
 20
2526.539662653061
 30
0.0
 11
2593.8086280306538
 21
2451.2806296530612
 31
0.0
  0
LINE
  5
7B0F
  8
1
 10
2593.8086280306538
 20
2526.539662653061
 30
0.0
 11
2587.424717030653
 21
2531.2374166530608
 31
0.0
  0
LINE
  5
7B10
  8
1
 10
2656.8086280306538
 20
2396.2806296530612
 30
0.0
 11
2206.8086280306538
 21
2396.2806296530612
 31
0.0
  0
LINE
  5
7B11
  8
1
 10
2631.8086280306538
 20
2396.2806296530612
 30
0.0
 11
2631.8086280306538
 21
2356.2806296530612
 31
0.0
  0
LINE
  5
7B12
  8
1
 10
2231.8086280306538
 20
2396.2806296530612
 30
0.0
 11
2231.8086280306538
 21
2356.2806296530612
 31
0.0
  0
LINE
  5
7B13
  8
1
 10
2641.9101664317768
 20
2451.2806296530612
 30
0.0
 11
2501.8086280306538
 21
2451.2806296530612
 31
0.0
  0
LINE
  5
7B14
  8
1
 10
2206.8086280306538
 20
2396.2806296530612
 30
0.0
 11
2222.0109446651659
 21
2451.2806296530612
 31
0.0
  0
LINE
  5
7B15
  8
1
 10
2656.8086280306538
 20
2396.2806296530612
 30
0.0
 11
2641.9101664317768
 21
2451.2806296530612
 31
0.0
  0
LINE
  5
7B16
  8
1
 10
2501.8086280306538
 20
2406.2806296530612
 30
0.0
 11
2361.8086280306538
 21
2406.2806296530612
 31
0.0
  0
LINE
  5
7B17
  8
1
 10
2501.8086280306538
 20
2441.2806296530621
 30
0.0
 11
2361.8086280306538
 21
2441.2806296530621
 31
0.0
  0
LINE
  5
7B18
  8
1
 10
2501.8086280306538
 20
2451.2806296530612
 30
0.0
 11
2501.8086280306538
 21
2441.2806296530621
 31
0.0
  0
LINE
  5
7B19
  8
1
 10
2361.8086280306538
 20
2451.2806296530612
 30
0.0
 11
2361.8086280306538
 21
2441.2806296530621
 31
0.0
  0
LINE
  5
7B1A
  8
1
 10
2361.8086280306538
 20
2451.2806296530612
 30
0.0
 11
2222.0109446651659
 21
2451.2806296530612
 31
0.0
  0
LINE
  5
7B1B
  8
1
 10
2501.8086280306538
 20
2406.2806296530612
 30
0.0
 11
2501.8086280306538
 21
2396.2806296530612
 31
0.0
  0
LINE
  5
7B1C
  8
1
 10
2361.8086280306538
 20
2406.2806296530612
 30
0.0
 11
2361.8086280306538
 21
2396.2806296530612
 31
0.0
  0
POINT
  5
7B1D
  8
1
 10
1201.808628030652
 20
2136.2806296530612
 30
0.0
  0
POINT
  5
7B1E
  8
1
 10
1201.808628030652
 20
2136.2806296530612
 30
0.0
  0
POINT
  5
7B1F
  8
1
 10
1201.8086280306541
 20
2231.2806296530612
 30
0.0
  0
CIRCLE
  5
7B20
  8
1
 10
2431.8086280306538
 20
2631.2806296530612
 30
0.0
 40
119.0
  0
LINE
  5
7B21
  8
1
 10
2631.8086280306538
 20
2356.2806296530612
 30
0.0
 11
2631.8086280306538
 21
2231.2806296530612
 31
0.0
  0
LINE
  5
7B22
  8
1
 10
2631.8086280306538
 20
2011.2806296530609
 30
0.0
 11
1201.808628030652
 21
2011.2806296530609
 31
0.0
1001
ACAD
1000
ASC_BOUNDS
1002
{
1070
    19
1005
0
1002
}
  0
LINE
  5
7B23
  8
1
 10
2631.8086280306538
 20
2136.2806296530612
 30
0.0
 11
1201.808628030652
 21
2136.2806296530612
 31
0.0
1001
ACAD
1000
ASC_BOUNDS
1002
{
1070
    19
1002
}
  0
LINE
  5
7B24
  8
1
 10
1201.8086280306541
 20
2136.2806296530612
 30
0.0
 11
1201.8086280306541
 21
2011.2806296530609
 31
0.0
  0
LINE
  5
7B25
  8
1
 10
2631.8086280306538
 20
2136.2806296530612
 30
0.0
 11
2631.8086280306538
 21
2011.2806296530609
 31
0.0
  0
LINE
  5
7B31
  8
1
 10
2321.8086280306538
 20
6610.6824699157196
 30
0.0
 11
1201.8086280306541
 21
6610.6824699157196
 31
0.0
  0
LINE
  5
7B33
  8
1
 10
2631.8086280306529
 20
5027.6824699157196
 30
0.0
 11
1446.808628030652
 21
5027.6824699157196
 31
0.0
  0
LINE
  5
7B34
  8
1
 10
1201.8086280306541
 20
6610.6824699157187
 30
0.0
 11
1201.8086280306541
 21
6540.6824699157214
 31
0.0
  0
LINE
  5
7B35
  8
1
 10
2321.8086280306538
 20
6610.6824699157196
 30
0.0
 11
2321.8086280306538
 21
6580.6824699157214
 31
0.0
  0
LINE
  5
7B36
  8
1
 10
2631.8086280306538
 20
5865.6824699157214
 30
0.0
 11
2631.8086280306529
 21
5027.6824699157196
 31
0.0
  0
LINE
  5
7B37
  8
1
 10
1757.8086280306541
 20
6545.6824699157187
 30
0.0
 11
1266.8086280306541
 21
6545.6824699157187
 31
0.0
  0
LINE
  5
7B38
  8
1
 10
1266.8086280306541
 20
6545.6824699157214
 30
0.0
 11
1266.8086280306541
 21
6540.6824699157214
 31
0.0
  0
LINE
  5
7B3A
  8
1
 10
2631.8086280306538
 20
5865.6824699157214
 30
0.0
 11
1266.8086280306541
 21
5865.6824699157214
 31
0.0
  0
LINE
  5
7B3D
  8
1
 10
1446.8086280306529
 20
5800.6824699157196
 30
0.0
 11
1446.808628030652
 21
5027.6824699157196
 31
0.0
  0
LINE
  5
7B3F
  8
2
 10
2431.8086280306529
 20
5761.6908850373648
 30
0.0
 11
2431.808628030652
 21
4925.586706562226
 31
0.0
  0
LINE
  5
7B40
  8
1
 10
3673.3914073276078
 20
2012.8738194847169
 30
0.0
 11
5256.3914073276082
 21
2012.8738194847169
 31
0.0
  0
LINE
  5
7B41
  8
1
 10
3673.3914073276078
 20
2137.8738194847169
 30
0.0
 11
5256.3914073276082
 21
2137.8738194847169
 31
0.0
1001
ACAD
1000
ASC_BOUNDS
1002
{
1070
    19
1002
}
  0
LINE
  5
7B42
  8
1
 10
3673.3914073276078
 20
2137.8738194847169
 30
0.0
 11
3673.3914073276078
 21
2012.8738194847169
 31
0.0
  0
LINE
  5
7B43
  8
1
 10
5256.3914073276082
 20
2137.8738194847169
 30
0.0
 11
5256.3914073276082
 21
2012.8738194847169
 31
0.0
  0
LINE
  5
7B45
  8
1
 10
3596.3914073276101
 20
2749.9721829641712
 30
0.0
 11
3706.3914073276078
 21
2749.9721829641712
 31
0.0
  0
LINE
  5
7B46
  8
1
 10
3596.3914073276101
 20
2511.9721829641712
 30
0.0
 11
3706.3914073276101
 21
2511.9721829641712
 31
0.0
  0
LINE
  5
7B47
  8
1
 10
3596.3914073276078
 20
3254.480629653061
 30
0.0
 11
3596.3914073276092
 21
2511.9721829641712
 31
0.0
  0
LINE
  5
7B48
  8
1
 10
3706.3914073276078
 20
3254.480629653061
 30
0.0
 11
3706.3914073276092
 21
2511.9721829641712
 31
0.0
  0
LINE
  5
7B49
  8
1
 10
3726.3914073276101
 20
3331.2806296530612
 30
0.0
 11
3726.3914073276101
 21
3311.2806296530612
 31
0.0
  0
LINE
  5
7B4A
  8
1
 10
3526.3914073276101
 20
3331.2806296530612
 30
0.0
 11
3526.3914073276101
 21
2410.9721829641712
 31
0.0
  0
LINE
  5
7B4B
  8
1
 10
3526.3914073276078
 20
2410.9721829641712
 30
0.0
 11
3726.3914073276101
 21
2410.9721829641712
 31
0.0
  0
POINT
  5
7B4C
  8
1
 10
5189.3914073276092
 20
3671.2806296530612
 30
0.0
  0
POINT
  5
7B4E
  8
1
 10
1201.808628030652
 20
2136.2806296530612
 30
0.0
  0
POINT
  5
7B4F
  8
1
 10
1201.8086280306541
 20
2011.2806296530609
 30
0.0
  0
ARC
  5
7B50
  8
1
 10
1761.8086280306541
 20
3051.2806296530612
 30
0.0
 40
536.0
 50
86.148876873502289
 51
90.0
  0
CIRCLE
  5
7B51
  8
1
 10
1761.8086280306541
 20
3051.2806296530612
 30
0.0
 40
203.19999999999999
  0
ARC
  5
7B53
  8
1
 10
2431.8086280306538
 20
2631.2806296530612
 30
0.0
 40
220.0
 50
241.20016122767339
 51
57.525100144572292
  0
LINE
  5
7B54
  8
1
 10
1932.1649969299251
 20
3273.2286872209252
 30
0.0
 11
2552.6876263600748
 21
2814.8425475483159
 31
0.0
  0
LINE
  5
7B55
  8
1
 10
1861.3722764188731
 20
3228.4170740105878
 30
0.0
 11
2490.1160795965889
 21
2735.0170316144081
 31
0.0
  0
LINE
  5
7B56
  8
1
 10
1705.7243075392689
 20
2855.9737199058141
 30
0.0
 11
2398.9639718373719
 21
2516.903059476278
 31
0.0
  0
LINE
  5
7B57
  8
1
 10
1619.368294665848
 20
2810.2082648758801
 30
0.0
 11
2329.7113903644708
 21
2436.4388043982249
 31
0.0
  0
LINE
  5
7B58
  8
1
 10
3526.3914073276101
 20
3331.2806296530612
 30
0.0
 11
3726.3914073276101
 21
3331.2806296530612
 31
0.0
  0
LINE
  5
7B59
  8
1
 10
3596.3914073276078
 20
3254.480629653061
 30
0.0
 11
3706.3914073276078
 21
3254.480629653061
 31
0.0
  0
LINE
  5
7B5A
  8
1
 10
3596.3914073276092
 20
2848.0806296530609
 30
0.0
 11
3706.3914073276092
 21
2848.0806296530609
 31
0.0
  0
LINE
  5
7B5B
  8
1
 10
3726.3914073276078
 20
2430.9721829641712
 30
0.0
 11
3726.3914073276078
 21
2410.9721829641712
 31
0.0
  0
INSERT
  5
7B5C
  8
0
  2
YA_N
 10
1684.084545659538
 20
-1644.9931351483519
 30
0.0
  0
INSERT
  5
7B5E
  8
0
  2
YA_N
 10
812.60933172367402
 20
-6436.0955458567769
 30
0.0
  0
INSERT
  5
7B60
  8
0
  2
YA_N
 10
-832.05848836684106
 20
-7421.8356660085838
 30
0.0
 41
20.0
 42
20.0
 43
20.0
  0
INSERT
  5
7B62
  8
0
  2
YA_N
 10
-746.20729339933985
 20
-7511.5010979147592
 30
0.0
 41
20.0
 42
20.0
 43
20.0
  0
LINE
  5
7B64
  8
1
 10
3736.3914073276092
 20
2971.2806296530598
 30
0.0
 11
3736.3914073276078
 21
2655.2806296530621
 31
0.0
  0
LINE
  5
7B65
  8
1
 10
4418.3914073276101
 20
2971.2806296530598
 30
0.0
 11
4418.3914073276082
 21
2357.8738194847151
 31
0.0
  0
LINE
  5
7B67
  8
1
 10
3736.3914073276078
 20
2971.2806296530598
 30
0.0
 11
4418.3914073276101
 21
2971.2806296530598
 31
0.0
  0
LINE
  5
7B68
  8
1
 10
3728.8914073276078
 20
3083.7806296530612
 30
0.0
 11
4516.3914073276092
 21
3083.7806296530612
 31
0.0
  0
LINE
  5
7B69
  8
1
 10
3728.8914073276078
 20
3018.7806296530598
 30
0.0
 11
4514.0914073276108
 21
3018.7806296530598
 31
0.0
  0
LINE
  5
7B6A
  8
1
 10
3706.3914073276078
 20
3078.7806296530598
 30
0.0
 11
3728.8914073276078
 21
3078.7806296530598
 31
0.0
  0
LINE
  5
7B6B
  8
1
 10
3706.3914073276092
 20
3023.7806296530598
 30
0.0
 11
3728.8914073276078
 21
3023.7806296530598
 31
0.0
  0
LINE
  5
7B6C
  8
1
 10
3728.8914073276078
 20
3018.7806296530598
 30
0.0
 11
3728.8914073276078
 21
3083.7806296530612
 31
0.0
  0
LINE
  5
7B81
  8
1
 10
3651.7619562371451
 20
2607.2806296530621
 30
0.0
 11
3736.3914073276092
 21
2607.2806296530621
 31
0.0
  0
LINE
  5
7B82
  8
1
 10
3651.7619562371451
 20
2655.2806296530612
 30
0.0
 11
3736.3914073276092
 21
2655.2806296530621
 31
0.0
  0
LINE
  5
7B84
  8
1
 10
3651.7619562371451
 20
2655.2806296530612
 30
0.0
 11
3651.7619562371451
 21
2607.2806296530612
 31
0.0
  0
LINE
  5
7B8B
  8
1
 10
2249.308628030652
 20
5223.7838946521206
 30
0.0
 11
2249.308628030652
 21
5490.4685078566654
 31
0.0
  0
LINE
  5
7B8C
  8
1
 10
2249.308628030652
 20
5490.4685078566654
 30
0.0
 11
2249.308628030652
 21
5142.6959377438316
 31
0.0
  0
LINE
  5
7B8D
  8
1
 10
1794.3086280306541
 20
5083.1824699157214
 30
0.0
 11
1794.3086280306541
 21
5830.6824699157187
 31
0.0
  0
LINE
  5
7B8E
  8
1
 10
1729.3086280306541
 20
5083.1824699157214
 30
0.0
 11
1729.3086280306541
 21
5868.3824699157221
 31
0.0
  0
LINE
  5
7B8F
  8
2
 10
1761.8086280306541
 20
4918.1546293327228
 30
0.0
 11
1761.8086280306541
 21
6661.2021176734579
 31
0.0
  0
LINE
  5
7B90
  8
1
 10
1794.3086280306541
 20
5083.1824699157214
 30
0.0
 11
1729.3086280306541
 21
5083.1824699157214
 31
0.0
  0
LINE
  5
7B91
  8
1
 10
1558.6086280306531
 20
5060.6824699157214
 30
0.0
 11
2551.1170747195429
 21
5060.6824699157214
 31
0.0
  0
LINE
  5
7B92
  8
1
 10
1481.8086280306541
 20
4880.6824699157196
 30
0.0
 11
2652.1170747195429
 21
4880.6824699157196
 31
0.0
  0
LINE
  5
7B93
  8
1
 10
1558.6086280306531
 20
4950.6824699157214
 30
0.0
 11
2551.1170747195429
 21
4950.6824699157214
 31
0.0
  0
LINE
  5
7B94
  8
1
 10
2652.1170747195429
 20
4880.6824699157178
 30
0.0
 11
2652.1170747195429
 21
5080.6824699157196
 31
0.0
  0
LINE
  5
7B95
  8
1
 10
2249.308628030652
 20
5142.6959377438316
 30
0.0
 11
2611.808628030652
 21
5142.6959377438316
 31
0.0
  0
LINE
  5
7B96
  8
1
 10
2551.1170747195429
 20
4950.6824699157214
 30
0.0
 11
2551.1170747195429
 21
5060.6824699157214
 31
0.0
  0
LINE
  5
7B97
  8
1
 10
2455.8086280306511
 20
5006.053018825256
 30
0.0
 11
2455.8086280306511
 21
5116.0530188213861
 31
0.0
  0
LINE
  5
7B98
  8
1
 10
2407.808628030652
 20
5006.053018825256
 30
0.0
 11
2407.8086280306511
 21
5116.0530188213861
 31
0.0
  0
LINE
  5
7B99
  8
1
 10
1965.008628030653
 20
4950.6824699157214
 30
0.0
 11
1965.008628030653
 21
5060.6824699157214
 31
0.0
  0
LINE
  5
7B9A
  8
1
 10
2407.808628030652
 20
5006.053018825256
 30
0.0
 11
2455.808628030652
 21
5006.053018825256
 31
0.0
  0
LINE
  5
7B9B
  8
1
 10
2313.1170747195429
 20
4950.6824699157214
 30
0.0
 11
2313.1170747195429
 21
5060.6824699157178
 31
0.0
  0
LINE
  5
7B9C
  8
1
 10
1789.3086280306541
 20
5060.6824699157214
 30
0.0
 11
1789.3086280306541
 21
5083.1824699157214
 31
0.0
  0
LINE
  5
7B9D
  8
1
 10
2465.2299369764978
 20
5116.0530188213861
 30
0.0
 11
2400.3873190848062
 21
5116.0530188213861
 31
0.0
  0
LINE
  5
7B9E
  8
1
 10
2490.0260770132509
 20
5121.0530188262474
 30
0.0
 11
2373.5911790480532
 21
5121.0530188262474
 31
0.0
  0
LINE
  5
7B9F
  8
1
 10
2465.2299369764978
 20
5116.0530188213861
 30
0.0
 11
2465.2299369764978
 21
5121.0530188262474
 31
0.0
  0
LINE
  5
7BA0
  8
1
 10
2490.0260770132509
 20
5142.6959377438316
 30
0.0
 11
2490.0260770132509
 21
5121.0530188262474
 31
0.0
  0
LINE
  5
7BA1
  8
1
 10
2373.5911790480532
 20
5142.6959377438316
 30
0.0
 11
2373.5911790480532
 21
5121.0530188262474
 31
0.0
  0
LINE
  5
7BA2
  8
1
 10
2400.3873190848062
 20
5116.0530188213861
 30
0.0
 11
2400.3873190848062
 21
5121.0530188262474
 31
0.0
  0
LINE
  5
7BA3
  8
1
 10
1481.8086280306541
 20
4880.6824699157196
 30
0.0
 11
1481.8086280306541
 21
5080.6824699157196
 31
0.0
  0
LINE
  5
7BA4
  8
1
 10
1734.3086280306541
 20
5060.6824699157214
 30
0.0
 11
1734.3086280306541
 21
5083.1824699157214
 31
0.0
  0
LINE
  5
7BA5
  8
1
 10
1558.6086280306531
 20
4950.6824699157214
 30
0.0
 11
1558.6086280306531
 21
5060.6824699157214
 31
0.0
  0
LINE
  5
7BA6
  8
1
 10
1481.8086280306541
 20
5080.6824699157196
 30
0.0
 11
2652.1170747195429
 21
5080.6824699157196
 31
0.0
  0
LINE
  5
7BA7
  8
1
 10
1118.8086280306541
 20
6540.6824699157214
 30
0.0
 11
1757.8086280306541
 21
6540.6824699157187
 31
0.0
  0
LINE
  5
7BA8
  8
1
 10
1118.8086280306541
 20
5870.6824699157196
 30
0.0
 11
1757.8086280306529
 21
5870.6824699157196
 31
0.0
  0
LINE
  5
7BAA
  8
1
 10
2611.808628030652
 20
5682.5530188262474
 30
0.0
 11
2249.308628030652
 21
5682.5530188262474
 31
0.0
  0
LINE
  5
7BAB
  8
1
 10
2611.808628030652
 20
5500.5530188262483
 30
0.0
 11
2611.808628030652
 21
5682.5530188262474
 31
0.0
  0
LINE
  5
7BAC
  8
1
 10
2611.808628030652
 20
5142.6959377438316
 30
0.0
 11
2611.808628030652
 21
5500.5530188262483
 31
0.0
  0
LINE
  5
7BAD
  8
1
 10
2249.308628030652
 20
5490.4685078566654
 30
0.0
 11
2249.308628030652
 21
5682.5530188262483
 31
0.0
  0
LINE
  5
7BB3
  8
1
 10
2321.8086280306529
 20
5870.6824699157214
 30
0.0
 11
2321.8086280306529
 21
5865.6824699157214
 31
0.0
  0
LINE
  5
7BB4
  8
1
 10
2256.8086280306529
 20
5870.6824699157196
 30
0.0
 11
2256.8086280306529
 21
5865.6824699157214
 31
0.0
  0
LINE
  5
7BB5
  8
1
 10
1266.8086280306541
 20
5870.6824699157196
 30
0.0
 11
1266.8086280306541
 21
5865.6824699157214
 31
0.0
  0
LINE
  5
7BB6
  8
1
 10
1201.8086280306541
 20
5870.6824699157196
 30
0.0
 11
1201.8086280306541
 21
5800.6824699157196
 31
0.0
  0
DIMENSION
  5
7BC9
  8
3
  2
*D2
 10
2321.8086280306538
 20
6889.7609109744408
 30
0.0
 11
1759.6325025841249
 21
6889.7609109744408
 31
0.0
 70
   128
 13
1201.8086280306541
 23
6610.6824699157196
 33
0.0
 14
2321.8086280306538
 24
6610.6824699157196
 34
0.0
1001
ACAD
1000
DSTYLE
1002
{
1070
   287
1070
     3
1070
   287
1070
     3
1070
   287
1070
     3
1070
    40
1040
30.0
1070
   143
1040
0.039
1070
   172
1070
     1
1070
   271
1070
     0
1070
   279
1070
     0
1070
   288
1070
     1
1002
}
  0
DIMENSION
  5
7BD7
  8
3
  2
*D3
 10
2631.8086280306538
 20
6889.7609109744408
 30
0.0
 11
2476.8086280306538
 21
6965.84949998507
 31
0.0
 70
   128
 13
2321.8086280306538
 23
6610.6824699157196
 33
0.0
 14
2631.8086280306538
 24
5865.6824699157214
 34
0.0
1001
ACAD
1000
DSTYLE
1002
{
1070
   288
1070
     1
1070
   172
1070
     1
1070
    40
1040
30.0
1070
   271
1070
     0
1070
   143
1040
0.039
1002
}
  0
DIMENSION
  5
7BF1
  8
3
  2
*D4
 10
1446.808628030652
 20
4653.9264775967931
 30
0.0
 11
2040.807081687158
 21
4653.9264775967931
 31
0.0
 70
   128
 13
2631.8086280306529
 23
5027.6824699157196
 33
0.0
 14
1446.808628030652
 24
5027.6824699157196
 34
0.0
1001
ACAD
1000
DSTYLE
1002
{
1070
   287
1070
     3
1070
   287
1070
     3
1070
   287
1070
     3
1070
    40
1040
30.0
1070
   143
1040
0.039
1070
   172
1070
     1
1070
   271
1070
     0
1070
   279
1070
     0
1070
   288
1070
     1
1002
}
  0
DIMENSION
  5
7BFF
  8
3
  2
*D5
 10
1201.8086280306541
 20
4653.9264775967931
 30
0.0
 11
966.09434231636806
 21
4653.9264775967931
 31
0.0
 70
   128
 13
1446.808628030652
 23
5027.6824699157196
 33
0.0
 14
1201.8086280306541
 24
5800.6824699157196
 34
0.0
1001
ACAD
1000
DSTYLE
1002
{
1070
   287
1070
     2
1070
   287
1070
     2
1070
   287
1070
     2
1070
    40
1040
30.0
1070
   143
1040
0.039
1070
   172
1070
     1
1070
   271
1070
     0
1070
   279
1070
     0
1070
   288
1070
     1
1070
   289
1070
     2
1002
}
  0
LINE
  5
7C78
  8
1
 10
1446.8086280306529
 20
5800.6824699157196
 30
0.0
 11
1201.8086280306541
 21
5800.6824699157196
 31
0.0
  0
DIMENSION
  5
7C85
  8
3
  2
*D6
 10
1797.8086280306541
 20
3837.8121743971701
 30
0.0
 11
2242.3127166538161
 21
3837.8121743971701
 31
0.0
 70
   128
 13
2722.8086280306538
 23
3671.2806296530612
 33
0.0
 14
1797.8086280306541
 24
3671.2806296530612
 34
0.0
1001
ACAD
1000
DSTYLE
1002
{
1070
   287
1070
     3
1070
   287
1070
     3
1070
   287
1070
     3
1070
    40
1040
30.0
1070
   143
1040
0.039
1070
   172
1070
     1
1070
   271
1070
     0
1070
   279
1070
     0
1070
   288
1070
     1
1002
}
  0
DIMENSION
  5
7C92
  8
3
  2
*D7
 10
1761.8086280306541
 20
4015.3381039758369
 30
0.0
 11
2261.3176449394168
 21
4015.3381039758369
 31
0.0
 70
   128
 13
2722.8086280306538
 23
3671.2806296530612
 33
0.0
 14
1761.8086280306541
 24
3707.5359684316081
 34
0.0
1001
ACAD
1000
DSTYLE
1002
{
1070
   287
1070
     3
1070
   287
1070
     3
1070
   287
1070
     3
1070
    40
1040
30.0
1070
   143
1040
0.039
1070
   172
1070
     1
1070
   271
1070
     0
1070
   279
1070
     0
1070
   288
1070
     1
1002
}
  0
DIMENSION
  5
7C9E
  8
3
  2
*D8
 10
797.75115370787898
 20
2231.2806296530621
 30
0.0
 11
722.75115370787864
 21
2641.2806296530621
 31
0.0
 70
     0
 13
1105.5532892521071
 23
3051.2806296530612
 33
0.0
 14
1201.8086280306541
 24
2231.2806296530612
 34
0.0
 50
90.0
1001
ACAD
1000
DSTYLE
1002
{
1070
   287
1070
     3
1070
   287
1070
     3
1070
   287
1070
     3
1070
    40
1040
30.0
1070
   143
1040
0.039
1070
   172
1070
     1
1070
   271
1070
     0
1070
   279
1070
     0
1070
   288
1070
     1
1002
}
  0
DIMENSION
  5
7CBE
  8
3
  2
*D9
 10
797.65723288837387
 20
2011.2806296530609
 30
0.0
 11
722.65723288837364
 21
1754.137772510205
 31
0.0
 70
     0
 13
1201.8086280306541
 23
2136.2806296530612
 33
0.0
 14
1201.8086280306541
 24
2011.2806296530609
 34
0.0
 50
90.0
1001
ACAD
1000
DSTYLE
1002
{
1070
   287
1070
     3
1070
   287
1070
     3
1070
   287
1070
     3
1070
    40
1040
30.0
1070
   143
1040
0.039
1070
   172
1070
     1
1070
   271
1070
     0
1070
   279
1070
     0
1070
   288
1070
     1
1070
     6
1000
DOT
1002
}
  0
DIMENSION
  5
7D2E
  8
3
  2
*D11
 10
1761.8086280306541
 20
1788.719807794517
 30
0.0
 11
1458.7137215855109
 21
1788.719807794517
 31
0.0
 70
   128
 13
1201.8086280306541
 23
2011.2806296530609
 33
0.0
 14
1761.8086280306541
 24
1972.0890991552001
 34
0.0
1001
ACAD
1000
DSTYLE
1002
{
1070
   287
1070
     3
1070
   287
1070
     3
1070
   287
1070
     3
1070
    40
1040
30.0
1070
   143
1040
0.039
1070
   172
1070
     1
1070
   271
1070
     0
1070
   279
1070
     0
1070
   288
1070
     1
1002
}
  0
DIMENSION
  5
7D3A
  8
3
  2
*D12
 10
2631.8086280306538
 20
1788.719807794517
 30
0.0
 11
2196.8086280306538
 21
1863.7198077945179
 31
0.0
 70
     0
 13
1761.8086280306541
 23
1972.0890991552001
 33
0.0
 14
2631.8086280306538
 24
2011.2806296530609
 34
0.0
1001
ACAD
1000
DSTYLE
1002
{
1070
   287
1070
     4
1070
   287
1070
     4
1070
   287
1070
     4
1070
    40
1040
30.0
1070
    75
1070
     1
1070
   143
1040
0.039
1070
   172
1070
     1
1070
   271
1070
     0
1070
   279
1070
     1
1070
   288
1070
     1
1002
}
  0
DIMENSION
  5
7D60
  8
3
  2
*D13
 10
5186.3914073276082
 20
3788.1745876517821
 30
0.0
 11
4850.6921420321587
 21
3788.1745876517821
 31
0.0
 70
   128
 13
4516.3914073276082
 23
3628.7806296530621
 33
0.0
 14
5186.3914073276082
 24
3628.7806296530621
 34
0.0
1001
ACAD
1000
DSTYLE
1002
{
1070
   287
1070
     3
1070
   287
1070
     3
1070
   287
1070
     3
1070
    40
1040
30.0
1070
   143
1040
0.039
1070
   172
1070
     1
1070
   271
1070
     0
1070
   279
1070
     0
1070
   288
1070
     1
1002
}
  0
DIMENSION
  5
7D70
  8
3
  2
*D14
 10
4851.391407327611
 20
3980.8267285752331
 30
0.0
 11
5020.3914073276101
 21
4051.7485105798082
 31
0.0
 12
0.0
 22
-332.51077596332101
 32
0.0
 70
   128
 13
5189.3914073276101
 23
3634.0732408691269
 33
0.0
 14
4851.391407327611
 24
3913.2014391711291
 34
0.0
1001
ACAD
1000
DSTYLE
1002
{
1070
   288
1070
     1
1070
   172
1070
     1
1070
    40
1040
30.0
1070
   271
1070
     0
1070
   143
1040
0.039
1002
}
  0
DIMENSION
  5
7DA0
  8
3
  2
*D15
 10
3526.3914073276101
 20
3980.8267285752331
 30
0.0
 11
4188.8914073276101
 21
4130.8267285752327
 31
0.0
 70
     0
  1
MAX\P1340
 13
4851.391407327611
 23
3913.2014391711291
 33
0.0
 14
3526.3914073276101
 24
3331.2806296530612
 34
0.0
1001
ACAD
1000
DSTYLE
1002
{
1070
   287
1070
     4
1070
   287
1070
     4
1070
   287
1070
     4
1070
    40
1040
30.0
1070
    75
1070
     1
1070
   143
1040
0.039
1070
   172
1070
     1
1070
   271
1070
     0
1070
   279
1070
     1
1070
   288
1070
     1
1002
}
  0
DIMENSION
  5
7DCC
  8
3
  2
*D16
 10
4851.3914073276082
 20
1790.485136073275
 30
0.0
 11
4256.1251009963089
 21
1790.485136073275
 31
0.0
 70
   128
 13
3673.3914073276078
 23
2012.8738194847169
 33
0.0
 14
4851.3914073276082
 24
1963.2954866518139
 34
0.0
1001
ACAD
1000
DSTYLE
1002
{
1070
   287
1070
     3
1070
   287
1070
     3
1070
   287
1070
     3
1070
    40
1040
30.0
1070
   143
1040
0.039
1070
   172
1070
     1
1070
   271
1070
     0
1070
   279
1070
     0
1070
   288
1070
     1
1002
}
  0
DIMENSION
  5
7DDA
  8
3
  2
*D17
 10
5256.3914073276082
 20
1790.485136073275
 30
0.0
 11
5053.8914073276082
 21
1861.1339156495919
 31
0.0
 12
0.0
 22
-50.0
 32
0.0
 70
   128
 13
4851.3914073276082
 23
1963.2954866518139
 33
0.0
 14
5256.3914073276082
 24
2012.8738194847169
 34
0.0
1001
ACAD
1000
DSTYLE
1002
{
1070
   288
1070
     1
1070
   172
1070
     1
1070
    75
1070
     1
1070
    40
1040
30.0
1070
   271
1070
     0
1070
   143
1040
0.039
1002
}
  0
DIMENSION
  5
7DFD
  8
3
  2
*D18
 10
5447.0337941012704
 20
2601.2806296530612
 30
0.0
 11
5447.0337941012695
 21
3054.6471675784742
 31
0.0
 70
   128
 13
5186.3914073276082
 23
3501.2806296530621
 33
0.0
 14
5186.3914073276101
 24
2601.2806296530612
 34
0.0
 50
90.0
1001
ACAD
1000
DSTYLE
1002
{
1070
   287
1070
     3
1070
   287
1070
     3
1070
   287
1070
     3
1070
     3
1000
φ<>
1070
    40
1040
30.0
1070
   143
1040
0.039
1070
   172
1070
     1
1070
   271
1070
     0
1070
   279
1070
     0
1070
   288
1070
     1
1002
}
  0
LINE
  5
7E09
  8
4
 10
5550.0
 20
1450.0
 30
0.0
 11
5550.0
 21
850.0
 31
0.0
  0
LINE
  5
7E0A
  8
4
 10
3450.0
 20
1450.0
 30
0.0
 11
3450.0
 21
850.0
 31
0.0
  0
LINE
  5
7E0B
  8
4
 10
1950.0
 20
1450.0
 30
0.0
 11
1950.0
 21
850.0
 31
0.0
  0
LINE
  5
7E0E
  8
4
 10
1950.0
 20
850.0
 30
0.0
 11
5550.0
 21
850.0
 31
0.0
  0
LINE
  5
7E0F
  8
4
 10
1950.0
 20
1150.0
 30
0.0
 11
5550.0
 21
1150.0
 31
0.0
  0
TEXT
  5
7E10
  8
4
 10
2065.5062425407041
 20
1244.629077599838
 30
0.0
 40
150.0
  1
機器名称
  0
TEXT
  5
7E11
  8
4
 10
2058.7743180743919
 20
914.93547019603284
 30
0.0
 40
150.0
  1
機器型番
  0
TEXT
  5
7E12
  8
4
 10
3533.036236462995
 20
1217.715306872705
 30
0.0
 40
150.0
  1
ミツヤリミットロードファン
 41
0.8
  0
TEXT
  5
7E13
  8
4
 10
3559.9634867564419
 20
901.47875283983012
 30
0.0
 40
150.0
  1
LL＃5 1/2-1
  0
TEXT
  5
7E15
  8
4
 10
2452.306731152159
 20
7150.2865239975472
 30
0.0
 40
161.99999999999989
  1
床置防振ベット
  0
TEXT
  5
7E16
  8
4
 10
887.85249341241433
 20
7601.6429285978938
 30
0.0
 40
216.0
  1
遠心式片吸込片持リミットロードファン
  0
LINE
  5
7E17
  8
4
 10
750.0
 20
7408.2262627944137
 30
0.0
 11
5550.0
 21
7408.2262627944137
 31
0.0
  0
LINE
  5
7E18
  8
4
 10
750.0
 20
8008.2262627944137
 30
0.0
 11
5550.0
 21
8008.2262627944137
 31
0.0
  0
LINE
  5
7E19
  8
4
 10
1950.0
 20
1450.0
 30
0.0
 11
5550.0
 21
1450.0
 31
0.0
  0
LINE
  5
7E1A
  8
4
 10
750.0
 20
8008.2262627944137
 30
0.0
 11
750.0
 21
7408.2262627944137
 31
0.0
  0
TEXT
  5
7E1B
  8
4
 10
1144.730234424052
 20
7146.9584326390304
 30
0.0
 40
161.99999999999989
  1
左回転上向
  0
TEXT
  5
7E1C
  8
4
 10
4406.9086777478688
 20
8118.1832444859256
 30
0.0
 40
168.0
  1
No.
  0
TEXT
  5
7E1D
  8
4
 10
3933.8881878000388
 20
7150.2865239975472
 30
0.0
 40
161.99999999999989
  1
縮尺：1/30
  0
LINE
  5
7E1E
  8
4
 10
5550.0
 20
8008.2262627944137
 30
0.0
 11
5550.0
 21
7408.2262627944137
 31
0.0
  0
LINE
  5
7E1F
  8
4
 10
6300.0
 20
8850.0
 30
0.0
 11
6300.0
 21
8850.0
 31
0.0
  0
LINE
  5
7E20
  8
4
 10
4321.8522670795937
 20
8043.790749376205
 30
0.0
 11
4321.8522670795937
 21
8359.9567846492573
 31
0.0
  0
LINE
  5
7E21
  8
4
 10
4321.8522670795937
 20
8359.9567846492573
 30
0.0
 11
5550.0
 21
8359.9567846492573
 31
0.0
  0
LINE
  5
7E22
  8
4
 10
5550.0
 20
8359.9567846492573
 30
0.0
 11
5550.0
 21
8043.790749376205
 31
0.0
  0
LINE
  5
7E23
  8
4
 10
5550.0
 20
8043.790749376205
 30
0.0
 11
4321.8522670795937
 21
8043.790749376205
 31
0.0
  0
LINE
  5
7E24
  8
4
 10
0.0
 20
0.0
 30
0.0
 11
0.0
 21
8850.0
 31
0.0
  0
LINE
  5
7E25
  8
4
 10
0.0
 20
8850.0
 30
0.0
 11
6300.0
 21
8850.0
 31
0.0
  0
LINE
  5
7E26
  8
4
 10
6300.0
 20
8850.0
 30
0.0
 11
6300.0
 21
0.0
 31
0.0
  0
LINE
  5
7E27
  8
4
 10
6300.0
 20
0.0
 30
0.0
 11
0.0
 21
0.0
 31
0.0
  0
LINE
  5
7F26
  8
1
 10
5186.3914073276082
 20
3051.2806296530612
 30
0.0
 11
5186.3914073276101
 21
2357.8738194847169
 31
0.0
  0
LINE
  5
7F27
  8
1
 10
4516.3914073276082
 20
3051.2806296530612
 30
0.0
 11
4516.3914073276092
 21
2357.8738194847169
 31
0.0
  0
DIMENSION
  5
7FBE
  8
1
 62
     2
  2
*D19
 10
797.75115370787898
 20
3671.2806296530621
 30
0.0
 11
722.7511537078783
 21
3361.2806296530621
 31
0.0
 70
     0
 13
1105.5532892521071
 23
3051.2806296530612
 33
0.0
 14
1755.3086280306541
 24
3671.2806296530612
 34
0.0
 50
270.0
1001
ACAD
1000
DSTYLE
1002
{
1070
   287
1070
     4
1070
   287
1070
     4
1070
   287
1070
     4
1070
    40
1040
30.0
1070
    75
1070
     1
1070
   143
1040
0.039
1070
   172
1070
     1
1070
   271
1070
     0
1070
   279
1070
     1
1070
   288
1070
     1
1002
}
  0
DIMENSION
  5
8036
  8
1
 62
     2
  2
*D20
 10
1118.8086280306541
 20
4015.3381039758369
 30
0.0
 11
1440.3086280306541
 21
4090.3381039758369
 31
0.0
 70
     0
 13
1761.8086280306541
 23
3707.5359684316081
 33
0.0
 14
1118.8086280306541
 24
2984.2806296530621
 34
0.0
1001
ACAD
1000
DSTYLE
1002
{
1070
   287
1070
     4
1070
   287
1070
     4
1070
   287
1070
     4
1070
    40
1040
30.0
1070
    75
1070
     1
1070
   143
1040
0.039
1070
   172
1070
     1
1070
   271
1070
     0
1070
   279
1070
     1
1070
   288
1070
     1
1002
}
  0
LINE
  5
8065
  8
1
 10
4474.3914073276073
 20
3631.2806296530612
 30
0.0
 11
5228.3914073276092
 21
3631.2806296530612
 31
0.0
  0
ARC
  5
8087
  8
1
 10
1761.8086280306541
 20
3051.2806296530612
 30
0.0
 40
280.0
 50
51.087711374630658
 51
239.46107996479611
  0
LINE
  5
808A
  8
1
 62
     4
 10
2722.8086280306538
 20
5870.6824699157196
 30
0.0
 11
2722.8086280306538
 21
6540.6824699157214
 31
0.0
  0
LINE
  5
808B
  8
1
 10
1118.8086280306541
 20
5870.6824699157196
 30
0.0
 11
1118.8086280306541
 21
6540.6824699157187
 31
0.0
  0
LINE
  5
8097
  8
1
 10
1757.8086280306541
 20
6580.6824699157196
 30
0.0
 11
2762.8086280306538
 21
6580.6824699157214
 31
0.0
  0
LINE
  5
8098
  8
1
 62
     4
 10
2762.8086280306538
 20
5830.6824699157196
 30
0.0
 11
2762.8086280306538
 21
6580.6824699157214
 31
0.0
  0
LINE
  5
8099
  8
1
 10
1757.8086280306541
 20
5830.6824699157196
 30
0.0
 11
2762.8086280306538
 21
5830.6824699157196
 31
0.0
  0
LINE
  5
809B
  8
1
 62
     4
 10
1797.8086280306541
 20
5870.6824699157196
 30
0.0
 11
1797.8086280306541
 21
6540.6824699157214
 31
0.0
  0
LINE
  5
809C
  8
1
 62
     4
 10
1757.8086280306529
 20
5830.6824699157196
 30
0.0
 11
1757.8086280306541
 21
6580.6824699157214
 31
0.0
  0
LINE
  5
809F
  8
1
 10
1797.8086280306541
 20
5870.6824699157196
 30
0.0
 11
2722.8086280306538
 21
5870.6824699157196
 31
0.0
  0
LINE
  5
80A0
  8
1
 10
1797.8086280306541
 20
6540.6824699157214
 30
0.0
 11
2722.8086280306538
 21
6540.6824699157214
 31
0.0
  0
LINE
  5
80A1
  8
1
 10
1797.8086280306541
 20
6540.6824699157214
 30
0.0
 11
2722.8086280306538
 21
5870.6824699157196
 31
0.0
  0
LINE
  5
80A2
  8
1
 10
2722.8086280306538
 20
6540.6824699157214
 30
0.0
 11
1797.8086280306541
 21
5870.6824699157196
 31
0.0
  0
LINE
  5
80A3
  8
1
 10
1446.8086280306541
 20
2356.2806296530612
 30
0.0
 11
1446.8086280306541
 21
2231.2806296530612
 31
0.0
  0
LINE
  5
80A4
  8
1
 10
1446.8086280306541
 20
2136.2806296530612
 30
0.0
 11
1446.8086280306541
 21
2011.2806296530609
 31
0.0
  0
DIMENSION
  5
80BD
  8
3
  2
*D21
 10
841.77682486662979
 20
5800.6824699157196
 30
0.0
 11
841.77682486662877
 21
6202.8845273101606
 31
0.0
 70
   128
 13
1201.8086280306541
 23
6610.6824699157196
 33
0.0
 14
1201.8086280306541
 24
5800.6824699157196
 34
0.0
 50
270.0
1001
ACAD
1000
DSTYLE
1002
{
1070
   287
1070
     3
1070
   287
1070
     3
1070
   287
1070
     3
1070
    40
1040
30.0
1070
   143
1040
0.039
1070
   172
1070
     1
1070
   271
1070
     0
1070
   279
1070
     0
1070
   288
1070
     1
1002
}
  0
DIMENSION
  5
80C9
  8
3
  2
*D22
 10
841.77682486662877
 20
5027.6824699157196
 30
0.0
 11
766.77682486662809
 21
5414.1824699157196
 31
0.0
 70
     0
 13
1201.8086280306541
 23
5800.6824699157196
 33
0.0
 14
1446.808628030652
 24
5027.6824699157196
 34
0.0
 50
270.0
1001
ACAD
1000
DSTYLE
1002
{
1070
   287
1070
     4
1070
   287
1070
     4
1070
   287
1070
     4
1070
    40
1040
30.0
1070
    75
1070
     1
1070
   143
1040
0.039
1070
   172
1070
     1
1070
   271
1070
     0
1070
   279
1070
     1
1070
   288
1070
     1
1002
}
  0
DIMENSION
  5
80E1
  8
3
  2
*D23
 10
2860.2622963344511
 20
5027.6824699157196
 30
0.0
 11
2860.2622963344511
 21
5456.791412708626
 31
0.0
 70
   128
 13
2631.8086280306538
 23
5865.6824699157214
 33
0.0
 14
2631.8086280306529
 24
5027.6824699157196
 34
0.0
 50
270.0
1001
ACAD
1000
DSTYLE
1002
{
1070
   287
1070
     3
1070
   287
1070
     3
1070
   287
1070
     3
1070
    40
1040
30.0
1070
   143
1040
0.039
1070
   172
1070
     1
1070
   271
1070
     0
1070
   279
1070
     0
1070
   288
1070
     1
1002
}
  0
LINE
  5
81A7
  8
2
 10
4407.3998224492561
 20
2631.2806296530598
 30
0.0
 11
3571.2956439741151
 21
2631.2806296530612
 31
0.0
  0
LINE
  5
81A8
  8
1
 10
3761.7619562332752
 20
2597.8593207072149
 30
0.0
 11
3766.761956238136
 21
2597.8593207072158
 31
0.0
  0
LINE
  5
81A9
  8
1
 10
3761.7619562332752
 20
2662.7019385989079
 30
0.0
 11
3766.761956238136
 21
2662.7019385989079
 31
0.0
  0
LINE
  5
81AB
  8
1
 10
3651.7619562371451
 20
2655.2806296530612
 30
0.0
 11
3651.7619562371451
 21
2607.2806296530612
 31
0.0
  0
LINE
  5
81AC
  8
1
 10
3761.7619562332752
 20
2597.8593207072149
 30
0.0
 11
3761.7619562332752
 21
2662.7019385989079
 31
0.0
  0
LINE
  5
81AE
  8
1
 10
3651.7619562371451
 20
2655.2806296530612
 30
0.0
 11
3761.7619562332752
 21
2655.2806296530621
 31
0.0
  0
LINE
  5
81AF
  8
1
 10
3651.7619562371451
 20
2607.2806296530621
 30
0.0
 11
3761.7619562332752
 21
2607.2806296530621
 31
0.0
  0
LINE
  5
81B2
  8
1
 10
3766.761956238136
 20
2573.0631806704632
 30
0.0
 11
3766.761956238136
 21
2689.49807863566
 31
0.0
  0
LINE
  5
81B3
  8
1
 10
3788.404875155722
 20
2813.7806296530612
 30
0.0
 11
3788.404875155722
 21
2451.2806296530612
 31
0.0
  0
LINE
  5
81B4
  8
1
 10
4328.2619562381369
 20
2451.2806296530612
 30
0.0
 11
4328.2619562381369
 21
2813.7806296530612
 31
0.0
  0
LINE
  5
81B5
  8
1
 10
3869.4928320640101
 20
2813.7806296530612
 30
0.0
 11
4136.1774452685549
 21
2813.7806296530612
 31
0.0
  0
LINE
  5
81B6
  8
1
 10
4136.1774452685549
 20
2813.7806296530612
 30
0.0
 11
3788.404875155722
 21
2813.7806296530612
 31
0.0
  0
LINE
  5
81B7
  8
1
 10
3788.404875155722
 20
2689.49807863566
 30
0.0
 11
3766.761956238136
 21
2689.49807863566
 31
0.0
  0
LINE
  5
81B8
  8
1
 10
4136.1774452685549
 20
2813.7806296530612
 30
0.0
 11
4328.2619562381369
 21
2813.7806296530612
 31
0.0
  0
LINE
  5
81B9
  8
1
 10
3788.404875155722
 20
2451.2806296530612
 30
0.0
 11
4146.2619562381369
 21
2451.2806296530612
 31
0.0
  0
LINE
  5
81BA
  8
1
 10
3788.404875155722
 20
2573.0631806704632
 30
0.0
 11
3766.761956238136
 21
2573.0631806704632
 31
0.0
  0
LINE
  5
81BB
  8
1
 10
4146.2619562381369
 20
2451.2806296530612
 30
0.0
 11
4328.2619562381369
 21
2451.2806296530612
 31
0.0
  0
LINE
  5
81BC
  8
1
 10
3736.3914073276078
 20
2607.2806296530621
 30
0.0
 11
3736.3914073276092
 21
2357.8738194847169
 31
0.0
  0
LINE
  5
81BD
  8
1
 10
3872.3191725647571
 20
2396.2806296530621
 30
0.0
 11
4272.3191725647557
 21
2396.2806296530621
 31
0.0
  0
LINE
  5
81BE
  8
1
 10
3872.3191725647571
 20
2451.2806296530612
 30
0.0
 11
3872.3191725647571
 21
2356.2806296530612
 31
0.0
  0
LINE
  5
81BF
  8
1
 10
4272.3191725647566
 20
2451.2806296530612
 30
0.0
 11
4272.3191725647566
 21
2356.2806296530612
 31
0.0
  0
LINE
  5
81C5
  8
1
 10
4446.3914073276092
 20
2357.8738194847169
 30
0.0
 11
4446.3914073276092
 21
2232.8738194847169
 31
0.0
  0
LINE
  5
81C6
  8
1
 10
4446.3914073276092
 20
2137.8738194847169
 30
0.0
 11
4446.3914073276092
 21
2012.8738194847169
 31
0.0
  0
DIMENSION
  5
81F4
  8
3
  2
*D24
 10
2765.3086280306538
 20
4215.3797041884427
 30
0.0
 11
1884.8769115667601
 21
4215.3797041884427
 31
0.0
 70
   128
 13
1118.8086280306541
 23
2984.2806296530621
 33
0.0
 14
2765.3086280306538
 24
3671.2806296530612
 34
0.0
1001
ACAD
1000
DSTYLE
1002
{
1070
   287
1070
     3
1070
   287
1070
     3
1070
   287
1070
     3
1070
    40
1040
30.0
1070
   143
1040
0.039
1070
   172
1070
     1
1070
   271
1070
     0
1070
   279
1070
     0
1070
   288
1070
     1
1002
}
  0
LINE
  5
863E
  8
1
 10
1526.8086280306541
 20
2971.2806296530598
 30
0.0
 11
1996.8086280306541
 21
2971.2806296530598
 31
0.0
  0
LINE
  5
8640
  8
1
 10
1526.8086280306541
 20
2971.2806296530598
 30
0.0
 11
1446.8086280306541
 21
2356.2806296530612
 31
0.0
  0
LINE
  5
8641
  8
1
 10
1996.8086280306541
 20
2971.2806296530598
 30
0.0
 11
2076.8086280306538
 21
2356.2806296530612
 31
0.0
  0
DIMENSION
  5
8654
  8
3
  2
*D25
 10
797.57996767340592
 20
2231.2806296530612
 30
0.0
 11
654.00853910197725
 21
2183.7806296530612
 31
0.0
 70
     0
 13
1201.8086280306541
 23
2136.2806296530612
 33
0.0
 14
1201.8086280306541
 24
2231.2806296530612
 34
0.0
 50
90.0
1001
ACAD
1000
DSTYLE
1002
{
1070
   172
1070
     1
1070
    40
1040
30.0
1070
     3
1000
(<>)
1070
   271
1070
     0
1070
     7
1000
_OPEN
1070
     6
1000
_DOT
1070
   143
1040
0.039
1002
}
  0
DIMENSION
  5
8661
  8
3
  2
*D26
 10
533.20328859348228
 20
2011.2806296530609
 30
0.0
 11
434.63186002205367
 21
2841.2806296530612
 31
0.0
 70
     0
 13
1755.3086280306541
 23
3671.2806296530612
 33
0.0
 14
1201.8086280306541
 24
2011.2806296530609
 34
0.0
 50
90.0
1001
ACAD
1000
DSTYLE
1002
{
1070
   172
1070
     1
1070
    40
1040
30.0
1070
     3
1000
(<>)
1070
   271
1070
     0
1070
     7
1000
_OPEN
1070
     6
1000
_OPEN
1070
   143
1040
0.039
1002
}
  0
LINE
  5
866A
  8
1
 10
1526.8086280306541
 20
5090.6824699157196
 30
0.0
 11
1526.8086280306541
 21
5772.6824699157214
 31
0.0
  0
LINE
  5
866B
  8
1
 10
1996.8086280306541
 20
5090.6824699157196
 30
0.0
 11
1996.8086280306541
 21
5772.6824699157214
 31
0.0
  0
LINE
  5
866C
  8
1
 10
1996.8086280306541
 20
5090.6824699157196
 30
0.0
 11
1794.3086280306541
 21
5090.6824699157196
 31
0.0
  0
LINE
  5
866D
  8
1
 10
1996.8086280306541
 20
5772.6824699157214
 30
0.0
 11
1794.3086280306541
 21
5772.6824699157214
 31
0.0
  0
LINE
  5
866E
  8
1
 10
1729.3086280306541
 20
5772.6824699157214
 30
0.0
 11
1526.8086280306541
 21
5772.6824699157196
 31
0.0
  0
LINE
  5
866F
  8
1
 10
1729.3086280306541
 20
5090.6824699157196
 30
0.0
 11
1526.8086280306541
 21
5090.6824699157196
 31
0.0
  0
ARC
  5
8674
  8
1
 10
1828.8086280306541
 20
3118.2806296530621
 30
0.0
 40
844.0
 50
333.26001312456827
 51
355.44684761278091
  0
ENDSEC
  0
EOF
