  0
SECTION
  2
HEADER
  9
$ACADVER
  1
AC1009
  9
$INSBASE
 10
0.0
 20
0.0
 30
0.0
  9
$EXTMIN
 10
0.0
 20
0.0
 30
0.0
  9
$EXTMAX
 10
6300.0
 20
8850.0
 30
0.0
  9
$LIMMIN
 10
0.0
 20
0.0
  9
$LIMMAX
 10
297.0
 20
210.0
  9
$ORTHOMODE
 70
     0
  9
$REGENMODE
 70
     1
  9
$FILLMODE
 70
     0
  9
$QTEXTMODE
 70
     0
  9
$MIRRTEXT
 70
     1
  9
$DRAGMODE
 70
     2
  9
$LTSCALE
 40
100.0
  9
$OSMODE
 70
    37
  9
$ATTMODE
 70
     1
  9
$TEXTSIZE
 40
180.0
  9
$TRACEWID
 40
0.05
  9
$TEXTSTYLE
  7
STANDARD
  9
$CLAYER
  8
3
  9
$CELTYPE
  6
BYLAYER
  9
$CECOLOR
 62
   256
  9
$DIMSCALE
 40
30.0
  9
$DIMASZ
 40
2.0
  9
$DIMEXO
 40
0.5
  9
$DIMDLI
 40
10.0
  9
$DIMRND
 40
0.0
  9
$DIMDLE
 40
0.0
  9
$DIMEXE
 40
1.0
  9
$DIMTP
 40
1.0
  9
$DIMTM
 40
1.0
  9
$DIMTXT
 40
3.0
  9
$DIMCEN
 40
0.0
  9
$DIMTSZ
 40
0.0
  9
$DIMTOL
 70
     0
  9
$DIMLIM
 70
     0
  9
$DIMTIH
 70
     0
  9
$DIMTOH
 70
     0
  9
$DIMSE1
 70
     0
  9
$DIMSE2
 70
     0
  9
$DIMTAD
 70
     1
  9
$DIMZIN
 70
     8
  9
$DIMBLK
  1

  9
$DIMASO
 70
     1
  9
$DIMSHO
 70
     1
  9
$DIMPOST
  1
φ<>
  9
$DIMAPOST
  1

  9
$DIMALT
 70
     0
  9
$DIMALTD
 70
     2
  9
$DIMALTF
 40
0.039
  9
$DIMLFAC
 40
1.0
  9
$DIMTOFL
 70
     1
  9
$DIMTVP
 40
0.0
  9
$DIMTIX
 70
     0
  9
$DIMSOXD
 70
     0
  9
$DIMSAH
 70
     1
  9
$DIMBLK1
  1
OPEN
  9
$DIMBLK2
  1
OPEN
  9
$DIMSTYLE
  2
IGA
  9
$DIMCLRD
 70
     0
  9
$DIMCLRE
 70
     0
  9
$DIMCLRT
 70
     0
  9
$DIMTFAC
 40
10.0
  9
$DIMGAP
 40
1.0
  9
$LUNITS
 70
     2
  9
$LUPREC
 70
     3
  9
$SKETCHINC
 40
0.1
  9
$FILLETRAD
 40
50.0
  9
$AUNITS
 70
     0
  9
$AUPREC
 70
     0
  9
$MENU
  1
acad
  9
$ELEVATION
 40
0.0
  9
$PELEVATION
 40
0.0
  9
$THICKNESS
 40
0.0
  9
$LIMCHECK
 70
     0
  9
$BLIPMODE
 70
     0
  9
$CHAMFERA
 40
0.5
  9
$CHAMFERB
 40
0.5
  9
$SKPOLY
 70
     0
  9
$TDCREATE
 40
2452521.4636486112
  9
$TDUPDATE
 40
2454953.6447912962
  9
$TDINDWG
 40
0.034739838
  9
$TDUSRTIMER
 40
0.034739838
  9
$USRTIMER
 70
     1
  9
$ANGBASE
 50
0.0
  9
$ANGDIR
 70
     0
  9
$PDMODE
 70
     0
  9
$PDSIZE
 40
0.0
  9
$PLINEWID
 40
0.0
  9
$COORDS
 70
     1
  9
$SPLFRAME
 70
     0
  9
$SPLINETYPE
 70
     6
  9
$SPLINESEGS
 70
     8
  9
$ATTDIA
 70
     0
  9
$ATTREQ
 70
     1
  9
$HANDLING
 70
 10241
  9
$HANDSEED
  5
835E
  9
$SURFTAB1
 70
     6
  9
$SURFTAB2
 70
     6
  9
$SURFTYPE
 70
     6
  9
$SURFU
 70
     6
  9
$SURFV
 70
     6
  9
$UCSNAME
  2

  9
$UCSORG
 10
0.0
 20
0.0
 30
0.0
  9
$UCSXDIR
 10
1.0
 20
0.0
 30
0.0
  9
$UCSYDIR
 10
0.0
 20
1.0
 30
0.0
  9
$PUCSNAME
  2

  9
$PUCSORG
 10
0.0
 20
0.0
 30
0.0
  9
$PUCSXDIR
 10
1.0
 20
0.0
 30
0.0
  9
$PUCSYDIR
 10
0.0
 20
1.0
 30
0.0
  9
$USERI1
 70
     0
  9
$USERI2
 70
     0
  9
$USERI3
 70
     0
  9
$USERI4
 70
     0
  9
$USERI5
 70
     0
  9
$USERR1
 40
0.0
  9
$USERR2
 40
0.0
  9
$USERR3
 40
0.0
  9
$USERR4
 40
0.0
  9
$USERR5
 40
0.0
  9
$WORLDVIEW
 70
     1
  9
$SHADEDGE
 70
     3
  9
$SHADEDIF
 70
    70
  9
$TILEMODE
 70
     1
  9
$MAXACTVP
 70
    16
  9
$PLIMCHECK
 70
     0
  9
$PEXTMIN
 10
1.0000000000000000E+020
 20
1.0000000000000000E+020
 30
1.0000000000000000E+020
  9
$PEXTMAX
 10
-1.0000000000000000E+020
 20
-1.0000000000000000E+020
 30
-1.0000000000000000E+020
  9
$PLIMMIN
 10
0.0
 20
0.0
  9
$PLIMMAX
 10
12.0
 20
9.0
  9
$UNITMODE
 70
     0
  9
$VISRETAIN
 70
     0
  9
$PLINEGEN
 70
     0
  9
$PSLTSCALE
 70
     1
  0
ENDSEC
  0
SECTION
  2
TABLES
  0
TABLE
  2
VPORT
 70
     2
  0
VPORT
  2
*ACTIVE
 70
     0
 10
0.0
 20
0.0
 11
1.0
 21
1.0
 12
5731.5613034445396
 22
1021.807273518779
 13
0.0
 23
0.0
 14
10.0
 24
10.0
 15
10.0
 25
10.0
 16
0.0
 26
0.0
 36
1.0
 17
0.0
 27
0.0
 37
0.0
 40
2450.5414508605108
 41
3.1666666666666661
 42
50.0
 43
0.0
 44
0.0
 50
0.0
 51
0.0
 71
     0
 72
   100
 73
     1
 74
     0
 75
     0
 76
     0
 77
     0
 78
     0
  0
ENDTAB
  0
TABLE
  2
LTYPE
 70
     2
  0
LTYPE
  2
CONTINUOUS
 70
     0
  3
Solid line
 72
    65
 73
     0
 40
0.0
  0
LTYPE
  2
CENTER
 70
     0
  3
____ _ ____ _ ____ _ ____ _ ____ _ ____ _ ____ 
 72
    65
 73
     4
 40
2.0
 49
1.25
 49
-0.25
 49
0.25
 49
-0.25
  0
ENDTAB
  0
TABLE
  2
LAYER
 70
     6
  0
LAYER
  2
0
 70
     0
 62
     7
  6
CONTINUOUS
  0
LAYER
  2
3
 70
     0
 62
     2
  6
CONTINUOUS
  0
LAYER
  2
2
 70
     0
 62
     3
  6
CENTER
  0
LAYER
  2
1
 70
     0
 62
     4
  6
CONTINUOUS
  0
LAYER
  2
4
 70
     0
 62
     7
  6
CONTINUOUS
  0
LAYER
  2
DEFPOINTS
 70
     0
 62
     7
  6
CONTINUOUS
  0
ENDTAB
  0
TABLE
  2
STYLE
 70
     1
  0
STYLE
  2
STANDARD
 70
     0
 40
0.0
 41
1.0
 50
0.0
 71
     0
 42
180.0
  3
simplex.shx
  4
extfont.shx
  0
ENDTAB
  0
TABLE
  2
VIEW
 70
     0
  0
ENDTAB
  0
TABLE
  2
UCS
 70
     0
  0
ENDTAB
  0
TABLE
  2
APPID
 70
     1
  0
APPID
  2
ACAD
 70
     0
  0
ENDTAB
  0
TABLE
  2
DIMSTYLE
 70
     1
  0
DIMSTYLE
  2
IGA
 70
     0
  3

  4

  5

  6
OPEN
  7
OPEN
 40
2.0
 41
2.0
 42
0.5
 43
10.0
 44
1.0
 45
0.0
 46
0.0
 47
1.0
 48
1.0
140
3.0
141
0.0
142
0.0
143
0.03937
144
1.0
145
0.0
146
10.0
147
1.0
 71
     0
 72
     0
 73
     0
 74
     0
 75
     0
 76
     0
 77
     1
 78
     8
170
     0
171
     2
172
     0
173
     1
174
     0
175
     0
176
     0
177
     0
178
     0
  0
ENDTAB
  0
ENDSEC
  0
SECTION
  2
BLOCKS
  0
BLOCK
  8
0
  2
$MODEL_SPACE
 70
     0
 10
0.0
 20
0.0
 30
0.0
  3
$MODEL_SPACE
  1

  0
ENDBLK
  5
1B
  8
0
  0
BLOCK
 67
     1
  8
0
  2
$PAPER_SPACE
 70
     0
 10
0.0
 20
0.0
 30
0.0
  3
$PAPER_SPACE
  1

  0
ENDBLK
  5
18
 67
     1
  8
0
  0
BLOCK
  8
0
  2
YA_N
 70
     0
 10
0.0
 20
0.0
 30
0.0
  3
YA_N
  1

  0
ENDBLK
  5
79FE
  8
0
  0
BLOCK
  8
0
  2
_OPEN
 70
     0
 10
0.0
 20
0.0
 30
0.0
  3
_OPEN
  1

  0
LINE
  5
7BB9
  8
0
  6
BYBLOCK
 62
     0
 10
-1.0
 20
0.1666666666666666
 30
0.0
 11
0.0
 21
0.0
 31
0.0
  0
LINE
  5
7BBA
  8
0
  6
BYBLOCK
 62
     0
 10
0.0
 20
0.0
 30
0.0
 11
-1.0
 21
-0.1666666666666666
 31
0.0
  0
LINE
  5
7BBB
  8
0
  6
BYBLOCK
 62
     0
 10
0.0
 20
0.0
 30
0.0
 11
-1.0
 21
0.0
 31
0.0
  0
ENDBLK
  5
7BBC
  8
0
  0
BLOCK
  8
0
  2
*D2
 70
     1
 10
0.0
 20
0.0
 30
0.0
  3
*D2
  1

  0
LINE
  5
8293
  8
3
 62
     0
 10
2222.4840501793819
 20
6675.3086407359269
 30
0.0
 11
2222.4840501793819
 21
6969.387081794649
 31
0.0
  0
LINE
  5
8294
  8
3
 62
     0
 10
1102.4840501793819
 20
6675.3086407359269
 30
0.0
 11
1102.4840501793819
 21
6969.387081794649
 31
0.0
  0
LINE
  5
8295
  8
3
 62
     0
 10
2162.4840501793819
 20
6939.3870817946481
 30
0.0
 11
1162.4840501793819
 21
6939.3870817946481
 31
0.0
  0
INSERT
  5
8296
  8
3
 62
     0
  2
_OPEN
 10
2222.4840501793819
 20
6939.3870817946481
 30
0.0
 41
60.0
 42
60.0
 43
60.0
  0
INSERT
  5
8297
  8
3
 62
     0
  2
_OPEN
 10
1102.4840501793819
 20
6939.3870817946481
 30
0.0
 41
60.0
 42
60.0
 43
60.0
 50
180.0
  0
TEXT
  8
3
  40
90
  5
8349
  62
0
  72
0
  71
0
 10
1484.66
 20
6855.09
 30
0.000000
  1
1120
  0
POINT
  5
8299
  8
DEFPOINTS
 62
     0
 10
2222.4840501793819
 20
6660.3086407359278
 30
0.0
  0
POINT
  5
829A
  8
DEFPOINTS
 62
     0
 10
1102.4840501793819
 20
6660.3086407359278
 30
0.0
  0
POINT
  5
829B
  8
DEFPOINTS
 62
     0
 10
1102.4840501793819
 20
6939.3870817946481
 30
0.0
  0
ENDBLK
  5
8069
  8
0
  0
BLOCK
  8
0
  2
*D3
 70
     1
 10
0.0
 20
0.0
 30
0.0
  3
*D3
  1

  0
LINE
  5
8080
  8
0
  6
BYBLOCK
 62
     0
 10
1549.444566197295
 20
6675.3086407359269
 30
0.0
 11
1549.444566197295
 21
6969.387081794649
 31
0.0
  0
LINE
  5
8081
  8
0
  6
BYBLOCK
 62
     0
 10
1239.444566197295
 20
5930.3086407359278
 30
0.0
 11
1239.444566197295
 21
6969.387081794649
 31
0.0
  0
LINE
  5
8082
  8
0
  6
BYBLOCK
 62
     0
 10
1489.444566197295
 20
6939.3870817946481
 30
0.0
 11
1299.444566197295
 21
6939.3870817946481
 31
0.0
  0
TEXT
  5
8083
  8
3
 62
     0
 10
1287.3017090544381
 20
6970.4756708052773
 30
0.0
 40
90.0
  1
310
  0
INSERT
  5
8084
  8
0
  6
BYBLOCK
 62
     0
  2
_OPEN
 10
1549.444566197295
 20
6939.3870817946481
 30
0.0
 41
60.0
 42
60.0
 43
60.0
  0
INSERT
  5
8085
  8
0
  6
BYBLOCK
 62
     0
  2
_OPEN
 10
1239.444566197295
 20
6939.3870817946481
 30
0.0
 41
60.0
 42
60.0
 43
60.0
 50
180.0
  0
POINT
  5
8086
  8
DEFPOINTS
  6
BYBLOCK
 62
     0
 10
1549.444566197295
 20
6660.3086407359278
 30
0.0
  0
POINT
  5
8087
  8
DEFPOINTS
  6
BYBLOCK
 62
     0
 10
1239.444566197295
 20
5915.3086407359278
 30
0.0
  0
POINT
  5
8088
  8
DEFPOINTS
  6
BYBLOCK
 62
     0
 10
1239.444566197295
 20
6939.3870817946481
 30
0.0
  0
ENDBLK
  5
8089
  8
0
  0
BLOCK
  8
0
  2
*D4
 70
     1
 10
0.0
 20
0.0
 30
0.0
  3
*D4
  1

  0
LINE
  5
829C
  8
3
 62
     0
 10
777.48405017938421
 20
5077.3086407359278
 30
0.0
 11
509.96185921378571
 21
5077.3086407359278
 31
0.0
  0
LINE
  5
829D
  8
3
 62
     0
 10
777.48405017938239
 20
5915.3086407359278
 30
0.0
 11
509.96185921378589
 21
5915.3086407359278
 31
0.0
  0
LINE
  5
829E
  8
3
 62
     0
 10
539.96185921378571
 20
5137.3086407359278
 30
0.0
 11
539.96185921378583
 21
5855.3086407359278
 31
0.0
  0
INSERT
  5
829F
  8
3
 62
     0
  2
_OPEN
 10
539.96185921378571
 20
5077.3086407359278
 30
0.0
 41
60.0
 42
60.0
 43
60.0
 50
270.0
  0
INSERT
  5
82A0
  8
3
 62
     0
  2
_OPEN
 10
539.96185921378594
 20
5915.3086407359278
 30
0.0
 41
60.0
 42
60.0
 43
60.0
 50
90.0
  0
TEXT
  8
3
  40
90
  5
834A
  62
0
  72
0
  71
0
 10
284.962
 20
5334.40
 30
0.000000
  1
838
  0
POINT
  5
82A2
  8
DEFPOINTS
 62
     0
 10
792.48405017938421
 20
5077.3086407359278
 30
0.0
  0
POINT
  5
82A3
  8
DEFPOINTS
 62
     0
 10
792.48405017938228
 20
5915.3086407359278
 30
0.0
  0
POINT
  5
82A4
  8
DEFPOINTS
 62
     0
 10
539.96185921378594
 20
5915.3086407359278
 30
0.0
  0
ENDBLK
  5
803B
  8
0
  0
BLOCK
  8
0
  2
*D5
 70
     1
 10
0.0
 20
0.0
 30
0.0
  3
*D5
  1

  0
LINE
  5
82A5
  8
3
 62
     0
 10
792.48405017938421
 20
5062.3086407359278
 30
0.0
 11
792.48405017938421
 21
4673.5526484169995
 31
0.0
  0
LINE
  5
82A6
  8
3
 62
     0
 10
1977.484050179384
 20
5062.3086407359278
 30
0.0
 11
1977.484050179384
 21
4673.5526484169995
 31
0.0
  0
LINE
  5
82A7
  8
3
 62
     0
 10
852.48405017938433
 20
4703.5526484170014
 30
0.0
 11
1917.484050179384
 21
4703.5526484170014
 31
0.0
  0
INSERT
  5
82A8
  8
3
 62
     0
  2
_OPEN
 10
792.48405017938421
 20
4703.5526484170014
 30
0.0
 41
60.0
 42
60.0
 43
60.0
 50
180.0
  0
INSERT
  5
82A9
  8
3
 62
     0
  2
_OPEN
 10
1977.484050179384
 20
4703.5526484170014
 30
0.0
 41
60.0
 42
60.0
 43
60.0
  0
TEXT
  8
3
  40
90
  5
834B
  62
0
  72
0
  71
0
 10
1203.49
 20
4619.25
 30
0.000000
  1
1185
  0
POINT
  5
82AB
  8
DEFPOINTS
 62
     0
 10
792.48405017938421
 20
5077.3086407359278
 30
0.0
  0
POINT
  5
82AC
  8
DEFPOINTS
 62
     0
 10
1977.484050179384
 20
5077.3086407359278
 30
0.0
  0
POINT
  5
82AD
  8
DEFPOINTS
 62
     0
 10
1977.484050179384
 20
4703.5526484170014
 30
0.0
  0
ENDBLK
  5
805E
  8
0
  0
BLOCK
  8
0
  2
*D6
 70
     1
 10
0.0
 20
0.0
 30
0.0
  3
*D6
  1

  0
LINE
  5
82AE
  8
3
 62
     0
 10
1977.484050179384
 20
5062.3086407359278
 30
0.0
 11
1977.484050179384
 21
4673.5526484169995
 31
0.0
  0
LINE
  5
82AF
  8
3
 62
     0
 10
2222.4840501793819
 20
5835.3086407359269
 30
0.0
 11
2222.4840501793819
 21
4673.5526484169995
 31
0.0
  0
LINE
  5
82B0
  8
3
 62
     0
 10
2037.484050179384
 20
4703.5526484170014
 30
0.0
 11
2162.4840501793819
 21
4703.5526484170014
 31
0.0
  0
LINE
  5
82B1
  8
3
 62
     0
 10
2222.4840501793819
 20
4703.5526484170014
 30
0.0
 11
2603.912621607954
 21
4703.5526484170014
 31
0.0
  0
INSERT
  5
82B2
  8
3
 62
     0
  2
_OPEN
 10
1977.484050179384
 20
4703.5526484170014
 30
0.0
 41
60.0
 42
60.0
 43
60.0
 50
180.0
  0
INSERT
  5
82B3
  8
3
 62
     0
  2
_OPEN
 10
2222.4840501793819
 20
4703.5526484170014
 30
0.0
 41
60.0
 42
60.0
 43
60.0
  0
TEXT
  8
3
  40
90
  5
834C
  62
0
  72
0
  71
0
 10
2278.20
 20
4619.25
 30
0.000000
  1
245
  0
POINT
  5
82B5
  8
DEFPOINTS
 62
     0
 10
1977.484050179384
 20
5077.3086407359278
 30
0.0
  0
POINT
  5
82B6
  8
DEFPOINTS
 62
     0
 10
2222.4840501793819
 20
5850.3086407359278
 30
0.0
  0
POINT
  5
82B7
  8
DEFPOINTS
 62
     0
 10
2222.4840501793819
 20
4703.5526484170014
 30
0.0
  0
ENDBLK
  5
8053
  8
0
  0
BLOCK
  8
0
  2
*D7
 70
     1
 10
0.0
 20
0.0
 30
0.0
  3
*D7
  1

  0
LINE
  5
82B8
  8
3
 62
     0
 10
2297.4840501793819
 20
2356.623191593113
 30
0.0
 11
2478.1054358365991
 21
2356.623191593113
 31
0.0
  0
LINE
  5
82B9
  8
3
 62
     0
 10
2297.4840501793819
 20
3281.623191593113
 30
0.0
 11
2478.1054358365991
 21
3281.623191593113
 31
0.0
  0
LINE
  5
82BA
  8
3
 62
     0
 10
2448.1054358365982
 20
2416.623191593113
 30
0.0
 11
2448.1054358365991
 21
3221.623191593113
 31
0.0
  0
INSERT
  5
82BB
  8
3
 62
     0
  2
_OPEN
 10
2448.1054358365982
 20
2356.623191593113
 30
0.0
 41
60.0
 42
60.0
 43
60.0
 50
270.0
  0
INSERT
  5
82BC
  8
3
 62
     0
  2
_OPEN
 10
2448.1054358365991
 20
3281.623191593113
 30
0.0
 41
60.0
 42
60.0
 43
60.0
 50
90.0
  0
TEXT
  8
3
  40
90
  5
834D
  62
0
  72
0
  71
0
 10
2193.11
 20
2677.82
 30
0.000000
  1
925
  0
POINT
  5
82BE
  8
DEFPOINTS
 62
     0
 10
2282.4840501793819
 20
2356.623191593113
 30
0.0
  0
POINT
  5
82BF
  8
DEFPOINTS
 62
     0
 10
2282.4840501793819
 20
3281.623191593113
 30
0.0
  0
POINT
  5
82C0
  8
DEFPOINTS
 62
     0
 10
2448.1054358365991
 20
3281.623191593113
 30
0.0
  0
ENDBLK
  5
813A
  8
0
  0
BLOCK
  8
0
  2
*D8
 70
     1
 10
0.0
 20
0.0
 30
0.0
  3
*D8
  1

  0
LINE
  5
82C1
  8
3
 62
     0
 10
2297.4840501793819
 20
2356.623191593113
 30
0.0
 11
2671.1334232697741
 21
2356.623191593113
 31
0.0
  0
LINE
  5
82C2
  8
3
 62
     0
 10
2333.739388957928
 20
3317.623191593113
 30
0.0
 11
2671.1334232697741
 21
3317.623191593113
 31
0.0
  0
LINE
  5
82C3
  8
3
 62
     0
 10
2641.1334232697741
 20
2416.623191593113
 30
0.0
 11
2641.1334232697741
 21
3257.623191593113
 31
0.0
  0
INSERT
  5
82C4
  8
3
 62
     0
  2
_OPEN
 10
2641.1334232697741
 20
2356.623191593113
 30
0.0
 41
60.0
 42
60.0
 43
60.0
 50
270.0
  0
INSERT
  5
82C5
  8
3
 62
     0
  2
_OPEN
 10
2641.1334232697741
 20
3317.623191593113
 30
0.0
 41
60.0
 42
60.0
 43
60.0
 50
90.0
  0
TEXT
  8
3
  40
90
  5
834E
  62
0
  72
0
  71
0
 10
2386.13
 20
2665.25
 30
0.000000
  1
961
  0
POINT
  5
82C7
  8
DEFPOINTS
 62
     0
 10
2282.4840501793819
 20
2356.623191593113
 30
0.0
  0
POINT
  5
82C8
  8
DEFPOINTS
 62
     0
 10
2318.7393889579289
 20
3317.623191593113
 30
0.0
  0
POINT
  5
82C9
  8
DEFPOINTS
 62
     0
 10
2641.1334232697741
 20
3317.623191593113
 30
0.0
  0
ENDBLK
  5
812F
  8
0
  0
BLOCK
  8
0
  2
*D9
 70
     1
 10
0.0
 20
0.0
 30
0.0
  3
*D9
  1

  0
LINE
  5
82CA
  8
3
 62
     0
 10
2333.739388957928
 20
3317.623191593113
 30
0.0
 11
2859.9429023823068
 21
3317.623191593113
 31
0.0
  0
LINE
  5
82CB
  8
3
 62
     0
 10
2237.4840501793819
 20
2217.623191593113
 30
0.0
 11
2859.9429023823059
 21
2217.623191593113
 31
0.0
  0
LINE
  5
82CC
  8
3
 62
     0
 10
2829.9429023823068
 20
3257.623191593113
 30
0.0
 11
2829.9429023823059
 21
2277.623191593113
 31
0.0
  0
INSERT
  5
82CD
  8
3
 62
     0
  2
_OPEN
 10
2829.9429023823068
 20
3317.623191593113
 30
0.0
 41
60.0
 42
60.0
 43
60.0
 50
90.0
  0
INSERT
  5
82CE
  8
3
 62
     0
  2
_OPEN
 10
2829.9429023823059
 20
2217.623191593113
 30
0.0
 41
60.0
 42
60.0
 43
60.0
 50
270.0
  0
TEXT
  8
3
  40
90
  5
834F
  62
0
  72
0
  71
0
 10
2574.94
 20
2608.32
 30
0.000000
  1
1100
  0
POINT
  5
82D0
  8
DEFPOINTS
 62
     0
 10
2318.7393889579289
 20
3317.623191593113
 30
0.0
  0
POINT
  5
82D1
  8
DEFPOINTS
 62
     0
 10
2222.4840501793819
 20
2217.623191593113
 30
0.0
  0
POINT
  5
82D2
  8
DEFPOINTS
 62
     0
 10
2829.9429023823059
 20
2217.623191593113
 30
0.0
  0
ENDBLK
  5
8145
  8
0
  0
BLOCK
  8
0
  2
_DOT
 70
     0
 10
0.0
 20
0.0
 30
0.0
  3
_DOT
  1

  0
LINE
  5
7D1D
  8
0
  6
BYBLOCK
 62
     0
 10
0.0
 20
0.0
 30
0.0
 11
-1.0
 21
-0.0000000000000284
 31
0.0
  0
POLYLINE
  5
7D1E
  8
0
  6
BYBLOCK
 62
     0
 66
     1
 10
0.0
 20
0.0
 30
0.0
 70
     1
 40
0.1666666666666666
 41
0.1666666666666666
  0
VERTEX
  5
82D3
  8
0
  6
BYBLOCK
 62
     0
 10
-0.0833333333333286
 20
-0.0000000000000284
 30
0.0
 42
1.0
  0
VERTEX
  5
82D4
  8
0
  6
BYBLOCK
 62
     0
 10
0.0833333333333286
 20
-0.0000000000000284
 30
0.0
 42
1.0
  0
SEQEND
  5
82D5
  8
0
  6
BYBLOCK
 62
     0
  0
ENDBLK
  5
7CE9
  8
0
  0
BLOCK
  8
0
  2
*D11
 70
     1
 10
0.0
 20
0.0
 30
0.0
  3
*D11
  1

  0
LINE
  5
82D6
  8
3
 62
     0
 10
2282.4840501793819
 20
3319.9771423253619
 30
0.0
 11
2282.4840501793819
 21
4220.5185976326684
 31
0.0
  0
LINE
  5
82D7
  8
3
 62
     0
 10
1662.4840501793819
 20
4072.1998920004721
 30
0.0
 11
1662.4840501793819
 21
4220.5185976326684
 31
0.0
  0
LINE
  5
82D8
  8
3
 62
     0
 10
2222.4840501793819
 20
4190.5185976326684
 30
0.0
 11
1722.4840501793819
 21
4190.5185976326684
 31
0.0
  0
INSERT
  5
82D9
  8
3
 62
     0
  2
_OPEN
 10
2282.4840501793819
 20
4190.5185976326684
 30
0.0
 41
60.0
 42
60.0
 43
60.0
  0
INSERT
  5
82DA
  8
3
 62
     0
  2
_OPEN
 10
1662.4840501793819
 20
4190.5185976326684
 30
0.0
 41
60.0
 42
60.0
 43
60.0
 50
180.0
  0
TEXT
  8
3
  40
90
  5
8350
  62
0
  72
0
  71
0
 10
1779.24
 20
4106.22
 30
0.000000
  1
620
  0
POINT
  5
82DC
  8
DEFPOINTS
 62
     0
 10
2282.4840501793819
 20
3304.9771423253619
 30
0.0
  0
POINT
  5
82DD
  8
DEFPOINTS
 62
     0
 10
1662.4840501793819
 20
4057.1998920004712
 30
0.0
  0
POINT
  5
82DE
  8
DEFPOINTS
 62
     0
 10
1662.4840501793819
 20
4190.5185976326684
 30
0.0
  0
ENDBLK
  5
810D
  8
0
  0
BLOCK
  8
0
  2
*D12
 70
     1
 10
0.0
 20
0.0
 30
0.0
  3
*D12
  1

  0
LINE
  5
82DF
  8
3
 62
     0
 10
885.48405017938228
 20
3399.623191593113
 30
0.0
 11
885.48405017938228
 21
4220.5185976326684
 31
0.0
  0
LINE
  5
82E0
  8
3
 62
     0
 10
1602.4840501793819
 20
4190.5185976326684
 30
0.0
 11
945.48405017938228
 21
4190.5185976326684
 31
0.0
  0
INSERT
  5
82E1
  8
3
 62
     0
  2
_OPEN
 10
1662.4840501793819
 20
4190.5185976326684
 30
0.0
 41
60.0
 42
60.0
 43
60.0
  0
INSERT
  5
82E2
  8
3
 62
     0
  2
_OPEN
 10
885.48405017938228
 20
4190.5185976326684
 30
0.0
 41
60.0
 42
60.0
 43
60.0
 50
180.0
  0
TEXT
  8
3
  40
90
  5
8351
  62
0
  72
0
  71
0
 10
1093.98
 20
4106.22
 30
0.000000
  1
777
  0
POINT
  5
82E4
  8
DEFPOINTS
 62
     0
 10
1662.4840501793819
 20
4057.1998920004712
 30
0.0
  0
POINT
  5
82E5
  8
DEFPOINTS
 62
     0
 10
885.48405017938228
 20
3384.6231915931121
 30
0.0
  0
POINT
  5
82E6
  8
DEFPOINTS
 62
     0
 10
885.48405017938228
 20
4190.5185976326684
 30
0.0
  0
ENDBLK
  5
80F7
  8
0
  0
BLOCK
  8
0
  2
*D13
 70
     1
 10
0.0
 20
0.0
 30
0.0
  3
*D13
  1

  0
LINE
  5
82E7
  8
3
 62
     0
 10
4516.3914073276082
 20
3985.1280368179032
 30
0.0
 11
4516.3914073276082
 21
4191.6907651761458
 31
0.0
  0
LINE
  5
82E8
  8
3
 62
     0
 10
5186.3914073276082
 20
3985.1280368179018
 30
0.0
 11
5186.3914073276082
 21
4191.6907651761458
 31
0.0
  0
LINE
  5
82E9
  8
3
 62
     0
 10
4576.3914073276082
 20
4161.6907651761458
 30
0.0
 11
5126.3914073276082
 21
4161.6907651761458
 31
0.0
  0
INSERT
  5
82EA
  8
3
 62
     0
  2
_OPEN
 10
4516.3914073276082
 20
4161.6907651761458
 30
0.0
 41
60.0
 42
60.0
 43
60.0
 50
180.0
  0
INSERT
  5
82EB
  8
3
 62
     0
  2
_OPEN
 10
5186.3914073276082
 20
4161.6907651761458
 30
0.0
 41
60.0
 42
60.0
 43
60.0
  0
TEXT
  8
3
  40
90
  5
8352
  62
0
  72
0
  71
0
 10
4670.69
 20
4077.39
 30
0.000000
  1
670
  0
POINT
  5
82ED
  8
DEFPOINTS
 62
     0
 10
4516.3914073276082
 20
3970.1280368179032
 30
0.0
  0
POINT
  5
82EE
  8
DEFPOINTS
 62
     0
 10
5186.3914073276082
 20
3970.1280368179018
 30
0.0
  0
POINT
  5
82EF
  8
DEFPOINTS
 62
     0
 10
5186.3914073276082
 20
4161.6907651761458
 30
0.0
  0
ENDBLK
  5
7D5F
  8
0
  0
BLOCK
  8
0
  2
*D14
 70
     1
 10
0.0
 20
0.0
 30
0.0
  3
*D14
  1

  0
LINE
  5
8026
  8
0
  6
BYBLOCK
 62
     0
 10
5189.3914073276101
 20
3791.9159647531351
 30
0.0
 11
5189.3914073276101
 21
4252.0064574475482
 31
0.0
  0
LINE
  5
8027
  8
0
  6
BYBLOCK
 62
     0
 10
4851.391407327611
 20
4103.2129334146612
 30
0.0
 11
4851.391407327611
 21
4252.0064574475482
 31
0.0
  0
LINE
  5
8028
  8
0
  6
BYBLOCK
 62
     0
 10
5129.3914073276092
 20
4222.0064574475473
 30
0.0
 11
4911.3914073276092
 21
4222.0064574475473
 31
0.0
  0
TEXT
  5
8029
  8
3
 62
     0
 10
4904.6771216133247
 20
4247.9282394521206
 30
0.0
 40
90.0
  1
338
  0
INSERT
  5
802A
  8
0
  6
BYBLOCK
 62
     0
  2
_OPEN
 10
5189.3914073276101
 20
4222.0064574475473
 30
0.0
 41
60.0
 42
60.0
 43
60.0
  0
INSERT
  5
802B
  8
0
  6
BYBLOCK
 62
     0
  2
_OPEN
 10
4851.391407327611
 20
4222.0064574475473
 30
0.0
 41
60.0
 42
60.0
 43
60.0
 50
180.0
  0
POINT
  5
802C
  8
DEFPOINTS
  6
BYBLOCK
 62
     0
 10
5189.3914073276101
 20
3776.9159647531351
 30
0.0
  0
POINT
  5
802D
  8
DEFPOINTS
  6
BYBLOCK
 62
     0
 10
4851.391407327611
 20
4088.2129334146612
 30
0.0
  0
POINT
  5
802E
  8
DEFPOINTS
  6
BYBLOCK
 62
     0
 10
4851.391407327611
 20
4222.0064574475473
 30
0.0
  0
ENDBLK
  5
802F
  8
0
  0
BLOCK
  8
0
  2
*D15
 70
     1
 10
0.0
 20
0.0
 30
0.0
  3
*D15
  1

  0
LINE
  5
82F0
  8
3
 62
     0
 10
3526.3914073276101
 20
3612.623191593113
 30
0.0
 11
3526.3914073276101
 21
4450.5111407283803
 31
0.0
  0
LINE
  5
82F1
  8
3
 62
     0
 10
4791.3914073276101
 20
4420.5111407283803
 30
0.0
 11
3586.3914073276101
 21
4420.5111407283803
 31
0.0
  0
INSERT
  5
82F2
  8
3
 62
     0
  2
_OPEN
 10
4851.391407327611
 20
4420.5111407283803
 30
0.0
 41
60.0
 42
60.0
 43
60.0
  0
INSERT
  5
82F3
  8
3
 62
     0
  2
_OPEN
 10
3526.3914073276101
 20
4420.5111407283803
 30
0.0
 41
60.0
 42
60.0
 43
60.0
 50
180.0
  0
TEXT
  8
3
  40
90
  5
8353
  62
0
  72
0
  71
0
 10
4008.89
 20
4411.21
 30
0.000000
  1
MAX
  0
TEXT
  8
3
  40
90
  5
8354
  62
0
  72
0
  71
0
 10
4008.89
 20
4294.21
 30
0.000000
  1
1340
  0
POINT
  5
82F5
  8
DEFPOINTS
 62
     0
 10
4851.391407327611
 20
4286.7176166954941
 30
0.0
  0
POINT
  5
82F6
  8
DEFPOINTS
 62
     0
 10
3526.3914073276101
 20
3597.623191593113
 30
0.0
  0
POINT
  5
82F7
  8
DEFPOINTS
 62
     0
 10
3526.3914073276101
 20
4420.5111407283803
 30
0.0
  0
ENDBLK
  5
8024
  8
0
  0
BLOCK
  8
0
  2
*D16
 70
     1
 10
0.0
 20
0.0
 30
0.0
  3
*D16
  1

  0
LINE
  5
82F8
  8
3
 62
     0
 10
2282.4840501793819
 20
3319.9771423253619
 30
0.0
 11
2282.4840501793819
 21
4419.3302000144804
 31
0.0
  0
LINE
  5
82F9
  8
3
 62
     0
 10
792.48405017938228
 20
2357.623191593113
 30
0.0
 11
792.48405017938239
 21
4419.3302000144804
 31
0.0
  0
LINE
  5
82FA
  8
3
 62
     0
 10
2222.4840501793819
 20
4389.3302000144786
 30
0.0
 11
852.48405017938251
 21
4389.3302000144786
 31
0.0
  0
INSERT
  5
82FB
  8
3
 62
     0
  2
_OPEN
 10
2282.4840501793819
 20
4389.3302000144786
 30
0.0
 41
60.0
 42
60.0
 43
60.0
  0
INSERT
  5
82FC
  8
3
 62
     0
  2
_OPEN
 10
792.48405017938239
 20
4389.3302000144786
 30
0.0
 41
60.0
 42
60.0
 43
60.0
 50
180.0
  0
TEXT
  8
3
  40
90
  5
8355
  62
0
  72
0
  71
0
 10
1399.67
 20
4305.03
 30
0.000000
  1
1490
  0
POINT
  5
82FE
  8
DEFPOINTS
 62
     0
 10
2282.4840501793819
 20
3304.9771423253619
 30
0.0
  0
POINT
  5
82FF
  8
DEFPOINTS
 62
     0
 10
792.48405017938228
 20
2342.623191593113
 30
0.0
  0
POINT
  5
8300
  8
DEFPOINTS
 62
     0
 10
792.48405017938239
 20
4389.3302000144786
 30
0.0
  0
ENDBLK
  5
80ED
  8
0
  0
BLOCK
  8
0
  2
*D17
 70
     1
 10
0.0
 20
0.0
 30
0.0
  3
*D17
  1

  0
LINE
  5
8301
  8
3
 62
     0
 10
2237.4840501793819
 20
6660.3086407359278
 30
0.0
 11
2608.2405436513109
 21
6660.3086407359278
 31
0.0
  0
LINE
  5
8302
  8
3
 62
     0
 10
2237.4840501793819
 20
5850.3086407359278
 30
0.0
 11
2608.2405436513109
 21
5850.3086407359278
 31
0.0
  0
LINE
  5
8303
  8
3
 62
     0
 10
2578.2405436513118
 20
6600.3086407359278
 30
0.0
 11
2578.2405436513118
 21
5910.3086407359269
 31
0.0
  0
INSERT
  5
8304
  8
3
 62
     0
  2
_OPEN
 10
2578.2405436513118
 20
6660.3086407359278
 30
0.0
 41
60.0
 42
60.0
 43
60.0
 50
90.0
  0
INSERT
  5
8305
  8
3
 62
     0
  2
_OPEN
 10
2578.2405436513118
 20
5850.3086407359278
 30
0.0
 41
60.0
 42
60.0
 43
60.0
 50
270.0
  0
TEXT
  8
3
  40
90
  5
8356
  62
0
  72
0
  71
0
 10
2323.24
 20
6121.14
 30
0.000000
  1
810
  0
POINT
  5
8307
  8
DEFPOINTS
 62
     0
 10
2222.4840501793819
 20
6660.3086407359278
 30
0.0
  0
POINT
  5
8308
  8
DEFPOINTS
 62
     0
 10
2222.4840501793819
 20
5850.3086407359278
 30
0.0
  0
POINT
  5
8309
  8
DEFPOINTS
 62
     0
 10
2578.2405436513118
 20
5850.3086407359278
 30
0.0
  0
ENDBLK
  5
81A0
  8
0
  0
BLOCK
  8
0
  2
*D18
 70
     1
 10
0.0
 20
0.0
 30
0.0
  3
*D18
  1

  0
LINE
  5
830A
  8
3
 62
     0
 10
1992.484050179384
 20
5077.3086407359278
 30
0.0
 11
2608.24054365131
 21
5077.3086407359269
 31
0.0
  0
LINE
  5
830B
  8
3
 62
     0
 10
2578.2405436513109
 20
5790.3086407359278
 30
0.0
 11
2578.2405436513109
 21
5137.3086407359269
 31
0.0
  0
INSERT
  5
830C
  8
3
 62
     0
  2
_OPEN
 10
2578.2405436513109
 20
5850.3086407359278
 30
0.0
 41
60.0
 42
60.0
 43
60.0
 50
90.0
  0
INSERT
  5
830D
  8
3
 62
     0
  2
_OPEN
 10
2578.2405436513109
 20
5077.3086407359269
 30
0.0
 41
60.0
 42
60.0
 43
60.0
 50
270.0
  0
TEXT
  8
3
  40
90
  5
8357
  62
0
  72
0
  71
0
 10
2323.24
 20
5304.51
 30
0.000000
  1
773
  0
POINT
  5
830F
  8
DEFPOINTS
 62
     0
 10
2222.4840501793819
 20
5850.3086407359278
 30
0.0
  0
POINT
  5
8310
  8
DEFPOINTS
 62
     0
 10
1977.484050179384
 20
5077.3086407359278
 30
0.0
  0
POINT
  5
8311
  8
DEFPOINTS
 62
     0
 10
2578.2405436513109
 20
5077.3086407359269
 30
0.0
  0
ENDBLK
  5
8195
  8
0
  0
BLOCK
  8
0
  2
*D19
 70
     1
 10
0.0
 20
0.0
 30
0.0
  3
*D19
  1

  0
LINE
  5
8312
  8
3
 62
     0
 10
1610.4840501793819
 20
3960.623191593113
 30
0.0
 11
2859.9429023823059
 21
3960.623191593113
 31
0.0
  0
LINE
  5
8313
  8
3
 62
     0
 10
2829.9429023823059
 20
3377.6231915931121
 30
0.0
 11
2829.9429023823059
 21
3900.623191593113
 31
0.0
  0
INSERT
  5
8314
  8
3
 62
     0
  2
_OPEN
 10
2829.9429023823059
 20
3317.623191593113
 30
0.0
 41
60.0
 42
60.0
 43
60.0
 50
270.0
  0
INSERT
  5
8315
  8
3
 62
     0
  2
_OPEN
 10
2829.9429023823059
 20
3960.623191593113
 30
0.0
 41
60.0
 42
60.0
 43
60.0
 50
90.0
  0
TEXT
  8
3
  40
90
  5
8358
  62
0
  72
0
  71
0
 10
2574.94
 20
3479.82
 30
0.000000
  1
643
  0
POINT
  5
8317
  8
DEFPOINTS
 62
     0
 10
2318.7393889579289
 20
3317.623191593113
 30
0.0
  0
POINT
  5
8318
  8
DEFPOINTS
 62
     0
 10
1595.4840501793819
 20
3960.623191593113
 30
0.0
  0
POINT
  5
8319
  8
DEFPOINTS
 62
     0
 10
2829.9429023823059
 20
3960.623191593113
 30
0.0
  0
ENDBLK
  5
8124
  8
0
  0
BLOCK
  8
0
  2
*D20
 70
     1
 10
0.0
 20
0.0
 30
0.0
  3
*D20
  1

  0
LINE
  5
831A
  8
3
 62
     0
 10
792.48405017938228
 20
2032.623191593113
 30
0.0
 11
792.48405017938228
 21
1820.54176617696
 31
0.0
  0
LINE
  5
831B
  8
3
 62
     0
 10
1662.4840501793819
 20
2032.623191593113
 30
0.0
 11
1662.4840501793819
 21
1820.54176617696
 31
0.0
  0
LINE
  5
831C
  8
3
 62
     0
 10
852.48405017938228
 20
1850.54176617696
 30
0.0
 11
1602.4840501793819
 21
1850.54176617696
 31
0.0
  0
INSERT
  5
831D
  8
3
 62
     0
  2
_OPEN
 10
792.48405017938228
 20
1850.54176617696
 30
0.0
 41
60.0
 42
60.0
 43
60.0
 50
180.0
  0
INSERT
  5
831E
  8
3
 62
     0
  2
_OPEN
 10
1662.4840501793819
 20
1850.54176617696
 30
0.0
 41
60.0
 42
60.0
 43
60.0
  0
TEXT
  8
3
  40
90
  5
8359
  62
0
  72
0
  71
0
 10
1047.48
 20
1766.24
 30
0.000000
  1
870
  0
POINT
  5
8320
  8
DEFPOINTS
 62
     0
 10
792.48405017938228
 20
2047.623191593113
 30
0.0
  0
POINT
  5
8321
  8
DEFPOINTS
 62
     0
 10
1662.4840501793819
 20
2047.623191593113
 30
0.0
  0
POINT
  5
8322
  8
DEFPOINTS
 62
     0
 10
1662.4840501793819
 20
1850.54176617696
 30
0.0
  0
ENDBLK
  5
81D8
  8
0
  0
BLOCK
  8
0
  2
*D21
 70
     1
 10
0.0
 20
0.0
 30
0.0
  3
*D21
  1

  0
LINE
  5
8323
  8
3
 62
     0
 10
1662.4840501793819
 20
2032.623191593113
 30
0.0
 11
1662.4840501793819
 21
1820.54176617696
 31
0.0
  0
LINE
  5
8324
  8
3
 62
     0
 10
2222.4840501793819
 20
2032.623191593113
 30
0.0
 11
2222.4840501793819
 21
1820.54176617696
 31
0.0
  0
LINE
  5
8325
  8
3
 62
     0
 10
1722.4840501793819
 20
1850.54176617696
 30
0.0
 11
2162.4840501793819
 21
1850.54176617696
 31
0.0
  0
INSERT
  5
8326
  8
3
 62
     0
  2
_OPEN
 10
1662.4840501793819
 20
1850.54176617696
 30
0.0
 41
60.0
 42
60.0
 43
60.0
 50
180.0
  0
INSERT
  5
8327
  8
3
 62
     0
  2
_OPEN
 10
2222.4840501793819
 20
1850.54176617696
 30
0.0
 41
60.0
 42
60.0
 43
60.0
  0
TEXT
  8
3
  40
90
  5
835A
  62
0
  72
0
  71
0
 10
1762.48
 20
1766.24
 30
0.000000
  1
560
  0
POINT
  5
8329
  8
DEFPOINTS
 62
     0
 10
1662.4840501793819
 20
2047.623191593113
 30
0.0
  0
POINT
  5
832A
  8
DEFPOINTS
 62
     0
 10
2222.4840501793819
 20
2047.623191593113
 30
0.0
  0
POINT
  5
832B
  8
DEFPOINTS
 62
     0
 10
2222.4840501793819
 20
1850.54176617696
 30
0.0
  0
ENDBLK
  5
81E5
  8
0
  0
BLOCK
  8
0
  2
*D22
 70
     1
 10
0.0
 20
0.0
 30
0.0
  3
*D22
  1

  0
LINE
  5
832C
  8
3
 62
     0
 10
3673.3914073276078
 20
2032.623191593113
 30
0.0
 11
3673.3914073276078
 21
1820.54176617696
 31
0.0
  0
LINE
  5
832D
  8
3
 62
     0
 10
4851.3914073276073
 20
2032.623191593113
 30
0.0
 11
4851.3914073276073
 21
1820.54176617696
 31
0.0
  0
LINE
  5
832E
  8
3
 62
     0
 10
3733.3914073276078
 20
1850.54176617696
 30
0.0
 11
4791.3914073276082
 21
1850.54176617696
 31
0.0
  0
INSERT
  5
832F
  8
3
 62
     0
  2
_OPEN
 10
3673.3914073276078
 20
1850.54176617696
 30
0.0
 41
60.0
 42
60.0
 43
60.0
 50
180.0
  0
INSERT
  5
8330
  8
3
 62
     0
  2
_OPEN
 10
4851.3914073276073
 20
1850.54176617696
 30
0.0
 41
60.0
 42
60.0
 43
60.0
  0
TEXT
  8
3
  40
90
  5
835B
  62
0
  72
0
  71
0
 10
4082.39
 20
1766.24
 30
0.000000
  1
1178
  0
POINT
  5
8332
  8
DEFPOINTS
 62
     0
 10
3673.3914073276078
 20
2047.623191593113
 30
0.0
  0
POINT
  5
8333
  8
DEFPOINTS
 62
     0
 10
4851.3914073276073
 20
2047.623191593113
 30
0.0
  0
POINT
  5
8334
  8
DEFPOINTS
 62
     0
 10
4851.3914073276073
 20
1850.54176617696
 30
0.0
  0
ENDBLK
  5
81F2
  8
0
  0
BLOCK
  8
0
  2
*D23
 70
     1
 10
0.0
 20
0.0
 30
0.0
  3
*D23
  1

  0
LINE
  5
8335
  8
3
 62
     0
 10
4851.3914073276073
 20
2032.623191593113
 30
0.0
 11
4851.3914073276073
 21
1820.54176617696
 31
0.0
  0
LINE
  5
8336
  8
3
 62
     0
 10
5256.3914073276082
 20
2032.623191593113
 30
0.0
 11
5256.3914073276082
 21
1820.54176617696
 31
0.0
  0
LINE
  5
8337
  8
3
 62
     0
 10
4911.3914073276082
 20
1850.54176617696
 30
0.0
 11
5196.3914073276092
 21
1850.54176617696
 31
0.0
  0
INSERT
  5
8338
  8
3
 62
     0
  2
_OPEN
 10
4851.3914073276073
 20
1850.54176617696
 30
0.0
 41
60.0
 42
60.0
 43
60.0
 50
180.0
  0
INSERT
  5
8339
  8
3
 62
     0
  2
_OPEN
 10
5256.3914073276082
 20
1850.54176617696
 30
0.0
 41
60.0
 42
60.0
 43
60.0
  0
TEXT
  8
3
  40
90
  5
835C
  62
0
  72
0
  71
0
 10
4873.89
 20
1766.24
 30
0.000000
  1
405
  0
POINT
  5
833B
  8
DEFPOINTS
 62
     0
 10
4851.3914073276073
 20
2047.623191593113
 30
0.0
  0
POINT
  5
833C
  8
DEFPOINTS
 62
     0
 10
5256.3914073276082
 20
2047.623191593113
 30
0.0
  0
POINT
  5
833D
  8
DEFPOINTS
 62
     0
 10
5256.3914073276082
 20
1850.54176617696
 30
0.0
  0
ENDBLK
  5
8201
  8
0
  0
BLOCK
  8
0
  2
*D24
 70
     1
 10
0.0
 20
0.0
 30
0.0
  3
*D24
  1

  0
LINE
  5
833E
  8
3
 62
     0
 10
2237.4840501793842
 20
2172.623191593113
 30
0.0
 11
2861.6632587269228
 21
2172.623191593113
 31
0.0
  0
LINE
  5
833F
  8
3
 62
     0
 10
2237.4840501793819
 20
2047.623191593113
 30
0.0
 11
2861.6632587269228
 21
2047.6231915931121
 31
0.0
  0
LINE
  5
8340
  8
3
 62
     0
 10
2831.6632587269228
 20
2232.623191593113
 30
0.0
 11
2831.6632587269228
 21
2292.623191593113
 31
0.0
  0
LINE
  5
8341
  8
3
 62
     0
 10
2831.6632587269228
 20
1987.623191593113
 30
0.0
 11
2831.6632587269228
 21
1653.3374773073981
 31
0.0
  0
LINE
  5
8342
  8
3
 62
     0
 10
2831.6632587269228
 20
2172.623191593113
 30
0.0
 11
2831.6632587269228
 21
2047.6231915931121
 31
0.0
  0
INSERT
  5
8343
  8
3
 62
     0
  2
_DOT
 10
2831.6632587269228
 20
2172.623191593113
 30
0.0
 41
60.0
 42
60.0
 43
60.0
 50
270.0
  0
INSERT
  5
8344
  8
3
 62
     0
  2
_OPEN
 10
2831.6632587269228
 20
2047.6231915931121
 30
0.0
 41
60.0
 42
60.0
 43
60.0
 50
90.0
  0
TEXT
  8
3
  40
90
  5
835D
  62
0
  72
0
  71
0
 10
2576.66
 20
1631.18
 30
0.000000
  1
125
  0
POINT
  5
8346
  8
DEFPOINTS
 62
     0
 10
2222.4840501793842
 20
2172.623191593113
 30
0.0
  0
POINT
  5
8347
  8
DEFPOINTS
 62
     0
 10
2222.4840501793819
 20
2047.623191593113
 30
0.0
  0
POINT
  5
8348
  8
DEFPOINTS
 62
     0
 10
2831.6632587269228
 20
2047.6231915931121
 30
0.0
  0
ENDBLK
  5
823C
  8
0
  0
BLOCK
  8
0
  2
*D25
 70
     1
 10
0.0
 20
0.0
 30
0.0
  3
*D25
  1

  0
LINE
  5
8240
  8
0
  6
BYBLOCK
 62
     0
 10
2237.4840501793819
 20
2172.623191593113
 30
0.0
 11
2861.6632587269228
 21
2172.623191593113
 31
0.0
  0
LINE
  5
8241
  8
0
  6
BYBLOCK
 62
     0
 10
2237.4840501793842
 20
2217.623191593113
 30
0.0
 11
2861.6632587269228
 21
2217.623191593113
 31
0.0
  0
LINE
  5
8242
  8
0
  6
BYBLOCK
 62
     0
 10
2831.6632587269228
 20
2112.623191593113
 30
0.0
 11
2831.6632587269228
 21
2052.623191593113
 31
0.0
  0
LINE
  5
8243
  8
0
  6
BYBLOCK
 62
     0
 10
2831.6632587269228
 20
2277.623191593113
 30
0.0
 11
2831.6632587269228
 21
2337.623191593113
 31
0.0
  0
TEXT
  5
8244
  8
3
 62
     0
 10
3005.2346872983512
 20
2064.4089058788272
 30
0.0
 40
90.0
  1
(45)
 50
90.0
  0
LINE
  5
8245
  8
0
  6
BYBLOCK
 62
     0
 10
2831.6632587269228
 20
2172.623191593113
 30
0.0
 11
2831.6632587269228
 21
2217.623191593113
 31
0.0
  0
INSERT
  5
8246
  8
0
  6
BYBLOCK
 62
     0
  2
_DOT
 10
2831.6632587269228
 20
2172.623191593113
 30
0.0
 41
60.0
 42
60.0
 43
60.0
 50
90.0
  0
INSERT
  5
8247
  8
0
  6
BYBLOCK
 62
     0
  2
_OPEN
 10
2831.6632587269228
 20
2217.623191593113
 30
0.0
 41
60.0
 42
60.0
 43
60.0
 50
270.0
  0
POINT
  5
8248
  8
DEFPOINTS
  6
BYBLOCK
 62
     0
 10
2222.4840501793819
 20
2172.623191593113
 30
0.0
  0
POINT
  5
8249
  8
DEFPOINTS
  6
BYBLOCK
 62
     0
 10
2222.4840501793842
 20
2217.623191593113
 30
0.0
  0
POINT
  5
824A
  8
DEFPOINTS
  6
BYBLOCK
 62
     0
 10
2831.6632587269228
 20
2217.623191593113
 30
0.0
  0
ENDBLK
  5
824B
  8
0
  0
BLOCK
  8
0
  2
*D26
 70
     1
 10
0.0
 20
0.0
 30
0.0
  3
*D26
  1

  0
LINE
  5
824F
  8
0
  6
BYBLOCK
 62
     0
 10
1625.4840501793819
 20
3960.623191593113
 30
0.0
 11
3130.7327412094269
 21
3960.623191593113
 31
0.0
  0
LINE
  5
8250
  8
0
  6
BYBLOCK
 62
     0
 10
2237.4840501793819
 20
2047.623191593113
 30
0.0
 11
3130.7327412094269
 21
2047.623191593113
 31
0.0
  0
LINE
  5
8251
  8
0
  6
BYBLOCK
 62
     0
 10
3100.7327412094269
 20
3900.623191593113
 30
0.0
 11
3100.7327412094269
 21
2107.623191593113
 31
0.0
  0
INSERT
  5
8252
  8
0
  6
BYBLOCK
 62
     0
  2
_OPEN
 10
3100.7327412094269
 20
3960.623191593113
 30
0.0
 41
60.0
 42
60.0
 43
60.0
 50
90.0
  0
INSERT
  5
8253
  8
0
  6
BYBLOCK
 62
     0
  2
_OPEN
 10
3100.7327412094269
 20
2047.623191593113
 30
0.0
 41
60.0
 42
60.0
 43
60.0
 50
270.0
  0
TEXT
  5
8254
  8
3
 62
     0
 10
3032.1613126379989
 20
2804.8374773073979
 30
0.0
 40
90.0
  1
(1913)
 50
90.0
  0
POINT
  5
8255
  8
DEFPOINTS
  6
BYBLOCK
 62
     0
 10
1610.4840501793819
 20
3960.623191593113
 30
0.0
  0
POINT
  5
8256
  8
DEFPOINTS
  6
BYBLOCK
 62
     0
 10
2222.4840501793819
 20
2047.623191593113
 30
0.0
  0
POINT
  5
8257
  8
DEFPOINTS
  6
BYBLOCK
 62
     0
 10
3100.7327412094269
 20
2047.623191593113
 30
0.0
  0
ENDBLK
  5
8258
  8
0
  0
BLOCK
  8
0
  2
*D27
 70
     1
 10
0.0
 20
0.0
 30
0.0
  3
*D27
  1

  0
LINE
  5
826C
  8
0
  6
BYBLOCK
 62
     0
 10
5201.3914073276101
 20
3767.623191593113
 30
0.0
 11
5486.2714440005693
 21
3767.623191593113
 31
0.0
  0
LINE
  5
826D
  8
0
  6
BYBLOCK
 62
     0
 10
5201.3914073276092
 20
2867.6231915931121
 30
0.0
 11
5486.2714440005693
 21
2867.6231915931121
 31
0.0
  0
LINE
  5
826E
  8
0
  6
BYBLOCK
 62
     0
 10
5456.2714440005693
 20
3707.6231915931139
 30
0.0
 11
5456.2714440005693
 21
2927.623191593113
 31
0.0
  0
INSERT
  5
826F
  8
0
  6
BYBLOCK
 62
     0
  2
_OPEN
 10
5456.2714440005693
 20
3767.623191593113
 30
0.0
 41
60.0
 42
60.0
 43
60.0
 50
90.0
  0
INSERT
  5
8270
  8
0
  6
BYBLOCK
 62
     0
  2
_OPEN
 10
5456.2714440005693
 20
2867.6231915931121
 30
0.0
 41
60.0
 42
60.0
 43
60.0
 50
270.0
  0
TEXT
  5
8271
  8
3
 62
     0
 10
5426.2714440005693
 20
3156.9089058788272
 30
0.0
 40
90.0
  1
φ900
 50
90.0
  0
POINT
  5
8272
  8
DEFPOINTS
  6
BYBLOCK
 62
     0
 10
5186.3914073276101
 20
3767.623191593113
 30
0.0
  0
POINT
  5
8273
  8
DEFPOINTS
  6
BYBLOCK
 62
     0
 10
5186.3914073276092
 20
2867.6231915931121
 30
0.0
  0
POINT
  5
8274
  8
DEFPOINTS
  6
BYBLOCK
 62
     0
 10
5456.2714440005693
 20
2867.6231915931121
 30
0.0
  0
ENDBLK
  5
8275
  8
0
  0
ENDSEC
  0
SECTION
  2
ENTITIES
  0
INSERT
  5
7AE3
  8
0
  2
YA_N
 10
791.5023376026661
 20
124.5017017181089
 30
0.0
  0
LINE
  5
7AE5
  8
2
 10
2318.7393889579289
 20
3317.623191593113
 30
0.0
 11
817.15929554069044
 21
3317.623191593113
 31
0.0
  0
LINE
  5
7AE6
  8
2
 10
1662.4840501793819
 20
4057.1998920004712
 30
0.0
 11
1662.4840501793819
 21
2047.623191593113
 31
0.0
  0
ARC
  5
7AE7
  8
1
 10
1729.4840501793819
 20
3250.623191593113
 30
0.0
 40
844.0
 50
175.446847612781
 51
212.17080796766439
  0
ARC
  5
7AE8
  8
1
 10
1595.4840501793819
 20
3250.623191593113
 30
0.0
 40
710.0
 50
84.585158293870549
 51
174.58515829387051
  0
ARC
  5
7AE9
  8
1
 10
1608.9840501793819
 20
3371.123191593113
 30
0.0
 40
589.5
 50
354.79296391165042
 51
84.792963911650475
  0
LINE
  5
7AEA
  8
1
 10
2282.4840501793819
 20
2314.1231915931121
 30
0.0
 11
2282.4840501793819
 21
3324.123191593113
 31
0.0
  0
LINE
  5
7AEB
  8
1
 10
2282.4840501793819
 20
3281.623191593113
 30
0.0
 11
2197.2737284642189
 21
3281.623191593113
 31
0.0
  0
LINE
  5
7AEC
  8
1
 10
2282.4840501793819
 20
2356.623191593113
 30
0.0
 11
1973.889646741218
 21
2382.835580057576
 31
0.0
  0
LINE
  5
7AED
  8
1
 10
2282.4840501793819
 20
2314.1231915931121
 30
0.0
 11
2242.4840501793819
 21
2314.1231915931121
 31
0.0
  0
LINE
  5
7AEE
  8
1
 10
2282.4840501793819
 20
3324.123191593113
 30
0.0
 11
2242.4840501793819
 21
3324.123191593113
 31
0.0
  0
LINE
  5
7AEF
  8
1
 10
2242.4840501793819
 20
2314.1231915931121
 30
0.0
 11
2242.4840501793819
 21
3324.123191593113
 31
0.0
  0
LINE
  5
7AF0
  8
1
 10
2279.4840501793819
 20
2314.1231915931121
 30
0.0
 11
2279.4840501793819
 21
3324.123191593113
 31
0.0
  0
LINE
  5
7AF1
  8
1
 10
2222.4840501793819
 20
2342.623191593113
 30
0.0
 11
2222.4840501793819
 21
2217.623191593113
 31
0.0
  0
LINE
  5
7AF2
  8
1
 10
792.48405017938228
 20
2217.623191593113
 30
0.0
 11
2222.4840501793842
 21
2217.623191593113
 31
0.0
1001
ACAD
1000
ASC_BOUNDS
1002
{
1070
    19
1005
0
1002
}
  0
LINE
  5
7AF3
  8
1
 10
792.48405017938228
 20
2342.623191593113
 30
0.0
 11
2222.4840501793842
 21
2342.623191593113
 31
0.0
  0
LINE
  5
7AF4
  8
2
 10
992.48405017938228
 20
2825.1987905772271
 30
0.0
 11
992.48405017938228
 21
2306.8070509830209
 31
0.0
1001
ACAD
1000
ASC_BOUNDS
1002
{
1070
    19
1002
}
  0
LINE
  5
7AF5
  8
2
 10
748.84964359665537
 20
2617.6231915931121
 30
0.0
 11
1207.326976633216
 21
2617.6231915931121
 31
0.0
  0
LINE
  5
7AF6
  8
1
 10
5186.3914073276082
 20
2356.623191593113
 30
0.0
 11
5186.3914073276082
 21
3281.6231915931121
 31
0.0
  0
LINE
  5
7AF7
  8
1
 10
4516.3914073276082
 20
2356.623191593113
 30
0.0
 11
4516.3914073276092
 21
3281.623191593113
 31
0.0
  0
LINE
  5
7AF8
  8
1
 10
3673.3914073276078
 20
2342.623191593113
 30
0.0
 11
4474.3914073276073
 21
2342.623191593113
 31
0.0
  0
LINE
  5
7AF9
  8
1
 10
3673.3914073276078
 20
2342.623191593113
 30
0.0
 11
3673.3914073276078
 21
2217.623191593113
 31
0.0
  0
LINE
  5
7AFA
  8
1
 10
5256.3914073276082
 20
2342.623191593113
 30
0.0
 11
5256.3914073276082
 21
2217.623191593113
 31
0.0
  0
LINE
  5
7AFB
  8
1
 10
4474.3914073276073
 20
2314.1231915931121
 30
0.0
 11
5228.3914073276092
 21
2314.1231915931121
 31
0.0
  0
LINE
  5
7AFC
  8
1
 10
5228.3914073276092
 20
2314.1231915931121
 30
0.0
 11
5228.3914073276092
 21
3324.123191593113
 31
0.0
  0
LINE
  5
7AFD
  8
1
 10
4474.3914073276073
 20
2314.1231915931121
 30
0.0
 11
4474.3914073276073
 21
3324.123191593113
 31
0.0
  0
LINE
  5
7AFE
  8
1
 10
4516.3914073276082
 20
2356.623191593113
 30
0.0
 11
5186.3914073276082
 21
2356.623191593113
 31
0.0
  0
LINE
  5
7AFF
  8
2
 10
3563.863566744611
 20
3317.623191593113
 30
0.0
 11
5256.2417092423557
 21
3317.623191593113
 31
0.0
  0
LINE
  5
7B00
  8
1
 10
3673.3914073276078
 20
2217.623191593113
 30
0.0
 11
5256.3914073276082
 21
2217.623191593113
 31
0.0
1001
ACAD
1000
ASC_BOUNDS
1002
{
1070
    19
1002
}
  0
LINE
  5
7B03
  8
2
 10
863.84513635191252
 20
6255.3086407359278
 30
0.0
 11
2310.70381323115
 21
6255.3086407359278
 31
0.0
  0
LINE
  5
7B04
  8
2
 10
4851.391407327611
 20
4148.988620947569
 30
0.0
 11
4851.3914073276073
 21
2047.623191593113
 31
0.0
  0
POINT
  5
7B05
  8
1
 10
888.65238705159027
 20
3317.623191593113
 30
0.0
  0
INSERT
  5
7B06
  8
0
  2
YA_N
 10
-853.1654824878492
 20
-861.23841843369883
 30
0.0
 41
20.0
 42
20.0
 43
20.0
  0
INSERT
  5
7B08
  8
0
  2
YA_N
 10
-767.31428752034788
 20
-950.9038503398732
 30
0.0
 41
20.0
 42
20.0
 43
20.0
  0
ARC
  5
7B0A
  8
1
 10
992.48405017938228
 20
2617.6231915931121
 30
0.0
 40
185.0
 50
287.94525099999993
 51
252.05474899999999
  0
LINE
  5
7B0B
  8
1
 10
1049.4840501793819
 20
2441.623191593113
 30
0.0
 11
935.48405017938228
 21
2441.623191593113
 31
0.0
  0
LINE
  5
7B0C
  8
1
 10
1154.4840501793819
 20
2512.8822245931128
 30
0.0
 11
1154.4840501793819
 21
2437.623191593113
 31
0.0
  0
LINE
  5
7B0D
  8
1
 10
1154.4840501793819
 20
2512.8822245931128
 30
0.0
 11
1148.1000781793821
 21
2517.5799785931131
 31
0.0
  0
LINE
  5
7B0E
  8
1
 10
830.48405017938239
 20
2512.8822245931128
 30
0.0
 11
830.48405017938239
 21
2437.623191593113
 31
0.0
  0
LINE
  5
7B0F
  8
1
 10
830.48405017938239
 20
2512.8822245931128
 30
0.0
 11
836.86796117938309
 21
2517.5799785931131
 31
0.0
  0
LINE
  5
7B10
  8
1
 10
767.48405017938228
 20
2382.623191593113
 30
0.0
 11
1217.4840501793819
 21
2382.623191593113
 31
0.0
  0
LINE
  5
7B11
  8
1
 10
792.48405017938228
 20
2382.623191593113
 30
0.0
 11
792.48405017938228
 21
2342.623191593113
 31
0.0
  0
LINE
  5
7B12
  8
1
 10
1192.4840501793819
 20
2382.623191593113
 30
0.0
 11
1192.4840501793819
 21
2342.623191593113
 31
0.0
  0
LINE
  5
7B13
  8
1
 10
782.38251177825987
 20
2437.623191593113
 30
0.0
 11
922.48405017938239
 21
2437.623191593113
 31
0.0
  0
LINE
  5
7B14
  8
1
 10
1217.4840501793819
 20
2382.623191593113
 30
0.0
 11
1202.281733544871
 21
2437.623191593113
 31
0.0
  0
LINE
  5
7B15
  8
1
 10
767.48405017938228
 20
2382.623191593113
 30
0.0
 11
782.38251177825987
 21
2437.623191593113
 31
0.0
  0
LINE
  5
7B16
  8
1
 10
922.48405017938239
 20
2392.6231915931121
 30
0.0
 11
1062.4840501793819
 21
2392.6231915931121
 31
0.0
  0
LINE
  5
7B17
  8
1
 10
922.48405017938239
 20
2427.623191593113
 30
0.0
 11
1062.4840501793819
 21
2427.623191593113
 31
0.0
  0
LINE
  5
7B18
  8
1
 10
922.48405017938239
 20
2437.623191593113
 30
0.0
 11
922.48405017938239
 21
2427.623191593113
 31
0.0
  0
LINE
  5
7B19
  8
1
 10
1062.4840501793819
 20
2437.623191593113
 30
0.0
 11
1062.4840501793819
 21
2427.623191593113
 31
0.0
  0
LINE
  5
7B1A
  8
1
 10
1062.4840501793819
 20
2437.623191593113
 30
0.0
 11
1202.281733544871
 21
2437.623191593113
 31
0.0
  0
LINE
  5
7B1B
  8
1
 10
922.48405017938239
 20
2392.6231915931121
 30
0.0
 11
922.48405017938239
 21
2382.623191593113
 31
0.0
  0
LINE
  5
7B1C
  8
1
 10
1062.4840501793819
 20
2392.6231915931121
 30
0.0
 11
1062.4840501793819
 21
2382.623191593113
 31
0.0
  0
POINT
  5
7B1F
  8
1
 10
2222.4840501793819
 20
2217.623191593113
 30
0.0
  0
CIRCLE
  5
7B20
  8
1
 10
992.48405017938228
 20
2617.6231915931121
 30
0.0
 40
119.0
  0
LINE
  5
7B21
  8
1
 10
792.48405017938228
 20
2342.623191593113
 30
0.0
 11
792.48405017938228
 21
2217.623191593113
 31
0.0
  0
LINE
  5
7B31
  8
1
 10
1102.4840501793819
 20
6660.3086407359278
 30
0.0
 11
2222.4840501793819
 21
6660.3086407359278
 31
0.0
  0
LINE
  5
7B33
  8
1
 10
792.48405017938421
 20
5077.3086407359278
 30
0.0
 11
1977.484050179384
 21
5077.3086407359278
 31
0.0
  0
LINE
  5
7B34
  8
1
 10
2222.4840501793819
 20
6660.308640735926
 30
0.0
 11
2222.4840501793819
 21
6590.3086407359278
 31
0.0
  0
LINE
  5
7B35
  8
1
 10
1102.4840501793819
 20
6660.3086407359278
 30
0.0
 11
1102.4840501793819
 21
6590.3086407359278
 31
0.0
  0
LINE
  5
7B36
  8
1
 10
792.48405017938228
 20
5915.3086407359278
 30
0.0
 11
792.48405017938421
 21
5077.3086407359278
 31
0.0
  0
LINE
  5
7B37
  8
1
 10
1167.4840501793819
 20
6595.3086407359278
 30
0.0
 11
2157.4840501793819
 21
6595.3086407359278
 31
0.0
  0
LINE
  5
7B38
  8
1
 10
2157.4840501793819
 20
6595.3086407359278
 30
0.0
 11
2157.4840501793819
 21
6590.3086407359278
 31
0.0
  0
LINE
  5
7B39
  8
1
 10
1167.4840501793819
 20
6595.3086407359278
 30
0.0
 11
1167.4840501793819
 21
6590.3086407359278
 31
0.0
  0
LINE
  5
7B3A
  8
1
 10
792.48405017938228
 20
5915.3086407359278
 30
0.0
 11
2222.4840501793819
 21
5915.3086407359278
 31
0.0
  0
LINE
  5
7B3D
  8
1
 10
1977.484050179384
 20
5850.3086407359278
 30
0.0
 11
1977.484050179384
 21
5077.3086407359278
 31
0.0
  0
LINE
  5
7B3F
  8
2
 10
992.4840501793841
 20
5756.4480139232865
 30
0.0
 11
992.4840501793841
 21
4975.2128773824334
 31
0.0
  0
LINE
  5
7B45
  8
1
 10
3596.3914073276101
 20
2736.623191593113
 30
0.0
 11
3706.3914073276078
 21
2736.623191593113
 31
0.0
  0
LINE
  5
7B46
  8
1
 10
3596.3914073276101
 20
2498.623191593113
 30
0.0
 11
3706.3914073276101
 21
2498.623191593113
 31
0.0
  0
LINE
  5
7B47
  8
1
 10
3596.3914073276078
 20
3520.8231915931119
 30
0.0
 11
3596.3914073276101
 21
2498.623191593113
 31
0.0
  0
LINE
  5
7B48
  8
1
 10
3706.3914073276078
 20
3520.8231915931119
 30
0.0
 11
3706.3914073276101
 21
2498.623191593113
 31
0.0
  0
LINE
  5
7B49
  8
1
 10
3726.3914073276101
 20
3597.623191593113
 30
0.0
 11
3726.3914073276101
 21
3577.6231915931121
 31
0.0
  0
LINE
  5
7B4A
  8
1
 10
3526.3914073276101
 20
3597.623191593113
 30
0.0
 11
3526.3914073276101
 21
2397.623191593113
 31
0.0
  0
LINE
  5
7B4B
  8
1
 10
3526.3914073276078
 20
2397.623191593113
 30
0.0
 11
3726.3914073276101
 21
2397.623191593113
 31
0.0
  0
POINT
  5
7B4C
  8
1
 10
5189.3914073276092
 20
2314.1231915931121
 30
0.0
  0
ARC
  5
7B50
  8
1
 10
1662.4840501793819
 20
3317.623191593113
 30
0.0
 40
536.0
 50
356.14887687350222
 51
0.0
  0
CIRCLE
  5
7B51
  8
1
 10
1662.4840501793819
 20
3317.623191593113
 30
0.0
 40
203.19999999999999
  0
ARC
  5
7B52
  8
1
 10
1662.4840501793819
 20
3317.623191593113
 30
0.0
 40
280.0
 50
305.71278066912549
 51
146.5605733927413
  0
ARC
  5
7B53
  8
1
 10
992.48405017938228
 20
2617.6231915931121
 30
0.0
 40
220.0
 50
138.37245940966301
 51
314.62325906012319
  0
LINE
  5
7B54
  8
1
 10
1428.906992589654
 20
3472.0061050583608
 30
0.0
 11
827.9064223502246
 21
2763.6101564635542
 31
0.0
  0
LINE
  5
7B55
  8
1
 10
1501.4513919071719
 20
3438.7413083121501
 30
0.0
 11
905.00438822798969
 21
2699.0652446742711
 31
0.0
  0
LINE
  5
7B56
  8
1
 10
1803.744976895603
 20
3172.0667915740592
 30
0.0
 11
1073.8085270891529
 21
2531.0296228793632
 31
0.0
  0
LINE
  5
7B57
  8
1
 10
1826.950696737407
 20
3091.2257015506912
 30
0.0
 11
1146.9508391717891
 21
2460.9752299016941
 31
0.0
  0
LINE
  5
7B58
  8
1
 10
3526.3914073276101
 20
3597.623191593113
 30
0.0
 11
3726.3914073276101
 21
3597.623191593113
 31
0.0
  0
LINE
  5
7B59
  8
1
 10
3596.3914073276078
 20
3520.8231915931119
 30
0.0
 11
3706.3914073276078
 21
3520.8231915931119
 31
0.0
  0
LINE
  5
7B5A
  8
1
 10
3596.3914073276092
 20
3114.4231915931132
 30
0.0
 11
3706.3914073276092
 21
3114.4231915931132
 31
0.0
  0
LINE
  5
7B5B
  8
1
 10
3726.3914073276078
 20
2417.623191593113
 30
0.0
 11
3726.3914073276078
 21
2397.623191593113
 31
0.0
  0
INSERT
  5
7B5C
  8
0
  2
YA_N
 10
1684.084545659538
 20
-1644.9931351483519
 30
0.0
  0
INSERT
  5
7B5E
  8
0
  2
YA_N
 10
812.60933172367402
 20
-6436.0955458567769
 30
0.0
  0
INSERT
  5
7B60
  8
0
  2
YA_N
 10
-832.05848836684106
 20
-7421.8356660085838
 30
0.0
 41
20.0
 42
20.0
 43
20.0
  0
INSERT
  5
7B62
  8
0
  2
YA_N
 10
-746.20729339933985
 20
-7511.5010979147592
 30
0.0
 41
20.0
 42
20.0
 43
20.0
  0
LINE
  5
7B64
  8
1
 10
3736.3914073276092
 20
3237.6231915931121
 30
0.0
 11
3736.3914073276078
 21
2342.623191593113
 31
0.0
  0
LINE
  5
7B65
  8
1
 10
4418.3914073276101
 20
3237.6231915931121
 30
0.0
 11
4418.3914073276082
 21
2342.6231915931112
 31
0.0
  0
LINE
  5
7B67
  8
1
 10
3736.3914073276078
 20
3237.6231915931121
 30
0.0
 11
4418.3914073276101
 21
3237.6231915931121
 31
0.0
  0
LINE
  5
7B68
  8
1
 10
3728.8914073276078
 20
3350.1231915931121
 30
0.0
 11
4514.0914073276108
 21
3350.1231915931121
 31
0.0
  0
LINE
  5
7B69
  8
1
 10
3728.8914073276078
 20
3285.1231915931121
 30
0.0
 11
4474.3914073276073
 21
3285.1231915931121
 31
0.0
  0
LINE
  5
7B6A
  8
1
 10
3706.3914073276078
 20
3345.1231915931121
 30
0.0
 11
3728.8914073276078
 21
3345.1231915931121
 31
0.0
  0
LINE
  5
7B6B
  8
1
 10
3706.3914073276092
 20
3290.1231915931121
 30
0.0
 11
3728.8914073276078
 21
3290.1231915931121
 31
0.0
  0
LINE
  5
7B6C
  8
1
 10
3728.8914073276078
 20
3285.1231915931121
 30
0.0
 11
3728.8914073276078
 21
3350.1231915931121
 31
0.0
  0
LINE
  5
7B6D
  8
1
 10
4474.3914073276073
 20
3324.123191593113
 30
0.0
 11
5228.3914073276092
 21
3324.123191593113
 31
0.0
  0
LINE
  5
7B6E
  8
1
 10
4516.3914073276092
 20
3281.623191593113
 30
0.0
 11
5186.3914073276092
 21
3281.623191593113
 31
0.0
  0
LINE
  5
7B72
  8
2
 10
3787.5765035599252
 20
2617.9316382820039
 30
0.0
 11
3613.581502001578
 21
2617.931638282003
 31
0.0
  0
LINE
  5
7B81
  8
1
 10
3651.7619562371451
 20
2593.9316382820039
 30
0.0
 11
3736.3914073276092
 21
2593.9316382820039
 31
0.0
  0
LINE
  5
7B82
  8
1
 10
3651.7619562371451
 20
2641.931638282003
 30
0.0
 11
3736.3914073276078
 21
2641.9316382820039
 31
0.0
  0
LINE
  5
7B84
  8
1
 10
3651.7619562371451
 20
2641.931638282003
 30
0.0
 11
3651.7619562371451
 21
2593.931638282003
 31
0.0
  0
LINE
  5
7B8B
  8
1
 10
1174.984050179384
 20
5273.4100654723279
 30
0.0
 11
1174.984050179384
 21
5540.0946786768718
 31
0.0
  0
LINE
  5
7B8C
  8
1
 10
1174.984050179384
 20
5540.0946786768718
 30
0.0
 11
1174.984050179384
 21
5192.3221085640398
 31
0.0
  0
LINE
  5
7B8D
  8
1
 10
1629.9840501793819
 20
5132.8086407359278
 30
0.0
 11
1629.9840501793819
 21
5918.0086407359304
 31
0.0
  0
LINE
  5
7B8E
  8
1
 10
1694.9840501793819
 20
5132.8086407359278
 30
0.0
 11
1694.9840501793819
 21
5918.0086407359304
 31
0.0
  0
LINE
  5
7B8F
  8
2
 10
1662.4840501793819
 20
4967.7808001529293
 30
0.0
 11
1662.4840501793819
 21
6710.8282884936652
 31
0.0
  0
LINE
  5
7B90
  8
1
 10
1629.9840501793819
 20
5132.8086407359278
 30
0.0
 11
1694.9840501793819
 21
5132.8086407359278
 31
0.0
  0
LINE
  5
7B91
  8
1
 10
1865.6840501793829
 20
5110.3086407359278
 30
0.0
 11
873.17560349049381
 21
5110.3086407359278
 31
0.0
  0
LINE
  5
7B92
  8
1
 10
1942.4840501793819
 20
4930.3086407359278
 30
0.0
 11
772.17560349049381
 21
4930.3086407359278
 31
0.0
  0
LINE
  5
7B93
  8
1
 10
1865.6840501793829
 20
5000.3086407359269
 30
0.0
 11
873.17560349049381
 21
5000.3086407359287
 31
0.0
  0
LINE
  5
7B94
  8
1
 10
772.17560349049381
 20
4930.308640735926
 30
0.0
 11
772.17560349049381
 21
5130.3086407359278
 31
0.0
  0
LINE
  5
7B95
  8
1
 10
1174.984050179384
 20
5192.3221085640398
 30
0.0
 11
812.48405017938421
 21
5192.3221085640398
 31
0.0
  0
LINE
  5
7B96
  8
1
 10
873.17560349049381
 20
5000.3086407359269
 30
0.0
 11
873.17560349049381
 21
5110.3086407359278
 31
0.0
  0
LINE
  5
7B97
  8
1
 10
968.4840501793841
 20
5055.6791896454633
 30
0.0
 11
968.4840501793841
 21
5165.6791896415934
 31
0.0
  0
LINE
  5
7B98
  8
1
 10
1016.484050179384
 20
5055.6791896454633
 30
0.0
 11
1016.484050179384
 21
5165.6791896415934
 31
0.0
  0
LINE
  5
7B99
  8
1
 10
1459.284050179383
 20
5000.3086407359269
 30
0.0
 11
1459.284050179383
 21
5110.3086407359278
 31
0.0
  0
LINE
  5
7B9A
  8
1
 10
1016.484050179384
 20
5055.6791896454633
 30
0.0
 11
968.4840501793841
 21
5055.6791896454633
 31
0.0
  0
LINE
  5
7B9B
  8
1
 10
1111.175603490494
 20
5000.3086407359269
 30
0.0
 11
1111.175603490494
 21
5110.308640735926
 31
0.0
  0
LINE
  5
7B9C
  8
1
 10
1634.9840501793819
 20
5110.3086407359278
 30
0.0
 11
1634.9840501793819
 21
5132.8086407359278
 31
0.0
  0
LINE
  5
7B9D
  8
1
 10
959.06274123353785
 20
5165.6791896415934
 30
0.0
 11
1023.90535912523
 21
5165.6791896415934
 31
0.0
  0
LINE
  5
7B9E
  8
1
 10
934.26660119678479
 20
5170.6791896464547
 30
0.0
 11
1050.7014991619831
 21
5170.6791896464547
 31
0.0
  0
LINE
  5
7B9F
  8
1
 10
959.06274123353785
 20
5165.6791896415934
 30
0.0
 11
959.06274123353785
 21
5170.6791896464547
 31
0.0
  0
LINE
  5
7BA0
  8
1
 10
934.26660119678479
 20
5192.3221085640398
 30
0.0
 11
934.26660119678479
 21
5170.6791896464547
 31
0.0
  0
LINE
  5
7BA1
  8
1
 10
1050.7014991619831
 20
5192.3221085640398
 30
0.0
 11
1050.7014991619831
 21
5170.6791896464547
 31
0.0
  0
LINE
  5
7BA2
  8
1
 10
1023.90535912523
 20
5165.6791896415934
 30
0.0
 11
1023.90535912523
 21
5170.6791896464547
 31
0.0
  0
LINE
  5
7BA3
  8
1
 10
1942.4840501793819
 20
4930.3086407359278
 30
0.0
 11
1942.4840501793819
 21
5130.3086407359278
 31
0.0
  0
LINE
  5
7BA4
  8
1
 10
1689.9840501793819
 20
5110.3086407359278
 30
0.0
 11
1689.9840501793819
 21
5132.8086407359278
 31
0.0
  0
LINE
  5
7BA5
  8
1
 10
1865.6840501793829
 20
5000.3086407359269
 30
0.0
 11
1865.6840501793829
 21
5110.3086407359278
 31
0.0
  0
LINE
  5
7BA6
  8
1
 10
1942.4840501793819
 20
5130.3086407359278
 30
0.0
 11
772.17560349049381
 21
5130.3086407359278
 31
0.0
  0
LINE
  5
7BA7
  8
1
 10
2242.4840501793819
 20
6590.3086407359278
 30
0.0
 11
885.48405017938228
 21
6590.3086407359278
 31
0.0
  0
LINE
  5
7BA8
  8
1
 10
2242.4840501793819
 20
5920.3086407359269
 30
0.0
 11
885.48405017938228
 21
5920.3086407359278
 31
0.0
  0
LINE
  5
7BA9
  8
1
 10
2282.4840501793819
 20
6632.3086407359278
 30
0.0
 11
2242.4840501793819
 21
6632.3086407359278
 31
0.0
  0
LINE
  5
7BAA
  8
1
 10
812.48405017938421
 20
5732.1791896464547
 30
0.0
 11
1174.984050179384
 21
5732.1791896464547
 31
0.0
  0
LINE
  5
7BAB
  8
1
 10
812.48405017938421
 20
5550.1791896464538
 30
0.0
 11
812.48405017938421
 21
5732.1791896464547
 31
0.0
  0
LINE
  5
7BAC
  8
1
 10
812.48405017938421
 20
5192.3221085640398
 30
0.0
 11
812.48405017938421
 21
5550.1791896464538
 31
0.0
  0
LINE
  5
7BAD
  8
1
 10
1174.984050179384
 20
5540.0946786768718
 30
0.0
 11
1174.984050179384
 21
5732.1791896464556
 31
0.0
  0
LINE
  5
7BAE
  8
1
 10
2282.4840501793819
 20
5878.3086407359269
 30
0.0
 11
2242.4840501793819
 21
5878.3086407359269
 31
0.0
  0
LINE
  5
7BB0
  8
1
 10
2282.4840501793819
 20
5878.3086407359269
 30
0.0
 11
2282.4840501793819
 21
6632.3086407359278
 31
0.0
  0
LINE
  5
7BB1
  8
1
 10
2242.4840501793819
 20
5878.3086407359269
 30
0.0
 11
2242.4840501793819
 21
6632.3086407359278
 31
0.0
  0
LINE
  5
7BB2
  8
1
 10
885.48405017938228
 20
5920.3086407359278
 30
0.0
 11
885.48405017938228
 21
6590.3086407359278
 31
0.0
  0
LINE
  5
7BB3
  8
1
 10
1102.484050179384
 20
5920.3086407359278
 30
0.0
 11
1102.484050179384
 21
5915.3086407359278
 31
0.0
  0
LINE
  5
7BB4
  8
1
 10
1167.484050179384
 20
5920.3086407359278
 30
0.0
 11
1167.484050179384
 21
5915.3086407359278
 31
0.0
  0
LINE
  5
7BB5
  8
1
 10
2157.4840501793819
 20
5920.3086407359278
 30
0.0
 11
2157.4840501793819
 21
5915.3086407359278
 31
0.0
  0
LINE
  5
7BB6
  8
1
 10
2222.4840501793819
 20
5920.3086407359278
 30
0.0
 11
2222.4840501793819
 21
5850.3086407359278
 31
0.0
  0
DIMENSION
  5
7BC9
  8
3
  2
*D2
 10
1102.4840501793819
 20
6939.3870817946481
 30
0.0
 11
1664.6601756259111
 21
6939.3870817946481
 31
0.0
 70
   128
 13
2222.4840501793819
 23
6660.3086407359278
 33
0.0
 14
1102.4840501793819
 24
6660.3086407359278
 34
0.0
1001
ACAD
1000
DSTYLE
1002
{
1070
   287
1070
     3
1070
    40
1040
30.0
1070
   143
1040
0.039
1070
   172
1070
     1
1070
   271
1070
     0
1070
   279
1070
     0
1070
   288
1070
     1
1002
}
  0
DIMENSION
  5
7BD7
  8
3
  2
*D3
 10
792.48405017938228
 20
6939.3870817946481
 30
0.0
 11
947.48405017938239
 21
7015.4756708052773
 31
0.0
 12
-446.9605160179126
 22
0.0
 32
0.0
 70
   128
 13
1102.4840501793819
 23
6660.3086407359278
 33
0.0
 14
792.48405017938228
 24
5915.3086407359278
 34
0.0
1001
ACAD
1000
DSTYLE
1002
{
1070
   288
1070
     1
1070
   172
1070
     1
1070
    40
1040
30.0
1070
   271
1070
     0
1070
   143
1040
0.039
1002
}
  0
DIMENSION
  5
7BE4
  8
3
  2
*D4
 10
539.96185921378594
 20
5915.3086407359278
 30
0.0
 11
539.96185921378492
 21
5493.7035438293433
 31
0.0
 70
   128
 13
792.48405017938421
 23
5077.3086407359278
 33
0.0
 14
792.48405017938228
 24
5915.3086407359278
 34
0.0
 50
270.0
1001
ACAD
1000
DSTYLE
1002
{
1070
   287
1070
     3
1070
    40
1040
30.0
1070
   143
1040
0.039
1070
   172
1070
     1
1070
   271
1070
     0
1070
   279
1070
     0
1070
   288
1070
     1
1002
}
  0
DIMENSION
  5
7BF1
  8
3
  2
*D5
 10
1977.484050179384
 20
4703.5526484170014
 30
0.0
 11
1383.485596522878
 21
4703.5526484170014
 31
0.0
 70
   128
 13
792.48405017938421
 23
5077.3086407359278
 33
0.0
 14
1977.484050179384
 24
5077.3086407359278
 34
0.0
1001
ACAD
1000
DSTYLE
1002
{
1070
   287
1070
     3
1070
    40
1040
30.0
1070
   143
1040
0.039
1070
   172
1070
     1
1070
   271
1070
     0
1070
   279
1070
     0
1070
   288
1070
     1
1002
}
  0
DIMENSION
  5
7BFF
  8
3
  2
*D6
 10
2222.4840501793819
 20
4703.5526484170014
 30
0.0
 11
2458.1983358936682
 21
4703.5526484170014
 31
0.0
 70
   128
 13
1977.484050179384
 23
5077.3086407359278
 33
0.0
 14
2222.4840501793819
 24
5850.3086407359278
 34
0.0
1001
ACAD
1000
DSTYLE
1002
{
1070
   287
1070
     2
1070
    40
1040
30.0
1070
   143
1040
0.039
1070
   172
1070
     1
1070
   271
1070
     0
1070
   279
1070
     0
1070
   288
1070
     1
1070
   289
1070
     2
1002
}
  0
LINE
  5
7C78
  8
1
 10
1977.484050179384
 20
5850.3086407359278
 30
0.0
 11
2222.4840501793819
 21
5850.3086407359278
 31
0.0
  0
DIMENSION
  5
7C85
  8
3
  2
*D7
 10
2448.1054358365991
 20
3281.623191593113
 30
0.0
 11
2448.1054358365982
 21
2837.1191029699512
 31
0.0
 70
   128
 13
2282.4840501793819
 23
2356.623191593113
 33
0.0
 14
2282.4840501793819
 24
3281.623191593113
 34
0.0
 50
270.0
1001
ACAD
1000
DSTYLE
1002
{
1070
   287
1070
     3
1070
    40
1040
30.0
1070
   143
1040
0.039
1070
   172
1070
     1
1070
   271
1070
     0
1070
   279
1070
     0
1070
   288
1070
     1
1002
}
  0
DIMENSION
  5
7C92
  8
3
  2
*D8
 10
2641.1334232697741
 20
3317.623191593113
 30
0.0
 11
2641.1334232697732
 21
2824.5454846622961
 31
0.0
 70
   128
 13
2282.4840501793819
 23
2356.623191593113
 33
0.0
 14
2318.7393889579289
 24
3317.623191593113
 34
0.0
 50
270.0
1001
ACAD
1000
DSTYLE
1002
{
1070
   287
1070
     3
1070
    40
1040
30.0
1070
   143
1040
0.039
1070
   172
1070
     1
1070
   271
1070
     0
1070
   279
1070
     0
1070
   288
1070
     1
1002
}
  0
DIMENSION
  5
7C9E
  8
3
  2
*D9
 10
2829.9429023823059
 20
2217.623191593113
 30
0.0
 11
2754.9429023823059
 21
2767.623191593113
 31
0.0
 70
     0
 13
2318.7393889579289
 23
3317.623191593113
 33
0.0
 14
2222.4840501793819
 24
2217.623191593113
 34
0.0
 50
270.0
1001
ACAD
1000
DSTYLE
1002
{
1070
   287
1070
     3
1070
    40
1040
30.0
1070
   143
1040
0.039
1070
   172
1070
     1
1070
   271
1070
     0
1070
   279
1070
     0
1070
   288
1070
     1
1002
}
  0
DIMENSION
  5
7D47
  8
3
  2
*D11
 10
1662.4840501793819
 20
4190.5185976326684
 30
0.0
 11
1959.238752166744
 21
4190.5185976326684
 31
0.0
 70
   128
 13
2282.4840501793819
 23
3304.9771423253619
 33
0.0
 14
1662.4840501793819
 24
4057.1998920004712
 34
0.0
1001
ACAD
1000
DSTYLE
1002
{
1070
   287
1070
     3
1070
    40
1040
30.0
1070
   143
1040
0.039
1070
   172
1070
     1
1070
   271
1070
     0
1070
   279
1070
     0
1070
   288
1070
     1
1002
}
  0
DIMENSION
  5
7D53
  8
3
  2
*D12
 10
885.48405017938228
 20
4190.5185976326684
 30
0.0
 11
1273.9840501793819
 21
4265.5185976326684
 31
0.0
 70
     0
 13
1662.4840501793819
 23
4057.1998920004712
 33
0.0
 14
885.48405017938228
 24
3384.6231915931121
 34
0.0
1001
ACAD
1000
DSTYLE
1002
{
1070
   287
1070
     4
1070
    40
1040
30.0
1070
    75
1070
     1
1070
   143
1040
0.039
1070
   172
1070
     1
1070
   271
1070
     0
1070
   279
1070
     1
1070
   288
1070
     1
1002
}
  0
DIMENSION
  5
7D60
  8
3
  2
*D13
 10
5186.3914073276082
 20
4161.6907651761458
 30
0.0
 11
4850.6921420321587
 21
4161.6907651761458
 31
0.0
 70
   128
 13
4516.3914073276082
 23
3970.1280368179032
 33
0.0
 14
5186.3914073276082
 24
3970.1280368179018
 34
0.0
1001
ACAD
1000
DSTYLE
1002
{
1070
   287
1070
     3
1070
    40
1040
30.0
1070
   143
1040
0.039
1070
   172
1070
     1
1070
   271
1070
     0
1070
   279
1070
     0
1070
   288
1070
     1
1002
}
  0
DIMENSION
  5
7D70
  8
3
  2
*D14
 10
4851.391407327611
 20
4420.5111407283803
 30
0.0
 11
5020.3914073276101
 21
4491.4329227329536
 31
0.0
 12
0.0
 22
198.50468328083289
 32
0.0
 70
   128
 13
5189.3914073276101
 23
3975.4206480339681
 33
0.0
 14
4851.391407327611
 24
4286.7176166954941
 34
0.0
1001
ACAD
1000
DSTYLE
1002
{
1070
   288
1070
     1
1070
   172
1070
     1
1070
    40
1040
30.0
1070
   271
1070
     0
1070
   143
1040
0.039
1002
}
  0
DIMENSION
  5
7DA0
  8
3
  2
*D15
 10
3526.3914073276101
 20
4420.5111407283803
 30
0.0
 11
4188.8914073276101
 21
4570.5111407283803
 31
0.0
 70
     0
  1
MAX\P1340
 13
4851.391407327611
 23
4286.7176166954941
 33
0.0
 14
3526.3914073276101
 24
3597.623191593113
 34
0.0
1001
ACAD
1000
DSTYLE
1002
{
1070
   287
1070
     4
1070
    40
1040
30.0
1070
    75
1070
     1
1070
   143
1040
0.039
1070
   172
1070
     1
1070
   271
1070
     0
1070
   279
1070
     1
1070
   288
1070
     1
1002
}
  0
LINE
  5
7E09
  8
4
 10
5550.0
 20
1500.0
 30
0.0
 11
5550.0
 21
900.0
 31
0.0
  0
LINE
  5
7E0A
  8
4
 10
3450.0
 20
1500.0
 30
0.0
 11
3450.0
 21
900.0
 31
0.0
  0
LINE
  5
7E0B
  8
4
 10
1950.0
 20
1500.0
 30
0.0
 11
1950.0
 21
900.0
 31
0.0
  0
LINE
  5
7E0E
  8
4
 10
1950.0
 20
900.0
 30
0.0
 11
5550.0
 21
900.0
 31
0.0
  0
LINE
  5
7E0F
  8
4
 10
1950.0
 20
1200.0
 30
0.0
 11
5550.0
 21
1200.0
 31
0.0
  0
TEXT
  5
7E10
  8
4
 10
2065.5062425407041
 20
1294.629077599838
 30
0.0
 40
150.0
  1
機器名称
  0
TEXT
  5
7E11
  8
4
 10
2058.7743180743919
 20
964.93547019603284
 30
0.0
 40
150.0
  1
機器型番
  0
TEXT
  5
7E12
  8
4
 10
3533.036236462995
 20
1267.715306872705
 30
0.0
 40
130.0
  1
ミツヤリミットロ－ﾄﾞファン
  0
TEXT
  5
7E13
  8
4
 10
3559.9634867564419
 20
951.47875283983012
 30
0.0
 40
150.0
  1
LL#5 1/2-1
  0
TEXT
  5
7E15
  8
4
 10
2452.306731152159
 20
7150.2865239975472
 30
0.0
 40
161.99999999999989
  1
床置防振ベット
  0
TEXT
  5
7E16
  8
4
 10
898.50277998833917
 20
7601.6429285978938
 30
0.0
 40
216.0
  1
遠心式片吸込片持リミットロ－ﾄﾞファン
  0
LINE
  5
7E17
  8
4
 10
750.0
 20
7408.2262627944137
 30
0.0
 11
5550.0
 21
7408.2262627944137
 31
0.0
  0
LINE
  5
7E18
  8
4
 10
750.0
 20
8008.2262627944137
 30
0.0
 11
5550.0
 21
8008.2262627944137
 31
0.0
  0
LINE
  5
7E19
  8
4
 10
1950.0
 20
1500.0
 30
0.0
 11
5550.0
 21
1500.0
 31
0.0
  0
LINE
  5
7E1A
  8
4
 10
750.0
 20
8008.2262627944137
 30
0.0
 11
750.0
 21
7408.2262627944137
 31
0.0
  0
TEXT
  5
7E1B
  8
4
 10
1144.730234424052
 20
7146.9584326390304
 30
0.0
 40
161.99999999999989
  1
左回転右横向
  0
TEXT
  5
7E1C
  8
4
 10
4406.9086777478688
 20
8118.1832444859256
 30
0.0
 40
168.0
  1
No.
  0
TEXT
  5
7E1D
  8
4
 10
3933.8881878000388
 20
7150.2865239975472
 30
0.0
 40
161.99999999999989
  1
縮尺：1/30
  0
LINE
  5
7E1E
  8
4
 10
5550.0
 20
8008.2262627944137
 30
0.0
 11
5550.0
 21
7408.2262627944137
 31
0.0
  0
LINE
  5
7E1F
  8
4
 10
6300.0
 20
8850.0
 30
0.0
 11
6300.0
 21
8850.0
 31
0.0
  0
LINE
  5
7E20
  8
4
 10
4321.8522670795937
 20
8043.790749376205
 30
0.0
 11
4321.8522670795937
 21
8359.9567846492573
 31
0.0
  0
LINE
  5
7E21
  8
4
 10
4321.8522670795937
 20
8359.9567846492573
 30
0.0
 11
5550.0
 21
8359.9567846492573
 31
0.0
  0
LINE
  5
7E22
  8
4
 10
5550.0
 20
8359.9567846492573
 30
0.0
 11
5550.0
 21
8043.790749376205
 31
0.0
  0
LINE
  5
7E23
  8
4
 10
5550.0
 20
8043.790749376205
 30
0.0
 11
4321.8522670795937
 21
8043.790749376205
 31
0.0
  0
LINE
  5
7E24
  8
4
 10
0.0
 20
0.0
 30
0.0
 11
0.0
 21
8850.0
 31
0.0
  0
LINE
  5
7E25
  8
4
 10
0.0
 20
8850.0
 30
0.0
 11
6300.0
 21
8850.0
 31
0.0
  0
LINE
  5
7E26
  8
4
 10
6300.0
 20
8850.0
 30
0.0
 11
6300.0
 21
0.0
 31
0.0
  0
LINE
  5
7E27
  8
4
 10
6300.0
 20
0.0
 30
0.0
 11
0.0
 21
0.0
 31
0.0
  0
DIMENSION
  5
7E4D
  8
3
  2
*D16
 10
792.48405017938239
 20
4389.3302000144786
 30
0.0
 11
1579.670319509187
 21
4389.3302000144786
 31
0.0
 70
   128
 13
2282.4840501793819
 23
3304.9771423253619
 33
0.0
 14
792.48405017938228
 24
2342.623191593113
 34
0.0
1001
ACAD
1000
DSTYLE
1002
{
1070
   287
1070
     3
1070
    40
1040
30.0
1070
   143
1040
0.039
1070
   172
1070
     1
1070
   271
1070
     0
1070
   279
1070
     0
1070
   288
1070
     1
1002
}
  0
LINE
  5
7E62
  8
1
 10
5186.3914073276082
 20
2356.623191593113
 30
0.0
 11
4516.3914073276092
 21
3281.623191593113
 31
0.0
  0
LINE
  5
7E63
  8
1
 10
4516.3914073276082
 20
2356.623191593113
 30
0.0
 11
5186.3914073276092
 21
3281.623191593113
 31
0.0
  0
DIMENSION
  5
7E8C
  8
3
  2
*D17
 10
2578.2405436513118
 20
5850.3086407359278
 30
0.0
 11
2578.2405436513109
 21
6280.4439755740677
 31
0.0
 70
   128
 13
2222.4840501793819
 23
6660.3086407359278
 33
0.0
 14
2222.4840501793819
 24
5850.3086407359278
 34
0.0
 50
270.0
1001
ACAD
1000
DSTYLE
1002
{
1070
   287
1070
     3
1070
    40
1040
30.0
1070
   143
1040
0.039
1070
   172
1070
     1
1070
   271
1070
     0
1070
   279
1070
     0
1070
   288
1070
     1
1002
}
  0
DIMENSION
  5
7EA6
  8
3
  2
*D18
 10
2578.2405436513109
 20
5077.3086407359269
 30
0.0
 11
2503.24054365131
 21
5463.8086407359278
 31
0.0
 70
     0
 13
2222.4840501793819
 23
5850.3086407359278
 33
0.0
 14
1977.484050179384
 24
5077.3086407359278
 34
0.0
 50
270.0
1001
ACAD
1000
DSTYLE
1002
{
1070
   287
1070
     4
1070
    40
1040
30.0
1070
    75
1070
     1
1070
   143
1040
0.039
1070
   172
1070
     1
1070
   271
1070
     0
1070
   279
1070
     1
1070
   288
1070
     1
1002
}
  0
DIMENSION
  5
7F6A
  8
3
  2
*D19
 10
2829.9429023823059
 20
3960.623191593113
 30
0.0
 11
2754.942902382305
 21
3639.123191593113
 31
0.0
 70
     0
 13
2318.7393889579289
 23
3317.623191593113
 33
0.0
 14
1595.4840501793819
 24
3960.623191593113
 34
0.0
 50
270.0
1001
ACAD
1000
DSTYLE
1002
{
1070
   287
1070
     4
1070
    40
1040
30.0
1070
    75
1070
     1
1070
   143
1040
0.039
1070
   172
1070
     1
1070
   271
1070
     0
1070
   279
1070
     1
1070
   288
1070
     1
1002
}
  0
LINE
  5
7FF0
  8
1
 10
4516.3914073276092
 20
3960.623191593113
 30
0.0
 11
5186.3914073276092
 21
3960.623191593113
 31
0.0
  0
LINE
  5
8183
  8
1
 10
1977.4840501793819
 20
2342.623191593113
 30
0.0
 11
1977.4840501793819
 21
2217.623191593113
 31
0.0
  0
LINE
  5
8185
  8
1
 10
4446.3914073276092
 20
2342.623191593113
 30
0.0
 11
4446.3914073276092
 21
2217.623191593113
 31
0.0
  0
LINE
  5
8187
  8
1
 10
5228.3914073276092
 20
2342.623191593113
 30
0.0
 11
5256.3914073276082
 21
2342.623191593113
 31
0.0
  0
DIMENSION
  5
81D9
  8
3
  2
*D20
 10
1662.4840501793819
 20
1850.54176617696
 30
0.0
 11
1227.4840501793819
 21
1925.54176617696
 31
0.0
 70
     0
 13
792.48405017938228
 23
2047.623191593113
 33
0.0
 14
1662.4840501793819
 24
2047.623191593113
 34
0.0
1001
ACAD
1000
DSTYLE
1002
{
1070
   287
1070
     3
1070
    40
1040
30.0
1070
   143
1040
0.039
1070
   172
1070
     1
1070
   271
1070
     0
1070
   279
1070
     0
1002
}
  0
DIMENSION
  5
81E6
  8
3
  2
*D21
 10
2222.4840501793819
 20
1850.54176617696
 30
0.0
 11
1942.4840501793819
 21
1925.54176617696
 31
0.0
 70
     0
 13
1662.4840501793819
 23
2047.623191593113
 33
0.0
 14
2222.4840501793819
 24
2047.623191593113
 34
0.0
1001
ACAD
1000
DSTYLE
1002
{
1070
   287
1070
     3
1070
    40
1040
30.0
1070
   143
1040
0.039
1070
   172
1070
     1
1070
   271
1070
     0
1070
   279
1070
     0
1002
}
  0
DIMENSION
  5
81F3
  8
3
  2
*D22
 10
4851.3914073276073
 20
1850.54176617696
 30
0.0
 11
4262.3914073276082
 21
1925.54176617696
 31
0.0
 70
     0
 13
3673.3914073276078
 23
2047.623191593113
 33
0.0
 14
4851.3914073276073
 24
2047.623191593113
 34
0.0
1001
ACAD
1000
DSTYLE
1002
{
1070
   287
1070
     3
1070
    40
1040
30.0
1070
   143
1040
0.039
1070
   172
1070
     1
1070
   271
1070
     0
1070
   279
1070
     0
1002
}
  0
DIMENSION
  5
8202
  8
3
  2
*D23
 10
5256.3914073276082
 20
1850.54176617696
 30
0.0
 11
5053.8914073276082
 21
1925.54176617696
 31
0.0
 70
     0
 13
4851.3914073276073
 23
2047.623191593113
 33
0.0
 14
5256.3914073276082
 24
2047.623191593113
 34
0.0
1001
ACAD
1000
DSTYLE
1002
{
1070
   287
1070
     3
1070
    40
1040
30.0
1070
   143
1040
0.039
1070
   172
1070
     1
1070
   271
1070
     0
1070
   279
1070
     0
1002
}
  0
LINE
  5
821C
  8
1
 10
1427.4840501793819
 20
3237.6231915931121
 30
0.0
 11
1897.4840501793819
 21
3237.6231915931121
 31
0.0
  0
LINE
  5
821E
  8
1
 10
1897.4840501793819
 20
3237.6231915931121
 30
0.0
 11
1977.4840501793819
 21
2342.623191593113
 31
0.0
  0
LINE
  5
821F
  8
1
 10
1427.4840501793819
 20
3237.6231915931121
 30
0.0
 11
1347.4840501793819
 21
2342.623191593113
 31
0.0
  0
LINE
  5
8224
  8
1
 10
3673.3914073276078
 20
2047.623191593113
 30
0.0
 11
5256.3914073276082
 21
2047.623191593113
 31
0.0
1001
ACAD
1000
ASC_BOUNDS
1002
{
1070
    19
1002
}
  0
LINE
  5
8225
  8
1
 10
5256.3914073276082
 20
2172.623191593113
 30
0.0
 11
5256.3914073276082
 21
2047.623191593113
 31
0.0
  0
LINE
  5
8227
  8
1
 10
4446.3914073276092
 20
2172.623191593113
 30
0.0
 11
4446.3914073276092
 21
2047.623191593113
 31
0.0
  0
LINE
  5
8228
  8
1
 10
3673.3914073276078
 20
2172.623191593113
 30
0.0
 11
5256.3914073276082
 21
2172.623191593113
 31
0.0
  0
LINE
  5
8229
  8
1
 10
3673.3914073276078
 20
2172.623191593113
 30
0.0
 11
3673.3914073276078
 21
2047.623191593113
 31
0.0
  0
LINE
  5
822A
  8
1
 10
792.48405017938228
 20
2047.623191593113
 30
0.0
 11
2222.4840501793842
 21
2047.623191593113
 31
0.0
1001
ACAD
1000
ASC_BOUNDS
1002
{
1070
    19
1005
0
1002
}
  0
LINE
  5
822B
  8
1
 10
2222.4840501793819
 20
2172.623191593113
 30
0.0
 11
2222.4840501793819
 21
2047.623191593113
 31
0.0
  0
LINE
  5
822C
  8
1
 10
792.48405017938228
 20
2172.623191593113
 30
0.0
 11
2222.4840501793842
 21
2172.623191593113
 31
0.0
  0
LINE
  5
822D
  8
1
 10
1977.4840501793819
 20
2172.623191593113
 30
0.0
 11
1977.4840501793819
 21
2047.623191593113
 31
0.0
  0
LINE
  5
822E
  8
1
 10
792.48405017938228
 20
2172.623191593113
 30
0.0
 11
792.48405017938228
 21
2047.623191593113
 31
0.0
  0
DIMENSION
  5
823D
  8
3
  2
*D24
 10
2831.6632587269228
 20
2047.6231915931121
 30
0.0
 11
2756.6632587269228
 21
1790.4803344502559
 31
0.0
 70
     0
 13
2222.4840501793842
 23
2172.623191593113
 33
0.0
 14
2222.4840501793819
 24
2047.623191593113
 34
0.0
 50
90.0
1001
ACAD
1000
DSTYLE
1002
{
1070
   287
1070
     3
1070
    40
1040
30.0
1070
   143
1040
0.039
1070
   172
1070
     1
1070
   271
1070
     0
1070
   279
1070
     0
1070
     6
1000
DOT
1002
}
  0
DIMENSION
  5
824C
  8
3
  2
*D25
 10
2831.6632587269228
 20
2217.623191593113
 30
0.0
 11
2975.2346872983512
 21
2195.123191593113
 31
0.0
 70
     0
 13
2222.4840501793819
 23
2172.623191593113
 33
0.0
 14
2222.4840501793842
 24
2217.623191593113
 34
0.0
 50
90.0
1001
ACAD
1000
DSTYLE
1002
{
1070
   172
1070
     1
1070
    40
1040
30.0
1070
     3
1000
(<>)
1070
   271
1070
     0
1070
     6
1000
_DOT
1070
   143
1040
0.039
1002
}
  0
DIMENSION
  5
8259
  8
3
  2
*D26
 10
3100.7327412094269
 20
2047.623191593113
 30
0.0
 11
3002.1613126379989
 21
3004.123191593113
 31
0.0
 70
     0
 13
1610.4840501793819
 23
3960.623191593113
 33
0.0
 14
2222.4840501793819
 24
2047.623191593113
 34
0.0
 50
90.0
1001
ACAD
1000
DSTYLE
1002
{
1070
   172
1070
     1
1070
    40
1040
30.0
1070
     3
1000
(<>)
1070
   271
1070
     0
1070
   143
1040
0.039
1002
}
  0
LINE
  5
825E
  8
1
 10
1427.4840501793819
 20
5140.3086407359287
 30
0.0
 11
1427.4840501793819
 21
5822.3086407359278
 31
0.0
  0
LINE
  5
825F
  8
1
 10
1897.4840501793819
 20
5140.3086407359278
 30
0.0
 11
1897.4840501793819
 21
5822.3086407359278
 31
0.0
  0
LINE
  5
8260
  8
1
 10
1427.4840501793819
 20
5140.3086407359287
 30
0.0
 11
1629.9840501793819
 21
5140.3086407359287
 31
0.0
  0
LINE
  5
8261
  8
1
 10
1427.4840501793819
 20
5822.3086407359278
 30
0.0
 11
1629.9840501793819
 21
5822.3086407359287
 31
0.0
  0
LINE
  5
8262
  8
1
 10
1694.9840501793819
 20
5822.3086407359278
 30
0.0
 11
1897.4840501793819
 21
5822.3086407359269
 31
0.0
  0
LINE
  5
8263
  8
1
 10
1694.9840501793819
 20
5140.3086407359287
 30
0.0
 11
1897.4840501793819
 21
5140.3086407359278
 31
0.0
  0
DIMENSION
  5
8276
  8
3
  2
*D27
 10
5456.2714440005693
 20
2867.6231915931121
 30
0.0
 11
5381.2714440005693
 21
3317.623191593113
 31
0.0
 70
     0
 13
5186.3914073276101
 23
3767.623191593113
 33
0.0
 14
5186.3914073276092
 24
2867.6231915931121
 34
0.0
 50
90.0
1001
ACAD
1000
DSTYLE
1002
{
1070
   172
1070
     1
1070
    40
1040
30.0
1070
     3
1000
φ<>
1070
   271
1070
     0
1070
   143
1040
0.039
1002
}
  0
LINE
  5
8277
  8
1
 10
4516.3914073276082
 20
3324.123191593113
 30
0.0
 11
4516.3914073276092
 21
3960.623191593113
 31
0.0
  0
LINE
  5
8278
  8
1
 10
5186.3914073276082
 20
3324.1231915931121
 30
0.0
 11
5186.3914073276101
 21
3960.623191593113
 31
0.0
  0
ARC
  5
8279
  8
1
 10
1729.4840501793819
 20
3250.623191593113
 30
0.0
 40
844.0
 50
229.1469229639826
 51
244.097025576601
  0
ENDSEC
  0
EOF
