  0
SECTION
  2
HEADER
  9
$ACADVER
  1
AC1009
  9
$INSBASE
 10
0.0
 20
0.0
 30
0.0
  9
$EXTMIN
 10
0.0
 20
0.0
 30
0.0
  9
$EXTMAX
 10
6300.0
 20
8850.0
 30
0.0
  9
$LIMMIN
 10
0.0
 20
0.0
  9
$LIMMAX
 10
297.0
 20
210.0
  9
$ORTHOMODE
 70
     0
  9
$REGENMODE
 70
     1
  9
$FILLMODE
 70
     0
  9
$QTEXTMODE
 70
     0
  9
$MIRRTEXT
 70
     1
  9
$DRAGMODE
 70
     2
  9
$LTSCALE
 40
100.0
  9
$OSMODE
 70
    37
  9
$ATTMODE
 70
     1
  9
$TEXTSIZE
 40
180.0
  9
$TRACEWID
 40
0.05
  9
$TEXTSTYLE
  7
STANDARD
  9
$CLAYER
  8
3
  9
$CELTYPE
  6
BYLAYER
  9
$CECOLOR
 62
   256
  9
$DIMSCALE
 40
30.0
  9
$DIMASZ
 40
2.0
  9
$DIMEXO
 40
0.5
  9
$DIMDLI
 40
10.0
  9
$DIMRND
 40
0.0
  9
$DIMDLE
 40
0.0
  9
$DIMEXE
 40
1.0
  9
$DIMTP
 40
1.0
  9
$DIMTM
 40
1.0
  9
$DIMTXT
 40
3.0
  9
$DIMCEN
 40
0.0
  9
$DIMTSZ
 40
0.0
  9
$DIMTOL
 70
     0
  9
$DIMLIM
 70
     0
  9
$DIMTIH
 70
     0
  9
$DIMTOH
 70
     0
  9
$DIMSE1
 70
     0
  9
$DIMSE2
 70
     0
  9
$DIMTAD
 70
     1
  9
$DIMZIN
 70
     8
  9
$DIMBLK
  1

  9
$DIMASO
 70
     1
  9
$DIMSHO
 70
     1
  9
$DIMPOST
  1
φ<>
  9
$DIMAPOST
  1

  9
$DIMALT
 70
     0
  9
$DIMALTD
 70
     2
  9
$DIMALTF
 40
0.039
  9
$DIMLFAC
 40
1.0
  9
$DIMTOFL
 70
     1
  9
$DIMTVP
 40
0.0
  9
$DIMTIX
 70
     0
  9
$DIMSOXD
 70
     0
  9
$DIMSAH
 70
     1
  9
$DIMBLK1
  1
OPEN
  9
$DIMBLK2
  1
OPEN
  9
$DIMSTYLE
  2
IGA
  9
$DIMCLRD
 70
     0
  9
$DIMCLRE
 70
     0
  9
$DIMCLRT
 70
     0
  9
$DIMTFAC
 40
10.0
  9
$DIMGAP
 40
1.0
  9
$LUNITS
 70
     2
  9
$LUPREC
 70
     3
  9
$SKETCHINC
 40
0.1
  9
$FILLETRAD
 40
50.0
  9
$AUNITS
 70
     0
  9
$AUPREC
 70
     0
  9
$MENU
  1
acad
  9
$ELEVATION
 40
0.0
  9
$PELEVATION
 40
0.0
  9
$THICKNESS
 40
0.0
  9
$LIMCHECK
 70
     0
  9
$BLIPMODE
 70
     0
  9
$CHAMFERA
 40
0.5
  9
$CHAMFERB
 40
0.5
  9
$SKPOLY
 70
     0
  9
$TDCREATE
 40
2452521.4636486112
  9
$TDUPDATE
 40
2454953.6446316089
  9
$TDINDWG
 40
0.0331058218
  9
$TDUSRTIMER
 40
0.0331058218
  9
$USRTIMER
 70
     1
  9
$ANGBASE
 50
0.0
  9
$ANGDIR
 70
     0
  9
$PDMODE
 70
     0
  9
$PDSIZE
 40
0.0
  9
$PLINEWID
 40
0.0
  9
$COORDS
 70
     1
  9
$SPLFRAME
 70
     0
  9
$SPLINETYPE
 70
     6
  9
$SPLINESEGS
 70
     8
  9
$ATTDIA
 70
     0
  9
$ATTREQ
 70
     1
  9
$HANDLING
 70
 10241
  9
$HANDSEED
  5
81DE
  9
$SURFTAB1
 70
     6
  9
$SURFTAB2
 70
     6
  9
$SURFTYPE
 70
     6
  9
$SURFU
 70
     6
  9
$SURFV
 70
     6
  9
$UCSNAME
  2

  9
$UCSORG
 10
0.0
 20
0.0
 30
0.0
  9
$UCSXDIR
 10
1.0
 20
0.0
 30
0.0
  9
$UCSYDIR
 10
0.0
 20
1.0
 30
0.0
  9
$PUCSNAME
  2

  9
$PUCSORG
 10
0.0
 20
0.0
 30
0.0
  9
$PUCSXDIR
 10
1.0
 20
0.0
 30
0.0
  9
$PUCSYDIR
 10
0.0
 20
1.0
 30
0.0
  9
$USERI1
 70
     0
  9
$USERI2
 70
     0
  9
$USERI3
 70
     0
  9
$USERI4
 70
     0
  9
$USERI5
 70
     0
  9
$USERR1
 40
0.0
  9
$USERR2
 40
0.0
  9
$USERR3
 40
0.0
  9
$USERR4
 40
0.0
  9
$USERR5
 40
0.0
  9
$WORLDVIEW
 70
     1
  9
$SHADEDGE
 70
     3
  9
$SHADEDIF
 70
    70
  9
$TILEMODE
 70
     1
  9
$MAXACTVP
 70
    16
  9
$PLIMCHECK
 70
     0
  9
$PEXTMIN
 10
1.0000000000000000E+020
 20
1.0000000000000000E+020
 30
1.0000000000000000E+020
  9
$PEXTMAX
 10
-1.0000000000000000E+020
 20
-1.0000000000000000E+020
 30
-1.0000000000000000E+020
  9
$PLIMMIN
 10
0.0
 20
0.0
  9
$PLIMMAX
 10
12.0
 20
9.0
  9
$UNITMODE
 70
     0
  9
$VISRETAIN
 70
     0
  9
$PLINEGEN
 70
     0
  9
$PSLTSCALE
 70
     1
  0
ENDSEC
  0
SECTION
  2
TABLES
  0
TABLE
  2
VPORT
 70
     2
  0
VPORT
  2
*ACTIVE
 70
     0
 10
0.0
 20
0.0
 11
1.0
 21
1.0
 12
5851.0586616653591
 22
1036.0982651420759
 13
0.0
 23
0.0
 14
10.0
 24
10.0
 15
10.0
 25
10.0
 16
0.0
 26
0.0
 36
1.0
 17
0.0
 27
0.0
 37
0.0
 40
2544.073576855928
 41
3.1666666666666661
 42
50.0
 43
0.0
 44
0.0
 50
0.0
 51
0.0
 71
     0
 72
   100
 73
     1
 74
     0
 75
     0
 76
     0
 77
     0
 78
     0
  0
ENDTAB
  0
TABLE
  2
LTYPE
 70
     2
  0
LTYPE
  2
CONTINUOUS
 70
     0
  3
Solid line
 72
    65
 73
     0
 40
0.0
  0
LTYPE
  2
CENTER
 70
     0
  3
____ _ ____ _ ____ _ ____ _ ____ _ ____ _ ____ 
 72
    65
 73
     4
 40
2.0
 49
1.25
 49
-0.25
 49
0.25
 49
-0.25
  0
ENDTAB
  0
TABLE
  2
LAYER
 70
     6
  0
LAYER
  2
0
 70
     0
 62
     7
  6
CONTINUOUS
  0
LAYER
  2
3
 70
     0
 62
     2
  6
CONTINUOUS
  0
LAYER
  2
2
 70
     0
 62
     3
  6
CENTER
  0
LAYER
  2
1
 70
     0
 62
     4
  6
CONTINUOUS
  0
LAYER
  2
4
 70
     0
 62
     7
  6
CONTINUOUS
  0
LAYER
  2
DEFPOINTS
 70
     0
 62
     7
  6
CONTINUOUS
  0
ENDTAB
  0
TABLE
  2
STYLE
 70
     1
  0
STYLE
  2
STANDARD
 70
     0
 40
0.0
 41
1.0
 50
0.0
 71
     0
 42
180.0
  3
simplex.shx
  4
extfont.shx
  0
ENDTAB
  0
TABLE
  2
VIEW
 70
     0
  0
ENDTAB
  0
TABLE
  2
UCS
 70
     0
  0
ENDTAB
  0
TABLE
  2
APPID
 70
     1
  0
APPID
  2
ACAD
 70
     0
  0
ENDTAB
  0
TABLE
  2
DIMSTYLE
 70
     1
  0
DIMSTYLE
  2
IGA
 70
     0
  3

  4

  5

  6
OPEN
  7
OPEN
 40
2.0
 41
2.0
 42
0.5
 43
10.0
 44
1.0
 45
0.0
 46
0.0
 47
1.0
 48
1.0
140
3.0
141
0.0
142
0.0
143
0.03937
144
1.0
145
0.0
146
10.0
147
1.0
 71
     0
 72
     0
 73
     0
 74
     0
 75
     0
 76
     0
 77
     1
 78
     8
170
     0
171
     2
172
     0
173
     1
174
     0
175
     0
176
     0
177
     0
178
     0
  0
ENDTAB
  0
ENDSEC
  0
SECTION
  2
BLOCKS
  0
BLOCK
  8
0
  2
$MODEL_SPACE
 70
     0
 10
0.0
 20
0.0
 30
0.0
  3
$MODEL_SPACE
  1

  0
ENDBLK
  5
1B
  8
0
  0
BLOCK
 67
     1
  8
0
  2
$PAPER_SPACE
 70
     0
 10
0.0
 20
0.0
 30
0.0
  3
$PAPER_SPACE
  1

  0
ENDBLK
  5
18
 67
     1
  8
0
  0
BLOCK
  8
0
  2
YA_N
 70
     0
 10
0.0
 20
0.0
 30
0.0
  3
YA_N
  1

  0
ENDBLK
  5
79FE
  8
0
  0
BLOCK
  8
0
  2
_OPEN
 70
     0
 10
0.0
 20
0.0
 30
0.0
  3
_OPEN
  1

  0
LINE
  5
7BB9
  8
0
  6
BYBLOCK
 62
     0
 10
-1.0
 20
0.1666666666666666
 30
0.0
 11
0.0
 21
0.0
 31
0.0
  0
LINE
  5
7BBA
  8
0
  6
BYBLOCK
 62
     0
 10
0.0
 20
0.0
 30
0.0
 11
-1.0
 21
-0.1666666666666666
 31
0.0
  0
LINE
  5
7BBB
  8
0
  6
BYBLOCK
 62
     0
 10
0.0
 20
0.0
 30
0.0
 11
-1.0
 21
0.0
 31
0.0
  0
ENDBLK
  5
7BBC
  8
0
  0
BLOCK
  8
0
  2
*D2
 70
     1
 10
0.0
 20
0.0
 30
0.0
  3
*D2
  1

  0
LINE
  5
810B
  8
3
 62
     0
 10
1549.444566197295
 20
6526.4301488808142
 30
0.0
 11
1549.444566197295
 21
6820.5085899395344
 31
0.0
  0
LINE
  5
810C
  8
3
 62
     0
 10
2669.444566197295
 20
6526.4301488808142
 30
0.0
 11
2669.444566197295
 21
6820.5085899395344
 31
0.0
  0
LINE
  5
810D
  8
3
 62
     0
 10
1609.444566197295
 20
6790.5085899395344
 30
0.0
 11
2609.444566197295
 21
6790.5085899395344
 31
0.0
  0
INSERT
  5
810E
  8
3
 62
     0
  2
_OPEN
 10
1549.444566197295
 20
6790.5085899395344
 30
0.0
 41
60.0
 42
60.0
 43
60.0
 50
180.0
  0
INSERT
  5
810F
  8
3
 62
     0
  2
_OPEN
 10
2669.444566197295
 20
6790.5085899395344
 30
0.0
 41
60.0
 42
60.0
 43
60.0
  0
TEXT
  8
3
  40
90
  5
81C8
  62
0
  72
0
  71
0
 10
1927.27
 20
6706.21
 30
0.000000
  1
1120
  0
POINT
  5
8111
  8
DEFPOINTS
 62
     0
 10
1549.444566197295
 20
6511.4301488808142
 30
0.0
  0
POINT
  5
8112
  8
DEFPOINTS
 62
     0
 10
2669.444566197295
 20
6511.4301488808142
 30
0.0
  0
POINT
  5
8113
  8
DEFPOINTS
 62
     0
 10
2669.444566197295
 20
6790.5085899395344
 30
0.0
  0
ENDBLK
  5
7BC8
  8
0
  0
BLOCK
  8
0
  2
*D3
 70
     1
 10
0.0
 20
0.0
 30
0.0
  3
*D3
  1

  0
LINE
  5
7C49
  8
0
  6
BYBLOCK
 62
     0
 10
2321.8086280306538
 20
6180.058395300528
 30
0.0
 11
2321.8086280306538
 21
6474.1368363592492
 31
0.0
  0
LINE
  5
7C4A
  8
0
  6
BYBLOCK
 62
     0
 10
2631.8086280306538
 20
5435.058395300528
 30
0.0
 11
2631.8086280306538
 21
6474.1368363592492
 31
0.0
  0
LINE
  5
7C4B
  8
0
  6
BYBLOCK
 62
     0
 10
2381.8086280306538
 20
6444.1368363592483
 30
0.0
 11
2571.8086280306538
 21
6444.1368363592483
 31
0.0
  0
TEXT
  5
7C4C
  8
3
 62
     0
 10
2369.665770887797
 20
6475.2254253698766
 30
0.0
 40
90.0
  1
310
  0
INSERT
  5
7C4D
  8
0
  6
BYBLOCK
 62
     0
  2
_OPEN
 10
2321.8086280306538
 20
6444.1368363592483
 30
0.0
 41
60.0
 42
60.0
 43
60.0
 50
180.0
  0
INSERT
  5
7C4E
  8
0
  6
BYBLOCK
 62
     0
  2
_OPEN
 10
2631.8086280306538
 20
6444.1368363592483
 30
0.0
 41
60.0
 42
60.0
 43
60.0
  0
POINT
  5
7C4F
  8
DEFPOINTS
  6
BYBLOCK
 62
     0
 10
2321.8086280306538
 20
6165.058395300528
 30
0.0
  0
POINT
  5
7C50
  8
DEFPOINTS
  6
BYBLOCK
 62
     0
 10
2631.8086280306538
 20
5420.058395300528
 30
0.0
  0
POINT
  5
7C51
  8
DEFPOINTS
  6
BYBLOCK
 62
     0
 10
2631.8086280306538
 20
6444.1368363592483
 30
0.0
  0
ENDBLK
  5
7C52
  8
0
  0
BLOCK
  8
0
  2
*D4
 70
     1
 10
0.0
 20
0.0
 30
0.0
  3
*D4
  1

  0
LINE
  5
8114
  8
3
 62
     0
 10
2994.4445661972941
 20
4928.4301488808132
 30
0.0
 11
3261.9667571628929
 21
4928.4301488808132
 31
0.0
  0
LINE
  5
8115
  8
3
 62
     0
 10
2994.4445661972941
 20
5766.4301488808142
 30
0.0
 11
3261.9667571628929
 21
5766.4301488808142
 31
0.0
  0
LINE
  5
8116
  8
3
 62
     0
 10
3231.966757162892
 20
4988.4301488808142
 30
0.0
 11
3231.9667571628929
 21
5706.4301488808142
 31
0.0
  0
INSERT
  5
8117
  8
3
 62
     0
  2
_OPEN
 10
3231.966757162892
 20
4928.4301488808132
 30
0.0
 41
60.0
 42
60.0
 43
60.0
 50
270.0
  0
INSERT
  5
8118
  8
3
 62
     0
  2
_OPEN
 10
3231.9667571628929
 20
5766.4301488808142
 30
0.0
 41
60.0
 42
60.0
 43
60.0
 50
90.0
  0
TEXT
  8
3
  40
90
  5
81C9
  62
0
  72
0
  71
0
 10
2976.97
 20
5185.53
 30
0.000000
  1
838
  0
POINT
  5
811A
  8
DEFPOINTS
 62
     0
 10
2979.4445661972941
 20
4928.4301488808132
 30
0.0
  0
POINT
  5
811B
  8
DEFPOINTS
 62
     0
 10
2979.444566197295
 20
5766.4301488808142
 30
0.0
  0
POINT
  5
811C
  8
DEFPOINTS
 62
     0
 10
3231.9667571628929
 20
5766.4301488808142
 30
0.0
  0
ENDBLK
  5
7BE3
  8
0
  0
BLOCK
  8
0
  2
*D5
 70
     1
 10
0.0
 20
0.0
 30
0.0
  3
*D5
  1

  0
LINE
  5
811D
  8
3
 62
     0
 10
2979.4445661972941
 20
4913.4301488808142
 30
0.0
 11
2979.4445661972941
 21
4524.6741565618868
 31
0.0
  0
LINE
  5
811E
  8
3
 62
     0
 10
1794.4445661972929
 20
4913.4301488808142
 30
0.0
 11
1794.4445661972929
 21
4524.6741565618868
 31
0.0
  0
LINE
  5
811F
  8
3
 62
     0
 10
2919.4445661972941
 20
4554.6741565618859
 30
0.0
 11
1854.4445661972929
 21
4554.6741565618859
 31
0.0
  0
INSERT
  5
8120
  8
3
 62
     0
  2
_OPEN
 10
2979.4445661972941
 20
4554.6741565618859
 30
0.0
 41
60.0
 42
60.0
 43
60.0
  0
INSERT
  5
8121
  8
3
 62
     0
  2
_OPEN
 10
1794.4445661972929
 20
4554.6741565618859
 30
0.0
 41
60.0
 42
60.0
 43
60.0
 50
180.0
  0
TEXT
  8
3
  40
90
  5
81CA
  62
0
  72
0
  71
0
 10
2208.44
 20
4470.37
 30
0.000000
  1
1185
  0
POINT
  5
8123
  8
DEFPOINTS
 62
     0
 10
2979.4445661972941
 20
4928.4301488808132
 30
0.0
  0
POINT
  5
8124
  8
DEFPOINTS
 62
     0
 10
1794.4445661972929
 20
4928.4301488808132
 30
0.0
  0
POINT
  5
8125
  8
DEFPOINTS
 62
     0
 10
1794.4445661972929
 20
4554.6741565618859
 30
0.0
  0
ENDBLK
  5
7BF0
  8
0
  0
BLOCK
  8
0
  2
*D6
 70
     1
 10
0.0
 20
0.0
 30
0.0
  3
*D6
  1

  0
LINE
  5
8126
  8
3
 62
     0
 10
1794.4445661972929
 20
4913.4301488808142
 30
0.0
 11
1794.4445661972929
 21
4524.6741565618868
 31
0.0
  0
LINE
  5
8127
  8
3
 62
     0
 10
1549.444566197295
 20
5686.4301488808142
 30
0.0
 11
1549.444566197295
 21
4524.6741565618868
 31
0.0
  0
LINE
  5
8128
  8
3
 62
     0
 10
1734.4445661972929
 20
4554.6741565618859
 30
0.0
 11
1609.444566197295
 21
4554.6741565618859
 31
0.0
  0
LINE
  5
8129
  8
3
 62
     0
 10
1549.444566197295
 20
4554.6741565618859
 30
0.0
 11
1168.015994768723
 21
4554.6741565618859
 31
0.0
  0
INSERT
  5
812A
  8
3
 62
     0
  2
_OPEN
 10
1794.4445661972929
 20
4554.6741565618859
 30
0.0
 41
60.0
 42
60.0
 43
60.0
  0
INSERT
  5
812B
  8
3
 62
     0
  2
_OPEN
 10
1549.444566197295
 20
4554.6741565618859
 30
0.0
 41
60.0
 42
60.0
 43
60.0
 50
180.0
  0
TEXT
  8
3
  40
90
  5
81CB
  62
0
  72
0
  71
0
 10
1133.73
 20
4470.37
 30
0.000000
  1
245
  0
POINT
  5
812D
  8
DEFPOINTS
 62
     0
 10
1794.4445661972929
 20
4928.4301488808132
 30
0.0
  0
POINT
  5
812E
  8
DEFPOINTS
 62
     0
 10
1549.444566197295
 20
5701.4301488808142
 30
0.0
  0
POINT
  5
812F
  8
DEFPOINTS
 62
     0
 10
1549.444566197295
 20
4554.6741565618859
 30
0.0
  0
ENDBLK
  5
7C77
  8
0
  0
BLOCK
  8
0
  2
*D7
 70
     1
 10
0.0
 20
0.0
 30
0.0
  3
*D7
  1

  0
LINE
  5
8130
  8
3
 62
     0
 10
1474.444566197295
 20
2158.11850831228
 30
0.0
 11
1338.8750929301279
 21
2158.11850831228
 31
0.0
  0
LINE
  5
8131
  8
3
 62
     0
 10
1474.444566197295
 20
3083.11850831228
 30
0.0
 11
1338.8750929301279
 21
3083.11850831228
 31
0.0
  0
LINE
  5
8132
  8
3
 62
     0
 10
1368.8750929301279
 20
2218.11850831228
 30
0.0
 11
1368.8750929301279
 21
3023.11850831228
 31
0.0
  0
INSERT
  5
8133
  8
3
 62
     0
  2
_OPEN
 10
1368.8750929301279
 20
2158.11850831228
 30
0.0
 41
60.0
 42
60.0
 43
60.0
 50
270.0
  0
INSERT
  5
8134
  8
3
 62
     0
  2
_OPEN
 10
1368.8750929301279
 20
3083.11850831228
 30
0.0
 41
60.0
 42
60.0
 43
60.0
 50
90.0
  0
TEXT
  8
3
  40
90
  5
81CC
  62
0
  72
0
  71
0
 10
1113.88
 20
2479.31
 30
0.000000
  1
925
  0
POINT
  5
8136
  8
DEFPOINTS
 62
     0
 10
1489.444566197295
 20
2158.11850831228
 30
0.0
  0
POINT
  5
8137
  8
DEFPOINTS
 62
     0
 10
1489.444566197295
 20
3083.11850831228
 30
0.0
  0
POINT
  5
8138
  8
DEFPOINTS
 62
     0
 10
1368.8750929301279
 20
3083.11850831228
 30
0.0
  0
ENDBLK
  5
7F0F
  8
0
  0
BLOCK
  8
0
  2
*D8
 70
     1
 10
0.0
 20
0.0
 30
0.0
  3
*D8
  1

  0
LINE
  5
8139
  8
3
 62
     0
 10
1474.444566197295
 20
2158.11850831228
 30
0.0
 11
1145.8471054969521
 21
2158.11850831228
 31
0.0
  0
LINE
  5
813A
  8
3
 62
     0
 10
1438.189227418748
 20
3119.11850831228
 30
0.0
 11
1145.8471054969521
 21
3119.11850831228
 31
0.0
  0
LINE
  5
813B
  8
3
 62
     0
 10
1175.8471054969521
 20
2218.11850831228
 30
0.0
 11
1175.8471054969521
 21
3059.11850831228
 31
0.0
  0
INSERT
  5
813C
  8
3
 62
     0
  2
_OPEN
 10
1175.8471054969521
 20
2158.11850831228
 30
0.0
 41
60.0
 42
60.0
 43
60.0
 50
270.0
  0
INSERT
  5
813D
  8
3
 62
     0
  2
_OPEN
 10
1175.8471054969521
 20
3119.11850831228
 30
0.0
 41
60.0
 42
60.0
 43
60.0
 50
90.0
  0
TEXT
  8
3
  40
90
  5
81CD
  62
0
  72
0
  71
0
 10
920.847
 20
2466.74
 30
0.000000
  1
961
  0
POINT
  5
813F
  8
DEFPOINTS
 62
     0
 10
1489.444566197295
 20
2158.11850831228
 30
0.0
  0
POINT
  5
8140
  8
DEFPOINTS
 62
     0
 10
1453.189227418748
 20
3119.11850831228
 30
0.0
  0
POINT
  5
8141
  8
DEFPOINTS
 62
     0
 10
1175.8471054969521
 20
3119.11850831228
 30
0.0
  0
ENDBLK
  5
7FAE
  8
0
  0
BLOCK
  8
0
  2
*D9
 70
     1
 10
0.0
 20
0.0
 30
0.0
  3
*D9
  1

  0
LINE
  5
8142
  8
3
 62
     0
 10
1438.189227418748
 20
3119.11850831228
 30
0.0
 11
957.03762638441935
 21
3119.11850831228
 31
0.0
  0
LINE
  5
8143
  8
3
 62
     0
 10
1534.4445661972941
 20
2019.11850831228
 30
0.0
 11
957.03762638441924
 21
2019.11850831228
 31
0.0
  0
LINE
  5
8144
  8
3
 62
     0
 10
987.03762638441924
 20
3059.11850831228
 30
0.0
 11
987.03762638441913
 21
2079.11850831228
 31
0.0
  0
INSERT
  5
8145
  8
3
 62
     0
  2
_OPEN
 10
987.03762638441924
 20
3119.11850831228
 30
0.0
 41
60.0
 42
60.0
 43
60.0
 50
90.0
  0
INSERT
  5
8146
  8
3
 62
     0
  2
_OPEN
 10
987.03762638441913
 20
2019.11850831228
 30
0.0
 41
60.0
 42
60.0
 43
60.0
 50
270.0
  0
TEXT
  8
3
  40
90
  5
81CE
  62
0
  72
0
  71
0
 10
732.038
 20
2409.82
 30
0.000000
  1
1100
  0
POINT
  5
8148
  8
DEFPOINTS
 62
     0
 10
1453.189227418748
 20
3119.11850831228
 30
0.0
  0
POINT
  5
8149
  8
DEFPOINTS
 62
     0
 10
1549.444566197295
 20
2019.11850831228
 30
0.0
  0
POINT
  5
814A
  8
DEFPOINTS
 62
     0
 10
987.03762638441913
 20
2019.11850831228
 30
0.0
  0
ENDBLK
  5
7F99
  8
0
  0
BLOCK
  8
0
  2
_DOT
 70
     0
 10
0.0
 20
0.0
 30
0.0
  3
_DOT
  1

  0
LINE
  5
7D1D
  8
0
  6
BYBLOCK
 62
     0
 10
0.0
 20
0.0
 30
0.0
 11
-1.0
 21
-0.0000000000000284
 31
0.0
  0
POLYLINE
  5
7D1E
  8
0
  6
BYBLOCK
 62
     0
 66
     1
 10
0.0
 20
0.0
 30
0.0
 70
     1
 40
0.1666666666666666
 41
0.1666666666666666
  0
VERTEX
  5
814B
  8
0
  6
BYBLOCK
 62
     0
 10
-0.0833333333333286
 20
-0.0000000000000284
 30
0.0
 42
1.0
  0
VERTEX
  5
814C
  8
0
  6
BYBLOCK
 62
     0
 10
0.0833333333333286
 20
-0.0000000000000284
 30
0.0
 42
1.0
  0
SEQEND
  5
814D
  8
0
  6
BYBLOCK
 62
     0
  0
ENDBLK
  5
7CE9
  8
0
  0
BLOCK
  8
0
  2
*D11
 70
     1
 10
0.0
 20
0.0
 30
0.0
  3
*D11
  1

  0
LINE
  5
814E
  8
3
 62
     0
 10
1489.444566197295
 20
3121.4724590445289
 30
0.0
 11
1489.444566197295
 21
4022.013914351835
 31
0.0
  0
LINE
  5
814F
  8
3
 62
     0
 10
2109.444566197295
 20
3873.6952087196378
 30
0.0
 11
2109.444566197295
 21
4022.013914351835
 31
0.0
  0
LINE
  5
8150
  8
3
 62
     0
 10
1549.444566197295
 20
3992.013914351835
 30
0.0
 11
2049.444566197295
 21
3992.013914351835
 31
0.0
  0
INSERT
  5
8151
  8
3
 62
     0
  2
_OPEN
 10
1489.444566197295
 20
3992.013914351835
 30
0.0
 41
60.0
 42
60.0
 43
60.0
 50
180.0
  0
INSERT
  5
8152
  8
3
 62
     0
  2
_OPEN
 10
2109.444566197295
 20
3992.013914351835
 30
0.0
 41
60.0
 42
60.0
 43
60.0
  0
TEXT
  8
3
  40
90
  5
81CF
  62
0
  72
0
  71
0
 10
1632.69
 20
3907.71
 30
0.000000
  1
620
  0
POINT
  5
8154
  8
DEFPOINTS
 62
     0
 10
1489.444566197295
 20
3106.4724590445289
 30
0.0
  0
POINT
  5
8155
  8
DEFPOINTS
 62
     0
 10
2109.444566197295
 20
3858.6952087196378
 30
0.0
  0
POINT
  5
8156
  8
DEFPOINTS
 62
     0
 10
2109.444566197295
 20
3992.013914351835
 30
0.0
  0
ENDBLK
  5
801A
  8
0
  0
BLOCK
  8
0
  2
*D12
 70
     1
 10
0.0
 20
0.0
 30
0.0
  3
*D12
  1

  0
LINE
  5
8157
  8
3
 62
     0
 10
2886.444566197295
 20
3201.11850831228
 30
0.0
 11
2886.444566197295
 21
4022.013914351835
 31
0.0
  0
LINE
  5
8158
  8
3
 62
     0
 10
2169.444566197295
 20
3992.013914351835
 30
0.0
 11
2826.444566197295
 21
3992.013914351835
 31
0.0
  0
INSERT
  5
8159
  8
3
 62
     0
  2
_OPEN
 10
2109.444566197295
 20
3992.013914351835
 30
0.0
 41
60.0
 42
60.0
 43
60.0
 50
180.0
  0
INSERT
  5
815A
  8
3
 62
     0
  2
_OPEN
 10
2886.444566197295
 20
3992.013914351835
 30
0.0
 41
60.0
 42
60.0
 43
60.0
  0
TEXT
  8
3
  40
90
  5
81D0
  62
0
  72
0
  71
0
 10
2317.94
 20
3907.71
 30
0.000000
  1
777
  0
POINT
  5
815C
  8
DEFPOINTS
 62
     0
 10
2109.444566197295
 20
3858.6952087196378
 30
0.0
  0
POINT
  5
815D
  8
DEFPOINTS
 62
     0
 10
2886.444566197295
 20
3186.11850831228
 30
0.0
  0
POINT
  5
815E
  8
DEFPOINTS
 62
     0
 10
2886.444566197295
 20
3992.013914351835
 30
0.0
  0
ENDBLK
  5
8004
  8
0
  0
BLOCK
  8
0
  2
*D13
 70
     1
 10
0.0
 20
0.0
 30
0.0
  3
*D13
  1

  0
LINE
  5
815F
  8
3
 62
     0
 10
4516.3914073276082
 20
3786.6233535370702
 30
0.0
 11
4516.3914073276082
 21
3993.1860818953141
 31
0.0
  0
LINE
  5
8160
  8
3
 62
     0
 10
5186.3914073276082
 20
3786.6233535370689
 30
0.0
 11
5186.3914073276082
 21
3993.1860818953141
 31
0.0
  0
LINE
  5
8161
  8
3
 62
     0
 10
4576.3914073276082
 20
3963.1860818953128
 30
0.0
 11
5126.3914073276082
 21
3963.1860818953128
 31
0.0
  0
INSERT
  5
8162
  8
3
 62
     0
  2
_OPEN
 10
4516.3914073276082
 20
3963.1860818953128
 30
0.0
 41
60.0
 42
60.0
 43
60.0
 50
180.0
  0
INSERT
  5
8163
  8
3
 62
     0
  2
_OPEN
 10
5186.3914073276082
 20
3963.1860818953128
 30
0.0
 41
60.0
 42
60.0
 43
60.0
  0
TEXT
  8
3
  40
90
  5
81D1
  62
0
  72
0
  71
0
 10
4670.69
 20
3878.89
 30
0.000000
  1
670
  0
POINT
  5
8165
  8
DEFPOINTS
 62
     0
 10
4516.3914073276082
 20
3771.6233535370702
 30
0.0
  0
POINT
  5
8166
  8
DEFPOINTS
 62
     0
 10
5186.3914073276082
 20
3771.6233535370689
 30
0.0
  0
POINT
  5
8167
  8
DEFPOINTS
 62
     0
 10
5186.3914073276082
 20
3963.1860818953128
 30
0.0
  0
ENDBLK
  5
7D5F
  8
0
  0
BLOCK
  8
0
  2
*D14
 70
     1
 10
0.0
 20
0.0
 30
0.0
  3
*D14
  1

  0
LINE
  5
8026
  8
0
  6
BYBLOCK
 62
     0
 10
5189.3914073276101
 20
3791.9159647531351
 30
0.0
 11
5189.3914073276101
 21
4252.0064574475482
 31
0.0
  0
LINE
  5
8027
  8
0
  6
BYBLOCK
 62
     0
 10
4851.391407327611
 20
4103.2129334146612
 30
0.0
 11
4851.391407327611
 21
4252.0064574475482
 31
0.0
  0
LINE
  5
8028
  8
0
  6
BYBLOCK
 62
     0
 10
5129.3914073276092
 20
4222.0064574475473
 30
0.0
 11
4911.3914073276092
 21
4222.0064574475473
 31
0.0
  0
TEXT
  5
8029
  8
3
 62
     0
 10
4904.6771216133247
 20
4247.9282394521206
 30
0.0
 40
90.0
  1
338
  0
INSERT
  5
802A
  8
0
  6
BYBLOCK
 62
     0
  2
_OPEN
 10
5189.3914073276101
 20
4222.0064574475473
 30
0.0
 41
60.0
 42
60.0
 43
60.0
  0
INSERT
  5
802B
  8
0
  6
BYBLOCK
 62
     0
  2
_OPEN
 10
4851.391407327611
 20
4222.0064574475473
 30
0.0
 41
60.0
 42
60.0
 43
60.0
 50
180.0
  0
POINT
  5
802C
  8
DEFPOINTS
  6
BYBLOCK
 62
     0
 10
5189.3914073276101
 20
3776.9159647531351
 30
0.0
  0
POINT
  5
802D
  8
DEFPOINTS
  6
BYBLOCK
 62
     0
 10
4851.391407327611
 20
4088.2129334146612
 30
0.0
  0
POINT
  5
802E
  8
DEFPOINTS
  6
BYBLOCK
 62
     0
 10
4851.391407327611
 20
4222.0064574475473
 30
0.0
  0
ENDBLK
  5
802F
  8
0
  0
BLOCK
  8
0
  2
*D15
 70
     1
 10
0.0
 20
0.0
 30
0.0
  3
*D15
  1

  0
LINE
  5
8168
  8
3
 62
     0
 10
3526.3914073276101
 20
3414.11850831228
 30
0.0
 11
3526.3914073276101
 21
4252.0064574475482
 31
0.0
  0
LINE
  5
8169
  8
3
 62
     0
 10
4791.3914073276101
 20
4222.0064574475473
 30
0.0
 11
3586.3914073276101
 21
4222.0064574475473
 31
0.0
  0
INSERT
  5
816A
  8
3
 62
     0
  2
_OPEN
 10
4851.391407327611
 20
4222.0064574475473
 30
0.0
 41
60.0
 42
60.0
 43
60.0
  0
INSERT
  5
816B
  8
3
 62
     0
  2
_OPEN
 10
3526.3914073276101
 20
4222.0064574475473
 30
0.0
 41
60.0
 42
60.0
 43
60.0
 50
180.0
  0
TEXT
  8
3
  40
90
  5
81D2
  62
0
  72
0
  71
0
 10
4008.89
 20
4212.71
 30
0.000000
  1
MAX
  0
TEXT
  8
3
  40
90
  5
81D3
  62
0
  72
0
  71
0
 10
4008.89
 20
4095.71
 30
0.000000
  1
1340
  0
POINT
  5
816D
  8
DEFPOINTS
 62
     0
 10
4851.391407327611
 20
4088.2129334146612
 30
0.0
  0
POINT
  5
816E
  8
DEFPOINTS
 62
     0
 10
3526.3914073276101
 20
3399.11850831228
 30
0.0
  0
POINT
  5
816F
  8
DEFPOINTS
 62
     0
 10
3526.3914073276101
 20
4222.0064574475473
 30
0.0
  0
ENDBLK
  5
8024
  8
0
  0
BLOCK
  8
0
  2
*D16
 70
     1
 10
0.0
 20
0.0
 30
0.0
  3
*D16
  1

  0
LINE
  5
8170
  8
3
 62
     0
 10
1489.444566197295
 20
3121.4724590445289
 30
0.0
 11
1489.444566197295
 21
4220.8255167336456
 31
0.0
  0
LINE
  5
8171
  8
3
 62
     0
 10
2979.444566197295
 20
2159.11850831228
 30
0.0
 11
2979.444566197295
 21
4220.8255167336456
 31
0.0
  0
LINE
  5
8172
  8
3
 62
     0
 10
1549.444566197295
 20
4190.8255167336456
 30
0.0
 11
2919.444566197295
 21
4190.8255167336456
 31
0.0
  0
INSERT
  5
8173
  8
3
 62
     0
  2
_OPEN
 10
1489.444566197295
 20
4190.8255167336456
 30
0.0
 41
60.0
 42
60.0
 43
60.0
 50
180.0
  0
INSERT
  5
8174
  8
3
 62
     0
  2
_OPEN
 10
2979.444566197295
 20
4190.8255167336456
 30
0.0
 41
60.0
 42
60.0
 43
60.0
  0
TEXT
  8
3
  40
90
  5
81D4
  62
0
  72
0
  71
0
 10
2012.26
 20
4106.53
 30
0.000000
  1
1490
  0
POINT
  5
8176
  8
DEFPOINTS
 62
     0
 10
1489.444566197295
 20
3106.4724590445289
 30
0.0
  0
POINT
  5
8177
  8
DEFPOINTS
 62
     0
 10
2979.444566197295
 20
2144.11850831228
 30
0.0
  0
POINT
  5
8178
  8
DEFPOINTS
 62
     0
 10
2979.444566197295
 20
4190.8255167336456
 30
0.0
  0
ENDBLK
  5
800F
  8
0
  0
BLOCK
  8
0
  2
*D17
 70
     1
 10
0.0
 20
0.0
 30
0.0
  3
*D17
  1

  0
LINE
  5
8179
  8
3
 62
     0
 10
1534.4445661972941
 20
6511.4301488808142
 30
0.0
 11
1292.9647109690641
 21
6511.4301488808142
 31
0.0
  0
LINE
  5
817A
  8
3
 62
     0
 10
1534.4445661972941
 20
5701.4301488808142
 30
0.0
 11
1292.9647109690641
 21
5701.4301488808142
 31
0.0
  0
LINE
  5
817B
  8
3
 62
     0
 10
1322.9647109690641
 20
6451.4301488808142
 30
0.0
 11
1322.9647109690641
 21
5761.4301488808151
 31
0.0
  0
INSERT
  5
817C
  8
3
 62
     0
  2
_OPEN
 10
1322.9647109690641
 20
6511.4301488808142
 30
0.0
 41
60.0
 42
60.0
 43
60.0
 50
90.0
  0
INSERT
  5
817D
  8
3
 62
     0
  2
_OPEN
 10
1322.9647109690641
 20
5701.4301488808142
 30
0.0
 41
60.0
 42
60.0
 43
60.0
 50
270.0
  0
TEXT
  8
3
  40
90
  5
81D5
  62
0
  72
0
  71
0
 10
1067.96
 20
5972.27
 30
0.000000
  1
810
  0
POINT
  5
817F
  8
DEFPOINTS
 62
     0
 10
1549.444566197295
 20
6511.4301488808142
 30
0.0
  0
POINT
  5
8180
  8
DEFPOINTS
 62
     0
 10
1549.444566197295
 20
5701.4301488808142
 30
0.0
  0
POINT
  5
8181
  8
DEFPOINTS
 62
     0
 10
1322.9647109690641
 20
5701.4301488808142
 30
0.0
  0
ENDBLK
  5
7FCE
  8
0
  0
BLOCK
  8
0
  2
*D18
 70
     1
 10
0.0
 20
0.0
 30
0.0
  3
*D18
  1

  0
LINE
  5
8182
  8
3
 62
     0
 10
1779.4445661972929
 20
4928.4301488808132
 30
0.0
 11
1292.9647109690629
 21
4928.4301488808132
 31
0.0
  0
LINE
  5
8183
  8
3
 62
     0
 10
1322.9647109690629
 20
5641.4301488808142
 30
0.0
 11
1322.9647109690629
 21
4988.4301488808142
 31
0.0
  0
INSERT
  5
8184
  8
3
 62
     0
  2
_OPEN
 10
1322.9647109690629
 20
5701.4301488808142
 30
0.0
 41
60.0
 42
60.0
 43
60.0
 50
90.0
  0
INSERT
  5
8185
  8
3
 62
     0
  2
_OPEN
 10
1322.9647109690629
 20
4928.4301488808132
 30
0.0
 41
60.0
 42
60.0
 43
60.0
 50
270.0
  0
TEXT
  8
3
  40
90
  5
81D6
  62
0
  72
0
  71
0
 10
1067.96
 20
5155.63
 30
0.000000
  1
773
  0
POINT
  5
8187
  8
DEFPOINTS
 62
     0
 10
1549.444566197295
 20
5701.4301488808142
 30
0.0
  0
POINT
  5
8188
  8
DEFPOINTS
 62
     0
 10
1794.4445661972929
 20
4928.4301488808132
 30
0.0
  0
POINT
  5
8189
  8
DEFPOINTS
 62
     0
 10
1322.9647109690629
 20
4928.4301488808132
 30
0.0
  0
ENDBLK
  5
7FC3
  8
0
  0
BLOCK
  8
0
  2
*D19
 70
     1
 10
0.0
 20
0.0
 30
0.0
  3
*D19
  1

  0
LINE
  5
818A
  8
3
 62
     0
 10
2161.444566197295
 20
3762.11850831228
 30
0.0
 11
957.03762638441901
 21
3762.11850831228
 31
0.0
  0
LINE
  5
818B
  8
3
 62
     0
 10
987.03762638441913
 20
3179.11850831228
 30
0.0
 11
987.03762638441913
 21
3702.1185083122809
 31
0.0
  0
INSERT
  5
818C
  8
3
 62
     0
  2
_OPEN
 10
987.03762638441913
 20
3119.11850831228
 30
0.0
 41
60.0
 42
60.0
 43
60.0
 50
270.0
  0
INSERT
  5
818D
  8
3
 62
     0
  2
_OPEN
 10
987.03762638441913
 20
3762.11850831228
 30
0.0
 41
60.0
 42
60.0
 43
60.0
 50
90.0
  0
TEXT
  8
3
  40
90
  5
81D7
  62
0
  72
0
  71
0
 10
732.038
 20
3281.32
 30
0.000000
  1
643
  0
POINT
  5
818F
  8
DEFPOINTS
 62
     0
 10
1453.189227418748
 20
3119.11850831228
 30
0.0
  0
POINT
  5
8190
  8
DEFPOINTS
 62
     0
 10
2176.4445661972941
 20
3762.11850831228
 30
0.0
  0
POINT
  5
8191
  8
DEFPOINTS
 62
     0
 10
987.03762638441913
 20
3762.11850831228
 30
0.0
  0
ENDBLK
  5
7FA3
  8
0
  0
BLOCK
  8
0
  2
*D20
 70
     1
 10
0.0
 20
0.0
 30
0.0
  3
*D20
  1

  0
LINE
  5
8192
  8
3
 62
     0
 10
1549.444566197295
 20
2004.11850831228
 30
0.0
 11
1549.444566197295
 21
1780.245248975916
 31
0.0
  0
LINE
  5
8193
  8
3
 62
     0
 10
2109.444566197295
 20
2004.11850831228
 30
0.0
 11
2109.444566197295
 21
1780.245248975916
 31
0.0
  0
LINE
  5
8194
  8
3
 62
     0
 10
1609.444566197295
 20
1810.245248975916
 30
0.0
 11
2049.444566197295
 21
1810.245248975916
 31
0.0
  0
INSERT
  5
8195
  8
3
 62
     0
  2
_OPEN
 10
1549.444566197295
 20
1810.245248975916
 30
0.0
 41
60.0
 42
60.0
 43
60.0
 50
180.0
  0
INSERT
  5
8196
  8
3
 62
     0
  2
_OPEN
 10
2109.444566197295
 20
1810.245248975916
 30
0.0
 41
60.0
 42
60.0
 43
60.0
  0
TEXT
  8
3
  40
90
  5
81D8
  62
0
  72
0
  71
0
 10
1649.44
 20
1725.95
 30
0.000000
  1
560
  0
POINT
  5
8198
  8
DEFPOINTS
 62
     0
 10
1549.444566197295
 20
2019.11850831228
 30
0.0
  0
POINT
  5
8199
  8
DEFPOINTS
 62
     0
 10
2109.444566197295
 20
2019.11850831228
 30
0.0
  0
POINT
  5
819A
  8
DEFPOINTS
 62
     0
 10
2109.444566197295
 20
1810.245248975916
 30
0.0
  0
ENDBLK
  5
807F
  8
0
  0
BLOCK
  8
0
  2
*D21
 70
     1
 10
0.0
 20
0.0
 30
0.0
  3
*D21
  1

  0
LINE
  5
819B
  8
3
 62
     0
 10
2109.444566197295
 20
2004.11850831228
 30
0.0
 11
2109.444566197295
 21
1780.245248975916
 31
0.0
  0
LINE
  5
819C
  8
3
 62
     0
 10
2979.444566197295
 20
2004.11850831228
 30
0.0
 11
2979.444566197295
 21
1780.245248975916
 31
0.0
  0
LINE
  5
819D
  8
3
 62
     0
 10
2169.444566197295
 20
1810.245248975916
 30
0.0
 11
2919.444566197295
 21
1810.245248975916
 31
0.0
  0
INSERT
  5
819E
  8
3
 62
     0
  2
_OPEN
 10
2109.444566197295
 20
1810.245248975916
 30
0.0
 41
60.0
 42
60.0
 43
60.0
 50
180.0
  0
INSERT
  5
819F
  8
3
 62
     0
  2
_OPEN
 10
2979.444566197295
 20
1810.245248975916
 30
0.0
 41
60.0
 42
60.0
 43
60.0
  0
TEXT
  8
3
  40
90
  5
81D9
  62
0
  72
0
  71
0
 10
2364.44
 20
1725.95
 30
0.000000
  1
870
  0
POINT
  5
81A1
  8
DEFPOINTS
 62
     0
 10
2109.444566197295
 20
2019.11850831228
 30
0.0
  0
POINT
  5
81A2
  8
DEFPOINTS
 62
     0
 10
2979.444566197295
 20
2019.11850831228
 30
0.0
  0
POINT
  5
81A3
  8
DEFPOINTS
 62
     0
 10
2979.444566197295
 20
1810.245248975916
 30
0.0
  0
ENDBLK
  5
808C
  8
0
  0
BLOCK
  8
0
  2
*D22
 70
     1
 10
0.0
 20
0.0
 30
0.0
  3
*D22
  1

  0
LINE
  5
81A4
  8
3
 62
     0
 10
3673.3914073276078
 20
2004.11850831228
 30
0.0
 11
3673.3914073276078
 21
1780.245248975916
 31
0.0
  0
LINE
  5
81A5
  8
3
 62
     0
 10
4851.3914073276073
 20
2004.1185083122789
 30
0.0
 11
4851.3914073276073
 21
1780.245248975916
 31
0.0
  0
LINE
  5
81A6
  8
3
 62
     0
 10
3733.3914073276078
 20
1810.245248975916
 30
0.0
 11
4791.3914073276082
 21
1810.245248975916
 31
0.0
  0
INSERT
  5
81A7
  8
3
 62
     0
  2
_OPEN
 10
3673.3914073276078
 20
1810.245248975916
 30
0.0
 41
60.0
 42
60.0
 43
60.0
 50
180.0
  0
INSERT
  5
81A8
  8
3
 62
     0
  2
_OPEN
 10
4851.3914073276073
 20
1810.245248975916
 30
0.0
 41
60.0
 42
60.0
 43
60.0
  0
TEXT
  8
3
  40
90
  5
81DA
  62
0
  72
0
  71
0
 10
4082.39
 20
1725.95
 30
0.000000
  1
1178
  0
POINT
  5
81AA
  8
DEFPOINTS
 62
     0
 10
3673.3914073276078
 20
2019.11850831228
 30
0.0
  0
POINT
  5
81AB
  8
DEFPOINTS
 62
     0
 10
4851.3914073276073
 20
2019.11850831228
 30
0.0
  0
POINT
  5
81AC
  8
DEFPOINTS
 62
     0
 10
4851.3914073276073
 20
1810.245248975916
 30
0.0
  0
ENDBLK
  5
8099
  8
0
  0
BLOCK
  8
0
  2
*D23
 70
     1
 10
0.0
 20
0.0
 30
0.0
  3
*D23
  1

  0
LINE
  5
81AD
  8
3
 62
     0
 10
4851.3914073276073
 20
2004.1185083122789
 30
0.0
 11
4851.3914073276073
 21
1780.245248975916
 31
0.0
  0
LINE
  5
81AE
  8
3
 62
     0
 10
5256.3914073276082
 20
2004.11850831228
 30
0.0
 11
5256.3914073276082
 21
1780.245248975916
 31
0.0
  0
LINE
  5
81AF
  8
3
 62
     0
 10
4911.3914073276082
 20
1810.245248975916
 30
0.0
 11
5196.3914073276092
 21
1810.245248975916
 31
0.0
  0
INSERT
  5
81B0
  8
3
 62
     0
  2
_OPEN
 10
4851.3914073276073
 20
1810.245248975916
 30
0.0
 41
60.0
 42
60.0
 43
60.0
 50
180.0
  0
INSERT
  5
81B1
  8
3
 62
     0
  2
_OPEN
 10
5256.3914073276082
 20
1810.245248975916
 30
0.0
 41
60.0
 42
60.0
 43
60.0
  0
TEXT
  8
3
  40
90
  5
81DB
  62
0
  72
0
  71
0
 10
4873.89
 20
1725.95
 30
0.000000
  1
405
  0
POINT
  5
81B3
  8
DEFPOINTS
 62
     0
 10
4851.3914073276073
 20
2019.11850831228
 30
0.0
  0
POINT
  5
81B4
  8
DEFPOINTS
 62
     0
 10
5256.3914073276082
 20
2019.11850831228
 30
0.0
  0
POINT
  5
81B5
  8
DEFPOINTS
 62
     0
 10
5256.3914073276082
 20
1810.245248975916
 30
0.0
  0
ENDBLK
  5
80A8
  8
0
  0
BLOCK
  8
0
  2
*D24
 70
     1
 10
0.0
 20
0.0
 30
0.0
  3
*D24
  1

  0
LINE
  5
81B6
  8
3
 62
     0
 10
2146.444566197295
 20
3762.11850831228
 30
0.0
 11
725.36311222476468
 21
3762.11850831228
 31
0.0
  0
LINE
  5
81B7
  8
3
 62
     0
 10
1534.4445661972941
 20
2019.11850831228
 30
0.0
 11
725.36311222476434
 21
2019.11850831228
 31
0.0
  0
LINE
  5
81B8
  8
3
 62
     0
 10
755.36311222476456
 20
3702.1185083122809
 30
0.0
 11
755.36311222476434
 21
2079.11850831228
 31
0.0
  0
INSERT
  5
81B9
  8
3
 62
     0
  2
_OPEN
 10
755.36311222476456
 20
3762.11850831228
 30
0.0
 41
60.0
 42
60.0
 43
60.0
 50
90.0
  0
INSERT
  5
81BA
  8
3
 62
     0
  2
_OPEN
 10
755.36311222476434
 20
2019.11850831228
 30
0.0
 41
60.0
 42
60.0
 43
60.0
 50
270.0
  0
TEXT
  8
3
  40
90
  5
81DC
  62
0
  72
0
  71
0
 10
500.363
 20
2731.32
 30
0.000000
  1
1743
  0
POINT
  5
81BC
  8
DEFPOINTS
 62
     0
 10
2161.444566197295
 20
3762.11850831228
 30
0.0
  0
POINT
  5
81BD
  8
DEFPOINTS
 62
     0
 10
1549.444566197295
 20
2019.11850831228
 30
0.0
  0
POINT
  5
81BE
  8
DEFPOINTS
 62
     0
 10
755.36311222476434
 20
2019.11850831228
 30
0.0
  0
ENDBLK
  5
80B5
  8
0
  0
BLOCK
  8
0
  2
*D25
 70
     1
 10
0.0
 20
0.0
 30
0.0
  3
*D25
  1

  0
LINE
  5
81BF
  8
3
 62
     0
 10
5201.3914073276101
 20
3569.11850831228
 30
0.0
 11
5516.3433899616166
 21
3569.11850831228
 31
0.0
  0
LINE
  5
81C0
  8
3
 62
     0
 10
5201.3914073276092
 20
2669.11850831228
 30
0.0
 11
5516.3433899616166
 21
2669.11850831228
 31
0.0
  0
LINE
  5
81C1
  8
3
 62
     0
 10
5486.3433899616184
 20
3509.11850831228
 30
0.0
 11
5486.3433899616184
 21
2729.11850831228
 31
0.0
  0
INSERT
  5
81C2
  8
3
 62
     0
  2
_OPEN
 10
5486.3433899616184
 20
3569.11850831228
 30
0.0
 41
60.0
 42
60.0
 43
60.0
 50
90.0
  0
INSERT
  5
81C3
  8
3
 62
     0
  2
_OPEN
 10
5486.3433899616184
 20
2669.11850831228
 30
0.0
 41
60.0
 42
60.0
 43
60.0
 50
270.0
  0
TEXT
  8
3
  40
90
  5
81DD
  62
0
  72
0
  71
0
 10
5231.34
 20
2959.82
 30
0.000000
  1
φ900
  0
POINT
  5
81C5
  8
DEFPOINTS
 62
     0
 10
5186.3914073276101
 20
3569.11850831228
 30
0.0
  0
POINT
  5
81C6
  8
DEFPOINTS
 62
     0
 10
5186.3914073276092
 20
2669.11850831228
 30
0.0
  0
POINT
  5
81C7
  8
DEFPOINTS
 62
     0
 10
5486.3433899616184
 20
2669.11850831228
 30
0.0
  0
ENDBLK
  5
80E3
  8
0
  0
ENDSEC
  0
SECTION
  2
ENTITIES
  0
INSERT
  5
7AE3
  8
0
  2
YA_N
 10
791.5023376026661
 20
124.5017017181089
 30
0.0
  0
LINE
  5
7AE5
  8
2
 10
1453.189227418748
 20
3119.11850831228
 30
0.0
 11
2954.7693208359869
 21
3119.11850831228
 31
0.0
  0
LINE
  5
7AE6
  8
2
 10
2109.444566197295
 20
3858.6952087196378
 30
0.0
 11
2109.444566197295
 21
2019.11850831228
 31
0.0
  0
ARC
  5
7AE7
  8
1
 10
2042.4445661972941
 20
3052.11850831228
 30
0.0
 40
844.0
 50
295.90297442339892
 51
310.85307703601728
  0
ARC
  5
7AE8
  8
1
 10
2176.4445661972941
 20
3052.11850831228
 30
0.0
 40
710.0
 50
5.41484170612945
 51
95.414841706129437
  0
ARC
  5
7AE9
  8
1
 10
2162.944566197295
 20
3172.61850831228
 30
0.0
 40
589.5
 50
95.207036088349497
 51
185.20703608834941
  0
LINE
  5
7AEA
  8
1
 10
1489.444566197295
 20
2115.61850831228
 30
0.0
 11
1489.444566197295
 21
3125.61850831228
 31
0.0
  0
LINE
  5
7AEB
  8
1
 10
1489.444566197295
 20
3083.11850831228
 30
0.0
 11
1574.654887912458
 21
3083.11850831228
 31
0.0
  0
LINE
  5
7AEC
  8
1
 10
1489.444566197295
 20
2158.11850831228
 30
0.0
 11
1798.0389696354589
 21
2184.330896776743
 31
0.0
  0
LINE
  5
7AED
  8
1
 10
1489.444566197295
 20
2115.61850831228
 30
0.0
 11
1529.444566197295
 21
2115.61850831228
 31
0.0
  0
LINE
  5
7AEE
  8
1
 10
1489.444566197295
 20
3125.61850831228
 30
0.0
 11
1529.444566197295
 21
3125.61850831228
 31
0.0
  0
LINE
  5
7AEF
  8
1
 10
1529.444566197295
 20
2115.61850831228
 30
0.0
 11
1529.444566197295
 21
3125.61850831228
 31
0.0
  0
LINE
  5
7AF0
  8
1
 10
1492.444566197295
 20
2115.61850831228
 30
0.0
 11
1492.444566197295
 21
3125.61850831228
 31
0.0
  0
LINE
  5
7AF1
  8
1
 10
1549.444566197295
 20
2144.11850831228
 30
0.0
 11
1549.444566197295
 21
2019.11850831228
 31
0.0
  0
LINE
  5
7AF2
  8
1
 10
2979.444566197295
 20
2019.11850831228
 30
0.0
 11
1549.4445661972929
 21
2019.11850831228
 31
0.0
1001
ACAD
1000
ASC_BOUNDS
1002
{
1070
    19
1005
0
1002
}
  0
LINE
  5
7AF3
  8
1
 10
2979.444566197295
 20
2144.11850831228
 30
0.0
 11
1549.4445661972929
 21
2144.11850831228
 31
0.0
  0
LINE
  5
7AF4
  8
2
 10
2779.444566197295
 20
2626.6941072963941
 30
0.0
 11
2779.444566197295
 21
2108.3023677021879
 31
0.0
1001
ACAD
1000
ASC_BOUNDS
1002
{
1070
    19
1002
}
  0
LINE
  5
7AF5
  8
2
 10
3023.078972780022
 20
2419.11850831228
 30
0.0
 11
2564.601639743461
 21
2419.11850831228
 31
0.0
  0
LINE
  5
7AF6
  8
1
 10
5186.3914073276092
 20
2144.11850831228
 30
0.0
 11
5186.3914073276101
 21
3762.11850831228
 31
0.0
  0
LINE
  5
7AF7
  8
1
 10
4516.3914073276082
 20
2144.11850831228
 30
0.0
 11
4516.3914073276092
 21
3762.11850831228
 31
0.0
  0
LINE
  5
7AF8
  8
1
 10
3673.3914073276078
 20
2144.11850831228
 30
0.0
 11
5256.3914073276082
 21
2144.11850831228
 31
0.0
  0
LINE
  5
7AF9
  8
1
 10
3673.3914073276078
 20
2144.11850831228
 30
0.0
 11
3673.3914073276078
 21
2019.11850831228
 31
0.0
  0
LINE
  5
7AFA
  8
1
 10
5256.3914073276082
 20
2144.11850831228
 30
0.0
 11
5256.3914073276082
 21
2019.11850831228
 31
0.0
  0
LINE
  5
7AFE
  8
1
 10
4516.3914073276082
 20
2158.11850831228
 30
0.0
 11
5186.3914073276082
 21
2158.11850831228
 31
0.0
  0
LINE
  5
7AFF
  8
2
 10
3563.863566744611
 20
3119.11850831228
 30
0.0
 11
5256.2417092423557
 21
3119.11850831228
 31
0.0
  0
LINE
  5
7B00
  8
1
 10
3673.3914073276078
 20
2019.11850831228
 30
0.0
 11
5256.3914073276082
 21
2019.11850831228
 31
0.0
1001
ACAD
1000
ASC_BOUNDS
1002
{
1070
    19
1002
}
  0
LINE
  5
7B03
  8
2
 10
2932.163090595513
 20
6106.4301488808142
 30
0.0
 11
1435.7968388077859
 21
6106.4301488808142
 31
0.0
  0
LINE
  5
7B04
  8
2
 10
4851.391407327611
 20
3950.4839376667369
 30
0.0
 11
4851.3914073276073
 21
2019.11850831228
 31
0.0
  0
POINT
  5
7B05
  8
1
 10
2883.2762293250871
 20
3119.11850831228
 30
0.0
  0
INSERT
  5
7B06
  8
0
  2
YA_N
 10
-853.1654824878492
 20
-861.23841843369883
 30
0.0
 41
20.0
 42
20.0
 43
20.0
  0
INSERT
  5
7B08
  8
0
  2
YA_N
 10
-767.31428752034788
 20
-950.9038503398732
 30
0.0
 41
20.0
 42
20.0
 43
20.0
  0
ARC
  5
7B0A
  8
1
 10
2779.444566197295
 20
2419.11850831228
 30
0.0
 40
185.0
 50
287.94525099999993
 51
252.05474899999999
  0
LINE
  5
7B0B
  8
1
 10
2722.444566197295
 20
2243.11850831228
 30
0.0
 11
2836.444566197295
 21
2243.11850831228
 31
0.0
  0
LINE
  5
7B0C
  8
1
 10
2617.444566197295
 20
2314.3775413122798
 30
0.0
 11
2617.444566197295
 21
2239.11850831228
 31
0.0
  0
LINE
  5
7B0D
  8
1
 10
2617.444566197295
 20
2314.3775413122798
 30
0.0
 11
2623.8285381972942
 21
2319.0752953122801
 31
0.0
  0
LINE
  5
7B0E
  8
1
 10
2941.444566197295
 20
2314.3775413122798
 30
0.0
 11
2941.444566197295
 21
2239.11850831228
 31
0.0
  0
LINE
  5
7B0F
  8
1
 10
2941.444566197295
 20
2314.3775413122798
 30
0.0
 11
2935.0606551972942
 21
2319.0752953122801
 31
0.0
  0
LINE
  5
7B10
  8
1
 10
3004.444566197295
 20
2184.11850831228
 30
0.0
 11
2554.444566197295
 21
2184.11850831228
 31
0.0
  0
LINE
  5
7B11
  8
1
 10
2979.444566197295
 20
2184.11850831228
 30
0.0
 11
2979.444566197295
 21
2144.11850831228
 31
0.0
  0
LINE
  5
7B12
  8
1
 10
2579.444566197295
 20
2184.11850831228
 30
0.0
 11
2579.444566197295
 21
2144.11850831228
 31
0.0
  0
LINE
  5
7B13
  8
1
 10
2989.5461045984171
 20
2239.11850831228
 30
0.0
 11
2849.444566197295
 21
2239.11850831228
 31
0.0
  0
LINE
  5
7B14
  8
1
 10
2554.444566197295
 20
2184.11850831228
 30
0.0
 11
2569.6468828318061
 21
2239.11850831228
 31
0.0
  0
LINE
  5
7B15
  8
1
 10
3004.444566197295
 20
2184.11850831228
 30
0.0
 11
2989.5461045984171
 21
2239.11850831228
 31
0.0
  0
LINE
  5
7B16
  8
1
 10
2849.444566197295
 20
2194.11850831228
 30
0.0
 11
2709.444566197295
 21
2194.11850831228
 31
0.0
  0
LINE
  5
7B17
  8
1
 10
2849.444566197295
 20
2229.11850831228
 30
0.0
 11
2709.444566197295
 21
2229.11850831228
 31
0.0
  0
LINE
  5
7B18
  8
1
 10
2849.444566197295
 20
2239.11850831228
 30
0.0
 11
2849.444566197295
 21
2229.11850831228
 31
0.0
  0
LINE
  5
7B19
  8
1
 10
2709.444566197295
 20
2239.11850831228
 30
0.0
 11
2709.444566197295
 21
2229.11850831228
 31
0.0
  0
LINE
  5
7B1A
  8
1
 10
2709.444566197295
 20
2239.11850831228
 30
0.0
 11
2569.6468828318061
 21
2239.11850831228
 31
0.0
  0
LINE
  5
7B1B
  8
1
 10
2849.444566197295
 20
2194.11850831228
 30
0.0
 11
2849.444566197295
 21
2184.11850831228
 31
0.0
  0
LINE
  5
7B1C
  8
1
 10
2709.444566197295
 20
2194.11850831228
 30
0.0
 11
2709.444566197295
 21
2184.11850831228
 31
0.0
  0
POINT
  5
7B1F
  8
1
 10
1549.444566197295
 20
2019.11850831228
 30
0.0
  0
CIRCLE
  5
7B20
  8
1
 10
2779.444566197295
 20
2419.11850831228
 30
0.0
 40
119.0
  0
LINE
  5
7B21
  8
1
 10
2979.444566197295
 20
2144.11850831228
 30
0.0
 11
2979.444566197295
 21
2019.11850831228
 31
0.0
  0
LINE
  5
7B31
  8
1
 10
2669.444566197295
 20
6511.4301488808142
 30
0.0
 11
1549.444566197295
 21
6511.4301488808142
 31
0.0
  0
LINE
  5
7B33
  8
1
 10
2979.4445661972941
 20
4928.4301488808132
 30
0.0
 11
1794.4445661972929
 21
4928.4301488808132
 31
0.0
  0
LINE
  5
7B34
  8
1
 10
1549.444566197295
 20
6511.4301488808123
 30
0.0
 11
1549.444566197295
 21
6441.4301488808151
 31
0.0
  0
LINE
  5
7B35
  8
1
 10
2669.444566197295
 20
6511.4301488808142
 30
0.0
 11
2669.444566197295
 21
6441.4301488808151
 31
0.0
  0
LINE
  5
7B36
  8
1
 10
2979.444566197295
 20
5766.4301488808142
 30
0.0
 11
2979.4445661972941
 21
4928.4301488808132
 31
0.0
  0
LINE
  5
7B37
  8
1
 10
2604.444566197295
 20
6446.4301488808142
 30
0.0
 11
1614.444566197295
 21
6446.4301488808132
 31
0.0
  0
LINE
  5
7B38
  8
1
 10
1614.444566197295
 20
6446.4301488808142
 30
0.0
 11
1614.444566197295
 21
6441.4301488808151
 31
0.0
  0
LINE
  5
7B39
  8
1
 10
2604.444566197295
 20
6446.4301488808142
 30
0.0
 11
2604.444566197295
 21
6441.4301488808151
 31
0.0
  0
LINE
  5
7B3A
  8
1
 10
2979.444566197295
 20
5766.4301488808142
 30
0.0
 11
1614.444566197295
 21
5766.4301488808142
 31
0.0
  0
LINE
  5
7B3D
  8
1
 10
1794.4445661972941
 20
5701.4301488808142
 30
0.0
 11
1794.4445661972929
 21
4928.4301488808132
 31
0.0
  0
LINE
  5
7B3F
  8
2
 10
2779.4445661972941
 20
5607.5695220681719
 30
0.0
 11
2779.4445661972932
 21
4826.3343855273197
 31
0.0
  0
LINE
  5
7B44
  8
1
 10
3563.863566744611
 20
2419.11850831228
 30
0.0
 11
3762.2570052334081
 21
2419.11850831228
 31
0.0
  0
LINE
  5
7B45
  8
1
 10
3596.3914073276101
 20
2538.11850831228
 30
0.0
 11
3706.3914073276078
 21
2538.11850831228
 31
0.0
  0
LINE
  5
7B46
  8
1
 10
3596.3914073276101
 20
2300.11850831228
 30
0.0
 11
3706.3914073276101
 21
2300.11850831228
 31
0.0
  0
LINE
  5
7B47
  8
1
 10
3596.3914073276078
 20
3322.3185083122798
 30
0.0
 11
3596.3914073276101
 21
2300.11850831228
 31
0.0
  0
LINE
  5
7B48
  8
1
 10
3706.3914073276078
 20
3322.3185083122798
 30
0.0
 11
3706.3914073276101
 21
2300.11850831228
 31
0.0
  0
LINE
  5
7B49
  8
1
 10
3726.3914073276101
 20
3399.11850831228
 30
0.0
 11
3726.3914073276101
 21
3379.1185083122791
 31
0.0
  0
LINE
  5
7B4A
  8
1
 10
3526.3914073276101
 20
3399.11850831228
 30
0.0
 11
3526.3914073276101
 21
2199.11850831228
 31
0.0
  0
LINE
  5
7B4B
  8
1
 10
3526.3914073276078
 20
2199.11850831228
 30
0.0
 11
3726.3914073276101
 21
2199.11850831228
 31
0.0
  0
ARC
  5
7B50
  8
1
 10
2109.444566197295
 20
3119.11850831228
 30
0.0
 40
536.0
 50
180.0
 51
183.8511231264977
  0
CIRCLE
  5
7B51
  8
1
 10
2109.444566197295
 20
3119.11850831228
 30
0.0
 40
203.19999999999999
  0
ARC
  5
7B52
  8
1
 10
2109.444566197295
 20
3119.11850831228
 30
0.0
 40
280.0
 50
33.439426607258667
 51
234.28721933087439
  0
ARC
  5
7B53
  8
1
 10
2779.444566197295
 20
2419.11850831228
 30
0.0
 40
220.0
 50
225.37674093987681
 51
41.627540590337013
  0
LINE
  5
7B54
  8
1
 10
2343.0216237870218
 20
3273.5014217775279
 30
0.0
 11
2944.0221940264528
 21
2565.1054731827198
 31
0.0
  0
LINE
  5
7B55
  8
1
 10
2270.477224469505
 20
3240.2366250313171
 30
0.0
 11
2866.9242281486881
 21
2500.5605613934381
 31
0.0
  0
LINE
  5
7B56
  8
1
 10
1968.1836394810739
 20
2973.5621082932262
 30
0.0
 11
2698.120089287524
 21
2332.5249395985302
 31
0.0
  0
LINE
  5
7B57
  8
1
 10
1944.9779196392701
 20
2892.7210182698582
 30
0.0
 11
2624.9777772048869
 21
2262.4705466208611
 31
0.0
  0
LINE
  5
7B58
  8
1
 10
3526.3914073276101
 20
3399.11850831228
 30
0.0
 11
3726.3914073276101
 21
3399.11850831228
 31
0.0
  0
LINE
  5
7B59
  8
1
 10
3596.3914073276078
 20
3322.3185083122798
 30
0.0
 11
3706.3914073276078
 21
3322.3185083122798
 31
0.0
  0
LINE
  5
7B5A
  8
1
 10
3596.3914073276092
 20
2915.9185083122802
 30
0.0
 11
3706.3914073276092
 21
2915.9185083122802
 31
0.0
  0
LINE
  5
7B5B
  8
1
 10
3726.3914073276078
 20
2219.11850831228
 30
0.0
 11
3726.3914073276078
 21
2199.11850831228
 31
0.0
  0
INSERT
  5
7B5C
  8
0
  2
YA_N
 10
1684.084545659538
 20
-1644.9931351483519
 30
0.0
  0
INSERT
  5
7B5E
  8
0
  2
YA_N
 10
812.60933172367402
 20
-6436.0955458567769
 30
0.0
  0
INSERT
  5
7B60
  8
0
  2
YA_N
 10
-832.05848836684106
 20
-7421.8356660085838
 30
0.0
 41
20.0
 42
20.0
 43
20.0
  0
INSERT
  5
7B62
  8
0
  2
YA_N
 10
-746.20729339933985
 20
-7511.5010979147592
 30
0.0
 41
20.0
 42
20.0
 43
20.0
  0
LINE
  5
7B64
  8
1
 10
3736.3914073276092
 20
3039.1185083122791
 30
0.0
 11
3736.3914073276092
 21
2443.4269550011709
 31
0.0
  0
LINE
  5
7B65
  8
1
 10
4418.3914073276101
 20
3039.1185083122791
 30
0.0
 11
4418.3914073276082
 21
2144.1185083122782
 31
0.0
  0
LINE
  5
7B67
  8
1
 10
3736.3914073276078
 20
3039.1185083122791
 30
0.0
 11
4418.3914073276101
 21
3039.1185083122791
 31
0.0
  0
LINE
  5
7B68
  8
1
 10
3728.8914073276078
 20
3151.6185083122791
 30
0.0
 11
4514.0914073276108
 21
3151.6185083122791
 31
0.0
  0
LINE
  5
7B69
  8
1
 10
3728.8914073276078
 20
3086.6185083122791
 30
0.0
 11
4514.0914073276108
 21
3086.6185083122791
 31
0.0
  0
LINE
  5
7B6A
  8
1
 10
3706.3914073276078
 20
3146.6185083122791
 30
0.0
 11
3728.8914073276078
 21
3146.6185083122791
 31
0.0
  0
LINE
  5
7B6B
  8
1
 10
3706.3914073276092
 20
3091.6185083122791
 30
0.0
 11
3728.8914073276078
 21
3091.6185083122791
 31
0.0
  0
LINE
  5
7B6C
  8
1
 10
3728.8914073276078
 20
3086.6185083122791
 30
0.0
 11
3728.8914073276078
 21
3151.6185083122791
 31
0.0
  0
LINE
  5
7B6E
  8
1
 10
4516.3914073276092
 20
3083.11850831228
 30
0.0
 11
5186.3914073276092
 21
3083.11850831228
 31
0.0
  0
LINE
  5
7B70
  8
1
 10
3869.4928320640101
 20
2601.92695500117
 30
0.0
 11
4136.1774452685549
 21
2601.92695500117
 31
0.0
  0
LINE
  5
7B71
  8
1
 10
4136.1774452685549
 20
2601.92695500117
 30
0.0
 11
3788.404875155722
 21
2601.92695500117
 31
0.0
  0
LINE
  5
7B72
  8
2
 10
4332.6344241469269
 20
2419.42695500117
 30
0.0
 11
3613.581502001578
 21
2419.42695500117
 31
0.0
  0
LINE
  5
7B74
  8
1
 10
4328.2619562381369
 20
2239.42695500117
 30
0.0
 11
4328.2619562381369
 21
2601.92695500117
 31
0.0
  0
LINE
  5
7B75
  8
1
 10
3788.404875155722
 20
2239.42695500117
 30
0.0
 11
4146.2619562381369
 21
2239.42695500117
 31
0.0
  0
LINE
  5
7B78
  8
1
 10
3788.404875155722
 20
2601.92695500117
 30
0.0
 11
3788.404875155722
 21
2239.42695500117
 31
0.0
  0
LINE
  5
7B7C
  8
1
 10
3761.7619562332752
 20
2450.8482639470162
 30
0.0
 11
3766.761956238136
 21
2450.8482639470162
 31
0.0
  0
LINE
  5
7B7D
  8
1
 10
3761.7619562332752
 20
2386.0056460553242
 30
0.0
 11
3766.761956238136
 21
2386.0056460553251
 31
0.0
  0
LINE
  5
7B7E
  8
1
 10
3766.761956238136
 20
2361.209506018572
 30
0.0
 11
3766.761956238136
 21
2477.6444039837679
 31
0.0
  0
LINE
  5
7B7F
  8
1
 10
3788.404875155722
 20
2361.209506018572
 30
0.0
 11
3766.761956238136
 21
2361.209506018572
 31
0.0
  0
LINE
  5
7B80
  8
1
 10
3788.404875155722
 20
2477.6444039837679
 30
0.0
 11
3766.761956238136
 21
2477.6444039837679
 31
0.0
  0
LINE
  5
7B81
  8
1
 10
3651.7619562371451
 20
2395.4269550011709
 30
0.0
 11
3761.7619562332752
 21
2395.4269550011709
 31
0.0
  0
LINE
  5
7B82
  8
1
 10
3651.7619562371451
 20
2443.42695500117
 30
0.0
 11
3761.7619562332752
 21
2443.4269550011709
 31
0.0
  0
LINE
  5
7B83
  8
1
 10
3761.7619562332752
 20
2386.0056460553242
 30
0.0
 11
3761.7619562332752
 21
2450.8482639470162
 31
0.0
  0
LINE
  5
7B84
  8
1
 10
3651.7619562371451
 20
2443.42695500117
 30
0.0
 11
3651.7619562371451
 21
2395.42695500117
 31
0.0
  0
LINE
  5
7B85
  8
1
 10
4146.2619562381369
 20
2239.42695500117
 30
0.0
 11
4328.2619562381369
 21
2239.42695500117
 31
0.0
  0
LINE
  5
7B86
  8
1
 10
4136.1774452685549
 20
2601.92695500117
 30
0.0
 11
4328.2619562381369
 21
2601.92695500117
 31
0.0
  0
LINE
  5
7B87
  8
1
 10
3736.3914073276092
 20
2395.4269550011709
 30
0.0
 11
3736.3914073276078
 21
2144.1185083122791
 31
0.0
  0
LINE
  5
7B88
  8
1
 10
4208.2619562381378
 20
2239.42695500117
 30
0.0
 11
4208.2619562381378
 21
2144.11850831228
 31
0.0
  0
LINE
  5
7B89
  8
1
 10
3798.2619562381378
 20
2239.42695500117
 30
0.0
 11
3798.2619562381369
 21
2144.11850831228
 31
0.0
  0
LINE
  5
7B8A
  8
1
 10
3798.2619562381378
 20
2184.11850831228
 30
0.0
 11
4208.2619562381378
 21
2184.11850831228
 31
0.0
  0
LINE
  5
7B8B
  8
1
 10
2596.9445661972932
 20
5124.5315736172151
 30
0.0
 11
2596.9445661972932
 21
5391.216186821759
 31
0.0
  0
LINE
  5
7B8C
  8
1
 10
2596.9445661972932
 20
5391.216186821759
 30
0.0
 11
2596.9445661972932
 21
5043.4436167089261
 31
0.0
  0
LINE
  5
7B8D
  8
1
 10
2141.944566197295
 20
4983.9301488808142
 30
0.0
 11
2141.944566197295
 21
5769.1301488808149
 31
0.0
  0
LINE
  5
7B8E
  8
1
 10
2076.9445661972941
 20
4983.9301488808142
 30
0.0
 11
2076.9445661972941
 21
5769.1301488808149
 31
0.0
  0
LINE
  5
7B8F
  8
2
 10
2109.444566197295
 20
4818.9023082978174
 30
0.0
 11
2109.444566197295
 21
6561.9497966385516
 31
0.0
  0
LINE
  5
7B90
  8
1
 10
2141.944566197295
 20
4983.9301488808142
 30
0.0
 11
2076.9445661972941
 21
4983.9301488808142
 31
0.0
  0
LINE
  5
7B91
  8
1
 10
1906.244566197294
 20
4961.4301488808151
 30
0.0
 11
2898.7530128861831
 21
4961.4301488808151
 31
0.0
  0
LINE
  5
7B92
  8
1
 10
1829.444566197295
 20
4781.4301488808142
 30
0.0
 11
2999.7530128861831
 21
4781.4301488808142
 31
0.0
  0
LINE
  5
7B93
  8
1
 10
1906.244566197294
 20
4851.4301488808142
 30
0.0
 11
2898.7530128861831
 21
4851.4301488808151
 31
0.0
  0
LINE
  5
7B94
  8
1
 10
2999.7530128861831
 20
4781.4301488808123
 30
0.0
 11
2999.7530128861831
 21
4981.4301488808142
 31
0.0
  0
LINE
  5
7B95
  8
1
 10
2596.9445661972932
 20
5043.4436167089261
 30
0.0
 11
2959.4445661972932
 21
5043.4436167089261
 31
0.0
  0
LINE
  5
7B96
  8
1
 10
2898.7530128861831
 20
4851.4301488808142
 30
0.0
 11
2898.7530128861831
 21
4961.4301488808151
 31
0.0
  0
LINE
  5
7B97
  8
1
 10
2803.4445661972918
 20
4906.8006977903497
 30
0.0
 11
2803.4445661972918
 21
5016.8006977864788
 31
0.0
  0
LINE
  5
7B98
  8
1
 10
2755.4445661972932
 20
4906.8006977903497
 30
0.0
 11
2755.4445661972918
 21
5016.8006977864788
 31
0.0
  0
LINE
  5
7B99
  8
1
 10
2312.6445661972939
 20
4851.4301488808142
 30
0.0
 11
2312.6445661972939
 21
4961.4301488808151
 31
0.0
  0
LINE
  5
7B9A
  8
1
 10
2755.4445661972932
 20
4906.8006977903497
 30
0.0
 11
2803.4445661972932
 21
4906.8006977903497
 31
0.0
  0
LINE
  5
7B9B
  8
1
 10
2660.7530128861831
 20
4851.4301488808142
 30
0.0
 11
2660.7530128861831
 21
4961.4301488808123
 31
0.0
  0
LINE
  5
7B9C
  8
1
 10
2136.944566197295
 20
4961.4301488808151
 30
0.0
 11
2136.944566197295
 21
4983.9301488808142
 31
0.0
  0
LINE
  5
7B9D
  8
1
 10
2812.865875143139
 20
5016.8006977864788
 30
0.0
 11
2748.0232572514469
 21
5016.8006977864788
 31
0.0
  0
LINE
  5
7B9E
  8
1
 10
2837.6620151798911
 20
5021.800697791341
 30
0.0
 11
2721.2271172146952
 21
5021.800697791341
 31
0.0
  0
LINE
  5
7B9F
  8
1
 10
2812.865875143139
 20
5016.8006977864788
 30
0.0
 11
2812.8658751431381
 21
5021.800697791341
 31
0.0
  0
LINE
  5
7BA0
  8
1
 10
2837.6620151798911
 20
5043.4436167089261
 30
0.0
 11
2837.6620151798911
 21
5021.800697791341
 31
0.0
  0
LINE
  5
7BA1
  8
1
 10
2721.2271172146952
 20
5043.4436167089261
 30
0.0
 11
2721.2271172146952
 21
5021.800697791341
 31
0.0
  0
LINE
  5
7BA2
  8
1
 10
2748.0232572514469
 20
5016.8006977864788
 30
0.0
 11
2748.0232572514469
 21
5021.800697791341
 31
0.0
  0
LINE
  5
7BA3
  8
1
 10
1829.444566197295
 20
4781.4301488808142
 30
0.0
 11
1829.444566197295
 21
4981.4301488808142
 31
0.0
  0
LINE
  5
7BA4
  8
1
 10
2081.9445661972941
 20
4961.4301488808151
 30
0.0
 11
2081.9445661972941
 21
4983.9301488808142
 31
0.0
  0
LINE
  5
7BA5
  8
1
 10
1906.244566197294
 20
4851.4301488808142
 30
0.0
 11
1906.244566197294
 21
4961.4301488808151
 31
0.0
  0
LINE
  5
7BA6
  8
1
 10
1829.444566197295
 20
4981.4301488808142
 30
0.0
 11
2999.7530128861831
 21
4981.4301488808142
 31
0.0
  0
LINE
  5
7BA7
  8
1
 10
1529.444566197295
 20
6441.4301488808151
 30
0.0
 11
2886.444566197295
 21
6441.4301488808151
 31
0.0
  0
LINE
  5
7BA8
  8
1
 10
1529.444566197295
 20
5771.4301488808132
 30
0.0
 11
2886.444566197295
 21
5771.4301488808132
 31
0.0
  0
LINE
  5
7BA9
  8
1
 10
1489.444566197295
 20
6483.4301488808132
 30
0.0
 11
1529.444566197295
 21
6483.4301488808132
 31
0.0
  0
LINE
  5
7BAA
  8
1
 10
2959.4445661972932
 20
5583.300697791341
 30
0.0
 11
2596.9445661972932
 21
5583.300697791341
 31
0.0
  0
LINE
  5
7BAB
  8
1
 10
2959.4445661972932
 20
5401.3006977913419
 30
0.0
 11
2959.4445661972932
 21
5583.300697791341
 31
0.0
  0
LINE
  5
7BAC
  8
1
 10
2959.4445661972932
 20
5043.4436167089261
 30
0.0
 11
2959.4445661972932
 21
5401.3006977913419
 31
0.0
  0
LINE
  5
7BAD
  8
1
 10
2596.9445661972932
 20
5391.216186821759
 30
0.0
 11
2596.9445661972932
 21
5583.3006977913419
 31
0.0
  0
LINE
  5
7BAE
  8
1
 10
1489.444566197295
 20
5729.4301488808151
 30
0.0
 11
1529.444566197295
 21
5729.4301488808151
 31
0.0
  0
LINE
  5
7BB0
  8
1
 10
1489.444566197295
 20
5729.4301488808151
 30
0.0
 11
1489.444566197295
 21
6483.4301488808132
 31
0.0
  0
LINE
  5
7BB1
  8
1
 10
1529.444566197295
 20
5729.4301488808151
 30
0.0
 11
1529.444566197295
 21
6483.4301488808132
 31
0.0
  0
LINE
  5
7BB2
  8
1
 10
2886.444566197295
 20
5771.4301488808151
 30
0.0
 11
2886.444566197295
 21
6441.4301488808151
 31
0.0
  0
LINE
  5
7BB3
  8
1
 10
2669.4445661972941
 20
5771.4301488808151
 30
0.0
 11
2669.4445661972941
 21
5766.4301488808142
 31
0.0
  0
LINE
  5
7BB4
  8
1
 10
2604.4445661972941
 20
5771.4301488808132
 30
0.0
 11
2604.4445661972941
 21
5766.4301488808142
 31
0.0
  0
LINE
  5
7BB5
  8
1
 10
1614.444566197295
 20
5771.4301488808132
 30
0.0
 11
1614.444566197295
 21
5766.4301488808142
 31
0.0
  0
LINE
  5
7BB6
  8
1
 10
1549.444566197295
 20
5771.4301488808132
 30
0.0
 11
1549.444566197295
 21
5701.4301488808142
 31
0.0
  0
DIMENSION
  5
7BC9
  8
3
  2
*D2
 10
2669.444566197295
 20
6790.5085899395344
 30
0.0
 11
2107.2684407507659
 21
6790.5085899395344
 31
0.0
 70
   128
 13
1549.444566197295
 23
6511.4301488808142
 33
0.0
 14
2669.444566197295
 24
6511.4301488808142
 34
0.0
1001
ACAD
1000
DSTYLE
1002
{
1070
   287
1070
     3
1070
    40
1040
30.0
1070
   143
1040
0.039
1070
   172
1070
     1
1070
   271
1070
     0
1070
   279
1070
     0
1070
   288
1070
     1
1002
}
  0
DIMENSION
  5
7BD7
  8
3
  2
*D3
 10
2979.444566197295
 20
6790.5085899395344
 30
0.0
 11
2824.444566197295
 21
6866.5971789501637
 31
0.0
 12
347.63593816664059
 22
346.37175358028611
 32
0.0
 70
   128
 13
2669.444566197295
 23
6511.4301488808142
 33
0.0
 14
2979.444566197295
 24
5766.4301488808142
 34
0.0
1001
ACAD
1000
DSTYLE
1002
{
1070
   288
1070
     1
1070
   172
1070
     1
1070
    40
1040
30.0
1070
   271
1070
     0
1070
   143
1040
0.039
1002
}
  0
DIMENSION
  5
7BE4
  8
3
  2
*D4
 10
3231.9667571628929
 20
5766.4301488808142
 30
0.0
 11
3231.966757162892
 21
5344.8250519742287
 31
0.0
 70
   128
 13
2979.4445661972941
 23
4928.4301488808132
 33
0.0
 14
2979.444566197295
 24
5766.4301488808142
 34
0.0
 50
90.0
1001
ACAD
1000
DSTYLE
1002
{
1070
   287
1070
     3
1070
    40
1040
30.0
1070
   143
1040
0.039
1070
   172
1070
     1
1070
   271
1070
     0
1070
   279
1070
     0
1070
   288
1070
     1
1002
}
  0
DIMENSION
  5
7BF1
  8
3
  2
*D5
 10
1794.4445661972929
 20
4554.6741565618859
 30
0.0
 11
2388.4430198537989
 21
4554.6741565618859
 31
0.0
 70
   128
 13
2979.4445661972941
 23
4928.4301488808132
 33
0.0
 14
1794.4445661972929
 24
4928.4301488808132
 34
0.0
1001
ACAD
1000
DSTYLE
1002
{
1070
   287
1070
     3
1070
    40
1040
30.0
1070
   143
1040
0.039
1070
   172
1070
     1
1070
   271
1070
     0
1070
   279
1070
     0
1070
   288
1070
     1
1002
}
  0
DIMENSION
  5
7BFF
  8
3
  2
*D6
 10
1549.444566197295
 20
4554.6741565618859
 30
0.0
 11
1313.7302804830081
 21
4554.6741565618859
 31
0.0
 70
   128
 13
1794.4445661972929
 23
4928.4301488808132
 33
0.0
 14
1549.444566197295
 24
5701.4301488808142
 34
0.0
1001
ACAD
1000
DSTYLE
1002
{
1070
   287
1070
     2
1070
    40
1040
30.0
1070
   143
1040
0.039
1070
   172
1070
     1
1070
   271
1070
     0
1070
   279
1070
     0
1070
   288
1070
     1
1070
   289
1070
     2
1002
}
  0
LINE
  5
7C78
  8
1
 10
1794.4445661972929
 20
5701.4301488808142
 30
0.0
 11
1549.444566197295
 21
5701.4301488808142
 31
0.0
  0
DIMENSION
  5
7C85
  8
3
  2
*D7
 10
1368.8750929301279
 20
3083.11850831228
 30
0.0
 11
1368.875092930127
 21
2638.6144196891182
 31
0.0
 70
   128
 13
1489.444566197295
 23
2158.11850831228
 33
0.0
 14
1489.444566197295
 24
3083.11850831228
 34
0.0
 50
90.0
1001
ACAD
1000
DSTYLE
1002
{
1070
   287
1070
     3
1070
    40
1040
30.0
1070
   143
1040
0.039
1070
   172
1070
     1
1070
   271
1070
     0
1070
   279
1070
     0
1070
   288
1070
     1
1002
}
  0
DIMENSION
  5
7C92
  8
3
  2
*D8
 10
1175.8471054969521
 20
3119.11850831228
 30
0.0
 11
1175.8471054969521
 21
2626.0408013814631
 31
0.0
 70
   128
 13
1489.444566197295
 23
2158.11850831228
 33
0.0
 14
1453.189227418748
 24
3119.11850831228
 34
0.0
 50
90.0
1001
ACAD
1000
DSTYLE
1002
{
1070
   287
1070
     3
1070
    40
1040
30.0
1070
   143
1040
0.039
1070
   172
1070
     1
1070
   271
1070
     0
1070
   279
1070
     0
1070
   288
1070
     1
1002
}
  0
DIMENSION
  5
7C9E
  8
3
  2
*D9
 10
987.03762638441913
 20
2019.11850831228
 30
0.0
 11
912.03762638441867
 21
2569.11850831228
 31
0.0
 70
     0
 13
1453.189227418748
 23
3119.11850831228
 33
0.0
 14
1549.444566197295
 24
2019.11850831228
 34
0.0
 50
90.0
1001
ACAD
1000
DSTYLE
1002
{
1070
   287
1070
     3
1070
    40
1040
30.0
1070
   143
1040
0.039
1070
   172
1070
     1
1070
   271
1070
     0
1070
   279
1070
     0
1070
   288
1070
     1
1002
}
  0
DIMENSION
  5
7D47
  8
3
  2
*D11
 10
2109.444566197295
 20
3992.013914351835
 30
0.0
 11
1812.6898642099329
 21
3992.013914351835
 31
0.0
 70
   128
 13
1489.444566197295
 23
3106.4724590445289
 33
0.0
 14
2109.444566197295
 24
3858.6952087196378
 34
0.0
1001
ACAD
1000
DSTYLE
1002
{
1070
   287
1070
     3
1070
    40
1040
30.0
1070
   143
1040
0.039
1070
   172
1070
     1
1070
   271
1070
     0
1070
   279
1070
     0
1070
   288
1070
     1
1002
}
  0
DIMENSION
  5
7D53
  8
3
  2
*D12
 10
2886.444566197295
 20
3992.013914351835
 30
0.0
 11
2497.944566197295
 21
4067.013914351835
 31
0.0
 70
     0
 13
2109.444566197295
 23
3858.6952087196378
 33
0.0
 14
2886.444566197295
 24
3186.11850831228
 34
0.0
1001
ACAD
1000
DSTYLE
1002
{
1070
   287
1070
     4
1070
    40
1040
30.0
1070
    75
1070
     1
1070
   143
1040
0.039
1070
   172
1070
     1
1070
   271
1070
     0
1070
   279
1070
     1
1070
   288
1070
     1
1002
}
  0
DIMENSION
  5
7D60
  8
3
  2
*D13
 10
5186.3914073276082
 20
3963.1860818953128
 30
0.0
 11
4850.6921420321587
 21
3963.1860818953128
 31
0.0
 70
   128
 13
4516.3914073276082
 23
3771.6233535370702
 33
0.0
 14
5186.3914073276082
 24
3771.6233535370689
 34
0.0
1001
ACAD
1000
DSTYLE
1002
{
1070
   287
1070
     3
1070
    40
1040
30.0
1070
   143
1040
0.039
1070
   172
1070
     1
1070
   271
1070
     0
1070
   279
1070
     0
1070
   288
1070
     1
1002
}
  0
DIMENSION
  5
7D70
  8
3
  2
*D14
 10
4851.391407327611
 20
4222.0064574475473
 30
0.0
 11
5020.3914073276101
 21
4292.9282394521206
 31
0.0
 70
   128
 13
5189.3914073276101
 23
3776.9159647531351
 33
0.0
 14
4851.391407327611
 24
4088.2129334146612
 34
0.0
1001
ACAD
1000
DSTYLE
1002
{
1070
   288
1070
     1
1070
   172
1070
     1
1070
    40
1040
30.0
1070
   271
1070
     0
1070
   143
1040
0.039
1002
}
  0
DIMENSION
  5
7DA0
  8
3
  2
*D15
 10
3526.3914073276101
 20
4222.0064574475473
 30
0.0
 11
4188.8914073276101
 21
4372.0064574475473
 31
0.0
 70
     0
  1
MAX\P1340
 13
4851.391407327611
 23
4088.2129334146612
 33
0.0
 14
3526.3914073276101
 24
3399.11850831228
 34
0.0
1001
ACAD
1000
DSTYLE
1002
{
1070
   287
1070
     4
1070
    40
1040
30.0
1070
    75
1070
     1
1070
   143
1040
0.039
1070
   172
1070
     1
1070
   271
1070
     0
1070
   279
1070
     1
1070
   288
1070
     1
1002
}
  0
LINE
  5
7E09
  8
4
 10
5550.0
 20
1500.0
 30
0.0
 11
5550.0
 21
900.0
 31
0.0
  0
LINE
  5
7E0A
  8
4
 10
3450.0
 20
1500.0
 30
0.0
 11
3450.0
 21
900.0
 31
0.0
  0
LINE
  5
7E0B
  8
4
 10
1950.0
 20
1500.0
 30
0.0
 11
1950.0
 21
900.0
 31
0.0
  0
LINE
  5
7E0E
  8
4
 10
1950.0
 20
900.0
 30
0.0
 11
5550.0
 21
900.0
 31
0.0
  0
LINE
  5
7E0F
  8
4
 10
1950.0
 20
1200.0
 30
0.0
 11
5550.0
 21
1200.0
 31
0.0
  0
TEXT
  5
7E10
  8
4
 10
2065.5062425407041
 20
1294.629077599838
 30
0.0
 40
150.0
  1
機器名称
  0
TEXT
  5
7E11
  8
4
 10
2058.7743180743919
 20
964.93547019603284
 30
0.0
 40
150.0
  1
機器型番
  0
TEXT
  5
7E12
  8
4
 10
3533.036236462995
 20
1267.715306872705
 30
0.0
 40
130.0
  1
ミツヤリミットロ－ﾄﾞファン
  0
TEXT
  5
7E13
  8
4
 10
3559.9634867564419
 20
951.47875283983012
 30
0.0
 40
150.0
  1
LL#5 1/2-1
  0
TEXT
  5
7E15
  8
4
 10
2452.306731152159
 20
7150.2865239975472
 30
0.0
 40
161.99999999999989
  1
床置ベット
  0
TEXT
  5
7E16
  8
4
 10
898.50277998833917
 20
7601.6429285978938
 30
0.0
 40
216.0
  1
遠心式片吸込片持リミットロ－ﾄﾞファン
  0
LINE
  5
7E17
  8
4
 10
750.0
 20
7408.2262627944137
 30
0.0
 11
5550.0
 21
7408.2262627944137
 31
0.0
  0
LINE
  5
7E18
  8
4
 10
750.0
 20
8008.2262627944137
 30
0.0
 11
5550.0
 21
8008.2262627944137
 31
0.0
  0
LINE
  5
7E19
  8
4
 10
1950.0
 20
1500.0
 30
0.0
 11
5550.0
 21
1500.0
 31
0.0
  0
LINE
  5
7E1A
  8
4
 10
750.0
 20
8008.2262627944137
 30
0.0
 11
750.0
 21
7408.2262627944137
 31
0.0
  0
TEXT
  5
7E1B
  8
4
 10
1144.730234424052
 20
7146.9584326390304
 30
0.0
 40
161.99999999999989
  1
右回転左横向
  0
TEXT
  5
7E1C
  8
4
 10
4406.9086777478688
 20
8118.1832444859256
 30
0.0
 40
168.0
  1
No.
  0
TEXT
  5
7E1D
  8
4
 10
3933.8881878000388
 20
7150.2865239975472
 30
0.0
 40
161.99999999999989
  1
縮尺：1/30
  0
LINE
  5
7E1E
  8
4
 10
5550.0
 20
8008.2262627944137
 30
0.0
 11
5550.0
 21
7408.2262627944137
 31
0.0
  0
LINE
  5
7E1F
  8
4
 10
6300.0
 20
8850.0
 30
0.0
 11
6300.0
 21
8850.0
 31
0.0
  0
LINE
  5
7E20
  8
4
 10
4321.8522670795937
 20
8043.790749376205
 30
0.0
 11
4321.8522670795937
 21
8359.9567846492573
 31
0.0
  0
LINE
  5
7E21
  8
4
 10
4321.8522670795937
 20
8359.9567846492573
 30
0.0
 11
5550.0
 21
8359.9567846492573
 31
0.0
  0
LINE
  5
7E22
  8
4
 10
5550.0
 20
8359.9567846492573
 30
0.0
 11
5550.0
 21
8043.790749376205
 31
0.0
  0
LINE
  5
7E23
  8
4
 10
5550.0
 20
8043.790749376205
 30
0.0
 11
4321.8522670795937
 21
8043.790749376205
 31
0.0
  0
LINE
  5
7E24
  8
4
 10
0.0
 20
0.0
 30
0.0
 11
0.0
 21
8850.0
 31
0.0
  0
LINE
  5
7E25
  8
4
 10
0.0
 20
8850.0
 30
0.0
 11
6300.0
 21
8850.0
 31
0.0
  0
LINE
  5
7E26
  8
4
 10
6300.0
 20
8850.0
 30
0.0
 11
6300.0
 21
0.0
 31
0.0
  0
LINE
  5
7E27
  8
4
 10
6300.0
 20
0.0
 30
0.0
 11
0.0
 21
0.0
 31
0.0
  0
DIMENSION
  5
7E4D
  8
3
  2
*D16
 10
2979.444566197295
 20
4190.8255167336456
 30
0.0
 11
2192.2582968674901
 21
4190.8255167336456
 31
0.0
 70
   128
 13
1489.444566197295
 23
3106.4724590445289
 33
0.0
 14
2979.444566197295
 24
2144.11850831228
 34
0.0
1001
ACAD
1000
DSTYLE
1002
{
1070
   287
1070
     3
1070
    40
1040
30.0
1070
   143
1040
0.039
1070
   172
1070
     1
1070
   271
1070
     0
1070
   279
1070
     0
1070
   288
1070
     1
1002
}
  0
LINE
  5
7E62
  8
1
 10
5186.3914073276082
 20
2158.11850831228
 30
0.0
 11
4516.3914073276092
 21
3083.11850831228
 31
0.0
  0
LINE
  5
7E63
  8
1
 10
4516.3914073276082
 20
2158.11850831228
 30
0.0
 11
5186.3914073276092
 21
3083.11850831228
 31
0.0
  0
DIMENSION
  5
7E8C
  8
3
  2
*D17
 10
1322.9647109690641
 20
5701.4301488808142
 30
0.0
 11
1322.9647109690629
 21
6131.5654837189541
 31
0.0
 70
   128
 13
1549.444566197295
 23
6511.4301488808142
 33
0.0
 14
1549.444566197295
 24
5701.4301488808142
 34
0.0
 50
90.0
1001
ACAD
1000
DSTYLE
1002
{
1070
   287
1070
     3
1070
    40
1040
30.0
1070
   143
1040
0.039
1070
   172
1070
     1
1070
   271
1070
     0
1070
   279
1070
     0
1070
   288
1070
     1
1002
}
  0
DIMENSION
  5
7EA6
  8
3
  2
*D18
 10
1322.9647109690629
 20
4928.4301488808132
 30
0.0
 11
1247.964710969062
 21
5314.9301488808142
 31
0.0
 70
     0
 13
1549.444566197295
 23
5701.4301488808142
 33
0.0
 14
1794.4445661972929
 24
4928.4301488808132
 34
0.0
 50
90.0
1001
ACAD
1000
DSTYLE
1002
{
1070
   287
1070
     4
1070
    40
1040
30.0
1070
    75
1070
     1
1070
   143
1040
0.039
1070
   172
1070
     1
1070
   271
1070
     0
1070
   279
1070
     1
1070
   288
1070
     1
1002
}
  0
DIMENSION
  5
7F6A
  8
3
  2
*D19
 10
987.03762638441913
 20
3762.11850831228
 30
0.0
 11
912.03762638441845
 21
3440.61850831228
 31
0.0
 70
     0
 13
1453.189227418748
 23
3119.11850831228
 33
0.0
 14
2176.4445661972941
 24
3762.11850831228
 34
0.0
 50
90.0
1001
ACAD
1000
DSTYLE
1002
{
1070
   287
1070
     4
1070
    40
1040
30.0
1070
    75
1070
     1
1070
   143
1040
0.039
1070
   172
1070
     1
1070
   271
1070
     0
1070
   279
1070
     1
1070
   288
1070
     1
1002
}
  0
LINE
  5
7FF0
  8
1
 10
4516.3914073276092
 20
3762.11850831228
 30
0.0
 11
5186.3914073276092
 21
3762.11850831228
 31
0.0
  0
LINE
  5
8034
  8
1
 10
1794.4445661972941
 20
2144.11850831228
 30
0.0
 11
1794.4445661972941
 21
2019.11850831228
 31
0.0
  0
LINE
  5
8036
  8
1
 10
4446.3914073276092
 20
2144.11850831228
 30
0.0
 11
4446.3914073276092
 21
2019.11850831228
 31
0.0
  0
DIMENSION
  5
8080
  8
3
  2
*D20
 10
2109.444566197295
 20
1810.245248975916
 30
0.0
 11
1829.444566197295
 21
1885.245248975916
 31
0.0
 70
     0
 13
1549.444566197295
 23
2019.11850831228
 33
0.0
 14
2109.444566197295
 24
2019.11850831228
 34
0.0
1001
ACAD
1000
DSTYLE
1002
{
1070
   287
1070
     3
1070
    40
1040
30.0
1070
   143
1040
0.039
1070
   172
1070
     1
1070
   271
1070
     0
1070
   279
1070
     0
1002
}
  0
DIMENSION
  5
808D
  8
3
  2
*D21
 10
2979.444566197295
 20
1810.245248975916
 30
0.0
 11
2544.444566197295
 21
1885.245248975916
 31
0.0
 70
     0
 13
2109.444566197295
 23
2019.11850831228
 33
0.0
 14
2979.444566197295
 24
2019.11850831228
 34
0.0
1001
ACAD
1000
DSTYLE
1002
{
1070
   287
1070
     3
1070
    40
1040
30.0
1070
   143
1040
0.039
1070
   172
1070
     1
1070
   271
1070
     0
1070
   279
1070
     0
1002
}
  0
DIMENSION
  5
809A
  8
3
  2
*D22
 10
4851.3914073276073
 20
1810.245248975916
 30
0.0
 11
4262.3914073276082
 21
1885.245248975916
 31
0.0
 70
     0
 13
3673.3914073276078
 23
2019.11850831228
 33
0.0
 14
4851.3914073276073
 24
2019.11850831228
 34
0.0
1001
ACAD
1000
DSTYLE
1002
{
1070
   287
1070
     3
1070
    40
1040
30.0
1070
   143
1040
0.039
1070
   172
1070
     1
1070
   271
1070
     0
1070
   279
1070
     0
1002
}
  0
DIMENSION
  5
80A9
  8
3
  2
*D23
 10
5256.3914073276082
 20
1810.245248975916
 30
0.0
 11
5053.8914073276082
 21
1885.245248975916
 31
0.0
 70
     0
 13
4851.3914073276073
 23
2019.11850831228
 33
0.0
 14
5256.3914073276082
 24
2019.11850831228
 34
0.0
1001
ACAD
1000
DSTYLE
1002
{
1070
   287
1070
     3
1070
    40
1040
30.0
1070
   143
1040
0.039
1070
   172
1070
     1
1070
   271
1070
     0
1070
   279
1070
     0
1002
}
  0
DIMENSION
  5
80B6
  8
3
  2
*D24
 10
755.36311222476434
 20
2019.11850831228
 30
0.0
 11
680.36311222476411
 21
2890.6185083122809
 31
0.0
 70
     0
 13
2161.444566197295
 23
3762.11850831228
 33
0.0
 14
1549.444566197295
 24
2019.11850831228
 34
0.0
 50
90.0
1001
ACAD
1000
DSTYLE
1002
{
1070
   287
1070
     3
1070
    40
1040
30.0
1070
   143
1040
0.039
1070
   172
1070
     1
1070
   271
1070
     0
1070
   279
1070
     0
1002
}
  0
LINE
  5
80C3
  8
1
 10
1874.444566197295
 20
3039.1185083122791
 30
0.0
 11
2344.444566197295
 21
3039.1185083122791
 31
0.0
  0
LINE
  5
80C5
  8
1
 10
1874.444566197295
 20
3039.1185083122791
 30
0.0
 11
1794.4445661972941
 21
2144.11850831228
 31
0.0
  0
LINE
  5
80C6
  8
1
 10
2344.444566197295
 20
3039.1185083122791
 30
0.0
 11
2424.444566197295
 21
2144.11850831228
 31
0.0
  0
LINE
  5
80CB
  8
1
 10
2344.444566197295
 20
4991.4301488808142
 30
0.0
 11
2141.944566197295
 21
4991.4301488808142
 31
0.0
  0
LINE
  5
80CC
  8
1
 10
2344.444566197295
 20
5673.4301488808142
 30
0.0
 11
2141.944566197295
 21
5673.4301488808142
 31
0.0
  0
LINE
  5
80CD
  8
1
 10
1874.4445661972941
 20
4991.4301488808151
 30
0.0
 11
1874.444566197295
 21
5673.4301488808142
 31
0.0
  0
LINE
  5
80CE
  8
1
 10
2344.444566197295
 20
4991.4301488808151
 30
0.0
 11
2344.444566197295
 21
5673.4301488808142
 31
0.0
  0
LINE
  5
80CF
  8
1
 10
2076.944566197295
 20
4991.4301488808142
 30
0.0
 11
1874.4445661972941
 21
4991.4301488808142
 31
0.0
  0
LINE
  5
80D0
  8
1
 10
2076.9445661972941
 20
5673.4301488808142
 30
0.0
 11
1874.444566197295
 21
5673.4301488808142
 31
0.0
  0
DIMENSION
  5
80E4
  8
3
  2
*D25
 10
5486.3433899616184
 20
2669.11850831228
 30
0.0
 11
5411.3433899616166
 21
3119.1185083122809
 31
0.0
 70
     0
 13
5186.3914073276101
 23
3569.11850831228
 33
0.0
 14
5186.3914073276092
 24
2669.11850831228
 34
0.0
 50
90.0
1001
ACAD
1000
DSTYLE
1002
{
1070
   287
1070
     3
1070
     3
1000
φ<>
1070
    40
1040
30.0
1070
   143
1040
0.039
1070
   172
1070
     1
1070
   271
1070
     0
1070
   279
1070
     0
1002
}
  0
LINE
  5
80E9
  8
1
 10
4474.3914073276092
 20
3086.6185083122791
 30
0.0
 11
4474.3914073276073
 21
2144.11850831228
 31
0.0
  0
LINE
  5
80EA
  8
1
 10
5228.3914073276101
 20
3125.61850831228
 30
0.0
 11
5228.3914073276064
 21
2144.1185083122791
 31
0.0
  0
LINE
  5
80EB
  8
1
 10
5186.3914073276092
 20
3125.61850831228
 30
0.0
 11
5228.3914073276101
 21
3125.61850831228
 31
0.0
  0
ARC
  5
80F1
  8
1
 10
2042.4445661972941
 20
3052.11850831228
 30
0.0
 40
844.0
 50
327.82919203233558
 51
4.5531523872190132
  0
ENDSEC
  0
EOF
