  0
SECTION
  2
HEADER
  9
$ACADVER
  1
AC1027
  9
$ACADMAINTVER
 70
   125
  9
$DWGCODEPAGE
  3
ANSI_932
  9
$LASTSAVEDBY
  1
yasukiyo.ogawa
  9
$REQUIREDVERSIONS
160
                 0
  9
$INSBASE
 10
0.0
 20
0.0
 30
0.0
  9
$EXTMIN
 10
0.0
 20
0.0
 30
0.0
  9
$EXTMAX
 10
6300.0
 20
8850.0
 30
0.0
  9
$LIMMIN
 10
0.0
 20
0.0
  9
$LIMMAX
 10
297.0
 20
210.0
  9
$ORTHOMODE
 70
     1
  9
$REGENMODE
 70
     1
  9
$FILLMODE
 70
     0
  9
$QTEXTMODE
 70
     0
  9
$MIRRTEXT
 70
     1
  9
$LTSCALE
 40
100.0
  9
$ATTMODE
 70
     1
  9
$TEXTSIZE
 40
180.0
  9
$TRACEWID
 40
0.05
  9
$TEXTSTYLE
  7
STANDARD
  9
$CLAYER
  8
3
  9
$CELTYPE
  6
BYLAYER
  9
$CECOLOR
 62
   256
  9
$CELTSCALE
 40
1.0
  9
$DISPSILH
 70
     0
  9
$DIMSCALE
 40
30.0
  9
$DIMASZ
 40
2.0
  9
$DIMEXO
 40
0.5
  9
$DIMDLI
 40
10.0
  9
$DIMRND
 40
0.0
  9
$DIMDLE
 40
0.0
  9
$DIMEXE
 40
1.0
  9
$DIMTP
 40
1.0
  9
$DIMTM
 40
1.0
  9
$DIMTXT
 40
3.0
  9
$DIMCEN
 40
0.0
  9
$DIMTSZ
 40
0.0
  9
$DIMTOL
 70
     0
  9
$DIMLIM
 70
     0
  9
$DIMTIH
 70
     0
  9
$DIMTOH
 70
     0
  9
$DIMSE1
 70
     0
  9
$DIMSE2
 70
     0
  9
$DIMTAD
 70
     1
  9
$DIMZIN
 70
     8
  9
$DIMBLK
  1

  9
$DIMASO
 70
     1
  9
$DIMSHO
 70
     1
  9
$DIMPOST
  1
(<>)
  9
$DIMAPOST
  1

  9
$DIMALT
 70
     0
  9
$DIMALTD
 70
     2
  9
$DIMALTF
 40
0.039
  9
$DIMLFAC
 40
1.0
  9
$DIMTOFL
 70
     1
  9
$DIMTVP
 40
0.0
  9
$DIMTIX
 70
     0
  9
$DIMSOXD
 70
     0
  9
$DIMSAH
 70
     1
  9
$DIMBLK1
  1
OPEN
  9
$DIMBLK2
  1
OPEN
  9
$DIMSTYLE
  2
IGA
  9
$DIMCLRD
 70
     0
  9
$DIMCLRE
 70
     0
  9
$DIMCLRT
 70
     0
  9
$DIMTFAC
 40
10.0
  9
$DIMGAP
 40
1.0
  9
$DIMJUST
 70
     0
  9
$DIMSD1
 70
     0
  9
$DIMSD2
 70
     0
  9
$DIMTOLJ
 70
     1
  9
$DIMTZIN
 70
     8
  9
$DIMALTZ
 70
     0
  9
$DIMALTTZ
 70
     0
  9
$DIMUPT
 70
     0
  9
$DIMDEC
 70
     0
  9
$DIMTDEC
 70
     0
  9
$DIMALTU
 70
     2
  9
$DIMALTTD
 70
     2
  9
$DIMTXSTY
  7
STANDARD
  9
$DIMAUNIT
 70
     0
  9
$DIMADEC
 70
     0
  9
$DIMALTRND
 40
0.0
  9
$DIMAZIN
 70
     0
  9
$DIMDSEP
 70
    46
  9
$DIMATFIT
 70
     3
  9
$DIMFRAC
 70
     0
  9
$DIMLDRBLK
  1
OPEN
  9
$DIMLUNIT
 70
     2
  9
$DIMLWD
 70
    -2
  9
$DIMLWE
 70
    -2
  9
$DIMTMOVE
 70
     2
  9
$DIMFXL
 40
1.0
  9
$DIMFXLON
 70
     0
  9
$DIMJOGANG
 40
0.7853981633974483
  9
$DIMTFILL
 70
     0
  9
$DIMTFILLCLR
 70
     0
  9
$DIMARCSYM
 70
     0
  9
$DIMLTYPE
  6

  9
$DIMLTEX1
  6

  9
$DIMLTEX2
  6

  9
$DIMTXTDIRECTION
 70
     0
  9
$LUNITS
 70
     2
  9
$LUPREC
 70
     3
  9
$SKETCHINC
 40
0.1
  9
$FILLETRAD
 40
50.0
  9
$AUNITS
 70
     0
  9
$AUPREC
 70
     0
  9
$MENU
  1
acad
  9
$ELEVATION
 40
0.0
  9
$PELEVATION
 40
0.0
  9
$THICKNESS
 40
0.0
  9
$LIMCHECK
 70
     0
  9
$CHAMFERA
 40
0.5
  9
$CHAMFERB
 40
0.5
  9
$CHAMFERC
 40
20.0
  9
$CHAMFERD
 40
0.0
  9
$SKPOLY
 70
     0
  9
$TDCREATE
 40
2451382.416550926
  9
$TDUCREATE
 40
2451382.041559607
  9
$TDUPDATE
 40
2460241.602581019
  9
$TDUUPDATE
 40
2460241.227582350
  9
$TDINDWG
 40
0.0373725810
  9
$TDUSRTIMER
 40
0.0373725810
  9
$USRTIMER
 70
     1
  9
$ANGBASE
 50
0.0
  9
$ANGDIR
 70
     0
  9
$PDMODE
 70
     0
  9
$PDSIZE
 40
0.0
  9
$PLINEWID
 40
0.0
  9
$SPLFRAME
 70
     0
  9
$SPLINETYPE
 70
     6
  9
$SPLINESEGS
 70
     8
  9
$HANDSEED
  5
843C
  9
$SURFTAB1
 70
     6
  9
$SURFTAB2
 70
     6
  9
$SURFTYPE
 70
     6
  9
$SURFU
 70
     6
  9
$SURFV
 70
     6
  9
$UCSBASE
  2

  9
$UCSNAME
  2

  9
$UCSORG
 10
0.0
 20
0.0
 30
0.0
  9
$UCSXDIR
 10
1.0
 20
0.0
 30
0.0
  9
$UCSYDIR
 10
0.0
 20
1.0
 30
0.0
  9
$UCSORTHOREF
  2

  9
$UCSORTHOVIEW
 70
     0
  9
$UCSORGTOP
 10
0.0
 20
0.0
 30
0.0
  9
$UCSORGBOTTOM
 10
0.0
 20
0.0
 30
0.0
  9
$UCSORGLEFT
 10
0.0
 20
0.0
 30
0.0
  9
$UCSORGRIGHT
 10
0.0
 20
0.0
 30
0.0
  9
$UCSORGFRONT
 10
0.0
 20
0.0
 30
0.0
  9
$UCSORGBACK
 10
0.0
 20
0.0
 30
0.0
  9
$PUCSBASE
  2

  9
$PUCSNAME
  2

  9
$PUCSORG
 10
0.0
 20
0.0
 30
0.0
  9
$PUCSXDIR
 10
1.0
 20
0.0
 30
0.0
  9
$PUCSYDIR
 10
0.0
 20
1.0
 30
0.0
  9
$PUCSORTHOREF
  2

  9
$PUCSORTHOVIEW
 70
     0
  9
$PUCSORGTOP
 10
0.0
 20
0.0
 30
0.0
  9
$PUCSORGBOTTOM
 10
0.0
 20
0.0
 30
0.0
  9
$PUCSORGLEFT
 10
0.0
 20
0.0
 30
0.0
  9
$PUCSORGRIGHT
 10
0.0
 20
0.0
 30
0.0
  9
$PUCSORGFRONT
 10
0.0
 20
0.0
 30
0.0
  9
$PUCSORGBACK
 10
0.0
 20
0.0
 30
0.0
  9
$USERI1
 70
     0
  9
$USERI2
 70
     0
  9
$USERI3
 70
     0
  9
$USERI4
 70
     0
  9
$USERI5
 70
     0
  9
$USERR1
 40
0.0
  9
$USERR2
 40
0.0
  9
$USERR3
 40
0.0
  9
$USERR4
 40
0.0
  9
$USERR5
 40
0.0
  9
$WORLDVIEW
 70
     1
  9
$SHADEDGE
 70
     3
  9
$SHADEDIF
 70
    70
  9
$TILEMODE
 70
     1
  9
$MAXACTVP
 70
    16
  9
$PINSBASE
 10
0.0
 20
0.0
 30
0.0
  9
$PLIMCHECK
 70
     0
  9
$PEXTMIN
 10
1.000000000000000E+20
 20
1.000000000000000E+20
 30
1.000000000000000E+20
  9
$PEXTMAX
 10
-1.000000000000000E+20
 20
-1.000000000000000E+20
 30
-1.000000000000000E+20
  9
$PLIMMIN
 10
0.0
 20
0.0
  9
$PLIMMAX
 10
12.0
 20
9.0
  9
$UNITMODE
 70
     0
  9
$VISRETAIN
 70
     0
  9
$PLINEGEN
 70
     0
  9
$PSLTSCALE
 70
     1
  9
$TREEDEPTH
 70
  3020
  9
$CMLSTYLE
  2
STANDARD
  9
$CMLJUST
 70
     0
  9
$CMLSCALE
 40
20.0
  9
$PROXYGRAPHICS
 70
     1
  9
$MEASUREMENT
 70
     1
  9
$CELWEIGHT
370
    -1
  9
$ENDCAPS
280
     0
  9
$JOINSTYLE
280
     0
  9
$LWDISPLAY
290
     0
  9
$INSUNITS
 70
     0
  9
$HYPERLINKBASE
  1

  9
$STYLESHEET
  1

  9
$XEDIT
290
     1
  9
$CEPSNTYPE
380
     0
  9
$PSTYLEMODE
290
     1
  9
$FINGERPRINTGUID
  2
{75176EE2-E6A1-4D90-972C-97A8B88863E8}
  9
$VERSIONGUID
  2
{6B00A430-6907-41E1-BE21-A86EE5011B62}
  9
$EXTNAMES
290
     1
  9
$PSVPSCALE
 40
0.0
  9
$OLESTARTUP
290
     0
  9
$SORTENTS
280
   127
  9
$INDEXCTL
280
     0
  9
$HIDETEXT
280
     0
  9
$XCLIPFRAME
280
     2
  9
$HALOGAP
280
     0
  9
$OBSCOLOR
 70
   257
  9
$OBSLTYPE
280
     0
  9
$INTERSECTIONDISPLAY
280
     0
  9
$INTERSECTIONCOLOR
 70
   257
  9
$DIMASSOC
280
     1
  9
$PROJECTNAME
  1

  9
$CAMERADISPLAY
290
     0
  9
$LENSLENGTH
 40
50.0
  9
$CAMERAHEIGHT
 40
0.0
  9
$STEPSPERSEC
 40
2.0
  9
$STEPSIZE
 40
6.0
  9
$3DDWFPREC
 40
2.0
  9
$PSOLWIDTH
 40
0.25
  9
$PSOLHEIGHT
 40
4.0
  9
$LOFTANG1
 40
1.570796326794896
  9
$LOFTANG2
 40
1.570796326794896
  9
$LOFTMAG1
 40
0.0
  9
$LOFTMAG2
 40
0.0
  9
$LOFTPARAM
 70
     7
  9
$LOFTNORMALS
280
     1
  9
$LATITUDE
 40
37.795
  9
$LONGITUDE
 40
-122.394
  9
$NORTHDIRECTION
 40
0.0
  9
$TIMEZONE
 70
 -8000
  9
$LIGHTGLYPHDISPLAY
280
     1
  9
$TILEMODELIGHTSYNCH
280
     1
  9
$CMATERIAL
347
809F
  9
$SOLIDHIST
280
     0
  9
$SHOWHIST
280
     1
  9
$DWFFRAME
280
     2
  9
$DGNFRAME
280
     0
  9
$REALWORLDSCALE
290
     1
  9
$INTERFERECOLOR
 62
     1
  9
$INTERFEREOBJVS
345
80C1
  9
$INTERFEREVPVS
346
80BE
  9
$CSHADOW
280
     0
  9
$SHADOWPLANELOCATION
 40
0.0
  0
ENDSEC
  0
SECTION
  2
CLASSES
  0
CLASS
  1
ACDBDICTIONARYWDFLT
  2
AcDbDictionaryWithDefault
  3
ObjectDBX Classes
 90
        0
 91
        1
280
     0
281
     0
  0
CLASS
  1
DICTIONARYVAR
  2
AcDbDictionaryVar
  3
ObjectDBX Classes
 90
        0
 91
       11
280
     0
281
     0
  0
CLASS
  1
MATERIAL
  2
AcDbMaterial
  3
ObjectDBX Classes
 90
     1153
 91
        3
280
     0
281
     0
  0
CLASS
  1
VISUALSTYLE
  2
AcDbVisualStyle
  3
ObjectDBX Classes
 90
     4095
 91
       24
280
     0
281
     0
  0
CLASS
  1
TABLESTYLE
  2
AcDbTableStyle
  3
ObjectDBX Classes
 90
     4095
 91
        1
280
     0
281
     0
  0
CLASS
  1
SCALE
  2
AcDbScale
  3
ObjectDBX Classes
 90
     1153
 91
       17
280
     0
281
     0
  0
CLASS
  1
MLEADERSTYLE
  2
AcDbMLeaderStyle
  3
ACDB_MLEADERSTYLE_CLASS
 90
     4095
 91
        1
280
     0
281
     0
  0
CLASS
  1
ACDBSECTIONVIEWSTYLE
  2
AcDbSectionViewStyle
  3
ObjectDBX Classes
 90
     1025
 91
        1
280
     0
281
     0
  0
CLASS
  1
ACDBDETAILVIEWSTYLE
  2
AcDbDetailViewStyle
  3
ObjectDBX Classes
 90
     1025
 91
        1
280
     0
281
     0
  0
CLASS
  1
CELLSTYLEMAP
  2
AcDbCellStyleMap
  3
ObjectDBX Classes
 90
     1152
 91
        1
280
     0
281
     0
  0
ENDSEC
  0
SECTION
  2
TABLES
  0
TABLE
  2
VPORT
  5
8
330
0
100
AcDbSymbolTable
 70
     1
1001
ACAD
1000
DbSaveVer
1071
      278
  0
VPORT
  5
809C
330
8
100
AcDbSymbolTableRecord
100
AcDbViewportTableRecord
  2
*Active
 70
     0
 10
0.0
 20
0.0
 11
1.0
 21
1.0
 12
4041.443884750218
 22
4425.000020605514
 13
0.0
 23
0.0
 14
10.0
 24
10.0
 15
10.0
 25
10.0
 16
0.0
 26
0.0
 36
1.0
 17
0.0
 27
0.0
 37
0.0
 40
8909.948523567424
 41
2.250314465408805
 42
50.0
 43
0.0
 44
0.0
 50
0.0
 51
0.0
 71
     0
 72
   100
 73
     1
 74
     0
 75
     0
 76
     0
 77
     0
 78
     0
281
     0
 65
     1
110
0.0
120
0.0
130
0.0
111
1.0
121
0.0
131
0.0
112
0.0
122
1.0
132
0.0
 79
     0
146
0.0
348
80BD
 60
     3
 61
     5
292
     1
282
     1
141
0.0
142
0.0
 63
   250
421
  3355443
1001
ACAD_NAV_VCDISPLAY
1070
     3
  0
ENDTAB
  0
TABLE
  2
LTYPE
  5
5
330
0
100
AcDbSymbolTable
 70
     2
  0
LTYPE
  5
13
330
5
100
AcDbSymbolTableRecord
100
AcDbLinetypeTableRecord
  2
BYBLOCK
 70
     0
  3

 72
    65
 73
     0
 40
0.0
  0
LTYPE
  5
14
330
5
100
AcDbSymbolTableRecord
100
AcDbLinetypeTableRecord
  2
BYLAYER
 70
     0
  3

 72
    65
 73
     0
 40
0.0
  0
LTYPE
  5
15
330
5
100
AcDbSymbolTableRecord
100
AcDbLinetypeTableRecord
  2
CONTINUOUS
 70
     0
  3
Solid line
 72
    65
 73
     0
 40
0.0
  0
LTYPE
  5
1F
330
5
100
AcDbSymbolTableRecord
100
AcDbLinetypeTableRecord
  2
CENTER
 70
     0
  3
____ _ ____ _ ____ _ ____ _ ____ _ ____ _ ____ 
 72
    65
 73
     4
 40
2.0
 49
1.25
 74
     0
 49
-0.25
 74
     0
 49
0.25
 74
     0
 49
-0.25
 74
     0
  0
ENDTAB
  0
TABLE
  2
LAYER
  5
2
102
{ACAD_XDICTIONARY
360
8184
102
}
330
0
100
AcDbSymbolTable
 70
     7
  0
LAYER
  5
F
102
{ACAD_XDICTIONARY
360
83F3
102
}
330
2
100
AcDbSymbolTableRecord
100
AcDbLayerTableRecord
  2
0
 70
     0
 62
     7
  6
CONTINUOUS
370
    -3
390
8047
347
80AF
348
0
  0
LAYER
  5
31
102
{ACAD_XDICTIONARY
360
83F5
102
}
330
2
100
AcDbSymbolTableRecord
100
AcDbLayerTableRecord
  2
3
 70
     0
 62
     2
  6
CONTINUOUS
370
    -3
390
8047
347
80AF
348
0
  0
LAYER
  5
76D0
102
{ACAD_XDICTIONARY
360
83F7
102
}
330
2
100
AcDbSymbolTableRecord
100
AcDbLayerTableRecord
  2
2
 70
     0
 62
     3
  6
CENTER
370
    -3
390
8047
347
80AF
348
0
  0
LAYER
  5
76D1
102
{ACAD_XDICTIONARY
360
83F9
102
}
330
2
100
AcDbSymbolTableRecord
100
AcDbLayerTableRecord
  2
1
 70
     0
 62
     4
  6
CONTINUOUS
370
    -3
390
8047
347
80AF
348
0
  0
LAYER
  5
76D2
102
{ACAD_XDICTIONARY
360
83FB
102
}
330
2
100
AcDbSymbolTableRecord
100
AcDbLayerTableRecord
  2
4
 70
     0
 62
     7
  6
CONTINUOUS
370
    -3
390
8047
347
80AF
348
0
  0
LAYER
  5
7B32
330
2
100
AcDbSymbolTableRecord
100
AcDbLayerTableRecord
  2
DEFPOINTS
 70
     0
 62
     7
  6
CONTINUOUS
290
     0
370
    -3
390
8047
347
80AF
348
0
  0
LAYER
  5
8181
102
{ACAD_XDICTIONARY
360
8182
102
}
330
2
100
AcDbSymbolTableRecord
100
AcDbLayerTableRecord
  2
FUTO
 70
     0
 62
     4
  6
CONTINUOUS
370
    -3
390
8047
347
80AF
348
0
  0
ENDTAB
  0
TABLE
  2
STYLE
  5
3
330
0
100
AcDbSymbolTable
 70
     1
  0
STYLE
  5
10
330
3
100
AcDbSymbolTableRecord
100
AcDbTextStyleTableRecord
  2
STANDARD
 70
     0
 40
0.0
 41
1.0
 50
0.0
 71
     0
 42
180.0
  3
simplex.shx
  4
extfont.shx
  0
ENDTAB
  0
TABLE
  2
VIEW
  5
6
330
0
100
AcDbSymbolTable
 70
     0
  0
ENDTAB
  0
TABLE
  2
UCS
  5
7
330
0
100
AcDbSymbolTable
 70
     0
  0
ENDTAB
  0
TABLE
  2
APPID
  5
9
330
0
100
AcDbSymbolTable
 70
     4
  0
APPID
  5
11
330
9
100
AcDbSymbolTableRecord
100
AcDbRegAppTableRecord
  2
ACAD
 70
     0
  0
APPID
  5
8183
330
9
100
AcDbSymbolTableRecord
100
AcDbRegAppTableRecord
  2
ACAD_NAV_VCDISPLAY
 70
     0
  0
APPID
  5
834C
330
9
100
AcDbSymbolTableRecord
100
AcDbRegAppTableRecord
  2
AcadAnnoMonitorAlertIconDisabled
 70
     0
  0
APPID
  5
834D
330
9
100
AcDbSymbolTableRecord
100
AcDbRegAppTableRecord
  2
ACAD_EXEMPT_FROM_CAD_STANDARDS
 70
     0
  0
ENDTAB
  0
TABLE
  2
DIMSTYLE
  5
A
330
0
100
AcDbSymbolTable
 70
     2
100
AcDbDimStyleTable
 71
     1
340
1D
  0
DIMSTYLE
105
1D
102
{ACAD_REACTORS
330
7CF1
330
8016
330
8032
330
803F
330
8373
330
8380
102
}
330
A
100
AcDbSymbolTableRecord
100
AcDbDimStyleTableRecord
  2
IGA
 70
     0
 40
2.0
 41
2.0
 42
0.5
 43
10.0
 44
1.0
 47
1.0
 48
1.0
 73
     0
 74
     0
 77
     1
 78
     8
140
3.0
141
0.0
143
0.03937
146
10.0
147
1.0
173
     1
271
     1
272
     0
279
     2
284
     8
340
10
341
79FC
343
79FC
344
79FC
  0
DIMSTYLE
105
7B34
102
{ACAD_REACTORS
330
7C5E
330
7C5F
330
7C60
330
7CA6
330
7CAB
330
7CC4
330
7CC5
330
7CC6
330
7CCC
330
7CE7
330
7CE8
330
7CE9
330
7CEA
330
7CEB
330
7CEF
330
7D1B
330
7D1C
102
}
330
A
100
AcDbSymbolTableRecord
100
AcDbDimStyleTableRecord
  2
MATSU
 70
     0
 41
2.0
 42
1.0
 43
10.0
 44
1.0
 73
     0
 74
     0
 77
     1
 78
     8
140
3.0
141
0.0
143
0.03937
147
0.5
172
     1
173
     1
176
   256
177
   256
178
   256
284
     8
289
     0
340
10
341
79FC
343
79FC
344
79FC
  0
ENDTAB
  0
TABLE
  2
BLOCK_RECORD
  5
1
330
0
100
AcDbSymbolTable
 70
    52
  0
BLOCK_RECORD
  5
19
102
{ACAD_XDICTIONARY
360
8075
102
}
330
1
100
AcDbSymbolTableRecord
100
AcDbBlockTableRecord
  2
*MODEL_SPACE
340
804A
 70
     0
280
     1
281
     0
  0
BLOCK_RECORD
  5
16
102
{ACAD_XDICTIONARY
360
8073
102
}
330
1
100
AcDbSymbolTableRecord
100
AcDbBlockTableRecord
  2
*PAPER_SPACE
340
804B
 70
     0
280
     1
281
     0
  0
BLOCK_RECORD
  5
79FC
330
1
100
AcDbSymbolTableRecord
100
AcDbBlockTableRecord
  2
_OPEN
340
0
102
{BLKREFS
331
7E4A
331
7E4B
331
7E55
331
7E56
331
7E60
331
7E61
331
7E76
331
7E77
331
7EB8
331
7EB9
331
7EC3
331
7EC4
331
7ECE
331
7ECF
331
7FE9
331
7FEA
331
808A
331
808B
331
7EE4
331
7EE5
331
7EEF
331
7EF0
331
7F33
331
7F34
331
83E8
331
83E9
331
835B
331
835C
331
8364
331
8365
331
83A2
331
83A3
331
83AB
331
83AC
331
83B4
331
83B5
331
83BD
331
83BE
331
83C6
331
83C7
331
83CF
331
83D0
331
83DB
102
}
 70
     0
280
     1
281
     0
  0
BLOCK_RECORD
  5
7A0A
330
1
100
AcDbSymbolTableRecord
100
AcDbBlockTableRecord
  2
YA_N
340
0
102
{BLKREFS
331
7C30
331
7C5C
331
7C9A
331
7C9C
102
}
 70
     0
280
     1
281
     0
  0
BLOCK_RECORD
  5
7A0D
330
1
100
AcDbSymbolTableRecord
100
AcDbBlockTableRecord
  2
ARROW
340
0
 70
     0
280
     1
281
     0
  0
BLOCK_RECORD
  5
7D25
330
1
100
AcDbSymbolTableRecord
100
AcDbBlockTableRecord
  2
*D3
340
0
 70
     0
280
     1
281
     0
  0
BLOCK_RECORD
  5
7D31
330
1
100
AcDbSymbolTableRecord
100
AcDbBlockTableRecord
  2
*D4
340
0
 70
     0
280
     1
281
     0
  0
BLOCK_RECORD
  5
7D3D
330
1
100
AcDbSymbolTableRecord
100
AcDbBlockTableRecord
  2
*D5
340
0
 70
     0
280
     1
281
     0
  0
BLOCK_RECORD
  5
7D49
330
1
100
AcDbSymbolTableRecord
100
AcDbBlockTableRecord
  2
*D6
340
0
 70
     0
280
     1
281
     0
  0
BLOCK_RECORD
  5
7D55
330
1
100
AcDbSymbolTableRecord
100
AcDbBlockTableRecord
  2
*D7
340
0
 70
     0
280
     1
281
     0
  0
BLOCK_RECORD
  5
7D61
330
1
100
AcDbSymbolTableRecord
100
AcDbBlockTableRecord
  2
*D8
340
0
 70
     0
280
     1
281
     0
  0
BLOCK_RECORD
  5
7D6D
330
1
100
AcDbSymbolTableRecord
100
AcDbBlockTableRecord
  2
*D9
340
0
 70
     0
280
     1
281
     0
  0
BLOCK_RECORD
  5
7D79
330
1
100
AcDbSymbolTableRecord
100
AcDbBlockTableRecord
  2
*D10
340
0
 70
     0
280
     1
281
     0
  0
BLOCK_RECORD
  5
7D91
330
1
100
AcDbSymbolTableRecord
100
AcDbBlockTableRecord
  2
*D11
340
0
 70
     0
280
     1
281
     0
  0
BLOCK_RECORD
  5
7DA9
330
1
100
AcDbSymbolTableRecord
100
AcDbBlockTableRecord
  2
*D12
340
0
 70
     0
280
     1
281
     0
  0
BLOCK_RECORD
  5
7DB5
330
1
100
AcDbSymbolTableRecord
100
AcDbBlockTableRecord
  2
*D13
340
0
 70
     0
280
     1
281
     0
  0
BLOCK_RECORD
  5
7DC1
330
1
100
AcDbSymbolTableRecord
100
AcDbBlockTableRecord
  2
*D14
340
0
 70
     0
280
     1
281
     0
  0
BLOCK_RECORD
  5
7DCD
330
1
100
AcDbSymbolTableRecord
100
AcDbBlockTableRecord
  2
*D15
340
0
 70
     0
280
     1
281
     0
  0
BLOCK_RECORD
  5
7DD9
330
1
100
AcDbSymbolTableRecord
100
AcDbBlockTableRecord
  2
*D16
340
0
 70
     0
280
     1
281
     0
  0
BLOCK_RECORD
  5
7DE5
330
1
100
AcDbSymbolTableRecord
100
AcDbBlockTableRecord
  2
*D17
340
0
 70
     0
280
     1
281
     0
  0
BLOCK_RECORD
  5
7DFF
330
1
100
AcDbSymbolTableRecord
100
AcDbBlockTableRecord
  2
*D18
340
0
 70
     0
280
     1
281
     0
  0
BLOCK_RECORD
  5
7E24
330
1
100
AcDbSymbolTableRecord
100
AcDbBlockTableRecord
  2
*D19
340
0
 70
     0
280
     1
281
     0
  0
BLOCK_RECORD
  5
7E2F
330
1
100
AcDbSymbolTableRecord
100
AcDbBlockTableRecord
  2
*D20
340
0
 70
     0
280
     1
281
     0
  0
BLOCK_RECORD
  5
7FAE
330
1
100
AcDbSymbolTableRecord
100
AcDbBlockTableRecord
  2
_DOT
340
0
102
{BLKREFS
331
83DA
102
}
 70
     0
280
     1
281
     0
  0
BLOCK_RECORD
  5
800A
330
1
100
AcDbSymbolTableRecord
100
AcDbBlockTableRecord
  2
*D22
340
0
 70
     0
280
     1
281
     0
  0
BLOCK_RECORD
  5
8026
330
1
100
AcDbSymbolTableRecord
100
AcDbBlockTableRecord
  2
_NONE
340
0
 70
     0
280
     1
281
     0
  0
BLOCK_RECORD
  5
802A
330
1
100
AcDbSymbolTableRecord
100
AcDbBlockTableRecord
  2
*D24
340
0
 70
     0
280
     1
281
     0
  0
BLOCK_RECORD
  5
8033
330
1
100
AcDbSymbolTableRecord
100
AcDbBlockTableRecord
  2
*D25
340
0
 70
     0
280
     1
281
     0
  0
BLOCK_RECORD
  5
8374
330
1
100
AcDbSymbolTableRecord
100
AcDbBlockTableRecord
  2
*D50
340
0
 70
     0
280
     1
281
     0
  0
BLOCK_RECORD
  5
8381
330
1
100
AcDbSymbolTableRecord
100
AcDbBlockTableRecord
  2
*D51
340
0
 70
     0
280
     1
281
     0
  0
ENDTAB
  0
ENDSEC
  0
SECTION
  2
BLOCKS
  0
BLOCK
  5
1A
330
19
100
AcDbEntity
  8
0
100
AcDbBlockBegin
  2
*MODEL_SPACE
 70
     0
 10
0.0
 20
0.0
 30
0.0
  3
*MODEL_SPACE
  1

  0
ENDBLK
  5
1B
330
19
100
AcDbEntity
  8
0
100
AcDbBlockEnd
  0
BLOCK
  5
17
330
16
100
AcDbEntity
 67
     1
  8
0
100
AcDbBlockBegin
  2
*PAPER_SPACE
 70
     0
 10
0.0
 20
0.0
 30
0.0
  3
*PAPER_SPACE
  1

  0
ENDBLK
  5
18
330
16
100
AcDbEntity
 67
     1
  8
0
100
AcDbBlockEnd
  0
BLOCK
  5
7A00
330
79FC
100
AcDbEntity
  8
0
100
AcDbBlockBegin
  2
_OPEN
 70
     0
 10
0.0
 20
0.0
 30
0.0
  3
_OPEN
  1

  0
LINE
  5
79FD
330
79FC
100
AcDbEntity
  8
0
  6
ByBlock
 62
     0
100
AcDbLine
 10
-1.0
 20
0.1666666666666666
 30
0.0
 11
0.0
 21
0.0
 31
0.0
  0
LINE
  5
79FE
330
79FC
100
AcDbEntity
  8
0
  6
ByBlock
 62
     0
100
AcDbLine
 10
0.0
 20
0.0
 30
0.0
 11
-1.0
 21
-0.1666666666666666
 31
0.0
  0
LINE
  5
79FF
330
79FC
100
AcDbEntity
  8
0
  6
ByBlock
 62
     0
100
AcDbLine
 10
0.0
 20
0.0
 30
0.0
 11
-1.0
 21
0.0
 31
0.0
  0
ENDBLK
  5
7A01
330
79FC
100
AcDbEntity
  8
0
100
AcDbBlockEnd
  0
BLOCK
  5
7A0B
330
7A0A
100
AcDbEntity
  8
0
100
AcDbBlockBegin
  2
YA_N
 70
     0
 10
0.0
 20
0.0
 30
0.0
  3
YA_N
  1

  0
ENDBLK
  5
7A0C
330
7A0A
100
AcDbEntity
  8
0
100
AcDbBlockEnd
  0
BLOCK
  5
7A11
330
7A0D
100
AcDbEntity
  8
0
100
AcDbBlockBegin
  2
ARROW
 70
     0
 10
0.0
 20
0.0
 30
0.0
  3
ARROW
  1

  0
LINE
  5
7A0E
330
7A0D
100
AcDbEntity
  8
0
100
AcDbLine
 10
-0.9999999999999991
 20
0.1666666667000003
 30
0.0
 11
0.0
 21
0.0
 31
0.0
  0
LINE
  5
7A0F
330
7A0D
100
AcDbEntity
  8
0
100
AcDbLine
 10
-0.9999999999999991
 20
0.0
 30
0.0
 11
0.0
 21
0.0
 31
0.0
  0
LINE
  5
7A10
330
7A0D
100
AcDbEntity
  8
0
100
AcDbLine
 10
-0.9999999999999991
 20
-0.1666666667000003
 30
0.0
 11
0.0
 21
0.0
 31
0.0
  0
ENDBLK
  5
7A12
330
7A0D
100
AcDbEntity
  8
0
100
AcDbBlockEnd
  0
BLOCK
  5
7E3B
330
7D25
100
AcDbEntity
  8
0
100
AcDbBlockBegin
  2
*D3
 70
     1
 10
0.0
 20
0.0
 30
0.0
  3
*D3
  1

  0
LINE
  5
83B1
330
7D25
100
AcDbEntity
  8
3
440
 16777216
370
    -2
100
AcDbLine
 10
2630.777425009979
 20
2085.894778991862
 30
0.0
 11
2630.777425009979
 21
1935.475121309908
 31
0.0
  0
LINE
  5
83B2
330
7D25
100
AcDbEntity
  8
3
440
 16777216
370
    -2
100
AcDbLine
 10
2130.777425009979
 20
2085.894778991862
 30
0.0
 11
2130.777425009979
 21
1935.475121309908
 31
0.0
  0
LINE
  5
83B3
330
7D25
100
AcDbEntity
  8
3
440
 16777216
370
    -2
100
AcDbLine
 10
2570.777425009979
 20
1965.475121309908
 30
0.0
 11
2190.777425009979
 21
1965.475121309908
 31
0.0
  0
INSERT
  5
83B4
330
7D25
100
AcDbEntity
  8
3
440
 16777216
370
    -2
100
AcDbBlockReference
  2
_OPEN
 10
2630.777425009979
 20
1965.475121309908
 30
0.0
 41
60.0
 42
60.0
 43
60.0
  0
INSERT
  5
83B5
330
7D25
100
AcDbEntity
  8
3
440
 16777216
370
    -2
100
AcDbBlockReference
  2
_OPEN
 10
2130.777425009979
 20
1965.475121309908
 30
0.0
 41
60.0
 42
60.0
 43
60.0
 50
180.0
  0
MTEXT
  5
83B6
330
7D25
100
AcDbEntity
  8
3
440
 16777216
100
AcDbMText
 10
2380.777425009979
 20
2025.475121309908
 30
0.0
 40
90.0
 41
0.0
 46
0.0
 71
     5
 72
     1
  1
\A1;500
 73
     1
 44
1.0
  0
POINT
  5
83B7
330
7D25
100
AcDbEntity
  8
DEFPOINTS
 62
     0
440
 16777216
100
AcDbPoint
 10
2630.777425009979
 20
2115.894778991862
 30
0.0
  0
POINT
  5
83B8
330
7D25
100
AcDbEntity
  8
DEFPOINTS
 62
     0
440
 16777216
100
AcDbPoint
 10
2130.777425009979
 20
2115.894778991862
 30
0.0
  0
POINT
  5
83B9
330
7D25
100
AcDbEntity
  8
DEFPOINTS
 62
     0
440
 16777216
100
AcDbPoint
 10
2130.777425009979
 20
1965.475121309908
 30
0.0
  0
ENDBLK
  5
7E45
330
7D25
100
AcDbEntity
  8
0
100
AcDbBlockEnd
  0
BLOCK
  5
7E46
330
7D31
100
AcDbEntity
  8
0
100
AcDbBlockBegin
  2
*D4
 70
     1
 10
0.0
 20
0.0
 30
0.0
  3
*D4
  1

  0
LINE
  5
7E47
330
7D31
100
AcDbEntity
  8
0
  6
ByBlock
440
 16777216
100
AcDbLine
 10
3038.444959879841
 20
713.8876154094814
 30
0.0
 11
3186.790303421906
 21
713.8876154094814
 31
0.0
  0
LINE
  5
7E48
330
7D31
100
AcDbEntity
  8
0
  6
ByBlock
440
 16777216
100
AcDbLine
 10
3038.444959879841
 20
1538.887615409481
 30
0.0
 11
3186.790303421906
 21
1538.887615409481
 31
0.0
  0
LINE
  5
7E49
330
7D31
100
AcDbEntity
  8
0
  6
ByBlock
440
 16777216
100
AcDbLine
 10
3156.790303421905
 20
773.8876154094814
 30
0.0
 11
3156.790303421905
 21
1478.887615409481
 31
0.0
  0
INSERT
  5
7E4A
330
7D31
100
AcDbEntity
  8
0
  6
ByBlock
440
 16777216
100
AcDbBlockReference
  2
_OPEN
 10
3156.790303421905
 20
713.8876154094814
 30
0.0
 41
60.0
 42
60.0
 43
60.0
 50
270.0
  0
INSERT
  5
7E4B
330
7D31
100
AcDbEntity
  8
0
  6
ByBlock
440
 16777216
100
AcDbBlockReference
  2
_OPEN
 10
3156.790303421905
 20
1538.887615409481
 30
0.0
 41
60.0
 42
60.0
 43
60.0
 50
90.0
  0
MTEXT
  5
7E4C
330
7D31
100
AcDbEntity
  8
0
  6
ByBlock
440
 16777216
100
AcDbMText
 10
3096.790303421905
 20
1126.387615409481
 30
0.0
 40
90.0
 41
0.0
 46
0.0
 71
     5
 72
     5
  1
\A1;825
 11
0.0
 21
1.0
 31
0.0
 73
     1
 44
1.0
  0
POINT
  5
7E4D
330
7D31
100
AcDbEntity
  8
DEFPOINTS
  6
ByBlock
 62
     0
440
 16777216
100
AcDbPoint
 10
3008.444959879842
 20
713.8876154094814
 30
0.0
  0
POINT
  5
7E4E
330
7D31
100
AcDbEntity
  8
DEFPOINTS
  6
ByBlock
 62
     0
440
 16777216
100
AcDbPoint
 10
3008.444959879842
 20
1538.887615409481
 30
0.0
  0
POINT
  5
7E4F
330
7D31
100
AcDbEntity
  8
DEFPOINTS
  6
ByBlock
 62
     0
440
 16777216
100
AcDbPoint
 10
3156.790303421905
 20
1538.887615409481
 30
0.0
  0
ENDBLK
  5
7E50
330
7D31
100
AcDbEntity
  8
0
100
AcDbBlockEnd
  0
BLOCK
  5
7E51
330
7D3D
100
AcDbEntity
  8
0
100
AcDbBlockBegin
  2
*D5
 70
     1
 10
0.0
 20
0.0
 30
0.0
  3
*D5
  1

  0
LINE
  5
7E52
330
7D3D
100
AcDbEntity
  8
0
  6
ByBlock
440
 16777216
100
AcDbLine
 10
3038.444959879841
 20
713.8876154094814
 30
0.0
 11
3339.073705995708
 21
713.8876154094814
 31
0.0
  0
LINE
  5
7E53
330
7D3D
100
AcDbEntity
  8
0
  6
ByBlock
440
 16777216
100
AcDbLine
 10
3159.916751730233
 20
1561.887615409481
 30
0.0
 11
3339.073705995708
 21
1561.887615409481
 31
0.0
  0
LINE
  5
7E54
330
7D3D
100
AcDbEntity
  8
0
  6
ByBlock
440
 16777216
100
AcDbLine
 10
3309.073705995709
 20
773.8876154094814
 30
0.0
 11
3309.073705995709
 21
1501.887615409481
 31
0.0
  0
INSERT
  5
7E55
330
7D3D
100
AcDbEntity
  8
0
  6
ByBlock
440
 16777216
100
AcDbBlockReference
  2
_OPEN
 10
3309.073705995709
 20
713.8876154094814
 30
0.0
 41
60.0
 42
60.0
 43
60.0
 50
270.0
  0
INSERT
  5
7E56
330
7D3D
100
AcDbEntity
  8
0
  6
ByBlock
440
 16777216
100
AcDbBlockReference
  2
_OPEN
 10
3309.073705995709
 20
1561.887615409481
 30
0.0
 41
60.0
 42
60.0
 43
60.0
 50
90.0
  0
MTEXT
  5
7E57
330
7D3D
100
AcDbEntity
  8
0
  6
ByBlock
440
 16777216
100
AcDbMText
 10
3249.073705995709
 20
1137.887615409481
 30
0.0
 40
90.0
 41
0.0
 46
0.0
 71
     5
 72
     5
  1
\A1;848
 11
0.0
 21
1.0
 31
0.0
 73
     1
 44
1.0
  0
POINT
  5
7E58
330
7D3D
100
AcDbEntity
  8
DEFPOINTS
  6
ByBlock
 62
     0
440
 16777216
100
AcDbPoint
 10
3008.444959879842
 20
713.8876154094814
 30
0.0
  0
POINT
  5
7E59
330
7D3D
100
AcDbEntity
  8
DEFPOINTS
  6
ByBlock
 62
     0
440
 16777216
100
AcDbPoint
 10
3129.916751730232
 20
1561.887615409481
 30
0.0
  0
POINT
  5
7E5A
330
7D3D
100
AcDbEntity
  8
DEFPOINTS
  6
ByBlock
 62
     0
440
 16777216
100
AcDbPoint
 10
3309.073705995709
 20
1561.887615409481
 30
0.0
  0
ENDBLK
  5
7E5B
330
7D3D
100
AcDbEntity
  8
0
100
AcDbBlockEnd
  0
BLOCK
  5
7E5C
330
7D49
100
AcDbEntity
  8
0
100
AcDbBlockBegin
  2
*D6
 70
     1
 10
0.0
 20
0.0
 30
0.0
  3
*D6
  1

  0
LINE
  5
7E5D
330
7D49
100
AcDbEntity
  8
0
  6
ByBlock
440
 16777216
100
AcDbLine
 10
3159.916751730233
 20
1561.887615409481
 30
0.0
 11
3502.525232434497
 21
1561.887615409481
 31
0.0
  0
LINE
  5
7E5E
330
7D49
100
AcDbEntity
  8
0
  6
ByBlock
440
 16777216
100
AcDbLine
 10
2993.444959879841
 20
601.8876154094814
 30
0.0
 11
3502.525232434497
 21
601.8876154094814
 31
0.0
  0
LINE
  5
7E5F
330
7D49
100
AcDbEntity
  8
0
  6
ByBlock
440
 16777216
100
AcDbLine
 10
3472.525232434497
 20
1501.887615409481
 30
0.0
 11
3472.525232434497
 21
661.8876154094814
 31
0.0
  0
INSERT
  5
7E60
330
7D49
100
AcDbEntity
  8
0
  6
ByBlock
440
 16777216
100
AcDbBlockReference
  2
_OPEN
 10
3472.525232434497
 20
1561.887615409481
 30
0.0
 41
60.0
 42
60.0
 43
60.0
 50
90.0
  0
INSERT
  5
7E61
330
7D49
100
AcDbEntity
  8
0
  6
ByBlock
440
 16777216
100
AcDbBlockReference
  2
_OPEN
 10
3472.525232434497
 20
601.8876154094814
 30
0.0
 41
60.0
 42
60.0
 43
60.0
 50
270.0
  0
MTEXT
  5
7E62
330
7D49
100
AcDbEntity
  8
0
  6
ByBlock
440
 16777216
100
AcDbMText
 10
3412.525232434497
 20
1081.887615409481
 30
0.0
 40
90.0
 41
0.0
 46
0.0
 71
     5
 72
     5
  1
\A1;960
 11
0.0
 21
1.0
 31
0.0
 73
     1
 44
1.0
  0
POINT
  5
7E63
330
7D49
100
AcDbEntity
  8
DEFPOINTS
  6
ByBlock
 62
     0
440
 16777216
100
AcDbPoint
 10
3129.916751730232
 20
1561.887615409481
 30
0.0
  0
POINT
  5
7E64
330
7D49
100
AcDbEntity
  8
DEFPOINTS
  6
ByBlock
 62
     0
440
 16777216
100
AcDbPoint
 10
2963.444959879842
 20
601.8876154094814
 30
0.0
  0
POINT
  5
7E65
330
7D49
100
AcDbEntity
  8
DEFPOINTS
  6
ByBlock
 62
     0
440
 16777216
100
AcDbPoint
 10
3472.525232434497
 20
601.8876154094814
 30
0.0
  0
ENDBLK
  5
7E66
330
7D49
100
AcDbEntity
  8
0
100
AcDbBlockEnd
  0
BLOCK
  5
7E67
330
7D55
100
AcDbEntity
  8
0
100
AcDbBlockBegin
  2
*D7
 70
     1
 10
0.0
 20
0.0
 30
0.0
  3
*D7
  1

  0
LINE
  5
8358
330
7D55
100
AcDbEntity
  8
3
440
 16777216
370
    -2
100
AcDbLine
 10
2130.777425009979
 20
3832.168572762006
 30
0.0
 11
2130.777425009979
 21
4014.494749381888
 31
0.0
  0
LINE
  5
8359
330
7D55
100
AcDbEntity
  8
3
440
 16777216
370
    -2
100
AcDbLine
 10
1454.77742500998
 20
3226.894778991862
 30
0.0
 11
1454.77742500998
 21
4014.494749381888
 31
0.0
  0
LINE
  5
835A
330
7D55
100
AcDbEntity
  8
3
440
 16777216
370
    -2
100
AcDbLine
 10
2070.777425009979
 20
3984.494749381887
 30
0.0
 11
1514.777425009979
 21
3984.494749381887
 31
0.0
  0
INSERT
  5
835B
330
7D55
100
AcDbEntity
  8
3
440
 16777216
370
    -2
100
AcDbBlockReference
  2
_OPEN
 10
2130.777425009979
 20
3984.494749381887
 30
0.0
 41
60.0
 42
60.0
 43
60.0
  0
INSERT
  5
835C
330
7D55
100
AcDbEntity
  8
3
440
 16777216
370
    -2
100
AcDbBlockReference
  2
_OPEN
 10
1454.77742500998
 20
3984.494749381887
 30
0.0
 41
60.0
 42
60.0
 43
60.0
 50
180.0
  0
MTEXT
  5
835D
330
7D55
100
AcDbEntity
  8
3
440
 16777216
100
AcDbMText
 10
1792.777425009979
 20
4044.494749381887
 30
0.0
 40
90.0
 41
0.0
 46
0.0
 71
     5
 72
     1
  1
\A1;676
 73
     1
 44
1.0
  0
POINT
  5
835E
330
7D55
100
AcDbEntity
  8
DEFPOINTS
 62
     0
440
 16777216
100
AcDbPoint
 10
2130.777425009979
 20
3802.168572762006
 30
0.0
  0
POINT
  5
835F
330
7D55
100
AcDbEntity
  8
DEFPOINTS
 62
     0
440
 16777216
100
AcDbPoint
 10
1454.77742500998
 20
3196.894778991862
 30
0.0
  0
POINT
  5
8360
330
7D55
100
AcDbEntity
  8
DEFPOINTS
 62
     0
440
 16777216
100
AcDbPoint
 10
1454.77742500998
 20
3984.494749381887
 30
0.0
  0
ENDBLK
  5
7E71
330
7D55
100
AcDbEntity
  8
0
100
AcDbBlockEnd
  0
BLOCK
  5
7E72
330
7D61
100
AcDbEntity
  8
0
100
AcDbBlockBegin
  2
*D8
 70
     1
 10
0.0
 20
0.0
 30
0.0
  3
*D8
  1

  0
LINE
  5
7E73
330
7D61
100
AcDbEntity
  8
0
  6
ByBlock
440
 16777216
100
AcDbLine
 10
5476.207505112643
 20
1161.887615409481
 30
0.0
 11
5724.703349046961
 21
1161.887615409481
 31
0.0
  0
LINE
  5
7E74
330
7D61
100
AcDbEntity
  8
0
  6
ByBlock
440
 16777216
100
AcDbLine
 10
5476.207505112643
 20
1961.887615409481
 30
0.0
 11
5724.703349046961
 21
1961.887615409481
 31
0.0
  0
LINE
  5
7E75
330
7D61
100
AcDbEntity
  8
0
  6
ByBlock
440
 16777216
100
AcDbLine
 10
5694.703349046962
 20
1221.887615409481
 30
0.0
 11
5694.703349046962
 21
1901.887615409481
 31
0.0
  0
INSERT
  5
7E76
330
7D61
100
AcDbEntity
  8
0
  6
ByBlock
440
 16777216
100
AcDbBlockReference
  2
_OPEN
 10
5694.703349046962
 20
1161.887615409481
 30
0.0
 41
60.0
 42
60.0
 43
60.0
 50
270.0
  0
INSERT
  5
7E77
330
7D61
100
AcDbEntity
  8
0
  6
ByBlock
440
 16777216
100
AcDbBlockReference
  2
_OPEN
 10
5694.703349046962
 20
1961.887615409481
 30
0.0
 41
60.0
 42
60.0
 43
60.0
 50
90.0
  0
MTEXT
  5
7E78
330
7D61
100
AcDbEntity
  8
0
  6
ByBlock
440
 16777216
100
AcDbMText
 10
5634.703349046962
 20
1561.887615409481
 30
0.0
 40
90.0
 41
0.0
 46
0.0
 71
     5
 72
     5
  1
\A1;φ800
 11
0.0
 21
1.0
 31
0.0
 73
     1
 44
1.0
  0
POINT
  5
7E79
330
7D61
100
AcDbEntity
  8
DEFPOINTS
  6
ByBlock
 62
     0
440
 16777216
100
AcDbPoint
 10
5446.207505112644
 20
1161.887615409481
 30
0.0
  0
POINT
  5
7E7A
330
7D61
100
AcDbEntity
  8
DEFPOINTS
  6
ByBlock
 62
     0
440
 16777216
100
AcDbPoint
 10
5446.207505112644
 20
1961.887615409481
 30
0.0
  0
POINT
  5
7E7B
330
7D61
100
AcDbEntity
  8
DEFPOINTS
  6
ByBlock
 62
     0
440
 16777216
100
AcDbPoint
 10
5694.703349046962
 20
1961.887615409481
 30
0.0
  0
ENDBLK
  5
7E7C
330
7D61
100
AcDbEntity
  8
0
100
AcDbBlockEnd
  0
BLOCK
  5
7E7D
330
7D6D
100
AcDbEntity
  8
0
100
AcDbBlockBegin
  2
*D9
 70
     1
 10
0.0
 20
0.0
 30
0.0
  3
*D9
  1

  0
LINE
  5
83BA
330
7D6D
100
AcDbEntity
  8
3
440
 16777216
370
    -2
100
AcDbLine
 10
3844.239970242782
 20
2085.894778991862
 30
0.0
 11
3844.239970242782
 21
1934.792085460638
 31
0.0
  0
LINE
  5
83BB
330
7D6D
100
AcDbEntity
  8
3
440
 16777216
370
    -2
100
AcDbLine
 10
4581.239970242782
 20
2085.894778991862
 30
0.0
 11
4581.239970242782
 21
1934.792085460638
 31
0.0
  0
LINE
  5
83BC
330
7D6D
100
AcDbEntity
  8
3
440
 16777216
370
    -2
100
AcDbLine
 10
3904.239970242781
 20
1964.792085460638
 30
0.0
 11
4521.239970242782
 21
1964.792085460638
 31
0.0
  0
INSERT
  5
83BD
330
7D6D
100
AcDbEntity
  8
3
440
 16777216
370
    -2
100
AcDbBlockReference
  2
_OPEN
 10
3844.239970242782
 20
1964.792085460638
 30
0.0
 41
60.0
 42
60.0
 43
60.0
 50
180.0
  0
INSERT
  5
83BE
330
7D6D
100
AcDbEntity
  8
3
440
 16777216
370
    -2
100
AcDbBlockReference
  2
_OPEN
 10
4581.239970242782
 20
1964.792085460638
 30
0.0
 41
60.0
 42
60.0
 43
60.0
  0
MTEXT
  5
83BF
330
7D6D
100
AcDbEntity
  8
3
440
 16777216
100
AcDbMText
 10
4212.739970242781
 20
2024.792085460638
 30
0.0
 40
90.0
 41
0.0
 46
0.0
 71
     5
 72
     1
  1
\A1;737
 73
     1
 44
1.0
  0
POINT
  5
83C0
330
7D6D
100
AcDbEntity
  8
DEFPOINTS
 62
     0
440
 16777216
100
AcDbPoint
 10
3844.239970242782
 20
2115.894778991862
 30
0.0
  0
POINT
  5
83C1
330
7D6D
100
AcDbEntity
  8
DEFPOINTS
 62
     0
440
 16777216
100
AcDbPoint
 10
4581.239970242782
 20
2115.894778991862
 30
0.0
  0
POINT
  5
83C2
330
7D6D
100
AcDbEntity
  8
DEFPOINTS
 62
     0
440
 16777216
100
AcDbPoint
 10
4581.239970242782
 20
1964.792085460638
 30
0.0
  0
ENDBLK
  5
7E87
330
7D6D
100
AcDbEntity
  8
0
100
AcDbBlockEnd
  0
BLOCK
  5
7E88
330
7D79
100
AcDbEntity
  8
0
100
AcDbBlockBegin
  2
*D10
 70
     1
 10
0.0
 20
0.0
 30
0.0
  3
*D10
  1

  0
LINE
  5
83C3
330
7D79
100
AcDbEntity
  8
3
440
 16777216
370
    -2
100
AcDbLine
 10
4581.239970242782
 20
2085.894778991862
 30
0.0
 11
4581.239970242782
 21
1934.792085460638
 31
0.0
  0
LINE
  5
83C4
330
7D79
100
AcDbEntity
  8
3
440
 16777216
370
    -2
100
AcDbLine
 10
5164.239970242781
 20
2085.894778991862
 30
0.0
 11
5164.239970242781
 21
1934.792085460638
 31
0.0
  0
LINE
  5
83C5
330
7D79
100
AcDbEntity
  8
3
440
 16777216
370
    -2
100
AcDbLine
 10
4641.239970242781
 20
1964.792085460638
 30
0.0
 11
5104.239970242781
 21
1964.792085460638
 31
0.0
  0
INSERT
  5
83C6
330
7D79
100
AcDbEntity
  8
3
440
 16777216
370
    -2
100
AcDbBlockReference
  2
_OPEN
 10
4581.239970242782
 20
1964.792085460638
 30
0.0
 41
60.0
 42
60.0
 43
60.0
 50
180.0
  0
INSERT
  5
83C7
330
7D79
100
AcDbEntity
  8
3
440
 16777216
370
    -2
100
AcDbBlockReference
  2
_OPEN
 10
5164.239970242781
 20
1964.792085460638
 30
0.0
 41
60.0
 42
60.0
 43
60.0
  0
MTEXT
  5
83C8
330
7D79
100
AcDbEntity
  8
3
440
 16777216
100
AcDbMText
 10
4872.739970242781
 20
2024.792085460638
 30
0.0
 40
90.0
 41
0.0
 46
0.0
 71
     5
 72
     1
  1
\A1;583
 73
     1
 44
1.0
  0
POINT
  5
83C9
330
7D79
100
AcDbEntity
  8
DEFPOINTS
 62
     0
440
 16777216
100
AcDbPoint
 10
4581.239970242782
 20
2115.894778991862
 30
0.0
  0
POINT
  5
83CA
330
7D79
100
AcDbEntity
  8
DEFPOINTS
 62
     0
440
 16777216
100
AcDbPoint
 10
5164.239970242781
 20
2115.894778991862
 30
0.0
  0
POINT
  5
83CB
330
7D79
100
AcDbEntity
  8
DEFPOINTS
 62
     0
440
 16777216
100
AcDbPoint
 10
5164.239970242781
 20
1964.792085460638
 30
0.0
  0
ENDBLK
  5
7E92
330
7D79
100
AcDbEntity
  8
0
100
AcDbBlockEnd
  0
BLOCK
  5
7E9E
330
7D91
100
AcDbEntity
  8
0
100
AcDbBlockBegin
  2
*D11
 70
     1
 10
0.0
 20
0.0
 30
0.0
  3
*D11
  1

  0
LINE
  5
83CC
330
7D91
100
AcDbEntity
  8
3
440
 16777216
370
    -2
100
AcDbLine
 10
780.7774250099791
 20
2085.894778991862
 30
0.0
 11
780.7774250099791
 21
1936.138187288527
 31
0.0
  0
LINE
  5
83CD
330
7D91
100
AcDbEntity
  8
3
440
 16777216
370
    -2
100
AcDbLine
 10
2130.777425009979
 20
2085.894778991862
 30
0.0
 11
2130.777425009979
 21
1936.138187288527
 31
0.0
  0
LINE
  5
83CE
330
7D91
100
AcDbEntity
  8
3
440
 16777216
370
    -2
100
AcDbLine
 10
840.7774250099791
 20
1966.138187288527
 30
0.0
 11
2070.777425009979
 21
1966.138187288527
 31
0.0
  0
INSERT
  5
83CF
330
7D91
100
AcDbEntity
  8
3
440
 16777216
370
    -2
100
AcDbBlockReference
  2
_OPEN
 10
780.7774250099791
 20
1966.138187288527
 30
0.0
 41
60.0
 42
60.0
 43
60.0
 50
180.0
  0
INSERT
  5
83D0
330
7D91
100
AcDbEntity
  8
3
440
 16777216
370
    -2
100
AcDbBlockReference
  2
_OPEN
 10
2130.777425009979
 20
1966.138187288527
 30
0.0
 41
60.0
 42
60.0
 43
60.0
  0
MTEXT
  5
83D1
330
7D91
100
AcDbEntity
  8
3
440
 16777216
100
AcDbMText
 10
1455.777425009979
 20
2026.138187288527
 30
0.0
 40
90.0
 41
0.0
 46
0.0
 71
     5
 72
     1
  1
\A1;1350
 73
     1
 44
1.0
  0
POINT
  5
83D2
330
7D91
100
AcDbEntity
  8
DEFPOINTS
 62
     0
440
 16777216
100
AcDbPoint
 10
780.7774250099791
 20
2115.894778991862
 30
0.0
  0
POINT
  5
83D3
330
7D91
100
AcDbEntity
  8
DEFPOINTS
 62
     0
440
 16777216
100
AcDbPoint
 10
2130.777425009979
 20
2115.894778991862
 30
0.0
  0
POINT
  5
83D4
330
7D91
100
AcDbEntity
  8
DEFPOINTS
 62
     0
440
 16777216
100
AcDbPoint
 10
2130.777425009979
 20
1966.138187288527
 30
0.0
  0
ENDBLK
  5
7EA8
330
7D91
100
AcDbEntity
  8
0
100
AcDbBlockEnd
  0
BLOCK
  5
7EB4
330
7DA9
100
AcDbEntity
  8
0
100
AcDbBlockBegin
  2
*D12
 70
     1
 10
0.0
 20
0.0
 30
0.0
  3
*D12
  1

  0
LINE
  5
7EB5
330
7DA9
100
AcDbEntity
  8
0
  6
ByBlock
440
 16777216
100
AcDbLine
 10
1963.444959879841
 20
5305.6229154676
 30
0.0
 11
1963.444959879841
 21
5606.194826451464
 31
0.0
  0
LINE
  5
7EB6
330
7DA9
100
AcDbEntity
  8
0
  6
ByBlock
440
 16777216
100
AcDbLine
 10
2963.444959879842
 20
5305.6229154676
 30
0.0
 11
2963.444959879842
 21
5606.194826451464
 31
0.0
  0
LINE
  5
7EB7
330
7DA9
100
AcDbEntity
  8
0
  6
ByBlock
440
 16777216
100
AcDbLine
 10
2023.444959879842
 20
5576.194826451465
 30
0.0
 11
2903.444959879842
 21
5576.194826451465
 31
0.0
  0
INSERT
  5
7EB8
330
7DA9
100
AcDbEntity
  8
0
  6
ByBlock
440
 16777216
100
AcDbBlockReference
  2
_OPEN
 10
1963.444959879841
 20
5576.194826451465
 30
0.0
 41
60.0
 42
60.0
 43
60.0
 50
180.0
  0
INSERT
  5
7EB9
330
7DA9
100
AcDbEntity
  8
0
  6
ByBlock
440
 16777216
100
AcDbBlockReference
  2
_OPEN
 10
2963.444959879842
 20
5576.194826451465
 30
0.0
 41
60.0
 42
60.0
 43
60.0
  0
MTEXT
  5
7EBA
330
7DA9
100
AcDbEntity
  8
0
  6
ByBlock
440
 16777216
100
AcDbMText
 10
2463.444959879842
 20
5636.194826451465
 30
0.0
 40
90.0
 41
0.0
 46
0.0
 71
     5
 72
     5
  1
\A1;1000
 73
     1
 44
1.0
  0
POINT
  5
7EBB
330
7DA9
100
AcDbEntity
  8
DEFPOINTS
  6
ByBlock
 62
     0
440
 16777216
100
AcDbPoint
 10
1963.444959879841
 20
5275.6229154676
 30
0.0
  0
POINT
  5
7EBC
330
7DA9
100
AcDbEntity
  8
DEFPOINTS
  6
ByBlock
 62
     0
440
 16777216
100
AcDbPoint
 10
2963.444959879842
 20
5275.6229154676
 30
0.0
  0
POINT
  5
7EBD
330
7DA9
100
AcDbEntity
  8
DEFPOINTS
  6
ByBlock
 62
     0
440
 16777216
100
AcDbPoint
 10
2963.444959879842
 20
5576.194826451465
 30
0.0
  0
ENDBLK
  5
7EBE
330
7DA9
100
AcDbEntity
  8
0
100
AcDbBlockEnd
  0
BLOCK
  5
7EBF
330
7DB5
100
AcDbEntity
  8
0
100
AcDbBlockBegin
  2
*D13
 70
     1
 10
0.0
 20
0.0
 30
0.0
  3
*D13
  1

  0
LINE
  5
7EC0
330
7DB5
100
AcDbEntity
  8
0
  6
ByBlock
440
 16777216
100
AcDbLine
 10
1113.444959879841
 20
4785.6229154676
 30
0.0
 11
1113.444959879841
 21
5606.194826451464
 31
0.0
  0
LINE
  5
7EC1
330
7DB5
100
AcDbEntity
  8
0
  6
ByBlock
440
 16777216
100
AcDbLine
 10
1963.444959879841
 20
5305.6229154676
 30
0.0
 11
1963.444959879841
 21
5606.194826451464
 31
0.0
  0
LINE
  5
7EC2
330
7DB5
100
AcDbEntity
  8
0
  6
ByBlock
440
 16777216
100
AcDbLine
 10
1173.444959879841
 20
5576.194826451465
 30
0.0
 11
1903.444959879841
 21
5576.194826451465
 31
0.0
  0
INSERT
  5
7EC3
330
7DB5
100
AcDbEntity
  8
0
  6
ByBlock
440
 16777216
100
AcDbBlockReference
  2
_OPEN
 10
1113.444959879841
 20
5576.194826451465
 30
0.0
 41
60.0
 42
60.0
 43
60.0
 50
180.0
  0
INSERT
  5
7EC4
330
7DB5
100
AcDbEntity
  8
0
  6
ByBlock
440
 16777216
100
AcDbBlockReference
  2
_OPEN
 10
1963.444959879841
 20
5576.194826451465
 30
0.0
 41
60.0
 42
60.0
 43
60.0
  0
MTEXT
  5
7EC5
330
7DB5
100
AcDbEntity
  8
0
  6
ByBlock
440
 16777216
100
AcDbMText
 10
1538.444959879841
 20
5636.194826451465
 30
0.0
 40
90.0
 41
0.0
 46
0.0
 71
     5
 72
     5
  1
\A1;850
 73
     1
 44
1.0
  0
POINT
  5
7EC6
330
7DB5
100
AcDbEntity
  8
DEFPOINTS
  6
ByBlock
 62
     0
440
 16777216
100
AcDbPoint
 10
1113.444959879841
 20
4755.6229154676
 30
0.0
  0
POINT
  5
7EC7
330
7DB5
100
AcDbEntity
  8
DEFPOINTS
  6
ByBlock
 62
     0
440
 16777216
100
AcDbPoint
 10
1963.444959879841
 20
5275.6229154676
 30
0.0
  0
POINT
  5
7EC8
330
7DB5
100
AcDbEntity
  8
DEFPOINTS
  6
ByBlock
 62
     0
440
 16777216
100
AcDbPoint
 10
1963.444959879841
 20
5576.194826451465
 30
0.0
  0
ENDBLK
  5
7EC9
330
7DB5
100
AcDbEntity
  8
0
100
AcDbBlockEnd
  0
BLOCK
  5
7ECA
330
7DC1
100
AcDbEntity
  8
0
100
AcDbBlockBegin
  2
*D14
 70
     1
 10
0.0
 20
0.0
 30
0.0
  3
*D14
  1

  0
LINE
  5
7ECB
330
7DC1
100
AcDbEntity
  8
0
  6
ByBlock
440
 16777216
100
AcDbLine
 10
2993.444959879841
 20
5275.6229154676
 30
0.0
 11
3292.936878494768
 21
5275.6229154676
 31
0.0
  0
LINE
  5
7ECC
330
7DC1
100
AcDbEntity
  8
0
  6
ByBlock
440
 16777216
100
AcDbLine
 10
2993.444959879841
 20
3955.6229154676
 30
0.0
 11
3292.936878494768
 21
3955.6229154676
 31
0.0
  0
LINE
  5
7ECD
330
7DC1
100
AcDbEntity
  8
0
  6
ByBlock
440
 16777216
100
AcDbLine
 10
3262.936878494767
 20
5215.622915467601
 30
0.0
 11
3262.936878494767
 21
4015.6229154676
 31
0.0
  0
INSERT
  5
7ECE
330
7DC1
100
AcDbEntity
  8
0
  6
ByBlock
440
 16777216
100
AcDbBlockReference
  2
_OPEN
 10
3262.936878494767
 20
5275.6229154676
 30
0.0
 41
60.0
 42
60.0
 43
60.0
 50
90.0
  0
INSERT
  5
7ECF
330
7DC1
100
AcDbEntity
  8
0
  6
ByBlock
440
 16777216
100
AcDbBlockReference
  2
_OPEN
 10
3262.936878494767
 20
3955.6229154676
 30
0.0
 41
60.0
 42
60.0
 43
60.0
 50
270.0
  0
MTEXT
  5
7ED0
330
7DC1
100
AcDbEntity
  8
0
  6
ByBlock
440
 16777216
100
AcDbMText
 10
3202.936878494767
 20
4615.6229154676
 30
0.0
 40
90.0
 41
0.0
 46
0.0
 71
     5
 72
     5
  1
\A1;1320
 11
0.0
 21
1.0
 31
0.0
 73
     1
 44
1.0
  0
POINT
  5
7ED1
330
7DC1
100
AcDbEntity
  8
DEFPOINTS
  6
ByBlock
 62
     0
440
 16777216
100
AcDbPoint
 10
2963.444959879842
 20
5275.6229154676
 30
0.0
  0
POINT
  5
7ED2
330
7DC1
100
AcDbEntity
  8
DEFPOINTS
  6
ByBlock
 62
     0
440
 16777216
100
AcDbPoint
 10
2963.444959879842
 20
3955.6229154676
 30
0.0
  0
POINT
  5
7ED3
330
7DC1
100
AcDbEntity
  8
DEFPOINTS
  6
ByBlock
 62
     0
440
 16777216
100
AcDbPoint
 10
3262.936878494767
 20
3955.6229154676
 30
0.0
  0
ENDBLK
  5
7ED4
330
7DC1
100
AcDbEntity
  8
0
100
AcDbBlockEnd
  0
BLOCK
  5
7FE5
330
7DCD
100
AcDbEntity
  8
0
100
AcDbBlockBegin
  2
*D15
 70
     1
 10
0.0
 20
0.0
 30
0.0
  3
*D15
  1

  0
LINE
  5
7FE6
330
7DCD
100
AcDbEntity
  8
0
  6
ByBlock
440
 16777216
100
AcDbLine
 10
750.7774250099791
 20
5879.683739980162
 30
0.0
 11
575.6018393674731
 21
5879.683739980162
 31
0.0
  0
LINE
  5
7FE7
330
7DCD
100
AcDbEntity
  8
0
  6
ByBlock
440
 16777216
100
AcDbLine
 10
750.7774250099791
 20
5079.683739980162
 30
0.0
 11
575.6018393674731
 21
5079.683739980162
 31
0.0
  0
LINE
  5
7FE8
330
7DCD
100
AcDbEntity
  8
0
  6
ByBlock
440
 16777216
100
AcDbLine
 10
605.601839367473
 20
5819.683739980162
 30
0.0
 11
605.601839367473
 21
5139.683739980163
 31
0.0
  0
INSERT
  5
7FE9
330
7DCD
100
AcDbEntity
  8
0
  6
ByBlock
440
 16777216
100
AcDbBlockReference
  2
_OPEN
 10
605.601839367473
 20
5879.683739980162
 30
0.0
 41
60.0
 42
60.0
 43
60.0
 50
90.0
  0
INSERT
  5
7FEA
330
7DCD
100
AcDbEntity
  8
0
  6
ByBlock
440
 16777216
100
AcDbBlockReference
  2
_OPEN
 10
605.601839367473
 20
5079.683739980162
 30
0.0
 41
60.0
 42
60.0
 43
60.0
 50
270.0
  0
MTEXT
  5
7FEB
330
7DCD
100
AcDbEntity
  8
0
  6
ByBlock
440
 16777216
100
AcDbMText
 10
545.6018393674731
 20
5479.683739980163
 30
0.0
 40
90.0
 41
0.0
 46
0.0
 71
     5
 72
     5
  1
\A1;800
 11
0.0
 21
1.0
 31
0.0
 73
     1
 44
1.0
  0
POINT
  5
7FEC
330
7DCD
100
AcDbEntity
  8
DEFPOINTS
  6
ByBlock
 62
     0
440
 16777216
100
AcDbPoint
 10
780.7774250099791
 20
5879.683739980162
 30
0.0
  0
POINT
  5
7FED
330
7DCD
100
AcDbEntity
  8
DEFPOINTS
  6
ByBlock
 62
     0
440
 16777216
100
AcDbPoint
 10
780.7774250099791
 20
5079.683739980162
 30
0.0
  0
POINT
  5
7FEE
330
7DCD
100
AcDbEntity
  8
DEFPOINTS
  6
ByBlock
 62
     0
440
 16777216
100
AcDbPoint
 10
605.601839367473
 20
5079.683739980162
 30
0.0
  0
ENDBLK
  5
7FEF
330
7DCD
100
AcDbEntity
  8
0
100
AcDbBlockEnd
  0
BLOCK
  5
7EE0
330
7DD9
100
AcDbEntity
  8
0
100
AcDbBlockBegin
  2
*D16
 70
     1
 10
0.0
 20
0.0
 30
0.0
  3
*D16
  1

  0
LINE
  5
7EE1
330
7DD9
100
AcDbEntity
  8
0
  6
ByBlock
440
 16777216
100
AcDbLine
 10
1113.444959879841
 20
3925.622915467601
 30
0.0
 11
1113.444959879841
 21
3583.448439770715
 31
0.0
  0
LINE
  5
7EE2
330
7DD9
100
AcDbEntity
  8
0
  6
ByBlock
440
 16777216
100
AcDbLine
 10
2963.444959879842
 20
3925.622915467601
 30
0.0
 11
2963.444959879842
 21
3583.448439770715
 31
0.0
  0
LINE
  5
7EE3
330
7DD9
100
AcDbEntity
  8
0
  6
ByBlock
440
 16777216
100
AcDbLine
 10
1173.444959879841
 20
3613.448439770715
 30
0.0
 11
2903.444959879842
 21
3613.448439770715
 31
0.0
  0
INSERT
  5
7EE4
330
7DD9
100
AcDbEntity
  8
0
  6
ByBlock
440
 16777216
100
AcDbBlockReference
  2
_OPEN
 10
1113.444959879841
 20
3613.448439770715
 30
0.0
 41
60.0
 42
60.0
 43
60.0
 50
180.0
  0
INSERT
  5
7EE5
330
7DD9
100
AcDbEntity
  8
0
  6
ByBlock
440
 16777216
100
AcDbBlockReference
  2
_OPEN
 10
2963.444959879842
 20
3613.448439770715
 30
0.0
 41
60.0
 42
60.0
 43
60.0
  0
MTEXT
  5
7EE6
330
7DD9
100
AcDbEntity
  8
0
  6
ByBlock
440
 16777216
100
AcDbMText
 10
2038.444959879841
 20
3673.448439770715
 30
0.0
 40
90.0
 41
0.0
 46
0.0
 71
     5
 72
     5
  1
\A1;1850
 73
     1
 44
1.0
  0
POINT
  5
7EE7
330
7DD9
100
AcDbEntity
  8
DEFPOINTS
  6
ByBlock
 62
     0
440
 16777216
100
AcDbPoint
 10
1113.444959879841
 20
3955.6229154676
 30
0.0
  0
POINT
  5
7EE8
330
7DD9
100
AcDbEntity
  8
DEFPOINTS
  6
ByBlock
 62
     0
440
 16777216
100
AcDbPoint
 10
2963.444959879842
 20
3955.6229154676
 30
0.0
  0
POINT
  5
7EE9
330
7DD9
100
AcDbEntity
  8
DEFPOINTS
  6
ByBlock
 62
     0
440
 16777216
100
AcDbPoint
 10
2963.444959879842
 20
3613.448439770715
 30
0.0
  0
ENDBLK
  5
7EEA
330
7DD9
100
AcDbEntity
  8
0
100
AcDbBlockEnd
  0
BLOCK
  5
7EEB
330
7DE5
100
AcDbEntity
  8
0
100
AcDbBlockBegin
  2
*D17
 70
     1
 10
0.0
 20
0.0
 30
0.0
  3
*D17
  1

  0
LINE
  5
7EEC
330
7DE5
100
AcDbEntity
  8
0
  6
ByBlock
440
 16777216
100
AcDbLine
 10
4383.907505112644
 20
2159.887615409481
 30
0.0
 11
4383.907505112644
 21
2266.819859761795
 31
0.0
  0
LINE
  5
7EED
330
7DE5
100
AcDbEntity
  8
0
  6
ByBlock
440
 16777216
100
AcDbLine
 10
5443.907505112644
 20
2159.887615409481
 30
0.0
 11
5443.907505112644
 21
2266.819859761795
 31
0.0
  0
LINE
  5
7EEE
330
7DE5
100
AcDbEntity
  8
0
  6
ByBlock
440
 16777216
100
AcDbLine
 10
4443.907505112644
 20
2236.819859761796
 30
0.0
 11
5383.907505112643
 21
2236.819859761796
 31
0.0
  0
INSERT
  5
7EEF
330
7DE5
100
AcDbEntity
  8
0
  6
ByBlock
440
 16777216
100
AcDbBlockReference
  2
_OPEN
 10
4383.907505112644
 20
2236.819859761796
 30
0.0
 41
60.0
 42
60.0
 43
60.0
 50
180.0
  0
INSERT
  5
7EF0
330
7DE5
100
AcDbEntity
  8
0
  6
ByBlock
440
 16777216
100
AcDbBlockReference
  2
_OPEN
 10
5443.907505112644
 20
2236.819859761796
 30
0.0
 41
60.0
 42
60.0
 43
60.0
  0
MTEXT
  5
7EF1
330
7DE5
100
AcDbEntity
  8
0
  6
ByBlock
440
 16777216
100
AcDbMText
 10
4913.907505112644
 20
2296.819859761796
 30
0.0
 40
90.0
 41
0.0
 46
0.0
 71
     5
 72
     5
  1
\A1;1060
 73
     1
 44
1.0
  0
POINT
  5
7EF2
330
7DE5
100
AcDbEntity
  8
DEFPOINTS
  6
ByBlock
 62
     0
440
 16777216
100
AcDbPoint
 10
4383.907505112644
 20
2129.887615409481
 30
0.0
  0
POINT
  5
7EF3
330
7DE5
100
AcDbEntity
  8
DEFPOINTS
  6
ByBlock
 62
     0
440
 16777216
100
AcDbPoint
 10
5443.907505112644
 20
2129.887615409481
 30
0.0
  0
POINT
  5
7EF4
330
7DE5
100
AcDbEntity
  8
DEFPOINTS
  6
ByBlock
 62
     0
440
 16777216
100
AcDbPoint
 10
5443.907505112644
 20
2236.819859761796
 30
0.0
  0
ENDBLK
  5
7EF5
330
7DE5
100
AcDbEntity
  8
0
100
AcDbBlockEnd
  0
BLOCK
  5
7FBF
330
7DFF
100
AcDbEntity
  8
0
100
AcDbBlockBegin
  2
*D18
 70
     1
 10
0.0
 20
0.0
 30
0.0
  3
*D18
  1

  0
LINE
  5
83D5
330
7DFF
100
AcDbEntity
  8
3
 62
     0
440
 16777216
370
    -2
100
AcDbLine
 10
2645.777425009979
 20
2215.894778991862
 30
0.0
 11
3169.857697564634
 21
2215.894778991862
 31
0.0
  0
LINE
  5
83D6
330
7DFF
100
AcDbEntity
  8
3
 62
     0
440
 16777216
370
    -2
100
AcDbLine
 10
2645.777425009979
 20
2115.894778991862
 30
0.0
 11
3169.857697564634
 21
2115.894778991862
 31
0.0
  0
LINE
  5
83D7
330
7DFF
100
AcDbEntity
  8
3
 62
     0
440
 16777216
370
    -2
100
AcDbLine
 10
3139.857697564634
 20
2275.894778991862
 30
0.0
 11
3139.857697564634
 21
2335.894778991862
 31
0.0
  0
LINE
  5
83D8
330
7DFF
100
AcDbEntity
  8
3
 62
     0
440
 16777216
370
    -2
100
AcDbLine
 10
3139.857697564634
 20
2055.894778991862
 30
0.0
 11
3139.857697564634
 21
1721.609064706148
 31
0.0
  0
LINE
  5
83D9
330
7DFF
100
AcDbEntity
  8
3
 62
     0
440
 16777216
370
    -2
100
AcDbLine
 10
3139.857697564634
 20
2215.894778991862
 30
0.0
 11
3139.857697564634
 21
2115.894778991862
 31
0.0
  0
INSERT
  5
83DA
330
7DFF
100
AcDbEntity
  8
3
 62
     0
440
 16777216
370
    -2
100
AcDbBlockReference
  2
_DOT
 10
3139.857697564634
 20
2215.894778991862
 30
0.0
 41
60.0
 42
60.0
 43
60.0
 50
270.0
  0
INSERT
  5
83DB
330
7DFF
100
AcDbEntity
  8
3
 62
     0
440
 16777216
370
    -2
100
AcDbBlockReference
  2
_OPEN
 10
3139.857697564634
 20
2115.894778991862
 30
0.0
 41
60.0
 42
60.0
 43
60.0
 50
90.0
  0
MTEXT
  5
83DC
330
7DFF
100
AcDbEntity
  8
3
 62
     0
440
 16777216
100
AcDbMText
 10
3064.857697564633
 20
1858.751921849005
 30
0.0
 40
90.0
 41
0.0
 46
0.0
 71
     5
 72
     1
  1
\A1;100
 11
0.0000000000000001
 21
1.0
 31
0.0
 73
     1
 44
1.0
  0
POINT
  5
83DD
330
7DFF
100
AcDbEntity
  8
DEFPOINTS
 62
     0
440
 16777216
100
AcDbPoint
 10
2630.777425009979
 20
2215.894778991862
 30
0.0
  0
POINT
  5
83DE
330
7DFF
100
AcDbEntity
  8
DEFPOINTS
 62
     0
440
 16777216
100
AcDbPoint
 10
2630.777425009979
 20
2115.894778991862
 30
0.0
  0
POINT
  5
83DF
330
7DFF
100
AcDbEntity
  8
DEFPOINTS
 62
     0
440
 16777216
100
AcDbPoint
 10
3139.857697564634
 20
2115.894778991862
 30
0.0
  0
ENDBLK
  5
7FCB
330
7DFF
100
AcDbEntity
  8
0
100
AcDbBlockEnd
  0
BLOCK
  5
7F25
330
7E24
100
AcDbEntity
  8
0
100
AcDbBlockBegin
  2
*D19
 70
     1
 10
0.0
 20
0.0
 30
0.0
  3
*D19
  1

  0
LINE
  5
8088
330
7E24
100
AcDbEntity
  8
3
440
 16777216
100
AcDbLine
 10
2675.777425009978
 20
3305.394778991863
 30
0.0
 11
2675.777425009978
 21
4014.494749381888
 31
0.0
  0
LINE
  5
8089
330
7E24
100
AcDbEntity
  8
3
440
 16777216
100
AcDbLine
 10
2190.777425009979
 20
3984.494749381887
 30
0.0
 11
2615.777425009979
 21
3984.494749381887
 31
0.0
  0
INSERT
  5
808A
330
7E24
100
AcDbEntity
  8
3
440
 16777216
100
AcDbBlockReference
  2
_OPEN
 10
2130.777425009979
 20
3984.494749381887
 30
0.0
 41
60.0
 42
60.0
 43
60.0
 50
180.0
  0
INSERT
  5
808B
330
7E24
100
AcDbEntity
  8
3
440
 16777216
100
AcDbBlockReference
  2
_OPEN
 10
2675.777425009978
 20
3984.494749381887
 30
0.0
 41
60.0
 42
60.0
 43
60.0
  0
MTEXT
  5
808C
330
7E24
100
AcDbEntity
  8
3
440
 16777216
100
AcDbMText
 10
2403.277425009979
 20
4044.494749381887
 30
0.0
 40
90.0
 41
0.0
 46
0.0
 71
     5
 72
     5
  1
\A1;545
 73
     1
 44
1.0
  0
POINT
  5
808D
330
7E24
100
AcDbEntity
  8
DEFPOINTS
 62
     0
440
 16777216
100
AcDbPoint
 10
2130.777425009979
 20
3802.168572762006
 30
0.0
  0
POINT
  5
808E
330
7E24
100
AcDbEntity
  8
DEFPOINTS
 62
     0
440
 16777216
100
AcDbPoint
 10
2675.777425009978
 20
3275.394778991862
 30
0.0
  0
POINT
  5
808F
330
7E24
100
AcDbEntity
  8
DEFPOINTS
 62
     0
440
 16777216
100
AcDbPoint
 10
2675.777425009978
 20
3984.494749381887
 30
0.0
  0
ENDBLK
  5
7F2E
330
7E24
100
AcDbEntity
  8
0
100
AcDbBlockEnd
  0
BLOCK
  5
7F2F
330
7E2F
100
AcDbEntity
  8
0
100
AcDbBlockBegin
  2
*D20
 70
     1
 10
0.0
 20
0.0
 30
0.0
  3
*D20
  1

  0
LINE
  5
7F30
330
7E2F
100
AcDbEntity
  8
0
  6
ByBlock
440
 16777216
100
AcDbLine
 10
3008.444959879841
 20
1611.387615409481
 30
0.0
 11
3008.444959879841
 21
2482.203029394709
 31
0.0
  0
LINE
  5
7F31
330
7E2F
100
AcDbEntity
  8
0
  6
ByBlock
440
 16777216
100
AcDbLine
 10
1113.444959879841
 20
731.8876154094814
 30
0.0
 11
1113.444959879841
 21
2482.203029394709
 31
0.0
  0
LINE
  5
7F32
330
7E2F
100
AcDbEntity
  8
0
  6
ByBlock
440
 16777216
100
AcDbLine
 10
2948.444959879841
 20
2452.203029394708
 30
0.0
 11
1173.444959879841
 21
2452.203029394708
 31
0.0
  0
INSERT
  5
7F33
330
7E2F
100
AcDbEntity
  8
0
  6
ByBlock
440
 16777216
100
AcDbBlockReference
  2
_OPEN
 10
3008.444959879841
 20
2452.203029394708
 30
0.0
 41
60.0
 42
60.0
 43
60.0
  0
INSERT
  5
7F34
330
7E2F
100
AcDbEntity
  8
0
  6
ByBlock
440
 16777216
100
AcDbBlockReference
  2
_OPEN
 10
1113.444959879841
 20
2452.203029394708
 30
0.0
 41
60.0
 42
60.0
 43
60.0
 50
180.0
  0
MTEXT
  5
7F35
330
7E2F
100
AcDbEntity
  8
0
  6
ByBlock
440
 16777216
100
AcDbMText
 10
2060.944959879841
 20
2512.203029394708
 30
0.0
 40
90.0
 41
0.0
 46
0.0
 71
     5
 72
     5
  1
\A1;1895
 73
     1
 44
1.0
  0
POINT
  5
7F36
330
7E2F
100
AcDbEntity
  8
DEFPOINTS
  6
ByBlock
 62
     0
440
 16777216
100
AcDbPoint
 10
3008.444959879841
 20
1581.387615409481
 30
0.0
  0
POINT
  5
7F37
330
7E2F
100
AcDbEntity
  8
DEFPOINTS
  6
ByBlock
 62
     0
440
 16777216
100
AcDbPoint
 10
1113.444959879841
 20
701.8876154094814
 30
0.0
  0
POINT
  5
7F38
330
7E2F
100
AcDbEntity
  8
DEFPOINTS
  6
ByBlock
 62
     0
440
 16777216
100
AcDbPoint
 10
1113.444959879841
 20
2452.203029394708
 30
0.0
  0
ENDBLK
  5
7F39
330
7E2F
100
AcDbEntity
  8
0
100
AcDbBlockEnd
  0
BLOCK
  5
7FAF
330
7FAE
100
AcDbEntity
  8
0
100
AcDbBlockBegin
  2
_DOT
 70
     0
 10
0.0
 20
0.0
 30
0.0
  3
_DOT
  1

  0
LWPOLYLINE
  5
7FB8
330
7FAE
100
AcDbEntity
  8
0
  6
ByBlock
 62
     0
100
AcDbPolyline
 90
        2
 70
     1
 43
0.25
 10
-0.125
 20
0.0
 42
1.0
 10
0.125
 20
0.0
 42
1.0
  0
LINE
  5
7FBC
330
7FAE
100
AcDbEntity
  8
0
  6
ByBlock
 62
     0
100
AcDbLine
 10
-0.25
 20
0.0
 30
0.0
 11
-1.0
 21
0.0
 31
0.0
  0
ENDBLK
  5
7FB5
330
7FAE
100
AcDbEntity
  8
0
100
AcDbBlockEnd
  0
BLOCK
  5
800B
330
800A
100
AcDbEntity
  8
0
100
AcDbBlockBegin
  2
*D22
 70
     1
 10
0.0
 20
0.0
 30
0.0
  3
*D22
  1

  0
LINE
  5
8361
330
800A
100
AcDbEntity
  8
3
 62
     0
440
 16777216
370
    -2
100
AcDbLine
 10
2086.77742500998
 20
3813.894778991862
 30
0.0
 11
3170.115840197137
 21
3813.894778991862
 31
0.0
  0
LINE
  5
8362
330
800A
100
AcDbEntity
  8
3
 62
     0
440
 16777216
370
    -2
100
AcDbLine
 10
2812.24921686037
 20
3255.894778991862
 30
0.0
 11
3170.115840197137
 21
3255.894778991862
 31
0.0
  0
LINE
  5
8363
330
800A
100
AcDbEntity
  8
3
 62
     0
440
 16777216
370
    -2
100
AcDbLine
 10
3140.115840197137
 20
3753.894778991862
 30
0.0
 11
3140.115840197137
 21
3315.894778991861
 31
0.0
  0
INSERT
  5
8364
330
800A
100
AcDbEntity
  8
3
 62
     0
440
 16777216
370
    -2
100
AcDbBlockReference
  2
_OPEN
 10
3140.115840197137
 20
3813.894778991862
 30
0.0
 41
60.0
 42
60.0
 43
60.0
 50
90.0
  0
INSERT
  5
8365
330
800A
100
AcDbEntity
  8
3
 62
     0
440
 16777216
370
    -2
100
AcDbBlockReference
  2
_OPEN
 10
3140.115840197137
 20
3255.894778991862
 30
0.0
 41
60.0
 42
60.0
 43
60.0
 50
270.0
  0
MTEXT
  5
8366
330
800A
100
AcDbEntity
  8
3
 62
     0
440
 16777216
100
AcDbMText
 10
3065.115840197136
 20
3534.894778991862
 30
0.0
 40
90.0
 41
0.0
 46
0.0
 71
     5
 72
     1
  1
\A1;558
 11
0.0000000000000001
 21
1.0
 31
0.0
 73
     1
 44
1.0
  0
POINT
  5
8367
330
800A
100
AcDbEntity
  8
DEFPOINTS
 62
     0
440
 16777216
100
AcDbPoint
 10
2071.77742500998
 20
3813.894778991862
 30
0.0
  0
POINT
  5
8368
330
800A
100
AcDbEntity
  8
DEFPOINTS
 62
     0
440
 16777216
100
AcDbPoint
 10
2797.249216860369
 20
3255.894778991862
 30
0.0
  0
POINT
  5
8369
330
800A
100
AcDbEntity
  8
DEFPOINTS
 62
     0
440
 16777216
100
AcDbPoint
 10
3140.115840197137
 20
3255.894778991862
 30
0.0
  0
ENDBLK
  5
8015
330
800A
100
AcDbEntity
  8
0
100
AcDbBlockEnd
  0
BLOCK
  5
8027
330
8026
100
AcDbEntity
  8
0
100
AcDbBlockBegin
  2
_NONE
 70
     0
 10
0.0
 20
0.0
 30
0.0
  3
_NONE
  1

  0
CIRCLE
  5
8028
330
8026
100
AcDbEntity
  8
0
  6
ByBlock
 62
     0
100
AcDbCircle
 10
0.0
 20
0.0
 30
0.0
 40
0.25
  0
ENDBLK
  5
8029
330
8026
100
AcDbEntity
  8
0
100
AcDbBlockEnd
  0
BLOCK
  5
802B
330
802A
100
AcDbEntity
  8
0
100
AcDbBlockBegin
  2
*D24
 70
     1
 10
0.0
 20
0.0
 30
0.0
  3
*D24
  1

  0
LINE
  5
83EE
330
802A
100
AcDbEntity
  8
3
 62
     0
440
 16777216
370
    -2
100
AcDbLine
 10
3138.810177738091
 20
2215.894778991862
 30
0.0
 11
3138.810177738091
 21
2295.894778991862
 31
0.0
  0
MTEXT
  5
83EF
330
802A
100
AcDbEntity
  8
3
 62
     0
440
 16777216
100
AcDbMText
 10
3258.540001718764
 20
2255.894778991863
 30
0.0
 40
90.0
 41
0.0
 46
0.0
 71
     5
 72
     1
  1
\A1;(80)
 11
0.0000000000000001
 21
1.0
 31
0.0
 73
     1
 44
1.0
  0
POINT
  5
83F0
330
802A
100
AcDbEntity
  8
DEFPOINTS
 62
     0
440
 16777216
100
AcDbPoint
 10
2630.777425009979
 20
2215.894778991862
 30
0.0
  0
POINT
  5
83F1
330
802A
100
AcDbEntity
  8
DEFPOINTS
 62
     0
440
 16777216
100
AcDbPoint
 10
2630.777425009979
 20
2295.894778991862
 30
0.0
  0
POINT
  5
83F2
330
802A
100
AcDbEntity
  8
DEFPOINTS
 62
     0
440
 16777216
100
AcDbPoint
 10
3138.810177738091
 20
2295.894778991862
 30
0.0
  0
ENDBLK
  5
8031
330
802A
100
AcDbEntity
  8
0
100
AcDbBlockEnd
  0
BLOCK
  5
8034
330
8033
100
AcDbEntity
  8
0
100
AcDbBlockBegin
  2
*D25
 70
     1
 10
0.0
 20
0.0
 30
0.0
  3
*D25
  1

  0
LINE
  5
83E5
330
8033
100
AcDbEntity
  8
3
 62
     0
440
 16777216
370
    -2
100
AcDbLine
 10
2086.77742500998
 20
3813.894778991862
 30
0.0
 11
3411.21702085777
 21
3813.894778991862
 31
0.0
  0
LINE
  5
83E6
330
8033
100
AcDbEntity
  8
3
 62
     0
440
 16777216
370
    -2
100
AcDbLine
 10
2645.777425009979
 20
2115.894778991862
 30
0.0
 11
3411.21702085777
 21
2115.894778991862
 31
0.0
  0
LINE
  5
83E7
330
8033
100
AcDbEntity
  8
3
 62
     0
440
 16777216
370
    -2
100
AcDbLine
 10
3381.21702085777
 20
3753.894778991862
 30
0.0
 11
3381.21702085777
 21
2175.894778991862
 31
0.0
  0
INSERT
  5
83E8
330
8033
100
AcDbEntity
  8
3
 62
     0
440
 16777216
370
    -2
100
AcDbBlockReference
  2
_OPEN
 10
3381.21702085777
 20
3813.894778991862
 30
0.0
 41
60.0
 42
60.0
 43
60.0
 50
90.0
  0
INSERT
  5
83E9
330
8033
100
AcDbEntity
  8
3
 62
     0
440
 16777216
370
    -2
100
AcDbBlockReference
  2
_OPEN
 10
3381.21702085777
 20
2115.894778991862
 30
0.0
 41
60.0
 42
60.0
 43
60.0
 50
270.0
  0
MTEXT
  5
83EA
330
8033
100
AcDbEntity
  8
3
 62
     0
440
 16777216
100
AcDbMText
 10
3282.645592286341
 20
2964.894778991863
 30
0.0
 40
90.0
 41
0.0
 46
0.0
 71
     5
 72
     1
  1
\A1;(1698)
 11
0.0000000000000001
 21
1.0
 31
0.0
 73
     1
 44
1.0
  0
POINT
  5
83EB
330
8033
100
AcDbEntity
  8
DEFPOINTS
 62
     0
440
 16777216
100
AcDbPoint
 10
2071.77742500998
 20
3813.894778991862
 30
0.0
  0
POINT
  5
83EC
330
8033
100
AcDbEntity
  8
DEFPOINTS
 62
     0
440
 16777216
100
AcDbPoint
 10
2630.777425009979
 20
2115.894778991862
 30
0.0
  0
POINT
  5
83ED
330
8033
100
AcDbEntity
  8
DEFPOINTS
 62
     0
440
 16777216
100
AcDbPoint
 10
3381.21702085777
 20
2115.894778991862
 30
0.0
  0
ENDBLK
  5
803E
330
8033
100
AcDbEntity
  8
0
100
AcDbBlockEnd
  0
BLOCK
  5
8375
330
8374
100
AcDbEntity
  8
0
100
AcDbBlockBegin
  2
*D50
 70
     1
 10
0.0
 20
0.0
 30
0.0
  3
*D50
  1

  0
LINE
  5
839F
330
8374
100
AcDbEntity
  8
3
 62
     0
440
 16777216
370
    -2
100
AcDbLine
 10
3680.939970242781
 20
3490.894778991862
 30
0.0
 11
3680.939970242781
 21
4155.639571181684
 31
0.0
  0
LINE
  5
83A0
330
8374
100
AcDbEntity
  8
3
 62
     0
440
 16777216
370
    -2
100
AcDbLine
 10
4581.239970242781
 20
4050.827023344176
 30
0.0
 11
4581.239970242781
 21
4155.639571181684
 31
0.0
  0
LINE
  5
83A1
330
8374
100
AcDbEntity
  8
3
 62
     0
440
 16777216
370
    -2
100
AcDbLine
 10
3740.939970242781
 20
4125.639571181684
 30
0.0
 11
4521.23997024278
 21
4125.639571181684
 31
0.0
  0
INSERT
  5
83A2
330
8374
100
AcDbEntity
  8
3
 62
     0
440
 16777216
370
    -2
100
AcDbBlockReference
  2
_OPEN
 10
3680.939970242781
 20
4125.639571181684
 30
0.0
 41
60.0
 42
60.0
 43
60.0
 50
180.0
  0
INSERT
  5
83A3
330
8374
100
AcDbEntity
  8
3
 62
     0
440
 16777216
370
    -2
100
AcDbBlockReference
  2
_OPEN
 10
4581.239970242781
 20
4125.639571181684
 30
0.0
 41
60.0
 42
60.0
 43
60.0
  0
MTEXT
  5
83A4
330
8374
100
AcDbEntity
  8
3
 62
     0
440
 16777216
100
AcDbMText
 10
4131.089970242782
 20
4224.210999753112
 30
0.0
 40
90.0
 41
0.0
 46
0.0
 71
     5
 72
     1
  1
\A1;(900)
 73
     1
 44
1.0
  0
POINT
  5
83A5
330
8374
100
AcDbEntity
  8
DEFPOINTS
 62
     0
440
 16777216
100
AcDbPoint
 10
3680.939970242781
 20
3475.894778991861
 30
0.0
  0
POINT
  5
83A6
330
8374
100
AcDbEntity
  8
DEFPOINTS
 62
     0
440
 16777216
100
AcDbPoint
 10
4581.239970242781
 20
4035.827023344176
 30
0.0
  0
POINT
  5
83A7
330
8374
100
AcDbEntity
  8
DEFPOINTS
 62
     0
440
 16777216
100
AcDbPoint
 10
4581.239970242781
 20
4125.639571181684
 30
0.0
  0
ENDBLK
  5
8376
330
8374
100
AcDbEntity
  8
0
100
AcDbBlockEnd
  0
BLOCK
  5
8382
330
8381
100
AcDbEntity
  8
0
100
AcDbBlockBegin
  2
*D51
 70
     1
 10
0.0
 20
0.0
 30
0.0
  3
*D51
  1

  0
LINE
  5
83A8
330
8381
100
AcDbEntity
  8
3
 62
     0
440
 16777216
370
    -2
100
AcDbLine
 10
4581.239970242781
 20
4050.827023344176
 30
0.0
 11
4581.239970242781
 21
4155.639571181684
 31
0.0
  0
LINE
  5
83A9
330
8381
100
AcDbEntity
  8
3
 62
     0
440
 16777216
370
    -2
100
AcDbLine
 10
5241.039970242782
 20
3240.894778991862
 30
0.0
 11
5241.039970242782
 21
4155.639571181684
 31
0.0
  0
LINE
  5
83AA
330
8381
100
AcDbEntity
  8
3
 62
     0
440
 16777216
370
    -2
100
AcDbLine
 10
4641.239970242781
 20
4125.639571181684
 30
0.0
 11
5181.039970242782
 21
4125.639571181684
 31
0.0
  0
INSERT
  5
83AB
330
8381
100
AcDbEntity
  8
3
 62
     0
440
 16777216
370
    -2
100
AcDbBlockReference
  2
_OPEN
 10
4581.239970242781
 20
4125.639571181684
 30
0.0
 41
60.0
 42
60.0
 43
60.0
 50
180.0
  0
INSERT
  5
83AC
330
8381
100
AcDbEntity
  8
3
 62
     0
440
 16777216
370
    -2
100
AcDbBlockReference
  2
_OPEN
 10
5241.039970242782
 20
4125.639571181684
 30
0.0
 41
60.0
 42
60.0
 43
60.0
  0
MTEXT
  5
83AD
330
8381
100
AcDbEntity
  8
3
 62
     0
440
 16777216
100
AcDbMText
 10
4911.139970242782
 20
4224.210999753112
 30
0.0
 40
90.0
 41
0.0
 46
0.0
 71
     5
 72
     1
  1
\A1;(660)
 73
     1
 44
1.0
  0
POINT
  5
83AE
330
8381
100
AcDbEntity
  8
DEFPOINTS
 62
     0
440
 16777216
100
AcDbPoint
 10
4581.239970242781
 20
4035.827023344176
 30
0.0
  0
POINT
  5
83AF
330
8381
100
AcDbEntity
  8
DEFPOINTS
 62
     0
440
 16777216
100
AcDbPoint
 10
5241.039970242782
 20
3225.894778991861
 30
0.0
  0
POINT
  5
83B0
330
8381
100
AcDbEntity
  8
DEFPOINTS
 62
     0
440
 16777216
100
AcDbPoint
 10
5241.039970242782
 20
4125.639571181684
 30
0.0
  0
ENDBLK
  5
8383
330
8381
100
AcDbEntity
  8
0
100
AcDbBlockEnd
  0
ENDSEC
  0
SECTION
  2
ENTITIES
  0
INSERT
  5
7C30
330
19
100
AcDbEntity
  8
0
100
AcDbBlockReference
  2
YA_N
 10
6.0
 20
5.0
 30
0.0
  0
LINE
  5
7C32
330
19
100
AcDbEntity
  8
2
100
AcDbLine
 10
2130.777425009979
 20
3802.168572762006
 30
0.0
 11
2130.777425009979
 21
2115.894778991862
 31
0.0
  0
LINE
  5
7C33
330
19
100
AcDbEntity
  8
2
100
AcDbLine
 10
2797.249216860369
 20
3255.894778991862
 30
0.0
 11
1372.873847819943
 21
3255.894778991862
 31
0.0
  0
LINE
  5
7C3F
330
19
100
AcDbEntity
  8
1
100
AcDbLine
 10
780.7774250099791
 20
2295.894778991862
 30
0.0
 11
2630.777425009979
 21
2295.894778991862
 31
0.0
1001
ACAD
1000
ASC_BOUNDS
1002
{
1070
    19
1002
}
  0
LINE
  5
7C40
330
19
100
AcDbEntity
  8
1
100
AcDbLine
 10
780.7774250099791
 20
2395.894778991862
 30
0.0
 11
2630.777425009979
 21
2395.894778991862
 31
0.0
  0
LINE
  5
7C41
330
19
100
AcDbEntity
  8
1
100
AcDbLine
 10
780.7774250099791
 20
2395.894778991862
 30
0.0
 11
780.7774250099791
 21
2295.894778991862
 31
0.0
  0
LINE
  5
7C42
330
19
100
AcDbEntity
  8
1
100
AcDbLine
 10
780.7774250099791
 20
2115.894778991862
 30
0.0
 11
2630.777425009979
 21
2115.894778991862
 31
0.0
  0
LINE
  5
7C43
330
19
100
AcDbEntity
  8
1
100
AcDbLine
 10
2630.777425009979
 20
2215.894778991862
 30
0.0
 11
2630.777425009979
 21
2115.894778991862
 31
0.0
  0
LINE
  5
7C44
330
19
100
AcDbEntity
  8
1
100
AcDbLine
 10
780.7774250099791
 20
2215.894778991862
 30
0.0
 11
780.7774250099791
 21
2115.894778991862
 31
0.0
  0
LINE
  5
7C45
330
19
100
AcDbEntity
  8
1
100
AcDbLine
 10
828.7774250099792
 20
2435.894778991862
 30
0.0
 11
1232.777425009979
 21
2435.894778991862
 31
0.0
  0
LINE
  5
7C46
330
19
100
AcDbEntity
  8
1
100
AcDbLine
 10
1230.777425009979
 20
2435.894778991862
 30
0.0
 11
1230.777425009979
 21
2395.894778991862
 31
0.0
  0
LINE
  5
7C47
330
19
100
AcDbEntity
  8
1
100
AcDbLine
 10
2630.777425009979
 20
2395.894778991862
 30
0.0
 11
2630.777425009979
 21
2295.894778991862
 31
0.0
  0
LINE
  5
7C48
330
19
100
AcDbEntity
  8
1
100
AcDbLine
 10
5111.239970242781
 20
3823.894778991862
 30
0.0
 11
5111.239970242779
 21
2407.894778991862
 31
0.0
  0
LINE
  5
7C49
330
19
100
AcDbEntity
  8
1
100
AcDbLine
 10
3844.239970242782
 20
2295.894778991862
 30
0.0
 11
5164.239970242781
 21
2295.894778991862
 31
0.0
1001
ACAD
1000
ASC_BOUNDS
1002
{
1070
    19
1002
}
  0
LINE
  5
7C4A
330
19
100
AcDbEntity
  8
1
100
AcDbLine
 10
3844.239970242782
 20
2395.894778991861
 30
0.0
 11
5164.239970242783
 21
2395.894778991862
 31
0.0
  0
LINE
  5
7C4B
330
19
100
AcDbEntity
  8
1
100
AcDbLine
 10
3844.239970242782
 20
2115.894778991862
 30
0.0
 11
5164.239970242782
 21
2115.894778991862
 31
0.0
  0
LINE
  5
7C4C
330
19
100
AcDbEntity
  8
1
100
AcDbLine
 10
3844.239970242782
 20
2395.894778991861
 30
0.0
 11
3844.239970242782
 21
2295.894778991862
 31
0.0
  0
LINE
  5
7C4D
330
19
100
AcDbEntity
  8
1
100
AcDbLine
 10
5164.239970242782
 20
2395.894778991862
 30
0.0
 11
5164.239970242781
 21
2295.894778991862
 31
0.0
  0
LINE
  5
7C4E
330
19
100
AcDbEntity
  8
1
100
AcDbLine
 10
5164.239970242781
 20
2395.894778991862
 30
0.0
 11
5164.239970242782
 21
2390.368663835273
 31
0.0
  0
LINE
  5
7C4F
330
19
100
AcDbEntity
  8
2
100
AcDbLine
 10
3736.757301856112
 20
3255.894778991862
 30
0.0
 11
5232.289816821978
 21
3255.894778991862
 31
0.0
  0
LINE
  5
7C50
330
19
100
AcDbEntity
  8
2
100
AcDbLine
 10
3737.646155041213
 20
2645.894778991862
 30
0.0
 11
4051.239970242781
 21
2645.894778991862
 31
0.0
  0
LINE
  5
7C51
330
19
100
AcDbEntity
  8
1
100
AcDbLine
 10
3768.939970242781
 20
3382.894778991861
 30
0.0
 11
3768.939970242781
 21
2535.894778991861
 31
0.0
  0
LINE
  5
7C52
330
19
100
AcDbEntity
  8
1
100
AcDbLine
 10
3680.939970242781
 20
3475.894778991861
 30
0.0
 11
3680.939970242781
 21
2425.894778991861
 31
0.0
  0
LINE
  5
7C53
330
19
100
AcDbEntity
  8
1
100
AcDbLine
 10
3680.939970242781
 20
3475.894778991861
 30
0.0
 11
3883.939970242781
 21
3475.894778991861
 31
0.0
  0
LINE
  5
7C54
330
19
100
AcDbEntity
  8
1
100
AcDbLine
 10
3883.939970242781
 20
3475.894778991861
 30
0.0
 11
3883.939970242781
 21
3425.894778991862
 31
0.0
  0
LINE
  5
7C55
330
19
100
AcDbEntity
  8
1
100
AcDbLine
 10
3883.939970242782
 20
2467.783499675226
 30
0.0
 11
3883.939970242782
 21
2425.894778991862
 31
0.0
  0
LINE
  5
7C56
330
19
100
AcDbEntity
  8
2
100
AcDbLine
 10
4581.239970242781
 20
3903.344892511763
 30
0.0
 11
4581.239970242783
 21
2115.894778991862
 31
0.0
  0
POINT
  5
7C57
330
19
100
AcDbEntity
  8
1
100
AcDbPoint
 10
2630.777425009979
 20
2295.894778991862
 30
0.0
  0
POINT
  5
7C58
330
19
100
AcDbEntity
  8
1
100
AcDbPoint
 10
2630.777425009979
 20
2295.894778991862
 30
0.0
  0
POINT
  5
7C59
330
19
100
AcDbEntity
  8
1
100
AcDbPoint
 10
2630.777425009979
 20
2295.894778991862
 30
0.0
  0
INSERT
  5
7C5C
330
19
100
AcDbEntity
  8
0
100
AcDbBlockReference
  2
YA_N
 10
-733.6448571667497
 20
-271.0302667023643
 30
0.0
 41
20.0
 42
20.0
 43
20.0
  0
DIMENSION
  5
7C5E
330
19
100
AcDbEntity
  8
3
100
AcDbDimension
280
     0
  2
*D3
 10
2130.777425009979
 20
1965.475121309908
 30
0.0
 11
2380.777425009979
 21
2025.475121309908
 31
0.0
 70
    32
 71
     5
 42
500.0
 73
     0
 74
     0
 75
     0
  3
MATSU
100
AcDbAlignedDimension
 13
2630.777425009979
 23
2115.894778991862
 33
0.0
 14
2130.777425009979
 24
2115.894778991862
 34
0.0
100
AcDbRotatedDimension
1001
ACAD
1000
DSTYLE
1002
{
1070
    40
1040
30.0
1002
}
  0
DIMENSION
  5
7C5F
330
19
100
AcDbEntity
  8
3
100
AcDbDimension
280
     0
  2
*D4
 10
2824.122768552042
 20
3232.894778991862
 30
0.0
 11
2764.122768552043
 21
2820.394778991862
 31
0.0
 12
-332.6675348698627
 22
1694.00716358238
 32
0.0
 70
    32
 71
     5
 42
-1.0
 73
     0
 74
     0
 75
     0
  3
MATSU
100
AcDbAlignedDimension
 13
2675.777425009979
 23
2407.894778991862
 33
0.0
 14
2675.777425009979
 24
3232.894778991862
 34
0.0
 50
270.0
100
AcDbRotatedDimension
1001
ACAD
1000
DSTYLE
1002
{
1070
    40
1040
30.0
1002
}
  0
DIMENSION
  5
7C60
330
19
100
AcDbEntity
  8
3
100
AcDbDimension
280
     0
  2
*D5
 10
2976.406171125846
 20
3255.894778991862
 30
0.0
 11
2916.406171125846
 21
2831.894778991862
 31
0.0
 12
-332.6675348698627
 22
1694.00716358238
 32
0.0
 70
    32
 71
     5
 42
-1.0
 73
     0
 74
     0
 75
     0
  3
MATSU
100
AcDbAlignedDimension
 13
2675.777425009979
 23
2407.894778991862
 33
0.0
 14
2797.249216860369
 24
3255.894778991862
 34
0.0
 50
270.0
100
AcDbRotatedDimension
1001
ACAD
1000
DSTYLE
1002
{
1070
    40
1040
30.0
1002
}
  0
LINE
  5
7C61
330
19
100
AcDbEntity
  8
1
100
AcDbLine
 10
896.3185250099778
 20
2555.582778991862
 30
0.0
 11
876.7774250099792
 21
2501.894778991862
 31
0.0
  0
LINE
  5
7C62
330
19
100
AcDbEntity
  8
1
100
AcDbLine
 10
1165.224225009979
 20
2555.615778991862
 30
0.0
 11
1184.777425009979
 21
2501.894778991862
 31
0.0
  0
ARC
  5
7C63
330
19
100
AcDbEntity
  8
1
100
AcDbCircle
 10
1030.777425009979
 20
2645.894778991862
 30
0.0
 40
162.0
100
AcDbArc
 50
180.0
 51
254.3581
  0
ARC
  5
7C64
330
19
100
AcDbEntity
  8
1
100
AcDbCircle
 10
1030.777425009979
 20
2645.894778991862
 30
0.0
 40
162.0
100
AcDbArc
 50
285.6399
 51
180.0
  0
LINE
  5
7C65
330
19
100
AcDbEntity
  8
2
100
AcDbLine
 10
1030.777425009979
 20
2874.343465434657
 30
0.0
 11
1030.777425009979
 21
2115.894778991862
 31
0.0
  0
LINE
  5
7C66
330
19
100
AcDbEntity
  8
1
100
AcDbLine
 10
1074.458025009979
 20
2489.894778991863
 30
0.0
 11
987.0967250099784
 21
2489.894778991863
 31
0.0
  0
LINE
  5
7C67
330
19
100
AcDbEntity
  8
1
100
AcDbLine
 10
1115.721325009977
 20
2507.950778991862
 30
0.0
 11
1123.898725009978
 21
2499.772778991862
 31
0.0
  0
LINE
  5
7C6A
330
19
100
AcDbEntity
  8
1
100
AcDbLine
 10
1137.990625009979
 20
2503.894778991862
 30
0.0
 11
1182.777425009979
 21
2503.894778991862
 31
0.0
  0
ARC
  5
7C6C
330
19
100
AcDbEntity
  8
1
100
AcDbCircle
 10
1182.777425009979
 20
2501.894778991862
 30
0.0
 40
2.0
100
AcDbArc
 50
0.0
 51
90.0
  0
LINE
  5
7C6D
330
19
100
AcDbEntity
  8
1
100
AcDbLine
 10
1184.777425009979
 20
2485.894778991862
 30
0.0
 11
1184.777425009979
 21
2501.894778991862
 31
0.0
  0
LINE
  5
7C70
330
19
100
AcDbEntity
  8
1
100
AcDbLine
 10
1125.888625009978
 20
2514.753778991862
 30
0.0
 11
1135.869225009979
 21
2504.772778991862
 31
0.0
  0
ARC
  5
7C72
330
19
100
AcDbEntity
  8
1
100
AcDbCircle
 10
1137.990625009979
 20
2506.894778991862
 30
0.0
 40
3.0
100
AcDbArc
 50
225.0
 51
270.0
  0
ARC
  5
7C73
330
19
100
AcDbEntity
  8
1
100
AcDbCircle
 10
1121.777425009979
 20
2497.651778991862
 30
0.0
 40
3.0
100
AcDbArc
 50
0.0
 51
45.0
  0
LINE
  5
7C74
330
19
100
AcDbEntity
  8
1
100
AcDbLine
 10
1124.777425009979
 20
2485.894778991862
 30
0.0
 11
1124.777425009979
 21
2497.651778991862
 31
0.0
  0
LINE
  5
7C78
330
19
100
AcDbEntity
  8
1
100
AcDbLine
 10
923.564225009979
 20
2503.894778991862
 30
0.0
 11
878.7774250099792
 21
2503.894778991862
 31
0.0
  0
LINE
  5
7C79
330
19
100
AcDbEntity
  8
1
100
AcDbLine
 10
925.7389250099786
 20
2504.826778991862
 30
0.0
 11
935.6662250099798
 21
2514.753778991862
 31
0.0
  0
LINE
  5
7C7A
330
19
100
AcDbEntity
  8
1
100
AcDbLine
 10
945.8335250099789
 20
2507.950778991862
 30
0.0
 11
937.6560250099792
 21
2499.772778991862
 31
0.0
  0
ARC
  5
7C7B
330
19
100
AcDbEntity
  8
1
100
AcDbCircle
 10
939.7774250099791
 20
2497.651778991862
 30
0.0
 40
3.0
100
AcDbArc
 50
135.0
 51
180.0
  0
LINE
  5
7C7C
330
19
100
AcDbEntity
  8
1
100
AcDbLine
 10
936.7774250099792
 20
2485.894778991862
 30
0.0
 11
936.7774250099792
 21
2497.651778991862
 31
0.0
  0
ARC
  5
7C7F
330
19
100
AcDbEntity
  8
1
100
AcDbCircle
 10
878.7774250099792
 20
2501.894778991862
 30
0.0
 40
2.0
100
AcDbArc
 50
90.0
 51
180.0
  0
LINE
  5
7C84
330
19
100
AcDbEntity
  8
1
100
AcDbLine
 10
876.7774250099792
 20
2485.894778991862
 30
0.0
 11
876.7774250099792
 21
2501.894778991862
 31
0.0
  0
LINE
  5
7C85
330
19
100
AcDbEntity
  8
2
100
AcDbLine
 10
1218.887869072651
 20
2645.894778991862
 30
0.0
 11
729.4709601452796
 21
2645.894778991861
 31
0.0
  0
LINE
  5
7C86
330
19
100
AcDbEntity
  8
1
100
AcDbLine
 10
842.2627817439387
 20
2485.894778991862
 30
0.0
 11
970.7774250099792
 21
2485.894778991861
 31
0.0
  0
LINE
  5
7C87
330
19
100
AcDbEntity
  8
1
100
AcDbLine
 10
1232.777425009979
 20
2435.894778991862
 30
0.0
 11
1219.53229262479
 21
2485.894778991862
 31
0.0
  0
LINE
  5
7C88
330
19
100
AcDbEntity
  8
1
100
AcDbLine
 10
828.7774250099792
 20
2435.894778991862
 30
0.0
 11
842.2627817439387
 21
2485.894778991862
 31
0.0
  0
LINE
  5
7C89
330
19
100
AcDbEntity
  8
1
100
AcDbLine
 10
970.7774250099792
 20
2475.894778991862
 30
0.0
 11
1090.777425009979
 21
2475.894778991862
 31
0.0
  0
LINE
  5
7C8B
330
19
100
AcDbEntity
  8
1
100
AcDbLine
 10
970.7774250099774
 20
2485.894778991861
 30
0.0
 11
970.7774250099792
 21
2475.894778991862
 31
0.0
  0
LINE
  5
7C8C
330
19
100
AcDbEntity
  8
1
100
AcDbLine
 10
1090.777425009979
 20
2485.894778991861
 30
0.0
 11
1090.777425009979
 21
2475.894778991862
 31
0.0
  0
LINE
  5
7C8D
330
19
100
AcDbEntity
  8
1
100
AcDbLine
 10
1090.777425009979
 20
2485.894778991861
 30
0.0
 11
1219.53229262479
 21
2485.894778991862
 31
0.0
  0
CIRCLE
  5
7C92
330
19
100
AcDbEntity
  8
1
100
AcDbCircle
 10
1030.777425009979
 20
2645.894778991862
 30
0.0
 40
110.0
  0
CIRCLE
  5
7C93
330
19
100
AcDbEntity
  8
1
100
AcDbCircle
 10
2130.777425009979
 20
3255.894778991862
 30
0.0
 40
127.0
  0
LINE
  5
7C94
330
19
100
AcDbEntity
  8
1
100
AcDbLine
 10
3768.939970242781
 20
3382.894778991861
 30
0.0
 11
3853.939970242781
 21
3382.894778991861
 31
0.0
  0
LINE
  5
7C95
330
19
100
AcDbEntity
  8
1
100
AcDbLine
 10
3768.939970242781
 20
3128.894778991862
 30
0.0
 11
3853.939970242782
 21
3128.894778991862
 31
0.0
  0
LINE
  5
7C96
330
19
100
AcDbEntity
  8
1
100
AcDbLine
 10
3768.939970242782
 20
2755.894778991862
 30
0.0
 11
3853.939970242781
 21
2755.894778991862
 31
0.0
  0
LINE
  5
7C97
330
19
100
AcDbEntity
  8
1
100
AcDbLine
 10
3768.939970242781
 20
2535.894778991861
 30
0.0
 11
3853.939970242781
 21
2535.894778991861
 31
0.0
  0
LINE
  5
7C98
330
19
100
AcDbEntity
  8
1
100
AcDbLine
 10
3680.939970242781
 20
2425.894778991861
 30
0.0
 11
3883.939970242781
 21
2425.894778991861
 31
0.0
  0
LINE
  5
7C99
330
19
100
AcDbEntity
  8
1
100
AcDbLine
 10
3853.939970242781
 20
3382.894778991861
 30
0.0
 11
3853.939970242781
 21
2535.894778991861
 31
0.0
  0
INSERT
  5
7C9A
330
19
100
AcDbEntity
  8
0
100
AcDbBlockReference
  2
YA_N
 10
-36.73462870802178
 20
301.6536876033206
 30
0.0
 41
20.0
 42
20.0
 43
20.0
  0
INSERT
  5
7C9C
330
19
100
AcDbEntity
  8
0
100
AcDbBlockReference
  2
YA_N
 10
77.48489664613953
 20
225.311977764075
 30
0.0
 41
20.0
 42
20.0
 43
20.0
  0
LINE
  5
7C9E
330
19
100
AcDbEntity
  8
1
100
AcDbLine
 10
3844.239970242782
 20
2215.894778991861
 30
0.0
 11
5164.239970242781
 21
2215.894778991862
 31
0.0
1001
ACAD
1000
ASC_BOUNDS
1002
{
1070
    19
1002
}
  0
LINE
  5
7C9F
330
19
100
AcDbEntity
  8
1
100
AcDbLine
 10
2630.777425009979
 20
2215.894778991862
 30
0.0
 11
780.7774250099791
 21
2215.894778991861
 31
0.0
1001
ACAD
1000
ASC_BOUNDS
1002
{
1070
    19
1002
}
  0
POINT
  5
7CA0
330
19
100
AcDbEntity
  8
1
100
AcDbPoint
 10
2630.777425009979
 20
2215.894778991862
 30
0.0
  0
POINT
  5
7CA1
330
19
100
AcDbEntity
  8
1
100
AcDbPoint
 10
2630.777425009979
 20
2115.894778991862
 30
0.0
  0
POINT
  5
7CA2
330
19
100
AcDbEntity
  8
1
100
AcDbPoint
 10
2630.777425009979
 20
2215.894778991862
 30
0.0
  0
POINT
  5
7CA3
330
19
100
AcDbEntity
  8
1
100
AcDbPoint
 10
2630.777425009979
 20
2295.894778991862
 30
0.0
  0
LINE
  5
7CA4
330
19
100
AcDbEntity
  8
1
100
AcDbLine
 10
3844.23997024278
 20
2215.894778991861
 30
0.0
 11
3844.239970242782
 21
2115.894778991862
 31
0.0
  0
LINE
  5
7CA5
330
19
100
AcDbEntity
  8
1
100
AcDbLine
 10
5164.239970242781
 20
2215.894778991862
 30
0.0
 11
5164.239970242781
 21
2115.894778991862
 31
0.0
  0
DIMENSION
  5
7CA6
330
19
100
AcDbEntity
  8
3
100
AcDbDimension
280
     0
  2
*D6
 10
3139.857697564634
 20
2295.894778991862
 30
0.0
 11
3079.857697564634
 21
2775.894778991862
 31
0.0
 12
-332.6675348698627
 22
1694.00716358238
 32
0.0
 70
    32
 71
     5
 42
-1.0
 73
     0
 74
     0
 75
     0
  3
MATSU
100
AcDbAlignedDimension
 13
2797.249216860369
 23
3255.894778991862
 33
0.0
 14
2630.777425009979
 24
2295.894778991862
 34
0.0
 50
270.0
100
AcDbRotatedDimension
1001
ACAD
1000
DSTYLE
1002
{
1070
    40
1040
30.0
1002
}
  0
POINT
  5
7CA7
330
19
100
AcDbEntity
  8
1
100
AcDbPoint
 10
2630.777425009979
 20
2215.894778991862
 30
0.0
  0
POINT
  5
7CA8
330
19
100
AcDbEntity
  8
1
100
AcDbPoint
 10
2630.777425009979
 20
2115.894778991862
 30
0.0
  0
POINT
  5
7CA9
330
19
100
AcDbEntity
  8
1
100
AcDbPoint
 10
2630.777425009979
 20
2215.894778991862
 30
0.0
  0
POINT
  5
7CAA
330
19
100
AcDbEntity
  8
1
100
AcDbPoint
 10
2630.777425009979
 20
2295.894778991862
 30
0.0
  0
DIMENSION
  5
7CAB
330
19
100
AcDbEntity
  8
3
100
AcDbDimension
280
     0
  2
*D7
 10
1454.77742500998
 20
3984.494749381887
 30
0.0
 11
1792.777425009979
 21
4044.494749381887
 31
0.0
 70
    32
 71
     5
 42
675.9999999999995
 73
     0
 74
     0
 75
     0
  3
MATSU
100
AcDbAlignedDimension
 13
2130.777425009979
 23
3802.168572762006
 33
0.0
 14
1454.77742500998
 24
3196.894778991862
 34
0.0
100
AcDbRotatedDimension
1001
ACAD
1000
DSTYLE
1002
{
1070
    40
1040
30.0
1002
}
  0
LINE
  5
7CAE
330
19
100
AcDbEntity
  8
1
100
AcDbLine
 10
4051.239970242781
 20
3823.894778991862
 30
0.0
 11
4051.239970242781
 21
2407.894778991862
 31
0.0
  0
LINE
  5
7CAF
330
19
100
AcDbEntity
  8
1
100
AcDbLine
 10
3893.239970242782
 20
3285.894778991862
 30
0.0
 11
4051.239970242781
 21
3285.894778991862
 31
0.0
  0
LINE
  5
7CB0
330
19
100
AcDbEntity
  8
1
100
AcDbLine
 10
3893.239970242782
 20
3225.894778991861
 30
0.0
 11
4051.239970242781
 21
3225.894778991861
 31
0.0
  0
LINE
  5
7CB1
330
19
100
AcDbEntity
  8
1
100
AcDbLine
 10
3893.239970242783
 20
3285.894778991862
 30
0.0
 11
3893.239970242783
 21
3225.894778991861
 31
0.0
  0
LINE
  5
7CB2
330
19
100
AcDbEntity
  8
1
100
AcDbLine
 10
3853.939970242782
 20
3279.894778991862
 30
0.0
 11
3893.239970242783
 21
3279.894778991862
 31
0.0
  0
LINE
  5
7CB3
330
19
100
AcDbEntity
  8
1
100
AcDbLine
 10
3853.939970242782
 20
3231.894778991863
 30
0.0
 11
3893.239970242783
 21
3231.894778991863
 31
0.0
  0
LINE
  5
7CB4
330
19
100
AcDbEntity
  8
1
100
AcDbLine
 10
4038.239970242779
 20
3214.894778991862
 30
0.0
 11
4038.23997024278
 21
3064.894778991862
 31
0.0
  0
LINE
  5
7CB5
330
19
100
AcDbEntity
  8
1
100
AcDbLine
 10
3913.239970242781
 20
3204.894778991862
 30
0.0
 11
3913.239970242781
 21
3074.894778991862
 31
0.0
  0
LINE
  5
7CB6
330
19
100
AcDbEntity
  8
1
100
AcDbLine
 10
3923.239970242781
 20
3214.894778991862
 30
0.0
 11
3998.939970242782
 21
3214.894778991861
 31
0.0
  0
LINE
  5
7CB7
330
19
100
AcDbEntity
  8
1
100
AcDbLine
 10
3923.239970242781
 20
3064.894778991862
 30
0.0
 11
3998.939970242782
 21
3064.894778991862
 31
0.0
  0
ARC
  5
7CB8
330
19
100
AcDbEntity
  8
1
100
AcDbCircle
 10
3923.239970242781
 20
3204.894778991862
 30
0.0
 40
10.0
100
AcDbArc
 50
90.0
 51
180.0
  0
ARC
  5
7CB9
330
19
100
AcDbEntity
  8
1
100
AcDbCircle
 10
3923.239970242781
 20
3074.894778991862
 30
0.0
 40
10.0
100
AcDbArc
 50
180.0
 51
270.0
  0
LINE
  5
7CBA
330
19
100
AcDbEntity
  8
1
100
AcDbLine
 10
3998.939970242782
 20
3064.894778991861
 30
0.0
 11
4038.239970242779
 21
3064.894778991862
 31
0.0
  0
LINE
  5
7CBB
330
19
100
AcDbEntity
  8
1
100
AcDbLine
 10
3998.939970242782
 20
3214.894778991862
 30
0.0
 11
4038.239970242779
 21
3214.894778991861
 31
0.0
  0
LINE
  5
7CBC
330
19
100
AcDbEntity
  8
1
100
AcDbLine
 10
5151.039970242782
 20
3115.894778991862
 30
0.0
 11
5151.039970242781
 21
3235.894778991862
 31
0.0
  0
LINE
  5
7CBD
330
19
100
AcDbEntity
  8
1
100
AcDbLine
 10
5241.039970242782
 20
3225.894778991861
 30
0.0
 11
5241.039970242782
 21
3125.894778991861
 31
0.0
  0
LINE
  5
7CBE
330
19
100
AcDbEntity
  8
1
100
AcDbLine
 10
5151.039970242781
 20
3235.894778991862
 30
0.0
 11
5191.53997024278
 21
3235.894778991861
 31
0.0
  0
LINE
  5
7CBF
330
19
100
AcDbEntity
  8
1
100
AcDbLine
 10
5151.039970242781
 20
3115.894778991862
 30
0.0
 11
5191.53997024278
 21
3115.894778991862
 31
0.0
  0
ARC
  5
7CC0
330
19
100
AcDbEntity
  8
1
100
AcDbCircle
 10
5231.039970242782
 20
3125.894778991861
 30
0.0
 40
10.0
100
AcDbArc
 50
270.0
 51
0.0
  0
ARC
  5
7CC1
330
19
100
AcDbEntity
  8
1
100
AcDbCircle
 10
5231.039970242782
 20
3225.894778991861
 30
0.0
 40
10.0
100
AcDbArc
 50
0.0
 51
90.0
  0
LINE
  5
7CC2
330
19
100
AcDbEntity
  8
1
100
AcDbLine
 10
5191.53997024278
 20
3115.894778991862
 30
0.0
 11
5231.039970242782
 21
3115.894778991862
 31
0.0
  0
LINE
  5
7CC3
330
19
100
AcDbEntity
  8
1
100
AcDbLine
 10
5191.53997024278
 20
3235.894778991863
 30
0.0
 11
5231.039970242782
 21
3235.894778991861
 31
0.0
  0
DIMENSION
  5
7CC4
330
19
100
AcDbEntity
  8
3
100
AcDbDimension
280
     0
  2
*D8
 10
5362.035814177099
 20
3655.894778991862
 30
0.0
 11
5302.0358141771
 21
3255.894778991862
 31
0.0
 12
-332.6675348698627
 22
1694.00716358238
 32
0.0
 70
    32
  1
φ<>
 71
     5
 42
-1.0
 73
     0
 74
     0
 75
     0
  3
MATSU
100
AcDbAlignedDimension
 13
5113.539970242781
 23
2855.894778991862
 33
0.0
 14
5113.539970242781
 24
3655.894778991862
 34
0.0
 50
90.0
100
AcDbRotatedDimension
1001
ACAD
1000
DSTYLE
1002
{
1070
    40
1040
30.0
1002
}
  0
DIMENSION
  5
7CC5
330
19
100
AcDbEntity
  8
3
100
AcDbDimension
280
     0
  2
*D9
 10
4581.239970242782
 20
1964.792085460638
 30
0.0
 11
4212.739970242781
 21
2024.792085460638
 31
0.0
 70
    32
 71
     5
 42
737.0000000000008
 73
     0
 74
     0
 75
     0
  3
MATSU
100
AcDbAlignedDimension
 13
3844.239970242782
 23
2115.894778991862
 33
0.0
 14
4581.239970242782
 24
2115.894778991862
 34
0.0
100
AcDbRotatedDimension
1001
ACAD
1000
DSTYLE
1002
{
1070
    40
1040
30.0
1002
}
  0
DIMENSION
  5
7CC6
330
19
100
AcDbEntity
  8
3
100
AcDbDimension
280
     0
  2
*D10
 10
5164.239970242781
 20
1964.792085460638
 30
0.0
 11
4872.739970242781
 21
2024.792085460638
 31
0.0
 70
    32
 71
     5
 42
582.9999999999991
 73
     0
 74
     0
 75
     0
  3
MATSU
100
AcDbAlignedDimension
 13
4581.239970242782
 23
2115.894778991862
 33
0.0
 14
5164.239970242781
 24
2115.894778991862
 34
0.0
100
AcDbRotatedDimension
1001
ACAD
1000
DSTYLE
1002
{
1070
    40
1040
30.0
1002
}
  0
LINE
  5
7CC9
330
19
100
AcDbEntity
  8
1
100
AcDbLine
 10
830.7774250099791
 20
2435.894778991862
 30
0.0
 11
830.7774250099791
 21
2395.894778991862
 31
0.0
  0
ARC
  5
7CCA
330
19
100
AcDbEntity
  8
1
100
AcDbCircle
 10
2130.777425009979
 20
3255.894778991862
 30
0.0
 40
220.0
100
AcDbArc
 50
299.0103602626874
 51
119.0103602626874
  0
ARC
  5
7CCB
330
19
100
AcDbEntity
  8
1
100
AcDbCircle
 10
1030.777425009979
 20
2645.894778991862
 30
0.0
 40
220.0
100
AcDbArc
 50
119.0103602626874
 51
299.0103602626874
  0
DIMENSION
  5
7CCC
330
19
100
AcDbEntity
  8
3
100
AcDbDimension
280
     0
  2
*D11
 10
2130.777425009979
 20
1966.138187288527
 30
0.0
 11
1455.777425009979
 21
2026.138187288527
 31
0.0
 70
    32
 71
     5
 42
1350.0
 73
     0
 74
     0
 75
     0
  3
MATSU
100
AcDbAlignedDimension
 13
780.7774250099791
 23
2115.894778991862
 33
0.0
 14
2130.777425009979
 24
2115.894778991862
 34
0.0
100
AcDbRotatedDimension
1001
ACAD
1000
DSTYLE
1002
{
1070
    40
1040
30.0
1002
}
  0
POINT
  5
7CDC
330
19
100
AcDbEntity
  8
1
100
AcDbPoint
 10
5241.039970242782
 20
3225.894778991861
 30
0.0
  0
LINE
  5
7CDE
330
19
100
AcDbEntity
  8
1
100
AcDbLine
 10
780.7774250099791
 20
5079.683739980162
 30
0.0
 11
2630.777425009979
 21
5079.683739980162
 31
0.0
  0
LINE
  5
7CDF
330
19
100
AcDbEntity
  8
1
100
AcDbLine
 10
1630.777425009979
 20
6399.683739980162
 30
0.0
 11
2630.777425009979
 21
6399.683739980162
 31
0.0
  0
LINE
  5
7CE0
330
19
100
AcDbEntity
  8
1
100
AcDbLine
 10
2630.777425009979
 20
6399.683739980162
 30
0.0
 11
2630.777425009978
 21
6346.683739980162
 31
0.0
  0
LINE
  5
7CE1
330
19
100
AcDbEntity
  8
1
100
AcDbLine
 10
780.7774250099791
 20
5879.683739980162
 30
0.0
 11
780.7774250099791
 21
5079.683739980162
 31
0.0
  0
LINE
  5
7CE2
330
19
100
AcDbEntity
  8
1
100
AcDbLine
 10
1630.777425009979
 20
6399.683739980162
 30
0.0
 11
1630.777425009979
 21
6346.683739980162
 31
0.0
  0
LINE
  5
7CE3
330
19
100
AcDbEntity
  8
1
100
AcDbLine
 10
780.7774250099791
 20
5879.683739980162
 30
0.0
 11
1444.777425009979
 21
5879.683739980162
 31
0.0
  0
LINE
  5
7CE4
330
19
100
AcDbEntity
  8
2
100
AcDbLine
 10
1444.777425009979
 20
5816.683739980163
 30
0.0
 11
2722.264451379879
 21
5816.683739980161
 31
0.0
  0
LINE
  5
7CE5
330
19
100
AcDbEntity
  8
2
100
AcDbLine
 10
2130.777425009978
 20
6406.678281220351
 30
0.0
 11
2130.777425009979
 21
4892.974530569538
 31
0.0
  0
LINE
  5
7CE6
330
19
100
AcDbEntity
  8
2
100
AcDbLine
 10
1030.777425009979
 20
5618.913687607982
 30
0.0
 11
1030.777425009979
 21
4889.365179737973
 31
0.0
  0
DIMENSION
  5
7CE7
330
19
100
AcDbEntity
  8
3
100
AcDbDimension
280
     0
  2
*D12
 10
2630.777425009979
 20
6700.255650964027
 30
0.0
 11
2130.777425009979
 21
6760.255650964026
 31
0.0
 12
-332.6675348698627
 22
1124.060824512562
 32
0.0
 70
    32
 71
     5
 42
-1.0
 73
     0
 74
     0
 75
     0
  3
MATSU
100
AcDbAlignedDimension
 13
1630.777425009979
 23
6399.683739980162
 33
0.0
 14
2630.777425009979
 24
6399.683739980162
 34
0.0
100
AcDbRotatedDimension
1001
ACAD
1000
DSTYLE
1002
{
1070
    40
1040
30.0
1002
}
  0
DIMENSION
  5
7CE8
330
19
100
AcDbEntity
  8
3
100
AcDbDimension
280
     0
  2
*D13
 10
1630.777425009979
 20
6700.255650964027
 30
0.0
 11
1205.777425009979
 21
6760.255650964026
 31
0.0
 12
-332.6675348698627
 22
1124.060824512562
 32
0.0
 70
    32
 71
     5
 42
-1.0
 73
     0
 74
     0
 75
     0
  3
MATSU
100
AcDbAlignedDimension
 13
780.7774250099791
 23
5879.683739980162
 33
0.0
 14
1630.777425009979
 24
6399.683739980162
 34
0.0
100
AcDbRotatedDimension
1001
ACAD
1000
DSTYLE
1002
{
1070
    40
1040
30.0
1002
}
  0
DIMENSION
  5
7CE9
330
19
100
AcDbEntity
  8
3
100
AcDbDimension
280
     0
  2
*D14
 10
2930.269343624905
 20
5079.683739980162
 30
0.0
 11
2870.269343624905
 21
5739.683739980162
 31
0.0
 12
-332.6675348698627
 22
1124.060824512562
 32
0.0
 70
    32
 71
     5
 42
-1.0
 73
     0
 74
     0
 75
     0
  3
MATSU
100
AcDbAlignedDimension
 13
2630.777425009979
 23
6399.683739980162
 33
0.0
 14
2630.777425009979
 24
5079.683739980162
 34
0.0
 50
90.0
100
AcDbRotatedDimension
1001
ACAD
1000
DSTYLE
1002
{
1070
    40
1040
30.0
1002
}
  0
DIMENSION
  5
7CEA
330
19
100
AcDbEntity
  8
3
100
AcDbDimension
280
     0
  2
*D15
 10
605.601839367473
 20
5079.683739980162
 30
0.0
 11
545.6018393674731
 21
5479.683739980163
 31
0.0
 70
    32
 71
     5
 42
-1.0
 73
     0
 74
     0
 75
     0
  3
MATSU
100
AcDbAlignedDimension
 13
780.7774250099791
 23
5879.683739980162
 33
0.0
 14
780.7774250099791
 24
5079.683739980162
 34
0.0
 50
90.0
100
AcDbRotatedDimension
1001
ACAD
1000
DSTYLE
1002
{
1070
    40
1040
30.0
1002
}
  0
DIMENSION
  5
7CEB
330
19
100
AcDbEntity
  8
3
100
AcDbDimension
280
     0
  2
*D16
 10
2630.777425009979
 20
4737.509264283277
 30
0.0
 11
1705.777425009979
 21
4737.509264283277
 31
0.0
 12
-332.6675348698627
 22
1124.060824512562
 32
0.0
 70
   160
 71
     5
 42
-1.0
 73
     0
 74
     0
 75
     0
  3
MATSU
100
AcDbAlignedDimension
 13
780.7774250099791
 23
5079.683739980162
 33
0.0
 14
2630.777425009979
 24
5079.683739980162
 34
0.0
100
AcDbRotatedDimension
1001
ACAD
1000
DSTYLE
1002
{
1070
    40
1040
30.0
1002
}
  0
CIRCLE
  5
7CEC
330
19
100
AcDbEntity
  8
1
100
AcDbCircle
 10
2130.777425009979
 20
3255.894778991862
 30
0.0
 40
400.0
  0
CIRCLE
  5
7CED
330
19
100
AcDbEntity
  8
1
100
AcDbCircle
 10
2130.777425009979
 20
3255.894778991862
 30
0.0
 40
440.0
  0
LINE
  5
7CEE
330
19
100
AcDbEntity
  8
1
100
AcDbLine
 10
4051.239970242781
 20
3823.894778991862
 30
0.0
 11
5111.239970242782
 21
3823.894778991862
 31
0.0
  0
DIMENSION
  5
7CEF
330
19
100
AcDbEntity
  8
3
100
AcDbDimension
280
     0
  2
*D17
 10
5111.239970242781
 20
3930.827023344176
 30
0.0
 11
4581.239970242781
 21
3930.827023344176
 31
0.0
 12
-332.6675348698627
 22
1694.00716358238
 32
0.0
 70
   160
 71
     5
 42
-1.0
 73
     0
 74
     0
 75
     0
  3
MATSU
100
AcDbAlignedDimension
 13
4051.239970242781
 23
3823.894778991862
 33
0.0
 14
5111.239970242781
 24
3823.894778991862
 34
0.0
100
AcDbRotatedDimension
1001
ACAD
1000
DSTYLE
1002
{
1070
    40
1040
30.0
1002
}
  0
DIMENSION
  5
7CF1
330
19
100
AcDbEntity
  8
3
100
AcDbDimension
280
     0
  2
*D18
 10
3139.857697564634
 20
2115.894778991862
 30
0.0
 11
3064.857697564633
 21
1858.751921849005
 31
0.0
 70
    32
 71
     5
 42
100.0
 73
     0
 74
     0
 75
     0
  3
IGA
100
AcDbAlignedDimension
 13
2630.777425009979
 23
2215.894778991862
 33
0.0
 14
2630.777425009979
 24
2115.894778991862
 34
0.0
 50
90.0
100
AcDbRotatedDimension
1001
ACAD
1000
DSTYLE
1002
{
1070
   287
1070
     3
1070
    40
1040
30.0
1070
   143
1040
0.039
1070
   172
1070
     1
1070
   271
1070
     0
1070
   279
1070
     0
1070
   288
1070
     1
1070
     6
1000
DOT
1002
}
  0
LINE
  5
7CF2
330
19
100
AcDbEntity
  8
1
100
AcDbLine
 10
2675.777425009978
 20
6386.683739980163
 30
0.0
 11
2675.777425009979
 21
5246.683739980162
 31
0.0
  0
LINE
  5
7CF3
330
19
100
AcDbEntity
  8
1
100
AcDbLine
 10
1444.777425009979
 20
6346.683739980162
 30
0.0
 11
1444.777425009979
 21
5286.683739980163
 31
0.0
  0
LINE
  5
7CF4
330
19
100
AcDbEntity
  8
1
100
AcDbLine
 10
1444.777425009979
 20
6346.683739980162
 30
0.0
 11
2675.777425009978
 21
6346.683739980162
 31
0.0
  0
LINE
  5
7CF5
330
19
100
AcDbEntity
  8
1
100
AcDbLine
 10
1444.777425009979
 20
5286.683739980163
 30
0.0
 11
2675.777425009979
 21
5286.683739980162
 31
0.0
  0
LINE
  5
7CF6
330
19
100
AcDbEntity
  8
1
100
AcDbLine
 10
2672.777425009979
 20
6386.683739980163
 30
0.0
 11
2675.777425009978
 21
6386.683739980163
 31
0.0
  0
LINE
  5
7CF7
330
19
100
AcDbEntity
  8
1
100
AcDbLine
 10
2672.777425009979
 20
5246.683739980162
 30
0.0
 11
2675.777425009979
 21
5246.683739980162
 31
0.0
  0
LINE
  5
7CF8
330
19
100
AcDbEntity
  8
1
100
AcDbLine
 10
2672.777425009979
 20
6386.683739980163
 30
0.0
 11
2672.777425009979
 21
5246.683739980162
 31
0.0
  0
LINE
  5
7CF9
330
19
100
AcDbEntity
  8
1
100
AcDbLine
 10
2160.777425009978
 20
5286.683739980162
 30
0.0
 11
2160.777425009979
 21
5046.68373998016
 31
0.0
  0
LINE
  5
7CFA
330
19
100
AcDbEntity
  8
1
100
AcDbLine
 10
2100.777425009978
 20
5286.683739980162
 30
0.0
 11
2100.777425009979
 21
5046.68373998016
 31
0.0
  0
LINE
  5
7CFB
330
19
100
AcDbEntity
  8
1
100
AcDbLine
 10
810.7774250099792
 20
4916.683739980164
 30
0.0
 11
2350.777425009978
 21
4916.683739980161
 31
0.0
  0
LINE
  5
7CFC
330
19
100
AcDbEntity
  8
1
100
AcDbLine
 10
810.7774250099792
 20
5076.683739980164
 30
0.0
 11
2350.777425009978
 21
5076.683739980161
 31
0.0
  0
LINE
  5
7CFD
330
19
100
AcDbEntity
  8
1
100
AcDbLine
 10
2350.777425009979
 20
4916.683739980161
 30
0.0
 11
2350.777425009979
 21
5076.683739980161
 31
0.0
  0
LINE
  5
7CFE
330
19
100
AcDbEntity
  8
1
100
AcDbLine
 10
810.7774250099792
 20
4916.683739980164
 30
0.0
 11
810.7774250099792
 21
5076.683739980165
 31
0.0
  0
LINE
  5
7CFF
330
19
100
AcDbEntity
  8
1
100
AcDbLine
 10
920.7774250099792
 20
4961.683739980163
 30
0.0
 11
1140.777425009979
 21
4961.683739980163
 31
0.0
  0
LINE
  5
7D00
330
19
100
AcDbEntity
  8
1
100
AcDbLine
 10
920.7774250099792
 20
5046.683739980163
 30
0.0
 11
1140.777425009979
 21
5046.683739980164
 31
0.0
  0
LINE
  5
7D01
330
19
100
AcDbEntity
  8
1
100
AcDbLine
 10
2257.777425009978
 20
5046.68373998016
 30
0.0
 11
2257.77742500998
 21
4961.683739980162
 31
0.0
  0
LINE
  5
7D02
330
19
100
AcDbEntity
  8
1
100
AcDbLine
 10
2003.777425009978
 20
5046.683739980162
 30
0.0
 11
2003.77742500998
 21
4961.683739980162
 31
0.0
  0
LINE
  5
7D03
330
19
100
AcDbEntity
  8
1
100
AcDbLine
 10
1140.777425009979
 20
5046.683739980163
 30
0.0
 11
1140.777425009979
 21
4961.683739980163
 31
0.0
  0
LINE
  5
7D04
330
19
100
AcDbEntity
  8
1
100
AcDbLine
 10
920.7774250099792
 20
5046.683739980163
 30
0.0
 11
920.7774250099792
 21
4961.683739980163
 31
0.0
  0
LINE
  5
7D05
330
19
100
AcDbEntity
  8
1
100
AcDbLine
 10
2003.77742500998
 20
4961.683739980162
 30
0.0
 11
2257.777425009978
 21
4961.683739980161
 31
0.0
  0
LINE
  5
7D06
330
19
100
AcDbEntity
  8
1
100
AcDbLine
 10
2003.777425009978
 20
5046.683739980162
 30
0.0
 11
2257.777425009978
 21
5046.683739980162
 31
0.0
  0
LINE
  5
7D07
330
19
100
AcDbEntity
  8
1
100
AcDbLine
 10
1192.777425009979
 20
5564.683739980162
 30
0.0
 11
1192.777425009979
 21
5079.683739980165
 31
0.0
  0
LINE
  5
7D08
330
19
100
AcDbEntity
  8
1
100
AcDbLine
 10
868.7774250099792
 20
5564.683739980162
 30
0.0
 11
868.7774250099792
 21
5079.683739980165
 31
0.0
  0
LINE
  5
7D09
330
19
100
AcDbEntity
  8
1
100
AcDbLine
 10
868.7774250099792
 20
5564.683739980163
 30
0.0
 11
1192.777425009979
 21
5564.683739980163
 31
0.0
  0
LINE
  5
7D0A
330
19
100
AcDbEntity
  8
1
100
AcDbLine
 10
780.7774250099791
 20
5079.683739980163
 30
0.0
 11
1192.777425009979
 21
5079.683739980163
 31
0.0
  0
LINE
  5
7D0B
330
19
100
AcDbEntity
  8
1
100
AcDbLine
 10
1051.777425009979
 20
5079.683739980162
 30
0.0
 11
1051.777425009979
 21
5046.683739980164
 31
0.0
  0
LINE
  5
7D0C
330
19
100
AcDbEntity
  8
1
100
AcDbLine
 10
1009.777425009979
 20
5079.683739980162
 30
0.0
 11
1009.777425009979
 21
5046.683739980164
 31
0.0
  0
LINE
  5
7D0D
330
19
100
AcDbEntity
  8
1
100
AcDbLine
 10
4051.239970242781
 20
2483.894778991862
 30
0.0
 11
3886.939970242782
 21
2483.894778991862
 31
0.0
  0
LINE
  5
7D0E
330
19
100
AcDbEntity
  8
1
100
AcDbLine
 10
3886.939970242781
 20
2807.894778991862
 30
0.0
 11
3886.939970242781
 21
2483.894778991862
 31
0.0
  0
LINE
  5
7D0F
330
19
100
AcDbEntity
  8
1
100
AcDbLine
 10
3886.93997024278
 20
2624.894778991862
 30
0.0
 11
3853.939970242781
 21
2624.894778991862
 31
0.0
  0
LINE
  5
7D10
330
19
100
AcDbEntity
  8
1
100
AcDbLine
 10
3886.93997024278
 20
2666.894778991862
 30
0.0
 11
3853.939970242781
 21
2666.894778991862
 31
0.0
  0
LINE
  5
7D11
330
19
100
AcDbEntity
  8
1
100
AcDbLine
 10
4051.239970242781
 20
2807.894778991862
 30
0.0
 11
3886.939970242782
 21
2807.894778991862
 31
0.0
  0
LINE
  5
7D18
330
19
100
AcDbEntity
  8
1
100
AcDbLine
 10
2630.777425009979
 20
5286.683739980162
 30
0.0
 11
2630.777425009979
 21
5079.683739980162
 31
0.0
  0
DIMENSION
  5
7D1B
330
19
100
AcDbEntity
  8
3
100
AcDbDimension
280
     0
  2
*D19
 10
2675.777425009978
 20
3984.494749381887
 30
0.0
 11
2403.277425009979
 21
4044.494749381887
 31
0.0
 70
    32
 71
     5
 42
-1.0
 73
     0
 74
     0
 75
     0
  3
MATSU
100
AcDbAlignedDimension
 13
2130.777425009979
 23
3802.168572762006
 33
0.0
 14
2675.777425009978
 24
3275.394778991862
 34
0.0
100
AcDbRotatedDimension
1001
ACAD
1000
DSTYLE
1002
{
1070
   287
1070
     4
1070
    40
1040
30.0
1070
    75
1070
     1
1070
   279
1070
     1
1070
   289
1070
     3
1002
}
  0
DIMENSION
  5
7D1C
330
19
100
AcDbEntity
  8
3
100
AcDbDimension
280
     0
  2
*D20
 10
780.7774250099791
 20
4146.210192977089
 30
0.0
 11
1728.277425009979
 21
4206.210192977088
 31
0.0
 12
-332.6675348698627
 22
1694.00716358238
 32
0.0
 70
    32
 71
     5
 42
-1.0
 73
     0
 74
     0
 75
     0
  3
MATSU
100
AcDbAlignedDimension
 13
2675.777425009978
 23
3275.394778991862
 33
0.0
 14
780.7774250099791
 24
2395.894778991862
 34
0.0
100
AcDbRotatedDimension
1001
ACAD
1000
DSTYLE
1002
{
1070
    40
1040
30.0
1002
}
  0
LINE
  5
7D1D
330
19
100
AcDbEntity
  8
1
100
AcDbLine
 10
2024.084517444049
 20
3448.291825422227
 30
0.0
 11
924.0845174440492
 21
2838.291825422227
 31
0.0
  0
LINE
  5
7D1E
330
19
100
AcDbEntity
  8
1
100
AcDbLine
 10
2067.6910387733
 20
3366.117770566201
 30
0.0
 11
976.1356731514387
 21
2741.363511851525
 31
0.0
  0
LINE
  5
7D1F
330
19
100
AcDbEntity
  8
1
100
AcDbLine
 10
2190.861598997116
 20
3144.00692426096
 30
0.0
 11
1082.818835550019
 21
2548.984038673758
 31
0.0
  0
LINE
  5
7D20
330
19
100
AcDbEntity
  8
1
100
AcDbLine
 10
2237.470332575908
 20
3063.497732561498
 30
0.0
 11
1137.470332575907
 21
2453.497732561498
 31
0.0
  0
LINE
  5
7D21
330
19
100
AcDbEntity
  8
1
100
AcDbLine
 10
4051.239970242781
 20
2407.894778991862
 30
0.0
 11
5111.239970242781
 21
2407.894778991862
 31
0.0
  0
LINE
  5
7D22
330
19
100
AcDbEntity
  8
1
100
AcDbLine
 10
4051.239970242781
 20
3232.894778991862
 30
0.0
 11
5111.239970242781
 21
3232.894778991862
 31
0.0
  0
LINE
  5
7D23
330
19
100
AcDbEntity
  8
1
100
AcDbLine
 10
5111.239970242781
 20
3232.894778991862
 30
0.0
 11
4051.239970242781
 21
2407.894778991862
 31
0.0
  0
LINE
  5
7D24
330
19
100
AcDbEntity
  8
1
100
AcDbLine
 10
4051.239970242781
 20
3232.894778991862
 30
0.0
 11
5111.23997024278
 21
2407.894778991862
 31
0.0
  0
LINE
  5
7F3A
330
19
100
AcDbEntity
  8
4
100
AcDbLine
 10
5550.0
 20
1210.115620014367
 30
0.0
 11
5550.0
 21
610.1156200143669
 31
0.0
  0
LINE
  5
7F3B
330
19
100
AcDbEntity
  8
4
100
AcDbLine
 10
3450.0
 20
1210.115620014367
 30
0.0
 11
3450.0
 21
610.1156200143669
 31
0.0
  0
LINE
  5
7F3C
330
19
100
AcDbEntity
  8
4
100
AcDbLine
 10
1950.0
 20
1210.115620014367
 30
0.0
 11
1950.0
 21
610.1156200143669
 31
0.0
  0
LINE
  5
7F3F
330
19
100
AcDbEntity
  8
4
100
AcDbLine
 10
1950.0
 20
610.1156200143669
 30
0.0
 11
5550.0
 21
610.1156200143669
 31
0.0
  0
LINE
  5
7F40
330
19
100
AcDbEntity
  8
4
100
AcDbLine
 10
1950.0
 20
910.1156200143668
 30
0.0
 11
5550.0
 21
910.1156200143668
 31
0.0
  0
TEXT
  5
7F41
330
19
100
AcDbEntity
  8
4
100
AcDbText
 10
2065.506242540705
 20
1004.744697614205
 30
0.0
 40
150.0
  1
機器名称
100
AcDbText
  0
TEXT
  5
7F42
330
19
100
AcDbEntity
  8
4
100
AcDbText
 10
2058.774318074393
 20
675.0510902103997
 30
0.0
 40
150.0
  1
機器型番
100
AcDbText
  0
TEXT
  5
7F43
330
19
100
AcDbEntity
  8
4
100
AcDbText
 10
3537.703866973613
 20
976.0141593271086
 30
0.0
 40
120.0
  1
ミツヤリミットロードファン
100
AcDbText
  0
TEXT
  5
7F44
330
19
100
AcDbEntity
  8
4
100
AcDbText
 10
3559.963486756442
 20
661.594372854197
 30
0.0
 40
150.0
  1
LL#5-5
100
AcDbText
  0
TEXT
  5
7F46
330
19
100
AcDbEntity
  8
4
100
AcDbText
 10
2476.737619792337
 20
7134.454690975989
 30
0.0
 40
161.9999999999999
  1
床置防振ベット
100
AcDbText
  0
TEXT
  5
7F47
330
19
100
AcDbEntity
  8
4
100
AcDbText
 10
948.5027799883392
 20
7601.642928597894
 30
0.0
 40
216.0
  1
遠心式両吸込両持リミットロードファン
100
AcDbText
  0
LINE
  5
7F48
330
19
100
AcDbEntity
  8
4
100
AcDbLine
 10
750.0
 20
7408.226262794414
 30
0.0
 11
5550.0
 21
7408.226262794414
 31
0.0
  0
LINE
  5
7F49
330
19
100
AcDbEntity
  8
4
100
AcDbLine
 10
750.0
 20
8008.226262794414
 30
0.0
 11
5550.0
 21
8008.226262794414
 31
0.0
  0
LINE
  5
7F4A
330
19
100
AcDbEntity
  8
4
100
AcDbLine
 10
1950.0
 20
1210.115620014367
 30
0.0
 11
5550.0
 21
1210.115620014367
 31
0.0
  0
LINE
  5
7F4B
330
19
100
AcDbEntity
  8
4
100
AcDbLine
 10
750.0
 20
8008.226262794414
 30
0.0
 11
750.0
 21
7408.226262794414
 31
0.0
  0
TEXT
  5
7F4C
330
19
100
AcDbEntity
  8
4
100
AcDbText
 10
1169.16112306423
 20
7131.126599617471
 30
0.0
 40
161.9999999999999
  1
左回転右横向
100
AcDbText
  0
TEXT
  5
7F4D
330
19
100
AcDbEntity
  8
4
100
AcDbText
 10
4406.908677747869
 20
8118.183244485926
 30
0.0
 40
168.0
  1
No.
100
AcDbText
  0
TEXT
  5
7F4E
330
19
100
AcDbEntity
  8
4
100
AcDbText
 10
3933.88818780004
 20
7150.286523997547
 30
0.0
 40
161.9999999999999
  1
縮尺：1/30
100
AcDbText
  0
LINE
  5
7F4F
330
19
100
AcDbEntity
  8
4
100
AcDbLine
 10
5550.0
 20
8008.226262794414
 30
0.0
 11
5550.0
 21
7408.226262794414
 31
0.0
  0
LINE
  5
7F50
330
19
100
AcDbEntity
  8
4
100
AcDbLine
 10
6300.0
 20
8850.0
 30
0.0
 11
6300.0
 21
8850.0
 31
0.0
  0
LINE
  5
7F51
330
19
100
AcDbEntity
  8
4
100
AcDbLine
 10
4321.852267079594
 20
8043.790749376205
 30
0.0
 11
4321.852267079594
 21
8359.956784649257
 31
0.0
  0
LINE
  5
7F52
330
19
100
AcDbEntity
  8
4
100
AcDbLine
 10
4321.852267079594
 20
8359.956784649257
 30
0.0
 11
5550.0
 21
8359.956784649257
 31
0.0
  0
LINE
  5
7F53
330
19
100
AcDbEntity
  8
4
100
AcDbLine
 10
5550.0
 20
8359.956784649257
 30
0.0
 11
5550.0
 21
8043.790749376205
 31
0.0
  0
LINE
  5
7F54
330
19
100
AcDbEntity
  8
4
100
AcDbLine
 10
5550.0
 20
8043.790749376205
 30
0.0
 11
4321.852267079594
 21
8043.790749376205
 31
0.0
  0
LINE
  5
7F55
330
19
100
AcDbEntity
  8
4
100
AcDbLine
 10
0.0
 20
0.0
 30
0.0
 11
0.0
 21
8850.0
 31
0.0
  0
LINE
  5
7F56
330
19
100
AcDbEntity
  8
4
100
AcDbLine
 10
0.0
 20
8850.0
 30
0.0
 11
6300.0
 21
8850.0
 31
0.0
  0
LINE
  5
7F57
330
19
100
AcDbEntity
  8
4
100
AcDbLine
 10
6300.0
 20
8850.0
 30
0.0
 11
6300.0
 21
0.0
 31
0.0
  0
LINE
  5
7F58
330
19
100
AcDbEntity
  8
4
100
AcDbLine
 10
6300.0
 20
0.0
 30
0.0
 11
0.0
 21
0.0
 31
0.0
  0
DIMENSION
  5
8016
330
19
100
AcDbEntity
  8
3
100
AcDbDimension
280
     0
  2
*D22
 10
3140.115840197137
 20
3255.894778991862
 30
0.0
 11
3065.115840197136
 21
3534.894778991862
 31
0.0
 70
    32
 71
     5
 42
558.0
 73
     0
 74
     0
 75
     0
  3
IGA
100
AcDbAlignedDimension
 13
2071.77742500998
 23
3813.894778991862
 33
0.0
 14
2797.249216860369
 24
3255.894778991862
 34
0.0
 50
90.0
100
AcDbRotatedDimension
1001
ACAD
1000
DSTYLE
1002
{
1070
   172
1070
     1
1070
    40
1040
30.0
1070
   271
1070
     0
1070
   143
1040
0.039
1002
}
  0
DIMENSION
  5
8032
330
19
100
AcDbEntity
  8
3
100
AcDbDimension
280
     0
  2
*D24
 10
3138.810177738091
 20
2295.894778991862
 30
0.0
 11
3258.540001718764
 21
2255.894778991863
 31
0.0
 70
   160
 71
     5
 42
80.0
 73
     0
 74
     0
 75
     0
  3
IGA
100
AcDbAlignedDimension
 13
2630.777425009979
 23
2215.894778991862
 33
0.0
 14
2630.777425009979
 24
2295.894778991862
 34
0.0
 50
90.0
100
AcDbRotatedDimension
1001
ACAD
1000
DSTYLE
1002
{
1070
     3
1000
(<>)
1070
    40
1040
30.0
1070
    75
1070
     1
1070
    76
1070
     1
1070
   143
1040
0.039
1070
   172
1070
     1
1070
   271
1070
     0
1070
   343
1005
8026
1070
   344
1005
8026
1002
}
  0
DIMENSION
  5
803F
330
19
100
AcDbEntity
  8
3
100
AcDbDimension
280
     0
  2
*D25
 10
3381.21702085777
 20
2115.894778991862
 30
0.0
 11
3282.645592286341
 21
2964.894778991863
 31
0.0
 70
    32
 71
     5
 42
1698.0
 73
     0
 74
     0
 75
     0
  3
IGA
100
AcDbAlignedDimension
 13
2071.77742500998
 23
3813.894778991862
 33
0.0
 14
2630.777425009979
 24
2115.894778991862
 34
0.0
 50
90.0
100
AcDbRotatedDimension
1001
ACAD
1000
DSTYLE
1002
{
1070
   172
1070
     1
1070
    40
1040
30.0
1070
     3
1000
(<>)
1070
   271
1070
     0
1070
   143
1040
0.039
1002
}
  0
ARC
  5
8232
330
19
100
AcDbEntity
  8
FUTO
100
AcDbCircle
 10
2083.277425009979
 20
3303.394778991862
 30
0.0
 40
510.5
100
AcDbArc
 50
0.0
 51
90.0
  0
LINE
  5
8233
330
19
100
AcDbEntity
  8
FUTO
100
AcDbLine
 10
2675.777425009979
 20
2407.894778991862
 30
0.0
 11
2130.777425009979
 21
2464.266633204383
 31
0.0
  0
ARC
  5
8234
330
19
100
AcDbEntity
  8
FUTO
100
AcDbCircle
 10
2071.77742500998
 20
3196.894778991862
 30
0.0
 40
617.0
100
AcDbArc
 50
90.0
 51
180.0
  0
ARC
  5
8235
330
19
100
AcDbEntity
  8
FUTO
100
AcDbCircle
 10
2189.77742500998
 20
3196.894778991862
 30
0.0
 40
735.0
100
AcDbArc
 50
180.0
 51
265.3957932734464
  0
LINE
  5
8236
330
19
100
AcDbEntity
  8
FUTO
100
AcDbLine
 10
2071.77742500998
 20
3813.894778991862
 30
0.0
 11
2083.277425009979
 21
3813.894778991862
 31
0.0
  0
ARC
  5
8237
330
19
100
AcDbEntity
  8
FUTO
100
AcDbCircle
 10
2161.27742500998
 20
3286.394778991862
 30
0.0
 40
432.5
100
AcDbArc
 50
352.8943447527033
 51
0.0
  0
LINE
  5
8238
330
19
100
AcDbEntity
  8
FUTO
100
AcDbLine
 10
2590.455709642369
 20
3232.894778991862
 30
0.0
 11
2675.77742500998
 21
3232.894778991862
 31
0.0
  0
LINE
  5
8239
330
19
100
AcDbEntity
  8
FUTO
100
AcDbLine
 10
2593.77742500998
 20
3303.394778991862
 30
0.0
 11
2593.77742500998
 21
3286.394778991862
 31
0.0
  0
LINE
  5
823A
330
19
100
AcDbEntity
  8
1
100
AcDbLine
 10
2675.777425009979
 20
2365.394778991861
 30
0.0
 11
2675.777425009978
 21
3275.394778991862
 31
0.0
  0
LINE
  5
823B
330
19
100
AcDbEntity
  8
1
100
AcDbLine
 10
2675.777425009979
 20
2365.394778991861
 30
0.0
 11
2672.777425009979
 21
2365.394778991861
 31
0.0
  0
LINE
  5
823C
330
19
100
AcDbEntity
  8
1
100
AcDbLine
 10
2675.777425009978
 20
3275.394778991862
 30
0.0
 11
2672.777425009978
 21
3275.394778991862
 31
0.0
  0
LINE
  5
823D
330
19
100
AcDbEntity
  8
1
100
AcDbLine
 10
2635.777425009979
 20
2411.295873762285
 30
0.0
 11
2635.777425009978
 21
3232.894778991862
 31
0.0
  0
LINE
  5
823E
330
19
100
AcDbEntity
  8
1
100
AcDbLine
 10
2672.777425009979
 20
2365.394778991861
 30
0.0
 11
2672.777425009978
 21
3275.394778991862
 31
0.0
  0
POINT
  5
823F
330
19
100
AcDbEntity
  8
1
100
AcDbPoint
 10
2695.995335679002
 20
3255.894778991862
 30
0.0
 50
180.0
  0
POINT
  5
8240
330
19
100
AcDbEntity
  8
1
100
AcDbPoint
 10
2695.995335679002
 20
3255.894778991862
 30
0.0
 50
180.0
  0
DIMENSION
  5
8373
330
19
100
AcDbEntity
  8
3
100
AcDbDimension
280
     0
  2
*D50
 10
4581.239970242781
 20
4125.639571181684
 30
0.0
 11
4131.089970242782
 21
4224.210999753112
 31
0.0
 70
    32
 71
     5
 42
900.3000000000001
 73
     0
 74
     0
 75
     0
  3
IGA
100
AcDbAlignedDimension
 13
3680.939970242781
 23
3475.894778991861
 33
0.0
 14
4581.239970242781
 24
4035.827023344176
 34
0.0
100
AcDbRotatedDimension
1001
ACAD
1000
DSTYLE
1002
{
1070
     3
1000
(<>)
1070
    40
1040
30.0
1070
   143
1040
0.039
1070
   172
1070
     1
1070
   271
1070
     0
1002
}
  0
DIMENSION
  5
8380
330
19
100
AcDbEntity
  8
3
100
AcDbDimension
280
     0
  2
*D51
 10
5241.039970242782
 20
4125.639571181684
 30
0.0
 11
4911.139970242782
 21
4224.210999753112
 31
0.0
 70
    32
 71
     5
 42
659.8000000000011
 73
     0
 74
     0
 75
     0
  3
IGA
100
AcDbAlignedDimension
 13
4581.239970242781
 23
4035.827023344176
 33
0.0
 14
5241.039970242782
 24
3225.894778991861
 34
0.0
100
AcDbRotatedDimension
1001
ACAD
1000
DSTYLE
1002
{
1070
     3
1000
(<>)
1070
    40
1040
30.0
1070
   143
1040
0.039
1070
   172
1070
     1
1070
   271
1070
     0
1002
}
  0
ENDSEC
  0
SECTION
  2
OBJECTS
  0
DICTIONARY
  5
C
330
0
100
AcDbDictionary
281
     1
  3
ACAD_CIP_PREVIOUS_PRODUCT_INFO
350
80ED
  3
ACAD_COLOR
350
80D0
  3
ACAD_DETAILVIEWSTYLE
350
80E9
  3
ACAD_GROUP
350
D
  3
ACAD_LAYOUT
350
8048
  3
ACAD_MATERIAL
350
809E
  3
ACAD_MLEADERSTYLE
350
80E5
  3
ACAD_MLINESTYLE
350
E
  3
ACAD_PLOTSETTINGS
350
8049
  3
ACAD_PLOTSTYLENAME
350
8046
  3
ACAD_SCALELIST
350
80D3
  3
ACAD_SECTIONVIEWSTYLE
350
80E7
  3
ACAD_TABLESTYLE
350
80D1
  3
ACAD_VISUALSTYLE
350
80B7
  3
ACDB_RECOMPOSE_DATA
350
842F
  3
AcDbVariableDictionary
350
8095
  3
AcDsDecomposeData
350
8435
  0
DICTIONARY
  5
8184
330
2
100
AcDbDictionary
280
     1
281
     1
  3
ACAD_LAYERSTATES
360
8185
  0
DICTIONARY
  5
83F3
330
F
100
AcDbDictionary
280
     1
281
     1
  3
ADSK_XREC_LAYER_RECONCILED
360
83F4
  0
DICTIONARY
  5
83F5
330
31
100
AcDbDictionary
280
     1
281
     1
  3
ADSK_XREC_LAYER_RECONCILED
360
83F6
  0
DICTIONARY
  5
83F7
330
76D0
100
AcDbDictionary
280
     1
281
     1
  3
ADSK_XREC_LAYER_RECONCILED
360
83F8
  0
DICTIONARY
  5
83F9
330
76D1
100
AcDbDictionary
280
     1
281
     1
  3
ADSK_XREC_LAYER_RECONCILED
360
83FA
  0
DICTIONARY
  5
83FB
330
76D2
100
AcDbDictionary
280
     1
281
     1
  3
ADSK_XREC_LAYER_RECONCILED
360
83FC
  0
DICTIONARY
  5
8182
330
8181
100
AcDbDictionary
280
     1
281
     1
  3
ADSK_XREC_LAYER_RECONCILED
360
83FD
  0
DICTIONARY
  5
8075
330
19
100
AcDbDictionary
280
     1
281
     1
  3
ACAD_LAYOUTSELFREF
360
8076
  0
DICTIONARY
  5
8073
330
16
100
AcDbDictionary
280
     1
281
     1
  3
ACAD_LAYOUTSELFREF
360
8074
  0
XRECORD
  5
80ED
102
{ACAD_REACTORS
330
C
102
}
330
C
100
AcDbXrecord
280
     1
300
ACDLT
300
2023
300

  0
DICTIONARY
  5
80D0
102
{ACAD_REACTORS
330
C
102
}
330
C
100
AcDbDictionary
281
     1
  0
DICTIONARY
  5
80E9
102
{ACAD_REACTORS
330
C
102
}
330
C
100
AcDbDictionary
281
     1
  3
Metric50
350
80EA
  0
DICTIONARY
  5
D
102
{ACAD_REACTORS
330
C
102
}
330
C
100
AcDbDictionary
281
     1
  0
DICTIONARY
  5
8048
102
{ACAD_REACTORS
330
C
102
}
330
C
100
AcDbDictionary
281
     1
  3
Model
350
804A
  3
ﾚｲｱｳﾄ1
350
804B
  0
DICTIONARY
  5
809E
102
{ACAD_REACTORS
330
C
102
}
330
C
100
AcDbDictionary
281
     1
  3
ByBlock
350
80A7
  3
ByLayer
350
809F
  3
Global
350
80AF
  0
DICTIONARY
  5
80E5
102
{ACAD_REACTORS
330
C
102
}
330
C
100
AcDbDictionary
281
     1
  3
Standard
350
80E6
  0
DICTIONARY
  5
E
102
{ACAD_REACTORS
330
C
102
}
330
C
100
AcDbDictionary
281
     1
  3
STANDARD
350
1C
  0
DICTIONARY
  5
8049
102
{ACAD_REACTORS
330
C
102
}
330
C
100
AcDbDictionary
281
     1
  0
ACDBDICTIONARYWDFLT
  5
8046
102
{ACAD_REACTORS
330
C
102
}
330
C
100
AcDbDictionary
281
     1
  3
Normal
350
8047
100
AcDbDictionaryWithDefault
340
8047
  0
DICTIONARY
  5
80D3
102
{ACAD_REACTORS
330
C
102
}
330
C
100
AcDbDictionary
281
     1
  3
A0
350
80D4
  3
A1
350
80D5
  3
A2
350
80D6
  3
A3
350
80D7
  3
A4
350
80D8
  3
A5
350
80D9
  3
A6
350
80DA
  3
A7
350
80DB
  3
A8
350
80DC
  3
A9
350
80DD
  3
B0
350
80DE
  3
B1
350
80DF
  3
B2
350
80E0
  3
B3
350
80E1
  3
B4
350
80E2
  3
B5
350
80E3
  3
B6
350
80E4
  0
DICTIONARY
  5
80E7
102
{ACAD_REACTORS
330
C
102
}
330
C
100
AcDbDictionary
281
     1
  3
Metric50
350
80E8
  0
DICTIONARY
  5
80D1
102
{ACAD_REACTORS
330
C
102
}
330
C
100
AcDbDictionary
281
     1
  3
Standard
350
80D2
  0
DICTIONARY
  5
80B7
102
{ACAD_REACTORS
330
C
102
}
330
C
100
AcDbDictionary
281
     1
  3
2dWireframe
350
80BD
  3
Basic
350
80BC
  3
Brighten
350
80C3
  3
ColorChange
350
80C7
  3
Conceptual
350
80C0
  3
Dim
350
80C2
  3
EdgeColorOff
350
80CF
  3
Facepattern
350
80C6
  3
Flat
350
80B8
  3
FlatWithEdges
350
80B9
  3
Gouraud
350
80BA
  3
GouraudWithEdges
350
80BB
  3
Hidden
350
80BF
  3
JitterOff
350
80CD
  3
Linepattern
350
80C5
  3
OverhangOff
350
80CE
  3
Realistic
350
80C1
  3
Shaded
350
80CC
  3
Shaded with edges
350
80CB
  3
Shades of Gray
350
80C8
  3
Sketchy
350
80C9
  3
Thicken
350
80C4
  3
Wireframe
350
80BE
  3
X-Ray
350
80CA
  0
XRECORD
  5
842F
102
{ACAD_REACTORS
330
C
102
}
330
C
100
AcDbXrecord
280
     1
 90
        1
330
7D1B
330
80D2
  0
DICTIONARY
  5
8095
102
{ACAD_REACTORS
330
C
102
}
330
C
100
AcDbDictionary
281
     1
  3
CANNOSCALE
350
8424
  3
CMLEADERSTYLE
350
8420
  3
CTABLESTYLE
350
841F
  3
CVIEWDETAILSTYLE
350
8421
  3
CVIEWSECTIONSTYLE
350
8422
  3
DIMASSOC
350
8096
  3
LAYEREVAL
350
8426
  3
LAYERNOTIFY
350
8427
  3
LIGHTINGUNITS
350
8425
  3
MARKUPASSISTMODE
350
842C
  3
MSLTSCALE
350
8423
  0
DICTIONARY
  5
8435
102
{ACAD_REACTORS
330
C
102
}
330
C
100
AcDbDictionary
281
     1
  3
AcDsRecords
350
8437
  3
AcDsSchemas
350
8436
1001
ACAD
1070
     2
  0
DICTIONARY
  5
8185
102
{ACAD_REACTORS
330
8184
102
}
330
8184
100
AcDbDictionary
281
     1
  0
XRECORD
  5
83F4
102
{ACAD_REACTORS
330
83F3
102
}
330
83F3
100
AcDbXrecord
280
     1
290
     1
  0
XRECORD
  5
83F6
102
{ACAD_REACTORS
330
83F5
102
}
330
83F5
100
AcDbXrecord
280
     1
290
     1
  0
XRECORD
  5
83F8
102
{ACAD_REACTORS
330
83F7
102
}
330
83F7
100
AcDbXrecord
280
     1
290
     1
  0
XRECORD
  5
83FA
102
{ACAD_REACTORS
330
83F9
102
}
330
83F9
100
AcDbXrecord
280
     1
290
     1
  0
XRECORD
  5
83FC
102
{ACAD_REACTORS
330
83FB
102
}
330
83FB
100
AcDbXrecord
280
     1
290
     1
  0
XRECORD
  5
83FD
102
{ACAD_REACTORS
330
8182
102
}
330
8182
100
AcDbXrecord
280
     1
290
     1
  0
XRECORD
  5
8076
102
{ACAD_REACTORS
330
8075
102
}
330
8075
100
AcDbXrecord
280
     1
340
19
  0
XRECORD
  5
8074
102
{ACAD_REACTORS
330
8073
102
}
330
8073
100
AcDbXrecord
280
     1
340
16
  0
ACDBDETAILVIEWSTYLE
  5
80EA
102
{ACAD_XDICTIONARY
360
843A
102
}
102
{ACAD_REACTORS
330
80E9
102
}
330
80E9
100
AcDbModelDocViewStyle
 70
     0
  3
Metric50
290
     0
100
AcDbDetailViewStyle
 70
     0
 71
     0
 90
        3
 71
     1
340
10
 62
   256
 40
5.0
340
0
 62
   256
 40
5.0
300

 40
0.0
280
     1
 71
     2
340
15
 90
       25
 62
   256
 71
     3
340
10
 62
   256
 40
5.0
 90
        0
 40
15.0
 90
        1
300
%<\AcVar ViewDetailId>% (%<\AcVar ViewScale \f "%sn">%)
 71
     4
340
15
 90
       25
 62
   256
340
15
 90
       25
 62
   256
280
     0
  0
LAYOUT
  5
804A
102
{ACAD_REACTORS
330
8048
102
}
330
8048
100
AcDbPlotSettings
  1

  2
\\Txbo34x8944cqyd\EPSON LP-6100
  4

  6

 40
0.0
 41
0.0
 42
0.0
 43
0.0
 44
0.0
 45
0.0
 46
0.0
 47
0.0
 48
0.0
 49
0.0
140
0.0
141
0.0
142
1.0
143
1.0
 70
  1712
 72
     0
 73
     0
 74
     0
  7
GOD2000TABLE.ctb
 75
     0
147
1.0
 76
     0
 77
     2
 78
   300
148
0.0
149
0.0
100
AcDbLayout
  1
Model
 70
     1
 71
     0
 10
0.0
 20
0.0
 11
12.0
 21
9.0
 12
0.0
 22
0.0
 32
0.0
 14
0.0
 24
0.0
 34
0.0
 15
0.0
 25
0.0
 35
0.0
146
0.0
 13
0.0
 23
0.0
 33
0.0
 16
1.0
 26
0.0
 36
0.0
 17
0.0
 27
1.0
 37
0.0
 76
     0
330
19
331
809C
  0
LAYOUT
  5
804B
102
{ACAD_REACTORS
330
8048
102
}
330
8048
100
AcDbPlotSettings
  1

  2
\\Txbo34x8944cqyd\EPSON LP-6100
  4

  6

 40
0.0
 41
0.0
 42
0.0
 43
0.0
 44
0.0
 45
0.0
 46
0.0
 47
0.0
 48
0.0
 49
0.0
140
0.0
141
0.0
142
1.0
143
1.0
 70
   688
 72
     0
 73
     0
 74
     5
  7
GOD2000TABLE.ctb
 75
    16
147
1.0
 76
     0
 77
     2
 78
   300
148
0.0
149
0.0
100
AcDbLayout
  1
ﾚｲｱｳﾄ1
 70
     1
 71
     1
 10
0.0
 20
0.0
 11
12.0
 21
9.0
 12
0.0
 22
0.0
 32
0.0
 14
1.000000000000000E+20
 24
1.000000000000000E+20
 34
1.000000000000000E+20
 15
-1.000000000000000E+20
 25
-1.000000000000000E+20
 35
-1.000000000000000E+20
146
0.0
 13
0.0
 23
0.0
 33
0.0
 16
1.0
 26
0.0
 36
0.0
 17
0.0
 27
1.0
 37
0.0
 76
     0
330
16
  0
MATERIAL
  5
80A7
102
{ACAD_XDICTIONARY
360
80A8
102
}
102
{ACAD_REACTORS
330
809E
102
}
330
809E
100
AcDbMaterial
  1
ByBlock
 72
     0
 43
0.0208333333333333
 43
0.0
 43
0.0
 43
0.0
 43
0.0
 43
0.0208333333333333
 43
0.0
 43
0.0
 43
0.0
 43
0.0
 43
1.0
 43
0.0
 43
0.0
 43
0.0
 43
0.0
 43
1.0
 77
     0
 47
0.0208333333333333
 47
0.0
 47
0.0
 47
0.0
 47
0.0
 47
0.0208333333333333
 47
0.0
 47
0.0
 47
0.0
 47
0.0
 47
1.0
 47
0.0
 47
0.0
 47
0.0
 47
0.0
 47
1.0
171
     0
 49
0.0208333333333333
 49
0.0
 49
0.0
 49
0.0
 49
0.0
 49
0.0208333333333333
 49
0.0
 49
0.0
 49
0.0
 49
0.0
 49
1.0
 49
0.0
 49
0.0
 49
0.0
 49
0.0
 49
1.0
175
     0
142
0.0208333333333333
142
0.0
142
0.0
142
0.0
142
0.0
142
0.0208333333333333
142
0.0
142
0.0
142
0.0
142
0.0
142
1.0
142
0.0
142
0.0
142
0.0
142
0.0
142
1.0
179
     0
144
0.0208333333333333
144
0.0
144
0.0
144
0.0
144
0.0
144
0.0208333333333333
144
0.0
144
0.0
144
0.0
144
0.0
144
1.0
144
0.0
144
0.0
144
0.0
144
0.0
144
1.0
147
0.0208333333333333
147
0.0
147
0.0
147
0.0
147
0.0
147
0.0208333333333333
147
0.0
147
0.0
147
0.0
147
0.0
147
1.0
147
0.0
147
0.0
147
0.0
147
0.0
147
1.0
  0
MATERIAL
  5
809F
102
{ACAD_XDICTIONARY
360
80A0
102
}
102
{ACAD_REACTORS
330
809E
102
}
330
809E
100
AcDbMaterial
  1
ByLayer
 72
     0
 43
0.0208333333333333
 43
0.0
 43
0.0
 43
0.0
 43
0.0
 43
0.0208333333333333
 43
0.0
 43
0.0
 43
0.0
 43
0.0
 43
1.0
 43
0.0
 43
0.0
 43
0.0
 43
0.0
 43
1.0
 77
     0
 47
0.0208333333333333
 47
0.0
 47
0.0
 47
0.0
 47
0.0
 47
0.0208333333333333
 47
0.0
 47
0.0
 47
0.0
 47
0.0
 47
1.0
 47
0.0
 47
0.0
 47
0.0
 47
0.0
 47
1.0
171
     0
 49
0.0208333333333333
 49
0.0
 49
0.0
 49
0.0
 49
0.0
 49
0.0208333333333333
 49
0.0
 49
0.0
 49
0.0
 49
0.0
 49
1.0
 49
0.0
 49
0.0
 49
0.0
 49
0.0
 49
1.0
175
     0
142
0.0208333333333333
142
0.0
142
0.0
142
0.0
142
0.0
142
0.0208333333333333
142
0.0
142
0.0
142
0.0
142
0.0
142
1.0
142
0.0
142
0.0
142
0.0
142
0.0
142
1.0
179
     0
144
0.0208333333333333
144
0.0
144
0.0
144
0.0
144
0.0
144
0.0208333333333333
144
0.0
144
0.0
144
0.0
144
0.0
144
1.0
144
0.0
144
0.0
144
0.0
144
0.0
144
1.0
147
0.0208333333333333
147
0.0
147
0.0
147
0.0
147
0.0
147
0.0208333333333333
147
0.0
147
0.0
147
0.0
147
0.0
147
1.0
147
0.0
147
0.0
147
0.0
147
0.0
147
1.0
  0
MATERIAL
  5
80AF
102
{ACAD_XDICTIONARY
360
80B0
102
}
102
{ACAD_REACTORS
330
809E
102
}
330
809E
100
AcDbMaterial
  1
Global
 72
     0
 43
0.0208333333333333
 43
0.0
 43
0.0
 43
0.0
 43
0.0
 43
0.0208333333333333
 43
0.0
 43
0.0
 43
0.0
 43
0.0
 43
1.0
 43
0.0
 43
0.0
 43
0.0
 43
0.0
 43
1.0
 77
     0
 47
0.0208333333333333
 47
0.0
 47
0.0
 47
0.0
 47
0.0
 47
0.0208333333333333
 47
0.0
 47
0.0
 47
0.0
 47
0.0
 47
1.0
 47
0.0
 47
0.0
 47
0.0
 47
0.0
 47
1.0
171
     0
 49
0.0208333333333333
 49
0.0
 49
0.0
 49
0.0
 49
0.0
 49
0.0208333333333333
 49
0.0
 49
0.0
 49
0.0
 49
0.0
 49
1.0
 49
0.0
 49
0.0
 49
0.0
 49
0.0
 49
1.0
175
     0
142
0.0208333333333333
142
0.0
142
0.0
142
0.0
142
0.0
142
0.0208333333333333
142
0.0
142
0.0
142
0.0
142
0.0
142
1.0
142
0.0
142
0.0
142
0.0
142
0.0
142
1.0
179
     0
144
0.0208333333333333
144
0.0
144
0.0
144
0.0
144
0.0
144
0.0208333333333333
144
0.0
144
0.0
144
0.0
144
0.0
144
1.0
144
0.0
144
0.0
144
0.0
144
0.0
144
1.0
147
0.0208333333333333
147
0.0
147
0.0
147
0.0
147
0.0
147
0.0208333333333333
147
0.0
147
0.0
147
0.0
147
0.0
147
1.0
147
0.0
147
0.0
147
0.0
147
0.0
147
1.0
  0
MLEADERSTYLE
  5
80E6
102
{ACAD_REACTORS
330
80E5
102
}
330
80E5
100
AcDbMLeaderStyle
179
     2
170
     2
171
     1
172
     0
 90
        2
 40
0.0
 41
0.0
173
     1
 91
-1056964608
340
13
 92
       -2
290
     1
 42
2.0
291
     1
 43
0.36
  3
Standard
 44
4.0
300

342
10
174
     1
178
     6
175
     1
176
     0
 93
-1056964608
 45
4.0
292
     0
297
     0
 46
4.0
 94
-1056964608
 47
1.0
 49
1.0
140
1.0
293
     1
141
0.0
294
     1
177
     0
142
1.0
295
     0
296
     0
143
0.125
271
     0
272
     9
273
     9
298
     1
  0
MLINESTYLE
  5
1C
102
{ACAD_REACTORS
330
E
102
}
330
E
100
AcDbMlineStyle
  2
STANDARD
 70
     0
  3

 62
     0
 51
90.0
 52
90.0
 71
     2
 49
0.5
 62
   256
  6
BYLAYER
 49
-0.5
 62
   256
  6
BYLAYER
  0
ACDBPLACEHOLDER
  5
8047
102
{ACAD_REACTORS
330
8046
102
}
330
8046
  0
SCALE
  5
80D4
102
{ACAD_REACTORS
330
80D3
102
}
330
80D3
100
AcDbScale
 70
     0
300
1:1
140
1.0
141
1.0
290
     1
  0
SCALE
  5
80D5
102
{ACAD_REACTORS
330
80D3
102
}
330
80D3
100
AcDbScale
 70
     0
300
1:2
140
1.0
141
2.0
290
     0
  0
SCALE
  5
80D6
102
{ACAD_REACTORS
330
80D3
102
}
330
80D3
100
AcDbScale
 70
     0
300
1:4
140
1.0
141
4.0
290
     0
  0
SCALE
  5
80D7
102
{ACAD_REACTORS
330
80D3
102
}
330
80D3
100
AcDbScale
 70
     0
300
1:5
140
1.0
141
5.0
290
     0
  0
SCALE
  5
80D8
102
{ACAD_REACTORS
330
80D3
102
}
330
80D3
100
AcDbScale
 70
     0
300
1:8
140
1.0
141
8.0
290
     0
  0
SCALE
  5
80D9
102
{ACAD_REACTORS
330
80D3
102
}
330
80D3
100
AcDbScale
 70
     0
300
1:10
140
1.0
141
10.0
290
     0
  0
SCALE
  5
80DA
102
{ACAD_REACTORS
330
80D3
102
}
330
80D3
100
AcDbScale
 70
     0
300
1:16
140
1.0
141
16.0
290
     0
  0
SCALE
  5
80DB
102
{ACAD_REACTORS
330
80D3
102
}
330
80D3
100
AcDbScale
 70
     0
300
1:20
140
1.0
141
20.0
290
     0
  0
SCALE
  5
80DC
102
{ACAD_REACTORS
330
80D3
102
}
330
80D3
100
AcDbScale
 70
     0
300
1:30
140
1.0
141
30.0
290
     0
  0
SCALE
  5
80DD
102
{ACAD_REACTORS
330
80D3
102
}
330
80D3
100
AcDbScale
 70
     0
300
1:40
140
1.0
141
40.0
290
     0
  0
SCALE
  5
80DE
102
{ACAD_REACTORS
330
80D3
102
}
330
80D3
100
AcDbScale
 70
     0
300
1:50
140
1.0
141
50.0
290
     0
  0
SCALE
  5
80DF
102
{ACAD_REACTORS
330
80D3
102
}
330
80D3
100
AcDbScale
 70
     0
300
1:100
140
1.0
141
100.0
290
     0
  0
SCALE
  5
80E0
102
{ACAD_REACTORS
330
80D3
102
}
330
80D3
100
AcDbScale
 70
     0
300
2:1
140
2.0
141
1.0
290
     0
  0
SCALE
  5
80E1
102
{ACAD_REACTORS
330
80D3
102
}
330
80D3
100
AcDbScale
 70
     0
300
4:1
140
4.0
141
1.0
290
     0
  0
SCALE
  5
80E2
102
{ACAD_REACTORS
330
80D3
102
}
330
80D3
100
AcDbScale
 70
     0
300
8:1
140
8.0
141
1.0
290
     0
  0
SCALE
  5
80E3
102
{ACAD_REACTORS
330
80D3
102
}
330
80D3
100
AcDbScale
 70
     0
300
10:1
140
10.0
141
1.0
290
     0
  0
SCALE
  5
80E4
102
{ACAD_REACTORS
330
80D3
102
}
330
80D3
100
AcDbScale
 70
     0
300
100:1
140
100.0
141
1.0
290
     0
  0
ACDBSECTIONVIEWSTYLE
  5
80E8
102
{ACAD_XDICTIONARY
360
8438
102
}
102
{ACAD_REACTORS
330
80E7
102
}
330
80E7
100
AcDbModelDocViewStyle
 70
     0
  3
Metric50
290
     0
100
AcDbSectionViewStyle
 70
     0
 71
     0
 90
      102
 71
     1
340
10
 62
   256
 40
5.0
340
0
340
0
 62
   256
 40
5.0
300
I, O, Q, S, X, Z
 40
10.0
 90
        0
 40
2.5
 90
        0
 71
     2
340
15
 90
       25
 62
   256
340
15
 90
       50
 62
   256
 40
5.0
 40
2.5
 40
5.0
 71
     3
340
10
 62
   256
 40
5.0
 90
        0
 40
15.0
 90
        1
300
%<\AcVar ViewSectionStartId>%-%<\AcVar ViewSectionEndId>% (%<\AcVar ViewScale \f "%sn">%)
 71
     4
 62
   256
 62
   257
300
ANSI31
 40
1.0
 90
        0
290
     0
290
     0
 90
        6
 40
0.0
 40
1.570796326794896
 40
0.2617993877991494
 40
1.308996938995747
 40
-0.2617993877991494
 40
1.832595714594046
  0
TABLESTYLE
  5
80D2
102
{ACAD_XDICTIONARY
360
842D
102
}
102
{ACAD_REACTORS
330
80D1
102
}
330
80D1
100
AcDbTableStyle
280
     0
  3
Standard
 70
     0
 71
     0
 40
1.5
 41
1.5
280
     0
281
     0
  7
STANDARD
140
4.5
170
     2
 62
     0
 63
     7
283
     0
 90
      512
 91
        0
  1

274
    -2
284
     1
 64
     0
275
    -2
285
     1
 65
     0
276
    -2
286
     1
 66
     0
277
    -2
287
     1
 67
     0
278
    -2
288
     1
 68
     0
279
    -2
289
     1
 69
     0
  7
STANDARD
140
6.0
170
     5
 62
     0
 63
     7
283
     0
 90
      512
 91
        0
  1

274
    -2
284
     1
 64
     0
275
    -2
285
     1
 65
     0
276
    -2
286
     1
 66
     0
277
    -2
287
     1
 67
     0
278
    -2
288
     1
 68
     0
279
    -2
289
     1
 69
     0
  7
STANDARD
140
4.5
170
     5
 62
     0
 63
     7
283
     0
 90
      512
 91
        0
  1

274
    -2
284
     1
 64
     0
275
    -2
285
     1
 65
     0
276
    -2
286
     1
 66
     0
277
    -2
287
     1
 67
     0
278
    -2
288
     1
 68
     0
279
    -2
289
     1
 69
     0
  0
VISUALSTYLE
  5
80BD
102
{ACAD_REACTORS
330
80B7
102
}
330
80B7
100
AcDbVisualStyle
  2
2dWireframe
 70
     4
177
     3
291
     0
 70
    58
 90
        0
176
     1
 90
        2
176
     1
 90
        0
176
     1
 90
        0
176
     1
 40
0.6
176
     1
 40
30.0
176
     1
 62
     7
420
 16777215
176
     1
 90
        1
176
     1
 90
        4
176
     1
 62
     7
176
     1
 62
   257
176
     1
 90
        1
176
     1
 90
        1
176
     1
 40
1.0
176
     1
 90
        0
176
     1
 62
   257
176
     1
 40
1.0
176
     1
 90
        1
176
     1
 90
        6
176
     1
 90
        2
176
     1
 62
     7
176
     1
 90
        5
176
     1
 90
        0
176
     1
 90
        0
176
     1
290
     0
176
     1
 90
        1
176
     1
 40
0.0
176
     1
 90
        0
176
     1
290
     1
176
     1
290
     1
176
     1
290
     0
176
     1
290
     0
176
     1
290
     0
176
     1
290
     0
176
     1
290
     0
176
     1
290
     0
176
     1
290
     0
176
     1
 90
       50
176
     1
 40
0.0
176
     1
 40
1.0
176
     1
 90
        0
176
     1
 62
    18
420
        0
176
     1
 90
       50
176
     1
 90
        3
176
     1
 62
     5
420
      255
176
     1
290
     0
176
     1
 90
       50
176
     1
 90
       50
176
     1
 90
       50
176
     1
290
     0
176
     1
 90
       50
176
     1
 62
   256
176
     0
 40
1.0
176
     0
 90
        2
176
     1
  1
strokes_ogs.tif
176
     1
290
     0
176
     1
 40
1.0
176
     1
 40
1.0
176
     1
1001
ACAD
1000
AcDbSavedByObjectVersion
1070
     0
  0
VISUALSTYLE
  5
80BC
102
{ACAD_REACTORS
330
80B7
102
}
330
80B7
100
AcDbVisualStyle
  2
Basic
 70
     7
177
     3
291
     1
 70
    58
 90
        1
176
     1
 90
        0
176
     1
 90
        1
176
     1
 90
        0
176
     1
 40
0.6
176
     1
 40
30.0
176
     1
 62
     7
420
 16777215
176
     1
 90
        0
176
     1
 90
        4
176
     1
 62
     7
176
     1
 62
   257
176
     1
 90
        1
176
     1
 90
        1
176
     1
 40
1.0
176
     1
 90
        8
176
     1
 62
     7
176
     1
 40
1.0
176
     1
 90
        1
176
     1
 90
        6
176
     1
 90
        2
176
     1
 62
     7
176
     1
 90
        5
176
     1
 90
        0
176
     1
 90
        0
176
     1
290
     0
176
     1
 90
        1
176
     1
 40
0.0
176
     1
 90
        0
176
     1
290
     0
176
     1
290
     1
176
     1
290
     1
176
     1
290
     0
176
     1
290
     0
176
     1
290
     0
176
     1
290
     0
176
     1
290
     0
176
     1
290
     0
176
     1
 90
       50
176
     1
 40
0.0
176
     1
 40
1.0
176
     1
 90
        0
176
     1
 62
    18
420
        0
176
     1
 90
       50
176
     1
 90
        3
176
     1
 62
     5
420
      255
176
     1
290
     0
176
     1
 90
       50
176
     1
 90
       50
176
     1
 90
       50
176
     1
290
     0
176
     1
 90
       50
176
     1
 62
   256
176
     0
 40
1.0
176
     0
 90
        2
176
     1
  1
strokes_ogs.tif
176
     1
290
     0
176
     1
 40
1.0
176
     1
 40
1.0
176
     1
1001
ACAD
1000
AcDbSavedByObjectVersion
1070
     0
  0
VISUALSTYLE
  5
80C3
102
{ACAD_REACTORS
330
80B7
102
}
330
80B7
100
AcDbVisualStyle
  2
Brighten
 70
    12
177
     3
291
     1
 70
    58
 90
        2
176
     1
 90
        2
176
     1
 90
        0
176
     1
 90
        0
176
     1
 40
0.6
176
     1
 40
30.0
176
     1
 62
     7
420
 16777215
176
     1
 90
        1
176
     1
 90
        4
176
     1
 62
     7
176
     1
 62
   257
176
     1
 90
        1
176
     1
 90
        1
176
     1
 40
1.0
176
     1
 90
        8
176
     1
 62
     7
176
     1
 40
1.0
176
     1
 90
        1
176
     1
 90
        6
176
     1
 90
        2
176
     1
 62
     7
176
     1
 90
        5
176
     1
 90
        0
176
     1
 90
        0
176
     1
290
     0
176
     1
 90
        1
176
     1
 40
50.0
176
     1
 90
        0
176
     1
290
     0
176
     1
290
     1
176
     1
290
     1
176
     1
290
     0
176
     1
290
     0
176
     1
290
     0
176
     1
290
     0
176
     1
290
     0
176
     1
290
     0
176
     1
 90
       50
176
     1
 40
0.0
176
     1
 40
1.0
176
     1
 90
        0
176
     1
 62
    18
420
        0
176
     1
 90
       50
176
     1
 90
        3
176
     1
 62
     5
420
      255
176
     1
290
     0
176
     1
 90
       50
176
     1
 90
       50
176
     1
 90
       50
176
     1
290
     0
176
     1
 90
       50
176
     1
 62
   256
176
     0
 40
1.0
176
     0
 90
        2
176
     1
  1
strokes_ogs.tif
176
     1
290
     0
176
     1
 40
1.0
176
     1
 40
1.0
176
     1
1001
ACAD
1000
AcDbSavedByObjectVersion
1070
     0
  0
VISUALSTYLE
  5
80C7
102
{ACAD_REACTORS
330
80B7
102
}
330
80B7
100
AcDbVisualStyle
  2
ColorChange
 70
    16
177
     3
291
     1
 70
    58
 90
        2
176
     1
 90
        2
176
     1
 90
        3
176
     1
 90
        0
176
     1
 40
0.6
176
     1
 40
30.0
176
     1
 62
     8
420
  8421504
176
     1
 90
        1
176
     1
 90
        4
176
     1
 62
     7
176
     1
 62
   257
176
     1
 90
        1
176
     1
 90
        1
176
     1
 40
1.0
176
     1
 90
        8
176
     1
 62
     8
420
  8421504
176
     1
 40
1.0
176
     1
 90
        1
176
     1
 90
        6
176
     1
 90
        2
176
     1
 62
     7
176
     1
 90
        5
176
     1
 90
        0
176
     1
 90
        0
176
     1
290
     0
176
     1
 90
        1
176
     1
 40
0.0
176
     1
 90
        0
176
     1
290
     0
176
     1
290
     1
176
     1
290
     1
176
     1
290
     0
176
     1
290
     0
176
     1
290
     0
176
     1
290
     0
176
     1
290
     0
176
     1
290
     0
176
     1
 90
       50
176
     1
 40
0.0
176
     1
 40
1.0
176
     1
 90
        0
176
     1
 62
    18
420
        0
176
     1
 90
       50
176
     1
 90
        3
176
     1
 62
     5
420
      255
176
     1
290
     0
176
     1
 90
       50
176
     1
 90
       50
176
     1
 90
       50
176
     1
290
     0
176
     1
 90
       50
176
     1
 62
   256
176
     0
 40
1.0
176
     0
 90
        2
176
     1
  1
strokes_ogs.tif
176
     1
290
     0
176
     1
 40
1.0
176
     1
 40
1.0
176
     1
1001
ACAD
1000
AcDbSavedByObjectVersion
1070
     0
  0
VISUALSTYLE
  5
80C0
102
{ACAD_REACTORS
330
80B7
102
}
330
80B7
100
AcDbVisualStyle
  2
Conceptual
 70
     9
177
     3
291
     0
 70
    58
 90
        3
176
     1
 90
        2
176
     1
 90
        0
176
     1
 90
        0
176
     1
 40
0.6
176
     1
 40
30.0
176
     1
 62
     7
420
 16777215
176
     1
 90
        2
176
     1
 90
        2
176
     1
 62
     7
176
     1
 62
   257
176
     1
 90
        1
176
     1
 90
        1
176
     1
 40
179.0
176
     1
 90
        8
176
     1
 62
     7
176
     1
 40
1.0
176
     1
 90
        1
176
     1
 90
        6
176
     1
 90
        2
176
     1
 62
     7
176
     1
 90
        3
176
     1
 90
        0
176
     1
 90
        0
176
     1
290
     0
176
     1
 90
        1
176
     1
 40
0.0
176
     1
 90
        0
176
     1
290
     0
176
     1
290
     1
176
     1
290
     1
176
     1
290
     0
176
     1
290
     0
176
     1
290
     0
176
     1
290
     0
176
     1
290
     0
176
     1
290
     0
176
     1
 90
       50
176
     1
 40
0.0
176
     1
 40
1.0
176
     1
 90
        0
176
     1
 62
    18
420
        0
176
     1
 90
       50
176
     1
 90
        3
176
     1
 62
     5
420
      255
176
     1
290
     0
176
     1
 90
       50
176
     1
 90
       50
176
     1
 90
       50
176
     1
290
     0
176
     1
 90
       50
176
     1
 62
   256
176
     0
 40
1.0
176
     0
 90
        2
176
     1
  1
strokes_ogs.tif
176
     1
290
     0
176
     1
 40
1.0
176
     1
 40
1.0
176
     1
1001
ACAD
1000
AcDbSavedByObjectVersion
1070
     0
  0
VISUALSTYLE
  5
80C2
102
{ACAD_REACTORS
330
80B7
102
}
330
80B7
100
AcDbVisualStyle
  2
Dim
 70
    11
177
     3
291
     1
 70
    58
 90
        2
176
     1
 90
        2
176
     1
 90
        0
176
     1
 90
        0
176
     1
 40
0.6
176
     1
 40
30.0
176
     1
 62
     7
420
 16777215
176
     1
 90
        1
176
     1
 90
        4
176
     1
 62
     7
176
     1
 62
   257
176
     1
 90
        1
176
     1
 90
        1
176
     1
 40
1.0
176
     1
 90
        8
176
     1
 62
     7
176
     1
 40
1.0
176
     1
 90
        1
176
     1
 90
        6
176
     1
 90
        2
176
     1
 62
     7
176
     1
 90
        5
176
     1
 90
        0
176
     1
 90
        0
176
     1
290
     0
176
     1
 90
        1
176
     1
 40
-50.0
176
     1
 90
        0
176
     1
290
     0
176
     1
290
     1
176
     1
290
     1
176
     1
290
     0
176
     1
290
     0
176
     1
290
     0
176
     1
290
     0
176
     1
290
     0
176
     1
290
     0
176
     1
 90
       50
176
     1
 40
0.0
176
     1
 40
1.0
176
     1
 90
        0
176
     1
 62
    18
420
        0
176
     1
 90
       50
176
     1
 90
        3
176
     1
 62
     5
420
      255
176
     1
290
     0
176
     1
 90
       50
176
     1
 90
       50
176
     1
 90
       50
176
     1
290
     0
176
     1
 90
       50
176
     1
 62
   256
176
     0
 40
1.0
176
     0
 90
        2
176
     1
  1
strokes_ogs.tif
176
     1
290
     0
176
     1
 40
1.0
176
     1
 40
1.0
176
     1
1001
ACAD
1000
AcDbSavedByObjectVersion
1070
     0
  0
VISUALSTYLE
  5
80CF
102
{ACAD_REACTORS
330
80B7
102
}
330
80B7
100
AcDbVisualStyle
  2
EdgeColorOff
 70
    22
177
     3
291
     1
 70
    58
 90
        2
176
     0
 90
        2
176
     0
 90
        0
176
     0
 90
        0
176
     0
 40
0.6
176
     0
 40
30.0
176
     0
 62
     7
420
 16777215
176
     0
 90
        1
176
     0
 90
        4
176
     0
 62
     7
176
     0
 62
   257
176
     0
 90
        1
176
     0
 90
        1
176
     0
 40
1.0
176
     0
 90
        8
176
     2
 62
     7
176
     0
 40
1.0
176
     0
 90
        1
176
     0
 90
        6
176
     0
 90
        2
176
     0
 62
     7
176
     0
 90
        5
176
     0
 90
        0
176
     0
 90
        0
176
     0
290
     0
176
     0
 90
        1
176
     0
 40
0.0
176
     0
 90
        0
176
     0
290
     0
176
     0
290
     1
176
     0
290
     1
176
     0
290
     0
176
     0
290
     0
176
     0
290
     0
176
     0
290
     0
176
     0
290
     0
176
     0
290
     0
176
     0
 90
       50
176
     0
 40
0.0
176
     0
 40
1.0
176
     0
 90
        0
176
     0
 62
    18
420
        0
176
     0
 90
       50
176
     0
 90
        3
176
     0
 62
     5
420
      255
176
     0
290
     0
176
     0
 90
       50
176
     0
 90
       50
176
     0
 90
       50
176
     0
290
     0
176
     0
 90
       50
176
     0
 62
   256
176
     0
 40
1.0
176
     0
 90
        2
176
     0
  1
strokes_ogs.tif
176
     0
290
     0
176
     0
 40
1.0
176
     0
 40
1.0
176
     0
1001
ACAD
1000
AcDbSavedByObjectVersion
1070
     0
  0
VISUALSTYLE
  5
80C6
102
{ACAD_REACTORS
330
80B7
102
}
330
80B7
100
AcDbVisualStyle
  2
Facepattern
 70
    15
177
     3
291
     1
 70
    58
 90
        2
176
     1
 90
        2
176
     1
 90
        0
176
     1
 90
        0
176
     1
 40
0.6
176
     1
 40
30.0
176
     1
 62
     7
420
 16777215
176
     1
 90
        1
176
     1
 90
        4
176
     1
 62
     7
176
     1
 62
   257
176
     1
 90
        1
176
     1
 90
        1
176
     1
 40
1.0
176
     1
 90
        8
176
     1
 62
     7
176
     1
 40
1.0
176
     1
 90
        1
176
     1
 90
        6
176
     1
 90
        2
176
     1
 62
     7
176
     1
 90
        5
176
     1
 90
        0
176
     1
 90
        0
176
     1
290
     0
176
     1
 90
        1
176
     1
 40
0.0
176
     1
 90
        0
176
     1
290
     0
176
     1
290
     1
176
     1
290
     1
176
     1
290
     0
176
     1
290
     0
176
     1
290
     0
176
     1
290
     0
176
     1
290
     0
176
     1
290
     0
176
     1
 90
       50
176
     1
 40
0.0
176
     1
 40
1.0
176
     1
 90
        0
176
     1
 62
    18
420
        0
176
     1
 90
       50
176
     1
 90
        3
176
     1
 62
     5
420
      255
176
     1
290
     0
176
     1
 90
       50
176
     1
 90
       50
176
     1
 90
       50
176
     1
290
     0
176
     1
 90
       50
176
     1
 62
   256
176
     0
 40
1.0
176
     0
 90
        2
176
     1
  1
strokes_ogs.tif
176
     1
290
     0
176
     1
 40
1.0
176
     1
 40
1.0
176
     1
1001
ACAD
1000
AcDbSavedByObjectVersion
1070
     0
  0
VISUALSTYLE
  5
80B8
102
{ACAD_REACTORS
330
80B7
102
}
330
80B7
100
AcDbVisualStyle
  2
Flat
 70
     0
177
     3
291
     1
 70
    58
 90
        2
176
     1
 90
        1
176
     1
 90
        1
176
     1
 90
        2
176
     1
 40
0.6
176
     1
 40
30.0
176
     1
 62
     7
420
 16777215
176
     1
 90
        0
176
     1
 90
        0
176
     1
 62
     7
176
     1
 62
   257
176
     1
 90
        1
176
     1
 90
        1
176
     1
 40
1.0
176
     1
 90
        8
176
     1
 62
     7
176
     1
 40
1.0
176
     1
 90
        1
176
     1
 90
        6
176
     1
 90
        2
176
     1
 62
     7
176
     1
 90
        5
176
     1
 90
        0
176
     1
 90
        0
176
     1
290
     0
176
     1
 90
       13
176
     1
 40
0.0
176
     1
 90
        0
176
     1
290
     0
176
     1
290
     1
176
     1
290
     1
176
     1
290
     0
176
     1
290
     0
176
     1
290
     0
176
     1
290
     0
176
     1
290
     0
176
     1
290
     0
176
     1
 90
       50
176
     1
 40
0.0
176
     1
 40
1.0
176
     1
 90
        0
176
     1
 62
    18
420
        0
176
     1
 90
       50
176
     1
 90
        3
176
     1
 62
     5
420
      255
176
     1
290
     0
176
     1
 90
       50
176
     1
 90
       50
176
     1
 90
       50
176
     1
290
     0
176
     1
 90
       50
176
     1
 62
   256
176
     0
 40
1.0
176
     0
 90
        2
176
     1
  1
strokes_ogs.tif
176
     1
290
     0
176
     1
 40
1.0
176
     1
 40
1.0
176
     1
1001
ACAD
1000
AcDbSavedByObjectVersion
1070
     0
  0
VISUALSTYLE
  5
80B9
102
{ACAD_REACTORS
330
80B7
102
}
330
80B7
100
AcDbVisualStyle
  2
FlatWithEdges
 70
     1
177
     3
291
     1
 70
    58
 90
        2
176
     1
 90
        1
176
     1
 90
        1
176
     1
 90
        2
176
     1
 40
0.6
176
     1
 40
30.0
176
     1
 62
     7
420
 16777215
176
     1
 90
        1
176
     1
 90
        0
176
     1
 62
     7
176
     1
 62
   257
176
     1
 90
        1
176
     1
 90
        1
176
     1
 40
1.0
176
     1
 90
        0
176
     1
 62
   257
176
     1
 40
1.0
176
     1
 90
        1
176
     1
 90
        6
176
     1
 90
        2
176
     1
 62
     7
176
     1
 90
        5
176
     1
 90
        0
176
     1
 90
        0
176
     1
290
     0
176
     1
 90
       13
176
     1
 40
0.0
176
     1
 90
        0
176
     1
290
     0
176
     1
290
     1
176
     1
290
     1
176
     1
290
     0
176
     1
290
     0
176
     1
290
     0
176
     1
290
     0
176
     1
290
     0
176
     1
290
     0
176
     1
 90
       50
176
     1
 40
0.0
176
     1
 40
1.0
176
     1
 90
        0
176
     1
 62
    18
420
        0
176
     1
 90
       50
176
     1
 90
        3
176
     1
 62
     5
420
      255
176
     1
290
     0
176
     1
 90
       50
176
     1
 90
       50
176
     1
 90
       50
176
     1
290
     0
176
     1
 90
       50
176
     1
 62
   256
176
     0
 40
1.0
176
     0
 90
        2
176
     1
  1
strokes_ogs.tif
176
     1
290
     0
176
     1
 40
1.0
176
     1
 40
1.0
176
     1
1001
ACAD
1000
AcDbSavedByObjectVersion
1070
     0
  0
VISUALSTYLE
  5
80BA
102
{ACAD_REACTORS
330
80B7
102
}
330
80B7
100
AcDbVisualStyle
  2
Gouraud
 70
     2
177
     3
291
     1
 70
    58
 90
        2
176
     1
 90
        2
176
     1
 90
        1
176
     1
 90
        2
176
     1
 40
0.6
176
     1
 40
30.0
176
     1
 62
     7
420
 16777215
176
     1
 90
        0
176
     1
 90
        0
176
     1
 62
     7
176
     1
 62
   257
176
     1
 90
        1
176
     1
 90
        1
176
     1
 40
1.0
176
     1
 90
        0
176
     1
 62
     7
176
     1
 40
1.0
176
     1
 90
        1
176
     1
 90
        6
176
     1
 90
        2
176
     1
 62
     7
176
     1
 90
        5
176
     1
 90
        0
176
     1
 90
        0
176
     1
290
     0
176
     1
 90
       13
176
     1
 40
0.0
176
     1
 90
        0
176
     1
290
     0
176
     1
290
     1
176
     1
290
     1
176
     1
290
     0
176
     1
290
     0
176
     1
290
     0
176
     1
290
     0
176
     1
290
     0
176
     1
290
     0
176
     1
 90
       50
176
     1
 40
0.0
176
     1
 40
1.0
176
     1
 90
        0
176
     1
 62
    18
420
        0
176
     1
 90
       50
176
     1
 90
        3
176
     1
 62
     5
420
      255
176
     1
290
     0
176
     1
 90
       50
176
     1
 90
       50
176
     1
 90
       50
176
     1
290
     0
176
     1
 90
       50
176
     1
 62
   256
176
     0
 40
1.0
176
     0
 90
        2
176
     1
  1
strokes_ogs.tif
176
     1
290
     0
176
     1
 40
1.0
176
     1
 40
1.0
176
     1
1001
ACAD
1000
AcDbSavedByObjectVersion
1070
     0
  0
VISUALSTYLE
  5
80BB
102
{ACAD_REACTORS
330
80B7
102
}
330
80B7
100
AcDbVisualStyle
  2
GouraudWithEdges
 70
     3
177
     3
291
     1
 70
    58
 90
        2
176
     1
 90
        2
176
     1
 90
        1
176
     1
 90
        2
176
     1
 40
0.6
176
     1
 40
30.0
176
     1
 62
     7
420
 16777215
176
     1
 90
        1
176
     1
 90
        0
176
     1
 62
     7
176
     1
 62
   257
176
     1
 90
        1
176
     1
 90
        1
176
     1
 40
1.0
176
     1
 90
        0
176
     1
 62
   257
176
     1
 40
1.0
176
     1
 90
        1
176
     1
 90
        6
176
     1
 90
        2
176
     1
 62
     7
176
     1
 90
        5
176
     1
 90
        0
176
     1
 90
        0
176
     1
290
     0
176
     1
 90
       13
176
     1
 40
0.0
176
     1
 90
        0
176
     1
290
     0
176
     1
290
     1
176
     1
290
     1
176
     1
290
     0
176
     1
290
     0
176
     1
290
     0
176
     1
290
     0
176
     1
290
     0
176
     1
290
     0
176
     1
 90
       50
176
     1
 40
0.0
176
     1
 40
1.0
176
     1
 90
        0
176
     1
 62
    18
420
        0
176
     1
 90
       50
176
     1
 90
        3
176
     1
 62
     5
420
      255
176
     1
290
     0
176
     1
 90
       50
176
     1
 90
       50
176
     1
 90
       50
176
     1
290
     0
176
     1
 90
       50
176
     1
 62
   256
176
     0
 40
1.0
176
     0
 90
        2
176
     1
  1
strokes_ogs.tif
176
     1
290
     0
176
     1
 40
1.0
176
     1
 40
1.0
176
     1
1001
ACAD
1000
AcDbSavedByObjectVersion
1070
     0
  0
VISUALSTYLE
  5
80BF
102
{ACAD_REACTORS
330
80B7
102
}
330
80B7
100
AcDbVisualStyle
  2
Hidden
 70
     6
177
     3
291
     0
 70
    58
 90
        1
176
     1
 90
        2
176
     1
 90
        2
176
     1
 90
        0
176
     1
 40
0.6
176
     1
 40
30.0
176
     1
 62
     7
420
 16777215
176
     1
 90
        2
176
     1
 90
        2
176
     1
 62
     7
176
     1
 62
   257
176
     1
 90
        2
176
     1
 90
        1
176
     1
 40
40.0
176
     1
 90
        0
176
     1
 62
   257
176
     1
 40
1.0
176
     1
 90
        1
176
     1
 90
        6
176
     1
 90
        2
176
     1
 62
     7
176
     1
 90
        3
176
     1
 90
        0
176
     1
 90
        0
176
     1
290
     0
176
     1
 90
        1
176
     1
 40
0.0
176
     1
 90
        0
176
     1
290
     0
176
     1
290
     1
176
     1
290
     1
176
     1
290
     0
176
     1
290
     0
176
     1
290
     0
176
     1
290
     0
176
     1
290
     0
176
     1
290
     0
176
     1
 90
       50
176
     1
 40
0.0
176
     1
 40
1.0
176
     1
 90
        0
176
     1
 62
    18
420
        0
176
     1
 90
       50
176
     1
 90
        3
176
     1
 62
     5
420
      255
176
     1
290
     0
176
     1
 90
       50
176
     1
 90
       50
176
     1
 90
       50
176
     1
290
     0
176
     1
 90
       50
176
     1
 62
   256
176
     0
 40
1.0
176
     0
 90
        2
176
     1
  1
strokes_ogs.tif
176
     1
290
     0
176
     1
 40
1.0
176
     1
 40
1.0
176
     1
1001
ACAD
1000
AcDbSavedByObjectVersion
1070
     0
  0
VISUALSTYLE
  5
80CD
102
{ACAD_REACTORS
330
80B7
102
}
330
80B7
100
AcDbVisualStyle
  2
JitterOff
 70
    20
177
     3
291
     1
 70
    58
 90
        2
176
     0
 90
        2
176
     0
 90
        0
176
     0
 90
        0
176
     0
 40
0.6
176
     0
 40
30.0
176
     0
 62
     7
420
 16777215
176
     0
 90
        1
176
     0
 90
        4
176
     0
 62
     7
176
     0
 62
   257
176
     0
 90
        1
176
     0
 90
        1
176
     0
 40
1.0
176
     0
 90
       10
176
     2
 62
     7
176
     0
 40
1.0
176
     0
 90
        1
176
     0
 90
        6
176
     0
 90
        2
176
     0
 62
     7
176
     0
 90
        5
176
     0
 90
        0
176
     0
 90
        0
176
     0
290
     0
176
     0
 90
        1
176
     0
 40
0.0
176
     0
 90
        0
176
     0
290
     0
176
     0
290
     1
176
     0
290
     1
176
     0
290
     0
176
     0
290
     0
176
     0
290
     0
176
     0
290
     0
176
     0
290
     0
176
     0
290
     0
176
     0
 90
       50
176
     0
 40
0.0
176
     0
 40
1.0
176
     0
 90
        0
176
     0
 62
    18
420
        0
176
     0
 90
       50
176
     0
 90
        3
176
     0
 62
     5
420
      255
176
     0
290
     0
176
     0
 90
       50
176
     0
 90
       50
176
     0
 90
       50
176
     0
290
     0
176
     0
 90
       50
176
     0
 62
   256
176
     0
 40
1.0
176
     0
 90
        2
176
     0
  1
strokes_ogs.tif
176
     0
290
     0
176
     0
 40
1.0
176
     0
 40
1.0
176
     0
1001
ACAD
1000
AcDbSavedByObjectVersion
1070
     0
  0
VISUALSTYLE
  5
80C5
102
{ACAD_REACTORS
330
80B7
102
}
330
80B7
100
AcDbVisualStyle
  2
Linepattern
 70
    14
177
     3
291
     1
 70
    58
 90
        2
176
     1
 90
        2
176
     1
 90
        0
176
     1
 90
        0
176
     1
 40
0.6
176
     1
 40
30.0
176
     1
 62
     7
420
 16777215
176
     1
 90
        1
176
     1
 90
        4
176
     1
 62
     7
176
     1
 62
   257
176
     1
 90
        7
176
     1
 90
        7
176
     1
 40
1.0
176
     1
 90
        8
176
     1
 62
     7
176
     1
 40
1.0
176
     1
 90
        1
176
     1
 90
        6
176
     1
 90
        2
176
     1
 62
     7
176
     1
 90
        5
176
     1
 90
        0
176
     1
 90
        0
176
     1
290
     0
176
     1
 90
        1
176
     1
 40
0.0
176
     1
 90
        0
176
     1
290
     0
176
     1
290
     1
176
     1
290
     1
176
     1
290
     0
176
     1
290
     0
176
     1
290
     0
176
     1
290
     0
176
     1
290
     0
176
     1
290
     0
176
     1
 90
       50
176
     1
 40
0.0
176
     1
 40
1.0
176
     1
 90
        0
176
     1
 62
    18
420
        0
176
     1
 90
       50
176
     1
 90
        3
176
     1
 62
     5
420
      255
176
     1
290
     0
176
     1
 90
       50
176
     1
 90
       50
176
     1
 90
       50
176
     1
290
     0
176
     1
 90
       50
176
     1
 62
   256
176
     0
 40
1.0
176
     0
 90
        2
176
     1
  1
strokes_ogs.tif
176
     1
290
     0
176
     1
 40
1.0
176
     1
 40
1.0
176
     1
1001
ACAD
1000
AcDbSavedByObjectVersion
1070
     0
  0
VISUALSTYLE
  5
80CE
102
{ACAD_REACTORS
330
80B7
102
}
330
80B7
100
AcDbVisualStyle
  2
OverhangOff
 70
    21
177
     3
291
     1
 70
    58
 90
        2
176
     0
 90
        2
176
     0
 90
        0
176
     0
 90
        0
176
     0
 40
0.6
176
     0
 40
30.0
176
     0
 62
     7
420
 16777215
176
     0
 90
        1
176
     0
 90
        4
176
     0
 62
     7
176
     0
 62
   257
176
     0
 90
        1
176
     0
 90
        1
176
     0
 40
1.0
176
     0
 90
        9
176
     2
 62
     7
176
     0
 40
1.0
176
     0
 90
        1
176
     0
 90
        6
176
     0
 90
        2
176
     0
 62
     7
176
     0
 90
        5
176
     0
 90
        0
176
     0
 90
        0
176
     0
290
     0
176
     0
 90
        1
176
     0
 40
0.0
176
     0
 90
        0
176
     0
290
     0
176
     0
290
     1
176
     0
290
     1
176
     0
290
     0
176
     0
290
     0
176
     0
290
     0
176
     0
290
     0
176
     0
290
     0
176
     0
290
     0
176
     0
 90
       50
176
     0
 40
0.0
176
     0
 40
1.0
176
     0
 90
        0
176
     0
 62
    18
420
        0
176
     0
 90
       50
176
     0
 90
        3
176
     0
 62
     5
420
      255
176
     0
290
     0
176
     0
 90
       50
176
     0
 90
       50
176
     0
 90
       50
176
     0
290
     0
176
     0
 90
       50
176
     0
 62
   256
176
     0
 40
1.0
176
     0
 90
        2
176
     0
  1
strokes_ogs.tif
176
     0
290
     0
176
     0
 40
1.0
176
     0
 40
1.0
176
     0
1001
ACAD
1000
AcDbSavedByObjectVersion
1070
     0
  0
VISUALSTYLE
  5
80C1
102
{ACAD_REACTORS
330
80B7
102
}
330
80B7
100
AcDbVisualStyle
  2
Realistic
 70
     8
177
     3
291
     0
 70
    58
 90
        2
176
     1
 90
        3
176
     1
 90
        0
176
     1
 90
        2
176
     1
 40
0.6
176
     1
 40
30.0
176
     1
 62
     7
420
 16777215
176
     1
 90
        0
176
     1
 90
        0
176
     1
 62
     7
176
     1
 62
   257
176
     1
 90
        1
176
     1
 90
        1
176
     1
 40
1.0
176
     1
 90
        8
176
     1
 62
   257
176
     1
 40
1.0
176
     1
 90
        1
176
     1
 90
        6
176
     1
 90
        2
176
     1
 62
     7
176
     1
 90
        3
176
     1
 90
        0
176
     1
 90
        0
176
     1
290
     0
176
     1
 90
       13
176
     1
 40
0.0
176
     1
 90
        0
176
     1
290
     0
176
     1
290
     1
176
     1
290
     1
176
     1
290
     0
176
     1
290
     0
176
     1
290
     0
176
     1
290
     0
176
     1
290
     0
176
     1
290
     0
176
     1
 90
       50
176
     1
 40
0.0
176
     1
 40
1.0
176
     1
 90
        0
176
     1
 62
    18
420
        0
176
     1
 90
       50
176
     1
 90
        3
176
     1
 62
     5
420
      255
176
     1
290
     0
176
     1
 90
       50
176
     1
 90
       50
176
     1
 90
       50
176
     1
290
     0
176
     1
 90
       50
176
     1
 62
   256
176
     0
 40
1.0
176
     0
 90
        2
176
     1
  1
strokes_ogs.tif
176
     1
290
     0
176
     1
 40
1.0
176
     1
 40
1.0
176
     1
1001
ACAD
1000
AcDbSavedByObjectVersion
1070
     0
  0
VISUALSTYLE
  5
80CC
102
{ACAD_REACTORS
330
80B7
102
}
330
80B7
100
AcDbVisualStyle
  2
Shaded
 70
    27
177
     3
291
     0
 70
    58
 90
        2
176
     1
 90
        2
176
     1
 90
        1
176
     1
 90
        2
176
     1
 40
0.6
176
     1
 40
30.0
176
     1
 62
     7
420
 16777215
176
     1
 90
        0
176
     1
 90
        4
176
     1
 62
     7
176
     1
 62
   257
176
     1
 90
        1
176
     1
 90
        1
176
     1
 40
1.0
176
     1
 90
        8
176
     1
 62
   257
176
     1
 40
1.0
176
     1
 90
        1
176
     1
 90
        6
176
     1
 90
        2
176
     1
 62
     8
420
  7895160
176
     1
 90
        3
176
     1
 90
        0
176
     1
 90
        0
176
     1
290
     0
176
     1
 90
        5
176
     1
 40
0.0
176
     1
 90
        0
176
     1
290
     0
176
     1
290
     1
176
     1
290
     1
176
     1
290
     0
176
     1
290
     0
176
     1
290
     0
176
     1
290
     0
176
     1
290
     0
176
     1
290
     0
176
     1
 90
       50
176
     1
 40
0.0
176
     1
 40
1.0
176
     1
 90
        0
176
     1
 62
    18
420
        0
176
     1
 90
       50
176
     1
 90
        3
176
     1
 62
     5
420
      255
176
     1
290
     0
176
     1
 90
       50
176
     1
 90
       50
176
     1
 90
       50
176
     1
290
     0
176
     1
 90
       50
176
     1
 62
   256
176
     0
 40
1.0
176
     0
 90
        2
176
     1
  1
strokes_ogs.tif
176
     1
290
     0
176
     1
 40
1.0
176
     1
 40
1.0
176
     1
1001
ACAD
1000
AcDbSavedByObjectVersion
1070
     0
  0
VISUALSTYLE
  5
80CB
102
{ACAD_REACTORS
330
80B7
102
}
330
80B7
100
AcDbVisualStyle
  2
Shaded with edges
 70
    26
177
     3
291
     0
 70
    58
 90
        2
176
     1
 90
        2
176
     1
 90
        1
176
     1
 90
        2
176
     1
 40
0.6
176
     1
 40
30.0
176
     1
 62
     7
420
 16777215
176
     1
 90
        1
176
     1
 90
        2
176
     1
 62
     7
176
     1
 62
   257
176
     1
 90
        2
176
     1
 90
        1
176
     1
 40
1.0
176
     1
 90
        8
176
     1
 62
   257
176
     1
 40
1.0
176
     1
 90
        1
176
     1
 90
        6
176
     1
 90
        2
176
     1
 62
     7
176
     1
 90
        3
176
     1
 90
        0
176
     1
 90
        0
176
     1
290
     0
176
     1
 90
        5
176
     1
 40
0.0
176
     1
 90
        0
176
     1
290
     0
176
     1
290
     1
176
     1
290
     1
176
     1
290
     0
176
     1
290
     0
176
     1
290
     0
176
     1
290
     0
176
     1
290
     0
176
     1
290
     0
176
     1
 90
       50
176
     1
 40
0.0
176
     1
 40
1.0
176
     1
 90
        0
176
     1
 62
    18
420
        0
176
     1
 90
       50
176
     1
 90
        3
176
     1
 62
     5
420
      255
176
     1
290
     0
176
     1
 90
       50
176
     1
 90
       50
176
     1
 90
       50
176
     1
290
     0
176
     1
 90
       50
176
     1
 62
   256
176
     0
 40
1.0
176
     0
 90
        2
176
     1
  1
strokes_ogs.tif
176
     1
290
     0
176
     1
 40
1.0
176
     1
 40
1.0
176
     1
1001
ACAD
1000
AcDbSavedByObjectVersion
1070
     0
  0
VISUALSTYLE
  5
80C8
102
{ACAD_REACTORS
330
80B7
102
}
330
80B7
100
AcDbVisualStyle
  2
Shades of Gray
 70
    23
177
     3
291
     0
 70
    58
 90
        2
176
     1
 90
        2
176
     1
 90
        3
176
     1
 90
        0
176
     1
 40
0.6
176
     1
 40
30.0
176
     1
 62
     7
420
 16777215
176
     1
 90
        2
176
     1
 90
        2
176
     1
 62
     7
176
     1
 62
     7
176
     1
 90
        1
176
     1
 90
        1
176
     1
 40
40.0
176
     1
 90
        8
176
     1
 62
     7
176
     1
 40
1.0
176
     1
 90
        1
176
     1
 90
        6
176
     1
 90
        2
176
     1
 62
     7
176
     1
 90
        3
176
     1
 90
        0
176
     1
 90
        0
176
     1
290
     0
176
     1
 90
        1
176
     1
 40
0.0
176
     1
 90
        0
176
     1
290
     0
176
     1
290
     1
176
     1
290
     1
176
     1
290
     0
176
     1
290
     0
176
     1
290
     0
176
     1
290
     0
176
     1
290
     0
176
     1
290
     0
176
     1
 90
       50
176
     1
 40
0.0
176
     1
 40
1.0
176
     1
 90
        0
176
     1
 62
    18
420
        0
176
     1
 90
       50
176
     1
 90
        3
176
     1
 62
     5
420
      255
176
     1
290
     0
176
     1
 90
       50
176
     1
 90
       50
176
     1
 90
       50
176
     1
290
     0
176
     1
 90
       50
176
     1
 62
   256
176
     0
 40
1.0
176
     0
 90
        2
176
     1
  1
strokes_ogs.tif
176
     1
290
     0
176
     1
 40
1.0
176
     1
 40
1.0
176
     1
1001
ACAD
1000
AcDbSavedByObjectVersion
1070
     0
  0
VISUALSTYLE
  5
80C9
102
{ACAD_REACTORS
330
80B7
102
}
330
80B7
100
AcDbVisualStyle
  2
Sketchy
 70
    24
177
     3
291
     0
 70
    58
 90
        1
176
     1
 90
        2
176
     1
 90
        2
176
     1
 90
        0
176
     1
 40
0.6
176
     1
 40
30.0
176
     1
 62
     7
420
 16777215
176
     1
 90
        2
176
     1
 90
        2
176
     1
 62
     7
176
     1
 62
     7
176
     1
 90
        1
176
     1
 90
        1
176
     1
 40
40.0
176
     1
 90
       11
176
     1
 62
     7
176
     1
 40
1.0
176
     1
 90
        1
176
     1
 90
        6
176
     1
 90
        2
176
     1
 62
     7
176
     1
 90
        6
176
     1
 90
        0
176
     1
 90
        0
176
     1
290
     0
176
     1
 90
        1
176
     1
 40
0.0
176
     1
 90
        0
176
     1
290
     0
176
     1
290
     1
176
     1
290
     1
176
     1
290
     0
176
     1
290
     0
176
     1
290
     0
176
     1
290
     0
176
     1
290
     0
176
     1
290
     0
176
     1
 90
       50
176
     1
 40
0.0
176
     1
 40
1.0
176
     1
 90
        0
176
     1
 62
    18
420
        0
176
     1
 90
       50
176
     1
 90
        3
176
     1
 62
     5
420
      255
176
     1
290
     0
176
     1
 90
       50
176
     1
 90
       50
176
     1
 90
       50
176
     1
290
     0
176
     1
 90
       50
176
     1
 62
   256
176
     0
 40
1.0
176
     0
 90
        2
176
     1
  1
strokes_ogs.tif
176
     1
290
     0
176
     1
 40
1.0
176
     1
 40
1.0
176
     1
1001
ACAD
1000
AcDbSavedByObjectVersion
1070
     0
  0
VISUALSTYLE
  5
80C4
102
{ACAD_REACTORS
330
80B7
102
}
330
80B7
100
AcDbVisualStyle
  2
Thicken
 70
    13
177
     3
291
     1
 70
    58
 90
        2
176
     1
 90
        2
176
     1
 90
        0
176
     1
 90
        0
176
     1
 40
0.6
176
     1
 40
30.0
176
     1
 62
     7
420
 16777215
176
     1
 90
        1
176
     1
 90
        4
176
     1
 62
     7
176
     1
 62
   257
176
     1
 90
        1
176
     1
 90
        1
176
     1
 40
1.0
176
     1
 90
       12
176
     1
 62
     7
176
     1
 40
1.0
176
     1
 90
        1
176
     1
 90
        6
176
     1
 90
        2
176
     1
 62
     7
176
     1
 90
        5
176
     1
 90
        0
176
     1
 90
        0
176
     1
290
     0
176
     1
 90
        1
176
     1
 40
0.0
176
     1
 90
        0
176
     1
290
     0
176
     1
290
     1
176
     1
290
     1
176
     1
290
     0
176
     1
290
     0
176
     1
290
     0
176
     1
290
     0
176
     1
290
     0
176
     1
290
     0
176
     1
 90
       50
176
     1
 40
0.0
176
     1
 40
1.0
176
     1
 90
        0
176
     1
 62
    18
420
        0
176
     1
 90
       50
176
     1
 90
        3
176
     1
 62
     5
420
      255
176
     1
290
     0
176
     1
 90
       50
176
     1
 90
       50
176
     1
 90
       50
176
     1
290
     0
176
     1
 90
       50
176
     1
 62
   256
176
     0
 40
1.0
176
     0
 90
        2
176
     1
  1
strokes_ogs.tif
176
     1
290
     0
176
     1
 40
1.0
176
     1
 40
1.0
176
     1
1001
ACAD
1000
AcDbSavedByObjectVersion
1070
     0
  0
VISUALSTYLE
  5
80BE
102
{ACAD_REACTORS
330
80B7
102
}
330
80B7
100
AcDbVisualStyle
  2
Wireframe
 70
     5
177
     3
291
     0
 70
    58
 90
        0
176
     1
 90
        2
176
     1
 90
        0
176
     1
 90
        0
176
     1
 40
0.6
176
     1
 40
30.0
176
     1
 62
     7
420
 16777215
176
     1
 90
        1
176
     1
 90
        4
176
     1
 62
     7
176
     1
 62
   257
176
     1
 90
        1
176
     1
 90
        1
176
     1
 40
1.0
176
     1
 90
        0
176
     1
 62
   257
176
     1
 40
1.0
176
     1
 90
        1
176
     1
 90
        6
176
     1
 90
        2
176
     1
 62
     7
176
     1
 90
        3
176
     1
 90
        0
176
     1
 90
        0
176
     1
290
     0
176
     1
 90
        1
176
     1
 40
0.0
176
     1
 90
        0
176
     1
290
     0
176
     1
290
     1
176
     1
290
     1
176
     1
290
     0
176
     1
290
     0
176
     1
290
     0
176
     1
290
     0
176
     1
290
     0
176
     1
290
     0
176
     1
 90
       50
176
     1
 40
0.0
176
     1
 40
1.0
176
     1
 90
        0
176
     1
 62
    18
420
        0
176
     1
 90
       50
176
     1
 90
        3
176
     1
 62
     5
420
      255
176
     1
290
     0
176
     1
 90
       50
176
     1
 90
       50
176
     1
 90
       50
176
     1
290
     0
176
     1
 90
       50
176
     1
 62
   256
176
     0
 40
1.0
176
     0
 90
        2
176
     1
  1
strokes_ogs.tif
176
     1
290
     0
176
     1
 40
1.0
176
     1
 40
1.0
176
     1
1001
ACAD
1000
AcDbSavedByObjectVersion
1070
     0
  0
VISUALSTYLE
  5
80CA
102
{ACAD_REACTORS
330
80B7
102
}
330
80B7
100
AcDbVisualStyle
  2
X-Ray
 70
    25
177
     3
291
     0
 70
    58
 90
        2
176
     1
 90
        2
176
     1
 90
        1
176
     1
 90
        1
176
     1
 40
0.5
176
     1
 40
30.0
176
     1
 62
     7
420
 16777215
176
     1
 90
        1
176
     1
 90
        0
176
     1
 62
     7
176
     1
 62
   257
176
     1
 90
        1
176
     1
 90
        1
176
     1
 40
1.0
176
     1
 90
        8
176
     1
 62
     7
176
     1
 40
1.0
176
     1
 90
        1
176
     1
 90
        6
176
     1
 90
        2
176
     1
 62
     7
176
     1
 90
        3
176
     1
 90
        0
176
     1
 90
        0
176
     1
290
     0
176
     1
 90
       13
176
     1
 40
0.0
176
     1
 90
        0
176
     1
290
     0
176
     1
290
     1
176
     1
290
     1
176
     1
290
     0
176
     1
290
     0
176
     1
290
     0
176
     1
290
     0
176
     1
290
     0
176
     1
290
     0
176
     1
 90
       50
176
     1
 40
0.0
176
     1
 40
1.0
176
     1
 90
        0
176
     1
 62
    18
420
        0
176
     1
 90
       50
176
     1
 90
        3
176
     1
 62
     5
420
      255
176
     1
290
     0
176
     1
 90
       50
176
     1
 90
       50
176
     1
 90
       50
176
     1
290
     0
176
     1
 90
       50
176
     1
 62
   256
176
     0
 40
1.0
176
     0
 90
        2
176
     1
  1
strokes_ogs.tif
176
     1
290
     0
176
     1
 40
1.0
176
     1
 40
1.0
176
     1
1001
ACAD
1000
AcDbSavedByObjectVersion
1070
     0
  0
DICTIONARYVAR
  5
8424
102
{ACAD_REACTORS
330
8095
102
}
330
8095
100
DictionaryVariables
280
     0
  1
1:1
  0
DICTIONARYVAR
  5
8420
102
{ACAD_REACTORS
330
8095
102
}
330
8095
100
DictionaryVariables
280
     0
  1
STANDARD
  0
DICTIONARYVAR
  5
841F
102
{ACAD_REACTORS
330
8095
102
}
330
8095
100
DictionaryVariables
280
     0
  1
STANDARD
  0
DICTIONARYVAR
  5
8421
102
{ACAD_REACTORS
330
8095
102
}
330
8095
100
DictionaryVariables
280
     0
  1
Metric50
  0
DICTIONARYVAR
  5
8422
102
{ACAD_REACTORS
330
8095
102
}
330
8095
100
DictionaryVariables
280
     0
  1
Metric50
  0
DICTIONARYVAR
  5
8096
102
{ACAD_REACTORS
330
8095
102
}
330
8095
100
DictionaryVariables
280
     0
  1
1
  0
DICTIONARYVAR
  5
8426
102
{ACAD_REACTORS
330
8095
102
}
330
8095
100
DictionaryVariables
280
     0
  1
1
  0
DICTIONARYVAR
  5
8427
102
{ACAD_REACTORS
330
8095
102
}
330
8095
100
DictionaryVariables
280
     0
  1
15
  0
DICTIONARYVAR
  5
8425
102
{ACAD_REACTORS
330
8095
102
}
330
8095
100
DictionaryVariables
280
     0
  1
0
  0
DICTIONARYVAR
  5
842C
102
{ACAD_REACTORS
330
8095
102
}
330
8095
100
DictionaryVariables
280
     0
  1
0
  0
DICTIONARYVAR
  5
8423
102
{ACAD_REACTORS
330
8095
102
}
330
8095
100
DictionaryVariables
280
     0
  1
0
  0
DICTIONARY
  5
8437
102
{ACAD_REACTORS
330
8435
102
}
330
8435
100
AcDbDictionary
281
     1
  0
DICTIONARY
  5
8436
102
{ACAD_REACTORS
330
8435
102
}
330
8435
100
AcDbDictionary
281
     1
  3
2044654144256
350
8430
  3
2044654144272
350
8431
  3
2044654144288
350
8432
  3
2044654144304
350
8433
  3
2044654144320
350
8434
  0
DICTIONARY
  5
843A
330
80EA
100
AcDbDictionary
280
     1
281
     1
  3
ACAD_XREC_ROUNDTRIP
360
843B
  0
DICTIONARY
  5
80A8
330
80A7
100
AcDbDictionary
280
     1
281
     1
  3
BUMPTILE
360
80AA
  3
DIFFUSETILE
360
80A9
  3
OPACITYTILE
360
80AD
  3
REFLECTIONTILE
360
80AC
  3
REFRACTIONTILE
360
80AE
  3
SPECULARTILE
360
80AB
  0
DICTIONARY
  5
80A0
330
809F
100
AcDbDictionary
280
     1
281
     1
  3
BUMPTILE
360
80A2
  3
DIFFUSETILE
360
80A1
  3
OPACITYTILE
360
80A5
  3
REFLECTIONTILE
360
80A4
  3
REFRACTIONTILE
360
80A6
  3
SPECULARTILE
360
80A3
  0
DICTIONARY
  5
80B0
330
80AF
100
AcDbDictionary
280
     1
281
     1
  3
BUMPTILE
360
80B2
  3
DIFFUSETILE
360
80B1
  3
OPACITYTILE
360
80B5
  3
REFLECTIONTILE
360
80B4
  3
REFRACTIONTILE
360
80B6
  3
SPECULARTILE
360
80B3
  0
DICTIONARY
  5
8438
330
80E8
100
AcDbDictionary
280
     1
281
     1
  3
ACAD_XREC_ROUNDTRIP
360
8439
  0
DICTIONARY
  5
842D
330
80D2
100
AcDbDictionary
280
     1
281
     1
  3
ACAD_ROUNDTRIP_2008_TABLESTYLE_CELLSTYLEMAP
360
842E
  0
XRECORD
  5
8430
102
{ACAD_REACTORS
330
8436
102
}
330
8436
100
AcDbXrecord
280
     1
  1
AcDb_Thumbnail_Schema
102
{ATTRRECORD
341
8431
  2
AcDbDs::TreatedAsObjectData
280
     1
291
     1
102
ATTRRECORD}
102
{ATTRRECORD
341
8432
  2
AcDbDs::Legacy
280
     1
291
     1
102
ATTRRECORD}
  2
AcDbDs::ID
280
    10
 91
        8
102
{ATTRRECORD
341
8433
  2
AcDs:Indexable
280
     1
291
     1
102
ATTRRECORD}
102
{ATTRRECORD
341
8434
  2
AcDbDs::HandleAttribute
280
     7
282
     1
102
ATTRRECORD}
  2
Thumbnail_Data
280
    15
 91
        0
  0
XRECORD
  5
8431
102
{ACAD_REACTORS
330
8436
102
}
330
8436
100
AcDbXrecord
280
     1
  1
AcDbDs::TreatedAsObjectDataSchema
  2
AcDbDs::TreatedAsObjectData
280
     1
 91
        0
  0
XRECORD
  5
8432
102
{ACAD_REACTORS
330
8436
102
}
330
8436
100
AcDbXrecord
280
     1
  1
AcDbDs::LegacySchema
  2
AcDbDs::Legacy
280
     1
 91
        0
  0
XRECORD
  5
8433
102
{ACAD_REACTORS
330
8436
102
}
330
8436
100
AcDbXrecord
280
     1
  1
AcDbDs::IndexedPropertySchema
  2
AcDs:Indexable
280
     1
 91
        0
  0
XRECORD
  5
8434
102
{ACAD_REACTORS
330
8436
102
}
330
8436
100
AcDbXrecord
280
     1
  1
AcDbDs::HandleAttributeSchema
  2
AcDbDs::HandleAttribute
280
     7
 91
        1
284
     1
  0
XRECORD
  5
843B
102
{ACAD_REACTORS
330
843A
102
}
330
843A
100
AcDbXrecord
280
     1
102
DISPLAYNAME
  1
Metric50
102
FLAGS
 90
        0
  0
XRECORD
  5
80AA
102
{ACAD_REACTORS
330
80A8
102
}
330
80A8
100
AcDbXrecord
280
     1
270
     1
271
     1
  0
XRECORD
  5
80A9
102
{ACAD_REACTORS
330
80A8
102
}
330
80A8
100
AcDbXrecord
280
     1
270
     1
271
     1
  0
XRECORD
  5
80AD
102
{ACAD_REACTORS
330
80A8
102
}
330
80A8
100
AcDbXrecord
280
     1
270
     1
271
     1
  0
XRECORD
  5
80AC
102
{ACAD_REACTORS
330
80A8
102
}
330
80A8
100
AcDbXrecord
280
     1
270
     1
271
     1
  0
XRECORD
  5
80AE
102
{ACAD_REACTORS
330
80A8
102
}
330
80A8
100
AcDbXrecord
280
     1
270
     1
271
     1
  0
XRECORD
  5
80AB
102
{ACAD_REACTORS
330
80A8
102
}
330
80A8
100
AcDbXrecord
280
     1
270
     1
271
     1
  0
XRECORD
  5
80A2
102
{ACAD_REACTORS
330
80A0
102
}
330
80A0
100
AcDbXrecord
280
     1
270
     1
271
     1
  0
XRECORD
  5
80A1
102
{ACAD_REACTORS
330
80A0
102
}
330
80A0
100
AcDbXrecord
280
     1
270
     1
271
     1
  0
XRECORD
  5
80A5
102
{ACAD_REACTORS
330
80A0
102
}
330
80A0
100
AcDbXrecord
280
     1
270
     1
271
     1
  0
XRECORD
  5
80A4
102
{ACAD_REACTORS
330
80A0
102
}
330
80A0
100
AcDbXrecord
280
     1
270
     1
271
     1
  0
XRECORD
  5
80A6
102
{ACAD_REACTORS
330
80A0
102
}
330
80A0
100
AcDbXrecord
280
     1
270
     1
271
     1
  0
XRECORD
  5
80A3
102
{ACAD_REACTORS
330
80A0
102
}
330
80A0
100
AcDbXrecord
280
     1
270
     1
271
     1
  0
XRECORD
  5
80B2
102
{ACAD_REACTORS
330
80B0
102
}
330
80B0
100
AcDbXrecord
280
     1
270
     1
271
     1
  0
XRECORD
  5
80B1
102
{ACAD_REACTORS
330
80B0
102
}
330
80B0
100
AcDbXrecord
280
     1
270
     1
271
     1
  0
XRECORD
  5
80B5
102
{ACAD_REACTORS
330
80B0
102
}
330
80B0
100
AcDbXrecord
280
     1
270
     1
271
     1
  0
XRECORD
  5
80B4
102
{ACAD_REACTORS
330
80B0
102
}
330
80B0
100
AcDbXrecord
280
     1
270
     1
271
     1
  0
XRECORD
  5
80B6
102
{ACAD_REACTORS
330
80B0
102
}
330
80B0
100
AcDbXrecord
280
     1
270
     1
271
     1
  0
XRECORD
  5
80B3
102
{ACAD_REACTORS
330
80B0
102
}
330
80B0
100
AcDbXrecord
280
     1
270
     1
271
     1
  0
XRECORD
  5
8439
102
{ACAD_REACTORS
330
8438
102
}
330
8438
100
AcDbXrecord
280
     1
102
DISPLAYNAME
  1
Metric50
102
FLAGS
 90
        0
  0
CELLSTYLEMAP
  5
842E
102
{ACAD_REACTORS
330
842D
102
}
330
842D
100
AcDbCellStyleMap
 90
        3
300
CELLSTYLE
  1
TABLEFORMAT_BEGIN
 90
        5
170
     1
 91
        0
 92
    32768
 62
   257
 93
        1
300
CONTENTFORMAT
  1
CONTENTFORMAT_BEGIN
 90
        0
 91
        0
 92
      512
 93
        0
300

 40
0.0
140
1.0
 94
        5
 62
     0
340
10
144
6.0
309
CONTENTFORMAT_END
171
     1
301
MARGIN
  1
CELLMARGIN_BEGIN
 40
1.5
 40
1.5
 40
1.5
 40
1.5
 40
4.5
 40
4.5
309
CELLMARGIN_END
 94
        6
 95
        1
302
GRIDFORMAT
  1
GRIDFORMAT_BEGIN
 90
        0
 91
        1
 62
     0
 92
       -2
340
0
 93
        0
 40
1.125
309
GRIDFORMAT_END
 95
        2
302
GRIDFORMAT
  1
GRIDFORMAT_BEGIN
 90
        0
 91
        1
 62
     0
 92
       -2
340
0
 93
        0
 40
1.125
309
GRIDFORMAT_END
 95
        4
302
GRIDFORMAT
  1
GRIDFORMAT_BEGIN
 90
        0
 91
        1
 62
     0
 92
       -2
340
0
 93
        0
 40
1.125
309
GRIDFORMAT_END
 95
        8
302
GRIDFORMAT
  1
GRIDFORMAT_BEGIN
 90
        0
 91
        1
 62
     0
 92
       -2
340
0
 93
        0
 40
1.125
309
GRIDFORMAT_END
 95
       16
302
GRIDFORMAT
  1
GRIDFORMAT_BEGIN
 90
        0
 91
        1
 62
     0
 92
       -2
340
0
 93
        0
 40
1.125
309
GRIDFORMAT_END
 95
       32
302
GRIDFORMAT
  1
GRIDFORMAT_BEGIN
 90
        0
 91
        1
 62
     0
 92
       -2
340
0
 93
        0
 40
1.125
309
GRIDFORMAT_END
309
TABLEFORMAT_END
  1
CELLSTYLE_BEGIN
 90
        1
 91
        1
300
_TITLE
309
CELLSTYLE_END
300
CELLSTYLE
  1
TABLEFORMAT_BEGIN
 90
        5
170
     1
 91
        0
 92
        0
 62
   257
 93
        1
300
CONTENTFORMAT
  1
CONTENTFORMAT_BEGIN
 90
        0
 91
        0
 92
      512
 93
        0
300

 40
0.0
140
1.0
 94
        5
 62
     0
340
10
144
4.5
309
CONTENTFORMAT_END
171
     1
301
MARGIN
  1
CELLMARGIN_BEGIN
 40
1.5
 40
1.5
 40
1.5
 40
1.5
 40
4.5
 40
4.5
309
CELLMARGIN_END
 94
        6
 95
        1
302
GRIDFORMAT
  1
GRIDFORMAT_BEGIN
 90
        0
 91
        1
 62
     0
 92
       -2
340
0
 93
        0
 40
1.125
309
GRIDFORMAT_END
 95
        2
302
GRIDFORMAT
  1
GRIDFORMAT_BEGIN
 90
        0
 91
        1
 62
     0
 92
       -2
340
0
 93
        0
 40
1.125
309
GRIDFORMAT_END
 95
        4
302
GRIDFORMAT
  1
GRIDFORMAT_BEGIN
 90
        0
 91
        1
 62
     0
 92
       -2
340
0
 93
        0
 40
1.125
309
GRIDFORMAT_END
 95
        8
302
GRIDFORMAT
  1
GRIDFORMAT_BEGIN
 90
        0
 91
        1
 62
     0
 92
       -2
340
0
 93
        0
 40
1.125
309
GRIDFORMAT_END
 95
       16
302
GRIDFORMAT
  1
GRIDFORMAT_BEGIN
 90
        0
 91
        1
 62
     0
 92
       -2
340
0
 93
        0
 40
1.125
309
GRIDFORMAT_END
 95
       32
302
GRIDFORMAT
  1
GRIDFORMAT_BEGIN
 90
        0
 91
        1
 62
     0
 92
       -2
340
0
 93
        0
 40
1.125
309
GRIDFORMAT_END
309
TABLEFORMAT_END
  1
CELLSTYLE_BEGIN
 90
        2
 91
        1
300
_HEADER
309
CELLSTYLE_END
300
CELLSTYLE
  1
TABLEFORMAT_BEGIN
 90
        5
170
     1
 91
        0
 92
        0
 62
   257
 93
        1
300
CONTENTFORMAT
  1
CONTENTFORMAT_BEGIN
 90
        0
 91
        0
 92
      512
 93
        0
300

 40
0.0
140
1.0
 94
        2
 62
     0
340
10
144
4.5
309
CONTENTFORMAT_END
171
     1
301
MARGIN
  1
CELLMARGIN_BEGIN
 40
1.5
 40
1.5
 40
1.5
 40
1.5
 40
4.5
 40
4.5
309
CELLMARGIN_END
 94
        6
 95
        1
302
GRIDFORMAT
  1
GRIDFORMAT_BEGIN
 90
        0
 91
        1
 62
     0
 92
       -2
340
0
 93
        0
 40
1.125
309
GRIDFORMAT_END
 95
        2
302
GRIDFORMAT
  1
GRIDFORMAT_BEGIN
 90
        0
 91
        1
 62
     0
 92
       -2
340
0
 93
        0
 40
1.125
309
GRIDFORMAT_END
 95
        4
302
GRIDFORMAT
  1
GRIDFORMAT_BEGIN
 90
        0
 91
        1
 62
     0
 92
       -2
340
0
 93
        0
 40
1.125
309
GRIDFORMAT_END
 95
        8
302
GRIDFORMAT
  1
GRIDFORMAT_BEGIN
 90
        0
 91
        1
 62
     0
 92
       -2
340
0
 93
        0
 40
1.125
309
GRIDFORMAT_END
 95
       16
302
GRIDFORMAT
  1
GRIDFORMAT_BEGIN
 90
        0
 91
        1
 62
     0
 92
       -2
340
0
 93
        0
 40
1.125
309
GRIDFORMAT_END
 95
       32
302
GRIDFORMAT
  1
GRIDFORMAT_BEGIN
 90
        0
 91
        1
 62
     0
 92
       -2
340
0
 93
        0
 40
1.125
309
GRIDFORMAT_END
309
TABLEFORMAT_END
  1
CELLSTYLE_BEGIN
 90
        3
 91
        2
300
_DATA
309
CELLSTYLE_END
  0
ENDSEC
  0
SECTION
  2
ACDSDATA
 70
     2
 71
     8
  0
ACDSSCHEMA
 90
        0
  1
AcDb_Thumbnail_Schema
  2
AcDbDs::ID
280
    10
 91
        8
  2
Thumbnail_Data
280
    15
 91
        0
101
ACDSRECORD
 95
        0
 90
        1
  2
AcDbDs::TreatedAsObjectData
280
     1
291
     1
101
ACDSRECORD
 95
        0
 90
        2
  2
AcDbDs::Legacy
280
     1
291
     1
101
ACDSRECORD
  1
AcDbDs::ID
 90
        3
  2
AcDs:Indexable
280
     1
291
     1
101
ACDSRECORD
  1
AcDbDs::ID
 90
        4
  2
AcDbDs::HandleAttribute
280
     7
282
     1
  0
ACDSSCHEMA
 90
        1
  1
AcDbDs::TreatedAsObjectDataSchema
  2
AcDbDs::TreatedAsObjectData
280
     1
 91
        0
  0
ACDSSCHEMA
 90
        2
  1
AcDbDs::LegacySchema
  2
AcDbDs::Legacy
280
     1
 91
        0
  0
ACDSSCHEMA
 90
        3
  1
AcDbDs::IndexedPropertySchema
  2
AcDs:Indexable
280
     1
 91
        0
  0
ACDSSCHEMA
 90
        4
  1
AcDbDs::HandleAttributeSchema
  2
AcDbDs::HandleAttribute
280
     7
 91
        1
284
     1
  0
ACDSRECORD
 90
        0
  2
AcDbDs::ID
280
    10
320
804A
  2
Thumbnail_Data
280
    15
 94
     1719
310
89504E470D0A1A0A0000000D49484452000001000000007C0803000000B13B9E5A00000300504C5445000000000000C8C8C80000000000000000000000000000000000000000000000000000330000660000990000CC0000FF0033000033330033660033990033CC0033FF0066000066330066660066990066CC0066FF0099
310
000099330099660099990099CC0099FF00CC0000CC3300CC6600CC9900CCCC00CCFF00FF0000FF3300FF6600FF9900FFCC00FFFF3300003300333300663300993300CC3300FF3333003333333333663333993333CC3333FF3366003366333366663366993366CC3366FF3399003399333399663399993399CC3399FF33CC00
310
33CC3333CC6633CC9933CCCC33CCFF33FF0033FF3333FF6633FF9933FFCC33FFFF6600006600336600666600996600CC6600FF6633006633336633666633996633CC6633FF6666006666336666666666996666CC6666FF6699006699336699666699996699CC6699FF66CC0066CC3366CC6666CC9966CCCC66CCFF66FF0066
310
FF3366FF6666FF9966FFCC66FFFF9900009900339900669900999900CC9900FF9933009933339933669933999933CC9933FF9966009966339966669966999966CC9966FF9999009999339999669999999999CC9999FF99CC0099CC3399CC6699CC9999CCCC99CCFF99FF0099FF3399FF6699FF9999FFCC99FFFFCC0000CC00
310
33CC0066CC0099CC00CCCC00FFCC3300CC3333CC3366CC3399CC33CCCC33FFCC6600CC6633CC6666CC6699CC66CCCC66FFCC9900CC9933CC9966CC9999CC99CCCC99FFCCCC00CCCC33CCCC66CCCC99CCCCCCCCCCFFCCFF00CCFF33CCFF66CCFF99CCFFCCCCFFFFFF0000FF0033FF0066FF0099FF00CCFF00FFFF3300FF3333
310
FF3366FF3399FF33CCFF33FFFF6600FF6633FF6666FF6699FF66CCFF66FFFF9900FF9933FF9966FF9999FF99CCFF99FFFFCC00FFCC33FFCC66FFCC99FFCCCCFFCCFFFFFF00FFFF33FFFF66FFFF99FFFFCCFFFFFF0000000D0D0D1A1A1A2828283535354343435050505D5D5D6B6B6B787878868686939393A1A1A1AEAEAEBB
310
BBBBC9C9C9D6D6D6E4E4E4F1F1F1FFFFFF00000000000000000000000000000000000000000000000000000000000008F1915C000003724944415478DAED9D6BAE2B210880598E7FD8FF66DC86FF6F6714041F9DD3E49CDC0A9834B5D369533E7989C602FC412B7FD4E094568EFADA0010000240000800DFF34BDF043F2F00
310
868F17971AE01E40F10C60B082B301FCEA0CE048005FF66501E03F00687A2C54BAA83E9092D77BBBE5B48B160040151ABAD8D05E92CF2BA5650085BA50C918F001D3A82BFF56484EAD01E20D2B2640495E9136F15EB6124E30F2008793A147933811C0CAF7A948583FC21142C6411BF5802D00282A161280C1451AD7809629
310
8014DF18805FFA7CD4040340003813407E35D9CF8E00E47D7302402A82568B001000DC01C0BBA5FA94F163477036009CDAE5223D01A04EEA1732048000100002806100AF38279DFE0820DB07D0C71D300D0D933300EE35C021805C0124DF00C8017A8C0215C04BE2001000BC264212C06A3AEC0980280C705470900AE3BE65
310
1F15A1B5F0E0A726A8E641EC0ABC01F0AC01FDE260F35E00C4D2D8AE390170C2D70680001000BEE4978AE0B08C13A703780C7E223C2E23A5B13C60D82E90BBD4AF47ED0DF71C9F07A8F11DF74BFC00D2D900DAB0C24E03568600B600BC3781D53DB6008C9D1580DA4F7CCD1E00510CD2BA901793677B00B02D148982C0EDF5
310
E9156A0D406B00647198AD1EF600464F7138804BE8EB919A2A3C03B8560F2D01E82670F77E0600AC01E0B5521C005C974D03C06AFFD0046D0078F46F2CF6015C7226A8DE00551490FB884C0248B451F8DA1D84D7033909C8B05A3AAC098319001403C809E0ED0633873A360FD680FB0E2B009AF7633B1000A003203790D864
310
8C0050A3DF7A300300DA479080BB1600D00EA11606305569AB0F980100B9C90AE0FC44E8DE1FD0861FC4E22039C10900EF2030920A5374E34487A554B3411906F9D9424DB009C66E80A37CD700E8516032010B00EE98CFDE5F0060FB2700697682263420B1EC7D32043D0A80D2001506ED9800F67C08F700704A84EC019049
310
2F973D6526386E24316202BB7D3232D4F537D286C08900700B602A7EDB05809F02404300162690E7D2B872177C07D54C4C4C87D572975CF4D17573AE0FF442C1E9001E1687737E7BAB0500E37B4DAC1580B16701C053FB68BB6000300800DC038000100002400008008E00B83F55F673C95C009067ACEAB3B8ED0180C55FA7
310
8913D7E9A475BB00DCFB80B506A883F53DFA0097003676E14803E274F948850340000800012000040083000EFAEBED7F3DCA3AC4C0C36BED0000000049454E44AE426082
  0
ENDSEC
  0
EOF
