  0
SECTION
  2
HEADER
  9
$ACADVER
  1
AC1027
  9
$ACADMAINTVER
 70
   125
  9
$DWGCODEPAGE
  3
ANSI_932
  9
$LASTSAVEDBY
  1
yasukiyo.ogawa
  9
$REQUIREDVERSIONS
160
                 0
  9
$INSBASE
 10
0.0
 20
0.0
 30
0.0
  9
$EXTMIN
 10
0.0
 20
0.0
 30
0.0
  9
$EXTMAX
 10
6300.0
 20
8850.0
 30
0.0
  9
$LIMMIN
 10
0.0
 20
0.0
  9
$LIMMAX
 10
297.0
 20
210.0
  9
$ORTHOMODE
 70
     1
  9
$REGENMODE
 70
     1
  9
$FILLMODE
 70
     0
  9
$QTEXTMODE
 70
     0
  9
$MIRRTEXT
 70
     1
  9
$LTSCALE
 40
100.0
  9
$ATTMODE
 70
     1
  9
$TEXTSIZE
 40
180.0
  9
$TRACEWID
 40
0.05
  9
$TEXTSTYLE
  7
STANDARD
  9
$CLAYER
  8
3
  9
$CELTYPE
  6
BYLAYER
  9
$CECOLOR
 62
   256
  9
$CELTSCALE
 40
1.0
  9
$DISPSILH
 70
     0
  9
$DIMSCALE
 40
30.0
  9
$DIMASZ
 40
2.0
  9
$DIMEXO
 40
0.5
  9
$DIMDLI
 40
10.0
  9
$DIMRND
 40
0.0
  9
$DIMDLE
 40
0.0
  9
$DIMEXE
 40
1.0
  9
$DIMTP
 40
1.0
  9
$DIMTM
 40
1.0
  9
$DIMTXT
 40
3.0
  9
$DIMCEN
 40
0.0
  9
$DIMTSZ
 40
0.0
  9
$DIMTOL
 70
     0
  9
$DIMLIM
 70
     0
  9
$DIMTIH
 70
     0
  9
$DIMTOH
 70
     0
  9
$DIMSE1
 70
     0
  9
$DIMSE2
 70
     0
  9
$DIMTAD
 70
     1
  9
$DIMZIN
 70
     8
  9
$DIMBLK
  1

  9
$DIMASO
 70
     1
  9
$DIMSHO
 70
     1
  9
$DIMPOST
  1
(<>)
  9
$DIMAPOST
  1

  9
$DIMALT
 70
     0
  9
$DIMALTD
 70
     2
  9
$DIMALTF
 40
0.039
  9
$DIMLFAC
 40
1.0
  9
$DIMTOFL
 70
     1
  9
$DIMTVP
 40
0.0
  9
$DIMTIX
 70
     0
  9
$DIMSOXD
 70
     0
  9
$DIMSAH
 70
     1
  9
$DIMBLK1
  1
OPEN
  9
$DIMBLK2
  1
OPEN
  9
$DIMSTYLE
  2
IGA
  9
$DIMCLRD
 70
     0
  9
$DIMCLRE
 70
     0
  9
$DIMCLRT
 70
     0
  9
$DIMTFAC
 40
10.0
  9
$DIMGAP
 40
1.0
  9
$DIMJUST
 70
     0
  9
$DIMSD1
 70
     0
  9
$DIMSD2
 70
     0
  9
$DIMTOLJ
 70
     1
  9
$DIMTZIN
 70
     8
  9
$DIMALTZ
 70
     0
  9
$DIMALTTZ
 70
     0
  9
$DIMUPT
 70
     0
  9
$DIMDEC
 70
     0
  9
$DIMTDEC
 70
     0
  9
$DIMALTU
 70
     2
  9
$DIMALTTD
 70
     2
  9
$DIMTXSTY
  7
STANDARD
  9
$DIMAUNIT
 70
     0
  9
$DIMADEC
 70
     0
  9
$DIMALTRND
 40
0.0
  9
$DIMAZIN
 70
     0
  9
$DIMDSEP
 70
    46
  9
$DIMATFIT
 70
     3
  9
$DIMFRAC
 70
     0
  9
$DIMLDRBLK
  1
OPEN
  9
$DIMLUNIT
 70
     2
  9
$DIMLWD
 70
    -2
  9
$DIMLWE
 70
    -2
  9
$DIMTMOVE
 70
     2
  9
$DIMFXL
 40
1.0
  9
$DIMFXLON
 70
     0
  9
$DIMJOGANG
 40
0.7853981633974483
  9
$DIMTFILL
 70
     0
  9
$DIMTFILLCLR
 70
     0
  9
$DIMARCSYM
 70
     0
  9
$DIMLTYPE
  6

  9
$DIMLTEX1
  6

  9
$DIMLTEX2
  6

  9
$DIMTXTDIRECTION
 70
     0
  9
$LUNITS
 70
     2
  9
$LUPREC
 70
     3
  9
$SKETCHINC
 40
0.1
  9
$FILLETRAD
 40
50.0
  9
$AUNITS
 70
     0
  9
$AUPREC
 70
     0
  9
$MENU
  1
acad
  9
$ELEVATION
 40
0.0
  9
$PELEVATION
 40
0.0
  9
$THICKNESS
 40
0.0
  9
$LIMCHECK
 70
     0
  9
$CHAMFERA
 40
0.5
  9
$CHAMFERB
 40
0.5
  9
$CHAMFERC
 40
20.0
  9
$CHAMFERD
 40
0.0
  9
$SKPOLY
 70
     0
  9
$TDCREATE
 40
2451382.410810185
  9
$TDUCREATE
 40
2451382.035819098
  9
$TDUPDATE
 40
2460241.600243056
  9
$TDUUPDATE
 40
2460241.225251482
  9
$TDINDWG
 40
0.0153323958
  9
$TDUSRTIMER
 40
0.0153323958
  9
$USRTIMER
 70
     1
  9
$ANGBASE
 50
0.0
  9
$ANGDIR
 70
     0
  9
$PDMODE
 70
     0
  9
$PDSIZE
 40
0.0
  9
$PLINEWID
 40
0.0
  9
$SPLFRAME
 70
     0
  9
$SPLINETYPE
 70
     6
  9
$SPLINESEGS
 70
     8
  9
$HANDSEED
  5
83B3
  9
$SURFTAB1
 70
     6
  9
$SURFTAB2
 70
     6
  9
$SURFTYPE
 70
     6
  9
$SURFU
 70
     6
  9
$SURFV
 70
     6
  9
$UCSBASE
  2

  9
$UCSNAME
  2

  9
$UCSORG
 10
0.0
 20
0.0
 30
0.0
  9
$UCSXDIR
 10
1.0
 20
0.0
 30
0.0
  9
$UCSYDIR
 10
0.0
 20
1.0
 30
0.0
  9
$UCSORTHOREF
  2

  9
$UCSORTHOVIEW
 70
     0
  9
$UCSORGTOP
 10
0.0
 20
0.0
 30
0.0
  9
$UCSORGBOTTOM
 10
0.0
 20
0.0
 30
0.0
  9
$UCSORGLEFT
 10
0.0
 20
0.0
 30
0.0
  9
$UCSORGRIGHT
 10
0.0
 20
0.0
 30
0.0
  9
$UCSORGFRONT
 10
0.0
 20
0.0
 30
0.0
  9
$UCSORGBACK
 10
0.0
 20
0.0
 30
0.0
  9
$PUCSBASE
  2

  9
$PUCSNAME
  2

  9
$PUCSORG
 10
0.0
 20
0.0
 30
0.0
  9
$PUCSXDIR
 10
1.0
 20
0.0
 30
0.0
  9
$PUCSYDIR
 10
0.0
 20
1.0
 30
0.0
  9
$PUCSORTHOREF
  2

  9
$PUCSORTHOVIEW
 70
     0
  9
$PUCSORGTOP
 10
0.0
 20
0.0
 30
0.0
  9
$PUCSORGBOTTOM
 10
0.0
 20
0.0
 30
0.0
  9
$PUCSORGLEFT
 10
0.0
 20
0.0
 30
0.0
  9
$PUCSORGRIGHT
 10
0.0
 20
0.0
 30
0.0
  9
$PUCSORGFRONT
 10
0.0
 20
0.0
 30
0.0
  9
$PUCSORGBACK
 10
0.0
 20
0.0
 30
0.0
  9
$USERI1
 70
     0
  9
$USERI2
 70
     0
  9
$USERI3
 70
     0
  9
$USERI4
 70
     0
  9
$USERI5
 70
     0
  9
$USERR1
 40
0.0
  9
$USERR2
 40
0.0
  9
$USERR3
 40
0.0
  9
$USERR4
 40
0.0
  9
$USERR5
 40
0.0
  9
$WORLDVIEW
 70
     1
  9
$SHADEDGE
 70
     3
  9
$SHADEDIF
 70
    70
  9
$TILEMODE
 70
     1
  9
$MAXACTVP
 70
    16
  9
$PINSBASE
 10
0.0
 20
0.0
 30
0.0
  9
$PLIMCHECK
 70
     0
  9
$PEXTMIN
 10
1.000000000000000E+20
 20
1.000000000000000E+20
 30
1.000000000000000E+20
  9
$PEXTMAX
 10
-1.000000000000000E+20
 20
-1.000000000000000E+20
 30
-1.000000000000000E+20
  9
$PLIMMIN
 10
0.0
 20
0.0
  9
$PLIMMAX
 10
12.0
 20
9.0
  9
$UNITMODE
 70
     0
  9
$VISRETAIN
 70
     0
  9
$PLINEGEN
 70
     0
  9
$PSLTSCALE
 70
     1
  9
$TREEDEPTH
 70
  3020
  9
$CMLSTYLE
  2
STANDARD
  9
$CMLJUST
 70
     0
  9
$CMLSCALE
 40
20.0
  9
$PROXYGRAPHICS
 70
     1
  9
$MEASUREMENT
 70
     1
  9
$CELWEIGHT
370
    -1
  9
$ENDCAPS
280
     0
  9
$JOINSTYLE
280
     0
  9
$LWDISPLAY
290
     0
  9
$INSUNITS
 70
     0
  9
$HYPERLINKBASE
  1

  9
$STYLESHEET
  1

  9
$XEDIT
290
     1
  9
$CEPSNTYPE
380
     0
  9
$PSTYLEMODE
290
     1
  9
$FINGERPRINTGUID
  2
{513CC48C-6ACB-4647-8D84-60E34933870D}
  9
$VERSIONGUID
  2
{9197FF85-EC44-4174-AFED-6C65DEDACA8E}
  9
$EXTNAMES
290
     1
  9
$PSVPSCALE
 40
0.0
  9
$OLESTARTUP
290
     0
  9
$SORTENTS
280
   127
  9
$INDEXCTL
280
     0
  9
$HIDETEXT
280
     0
  9
$XCLIPFRAME
280
     2
  9
$HALOGAP
280
     0
  9
$OBSCOLOR
 70
   257
  9
$OBSLTYPE
280
     0
  9
$INTERSECTIONDISPLAY
280
     0
  9
$INTERSECTIONCOLOR
 70
   257
  9
$DIMASSOC
280
     1
  9
$PROJECTNAME
  1

  9
$CAMERADISPLAY
290
     0
  9
$LENSLENGTH
 40
50.0
  9
$CAMERAHEIGHT
 40
0.0
  9
$STEPSPERSEC
 40
2.0
  9
$STEPSIZE
 40
6.0
  9
$3DDWFPREC
 40
2.0
  9
$PSOLWIDTH
 40
0.25
  9
$PSOLHEIGHT
 40
4.0
  9
$LOFTANG1
 40
1.570796326794896
  9
$LOFTANG2
 40
1.570796326794896
  9
$LOFTMAG1
 40
0.0
  9
$LOFTMAG2
 40
0.0
  9
$LOFTPARAM
 70
     7
  9
$LOFTNORMALS
280
     1
  9
$LATITUDE
 40
37.795
  9
$LONGITUDE
 40
-122.394
  9
$NORTHDIRECTION
 40
0.0
  9
$TIMEZONE
 70
 -8000
  9
$LIGHTGLYPHDISPLAY
280
     1
  9
$TILEMODELIGHTSYNCH
280
     1
  9
$CMATERIAL
347
8075
  9
$SOLIDHIST
280
     0
  9
$SHOWHIST
280
     1
  9
$DWFFRAME
280
     2
  9
$DGNFRAME
280
     0
  9
$REALWORLDSCALE
290
     1
  9
$INTERFERECOLOR
 62
     1
  9
$INTERFEREOBJVS
345
8097
  9
$INTERFEREVPVS
346
8094
  9
$CSHADOW
280
     0
  9
$SHADOWPLANELOCATION
 40
0.0
  0
ENDSEC
  0
SECTION
  2
CLASSES
  0
CLASS
  1
ACDBDICTIONARYWDFLT
  2
AcDbDictionaryWithDefault
  3
ObjectDBX Classes
 90
        0
 91
        1
280
     0
281
     0
  0
CLASS
  1
DICTIONARYVAR
  2
AcDbDictionaryVar
  3
ObjectDBX Classes
 90
        0
 91
       11
280
     0
281
     0
  0
CLASS
  1
MATERIAL
  2
AcDbMaterial
  3
ObjectDBX Classes
 90
     1153
 91
        3
280
     0
281
     0
  0
CLASS
  1
VISUALSTYLE
  2
AcDbVisualStyle
  3
ObjectDBX Classes
 90
     4095
 91
       24
280
     0
281
     0
  0
CLASS
  1
TABLESTYLE
  2
AcDbTableStyle
  3
ObjectDBX Classes
 90
     4095
 91
        1
280
     0
281
     0
  0
CLASS
  1
SCALE
  2
AcDbScale
  3
ObjectDBX Classes
 90
     1153
 91
       17
280
     0
281
     0
  0
CLASS
  1
MLEADERSTYLE
  2
AcDbMLeaderStyle
  3
ACDB_MLEADERSTYLE_CLASS
 90
     4095
 91
        1
280
     0
281
     0
  0
CLASS
  1
ACDBSECTIONVIEWSTYLE
  2
AcDbSectionViewStyle
  3
ObjectDBX Classes
 90
     1025
 91
        1
280
     0
281
     0
  0
CLASS
  1
ACDBDETAILVIEWSTYLE
  2
AcDbDetailViewStyle
  3
ObjectDBX Classes
 90
     1025
 91
        1
280
     0
281
     0
  0
CLASS
  1
CELLSTYLEMAP
  2
AcDbCellStyleMap
  3
ObjectDBX Classes
 90
     1152
 91
        1
280
     0
281
     0
  0
ENDSEC
  0
SECTION
  2
TABLES
  0
TABLE
  2
VPORT
  5
8
330
0
100
AcDbSymbolTable
 70
     1
1001
ACAD
1000
DbSaveVer
1071
      278
  0
VPORT
  5
8072
330
8
100
AcDbSymbolTableRecord
100
AcDbViewportTableRecord
  2
*Active
 70
     0
 10
0.0
 20
0.0
 11
1.0
 21
1.0
 12
4031.654010151587
 22
4425.00002054311
 13
0.0
 23
0.0
 14
10.0
 24
10.0
 15
10.0
 25
10.0
 16
0.0
 26
0.0
 36
1.0
 17
0.0
 27
0.0
 37
0.0
 40
8907.213852773631
 41
2.250314465408805
 42
50.0
 43
0.0
 44
0.0
 50
0.0
 51
0.0
 71
     0
 72
   100
 73
     1
 74
     0
 75
     0
 76
     0
 77
     0
 78
     0
281
     0
 65
     1
110
0.0
120
0.0
130
0.0
111
1.0
121
0.0
131
0.0
112
0.0
122
1.0
132
0.0
 79
     0
146
0.0
348
8093
 60
     3
 61
     5
292
     1
282
     1
141
0.0
142
0.0
 63
   250
421
  3355443
1001
ACAD_NAV_VCDISPLAY
1070
     3
  0
ENDTAB
  0
TABLE
  2
LTYPE
  5
5
330
0
100
AcDbSymbolTable
 70
     2
  0
LTYPE
  5
13
330
5
100
AcDbSymbolTableRecord
100
AcDbLinetypeTableRecord
  2
BYBLOCK
 70
     0
  3

 72
    65
 73
     0
 40
0.0
  0
LTYPE
  5
14
330
5
100
AcDbSymbolTableRecord
100
AcDbLinetypeTableRecord
  2
BYLAYER
 70
     0
  3

 72
    65
 73
     0
 40
0.0
  0
LTYPE
  5
15
330
5
100
AcDbSymbolTableRecord
100
AcDbLinetypeTableRecord
  2
CONTINUOUS
 70
     0
  3
Solid line
 72
    65
 73
     0
 40
0.0
  0
LTYPE
  5
1F
330
5
100
AcDbSymbolTableRecord
100
AcDbLinetypeTableRecord
  2
CENTER
 70
     0
  3
____ _ ____ _ ____ _ ____ _ ____ _ ____ _ ____ 
 72
    65
 73
     4
 40
2.0
 49
1.25
 74
     0
 49
-0.25
 74
     0
 49
0.25
 74
     0
 49
-0.25
 74
     0
  0
ENDTAB
  0
TABLE
  2
LAYER
  5
2
102
{ACAD_XDICTIONARY
360
814D
102
}
330
0
100
AcDbSymbolTable
 70
     7
  0
LAYER
  5
F
102
{ACAD_XDICTIONARY
360
837F
102
}
330
2
100
AcDbSymbolTableRecord
100
AcDbLayerTableRecord
  2
0
 70
     0
 62
     7
  6
CONTINUOUS
370
    -3
390
8016
347
8085
348
0
  0
LAYER
  5
31
102
{ACAD_XDICTIONARY
360
8381
102
}
330
2
100
AcDbSymbolTableRecord
100
AcDbLayerTableRecord
  2
3
 70
     0
 62
     2
  6
CONTINUOUS
370
    -3
390
8016
347
8085
348
0
  0
LAYER
  5
76D0
102
{ACAD_XDICTIONARY
360
8383
102
}
330
2
100
AcDbSymbolTableRecord
100
AcDbLayerTableRecord
  2
2
 70
     0
 62
     3
  6
CENTER
370
    -3
390
8016
347
8085
348
0
  0
LAYER
  5
76D1
102
{ACAD_XDICTIONARY
360
8385
102
}
330
2
100
AcDbSymbolTableRecord
100
AcDbLayerTableRecord
  2
1
 70
     0
 62
     4
  6
CONTINUOUS
370
    -3
390
8016
347
8085
348
0
  0
LAYER
  5
76D2
102
{ACAD_XDICTIONARY
360
8387
102
}
330
2
100
AcDbSymbolTableRecord
100
AcDbLayerTableRecord
  2
4
 70
     0
 62
     7
  6
CONTINUOUS
370
    -3
390
8016
347
8085
348
0
  0
LAYER
  5
7B26
330
2
100
AcDbSymbolTableRecord
100
AcDbLayerTableRecord
  2
DEFPOINTS
 70
     0
 62
     7
  6
CONTINUOUS
290
     0
370
    -3
390
8016
347
8085
348
0
  0
LAYER
  5
814A
102
{ACAD_XDICTIONARY
360
814B
102
}
330
2
100
AcDbSymbolTableRecord
100
AcDbLayerTableRecord
  2
FUTO
 70
     0
 62
     4
  6
CONTINUOUS
370
    -3
390
8016
347
8085
348
0
  0
ENDTAB
  0
TABLE
  2
STYLE
  5
3
330
0
100
AcDbSymbolTable
 70
     1
  0
STYLE
  5
10
330
3
100
AcDbSymbolTableRecord
100
AcDbTextStyleTableRecord
  2
STANDARD
 70
     0
 40
0.0
 41
1.0
 50
0.0
 71
     0
 42
180.0
  3
simplex.shx
  4
extfont.shx
  0
ENDTAB
  0
TABLE
  2
VIEW
  5
6
330
0
100
AcDbSymbolTable
 70
     0
  0
ENDTAB
  0
TABLE
  2
UCS
  5
7
330
0
100
AcDbSymbolTable
 70
     0
  0
ENDTAB
  0
TABLE
  2
APPID
  5
9
330
0
100
AcDbSymbolTable
 70
     2
  0
APPID
  5
11
330
9
100
AcDbSymbolTableRecord
100
AcDbRegAppTableRecord
  2
ACAD
 70
     0
  0
APPID
  5
814C
330
9
100
AcDbSymbolTableRecord
100
AcDbRegAppTableRecord
  2
ACAD_NAV_VCDISPLAY
 70
     0
  0
ENDTAB
  0
TABLE
  2
DIMSTYLE
  5
A
330
0
100
AcDbSymbolTable
 70
     2
100
AcDbDimStyleTable
 71
     1
340
1D
  0
DIMSTYLE
105
1D
102
{ACAD_REACTORS
330
7CE7
330
8000
330
800D
330
8304
330
8311
102
}
330
A
100
AcDbSymbolTableRecord
100
AcDbDimStyleTableRecord
  2
IGA
 70
     0
 40
2.0
 41
2.0
 42
0.5
 43
10.0
 44
1.0
 47
1.0
 48
1.0
 73
     0
 74
     0
 77
     1
 78
     8
140
3.0
141
0.0
143
0.03937
146
10.0
147
1.0
173
     1
271
     1
272
     0
279
     2
284
     8
340
10
341
79FC
343
79FC
344
79FC
  0
DIMSTYLE
105
7B28
102
{ACAD_REACTORS
330
7C53
330
7C54
330
7C55
330
7C9B
330
7CB6
330
7CB7
330
7CB8
330
7CC2
330
7CDD
330
7CDE
330
7CDF
330
7CE0
330
7CE1
330
7CE5
330
7D09
330
7D0B
330
7D0C
102
}
330
A
100
AcDbSymbolTableRecord
100
AcDbDimStyleTableRecord
  2
MATSU
 70
     0
 41
2.0
 42
1.0
 43
10.0
 44
1.0
 73
     0
 74
     0
 77
     1
 78
     8
140
3.0
141
0.0
143
0.03937
147
0.5
172
     1
173
     1
176
   256
177
   256
178
   256
284
     8
289
     0
340
10
341
79FC
343
79FC
344
79FC
  0
ENDTAB
  0
TABLE
  2
BLOCK_RECORD
  5
1
330
0
100
AcDbSymbolTable
 70
    49
  0
BLOCK_RECORD
  5
19
102
{ACAD_XDICTIONARY
360
8044
102
}
330
1
100
AcDbSymbolTableRecord
100
AcDbBlockTableRecord
  2
*MODEL_SPACE
340
8019
 70
     0
280
     1
281
     0
  0
BLOCK_RECORD
  5
16
102
{ACAD_XDICTIONARY
360
8042
102
}
330
1
100
AcDbSymbolTableRecord
100
AcDbBlockTableRecord
  2
*PAPER_SPACE
340
801A
 70
     0
280
     1
281
     0
  0
BLOCK_RECORD
  5
79FC
330
1
100
AcDbSymbolTableRecord
100
AcDbBlockTableRecord
  2
_OPEN
340
0
102
{BLKREFS
331
8059
331
805A
331
7EAD
331
7EAE
331
7EB8
331
7EB9
331
7EC3
331
7EC4
331
7ECE
331
7ECF
331
8353
331
8354
331
835C
331
835D
331
8365
331
8366
331
836E
331
836F
331
837A
331
7E34
331
7E35
331
7E3F
331
7E40
331
7E4A
331
7E4B
331
7E55
331
7E56
331
7E97
331
7E98
331
7EA2
331
7EA3
331
82F5
331
82F6
331
82FE
331
82FF
331
8333
331
8334
331
833C
331
833D
331
834A
331
834B
102
}
 70
     0
280
     1
281
     0
  0
BLOCK_RECORD
  5
7A0A
330
1
100
AcDbSymbolTableRecord
100
AcDbBlockTableRecord
  2
YA_N
340
0
102
{BLKREFS
331
7C51
331
7C8F
331
7C91
331
7C25
102
}
 70
     0
280
     1
281
     0
  0
BLOCK_RECORD
  5
7A0D
330
1
100
AcDbSymbolTableRecord
100
AcDbBlockTableRecord
  2
ARROW
340
0
 70
     0
280
     1
281
     0
  0
BLOCK_RECORD
  5
7D1B
330
1
100
AcDbSymbolTableRecord
100
AcDbBlockTableRecord
  2
*D3
340
0
 70
     0
280
     1
281
     0
  0
BLOCK_RECORD
  5
7D27
330
1
100
AcDbSymbolTableRecord
100
AcDbBlockTableRecord
  2
*D4
340
0
 70
     0
280
     1
281
     0
  0
BLOCK_RECORD
  5
7D33
330
1
100
AcDbSymbolTableRecord
100
AcDbBlockTableRecord
  2
*D5
340
0
 70
     0
280
     1
281
     0
  0
BLOCK_RECORD
  5
7D3F
330
1
100
AcDbSymbolTableRecord
100
AcDbBlockTableRecord
  2
*D6
340
0
 70
     0
280
     1
281
     0
  0
BLOCK_RECORD
  5
7D4B
330
1
100
AcDbSymbolTableRecord
100
AcDbBlockTableRecord
  2
*D7
340
0
 70
     0
280
     1
281
     0
  0
BLOCK_RECORD
  5
7D57
330
1
100
AcDbSymbolTableRecord
100
AcDbBlockTableRecord
  2
*D8
340
0
 70
     0
280
     1
281
     0
  0
BLOCK_RECORD
  5
7D63
330
1
100
AcDbSymbolTableRecord
100
AcDbBlockTableRecord
  2
*D9
340
0
 70
     0
280
     1
281
     0
  0
BLOCK_RECORD
  5
7D7B
330
1
100
AcDbSymbolTableRecord
100
AcDbBlockTableRecord
  2
*D10
340
0
 70
     0
280
     1
281
     0
  0
BLOCK_RECORD
  5
7D93
330
1
100
AcDbSymbolTableRecord
100
AcDbBlockTableRecord
  2
*D11
340
0
 70
     0
280
     1
281
     0
  0
BLOCK_RECORD
  5
7D9F
330
1
100
AcDbSymbolTableRecord
100
AcDbBlockTableRecord
  2
*D12
340
0
 70
     0
280
     1
281
     0
  0
BLOCK_RECORD
  5
7DAB
330
1
100
AcDbSymbolTableRecord
100
AcDbBlockTableRecord
  2
*D13
340
0
 70
     0
280
     1
281
     0
  0
BLOCK_RECORD
  5
7DB7
330
1
100
AcDbSymbolTableRecord
100
AcDbBlockTableRecord
  2
*D14
340
0
 70
     0
280
     1
281
     0
  0
BLOCK_RECORD
  5
7DC3
330
1
100
AcDbSymbolTableRecord
100
AcDbBlockTableRecord
  2
*D15
340
0
 70
     0
280
     1
281
     0
  0
BLOCK_RECORD
  5
7DCF
330
1
100
AcDbSymbolTableRecord
100
AcDbBlockTableRecord
  2
*D16
340
0
 70
     0
280
     1
281
     0
  0
BLOCK_RECORD
  5
7DE9
330
1
100
AcDbSymbolTableRecord
100
AcDbBlockTableRecord
  2
*D17
340
0
 70
     0
280
     1
281
     0
  0
BLOCK_RECORD
  5
7DF7
330
1
100
AcDbSymbolTableRecord
100
AcDbBlockTableRecord
  2
*D18
340
0
 70
     0
280
     1
281
     0
  0
BLOCK_RECORD
  5
7E0E
330
1
100
AcDbSymbolTableRecord
100
AcDbBlockTableRecord
  2
*D19
340
0
 70
     0
280
     1
281
     0
  0
BLOCK_RECORD
  5
7E19
330
1
100
AcDbSymbolTableRecord
100
AcDbBlockTableRecord
  2
*D20
340
0
 70
     0
280
     1
281
     0
  0
BLOCK_RECORD
  5
7FA5
330
1
100
AcDbSymbolTableRecord
100
AcDbBlockTableRecord
  2
_DOT
340
0
102
{BLKREFS
331
8379
102
}
 70
     0
280
     1
281
     0
  0
BLOCK_RECORD
  5
7FF4
330
1
100
AcDbSymbolTableRecord
100
AcDbBlockTableRecord
  2
_NONE
340
0
 70
     0
280
     1
281
     0
  0
BLOCK_RECORD
  5
7FF8
330
1
100
AcDbSymbolTableRecord
100
AcDbBlockTableRecord
  2
*D23
340
0
 70
     0
280
     1
281
     0
  0
BLOCK_RECORD
  5
8001
330
1
100
AcDbSymbolTableRecord
100
AcDbBlockTableRecord
  2
*D24
340
0
 70
     0
280
     1
281
     0
  0
BLOCK_RECORD
  5
8305
330
1
100
AcDbSymbolTableRecord
100
AcDbBlockTableRecord
  2
*D47
340
0
 70
     0
280
     1
281
     0
  0
BLOCK_RECORD
  5
8312
330
1
100
AcDbSymbolTableRecord
100
AcDbBlockTableRecord
  2
*D48
340
0
 70
     0
280
     1
281
     0
  0
ENDTAB
  0
ENDSEC
  0
SECTION
  2
BLOCKS
  0
BLOCK
  5
1A
330
19
100
AcDbEntity
  8
0
100
AcDbBlockBegin
  2
*MODEL_SPACE
 70
     0
 10
0.0
 20
0.0
 30
0.0
  3
*MODEL_SPACE
  1

  0
ENDBLK
  5
1B
330
19
100
AcDbEntity
  8
0
100
AcDbBlockEnd
  0
BLOCK
  5
17
330
16
100
AcDbEntity
 67
     1
  8
0
100
AcDbBlockBegin
  2
*PAPER_SPACE
 70
     0
 10
0.0
 20
0.0
 30
0.0
  3
*PAPER_SPACE
  1

  0
ENDBLK
  5
18
330
16
100
AcDbEntity
 67
     1
  8
0
100
AcDbBlockEnd
  0
BLOCK
  5
7A00
330
79FC
100
AcDbEntity
  8
0
100
AcDbBlockBegin
  2
_OPEN
 70
     0
 10
0.0
 20
0.0
 30
0.0
  3
_OPEN
  1

  0
LINE
  5
79FD
330
79FC
100
AcDbEntity
  8
0
  6
ByBlock
 62
     0
100
AcDbLine
 10
-1.0
 20
0.1666666666666666
 30
0.0
 11
0.0
 21
0.0
 31
0.0
  0
LINE
  5
79FE
330
79FC
100
AcDbEntity
  8
0
  6
ByBlock
 62
     0
100
AcDbLine
 10
0.0
 20
0.0
 30
0.0
 11
-1.0
 21
-0.1666666666666666
 31
0.0
  0
LINE
  5
79FF
330
79FC
100
AcDbEntity
  8
0
  6
ByBlock
 62
     0
100
AcDbLine
 10
0.0
 20
0.0
 30
0.0
 11
-1.0
 21
0.0
 31
0.0
  0
ENDBLK
  5
7A01
330
79FC
100
AcDbEntity
  8
0
100
AcDbBlockEnd
  0
BLOCK
  5
7A0B
330
7A0A
100
AcDbEntity
  8
0
100
AcDbBlockBegin
  2
YA_N
 70
     0
 10
0.0
 20
0.0
 30
0.0
  3
YA_N
  1

  0
ENDBLK
  5
7A0C
330
7A0A
100
AcDbEntity
  8
0
100
AcDbBlockEnd
  0
BLOCK
  5
7A11
330
7A0D
100
AcDbEntity
  8
0
100
AcDbBlockBegin
  2
ARROW
 70
     0
 10
0.0
 20
0.0
 30
0.0
  3
ARROW
  1

  0
LINE
  5
7A0E
330
7A0D
100
AcDbEntity
  8
0
100
AcDbLine
 10
-0.9999999999999991
 20
0.1666666667000003
 30
0.0
 11
0.0
 21
0.0
 31
0.0
  0
LINE
  5
7A0F
330
7A0D
100
AcDbEntity
  8
0
100
AcDbLine
 10
-0.9999999999999991
 20
0.0
 30
0.0
 11
0.0
 21
0.0
 31
0.0
  0
LINE
  5
7A10
330
7A0D
100
AcDbEntity
  8
0
100
AcDbLine
 10
-0.9999999999999991
 20
-0.1666666667000003
 30
0.0
 11
0.0
 21
0.0
 31
0.0
  0
ENDBLK
  5
7A12
330
7A0D
100
AcDbEntity
  8
0
100
AcDbBlockEnd
  0
BLOCK
  5
7E25
330
7D1B
100
AcDbEntity
  8
0
100
AcDbBlockBegin
  2
*D3
 70
     1
 10
0.0
 20
0.0
 30
0.0
  3
*D3
  1

  0
LINE
  5
8350
330
7D1B
100
AcDbEntity
  8
3
440
 16777216
370
    -2
100
AcDbLine
 10
1475.595996518534
 20
2187.576325143209
 30
0.0
 11
1475.595996518534
 21
2037.156667461255
 31
0.0
  0
LINE
  5
8351
330
7D1B
100
AcDbEntity
  8
3
440
 16777216
370
    -2
100
AcDbLine
 10
1975.595996518534
 20
2187.576325143209
 30
0.0
 11
1975.595996518534
 21
2037.156667461255
 31
0.0
  0
LINE
  5
8352
330
7D1B
100
AcDbEntity
  8
3
440
 16777216
370
    -2
100
AcDbLine
 10
1535.595996518534
 20
2067.156667461255
 30
0.0
 11
1915.595996518534
 21
2067.156667461255
 31
0.0
  0
INSERT
  5
8353
330
7D1B
100
AcDbEntity
  8
3
440
 16777216
370
    -2
100
AcDbBlockReference
  2
_OPEN
 10
1475.595996518534
 20
2067.156667461255
 30
0.0
 41
60.0
 42
60.0
 43
60.0
 50
180.0
  0
INSERT
  5
8354
330
7D1B
100
AcDbEntity
  8
3
440
 16777216
370
    -2
100
AcDbBlockReference
  2
_OPEN
 10
1975.595996518534
 20
2067.156667461255
 30
0.0
 41
60.0
 42
60.0
 43
60.0
  0
MTEXT
  5
8355
330
7D1B
100
AcDbEntity
  8
3
440
 16777216
100
AcDbMText
 10
1725.595996518534
 20
2127.156667461255
 30
0.0
 40
90.0
 41
0.0
 46
0.0
 71
     5
 72
     1
  1
\A1;500
 73
     1
 44
1.0
  0
POINT
  5
8356
330
7D1B
100
AcDbEntity
  8
DEFPOINTS
 62
     0
440
 16777216
100
AcDbPoint
 10
1475.595996518534
 20
2217.576325143209
 30
0.0
  0
POINT
  5
8357
330
7D1B
100
AcDbEntity
  8
DEFPOINTS
 62
     0
440
 16777216
100
AcDbPoint
 10
1975.595996518534
 20
2217.576325143209
 30
0.0
  0
POINT
  5
8358
330
7D1B
100
AcDbEntity
  8
DEFPOINTS
 62
     0
440
 16777216
100
AcDbPoint
 10
1975.595996518534
 20
2067.156667461255
 30
0.0
  0
ENDBLK
  5
7E2F
330
7D1B
100
AcDbEntity
  8
0
100
AcDbBlockEnd
  0
BLOCK
  5
7E30
330
7D27
100
AcDbEntity
  8
0
100
AcDbBlockBegin
  2
*D4
 70
     1
 10
0.0
 20
0.0
 30
0.0
  3
*D4
  1

  0
LINE
  5
7E31
330
7D27
100
AcDbEntity
  8
0
  6
ByBlock
440
 16777216
100
AcDbLine
 10
2728.548138254351
 20
2136.887615409481
 30
0.0
 11
2728.548138254351
 21
2285.232958951545
 31
0.0
  0
LINE
  5
7E32
330
7D27
100
AcDbEntity
  8
0
  6
ByBlock
440
 16777216
100
AcDbLine
 10
1903.54813825435
 20
2136.887615409481
 30
0.0
 11
1903.54813825435
 21
2285.232958951545
 31
0.0
  0
LINE
  5
7E33
330
7D27
100
AcDbEntity
  8
0
  6
ByBlock
440
 16777216
100
AcDbLine
 10
2668.54813825435
 20
2255.232958951545
 30
0.0
 11
1963.54813825435
 21
2255.232958951545
 31
0.0
  0
INSERT
  5
7E34
330
7D27
100
AcDbEntity
  8
0
  6
ByBlock
440
 16777216
100
AcDbBlockReference
  2
_OPEN
 10
2728.548138254351
 20
2255.232958951545
 30
0.0
 41
60.0
 42
60.0
 43
60.0
  0
INSERT
  5
7E35
330
7D27
100
AcDbEntity
  8
0
  6
ByBlock
440
 16777216
100
AcDbBlockReference
  2
_OPEN
 10
1903.54813825435
 20
2255.232958951545
 30
0.0
 41
60.0
 42
60.0
 43
60.0
 50
180.0
  0
MTEXT
  5
7E36
330
7D27
100
AcDbEntity
  8
0
  6
ByBlock
440
 16777216
100
AcDbMText
 10
2316.04813825435
 20
2315.232958951545
 30
0.0
 40
90.0
 41
0.0
 46
0.0
 71
     5
 72
     5
  1
\A1;825
 73
     1
 44
1.0
  0
POINT
  5
7E37
330
7D27
100
AcDbEntity
  8
DEFPOINTS
  6
ByBlock
 62
     0
440
 16777216
100
AcDbPoint
 10
2728.548138254351
 20
2106.887615409481
 30
0.0
  0
POINT
  5
7E38
330
7D27
100
AcDbEntity
  8
DEFPOINTS
  6
ByBlock
 62
     0
440
 16777216
100
AcDbPoint
 10
1903.54813825435
 20
2106.887615409481
 30
0.0
  0
POINT
  5
7E39
330
7D27
100
AcDbEntity
  8
DEFPOINTS
  6
ByBlock
 62
     0
440
 16777216
100
AcDbPoint
 10
1903.54813825435
 20
2255.232958951545
 30
0.0
  0
ENDBLK
  5
7E3A
330
7D27
100
AcDbEntity
  8
0
100
AcDbBlockEnd
  0
BLOCK
  5
7E3B
330
7D33
100
AcDbEntity
  8
0
100
AcDbBlockBegin
  2
*D5
 70
     1
 10
0.0
 20
0.0
 30
0.0
  3
*D5
  1

  0
LINE
  5
7E3C
330
7D33
100
AcDbEntity
  8
0
  6
ByBlock
440
 16777216
100
AcDbLine
 10
2728.548138254351
 20
2136.887615409481
 30
0.0
 11
2728.548138254351
 21
2437.516361525348
 31
0.0
  0
LINE
  5
7E3D
330
7D33
100
AcDbEntity
  8
0
  6
ByBlock
440
 16777216
100
AcDbLine
 10
1880.54813825435
 20
2258.359407259872
 30
0.0
 11
1880.54813825435
 21
2437.516361525348
 31
0.0
  0
LINE
  5
7E3E
330
7D33
100
AcDbEntity
  8
0
  6
ByBlock
440
 16777216
100
AcDbLine
 10
2668.54813825435
 20
2407.516361525348
 30
0.0
 11
1940.54813825435
 21
2407.516361525348
 31
0.0
  0
INSERT
  5
7E3F
330
7D33
100
AcDbEntity
  8
0
  6
ByBlock
440
 16777216
100
AcDbBlockReference
  2
_OPEN
 10
2728.548138254351
 20
2407.516361525348
 30
0.0
 41
60.0
 42
60.0
 43
60.0
  0
INSERT
  5
7E40
330
7D33
100
AcDbEntity
  8
0
  6
ByBlock
440
 16777216
100
AcDbBlockReference
  2
_OPEN
 10
1880.54813825435
 20
2407.516361525348
 30
0.0
 41
60.0
 42
60.0
 43
60.0
 50
180.0
  0
MTEXT
  5
7E41
330
7D33
100
AcDbEntity
  8
0
  6
ByBlock
440
 16777216
100
AcDbMText
 10
2304.54813825435
 20
2467.516361525348
 30
0.0
 40
90.0
 41
0.0
 46
0.0
 71
     5
 72
     5
  1
\A1;848
 73
     1
 44
1.0
  0
POINT
  5
7E42
330
7D33
100
AcDbEntity
  8
DEFPOINTS
  6
ByBlock
 62
     0
440
 16777216
100
AcDbPoint
 10
2728.548138254351
 20
2106.887615409481
 30
0.0
  0
POINT
  5
7E43
330
7D33
100
AcDbEntity
  8
DEFPOINTS
  6
ByBlock
 62
     0
440
 16777216
100
AcDbPoint
 10
1880.54813825435
 20
2228.359407259872
 30
0.0
  0
POINT
  5
7E44
330
7D33
100
AcDbEntity
  8
DEFPOINTS
  6
ByBlock
 62
     0
440
 16777216
100
AcDbPoint
 10
1880.54813825435
 20
2407.516361525348
 30
0.0
  0
ENDBLK
  5
7E45
330
7D33
100
AcDbEntity
  8
0
100
AcDbBlockEnd
  0
BLOCK
  5
7E46
330
7D3F
100
AcDbEntity
  8
0
100
AcDbBlockBegin
  2
*D6
 70
     1
 10
0.0
 20
0.0
 30
0.0
  3
*D6
  1

  0
LINE
  5
7E47
330
7D3F
100
AcDbEntity
  8
0
  6
ByBlock
440
 16777216
100
AcDbLine
 10
1184.076346403959
 20
1561.887615409481
 30
0.0
 11
1004.27848107642
 21
1561.887615409481
 31
0.0
  0
LINE
  5
7E48
330
7D3F
100
AcDbEntity
  8
0
  6
ByBlock
440
 16777216
100
AcDbLine
 10
1350.54813825435
 20
861.8876154094815
 30
0.0
 11
1004.27848107642
 21
861.8876154094815
 31
0.0
  0
LINE
  5
7E49
330
7D3F
100
AcDbEntity
  8
0
  6
ByBlock
440
 16777216
100
AcDbLine
 10
1034.27848107642
 20
1501.887615409481
 30
0.0
 11
1034.27848107642
 21
921.8876154094814
 31
0.0
  0
INSERT
  5
7E4A
330
7D3F
100
AcDbEntity
  8
0
  6
ByBlock
440
 16777216
100
AcDbBlockReference
  2
_OPEN
 10
1034.27848107642
 20
1561.887615409481
 30
0.0
 41
60.0
 42
60.0
 43
60.0
 50
90.0
  0
INSERT
  5
7E4B
330
7D3F
100
AcDbEntity
  8
0
  6
ByBlock
440
 16777216
100
AcDbBlockReference
  2
_OPEN
 10
1034.27848107642
 20
861.8876154094815
 30
0.0
 41
60.0
 42
60.0
 43
60.0
 50
270.0
  0
MTEXT
  5
7E4C
330
7D3F
100
AcDbEntity
  8
0
  6
ByBlock
440
 16777216
100
AcDbMText
 10
974.2784810764206
 20
1211.887615409481
 30
0.0
 40
90.0
 41
0.0
 46
0.0
 71
     5
 72
     5
  1
\A1;700
 11
0.0
 21
1.0
 31
0.0
 73
     1
 44
1.0
  0
POINT
  5
7E4D
330
7D3F
100
AcDbEntity
  8
DEFPOINTS
  6
ByBlock
 62
     0
440
 16777216
100
AcDbPoint
 10
1214.076346403959
 20
1561.887615409481
 30
0.0
  0
POINT
  5
7E4E
330
7D3F
100
AcDbEntity
  8
DEFPOINTS
  6
ByBlock
 62
     0
440
 16777216
100
AcDbPoint
 10
1380.54813825435
 20
861.8876154094815
 30
0.0
  0
POINT
  5
7E4F
330
7D3F
100
AcDbEntity
  8
DEFPOINTS
  6
ByBlock
 62
     0
440
 16777216
100
AcDbPoint
 10
1034.27848107642
 20
861.8876154094815
 30
0.0
  0
ENDBLK
  5
7E50
330
7D3F
100
AcDbEntity
  8
0
100
AcDbBlockEnd
  0
BLOCK
  5
7E51
330
7D4B
100
AcDbEntity
  8
0
100
AcDbBlockBegin
  2
*D7
 70
     1
 10
0.0
 20
0.0
 30
0.0
  3
*D7
  1

  0
LINE
  5
7E52
330
7D4B
100
AcDbEntity
  8
0
  6
ByBlock
440
 16777216
100
AcDbLine
 10
5476.207505112643
 20
1161.887615409481
 30
0.0
 11
5724.703349046961
 21
1161.887615409481
 31
0.0
  0
LINE
  5
7E53
330
7D4B
100
AcDbEntity
  8
0
  6
ByBlock
440
 16777216
100
AcDbLine
 10
5476.207505112643
 20
1961.887615409481
 30
0.0
 11
5724.703349046961
 21
1961.887615409481
 31
0.0
  0
LINE
  5
7E54
330
7D4B
100
AcDbEntity
  8
0
  6
ByBlock
440
 16777216
100
AcDbLine
 10
5694.703349046962
 20
1221.887615409481
 30
0.0
 11
5694.703349046962
 21
1901.887615409481
 31
0.0
  0
INSERT
  5
7E55
330
7D4B
100
AcDbEntity
  8
0
  6
ByBlock
440
 16777216
100
AcDbBlockReference
  2
_OPEN
 10
5694.703349046962
 20
1161.887615409481
 30
0.0
 41
60.0
 42
60.0
 43
60.0
 50
270.0
  0
INSERT
  5
7E56
330
7D4B
100
AcDbEntity
  8
0
  6
ByBlock
440
 16777216
100
AcDbBlockReference
  2
_OPEN
 10
5694.703349046962
 20
1961.887615409481
 30
0.0
 41
60.0
 42
60.0
 43
60.0
 50
90.0
  0
MTEXT
  5
7E57
330
7D4B
100
AcDbEntity
  8
0
  6
ByBlock
440
 16777216
100
AcDbMText
 10
5634.703349046962
 20
1561.887615409481
 30
0.0
 40
90.0
 41
0.0
 46
0.0
 71
     5
 72
     5
  1
\A1;φ800
 11
0.0
 21
1.0
 31
0.0
 73
     1
 44
1.0
  0
POINT
  5
7E58
330
7D4B
100
AcDbEntity
  8
DEFPOINTS
  6
ByBlock
 62
     0
440
 16777216
100
AcDbPoint
 10
5446.207505112644
 20
1161.887615409481
 30
0.0
  0
POINT
  5
7E59
330
7D4B
100
AcDbEntity
  8
DEFPOINTS
  6
ByBlock
 62
     0
440
 16777216
100
AcDbPoint
 10
5446.207505112644
 20
1961.887615409481
 30
0.0
  0
POINT
  5
7E5A
330
7D4B
100
AcDbEntity
  8
DEFPOINTS
  6
ByBlock
 62
     0
440
 16777216
100
AcDbPoint
 10
5694.703349046962
 20
1961.887615409481
 30
0.0
  0
ENDBLK
  5
7E5B
330
7D4B
100
AcDbEntity
  8
0
100
AcDbBlockEnd
  0
BLOCK
  5
7E5C
330
7D57
100
AcDbEntity
  8
0
100
AcDbBlockBegin
  2
*D8
 70
     1
 10
0.0
 20
0.0
 30
0.0
  3
*D8
  1

  0
LINE
  5
8359
330
7D57
100
AcDbEntity
  8
3
440
 16777216
370
    -2
100
AcDbLine
 10
4002.653067349757
 20
2187.576325143209
 30
0.0
 11
4002.653067349757
 21
2036.473631611985
 31
0.0
  0
LINE
  5
835A
330
7D57
100
AcDbEntity
  8
3
440
 16777216
370
    -2
100
AcDbLine
 10
4739.653067349757
 20
2187.576325143209
 30
0.0
 11
4739.653067349757
 21
2036.473631611985
 31
0.0
  0
LINE
  5
835B
330
7D57
100
AcDbEntity
  8
3
440
 16777216
370
    -2
100
AcDbLine
 10
4062.653067349756
 20
2066.473631611986
 30
0.0
 11
4679.653067349756
 21
2066.473631611986
 31
0.0
  0
INSERT
  5
835C
330
7D57
100
AcDbEntity
  8
3
440
 16777216
370
    -2
100
AcDbBlockReference
  2
_OPEN
 10
4002.653067349757
 20
2066.473631611986
 30
0.0
 41
60.0
 42
60.0
 43
60.0
 50
180.0
  0
INSERT
  5
835D
330
7D57
100
AcDbEntity
  8
3
440
 16777216
370
    -2
100
AcDbBlockReference
  2
_OPEN
 10
4739.653067349757
 20
2066.473631611986
 30
0.0
 41
60.0
 42
60.0
 43
60.0
  0
MTEXT
  5
835E
330
7D57
100
AcDbEntity
  8
3
440
 16777216
100
AcDbMText
 10
4371.153067349756
 20
2126.473631611985
 30
0.0
 40
90.0
 41
0.0
 46
0.0
 71
     5
 72
     1
  1
\A1;737
 73
     1
 44
1.0
  0
POINT
  5
835F
330
7D57
100
AcDbEntity
  8
DEFPOINTS
 62
     0
440
 16777216
100
AcDbPoint
 10
4002.653067349757
 20
2217.576325143209
 30
0.0
  0
POINT
  5
8360
330
7D57
100
AcDbEntity
  8
DEFPOINTS
 62
     0
440
 16777216
100
AcDbPoint
 10
4739.653067349757
 20
2217.576325143209
 30
0.0
  0
POINT
  5
8361
330
7D57
100
AcDbEntity
  8
DEFPOINTS
 62
     0
440
 16777216
100
AcDbPoint
 10
4739.653067349757
 20
2066.473631611986
 30
0.0
  0
ENDBLK
  5
7E66
330
7D57
100
AcDbEntity
  8
0
100
AcDbBlockEnd
  0
BLOCK
  5
7E67
330
7D63
100
AcDbEntity
  8
0
100
AcDbBlockBegin
  2
*D9
 70
     1
 10
0.0
 20
0.0
 30
0.0
  3
*D9
  1

  0
LINE
  5
8362
330
7D63
100
AcDbEntity
  8
3
440
 16777216
370
    -2
100
AcDbLine
 10
4739.653067349757
 20
2187.576325143209
 30
0.0
 11
4739.653067349757
 21
2036.473631611985
 31
0.0
  0
LINE
  5
8363
330
7D63
100
AcDbEntity
  8
3
440
 16777216
370
    -2
100
AcDbLine
 10
5322.653067349756
 20
2187.576325143209
 30
0.0
 11
5322.653067349756
 21
2036.473631611985
 31
0.0
  0
LINE
  5
8364
330
7D63
100
AcDbEntity
  8
3
440
 16777216
370
    -2
100
AcDbLine
 10
4799.653067349757
 20
2066.473631611986
 30
0.0
 11
5262.653067349756
 21
2066.473631611986
 31
0.0
  0
INSERT
  5
8365
330
7D63
100
AcDbEntity
  8
3
440
 16777216
370
    -2
100
AcDbBlockReference
  2
_OPEN
 10
4739.653067349757
 20
2066.473631611986
 30
0.0
 41
60.0
 42
60.0
 43
60.0
 50
180.0
  0
INSERT
  5
8366
330
7D63
100
AcDbEntity
  8
3
440
 16777216
370
    -2
100
AcDbBlockReference
  2
_OPEN
 10
5322.653067349756
 20
2066.473631611986
 30
0.0
 41
60.0
 42
60.0
 43
60.0
  0
MTEXT
  5
8367
330
7D63
100
AcDbEntity
  8
3
440
 16777216
100
AcDbMText
 10
5031.153067349756
 20
2126.473631611985
 30
0.0
 40
90.0
 41
0.0
 46
0.0
 71
     5
 72
     1
  1
\A1;583
 73
     1
 44
1.0
  0
POINT
  5
8368
330
7D63
100
AcDbEntity
  8
DEFPOINTS
 62
     0
440
 16777216
100
AcDbPoint
 10
4739.653067349757
 20
2217.576325143209
 30
0.0
  0
POINT
  5
8369
330
7D63
100
AcDbEntity
  8
DEFPOINTS
 62
     0
440
 16777216
100
AcDbPoint
 10
5322.653067349756
 20
2217.576325143209
 30
0.0
  0
POINT
  5
836A
330
7D63
100
AcDbEntity
  8
DEFPOINTS
 62
     0
440
 16777216
100
AcDbPoint
 10
5322.653067349756
 20
2066.473631611986
 30
0.0
  0
ENDBLK
  5
7E71
330
7D63
100
AcDbEntity
  8
0
100
AcDbBlockEnd
  0
BLOCK
  5
7E7D
330
7D7B
100
AcDbEntity
  8
0
100
AcDbBlockBegin
  2
*D10
 70
     1
 10
0.0
 20
0.0
 30
0.0
  3
*D10
  1

  0
LINE
  5
836B
330
7D7B
100
AcDbEntity
  8
3
440
 16777216
370
    -2
100
AcDbLine
 10
3325.595996518534
 20
2187.576325143209
 30
0.0
 11
3325.595996518534
 21
2037.819733439874
 31
0.0
  0
LINE
  5
836C
330
7D7B
100
AcDbEntity
  8
3
440
 16777216
370
    -2
100
AcDbLine
 10
1975.595996518534
 20
2187.576325143209
 30
0.0
 11
1975.595996518534
 21
2037.819733439874
 31
0.0
  0
LINE
  5
836D
330
7D7B
100
AcDbEntity
  8
3
440
 16777216
370
    -2
100
AcDbLine
 10
3265.595996518534
 20
2067.819733439874
 30
0.0
 11
2035.595996518534
 21
2067.819733439874
 31
0.0
  0
INSERT
  5
836E
330
7D7B
100
AcDbEntity
  8
3
440
 16777216
370
    -2
100
AcDbBlockReference
  2
_OPEN
 10
3325.595996518534
 20
2067.819733439874
 30
0.0
 41
60.0
 42
60.0
 43
60.0
  0
INSERT
  5
836F
330
7D7B
100
AcDbEntity
  8
3
440
 16777216
370
    -2
100
AcDbBlockReference
  2
_OPEN
 10
1975.595996518534
 20
2067.819733439874
 30
0.0
 41
60.0
 42
60.0
 43
60.0
 50
180.0
  0
MTEXT
  5
8370
330
7D7B
100
AcDbEntity
  8
3
440
 16777216
100
AcDbMText
 10
2650.595996518534
 20
2127.819733439874
 30
0.0
 40
90.0
 41
0.0
 46
0.0
 71
     5
 72
     1
  1
\A1;1350
 73
     1
 44
1.0
  0
POINT
  5
8371
330
7D7B
100
AcDbEntity
  8
DEFPOINTS
 62
     0
440
 16777216
100
AcDbPoint
 10
3325.595996518534
 20
2217.576325143209
 30
0.0
  0
POINT
  5
8372
330
7D7B
100
AcDbEntity
  8
DEFPOINTS
 62
     0
440
 16777216
100
AcDbPoint
 10
1975.595996518534
 20
2217.576325143209
 30
0.0
  0
POINT
  5
8373
330
7D7B
100
AcDbEntity
  8
DEFPOINTS
 62
     0
440
 16777216
100
AcDbPoint
 10
1975.595996518534
 20
2067.819733439874
 30
0.0
  0
ENDBLK
  5
7E87
330
7D7B
100
AcDbEntity
  8
0
100
AcDbBlockEnd
  0
BLOCK
  5
7E93
330
7D93
100
AcDbEntity
  8
0
100
AcDbBlockBegin
  2
*D11
 70
     1
 10
0.0
 20
0.0
 30
0.0
  3
*D11
  1

  0
LINE
  5
7E94
330
7D93
100
AcDbEntity
  8
0
  6
ByBlock
440
 16777216
100
AcDbLine
 10
2380.54813825435
 20
5305.6229154676
 30
0.0
 11
2380.54813825435
 21
5606.194826451464
 31
0.0
  0
LINE
  5
7E95
330
7D93
100
AcDbEntity
  8
0
  6
ByBlock
440
 16777216
100
AcDbLine
 10
1380.54813825435
 20
5305.6229154676
 30
0.0
 11
1380.54813825435
 21
5606.194826451464
 31
0.0
  0
LINE
  5
7E96
330
7D93
100
AcDbEntity
  8
0
  6
ByBlock
440
 16777216
100
AcDbLine
 10
2320.54813825435
 20
5576.194826451465
 30
0.0
 11
1440.54813825435
 21
5576.194826451465
 31
0.0
  0
INSERT
  5
7E97
330
7D93
100
AcDbEntity
  8
0
  6
ByBlock
440
 16777216
100
AcDbBlockReference
  2
_OPEN
 10
2380.54813825435
 20
5576.194826451465
 30
0.0
 41
60.0
 42
60.0
 43
60.0
  0
INSERT
  5
7E98
330
7D93
100
AcDbEntity
  8
0
  6
ByBlock
440
 16777216
100
AcDbBlockReference
  2
_OPEN
 10
1380.54813825435
 20
5576.194826451465
 30
0.0
 41
60.0
 42
60.0
 43
60.0
 50
180.0
  0
MTEXT
  5
7E99
330
7D93
100
AcDbEntity
  8
0
  6
ByBlock
440
 16777216
100
AcDbMText
 10
1880.54813825435
 20
5636.194826451465
 30
0.0
 40
90.0
 41
0.0
 46
0.0
 71
     5
 72
     5
  1
\A1;1000
 73
     1
 44
1.0
  0
POINT
  5
7E9A
330
7D93
100
AcDbEntity
  8
DEFPOINTS
  6
ByBlock
 62
     0
440
 16777216
100
AcDbPoint
 10
2380.54813825435
 20
5275.6229154676
 30
0.0
  0
POINT
  5
7E9B
330
7D93
100
AcDbEntity
  8
DEFPOINTS
  6
ByBlock
 62
     0
440
 16777216
100
AcDbPoint
 10
1380.54813825435
 20
5275.6229154676
 30
0.0
  0
POINT
  5
7E9C
330
7D93
100
AcDbEntity
  8
DEFPOINTS
  6
ByBlock
 62
     0
440
 16777216
100
AcDbPoint
 10
1380.54813825435
 20
5576.194826451465
 30
0.0
  0
ENDBLK
  5
7E9D
330
7D93
100
AcDbEntity
  8
0
100
AcDbBlockEnd
  0
BLOCK
  5
7E9E
330
7D9F
100
AcDbEntity
  8
0
100
AcDbBlockBegin
  2
*D12
 70
     1
 10
0.0
 20
0.0
 30
0.0
  3
*D12
  1

  0
LINE
  5
7E9F
330
7D9F
100
AcDbEntity
  8
0
  6
ByBlock
440
 16777216
100
AcDbLine
 10
3230.54813825435
 20
4785.6229154676
 30
0.0
 11
3230.54813825435
 21
5606.194826451464
 31
0.0
  0
LINE
  5
7EA0
330
7D9F
100
AcDbEntity
  8
0
  6
ByBlock
440
 16777216
100
AcDbLine
 10
2380.54813825435
 20
5305.6229154676
 30
0.0
 11
2380.54813825435
 21
5606.194826451464
 31
0.0
  0
LINE
  5
7EA1
330
7D9F
100
AcDbEntity
  8
0
  6
ByBlock
440
 16777216
100
AcDbLine
 10
3170.54813825435
 20
5576.194826451465
 30
0.0
 11
2440.54813825435
 21
5576.194826451465
 31
0.0
  0
INSERT
  5
7EA2
330
7D9F
100
AcDbEntity
  8
0
  6
ByBlock
440
 16777216
100
AcDbBlockReference
  2
_OPEN
 10
3230.54813825435
 20
5576.194826451465
 30
0.0
 41
60.0
 42
60.0
 43
60.0
  0
INSERT
  5
7EA3
330
7D9F
100
AcDbEntity
  8
0
  6
ByBlock
440
 16777216
100
AcDbBlockReference
  2
_OPEN
 10
2380.54813825435
 20
5576.194826451465
 30
0.0
 41
60.0
 42
60.0
 43
60.0
 50
180.0
  0
MTEXT
  5
7EA4
330
7D9F
100
AcDbEntity
  8
0
  6
ByBlock
440
 16777216
100
AcDbMText
 10
2805.54813825435
 20
5636.194826451465
 30
0.0
 40
90.0
 41
0.0
 46
0.0
 71
     5
 72
     5
  1
\A1;850
 73
     1
 44
1.0
  0
POINT
  5
7EA5
330
7D9F
100
AcDbEntity
  8
DEFPOINTS
  6
ByBlock
 62
     0
440
 16777216
100
AcDbPoint
 10
3230.54813825435
 20
4755.6229154676
 30
0.0
  0
POINT
  5
7EA6
330
7D9F
100
AcDbEntity
  8
DEFPOINTS
  6
ByBlock
 62
     0
440
 16777216
100
AcDbPoint
 10
2380.54813825435
 20
5275.6229154676
 30
0.0
  0
POINT
  5
7EA7
330
7D9F
100
AcDbEntity
  8
DEFPOINTS
  6
ByBlock
 62
     0
440
 16777216
100
AcDbPoint
 10
2380.54813825435
 20
5576.194826451465
 30
0.0
  0
ENDBLK
  5
7EA8
330
7D9F
100
AcDbEntity
  8
0
100
AcDbBlockEnd
  0
BLOCK
  5
7EA9
330
7DAB
100
AcDbEntity
  8
0
100
AcDbBlockBegin
  2
*D13
 70
     1
 10
0.0
 20
0.0
 30
0.0
  3
*D13
  1

  0
LINE
  5
7EAA
330
7DAB
100
AcDbEntity
  8
0
  6
ByBlock
440
 16777216
100
AcDbLine
 10
1350.54813825435
 20
5275.6229154676
 30
0.0
 11
1051.056219639424
 21
5275.6229154676
 31
0.0
  0
LINE
  5
7EAB
330
7DAB
100
AcDbEntity
  8
0
  6
ByBlock
440
 16777216
100
AcDbLine
 10
1350.54813825435
 20
3955.6229154676
 30
0.0
 11
1051.056219639424
 21
3955.6229154676
 31
0.0
  0
LINE
  5
7EAC
330
7DAB
100
AcDbEntity
  8
0
  6
ByBlock
440
 16777216
100
AcDbLine
 10
1081.056219639424
 20
5215.622915467601
 30
0.0
 11
1081.056219639424
 21
4015.6229154676
 31
0.0
  0
INSERT
  5
7EAD
330
7DAB
100
AcDbEntity
  8
0
  6
ByBlock
440
 16777216
100
AcDbBlockReference
  2
_OPEN
 10
1081.056219639424
 20
5275.6229154676
 30
0.0
 41
60.0
 42
60.0
 43
60.0
 50
90.0
  0
INSERT
  5
7EAE
330
7DAB
100
AcDbEntity
  8
0
  6
ByBlock
440
 16777216
100
AcDbBlockReference
  2
_OPEN
 10
1081.056219639424
 20
3955.6229154676
 30
0.0
 41
60.0
 42
60.0
 43
60.0
 50
270.0
  0
MTEXT
  5
7EAF
330
7DAB
100
AcDbEntity
  8
0
  6
ByBlock
440
 16777216
100
AcDbMText
 10
1021.056219639424
 20
4615.6229154676
 30
0.0
 40
90.0
 41
0.0
 46
0.0
 71
     5
 72
     5
  1
\A1;1320
 11
0.0
 21
1.0
 31
0.0
 73
     1
 44
1.0
  0
POINT
  5
7EB0
330
7DAB
100
AcDbEntity
  8
DEFPOINTS
  6
ByBlock
 62
     0
440
 16777216
100
AcDbPoint
 10
1380.54813825435
 20
5275.6229154676
 30
0.0
  0
POINT
  5
7EB1
330
7DAB
100
AcDbEntity
  8
DEFPOINTS
  6
ByBlock
 62
     0
440
 16777216
100
AcDbPoint
 10
1380.54813825435
 20
3955.6229154676
 30
0.0
  0
POINT
  5
7EB2
330
7DAB
100
AcDbEntity
  8
DEFPOINTS
  6
ByBlock
 62
     0
440
 16777216
100
AcDbPoint
 10
1081.056219639424
 20
3955.6229154676
 30
0.0
  0
ENDBLK
  5
7EB3
330
7DAB
100
AcDbEntity
  8
0
100
AcDbBlockEnd
  0
BLOCK
  5
7EB4
330
7DB7
100
AcDbEntity
  8
0
100
AcDbBlockBegin
  2
*D14
 70
     1
 10
0.0
 20
0.0
 30
0.0
  3
*D14
  1

  0
LINE
  5
7EB5
330
7DB7
100
AcDbEntity
  8
0
  6
ByBlock
440
 16777216
100
AcDbLine
 10
3260.54813825435
 20
4755.6229154676
 30
0.0
 11
3562.454201582445
 21
4755.6229154676
 31
0.0
  0
LINE
  5
7EB6
330
7DB7
100
AcDbEntity
  8
0
  6
ByBlock
440
 16777216
100
AcDbLine
 10
3260.54813825435
 20
3955.6229154676
 30
0.0
 11
3562.454201582445
 21
3955.6229154676
 31
0.0
  0
LINE
  5
7EB7
330
7DB7
100
AcDbEntity
  8
0
  6
ByBlock
440
 16777216
100
AcDbLine
 10
3532.454201582445
 20
4695.6229154676
 30
0.0
 11
3532.454201582445
 21
4015.6229154676
 31
0.0
  0
INSERT
  5
7EB8
330
7DB7
100
AcDbEntity
  8
0
  6
ByBlock
440
 16777216
100
AcDbBlockReference
  2
_OPEN
 10
3532.454201582445
 20
4755.6229154676
 30
0.0
 41
60.0
 42
60.0
 43
60.0
 50
90.0
  0
INSERT
  5
7EB9
330
7DB7
100
AcDbEntity
  8
0
  6
ByBlock
440
 16777216
100
AcDbBlockReference
  2
_OPEN
 10
3532.454201582445
 20
3955.6229154676
 30
0.0
 41
60.0
 42
60.0
 43
60.0
 50
270.0
  0
MTEXT
  5
7EBA
330
7DB7
100
AcDbEntity
  8
0
  6
ByBlock
440
 16777216
100
AcDbMText
 10
3472.454201582445
 20
4355.6229154676
 30
0.0
 40
90.0
 41
0.0
 46
0.0
 71
     5
 72
     5
  1
\A1;800
 11
0.0
 21
1.0
 31
0.0
 73
     1
 44
1.0
  0
POINT
  5
7EBB
330
7DB7
100
AcDbEntity
  8
DEFPOINTS
  6
ByBlock
 62
     0
440
 16777216
100
AcDbPoint
 10
3230.54813825435
 20
4755.6229154676
 30
0.0
  0
POINT
  5
7EBC
330
7DB7
100
AcDbEntity
  8
DEFPOINTS
  6
ByBlock
 62
     0
440
 16777216
100
AcDbPoint
 10
3230.54813825435
 20
3955.6229154676
 30
0.0
  0
POINT
  5
7EBD
330
7DB7
100
AcDbEntity
  8
DEFPOINTS
  6
ByBlock
 62
     0
440
 16777216
100
AcDbPoint
 10
3532.454201582445
 20
3955.6229154676
 30
0.0
  0
ENDBLK
  5
7EBE
330
7DB7
100
AcDbEntity
  8
0
100
AcDbBlockEnd
  0
BLOCK
  5
7EBF
330
7DC3
100
AcDbEntity
  8
0
100
AcDbBlockBegin
  2
*D15
 70
     1
 10
0.0
 20
0.0
 30
0.0
  3
*D15
  1

  0
LINE
  5
7EC0
330
7DC3
100
AcDbEntity
  8
0
  6
ByBlock
440
 16777216
100
AcDbLine
 10
3230.54813825435
 20
3925.622915467601
 30
0.0
 11
3230.54813825435
 21
3583.448439770715
 31
0.0
  0
LINE
  5
7EC1
330
7DC3
100
AcDbEntity
  8
0
  6
ByBlock
440
 16777216
100
AcDbLine
 10
1380.54813825435
 20
3925.622915467601
 30
0.0
 11
1380.54813825435
 21
3583.448439770715
 31
0.0
  0
LINE
  5
7EC2
330
7DC3
100
AcDbEntity
  8
0
  6
ByBlock
440
 16777216
100
AcDbLine
 10
3170.54813825435
 20
3613.448439770715
 30
0.0
 11
1440.54813825435
 21
3613.448439770715
 31
0.0
  0
INSERT
  5
7EC3
330
7DC3
100
AcDbEntity
  8
0
  6
ByBlock
440
 16777216
100
AcDbBlockReference
  2
_OPEN
 10
3230.54813825435
 20
3613.448439770715
 30
0.0
 41
60.0
 42
60.0
 43
60.0
  0
INSERT
  5
7EC4
330
7DC3
100
AcDbEntity
  8
0
  6
ByBlock
440
 16777216
100
AcDbBlockReference
  2
_OPEN
 10
1380.54813825435
 20
3613.448439770715
 30
0.0
 41
60.0
 42
60.0
 43
60.0
 50
180.0
  0
MTEXT
  5
7EC5
330
7DC3
100
AcDbEntity
  8
0
  6
ByBlock
440
 16777216
100
AcDbMText
 10
2305.54813825435
 20
3673.448439770715
 30
0.0
 40
90.0
 41
0.0
 46
0.0
 71
     5
 72
     5
  1
\A1;1850
 73
     1
 44
1.0
  0
POINT
  5
7EC6
330
7DC3
100
AcDbEntity
  8
DEFPOINTS
  6
ByBlock
 62
     0
440
 16777216
100
AcDbPoint
 10
3230.54813825435
 20
3955.6229154676
 30
0.0
  0
POINT
  5
7EC7
330
7DC3
100
AcDbEntity
  8
DEFPOINTS
  6
ByBlock
 62
     0
440
 16777216
100
AcDbPoint
 10
1380.54813825435
 20
3955.6229154676
 30
0.0
  0
POINT
  5
7EC8
330
7DC3
100
AcDbEntity
  8
DEFPOINTS
  6
ByBlock
 62
     0
440
 16777216
100
AcDbPoint
 10
1380.54813825435
 20
3613.448439770715
 30
0.0
  0
ENDBLK
  5
7EC9
330
7DC3
100
AcDbEntity
  8
0
100
AcDbBlockEnd
  0
BLOCK
  5
7ECA
330
7DCF
100
AcDbEntity
  8
0
100
AcDbBlockBegin
  2
*D16
 70
     1
 10
0.0
 20
0.0
 30
0.0
  3
*D16
  1

  0
LINE
  5
7ECB
330
7DCF
100
AcDbEntity
  8
0
  6
ByBlock
440
 16777216
100
AcDbLine
 10
4383.907505112644
 20
2136.887615409481
 30
0.0
 11
4383.907505112644
 21
2243.819859761796
 31
0.0
  0
LINE
  5
7ECC
330
7DCF
100
AcDbEntity
  8
0
  6
ByBlock
440
 16777216
100
AcDbLine
 10
5443.907505112644
 20
2136.887615409481
 30
0.0
 11
5443.907505112644
 21
2243.819859761796
 31
0.0
  0
LINE
  5
7ECD
330
7DCF
100
AcDbEntity
  8
0
  6
ByBlock
440
 16777216
100
AcDbLine
 10
4443.907505112644
 20
2213.819859761796
 30
0.0
 11
5383.907505112643
 21
2213.819859761796
 31
0.0
  0
INSERT
  5
7ECE
330
7DCF
100
AcDbEntity
  8
0
  6
ByBlock
440
 16777216
100
AcDbBlockReference
  2
_OPEN
 10
4383.907505112644
 20
2213.819859761796
 30
0.0
 41
60.0
 42
60.0
 43
60.0
 50
180.0
  0
INSERT
  5
7ECF
330
7DCF
100
AcDbEntity
  8
0
  6
ByBlock
440
 16777216
100
AcDbBlockReference
  2
_OPEN
 10
5443.907505112644
 20
2213.819859761796
 30
0.0
 41
60.0
 42
60.0
 43
60.0
  0
MTEXT
  5
7ED0
330
7DCF
100
AcDbEntity
  8
0
  6
ByBlock
440
 16777216
100
AcDbMText
 10
4913.907505112644
 20
2273.819859761796
 30
0.0
 40
90.0
 41
0.0
 46
0.0
 71
     5
 72
     5
  1
\A1;1060
 73
     1
 44
1.0
  0
POINT
  5
7ED1
330
7DCF
100
AcDbEntity
  8
DEFPOINTS
  6
ByBlock
 62
     0
440
 16777216
100
AcDbPoint
 10
4383.907505112644
 20
2106.887615409481
 30
0.0
  0
POINT
  5
7ED2
330
7DCF
100
AcDbEntity
  8
DEFPOINTS
  6
ByBlock
 62
     0
440
 16777216
100
AcDbPoint
 10
5443.907505112644
 20
2106.887615409481
 30
0.0
  0
POINT
  5
7ED3
330
7DCF
100
AcDbEntity
  8
DEFPOINTS
  6
ByBlock
 62
     0
440
 16777216
100
AcDbPoint
 10
5443.907505112644
 20
2213.819859761796
 30
0.0
  0
ENDBLK
  5
7ED4
330
7DCF
100
AcDbEntity
  8
0
100
AcDbBlockEnd
  0
BLOCK
  5
7FAF
330
7DE9
100
AcDbEntity
  8
0
100
AcDbBlockBegin
  2
*D17
 70
     1
 10
0.0
 20
0.0
 30
0.0
  3
*D17
  1

  0
LINE
  5
8374
330
7DE9
100
AcDbEntity
  8
3
 62
     0
440
 16777216
370
    -2
100
AcDbLine
 10
1460.595996518534
 20
2317.576325143209
 30
0.0
 11
1099.326339340605
 21
2317.576325143209
 31
0.0
  0
LINE
  5
8375
330
7DE9
100
AcDbEntity
  8
3
 62
     0
440
 16777216
370
    -2
100
AcDbLine
 10
1460.595996518534
 20
2217.576325143209
 30
0.0
 11
1099.326339340605
 21
2217.576325143209
 31
0.0
  0
LINE
  5
8376
330
7DE9
100
AcDbEntity
  8
3
 62
     0
440
 16777216
370
    -2
100
AcDbLine
 10
1129.326339340605
 20
2377.576325143209
 30
0.0
 11
1129.326339340605
 21
2437.576325143209
 31
0.0
  0
LINE
  5
8377
330
7DE9
100
AcDbEntity
  8
3
 62
     0
440
 16777216
370
    -2
100
AcDbLine
 10
1129.326339340605
 20
2157.576325143209
 30
0.0
 11
1129.326339340605
 21
1823.290610857495
 31
0.0
  0
LINE
  5
8378
330
7DE9
100
AcDbEntity
  8
3
 62
     0
440
 16777216
370
    -2
100
AcDbLine
 10
1129.326339340605
 20
2317.576325143209
 30
0.0
 11
1129.326339340605
 21
2217.576325143209
 31
0.0
  0
INSERT
  5
8379
330
7DE9
100
AcDbEntity
  8
3
 62
     0
440
 16777216
370
    -2
100
AcDbBlockReference
  2
_DOT
 10
1129.326339340605
 20
2317.576325143209
 30
0.0
 41
60.0
 42
60.0
 43
60.0
 50
270.0
  0
INSERT
  5
837A
330
7DE9
100
AcDbEntity
  8
3
 62
     0
440
 16777216
370
    -2
100
AcDbBlockReference
  2
_OPEN
 10
1129.326339340605
 20
2217.576325143209
 30
0.0
 41
60.0
 42
60.0
 43
60.0
 50
90.0
  0
MTEXT
  5
837B
330
7DE9
100
AcDbEntity
  8
3
 62
     0
440
 16777216
100
AcDbMText
 10
1054.326339340605
 20
1960.433468000352
 30
0.0
 40
90.0
 41
0.0
 46
0.0
 71
     5
 72
     1
  1
\A1;100
 11
0.0000000000000001
 21
1.0
 31
0.0
 73
     1
 44
1.0
  0
POINT
  5
837C
330
7DE9
100
AcDbEntity
  8
DEFPOINTS
 62
     0
440
 16777216
100
AcDbPoint
 10
1475.595996518534
 20
2317.576325143209
 30
0.0
  0
POINT
  5
837D
330
7DE9
100
AcDbEntity
  8
DEFPOINTS
 62
     0
440
 16777216
100
AcDbPoint
 10
1475.595996518534
 20
2217.576325143209
 30
0.0
  0
POINT
  5
837E
330
7DE9
100
AcDbEntity
  8
DEFPOINTS
 62
     0
440
 16777216
100
AcDbPoint
 10
1129.326339340605
 20
2217.576325143209
 30
0.0
  0
ENDBLK
  5
7FBB
330
7DE9
100
AcDbEntity
  8
0
100
AcDbBlockEnd
  0
BLOCK
  5
7EEF
330
7DF7
100
AcDbEntity
  8
0
100
AcDbBlockBegin
  2
*D18
 70
     1
 10
0.0
 20
0.0
 30
0.0
  3
*D18
  1

  0
LINE
  5
8057
330
7DF7
100
AcDbEntity
  8
3
440
 16777216
100
AcDbLine
 10
1926.095996518535
 20
3642.576325143208
 30
0.0
 11
1099.326339340605
 21
3642.576325143208
 31
0.0
  0
LINE
  5
8058
330
7DF7
100
AcDbEntity
  8
3
440
 16777216
100
AcDbLine
 10
1129.326339340605
 20
3157.576325143209
 30
0.0
 11
1129.326339340605
 21
3582.576325143208
 31
0.0
  0
INSERT
  5
8059
330
7DF7
100
AcDbEntity
  8
3
440
 16777216
100
AcDbBlockReference
  2
_OPEN
 10
1129.326339340605
 20
3097.576325143209
 30
0.0
 41
60.0
 42
60.0
 43
60.0
 50
270.0
  0
INSERT
  5
805A
330
7DF7
100
AcDbEntity
  8
3
440
 16777216
100
AcDbBlockReference
  2
_OPEN
 10
1129.326339340605
 20
3642.576325143208
 30
0.0
 41
60.0
 42
60.0
 43
60.0
 50
90.0
  0
MTEXT
  5
805B
330
7DF7
100
AcDbEntity
  8
3
440
 16777216
100
AcDbMText
 10
1069.326339340604
 20
3370.076325143209
 30
0.0
 40
90.0
 41
0.0
 46
0.0
 71
     5
 72
     5
  1
\A1;545
 11
0.0000000000000001
 21
1.0
 31
0.0
 73
     1
 44
1.0
  0
POINT
  5
805C
330
7DF7
100
AcDbEntity
  8
DEFPOINTS
 62
     0
440
 16777216
100
AcDbPoint
 10
1309.124204668143
 20
3097.576325143209
 30
0.0
  0
POINT
  5
805D
330
7DF7
100
AcDbEntity
  8
DEFPOINTS
 62
     0
440
 16777216
100
AcDbPoint
 10
1956.095996518534
 20
3642.576325143208
 30
0.0
  0
POINT
  5
805E
330
7DF7
100
AcDbEntity
  8
DEFPOINTS
 62
     0
440
 16777216
100
AcDbPoint
 10
1129.326339340605
 20
3642.576325143208
 30
0.0
  0
ENDBLK
  5
7EF8
330
7DF7
100
AcDbEntity
  8
0
100
AcDbBlockEnd
  0
BLOCK
  5
7F04
330
7E0E
100
AcDbEntity
  8
0
100
AcDbBlockBegin
  2
*D19
 70
     1
 10
0.0
 20
0.0
 30
0.0
  3
*D19
  1

  0
LINE
  5
82F3
330
7E0E
100
AcDbEntity
  8
3
440
 16777216
370
    -2
100
AcDbLine
 10
1417.595996518534
 20
3068.576325143209
 30
0.0
 11
1417.595996518534
 21
3973.205071259076
 31
0.0
  0
LINE
  5
82F4
330
7E0E
100
AcDbEntity
  8
3
440
 16777216
370
    -2
100
AcDbLine
 10
1915.595996518534
 20
3943.205071259075
 30
0.0
 11
1477.595996518534
 21
3943.205071259075
 31
0.0
  0
INSERT
  5
82F5
330
7E0E
100
AcDbEntity
  8
3
440
 16777216
370
    -2
100
AcDbBlockReference
  2
_OPEN
 10
1975.595996518534
 20
3943.205071259075
 30
0.0
 41
60.0
 42
60.0
 43
60.0
  0
INSERT
  5
82F6
330
7E0E
100
AcDbEntity
  8
3
440
 16777216
370
    -2
100
AcDbBlockReference
  2
_OPEN
 10
1417.595996518534
 20
3943.205071259075
 30
0.0
 41
60.0
 42
60.0
 43
60.0
 50
180.0
  0
MTEXT
  5
82F7
330
7E0E
100
AcDbEntity
  8
3
440
 16777216
100
AcDbMText
 10
1696.595996518534
 20
4003.205071259075
 30
0.0
 40
90.0
 41
0.0
 46
0.0
 71
     5
 72
     1
  1
\A1;558
 73
     1
 44
1.0
  0
POINT
  5
82F8
330
7E0E
100
AcDbEntity
  8
DEFPOINTS
 62
     0
440
 16777216
100
AcDbPoint
 10
1975.595996518534
 20
3764.048116993599
 30
0.0
  0
POINT
  5
82F9
330
7E0E
100
AcDbEntity
  8
DEFPOINTS
 62
     0
440
 16777216
100
AcDbPoint
 10
1417.595996518534
 20
3038.576325143209
 30
0.0
  0
POINT
  5
82FA
330
7E0E
100
AcDbEntity
  8
DEFPOINTS
 62
     0
440
 16777216
100
AcDbPoint
 10
1417.595996518534
 20
3943.205071259075
 30
0.0
  0
ENDBLK
  5
7F0D
330
7E0E
100
AcDbEntity
  8
0
100
AcDbBlockEnd
  0
BLOCK
  5
7F0E
330
7E19
100
AcDbEntity
  8
0
100
AcDbBlockBegin
  2
*D20
 70
     1
 10
0.0
 20
0.0
 30
0.0
  3
*D20
  1

  0
LINE
  5
82FB
330
7E19
100
AcDbEntity
  8
3
440
 16777216
370
    -2
100
AcDbLine
 10
1417.595996518534
 20
3068.576325143209
 30
0.0
 11
1417.595996518534
 21
4144.626822945536
 31
0.0
  0
LINE
  5
82FC
330
7E19
100
AcDbEntity
  8
3
440
 16777216
370
    -2
100
AcDbLine
 10
3325.595996518534
 20
2527.576325143209
 30
0.0
 11
3325.595996518534
 21
4144.626822945536
 31
0.0
  0
LINE
  5
82FD
330
7E19
100
AcDbEntity
  8
3
440
 16777216
370
    -2
100
AcDbLine
 10
1477.595996518534
 20
4114.626822945536
 30
0.0
 11
3265.595996518534
 21
4114.626822945536
 31
0.0
  0
INSERT
  5
82FE
330
7E19
100
AcDbEntity
  8
3
440
 16777216
370
    -2
100
AcDbBlockReference
  2
_OPEN
 10
1417.595996518534
 20
4114.626822945536
 30
0.0
 41
60.0
 42
60.0
 43
60.0
 50
180.0
  0
INSERT
  5
82FF
330
7E19
100
AcDbEntity
  8
3
440
 16777216
370
    -2
100
AcDbBlockReference
  2
_OPEN
 10
3325.595996518534
 20
4114.626822945536
 30
0.0
 41
60.0
 42
60.0
 43
60.0
  0
MTEXT
  5
8300
330
7E19
100
AcDbEntity
  8
3
440
 16777216
100
AcDbMText
 10
2371.595996518534
 20
4174.626822945536
 30
0.0
 40
90.0
 41
0.0
 46
0.0
 71
     5
 72
     1
  1
\A1;1908
 73
     1
 44
1.0
  0
POINT
  5
8301
330
7E19
100
AcDbEntity
  8
DEFPOINTS
 62
     0
440
 16777216
100
AcDbPoint
 10
1417.595996518534
 20
3038.576325143209
 30
0.0
  0
POINT
  5
8302
330
7E19
100
AcDbEntity
  8
DEFPOINTS
 62
     0
440
 16777216
100
AcDbPoint
 10
3325.595996518534
 20
2497.576325143209
 30
0.0
  0
POINT
  5
8303
330
7E19
100
AcDbEntity
  8
DEFPOINTS
 62
     0
440
 16777216
100
AcDbPoint
 10
3325.595996518534
 20
4114.626822945536
 30
0.0
  0
ENDBLK
  5
7F18
330
7E19
100
AcDbEntity
  8
0
100
AcDbBlockEnd
  0
BLOCK
  5
7FAB
330
7FA5
100
AcDbEntity
  8
0
100
AcDbBlockBegin
  2
_DOT
 70
     0
 10
0.0
 20
0.0
 30
0.0
  3
_DOT
  1

  0
LWPOLYLINE
  5
7FA6
330
7FA5
100
AcDbEntity
  8
0
  6
ByBlock
 62
     0
100
AcDbPolyline
 90
        2
 70
     1
 43
0.25
 10
-0.125
 20
0.0
 42
1.0
 10
0.125
 20
0.0
 42
1.0
  0
LINE
  5
7FAA
330
7FA5
100
AcDbEntity
  8
0
  6
ByBlock
 62
     0
100
AcDbLine
 10
-0.25
 20
0.0
 30
0.0
 11
-1.0
 21
0.0
 31
0.0
  0
ENDBLK
  5
7FAC
330
7FA5
100
AcDbEntity
  8
0
100
AcDbBlockEnd
  0
BLOCK
  5
7FF5
330
7FF4
100
AcDbEntity
  8
0
100
AcDbBlockBegin
  2
_NONE
 70
     0
 10
0.0
 20
0.0
 30
0.0
  3
_NONE
  1

  0
CIRCLE
  5
7FF6
330
7FF4
100
AcDbEntity
  8
0
  6
ByBlock
 62
     0
100
AcDbCircle
 10
0.0
 20
0.0
 30
0.0
 40
0.25
  0
ENDBLK
  5
7FF7
330
7FF4
100
AcDbEntity
  8
0
100
AcDbBlockEnd
  0
BLOCK
  5
7FF9
330
7FF8
100
AcDbEntity
  8
0
100
AcDbBlockBegin
  2
*D23
 70
     1
 10
0.0
 20
0.0
 30
0.0
  3
*D23
  1

  0
LINE
  5
8342
330
7FF8
100
AcDbEntity
  8
3
 62
     0
440
 16777216
370
    -2
100
AcDbLine
 10
1131.063773049434
 20
2317.576325143209
 30
0.0
 11
1131.063773049434
 21
2397.576325143209
 31
0.0
  0
MTEXT
  5
8343
330
7FF8
100
AcDbEntity
  8
3
 62
     0
440
 16777216
100
AcDbMText
 10
987.4923444780057
 20
2357.57632514321
 30
0.0
 40
90.0
 41
0.0
 46
0.0
 71
     5
 72
     1
  1
\A1;(80)
 11
0.0000000000000001
 21
1.0
 31
0.0
 73
     1
 44
1.0
  0
POINT
  5
8344
330
7FF8
100
AcDbEntity
  8
DEFPOINTS
 62
     0
440
 16777216
100
AcDbPoint
 10
1475.595996518534
 20
2317.576325143209
 30
0.0
  0
POINT
  5
8345
330
7FF8
100
AcDbEntity
  8
DEFPOINTS
 62
     0
440
 16777216
100
AcDbPoint
 10
1475.595996518534
 20
2397.576325143209
 30
0.0
  0
POINT
  5
8346
330
7FF8
100
AcDbEntity
  8
DEFPOINTS
 62
     0
440
 16777216
100
AcDbPoint
 10
1131.063773049434
 20
2397.576325143209
 30
0.0
  0
ENDBLK
  5
7FFF
330
7FF8
100
AcDbEntity
  8
0
100
AcDbBlockEnd
  0
BLOCK
  5
8002
330
8001
100
AcDbEntity
  8
0
100
AcDbBlockBegin
  2
*D24
 70
     1
 10
0.0
 20
0.0
 30
0.0
  3
*D24
  1

  0
LINE
  5
8347
330
8001
100
AcDbEntity
  8
3
 62
     0
440
 16777216
370
    -2
100
AcDbLine
 10
1941.095996518535
 20
3642.576325143208
 30
0.0
 11
851.4404632270965
 21
3642.576325143209
 31
0.0
  0
LINE
  5
8348
330
8001
100
AcDbEntity
  8
3
 62
     0
440
 16777216
370
    -2
100
AcDbLine
 10
1460.595996518534
 20
2217.576325143209
 30
0.0
 11
851.4404632270961
 21
2217.576325143209
 31
0.0
  0
LINE
  5
8349
330
8001
100
AcDbEntity
  8
3
 62
     0
440
 16777216
370
    -2
100
AcDbLine
 10
881.4404632270965
 20
3582.576325143209
 30
0.0
 11
881.4404632270962
 21
2277.576325143209
 31
0.0
  0
INSERT
  5
834A
330
8001
100
AcDbEntity
  8
3
 62
     0
440
 16777216
370
    -2
100
AcDbBlockReference
  2
_OPEN
 10
881.4404632270965
 20
3642.576325143209
 30
0.0
 41
60.0
 42
60.0
 43
60.0
 50
90.0
  0
INSERT
  5
834B
330
8001
100
AcDbEntity
  8
3
 62
     0
440
 16777216
370
    -2
100
AcDbBlockReference
  2
_OPEN
 10
881.4404632270962
 20
2217.576325143209
 30
0.0
 41
60.0
 42
60.0
 43
60.0
 50
270.0
  0
MTEXT
  5
834C
330
8001
100
AcDbEntity
  8
3
 62
     0
440
 16777216
100
AcDbMText
 10
782.8690346556673
 20
2930.076325143209
 30
0.0
 40
90.0
 41
0.0
 46
0.0
 71
     5
 72
     1
  1
\A1;(1425)
 11
0.0000000000000001
 21
1.0
 31
0.0
 73
     1
 44
1.0
  0
POINT
  5
834D
330
8001
100
AcDbEntity
  8
DEFPOINTS
 62
     0
440
 16777216
100
AcDbPoint
 10
1956.095996518534
 20
3642.576325143208
 30
0.0
  0
POINT
  5
834E
330
8001
100
AcDbEntity
  8
DEFPOINTS
 62
     0
440
 16777216
100
AcDbPoint
 10
1475.595996518534
 20
2217.576325143209
 30
0.0
  0
POINT
  5
834F
330
8001
100
AcDbEntity
  8
DEFPOINTS
 62
     0
440
 16777216
100
AcDbPoint
 10
881.4404632270962
 20
2217.576325143209
 30
0.0
  0
ENDBLK
  5
800C
330
8001
100
AcDbEntity
  8
0
100
AcDbBlockEnd
  0
BLOCK
  5
8306
330
8305
100
AcDbEntity
  8
0
100
AcDbBlockBegin
  2
*D47
 70
     1
 10
0.0
 20
0.0
 30
0.0
  3
*D47
  1

  0
LINE
  5
8330
330
8305
100
AcDbEntity
  8
3
 62
     0
440
 16777216
370
    -2
100
AcDbLine
 10
3839.353067349757
 20
3332.576325143209
 30
0.0
 11
3839.353067349757
 21
4117.450431593341
 31
0.0
  0
LINE
  5
8331
330
8305
100
AcDbEntity
  8
3
 62
     0
440
 16777216
370
    -2
100
AcDbLine
 10
4739.653067349756
 20
3869.508569495523
 30
0.0
 11
4739.653067349756
 21
4117.450431593341
 31
0.0
  0
LINE
  5
8332
330
8305
100
AcDbEntity
  8
3
 62
     0
440
 16777216
370
    -2
100
AcDbLine
 10
3899.353067349756
 20
4087.450431593341
 30
0.0
 11
4679.653067349756
 21
4087.450431593341
 31
0.0
  0
INSERT
  5
8333
330
8305
100
AcDbEntity
  8
3
 62
     0
440
 16777216
370
    -2
100
AcDbBlockReference
  2
_OPEN
 10
3839.353067349757
 20
4087.450431593341
 30
0.0
 41
60.0
 42
60.0
 43
60.0
 50
180.0
  0
INSERT
  5
8334
330
8305
100
AcDbEntity
  8
3
 62
     0
440
 16777216
370
    -2
100
AcDbBlockReference
  2
_OPEN
 10
4739.653067349756
 20
4087.450431593341
 30
0.0
 41
60.0
 42
60.0
 43
60.0
  0
MTEXT
  5
8335
330
8305
100
AcDbEntity
  8
3
 62
     0
440
 16777216
100
AcDbMText
 10
4289.503067349756
 20
4186.021860164769
 30
0.0
 40
90.0
 41
0.0
 46
0.0
 71
     5
 72
     1
  1
\A1;(900)
 73
     1
 44
1.0
  0
POINT
  5
8336
330
8305
100
AcDbEntity
  8
DEFPOINTS
 62
     0
440
 16777216
100
AcDbPoint
 10
3839.353067349757
 20
3317.576325143209
 30
0.0
  0
POINT
  5
8337
330
8305
100
AcDbEntity
  8
DEFPOINTS
 62
     0
440
 16777216
100
AcDbPoint
 10
4739.653067349756
 20
3854.508569495524
 30
0.0
  0
POINT
  5
8338
330
8305
100
AcDbEntity
  8
DEFPOINTS
 62
     0
440
 16777216
100
AcDbPoint
 10
4739.653067349756
 20
4087.450431593341
 30
0.0
  0
ENDBLK
  5
8307
330
8305
100
AcDbEntity
  8
0
100
AcDbBlockEnd
  0
BLOCK
  5
8313
330
8312
100
AcDbEntity
  8
0
100
AcDbBlockBegin
  2
*D48
 70
     1
 10
0.0
 20
0.0
 30
0.0
  3
*D48
  1

  0
LINE
  5
8339
330
8312
100
AcDbEntity
  8
3
 62
     0
440
 16777216
370
    -2
100
AcDbLine
 10
4739.653067349756
 20
3869.508569495523
 30
0.0
 11
4739.653067349756
 21
4117.450431593341
 31
0.0
  0
LINE
  5
833A
330
8312
100
AcDbEntity
  8
3
 62
     0
440
 16777216
370
    -2
100
AcDbLine
 10
5399.453067349758
 20
3082.576325143208
 30
0.0
 11
5399.453067349758
 21
4117.450431593341
 31
0.0
  0
LINE
  5
833B
330
8312
100
AcDbEntity
  8
3
 62
     0
440
 16777216
370
    -2
100
AcDbLine
 10
4799.653067349757
 20
4087.450431593341
 30
0.0
 11
5339.453067349758
 21
4087.450431593341
 31
0.0
  0
INSERT
  5
833C
330
8312
100
AcDbEntity
  8
3
 62
     0
440
 16777216
370
    -2
100
AcDbBlockReference
  2
_OPEN
 10
4739.653067349756
 20
4087.450431593341
 30
0.0
 41
60.0
 42
60.0
 43
60.0
 50
180.0
  0
INSERT
  5
833D
330
8312
100
AcDbEntity
  8
3
 62
     0
440
 16777216
370
    -2
100
AcDbBlockReference
  2
_OPEN
 10
5399.453067349758
 20
4087.450431593341
 30
0.0
 41
60.0
 42
60.0
 43
60.0
  0
MTEXT
  5
833E
330
8312
100
AcDbEntity
  8
3
 62
     0
440
 16777216
100
AcDbMText
 10
5069.553067349757
 20
4186.021860164769
 30
0.0
 40
90.0
 41
0.0
 46
0.0
 71
     5
 72
     1
  1
\A1;(660)
 73
     1
 44
1.0
  0
POINT
  5
833F
330
8312
100
AcDbEntity
  8
DEFPOINTS
 62
     0
440
 16777216
100
AcDbPoint
 10
4739.653067349756
 20
3854.508569495524
 30
0.0
  0
POINT
  5
8340
330
8312
100
AcDbEntity
  8
DEFPOINTS
 62
     0
440
 16777216
100
AcDbPoint
 10
5399.453067349758
 20
3067.576325143208
 30
0.0
  0
POINT
  5
8341
330
8312
100
AcDbEntity
  8
DEFPOINTS
 62
     0
440
 16777216
100
AcDbPoint
 10
5399.453067349758
 20
4087.450431593341
 30
0.0
  0
ENDBLK
  5
8314
330
8312
100
AcDbEntity
  8
0
100
AcDbBlockEnd
  0
ENDSEC
  0
SECTION
  2
ENTITIES
  0
INSERT
  5
7C25
330
19
100
AcDbEntity
  8
0
100
AcDbBlockReference
  2
YA_N
 10
6.0
 20
5.0
 30
0.0
  0
LINE
  5
7C27
330
19
100
AcDbEntity
  8
2
100
AcDbLine
 10
1975.595996518534
 20
3956.259657770452
 30
0.0
 11
1975.595996518533
 21
2217.576325143209
 31
0.0
  0
LINE
  5
7C28
330
19
100
AcDbEntity
  8
2
100
AcDbLine
 10
1309.124204668143
 20
3097.576325143209
 30
0.0
 11
2881.536269494097
 21
3097.576325143209
 31
0.0
  0
LINE
  5
7C34
330
19
100
AcDbEntity
  8
1
100
AcDbLine
 10
3325.595996518534
 20
2397.576325143209
 30
0.0
 11
1475.595996518534
 21
2397.576325143209
 31
0.0
1001
ACAD
1000
ASC_BOUNDS
1002
{
1070
    19
1002
}
  0
LINE
  5
7C35
330
19
100
AcDbEntity
  8
1
100
AcDbLine
 10
3325.595996518534
 20
2497.576325143209
 30
0.0
 11
1475.595996518534
 21
2497.576325143209
 31
0.0
  0
LINE
  5
7C36
330
19
100
AcDbEntity
  8
1
100
AcDbLine
 10
3325.595996518534
 20
2497.576325143209
 30
0.0
 11
3325.595996518534
 21
2397.576325143209
 31
0.0
  0
LINE
  5
7C37
330
19
100
AcDbEntity
  8
1
100
AcDbLine
 10
3325.595996518534
 20
2217.576325143209
 30
0.0
 11
1475.595996518534
 21
2217.576325143209
 31
0.0
  0
LINE
  5
7C38
330
19
100
AcDbEntity
  8
1
100
AcDbLine
 10
1475.595996518534
 20
2317.576325143209
 30
0.0
 11
1475.595996518534
 21
2217.576325143209
 31
0.0
  0
LINE
  5
7C39
330
19
100
AcDbEntity
  8
1
100
AcDbLine
 10
3325.595996518534
 20
2317.576325143209
 30
0.0
 11
3325.595996518534
 21
2217.576325143209
 31
0.0
  0
LINE
  5
7C3A
330
19
100
AcDbEntity
  8
1
100
AcDbLine
 10
3277.595996518535
 20
2537.576325143209
 30
0.0
 11
2873.595996518534
 21
2537.576325143209
 31
0.0
  0
LINE
  5
7C3B
330
19
100
AcDbEntity
  8
1
100
AcDbLine
 10
2875.595996518534
 20
2537.576325143209
 30
0.0
 11
2875.595996518534
 21
2497.576325143209
 31
0.0
  0
LINE
  5
7C3C
330
19
100
AcDbEntity
  8
1
100
AcDbLine
 10
1475.595996518534
 20
2497.576325143209
 30
0.0
 11
1475.595996518534
 21
2397.576325143209
 31
0.0
  0
LINE
  5
7C3D
330
19
100
AcDbEntity
  8
1
100
AcDbLine
 10
5269.653067349756
 20
3642.576325143209
 30
0.0
 11
5269.653067349755
 21
3120.576325143209
 31
0.0
  0
LINE
  5
7C3E
330
19
100
AcDbEntity
  8
1
100
AcDbLine
 10
4002.653067349757
 20
2397.576325143209
 30
0.0
 11
5322.653067349756
 21
2397.576325143209
 31
0.0
1001
ACAD
1000
ASC_BOUNDS
1002
{
1070
    19
1002
}
  0
LINE
  5
7C3F
330
19
100
AcDbEntity
  8
1
100
AcDbLine
 10
4002.653067349757
 20
2497.576325143208
 30
0.0
 11
5322.653067349758
 21
2497.576325143209
 31
0.0
  0
LINE
  5
7C40
330
19
100
AcDbEntity
  8
1
100
AcDbLine
 10
4002.653067349757
 20
2217.576325143209
 30
0.0
 11
5322.653067349757
 21
2217.576325143209
 31
0.0
  0
LINE
  5
7C41
330
19
100
AcDbEntity
  8
1
100
AcDbLine
 10
4002.653067349757
 20
2497.576325143208
 30
0.0
 11
4002.653067349757
 21
2397.576325143209
 31
0.0
  0
LINE
  5
7C42
330
19
100
AcDbEntity
  8
1
100
AcDbLine
 10
5322.653067349757
 20
2497.576325143209
 30
0.0
 11
5322.653067349756
 21
2397.576325143209
 31
0.0
  0
LINE
  5
7C43
330
19
100
AcDbEntity
  8
1
100
AcDbLine
 10
5322.653067349756
 20
2497.576325143209
 30
0.0
 11
5322.653067349757
 21
2492.050209986619
 31
0.0
  0
LINE
  5
7C44
330
19
100
AcDbEntity
  8
2
100
AcDbLine
 10
3852.170398963088
 20
3097.576325143209
 30
0.0
 11
5390.702913928953
 21
3097.576325143209
 31
0.0
  0
LINE
  5
7C45
330
19
100
AcDbEntity
  8
2
100
AcDbLine
 10
3896.059252148188
 20
2747.576325143209
 30
0.0
 11
4530.353067349756
 21
2747.576325143209
 31
0.0
  0
LINE
  5
7C46
330
19
100
AcDbEntity
  8
1
100
AcDbLine
 10
3927.353067349756
 20
3224.576325143209
 30
0.0
 11
3927.353067349756
 21
2637.576325143208
 31
0.0
  0
LINE
  5
7C47
330
19
100
AcDbEntity
  8
1
100
AcDbLine
 10
3839.353067349757
 20
3317.576325143209
 30
0.0
 11
3839.353067349757
 21
2527.576325143208
 31
0.0
  0
LINE
  5
7C48
330
19
100
AcDbEntity
  8
1
100
AcDbLine
 10
3839.353067349757
 20
3317.576325143209
 30
0.0
 11
4042.353067349756
 21
3317.576325143209
 31
0.0
  0
LINE
  5
7C49
330
19
100
AcDbEntity
  8
1
100
AcDbLine
 10
4042.353067349756
 20
3317.576325143209
 30
0.0
 11
4042.353067349756
 21
3267.576325143209
 31
0.0
  0
LINE
  5
7C4A
330
19
100
AcDbEntity
  8
1
100
AcDbLine
 10
4042.353067349757
 20
2680.072102534547
 30
0.0
 11
4042.353067349757
 21
2527.576325143209
 31
0.0
  0
LINE
  5
7C4B
330
19
100
AcDbEntity
  8
2
100
AcDbLine
 10
4739.653067349756
 20
3722.02643866311
 30
0.0
 11
4739.653067349758
 21
2217.576325143209
 31
0.0
  0
POINT
  5
7C4C
330
19
100
AcDbEntity
  8
1
100
AcDbPoint
 10
1475.595996518534
 20
2397.576325143209
 30
0.0
  0
POINT
  5
7C4D
330
19
100
AcDbEntity
  8
1
100
AcDbPoint
 10
1475.595996518534
 20
2397.576325143209
 30
0.0
  0
POINT
  5
7C4E
330
19
100
AcDbEntity
  8
1
100
AcDbPoint
 10
1475.595996518534
 20
2397.576325143209
 30
0.0
  0
INSERT
  5
7C51
330
19
100
AcDbEntity
  8
0
100
AcDbBlockReference
  2
YA_N
 10
-733.6448571667497
 20
-271.0302667023643
 30
0.0
 41
20.0
 42
20.0
 43
20.0
  0
DIMENSION
  5
7C53
330
19
100
AcDbEntity
  8
3
100
AcDbDimension
280
     0
  2
*D3
 10
1975.595996518534
 20
2067.156667461255
 30
0.0
 11
1725.595996518534
 21
2127.156667461255
 31
0.0
 70
    32
 71
     5
 42
500.0
 73
     0
 74
     0
 75
     0
  3
MATSU
100
AcDbAlignedDimension
 13
1475.595996518534
 23
2217.576325143209
 33
0.0
 14
1975.595996518534
 24
2217.576325143209
 34
0.0
100
AcDbRotatedDimension
1001
ACAD
1000
DSTYLE
1002
{
1070
    40
1040
30.0
1002
}
  0
DIMENSION
  5
7C54
330
19
100
AcDbEntity
  8
3
100
AcDbDimension
280
     0
  2
*D4
 10
1998.595996518535
 20
3790.921668685272
 30
0.0
 11
2411.095996518535
 21
3850.921668685272
 31
0.0
 12
95.04785826418446
 22
1535.688709733727
 32
0.0
 70
    32
 71
     5
 42
-1.0
 73
     0
 74
     0
 75
     0
  3
MATSU
100
AcDbAlignedDimension
 13
2823.595996518535
 23
3642.57632514321
 33
0.0
 14
1998.595996518535
 24
3642.57632514321
 34
0.0
100
AcDbRotatedDimension
1001
ACAD
1000
DSTYLE
1002
{
1070
    40
1040
30.0
1002
}
  0
DIMENSION
  5
7C55
330
19
100
AcDbEntity
  8
3
100
AcDbDimension
280
     0
  2
*D5
 10
1975.595996518534
 20
3943.205071259075
 30
0.0
 11
2399.595996518535
 21
4003.205071259075
 31
0.0
 12
95.04785826418446
 22
1535.688709733727
 32
0.0
 70
    32
 71
     5
 42
-1.0
 73
     0
 74
     0
 75
     0
  3
MATSU
100
AcDbAlignedDimension
 13
2823.595996518535
 23
3642.57632514321
 33
0.0
 14
1975.595996518534
 24
3764.048116993599
 34
0.0
100
AcDbRotatedDimension
1001
ACAD
1000
DSTYLE
1002
{
1070
    40
1040
30.0
1002
}
  0
LINE
  5
7C56
330
19
100
AcDbEntity
  8
1
100
AcDbLine
 10
3210.054896518535
 20
2657.264325143209
 30
0.0
 11
3229.595996518534
 21
2603.576325143209
 31
0.0
  0
LINE
  5
7C57
330
19
100
AcDbEntity
  8
1
100
AcDbLine
 10
2941.149196518534
 20
2657.297325143209
 30
0.0
 11
2921.595996518534
 21
2603.576325143209
 31
0.0
  0
ARC
  5
7C58
330
19
100
AcDbEntity
  8
1
100
AcDbCircle
 10
3075.595996518534
 20
2747.576325143209
 30
0.0
 40
162.0
100
AcDbArc
 50
285.6419
 51
0.0
  0
ARC
  5
7C59
330
19
100
AcDbEntity
  8
1
100
AcDbCircle
 10
3075.595996518534
 20
2747.576325143209
 30
0.0
 40
162.0
100
AcDbArc
 50
0.0
 51
254.3601
  0
LINE
  5
7C5A
330
19
100
AcDbEntity
  8
2
100
AcDbLine
 10
3075.595996518534
 20
2976.025011586004
 30
0.0
 11
3075.595996518535
 21
2217.576325143209
 31
0.0
  0
LINE
  5
7C5B
330
19
100
AcDbEntity
  8
1
100
AcDbLine
 10
3031.915396518535
 20
2591.576325143209
 30
0.0
 11
3119.276696518535
 21
2591.576325143209
 31
0.0
  0
LINE
  5
7C5C
330
19
100
AcDbEntity
  8
1
100
AcDbLine
 10
2990.652096518535
 20
2609.632325143209
 30
0.0
 11
2982.474696518534
 21
2601.454325143209
 31
0.0
  0
LINE
  5
7C5F
330
19
100
AcDbEntity
  8
1
100
AcDbLine
 10
2968.382796518534
 20
2605.576325143209
 30
0.0
 11
2923.595996518534
 21
2605.576325143209
 31
0.0
  0
ARC
  5
7C61
330
19
100
AcDbEntity
  8
1
100
AcDbCircle
 10
2923.595996518534
 20
2603.576325143209
 30
0.0
 40
2.0
100
AcDbArc
 50
90.0
 51
180.0
  0
LINE
  5
7C62
330
19
100
AcDbEntity
  8
1
100
AcDbLine
 10
2921.595996518534
 20
2587.576325143209
 30
0.0
 11
2921.595996518534
 21
2603.576325143209
 31
0.0
  0
LINE
  5
7C65
330
19
100
AcDbEntity
  8
1
100
AcDbLine
 10
2980.484796518535
 20
2616.435325143209
 30
0.0
 11
2970.504196518534
 21
2606.454325143209
 31
0.0
  0
ARC
  5
7C68
330
19
100
AcDbEntity
  8
1
100
AcDbCircle
 10
2984.595996518534
 20
2599.333325143209
 30
0.0
 40
3.0
100
AcDbArc
 50
135.0
 51
180.0
  0
LINE
  5
7C69
330
19
100
AcDbEntity
  8
1
100
AcDbLine
 10
2981.595996518534
 20
2587.576325143209
 30
0.0
 11
2981.595996518534
 21
2599.333325143209
 31
0.0
  0
LINE
  5
7C6D
330
19
100
AcDbEntity
  8
1
100
AcDbLine
 10
3182.809196518534
 20
2605.576325143209
 30
0.0
 11
3227.595996518534
 21
2605.576325143209
 31
0.0
  0
LINE
  5
7C6E
330
19
100
AcDbEntity
  8
1
100
AcDbLine
 10
3180.634496518535
 20
2606.508325143209
 30
0.0
 11
3170.707196518534
 21
2616.435325143209
 31
0.0
  0
LINE
  5
7C6F
330
19
100
AcDbEntity
  8
1
100
AcDbLine
 10
3160.539896518534
 20
2609.632325143209
 30
0.0
 11
3168.717396518534
 21
2601.454325143209
 31
0.0
  0
ARC
  5
7C70
330
19
100
AcDbEntity
  8
1
100
AcDbCircle
 10
3166.595996518534
 20
2599.333325143209
 30
0.0
 40
3.0
100
AcDbArc
 50
0.0
 51
45.0
  0
LINE
  5
7C71
330
19
100
AcDbEntity
  8
1
100
AcDbLine
 10
3169.595996518534
 20
2587.576325143209
 30
0.0
 11
3169.595996518534
 21
2599.333325143209
 31
0.0
  0
ARC
  5
7C72
330
19
100
AcDbEntity
  8
1
100
AcDbCircle
 10
3182.809196518534
 20
2608.576325143209
 30
0.0
 40
3.0
100
AcDbArc
 50
225.0
 51
270.0
  0
ARC
  5
7C74
330
19
100
AcDbEntity
  8
1
100
AcDbCircle
 10
3227.595996518534
 20
2603.576325143209
 30
0.0
 40
2.0
100
AcDbArc
 50
0.0
 51
90.0
  0
LINE
  5
7C79
330
19
100
AcDbEntity
  8
1
100
AcDbLine
 10
3229.595996518534
 20
2587.576325143209
 30
0.0
 11
3229.595996518534
 21
2603.576325143209
 31
0.0
  0
LINE
  5
7C7A
330
19
100
AcDbEntity
  8
2
100
AcDbLine
 10
2887.485552455863
 20
2747.576325143209
 30
0.0
 11
3376.902461383234
 21
2747.576325143208
 31
0.0
  0
LINE
  5
7C7B
330
19
100
AcDbEntity
  8
1
100
AcDbLine
 10
3264.110639784575
 20
2587.576325143209
 30
0.0
 11
3135.595996518535
 21
2587.576325143209
 31
0.0
  0
LINE
  5
7C7C
330
19
100
AcDbEntity
  8
1
100
AcDbLine
 10
2873.595996518535
 20
2537.576325143209
 30
0.0
 11
2886.841128903723
 21
2587.576325143209
 31
0.0
  0
LINE
  5
7C7D
330
19
100
AcDbEntity
  8
1
100
AcDbLine
 10
3277.595996518535
 20
2537.576325143209
 30
0.0
 11
3264.110639784575
 21
2587.576325143209
 31
0.0
  0
LINE
  5
7C7E
330
19
100
AcDbEntity
  8
1
100
AcDbLine
 10
3135.595996518535
 20
2577.576325143209
 30
0.0
 11
3015.595996518534
 21
2577.576325143209
 31
0.0
  0
LINE
  5
7C80
330
19
100
AcDbEntity
  8
1
100
AcDbLine
 10
3135.595996518536
 20
2587.576325143209
 30
0.0
 11
3135.595996518535
 21
2577.576325143209
 31
0.0
  0
LINE
  5
7C81
330
19
100
AcDbEntity
  8
1
100
AcDbLine
 10
3015.595996518535
 20
2587.576325143209
 30
0.0
 11
3015.595996518535
 21
2577.576325143209
 31
0.0
  0
LINE
  5
7C82
330
19
100
AcDbEntity
  8
1
100
AcDbLine
 10
3015.595996518534
 20
2587.576325143209
 30
0.0
 11
2886.841128903723
 21
2587.576325143209
 31
0.0
  0
CIRCLE
  5
7C87
330
19
100
AcDbEntity
  8
1
100
AcDbCircle
 10
3075.595996518534
 20
2747.576325143209
 30
0.0
 40
110.0
  0
CIRCLE
  5
7C88
330
19
100
AcDbEntity
  8
1
100
AcDbCircle
 10
1975.595996518534
 20
3097.576325143209
 30
0.0
 40
127.0
  0
LINE
  5
7C89
330
19
100
AcDbEntity
  8
1
100
AcDbLine
 10
3927.353067349756
 20
3224.576325143209
 30
0.0
 11
4012.353067349756
 21
3224.576325143209
 31
0.0
  0
LINE
  5
7C8A
330
19
100
AcDbEntity
  8
1
100
AcDbLine
 10
3927.353067349756
 20
2970.576325143209
 30
0.0
 11
4012.353067349756
 21
2970.576325143209
 31
0.0
  0
LINE
  5
7C8B
330
19
100
AcDbEntity
  8
1
100
AcDbLine
 10
3927.353067349758
 20
2857.576325143209
 30
0.0
 11
4012.353067349756
 21
2857.576325143209
 31
0.0
  0
LINE
  5
7C8C
330
19
100
AcDbEntity
  8
1
100
AcDbLine
 10
3927.353067349756
 20
2637.576325143208
 30
0.0
 11
4012.353067349756
 21
2637.576325143208
 31
0.0
  0
LINE
  5
7C8D
330
19
100
AcDbEntity
  8
1
100
AcDbLine
 10
3839.353067349757
 20
2527.576325143208
 30
0.0
 11
4042.353067349756
 21
2527.576325143208
 31
0.0
  0
LINE
  5
7C8E
330
19
100
AcDbEntity
  8
1
100
AcDbLine
 10
4012.353067349756
 20
3224.576325143209
 30
0.0
 11
4012.353067349756
 21
2637.576325143208
 31
0.0
  0
INSERT
  5
7C8F
330
19
100
AcDbEntity
  8
0
100
AcDbBlockReference
  2
YA_N
 10
-36.73462870802178
 20
301.6536876033206
 30
0.0
 41
20.0
 42
20.0
 43
20.0
  0
INSERT
  5
7C91
330
19
100
AcDbEntity
  8
0
100
AcDbBlockReference
  2
YA_N
 10
77.48489664613953
 20
225.311977764075
 30
0.0
 41
20.0
 42
20.0
 43
20.0
  0
LINE
  5
7C93
330
19
100
AcDbEntity
  8
1
100
AcDbLine
 10
4002.653067349757
 20
2317.576325143208
 30
0.0
 11
5322.653067349756
 21
2317.576325143209
 31
0.0
1001
ACAD
1000
ASC_BOUNDS
1002
{
1070
    19
1002
}
  0
LINE
  5
7C94
330
19
100
AcDbEntity
  8
1
100
AcDbLine
 10
1475.595996518534
 20
2317.576325143209
 30
0.0
 11
3325.595996518534
 21
2317.576325143208
 31
0.0
1001
ACAD
1000
ASC_BOUNDS
1002
{
1070
    19
1002
}
  0
POINT
  5
7C95
330
19
100
AcDbEntity
  8
1
100
AcDbPoint
 10
1475.595996518534
 20
2317.576325143209
 30
0.0
  0
POINT
  5
7C96
330
19
100
AcDbEntity
  8
1
100
AcDbPoint
 10
1475.595996518534
 20
2217.576325143209
 30
0.0
  0
POINT
  5
7C97
330
19
100
AcDbEntity
  8
1
100
AcDbPoint
 10
1475.595996518534
 20
2317.576325143209
 30
0.0
  0
POINT
  5
7C98
330
19
100
AcDbEntity
  8
1
100
AcDbPoint
 10
1475.595996518534
 20
2397.576325143209
 30
0.0
  0
LINE
  5
7C99
330
19
100
AcDbEntity
  8
1
100
AcDbLine
 10
4002.653067349755
 20
2317.576325143208
 30
0.0
 11
4002.653067349757
 21
2217.576325143209
 31
0.0
  0
LINE
  5
7C9A
330
19
100
AcDbEntity
  8
1
100
AcDbLine
 10
5322.653067349756
 20
2317.576325143209
 30
0.0
 11
5322.653067349756
 21
2217.576325143209
 31
0.0
  0
DIMENSION
  5
7C9B
330
19
100
AcDbEntity
  8
3
100
AcDbDimension
280
     0
  2
*D6
 10
1129.326339340605
 20
2397.576325143209
 30
0.0
 11
1069.326339340605
 21
2747.576325143209
 31
0.0
 12
95.04785826418446
 22
1535.688709733727
 32
0.0
 70
    32
 71
     5
 42
-1.0
 73
     0
 74
     0
 75
     0
  3
MATSU
100
AcDbAlignedDimension
 13
1309.124204668143
 23
3097.576325143209
 33
0.0
 14
1475.595996518534
 24
2397.576325143209
 34
0.0
 50
90.0
100
AcDbRotatedDimension
1001
ACAD
1000
DSTYLE
1002
{
1070
    40
1040
30.0
1002
}
  0
POINT
  5
7C9C
330
19
100
AcDbEntity
  8
1
100
AcDbPoint
 10
1475.595996518534
 20
2317.576325143209
 30
0.0
  0
POINT
  5
7C9D
330
19
100
AcDbEntity
  8
1
100
AcDbPoint
 10
1475.595996518534
 20
2217.576325143209
 30
0.0
  0
POINT
  5
7C9E
330
19
100
AcDbEntity
  8
1
100
AcDbPoint
 10
1475.595996518534
 20
2317.576325143209
 30
0.0
  0
POINT
  5
7C9F
330
19
100
AcDbEntity
  8
1
100
AcDbPoint
 10
1475.595996518534
 20
2397.576325143209
 30
0.0
  0
LINE
  5
7CA0
330
19
100
AcDbEntity
  8
1
100
AcDbLine
 10
5269.653067349756
 20
3120.576325143209
 30
0.0
 11
5269.653067349756
 21
2497.576325143209
 31
0.0
  0
LINE
  5
7CA1
330
19
100
AcDbEntity
  8
1
100
AcDbLine
 10
4209.653067349756
 20
3120.576325143209
 30
0.0
 11
4209.653067349756
 21
2909.576325143209
 31
0.0
  0
LINE
  5
7CA2
330
19
100
AcDbEntity
  8
1
100
AcDbLine
 10
4209.653067349758
 20
3642.576325143209
 30
0.0
 11
4209.653067349758
 21
3120.576325143209
 31
0.0
  0
LINE
  5
7CA3
330
19
100
AcDbEntity
  8
1
100
AcDbLine
 10
4051.653067349757
 20
3127.57632514321
 30
0.0
 11
4209.653067349756
 21
3127.57632514321
 31
0.0
  0
LINE
  5
7CA4
330
19
100
AcDbEntity
  8
1
100
AcDbLine
 10
4051.653067349757
 20
3067.576325143209
 30
0.0
 11
4209.653067349756
 21
3067.576325143209
 31
0.0
  0
LINE
  5
7CA5
330
19
100
AcDbEntity
  8
1
100
AcDbLine
 10
4051.653067349758
 20
3127.57632514321
 30
0.0
 11
4051.653067349758
 21
3067.576325143208
 31
0.0
  0
LINE
  5
7CA6
330
19
100
AcDbEntity
  8
1
100
AcDbLine
 10
4012.353067349756
 20
3121.576325143209
 30
0.0
 11
4051.653067349758
 21
3121.576325143209
 31
0.0
  0
LINE
  5
7CA7
330
19
100
AcDbEntity
  8
1
100
AcDbLine
 10
4012.353067349756
 20
3073.576325143209
 30
0.0
 11
4051.653067349758
 21
3073.576325143209
 31
0.0
  0
LINE
  5
7CA8
330
19
100
AcDbEntity
  8
1
100
AcDbLine
 10
4196.653067349754
 20
3056.576325143209
 30
0.0
 11
4196.653067349756
 21
2909.576325143209
 31
0.0
  0
LINE
  5
7CA9
330
19
100
AcDbEntity
  8
1
100
AcDbLine
 10
4071.653067349756
 20
3046.576325143208
 30
0.0
 11
4071.653067349756
 21
2916.576325143209
 31
0.0
  0
LINE
  5
7CAA
330
19
100
AcDbEntity
  8
1
100
AcDbLine
 10
4081.653067349757
 20
3056.576325143209
 30
0.0
 11
4157.353067349757
 21
3056.576325143208
 31
0.0
  0
ARC
  5
7CAB
330
19
100
AcDbEntity
  8
1
100
AcDbCircle
 10
4081.653067349757
 20
3046.576325143208
 30
0.0
 40
10.0
100
AcDbArc
 50
90.0
 51
180.0
  0
ARC
  5
7CAC
330
19
100
AcDbEntity
  8
1
100
AcDbCircle
 10
4081.653067349757
 20
2916.576325143209
 30
0.0
 40
10.0
100
AcDbArc
 50
180.0
 51
224.4270040008037
  0
LINE
  5
7CAD
330
19
100
AcDbEntity
  8
1
100
AcDbLine
 10
4157.353067349757
 20
3056.576325143209
 30
0.0
 11
4196.653067349754
 21
3056.576325143208
 31
0.0
  0
LINE
  5
7CAE
330
19
100
AcDbEntity
  8
1
100
AcDbLine
 10
5309.453067349757
 20
2957.576325143208
 30
0.0
 11
5309.453067349757
 21
3077.576325143209
 31
0.0
  0
LINE
  5
7CAF
330
19
100
AcDbEntity
  8
1
100
AcDbLine
 10
5399.453067349758
 20
3067.576325143208
 30
0.0
 11
5399.453067349758
 21
2967.576325143208
 31
0.0
  0
LINE
  5
7CB0
330
19
100
AcDbEntity
  8
1
100
AcDbLine
 10
5309.453067349757
 20
3077.576325143209
 30
0.0
 11
5349.953067349756
 21
3077.576325143208
 31
0.0
  0
LINE
  5
7CB1
330
19
100
AcDbEntity
  8
1
100
AcDbLine
 10
5309.453067349757
 20
2957.576325143208
 30
0.0
 11
5349.953067349756
 21
2957.576325143208
 31
0.0
  0
ARC
  5
7CB2
330
19
100
AcDbEntity
  8
1
100
AcDbCircle
 10
5389.453067349758
 20
2967.576325143208
 30
0.0
 40
10.0
100
AcDbArc
 50
270.0
 51
0.0
  0
ARC
  5
7CB3
330
19
100
AcDbEntity
  8
1
100
AcDbCircle
 10
5389.453067349758
 20
3067.576325143208
 30
0.0
 40
10.0
100
AcDbArc
 50
0.0
 51
90.0
  0
LINE
  5
7CB4
330
19
100
AcDbEntity
  8
1
100
AcDbLine
 10
5349.953067349756
 20
2957.576325143208
 30
0.0
 11
5389.453067349758
 21
2957.576325143208
 31
0.0
  0
LINE
  5
7CB5
330
19
100
AcDbEntity
  8
1
100
AcDbLine
 10
5349.953067349756
 20
3077.576325143209
 30
0.0
 11
5389.453067349758
 21
3077.576325143208
 31
0.0
  0
DIMENSION
  5
7CB6
330
19
100
AcDbEntity
  8
3
100
AcDbDimension
280
     0
  2
*D7
 10
5520.448911284074
 20
3497.576325143209
 30
0.0
 11
5460.448911284075
 21
3097.576325143209
 31
0.0
 12
-174.2544377628874
 22
1535.688709733727
 32
0.0
 70
    32
  1
φ<>
 71
     5
 42
-1.0
 73
     0
 74
     0
 75
     0
  3
MATSU
100
AcDbAlignedDimension
 13
5271.953067349756
 23
2697.576325143208
 33
0.0
 14
5271.953067349756
 24
3497.576325143209
 34
0.0
 50
90.0
100
AcDbRotatedDimension
1001
ACAD
1000
DSTYLE
1002
{
1070
    40
1040
30.0
1002
}
  0
DIMENSION
  5
7CB7
330
19
100
AcDbEntity
  8
3
100
AcDbDimension
280
     0
  2
*D8
 10
4739.653067349757
 20
2066.473631611986
 30
0.0
 11
4371.153067349756
 21
2126.473631611985
 31
0.0
 70
    32
 71
     5
 42
737.0000000000008
 73
     0
 74
     0
 75
     0
  3
MATSU
100
AcDbAlignedDimension
 13
4002.653067349757
 23
2217.576325143209
 33
0.0
 14
4739.653067349757
 24
2217.576325143209
 34
0.0
100
AcDbRotatedDimension
1001
ACAD
1000
DSTYLE
1002
{
1070
    40
1040
30.0
1002
}
  0
DIMENSION
  5
7CB8
330
19
100
AcDbEntity
  8
3
100
AcDbDimension
280
     0
  2
*D9
 10
5322.653067349756
 20
2066.473631611986
 30
0.0
 11
5031.153067349756
 21
2126.473631611985
 31
0.0
 70
    32
 71
     5
 42
582.9999999999991
 73
     0
 74
     0
 75
     0
  3
MATSU
100
AcDbAlignedDimension
 13
4739.653067349757
 23
2217.576325143209
 33
0.0
 14
5322.653067349756
 24
2217.576325143209
 34
0.0
100
AcDbRotatedDimension
1001
ACAD
1000
DSTYLE
1002
{
1070
    40
1040
30.0
1002
}
  0
LINE
  5
7CBB
330
19
100
AcDbEntity
  8
1
100
AcDbLine
 10
3275.595996518535
 20
2537.576325143209
 30
0.0
 11
3275.595996518535
 21
2497.576325143209
 31
0.0
  0
ARC
  5
7CBC
330
19
100
AcDbEntity
  8
1
100
AcDbCircle
 10
1975.595996518534
 20
3097.576325143209
 30
0.0
 40
220.0
100
AcDbArc
 50
77.6919841825721
 51
257.6919841825721
  0
ARC
  5
7CBD
330
19
100
AcDbEntity
  8
1
100
AcDbCircle
 10
3075.595996518535
 20
2747.576325143209
 30
0.0
 40
220.0
100
AcDbArc
 50
257.6919841825721
 51
77.6919841825721
  0
LINE
  5
7CBE
330
19
100
AcDbEntity
  8
1
100
AcDbLine
 10
2022.492753066214
 20
3312.519792653408
 30
0.0
 11
3122.492753066215
 21
2962.519792653408
 31
0.0
  0
LINE
  5
7CBF
330
19
100
AcDbEntity
  8
1
100
AcDbLine
 10
2004.538669347978
 20
3221.234408944826
 30
0.0
 11
3100.664453299943
 21
2854.681752057996
 31
0.0
  0
LINE
  5
7CC0
330
19
100
AcDbEntity
  8
1
100
AcDbLine
 10
1950.400404787228
 20
2973.100696374725
 30
0.0
 11
3053.773043050475
 21
2639.762788414602
 31
0.0
  0
LINE
  5
7CC1
330
19
100
AcDbEntity
  8
1
100
AcDbLine
 10
1928.699239970854
 20
2882.632857633011
 30
0.0
 11
3028.699239970855
 21
2532.632857633011
 31
0.0
  0
DIMENSION
  5
7CC2
330
19
100
AcDbEntity
  8
3
100
AcDbDimension
280
     0
  2
*D10
 10
1975.595996518534
 20
2067.819733439874
 30
0.0
 11
2650.595996518534
 21
2127.819733439874
 31
0.0
 70
    32
 71
     5
 42
1350.0
 73
     0
 74
     0
 75
     0
  3
MATSU
100
AcDbAlignedDimension
 13
3325.595996518534
 23
2217.576325143209
 33
0.0
 14
1975.595996518534
 24
2217.576325143209
 34
0.0
100
AcDbRotatedDimension
1001
ACAD
1000
DSTYLE
1002
{
1070
    40
1040
30.0
1002
}
  0
POINT
  5
7CD2
330
19
100
AcDbEntity
  8
1
100
AcDbPoint
 10
5399.453067349758
 20
3067.576325143208
 30
0.0
  0
LINE
  5
7CD4
330
19
100
AcDbEntity
  8
1
100
AcDbLine
 10
3325.595996518534
 20
4968.86082640721
 30
0.0
 11
1475.595996518534
 21
4968.86082640721
 31
0.0
  0
LINE
  5
7CD5
330
19
100
AcDbEntity
  8
1
100
AcDbLine
 10
2475.595996518534
 20
6288.86082640721
 30
0.0
 11
1475.595996518534
 21
6288.86082640721
 31
0.0
  0
LINE
  5
7CD6
330
19
100
AcDbEntity
  8
1
100
AcDbLine
 10
1475.595996518534
 20
6288.86082640721
 30
0.0
 11
1475.595996518534
 21
6235.86082640721
 31
0.0
  0
LINE
  5
7CD7
330
19
100
AcDbEntity
  8
1
100
AcDbLine
 10
3325.595996518534
 20
5768.86082640721
 30
0.0
 11
3325.595996518534
 21
4968.86082640721
 31
0.0
  0
LINE
  5
7CD8
330
19
100
AcDbEntity
  8
1
100
AcDbLine
 10
2475.595996518534
 20
6288.86082640721
 30
0.0
 11
2475.595996518534
 21
6235.860826407209
 31
0.0
  0
LINE
  5
7CD9
330
19
100
AcDbEntity
  8
1
100
AcDbLine
 10
3325.595996518534
 20
5768.86082640721
 30
0.0
 11
2823.595996518535
 21
5768.86082640721
 31
0.0
  0
LINE
  5
7CDA
330
19
100
AcDbEntity
  8
2
100
AcDbLine
 10
2823.595996518535
 20
5705.860826407211
 30
0.0
 11
1384.108970148634
 21
5705.860826407209
 31
0.0
  0
LINE
  5
7CDB
330
19
100
AcDbEntity
  8
2
100
AcDbLine
 10
1975.595996518536
 20
6295.855367647398
 30
0.0
 11
1975.595996518534
 21
4782.151616996585
 31
0.0
  0
LINE
  5
7CDC
330
19
100
AcDbEntity
  8
2
100
AcDbLine
 10
3075.595996518534
 20
5508.090774035029
 30
0.0
 11
3075.595996518534
 21
4778.542266165021
 31
0.0
  0
DIMENSION
  5
7CDD
330
19
100
AcDbEntity
  8
3
100
AcDbDimension
280
     0
  2
*D11
 10
1475.595996518534
 20
6589.432737391074
 30
0.0
 11
1975.595996518534
 21
6649.432737391075
 31
0.0
 12
95.04785826418446
 22
1013.23791093961
 32
0.0
 70
    32
 71
     5
 42
-1.0
 73
     0
 74
     0
 75
     0
  3
MATSU
100
AcDbAlignedDimension
 13
2475.595996518534
 23
6288.86082640721
 33
0.0
 14
1475.595996518534
 24
6288.86082640721
 34
0.0
100
AcDbRotatedDimension
1001
ACAD
1000
DSTYLE
1002
{
1070
    40
1040
30.0
1002
}
  0
DIMENSION
  5
7CDE
330
19
100
AcDbEntity
  8
3
100
AcDbDimension
280
     0
  2
*D12
 10
2475.595996518534
 20
6589.432737391074
 30
0.0
 11
2900.595996518534
 21
6649.432737391075
 31
0.0
 12
95.04785826418446
 22
1013.23791093961
 32
0.0
 70
    32
 71
     5
 42
-1.0
 73
     0
 74
     0
 75
     0
  3
MATSU
100
AcDbAlignedDimension
 13
3325.595996518534
 23
5768.86082640721
 33
0.0
 14
2475.595996518534
 24
6288.86082640721
 34
0.0
100
AcDbRotatedDimension
1001
ACAD
1000
DSTYLE
1002
{
1070
    40
1040
30.0
1002
}
  0
DIMENSION
  5
7CDF
330
19
100
AcDbEntity
  8
3
100
AcDbDimension
280
     0
  2
*D13
 10
1176.104077903608
 20
4968.86082640721
 30
0.0
 11
1116.104077903608
 21
5628.86082640721
 31
0.0
 12
95.04785826418446
 22
1013.23791093961
 32
0.0
 70
    32
 71
     5
 42
-1.0
 73
     0
 74
     0
 75
     0
  3
MATSU
100
AcDbAlignedDimension
 13
1475.595996518534
 23
6288.86082640721
 33
0.0
 14
1475.595996518534
 24
4968.86082640721
 34
0.0
 50
270.0
100
AcDbRotatedDimension
1001
ACAD
1000
DSTYLE
1002
{
1070
    40
1040
30.0
1002
}
  0
DIMENSION
  5
7CE0
330
19
100
AcDbEntity
  8
3
100
AcDbDimension
280
     0
  2
*D14
 10
3627.502059846629
 20
4968.86082640721
 30
0.0
 11
3567.502059846629
 21
5368.86082640721
 31
0.0
 12
95.04785826418446
 22
1013.23791093961
 32
0.0
 70
    32
 71
     5
 42
-1.0
 73
     0
 74
     0
 75
     0
  3
MATSU
100
AcDbAlignedDimension
 13
3325.595996518534
 23
5768.86082640721
 33
0.0
 14
3325.595996518534
 24
4968.86082640721
 34
0.0
 50
270.0
100
AcDbRotatedDimension
1001
ACAD
1000
DSTYLE
1002
{
1070
    40
1040
30.0
1002
}
  0
DIMENSION
  5
7CE1
330
19
100
AcDbEntity
  8
3
100
AcDbDimension
280
     0
  2
*D15
 10
1475.595996518534
 20
4626.686350710325
 30
0.0
 11
2400.595996518534
 21
4626.686350710325
 31
0.0
 12
95.04785826418446
 22
1013.23791093961
 32
0.0
 70
   160
 71
     5
 42
-1.0
 73
     0
 74
     0
 75
     0
  3
MATSU
100
AcDbAlignedDimension
 13
3325.595996518534
 23
4968.86082640721
 33
0.0
 14
1475.595996518534
 24
4968.86082640721
 34
0.0
100
AcDbRotatedDimension
1001
ACAD
1000
DSTYLE
1002
{
1070
    40
1040
30.0
1002
}
  0
CIRCLE
  5
7CE2
330
19
100
AcDbEntity
  8
1
100
AcDbCircle
 10
1975.595996518534
 20
3097.576325143209
 30
0.0
 40
400.0
  0
CIRCLE
  5
7CE3
330
19
100
AcDbEntity
  8
1
100
AcDbCircle
 10
1975.595996518534
 20
3097.576325143209
 30
0.0
 40
440.0
  0
LINE
  5
7CE4
330
19
100
AcDbEntity
  8
1
100
AcDbLine
 10
4169.653067349758
 20
3642.57632514321
 30
0.0
 11
5309.653067349755
 21
3642.57632514321
 31
0.0
  0
DIMENSION
  5
7CE5
330
19
100
AcDbEntity
  8
3
100
AcDbDimension
280
     0
  2
*D16
 10
5269.653067349756
 20
3749.508569495524
 30
0.0
 11
4739.653067349756
 21
3749.508569495524
 31
0.0
 12
-174.2544377628874
 22
1535.688709733727
 32
0.0
 70
   160
 71
     5
 42
-1.0
 73
     0
 74
     0
 75
     0
  3
MATSU
100
AcDbAlignedDimension
 13
4209.653067349758
 23
3642.576325143209
 33
0.0
 14
5269.653067349756
 24
3642.57632514321
 34
0.0
100
AcDbRotatedDimension
1001
ACAD
1000
DSTYLE
1002
{
1070
    40
1040
30.0
1002
}
  0
DIMENSION
  5
7CE7
330
19
100
AcDbEntity
  8
3
100
AcDbDimension
280
     0
  2
*D17
 10
1129.326339340605
 20
2217.576325143209
 30
0.0
 11
1054.326339340605
 21
1960.433468000352
 31
0.0
 70
    32
 71
     5
 42
100.0
 73
     0
 74
     0
 75
     0
  3
IGA
100
AcDbAlignedDimension
 13
1475.595996518534
 23
2317.576325143209
 33
0.0
 14
1475.595996518534
 24
2217.576325143209
 34
0.0
 50
270.0
100
AcDbRotatedDimension
1001
ACAD
1000
DSTYLE
1002
{
1070
   287
1070
     3
1070
    40
1040
30.0
1070
   143
1040
0.039
1070
   172
1070
     1
1070
   271
1070
     0
1070
   279
1070
     0
1070
   288
1070
     1
1070
     6
1000
DOT
1002
}
  0
LINE
  5
7CE8
330
19
100
AcDbEntity
  8
1
100
AcDbLine
 10
2823.595996518535
 20
6235.860826407209
 30
0.0
 11
1430.595996518535
 21
6235.86082640721
 31
0.0
  0
LINE
  5
7CE9
330
19
100
AcDbEntity
  8
1
100
AcDbLine
 10
2823.595996518535
 20
5175.860826407212
 30
0.0
 11
1430.595996518534
 21
5175.860826407209
 31
0.0
  0
LINE
  5
7CEA
330
19
100
AcDbEntity
  8
1
100
AcDbLine
 10
1945.595996518536
 20
5175.86082640721
 30
0.0
 11
1945.595996518534
 21
4935.860826407208
 31
0.0
  0
LINE
  5
7CEB
330
19
100
AcDbEntity
  8
1
100
AcDbLine
 10
2005.595996518536
 20
5175.86082640721
 30
0.0
 11
2005.595996518534
 21
4935.860826407208
 31
0.0
  0
LINE
  5
7CEC
330
19
100
AcDbEntity
  8
1
100
AcDbLine
 10
3295.595996518535
 20
4805.860826407212
 30
0.0
 11
1755.595996518536
 21
4805.860826407208
 31
0.0
  0
LINE
  5
7CED
330
19
100
AcDbEntity
  8
1
100
AcDbLine
 10
3295.595996518535
 20
4965.860826407211
 30
0.0
 11
1755.595996518536
 21
4965.860826407208
 31
0.0
  0
LINE
  5
7CEE
330
19
100
AcDbEntity
  8
1
100
AcDbLine
 10
1755.595996518534
 20
4805.860826407209
 30
0.0
 11
1755.595996518534
 21
4965.860826407209
 31
0.0
  0
LINE
  5
7CEF
330
19
100
AcDbEntity
  8
1
100
AcDbLine
 10
3295.595996518535
 20
4805.860826407212
 30
0.0
 11
3295.595996518535
 21
4965.860826407212
 31
0.0
  0
LINE
  5
7CF0
330
19
100
AcDbEntity
  8
1
100
AcDbLine
 10
3185.595996518534
 20
4850.860826407211
 30
0.0
 11
2965.595996518534
 21
4850.86082640721
 31
0.0
  0
LINE
  5
7CF1
330
19
100
AcDbEntity
  8
1
100
AcDbLine
 10
3185.595996518534
 20
4935.860826407211
 30
0.0
 11
2965.595996518534
 21
4935.860826407211
 31
0.0
  0
LINE
  5
7CF2
330
19
100
AcDbEntity
  8
1
100
AcDbLine
 10
1848.595996518536
 20
4935.860826407208
 30
0.0
 11
1848.595996518534
 21
4850.86082640721
 31
0.0
  0
LINE
  5
7CF3
330
19
100
AcDbEntity
  8
1
100
AcDbLine
 10
2102.595996518536
 20
4935.860826407209
 30
0.0
 11
2102.595996518534
 21
4850.86082640721
 31
0.0
  0
LINE
  5
7CF4
330
19
100
AcDbEntity
  8
1
100
AcDbLine
 10
2965.595996518534
 20
4935.860826407211
 30
0.0
 11
2965.595996518534
 21
4850.86082640721
 31
0.0
  0
LINE
  5
7CF5
330
19
100
AcDbEntity
  8
1
100
AcDbLine
 10
3185.595996518534
 20
4935.860826407211
 30
0.0
 11
3185.595996518534
 21
4850.860826407211
 31
0.0
  0
LINE
  5
7CF6
330
19
100
AcDbEntity
  8
1
100
AcDbLine
 10
2102.595996518534
 20
4850.86082640721
 30
0.0
 11
1848.595996518536
 21
4850.860826407208
 31
0.0
  0
LINE
  5
7CF7
330
19
100
AcDbEntity
  8
1
100
AcDbLine
 10
2102.595996518536
 20
4935.860826407209
 30
0.0
 11
1848.595996518536
 21
4935.860826407209
 31
0.0
  0
LINE
  5
7CF8
330
19
100
AcDbEntity
  8
1
100
AcDbLine
 10
2913.595996518534
 20
5453.86082640721
 30
0.0
 11
2913.595996518534
 21
4968.860826407212
 31
0.0
  0
LINE
  5
7CF9
330
19
100
AcDbEntity
  8
1
100
AcDbLine
 10
3237.595996518534
 20
5453.86082640721
 30
0.0
 11
3237.595996518534
 21
4968.860826407212
 31
0.0
  0
LINE
  5
7CFA
330
19
100
AcDbEntity
  8
1
100
AcDbLine
 10
3237.595996518534
 20
5453.860826407211
 30
0.0
 11
2913.595996518534
 21
5453.860826407211
 31
0.0
  0
LINE
  5
7CFB
330
19
100
AcDbEntity
  8
1
100
AcDbLine
 10
3325.595996518534
 20
4968.860826407211
 30
0.0
 11
2913.595996518534
 21
4968.860826407211
 31
0.0
  0
LINE
  5
7CFC
330
19
100
AcDbEntity
  8
1
100
AcDbLine
 10
3054.595996518534
 20
4968.86082640721
 30
0.0
 11
3054.595996518534
 21
4935.860826407211
 31
0.0
  0
LINE
  5
7CFD
330
19
100
AcDbEntity
  8
1
100
AcDbLine
 10
3096.595996518534
 20
4968.86082640721
 30
0.0
 11
3096.595996518534
 21
4935.860826407211
 31
0.0
  0
LINE
  5
7CFE
330
19
100
AcDbEntity
  8
1
100
AcDbLine
 10
4209.653067349755
 20
2909.576325143209
 30
0.0
 11
4196.653067349754
 21
2909.576325143209
 31
0.0
  0
LINE
  5
7CFF
330
19
100
AcDbEntity
  8
1
100
AcDbLine
 10
4530.353067349756
 20
2585.576325143208
 30
0.0
 11
4045.353067349757
 21
2585.576325143209
 31
0.0
  0
LINE
  5
7D00
330
19
100
AcDbEntity
  8
1
100
AcDbLine
 10
4045.353067349756
 20
2909.576325143209
 30
0.0
 11
4045.353067349756
 21
2585.576325143209
 31
0.0
  0
LINE
  5
7D01
330
19
100
AcDbEntity
  8
1
100
AcDbLine
 10
4045.353067349755
 20
2726.576325143209
 30
0.0
 11
4012.353067349756
 21
2726.576325143209
 31
0.0
  0
LINE
  5
7D02
330
19
100
AcDbEntity
  8
1
100
AcDbLine
 10
4530.353067349756
 20
2909.576325143209
 30
0.0
 11
4045.353067349757
 21
2909.576325143209
 31
0.0
  0
DIMENSION
  5
7D09
330
19
100
AcDbEntity
  8
3
100
AcDbDimension
280
     0
  2
*D18
 10
1129.326339340605
 20
3642.576325143208
 30
0.0
 11
1069.326339340604
 21
3370.076325143209
 31
0.0
 70
    32
 71
     5
 42
-1.0
 73
     0
 74
     0
 75
     0
  3
MATSU
100
AcDbAlignedDimension
 13
1309.124204668143
 23
3097.576325143209
 33
0.0
 14
1956.095996518534
 24
3642.576325143208
 34
0.0
 50
270.0
100
AcDbRotatedDimension
1001
ACAD
1000
DSTYLE
1002
{
1070
   287
1070
     4
1070
    40
1040
30.0
1070
    75
1070
     1
1070
   279
1070
     1
1070
   289
1070
     3
1002
}
  0
DIMENSION
  5
7D0B
330
19
100
AcDbEntity
  8
3
100
AcDbDimension
280
     0
  2
*D19
 10
1417.595996518534
 20
3943.205071259075
 30
0.0
 11
1696.595996518534
 21
4003.205071259075
 31
0.0
 70
    32
 71
     5
 42
557.9999999999995
 73
     0
 74
     0
 75
     0
  3
MATSU
100
AcDbAlignedDimension
 13
1975.595996518534
 23
3764.048116993599
 33
0.0
 14
1417.595996518534
 24
3038.576325143209
 34
0.0
100
AcDbRotatedDimension
1001
ACAD
1000
DSTYLE
1002
{
1070
   287
1070
     4
1070
    40
1040
30.0
1070
    75
1070
     1
1070
   279
1070
     1
1070
   289
1070
     3
1002
}
  0
DIMENSION
  5
7D0C
330
19
100
AcDbEntity
  8
3
100
AcDbDimension
280
     0
  2
*D20
 10
3325.595996518534
 20
4114.626822945536
 30
0.0
 11
2371.595996518534
 21
4174.626822945536
 31
0.0
 70
    32
 71
     5
 42
1907.999999999999
 73
     0
 74
     0
 75
     0
  3
MATSU
100
AcDbAlignedDimension
 13
1417.595996518534
 23
3038.576325143209
 33
0.0
 14
3325.595996518534
 24
2497.576325143209
 34
0.0
100
AcDbRotatedDimension
1001
ACAD
1000
DSTYLE
1002
{
1070
    40
1040
30.0
1002
}
  0
LINE
  5
7D0D
330
19
100
AcDbEntity
  8
1
100
AcDbLine
 10
4169.653067349758
 20
3642.576325143209
 30
0.0
 11
4169.653067349758
 21
3639.57632514321
 31
0.0
  0
LINE
  5
7D0E
330
19
100
AcDbEntity
  8
1
100
AcDbLine
 10
5309.653067349756
 20
3642.576325143209
 30
0.0
 11
5309.653067349757
 21
3639.57632514321
 31
0.0
  0
LINE
  5
7D0F
330
19
100
AcDbEntity
  8
1
100
AcDbLine
 10
4169.653067349758
 20
3639.57632514321
 30
0.0
 11
5309.653067349755
 21
3639.57632514321
 31
0.0
  0
LINE
  5
7D10
330
19
100
AcDbEntity
  8
1
100
AcDbLine
 10
2823.595996518535
 20
6235.860826407209
 30
0.0
 11
2823.595996518535
 21
5175.860826407212
 31
0.0
  0
LINE
  5
7D11
330
19
100
AcDbEntity
  8
1
100
AcDbLine
 10
1430.595996518534
 20
6235.86082640721
 30
0.0
 11
1430.595996518534
 21
5175.860826407209
 31
0.0
  0
LINE
  5
7D12
330
19
100
AcDbEntity
  8
1
100
AcDbLine
 10
1998.595996518536
 20
6235.860826407209
 30
0.0
 11
1998.595996518536
 21
5175.860826407212
 31
0.0
  0
LINE
  5
7D13
330
19
100
AcDbEntity
  8
1
100
AcDbLine
 10
1998.595996518536
 20
6235.86082640721
 30
0.0
 11
2823.595996518535
 21
5175.860826407212
 31
0.0
  0
LINE
  5
7D14
330
19
100
AcDbEntity
  8
1
100
AcDbLine
 10
2823.595996518535
 20
6235.860826407209
 30
0.0
 11
1998.595996518536
 21
5175.86082640721
 31
0.0
  0
LINE
  5
7D15
330
19
100
AcDbEntity
  8
1
100
AcDbLine
 10
1475.595996518534
 20
5175.86082640721
 30
0.0
 11
1475.595996518534
 21
4968.86082640721
 31
0.0
  0
LINE
  5
7D16
330
19
100
AcDbEntity
  8
1
100
AcDbLine
 10
4530.353067349756
 20
2909.576325143209
 30
0.0
 11
4530.353067349756
 21
2585.576325143209
 31
0.0
  0
LINE
  5
7D17
330
19
100
AcDbEntity
  8
1
100
AcDbLine
 10
4045.353067349755
 20
2768.576325143208
 30
0.0
 11
4012.353067349756
 21
2768.576325143208
 31
0.0
  0
LINE
  5
7D18
330
19
100
AcDbEntity
  8
1
100
AcDbLine
 10
4107.996190618549
 20
2537.576325143208
 30
0.0
 11
4492.519459243381
 21
2537.576325143209
 31
0.0
  0
LINE
  5
7D19
330
19
100
AcDbEntity
  8
1
100
AcDbLine
 10
4492.519459243381
 20
2585.576325143208
 30
0.0
 11
4492.519459243381
 21
2497.576325143208
 31
0.0
  0
LINE
  5
7D1A
330
19
100
AcDbEntity
  8
1
100
AcDbLine
 10
4107.996190618549
 20
2585.576325143209
 30
0.0
 11
4107.996190618549
 21
2497.576325143208
 31
0.0
  0
LINE
  5
7F19
330
19
100
AcDbEntity
  8
4
100
AcDbLine
 10
5550.0
 20
1500.0
 30
0.0
 11
5550.0
 21
900.0
 31
0.0
  0
LINE
  5
7F1A
330
19
100
AcDbEntity
  8
4
100
AcDbLine
 10
3450.0
 20
1500.0
 30
0.0
 11
3450.0
 21
900.0
 31
0.0
  0
LINE
  5
7F1B
330
19
100
AcDbEntity
  8
4
100
AcDbLine
 10
1950.0
 20
1500.0
 30
0.0
 11
1950.0
 21
900.0
 31
0.0
  0
LINE
  5
7F1E
330
19
100
AcDbEntity
  8
4
100
AcDbLine
 10
1950.0
 20
900.0
 30
0.0
 11
5550.0
 21
900.0
 31
0.0
  0
LINE
  5
7F1F
330
19
100
AcDbEntity
  8
4
100
AcDbLine
 10
1950.0
 20
1200.0
 30
0.0
 11
5550.0
 21
1200.0
 31
0.0
  0
TEXT
  5
7F20
330
19
100
AcDbEntity
  8
4
100
AcDbText
 10
2065.506242540705
 20
1294.629077599839
 30
0.0
 40
150.0
  1
機器名称
100
AcDbText
  0
TEXT
  5
7F21
330
19
100
AcDbEntity
  8
4
100
AcDbText
 10
2058.774318074393
 20
964.9354701960328
 30
0.0
 40
150.0
  1
機器型番
100
AcDbText
  0
TEXT
  5
7F22
330
19
100
AcDbEntity
  8
4
100
AcDbText
 10
3534.535605031474
 20
1265.898539312742
 30
0.0
 40
120.0
  1
ミツヤリミットロードファン
100
AcDbText
  0
TEXT
  5
7F23
330
19
100
AcDbEntity
  8
4
100
AcDbText
 10
3559.963486756442
 20
951.4787528398301
 30
0.0
 40
150.0
  1
LL#5-5
100
AcDbText
  0
TEXT
  5
7F25
330
19
100
AcDbEntity
  8
4
100
AcDbText
 10
2365.848451817448
 20
7150.286523997547
 30
0.0
 40
161.9999999999999
  1
床置防振ベット
100
AcDbText
  0
TEXT
  5
7F26
330
19
100
AcDbEntity
  8
4
100
AcDbText
 10
948.5027799883392
 20
7601.642928597894
 30
0.0
 40
216.0
  1
遠心式両吸込両持リミットロードファン
100
AcDbText
  0
LINE
  5
7F27
330
19
100
AcDbEntity
  8
4
100
AcDbLine
 10
750.0
 20
7408.226262794414
 30
0.0
 11
5550.0
 21
7408.226262794414
 31
0.0
  0
LINE
  5
7F28
330
19
100
AcDbEntity
  8
4
100
AcDbLine
 10
750.0
 20
8008.226262794414
 30
0.0
 11
5550.0
 21
8008.226262794414
 31
0.0
  0
LINE
  5
7F29
330
19
100
AcDbEntity
  8
4
100
AcDbLine
 10
1950.0
 20
1500.0
 30
0.0
 11
5550.0
 21
1500.0
 31
0.0
  0
LINE
  5
7F2A
330
19
100
AcDbEntity
  8
4
100
AcDbLine
 10
750.0
 20
8008.226262794414
 30
0.0
 11
750.0
 21
7408.226262794414
 31
0.0
  0
TEXT
  5
7F2B
330
19
100
AcDbEntity
  8
4
100
AcDbText
 10
1169.16112306423
 20
7146.95843263903
 30
0.0
 40
161.9999999999999
  1
左回転上向
100
AcDbText
  0
TEXT
  5
7F2C
330
19
100
AcDbEntity
  8
4
100
AcDbText
 10
4406.908677747869
 20
8118.183244485926
 30
0.0
 40
168.0
  1
No.
100
AcDbText
  0
TEXT
  5
7F2D
330
19
100
AcDbEntity
  8
4
100
AcDbText
 10
3933.88818780004
 20
7150.286523997547
 30
0.0
 40
161.9999999999999
  1
縮尺：1/30
100
AcDbText
  0
LINE
  5
7F2E
330
19
100
AcDbEntity
  8
4
100
AcDbLine
 10
5550.0
 20
8008.226262794414
 30
0.0
 11
5550.0
 21
7408.226262794414
 31
0.0
  0
LINE
  5
7F2F
330
19
100
AcDbEntity
  8
4
100
AcDbLine
 10
6300.0
 20
8850.0
 30
0.0
 11
6300.0
 21
8850.0
 31
0.0
  0
LINE
  5
7F30
330
19
100
AcDbEntity
  8
4
100
AcDbLine
 10
4321.852267079594
 20
8043.790749376205
 30
0.0
 11
4321.852267079594
 21
8359.956784649257
 31
0.0
  0
LINE
  5
7F31
330
19
100
AcDbEntity
  8
4
100
AcDbLine
 10
4321.852267079594
 20
8359.956784649257
 30
0.0
 11
5550.0
 21
8359.956784649257
 31
0.0
  0
LINE
  5
7F32
330
19
100
AcDbEntity
  8
4
100
AcDbLine
 10
5550.0
 20
8359.956784649257
 30
0.0
 11
5550.0
 21
8043.790749376205
 31
0.0
  0
LINE
  5
7F33
330
19
100
AcDbEntity
  8
4
100
AcDbLine
 10
5550.0
 20
8043.790749376205
 30
0.0
 11
4321.852267079594
 21
8043.790749376205
 31
0.0
  0
LINE
  5
7F34
330
19
100
AcDbEntity
  8
4
100
AcDbLine
 10
0.0
 20
0.0
 30
0.0
 11
0.0
 21
8850.0
 31
0.0
  0
LINE
  5
7F35
330
19
100
AcDbEntity
  8
4
100
AcDbLine
 10
0.0
 20
8850.0
 30
0.0
 11
6300.0
 21
8850.0
 31
0.0
  0
LINE
  5
7F36
330
19
100
AcDbEntity
  8
4
100
AcDbLine
 10
6300.0
 20
8850.0
 30
0.0
 11
6300.0
 21
0.0
 31
0.0
  0
LINE
  5
7F37
330
19
100
AcDbEntity
  8
4
100
AcDbLine
 10
6300.0
 20
0.0
 30
0.0
 11
0.0
 21
0.0
 31
0.0
  0
DIMENSION
  5
8000
330
19
100
AcDbEntity
  8
3
100
AcDbDimension
280
     0
  2
*D23
 10
1131.063773049434
 20
2397.576325143209
 30
0.0
 11
987.4923444780057
 21
2357.57632514321
 31
0.0
 70
    32
 71
     5
 42
80.0
 73
     0
 74
     0
 75
     0
  3
IGA
100
AcDbAlignedDimension
 13
1475.595996518534
 23
2317.576325143209
 33
0.0
 14
1475.595996518534
 24
2397.576325143209
 34
0.0
 50
90.0
100
AcDbRotatedDimension
1001
ACAD
1000
DSTYLE
1002
{
1070
   172
1070
     1
1070
    76
1070
     1
1070
    75
1070
     1
1070
    40
1040
30.0
1070
     3
1000
(<>)
1070
   271
1070
     0
1070
     7
1000
_NONE
1070
     6
1000
_NONE
1070
   143
1040
0.039
1002
}
  0
DIMENSION
  5
800D
330
19
100
AcDbEntity
  8
3
100
AcDbDimension
280
     0
  2
*D24
 10
881.4404632270962
 20
2217.576325143209
 30
0.0
 11
782.8690346556673
 21
2930.076325143209
 31
0.0
 70
    32
 71
     5
 42
1424.999999999999
 73
     0
 74
     0
 75
     0
  3
IGA
100
AcDbAlignedDimension
 13
1956.095996518534
 23
3642.576325143208
 33
0.0
 14
1475.595996518534
 24
2217.576325143209
 34
0.0
 50
90.0
100
AcDbRotatedDimension
1001
ACAD
1000
DSTYLE
1002
{
1070
   172
1070
     1
1070
    40
1040
30.0
1070
     3
1000
(<>)
1070
   271
1070
     0
1070
   143
1040
0.039
1002
}
  0
ARC
  5
81F9
330
19
100
AcDbEntity
  8
FUTO
100
AcDbCircle
 10
1928.095996518534
 20
3050.076325143209
 30
0.0
 40
510.5
100
AcDbArc
 50
90.0
 51
180.0
  0
LINE
  5
81FA
330
19
100
AcDbEntity
  8
FUTO
100
AcDbLine
 10
2823.595996518534
 20
3642.57632514321
 30
0.0
 11
2767.224142306014
 21
3097.576325143209
 31
0.0
  0
ARC
  5
81FB
330
19
100
AcDbEntity
  8
FUTO
100
AcDbCircle
 10
2034.595996518534
 20
3038.576325143209
 30
0.0
 40
617.0
100
AcDbArc
 50
180.0
 51
241.2615071564575
  0
ARC
  5
81FC
330
19
100
AcDbEntity
  8
FUTO
100
AcDbCircle
 10
2034.595996518534
 20
3156.576325143209
 30
0.0
 40
735.0
100
AcDbArc
 50
296.2854859568649
 51
355.3957932734477
  0
LINE
  5
81FD
330
19
100
AcDbEntity
  8
FUTO
100
AcDbLine
 10
1417.595996518534
 20
3038.576325143209
 30
0.0
 11
1417.595996518534
 21
3050.076325143209
 31
0.0
  0
ARC
  5
81FE
330
19
100
AcDbEntity
  8
FUTO
100
AcDbCircle
 10
1945.095996518534
 20
3128.076325143209
 30
0.0
 40
432.5
100
AcDbArc
 50
82.89434475270285
 51
90.0
  0
LINE
  5
81FF
330
19
100
AcDbEntity
  8
FUTO
100
AcDbLine
 10
1998.595996518534
 20
3557.254609775599
 30
0.0
 11
1998.595996518534
 21
3642.57632514321
 31
0.0
  0
LINE
  5
8200
330
19
100
AcDbEntity
  8
FUTO
100
AcDbLine
 10
1928.095996518534
 20
3560.576325143209
 30
0.0
 11
1945.095996518534
 21
3560.576325143209
 31
0.0
  0
LINE
  5
8201
330
19
100
AcDbEntity
  8
1
100
AcDbLine
 10
2866.095996518534
 20
3642.57632514321
 30
0.0
 11
1956.095996518534
 21
3642.576325143207
 31
0.0
  0
LINE
  5
8202
330
19
100
AcDbEntity
  8
1
100
AcDbLine
 10
2866.095996518534
 20
3642.57632514321
 30
0.0
 11
2866.095996518534
 21
3639.57632514321
 31
0.0
  0
LINE
  5
8203
330
19
100
AcDbEntity
  8
1
100
AcDbLine
 10
1956.095996518534
 20
3642.576325143207
 30
0.0
 11
1956.095996518534
 21
3639.576325143207
 31
0.0
  0
LINE
  5
8204
330
19
100
AcDbEntity
  8
1
100
AcDbLine
 10
2820.194901748111
 20
3602.576325143209
 30
0.0
 11
1998.595996518534
 21
3602.576325143207
 31
0.0
  0
LINE
  5
8205
330
19
100
AcDbEntity
  8
1
100
AcDbLine
 10
2866.095996518534
 20
3639.57632514321
 30
0.0
 11
1956.095996518534
 21
3639.576325143207
 31
0.0
  0
POINT
  5
8206
330
19
100
AcDbEntity
  8
1
100
AcDbPoint
 10
1975.595996518534
 20
3662.794235812231
 30
0.0
 50
270.0
  0
POINT
  5
8207
330
19
100
AcDbEntity
  8
1
100
AcDbPoint
 10
1975.595996518534
 20
3662.794235812231
 30
0.0
 50
270.0
  0
DIMENSION
  5
8304
330
19
100
AcDbEntity
  8
3
100
AcDbDimension
280
     0
  2
*D47
 10
4739.653067349756
 20
4087.450431593341
 30
0.0
 11
4289.503067349756
 21
4186.021860164769
 31
0.0
 70
    32
 71
     5
 42
900.3000000000001
 73
     0
 74
     0
 75
     0
  3
IGA
100
AcDbAlignedDimension
 13
3839.353067349757
 23
3317.576325143209
 33
0.0
 14
4739.653067349756
 24
3854.508569495524
 34
0.0
100
AcDbRotatedDimension
1001
ACAD
1000
DSTYLE
1002
{
1070
     3
1000
(<>)
1070
    40
1040
30.0
1070
   143
1040
0.039
1070
   172
1070
     1
1070
   271
1070
     0
1002
}
  0
DIMENSION
  5
8311
330
19
100
AcDbEntity
  8
3
100
AcDbDimension
280
     0
  2
*D48
 10
5399.453067349758
 20
4087.450431593341
 30
0.0
 11
5069.553067349757
 21
4186.021860164769
 31
0.0
 70
    32
 71
     5
 42
659.8000000000011
 73
     0
 74
     0
 75
     0
  3
IGA
100
AcDbAlignedDimension
 13
4739.653067349756
 23
3854.508569495524
 33
0.0
 14
5399.453067349758
 24
3067.576325143208
 34
0.0
100
AcDbRotatedDimension
1001
ACAD
1000
DSTYLE
1002
{
1070
     3
1000
(<>)
1070
    40
1040
30.0
1070
   143
1040
0.039
1070
   172
1070
     1
1070
   271
1070
     0
1002
}
  0
ENDSEC
  0
SECTION
  2
OBJECTS
  0
DICTIONARY
  5
C
330
0
100
AcDbDictionary
281
     1
  3
ACAD_CIP_PREVIOUS_PRODUCT_INFO
350
80C3
  3
ACAD_COLOR
350
80A6
  3
ACAD_DETAILVIEWSTYLE
350
80BF
  3
ACAD_GROUP
350
D
  3
ACAD_LAYOUT
350
8017
  3
ACAD_MATERIAL
350
8074
  3
ACAD_MLEADERSTYLE
350
80BB
  3
ACAD_MLINESTYLE
350
E
  3
ACAD_PLOTSETTINGS
350
8018
  3
ACAD_PLOTSTYLENAME
350
8015
  3
ACAD_SCALELIST
350
80A9
  3
ACAD_SECTIONVIEWSTYLE
350
80BD
  3
ACAD_TABLESTYLE
350
80A7
  3
ACAD_VISUALSTYLE
350
808D
  3
ACDB_RECOMPOSE_DATA
350
83A6
  3
AcDbVariableDictionary
350
806C
  3
AcDsDecomposeData
350
83AC
  0
DICTIONARY
  5
814D
330
2
100
AcDbDictionary
280
     1
281
     1
  3
ACAD_LAYERSTATES
360
814E
  0
DICTIONARY
  5
837F
330
F
100
AcDbDictionary
280
     1
281
     1
  3
ADSK_XREC_LAYER_RECONCILED
360
8380
  0
DICTIONARY
  5
8381
330
31
100
AcDbDictionary
280
     1
281
     1
  3
ADSK_XREC_LAYER_RECONCILED
360
8382
  0
DICTIONARY
  5
8383
330
76D0
100
AcDbDictionary
280
     1
281
     1
  3
ADSK_XREC_LAYER_RECONCILED
360
8384
  0
DICTIONARY
  5
8385
330
76D1
100
AcDbDictionary
280
     1
281
     1
  3
ADSK_XREC_LAYER_RECONCILED
360
8386
  0
DICTIONARY
  5
8387
330
76D2
100
AcDbDictionary
280
     1
281
     1
  3
ADSK_XREC_LAYER_RECONCILED
360
8388
  0
DICTIONARY
  5
814B
330
814A
100
AcDbDictionary
280
     1
281
     1
  3
ADSK_XREC_LAYER_RECONCILED
360
8389
  0
DICTIONARY
  5
8044
330
19
100
AcDbDictionary
280
     1
281
     1
  3
ACAD_LAYOUTSELFREF
360
8045
  0
DICTIONARY
  5
8042
330
16
100
AcDbDictionary
280
     1
281
     1
  3
ACAD_LAYOUTSELFREF
360
8043
  0
XRECORD
  5
80C3
102
{ACAD_REACTORS
330
C
102
}
330
C
100
AcDbXrecord
280
     1
300
ACDLT
300
2023
300

  0
DICTIONARY
  5
80A6
102
{ACAD_REACTORS
330
C
102
}
330
C
100
AcDbDictionary
281
     1
  0
DICTIONARY
  5
80BF
102
{ACAD_REACTORS
330
C
102
}
330
C
100
AcDbDictionary
281
     1
  3
Metric50
350
80C0
  0
DICTIONARY
  5
D
102
{ACAD_REACTORS
330
C
102
}
330
C
100
AcDbDictionary
281
     1
  0
DICTIONARY
  5
8017
102
{ACAD_REACTORS
330
C
102
}
330
C
100
AcDbDictionary
281
     1
  3
Model
350
8019
  3
ﾚｲｱｳﾄ1
350
801A
  0
DICTIONARY
  5
8074
102
{ACAD_REACTORS
330
C
102
}
330
C
100
AcDbDictionary
281
     1
  3
ByBlock
350
807D
  3
ByLayer
350
8075
  3
Global
350
8085
  0
DICTIONARY
  5
80BB
102
{ACAD_REACTORS
330
C
102
}
330
C
100
AcDbDictionary
281
     1
  3
Standard
350
80BC
  0
DICTIONARY
  5
E
102
{ACAD_REACTORS
330
C
102
}
330
C
100
AcDbDictionary
281
     1
  3
STANDARD
350
1C
  0
DICTIONARY
  5
8018
102
{ACAD_REACTORS
330
C
102
}
330
C
100
AcDbDictionary
281
     1
  0
ACDBDICTIONARYWDFLT
  5
8015
102
{ACAD_REACTORS
330
C
102
}
330
C
100
AcDbDictionary
281
     1
  3
Normal
350
8016
100
AcDbDictionaryWithDefault
340
8016
  0
DICTIONARY
  5
80A9
102
{ACAD_REACTORS
330
C
102
}
330
C
100
AcDbDictionary
281
     1
  3
A0
350
80AA
  3
A1
350
80AB
  3
A2
350
80AC
  3
A3
350
80AD
  3
A4
350
80AE
  3
A5
350
80AF
  3
A6
350
80B0
  3
A7
350
80B1
  3
A8
350
80B2
  3
A9
350
80B3
  3
B0
350
80B4
  3
B1
350
80B5
  3
B2
350
80B6
  3
B3
350
80B7
  3
B4
350
80B8
  3
B5
350
80B9
  3
B6
350
80BA
  0
DICTIONARY
  5
80BD
102
{ACAD_REACTORS
330
C
102
}
330
C
100
AcDbDictionary
281
     1
  3
Metric50
350
80BE
  0
DICTIONARY
  5
80A7
102
{ACAD_REACTORS
330
C
102
}
330
C
100
AcDbDictionary
281
     1
  3
Standard
350
80A8
  0
DICTIONARY
  5
808D
102
{ACAD_REACTORS
330
C
102
}
330
C
100
AcDbDictionary
281
     1
  3
2dWireframe
350
8093
  3
Basic
350
8092
  3
Brighten
350
8099
  3
ColorChange
350
809D
  3
Conceptual
350
8096
  3
Dim
350
8098
  3
EdgeColorOff
350
80A5
  3
Facepattern
350
809C
  3
Flat
350
808E
  3
FlatWithEdges
350
808F
  3
Gouraud
350
8090
  3
GouraudWithEdges
350
8091
  3
Hidden
350
8095
  3
JitterOff
350
80A3
  3
Linepattern
350
809B
  3
OverhangOff
350
80A4
  3
Realistic
350
8097
  3
Shaded
350
80A2
  3
Shaded with edges
350
80A1
  3
Shades of Gray
350
809E
  3
Sketchy
350
809F
  3
Thicken
350
809A
  3
Wireframe
350
8094
  3
X-Ray
350
80A0
  0
XRECORD
  5
83A6
102
{ACAD_REACTORS
330
C
102
}
330
C
100
AcDbXrecord
280
     1
 90
        1
330
7D09
330
7D0B
330
80A8
  0
DICTIONARY
  5
806C
102
{ACAD_REACTORS
330
C
102
}
330
C
100
AcDbDictionary
281
     1
  3
CANNOSCALE
350
839B
  3
CMLEADERSTYLE
350
8397
  3
CTABLESTYLE
350
8396
  3
CVIEWDETAILSTYLE
350
8398
  3
CVIEWSECTIONSTYLE
350
8399
  3
DIMASSOC
350
806D
  3
LAYEREVAL
350
839D
  3
LAYERNOTIFY
350
839E
  3
LIGHTINGUNITS
350
839C
  3
MARKUPASSISTMODE
350
83A3
  3
MSLTSCALE
350
839A
  0
DICTIONARY
  5
83AC
102
{ACAD_REACTORS
330
C
102
}
330
C
100
AcDbDictionary
281
     1
  3
AcDsRecords
350
83AE
  3
AcDsSchemas
350
83AD
1001
ACAD
1070
     2
  0
DICTIONARY
  5
814E
102
{ACAD_REACTORS
330
814D
102
}
330
814D
100
AcDbDictionary
281
     1
  0
XRECORD
  5
8380
102
{ACAD_REACTORS
330
837F
102
}
330
837F
100
AcDbXrecord
280
     1
290
     1
  0
XRECORD
  5
8382
102
{ACAD_REACTORS
330
8381
102
}
330
8381
100
AcDbXrecord
280
     1
290
     1
  0
XRECORD
  5
8384
102
{ACAD_REACTORS
330
8383
102
}
330
8383
100
AcDbXrecord
280
     1
290
     1
  0
XRECORD
  5
8386
102
{ACAD_REACTORS
330
8385
102
}
330
8385
100
AcDbXrecord
280
     1
290
     1
  0
XRECORD
  5
8388
102
{ACAD_REACTORS
330
8387
102
}
330
8387
100
AcDbXrecord
280
     1
290
     1
  0
XRECORD
  5
8389
102
{ACAD_REACTORS
330
814B
102
}
330
814B
100
AcDbXrecord
280
     1
290
     1
  0
XRECORD
  5
8045
102
{ACAD_REACTORS
330
8044
102
}
330
8044
100
AcDbXrecord
280
     1
340
19
  0
XRECORD
  5
8043
102
{ACAD_REACTORS
330
8042
102
}
330
8042
100
AcDbXrecord
280
     1
340
16
  0
ACDBDETAILVIEWSTYLE
  5
80C0
102
{ACAD_XDICTIONARY
360
83B1
102
}
102
{ACAD_REACTORS
330
80BF
102
}
330
80BF
100
AcDbModelDocViewStyle
 70
     0
  3
Metric50
290
     0
100
AcDbDetailViewStyle
 70
     0
 71
     0
 90
        3
 71
     1
340
10
 62
   256
 40
5.0
340
0
 62
   256
 40
5.0
300

 40
0.0
280
     1
 71
     2
340
15
 90
       25
 62
   256
 71
     3
340
10
 62
   256
 40
5.0
 90
        0
 40
15.0
 90
        1
300
%<\AcVar ViewDetailId>% (%<\AcVar ViewScale \f "%sn">%)
 71
     4
340
15
 90
       25
 62
   256
340
15
 90
       25
 62
   256
280
     0
  0
LAYOUT
  5
8019
102
{ACAD_REACTORS
330
8017
102
}
330
8017
100
AcDbPlotSettings
  1

  2
\\Txbo34x8944cqyd\EPSON LP-6100
  4

  6

 40
0.0
 41
0.0
 42
0.0
 43
0.0
 44
0.0
 45
0.0
 46
0.0
 47
0.0
 48
0.0
 49
0.0
140
0.0
141
0.0
142
1.0
143
1.0
 70
  1712
 72
     0
 73
     0
 74
     0
  7
GOD2000TABLE.ctb
 75
     0
147
1.0
 76
     0
 77
     2
 78
   300
148
0.0
149
0.0
100
AcDbLayout
  1
Model
 70
     1
 71
     0
 10
0.0
 20
0.0
 11
12.0
 21
9.0
 12
0.0
 22
0.0
 32
0.0
 14
0.0
 24
0.0
 34
0.0
 15
0.0
 25
0.0
 35
0.0
146
0.0
 13
0.0
 23
0.0
 33
0.0
 16
1.0
 26
0.0
 36
0.0
 17
0.0
 27
1.0
 37
0.0
 76
     0
330
19
331
8072
  0
LAYOUT
  5
801A
102
{ACAD_REACTORS
330
8017
102
}
330
8017
100
AcDbPlotSettings
  1

  2
\\Txbo34x8944cqyd\EPSON LP-6100
  4

  6

 40
0.0
 41
0.0
 42
0.0
 43
0.0
 44
0.0
 45
0.0
 46
0.0
 47
0.0
 48
0.0
 49
0.0
140
0.0
141
0.0
142
1.0
143
1.0
 70
   688
 72
     0
 73
     0
 74
     5
  7
GOD2000TABLE.ctb
 75
    16
147
1.0
 76
     0
 77
     2
 78
   300
148
0.0
149
0.0
100
AcDbLayout
  1
ﾚｲｱｳﾄ1
 70
     1
 71
     1
 10
0.0
 20
0.0
 11
12.0
 21
9.0
 12
0.0
 22
0.0
 32
0.0
 14
1.000000000000000E+20
 24
1.000000000000000E+20
 34
1.000000000000000E+20
 15
-1.000000000000000E+20
 25
-1.000000000000000E+20
 35
-1.000000000000000E+20
146
0.0
 13
0.0
 23
0.0
 33
0.0
 16
1.0
 26
0.0
 36
0.0
 17
0.0
 27
1.0
 37
0.0
 76
     0
330
16
  0
MATERIAL
  5
807D
102
{ACAD_XDICTIONARY
360
807E
102
}
102
{ACAD_REACTORS
330
8074
102
}
330
8074
100
AcDbMaterial
  1
ByBlock
 72
     0
 43
0.0208333333333333
 43
0.0
 43
0.0
 43
0.0
 43
0.0
 43
0.0208333333333333
 43
0.0
 43
0.0
 43
0.0
 43
0.0
 43
1.0
 43
0.0
 43
0.0
 43
0.0
 43
0.0
 43
1.0
 77
     0
 47
0.0208333333333333
 47
0.0
 47
0.0
 47
0.0
 47
0.0
 47
0.0208333333333333
 47
0.0
 47
0.0
 47
0.0
 47
0.0
 47
1.0
 47
0.0
 47
0.0
 47
0.0
 47
0.0
 47
1.0
171
     0
 49
0.0208333333333333
 49
0.0
 49
0.0
 49
0.0
 49
0.0
 49
0.0208333333333333
 49
0.0
 49
0.0
 49
0.0
 49
0.0
 49
1.0
 49
0.0
 49
0.0
 49
0.0
 49
0.0
 49
1.0
175
     0
142
0.0208333333333333
142
0.0
142
0.0
142
0.0
142
0.0
142
0.0208333333333333
142
0.0
142
0.0
142
0.0
142
0.0
142
1.0
142
0.0
142
0.0
142
0.0
142
0.0
142
1.0
179
     0
144
0.0208333333333333
144
0.0
144
0.0
144
0.0
144
0.0
144
0.0208333333333333
144
0.0
144
0.0
144
0.0
144
0.0
144
1.0
144
0.0
144
0.0
144
0.0
144
0.0
144
1.0
147
0.0208333333333333
147
0.0
147
0.0
147
0.0
147
0.0
147
0.0208333333333333
147
0.0
147
0.0
147
0.0
147
0.0
147
1.0
147
0.0
147
0.0
147
0.0
147
0.0
147
1.0
  0
MATERIAL
  5
8075
102
{ACAD_XDICTIONARY
360
8076
102
}
102
{ACAD_REACTORS
330
8074
102
}
330
8074
100
AcDbMaterial
  1
ByLayer
 72
     0
 43
0.0208333333333333
 43
0.0
 43
0.0
 43
0.0
 43
0.0
 43
0.0208333333333333
 43
0.0
 43
0.0
 43
0.0
 43
0.0
 43
1.0
 43
0.0
 43
0.0
 43
0.0
 43
0.0
 43
1.0
 77
     0
 47
0.0208333333333333
 47
0.0
 47
0.0
 47
0.0
 47
0.0
 47
0.0208333333333333
 47
0.0
 47
0.0
 47
0.0
 47
0.0
 47
1.0
 47
0.0
 47
0.0
 47
0.0
 47
0.0
 47
1.0
171
     0
 49
0.0208333333333333
 49
0.0
 49
0.0
 49
0.0
 49
0.0
 49
0.0208333333333333
 49
0.0
 49
0.0
 49
0.0
 49
0.0
 49
1.0
 49
0.0
 49
0.0
 49
0.0
 49
0.0
 49
1.0
175
     0
142
0.0208333333333333
142
0.0
142
0.0
142
0.0
142
0.0
142
0.0208333333333333
142
0.0
142
0.0
142
0.0
142
0.0
142
1.0
142
0.0
142
0.0
142
0.0
142
0.0
142
1.0
179
     0
144
0.0208333333333333
144
0.0
144
0.0
144
0.0
144
0.0
144
0.0208333333333333
144
0.0
144
0.0
144
0.0
144
0.0
144
1.0
144
0.0
144
0.0
144
0.0
144
0.0
144
1.0
147
0.0208333333333333
147
0.0
147
0.0
147
0.0
147
0.0
147
0.0208333333333333
147
0.0
147
0.0
147
0.0
147
0.0
147
1.0
147
0.0
147
0.0
147
0.0
147
0.0
147
1.0
  0
MATERIAL
  5
8085
102
{ACAD_XDICTIONARY
360
8086
102
}
102
{ACAD_REACTORS
330
8074
102
}
330
8074
100
AcDbMaterial
  1
Global
 72
     0
 43
0.0208333333333333
 43
0.0
 43
0.0
 43
0.0
 43
0.0
 43
0.0208333333333333
 43
0.0
 43
0.0
 43
0.0
 43
0.0
 43
1.0
 43
0.0
 43
0.0
 43
0.0
 43
0.0
 43
1.0
 77
     0
 47
0.0208333333333333
 47
0.0
 47
0.0
 47
0.0
 47
0.0
 47
0.0208333333333333
 47
0.0
 47
0.0
 47
0.0
 47
0.0
 47
1.0
 47
0.0
 47
0.0
 47
0.0
 47
0.0
 47
1.0
171
     0
 49
0.0208333333333333
 49
0.0
 49
0.0
 49
0.0
 49
0.0
 49
0.0208333333333333
 49
0.0
 49
0.0
 49
0.0
 49
0.0
 49
1.0
 49
0.0
 49
0.0
 49
0.0
 49
0.0
 49
1.0
175
     0
142
0.0208333333333333
142
0.0
142
0.0
142
0.0
142
0.0
142
0.0208333333333333
142
0.0
142
0.0
142
0.0
142
0.0
142
1.0
142
0.0
142
0.0
142
0.0
142
0.0
142
1.0
179
     0
144
0.0208333333333333
144
0.0
144
0.0
144
0.0
144
0.0
144
0.0208333333333333
144
0.0
144
0.0
144
0.0
144
0.0
144
1.0
144
0.0
144
0.0
144
0.0
144
0.0
144
1.0
147
0.0208333333333333
147
0.0
147
0.0
147
0.0
147
0.0
147
0.0208333333333333
147
0.0
147
0.0
147
0.0
147
0.0
147
1.0
147
0.0
147
0.0
147
0.0
147
0.0
147
1.0
  0
MLEADERSTYLE
  5
80BC
102
{ACAD_REACTORS
330
80BB
102
}
330
80BB
100
AcDbMLeaderStyle
179
     2
170
     2
171
     1
172
     0
 90
        2
 40
0.0
 41
0.0
173
     1
 91
-1056964608
340
13
 92
       -2
290
     1
 42
2.0
291
     1
 43
0.36
  3
Standard
 44
4.0
300

342
10
174
     1
178
     6
175
     1
176
     0
 93
-1056964608
 45
4.0
292
     0
297
     0
 46
4.0
 94
-1056964608
 47
1.0
 49
1.0
140
1.0
293
     1
141
0.0
294
     1
177
     0
142
1.0
295
     0
296
     0
143
0.125
271
     0
272
     9
273
     9
298
     1
  0
MLINESTYLE
  5
1C
102
{ACAD_REACTORS
330
E
102
}
330
E
100
AcDbMlineStyle
  2
STANDARD
 70
     0
  3

 62
     0
 51
90.0
 52
90.0
 71
     2
 49
0.5
 62
   256
  6
BYLAYER
 49
-0.5
 62
   256
  6
BYLAYER
  0
ACDBPLACEHOLDER
  5
8016
102
{ACAD_REACTORS
330
8015
102
}
330
8015
  0
SCALE
  5
80AA
102
{ACAD_REACTORS
330
80A9
102
}
330
80A9
100
AcDbScale
 70
     0
300
1:1
140
1.0
141
1.0
290
     1
  0
SCALE
  5
80AB
102
{ACAD_REACTORS
330
80A9
102
}
330
80A9
100
AcDbScale
 70
     0
300
1:2
140
1.0
141
2.0
290
     0
  0
SCALE
  5
80AC
102
{ACAD_REACTORS
330
80A9
102
}
330
80A9
100
AcDbScale
 70
     0
300
1:4
140
1.0
141
4.0
290
     0
  0
SCALE
  5
80AD
102
{ACAD_REACTORS
330
80A9
102
}
330
80A9
100
AcDbScale
 70
     0
300
1:5
140
1.0
141
5.0
290
     0
  0
SCALE
  5
80AE
102
{ACAD_REACTORS
330
80A9
102
}
330
80A9
100
AcDbScale
 70
     0
300
1:8
140
1.0
141
8.0
290
     0
  0
SCALE
  5
80AF
102
{ACAD_REACTORS
330
80A9
102
}
330
80A9
100
AcDbScale
 70
     0
300
1:10
140
1.0
141
10.0
290
     0
  0
SCALE
  5
80B0
102
{ACAD_REACTORS
330
80A9
102
}
330
80A9
100
AcDbScale
 70
     0
300
1:16
140
1.0
141
16.0
290
     0
  0
SCALE
  5
80B1
102
{ACAD_REACTORS
330
80A9
102
}
330
80A9
100
AcDbScale
 70
     0
300
1:20
140
1.0
141
20.0
290
     0
  0
SCALE
  5
80B2
102
{ACAD_REACTORS
330
80A9
102
}
330
80A9
100
AcDbScale
 70
     0
300
1:30
140
1.0
141
30.0
290
     0
  0
SCALE
  5
80B3
102
{ACAD_REACTORS
330
80A9
102
}
330
80A9
100
AcDbScale
 70
     0
300
1:40
140
1.0
141
40.0
290
     0
  0
SCALE
  5
80B4
102
{ACAD_REACTORS
330
80A9
102
}
330
80A9
100
AcDbScale
 70
     0
300
1:50
140
1.0
141
50.0
290
     0
  0
SCALE
  5
80B5
102
{ACAD_REACTORS
330
80A9
102
}
330
80A9
100
AcDbScale
 70
     0
300
1:100
140
1.0
141
100.0
290
     0
  0
SCALE
  5
80B6
102
{ACAD_REACTORS
330
80A9
102
}
330
80A9
100
AcDbScale
 70
     0
300
2:1
140
2.0
141
1.0
290
     0
  0
SCALE
  5
80B7
102
{ACAD_REACTORS
330
80A9
102
}
330
80A9
100
AcDbScale
 70
     0
300
4:1
140
4.0
141
1.0
290
     0
  0
SCALE
  5
80B8
102
{ACAD_REACTORS
330
80A9
102
}
330
80A9
100
AcDbScale
 70
     0
300
8:1
140
8.0
141
1.0
290
     0
  0
SCALE
  5
80B9
102
{ACAD_REACTORS
330
80A9
102
}
330
80A9
100
AcDbScale
 70
     0
300
10:1
140
10.0
141
1.0
290
     0
  0
SCALE
  5
80BA
102
{ACAD_REACTORS
330
80A9
102
}
330
80A9
100
AcDbScale
 70
     0
300
100:1
140
100.0
141
1.0
290
     0
  0
ACDBSECTIONVIEWSTYLE
  5
80BE
102
{ACAD_XDICTIONARY
360
83AF
102
}
102
{ACAD_REACTORS
330
80BD
102
}
330
80BD
100
AcDbModelDocViewStyle
 70
     0
  3
Metric50
290
     0
100
AcDbSectionViewStyle
 70
     0
 71
     0
 90
      102
 71
     1
340
10
 62
   256
 40
5.0
340
0
340
0
 62
   256
 40
5.0
300
I, O, Q, S, X, Z
 40
10.0
 90
        0
 40
2.5
 90
        0
 71
     2
340
15
 90
       25
 62
   256
340
15
 90
       50
 62
   256
 40
5.0
 40
2.5
 40
5.0
 71
     3
340
10
 62
   256
 40
5.0
 90
        0
 40
15.0
 90
        1
300
%<\AcVar ViewSectionStartId>%-%<\AcVar ViewSectionEndId>% (%<\AcVar ViewScale \f "%sn">%)
 71
     4
 62
   256
 62
   257
300
ANSI31
 40
1.0
 90
        0
290
     0
290
     0
 90
        6
 40
0.0
 40
1.570796326794896
 40
0.2617993877991494
 40
1.308996938995747
 40
-0.2617993877991494
 40
1.832595714594046
  0
TABLESTYLE
  5
80A8
102
{ACAD_XDICTIONARY
360
83A4
102
}
102
{ACAD_REACTORS
330
80A7
102
}
330
80A7
100
AcDbTableStyle
280
     0
  3
Standard
 70
     0
 71
     0
 40
1.5
 41
1.5
280
     0
281
     0
  7
STANDARD
140
4.5
170
     2
 62
     0
 63
     7
283
     0
 90
      512
 91
        0
  1

274
    -2
284
     1
 64
     0
275
    -2
285
     1
 65
     0
276
    -2
286
     1
 66
     0
277
    -2
287
     1
 67
     0
278
    -2
288
     1
 68
     0
279
    -2
289
     1
 69
     0
  7
STANDARD
140
6.0
170
     5
 62
     0
 63
     7
283
     0
 90
      512
 91
        0
  1

274
    -2
284
     1
 64
     0
275
    -2
285
     1
 65
     0
276
    -2
286
     1
 66
     0
277
    -2
287
     1
 67
     0
278
    -2
288
     1
 68
     0
279
    -2
289
     1
 69
     0
  7
STANDARD
140
4.5
170
     5
 62
     0
 63
     7
283
     0
 90
      512
 91
        0
  1

274
    -2
284
     1
 64
     0
275
    -2
285
     1
 65
     0
276
    -2
286
     1
 66
     0
277
    -2
287
     1
 67
     0
278
    -2
288
     1
 68
     0
279
    -2
289
     1
 69
     0
  0
VISUALSTYLE
  5
8093
102
{ACAD_REACTORS
330
808D
102
}
330
808D
100
AcDbVisualStyle
  2
2dWireframe
 70
     4
177
     3
291
     0
 70
    58
 90
        0
176
     1
 90
        2
176
     1
 90
        0
176
     1
 90
        0
176
     1
 40
0.6
176
     1
 40
30.0
176
     1
 62
     7
420
 16777215
176
     1
 90
        1
176
     1
 90
        4
176
     1
 62
     7
176
     1
 62
   257
176
     1
 90
        1
176
     1
 90
        1
176
     1
 40
1.0
176
     1
 90
        0
176
     1
 62
   257
176
     1
 40
1.0
176
     1
 90
        1
176
     1
 90
        6
176
     1
 90
        2
176
     1
 62
     7
176
     1
 90
        5
176
     1
 90
        0
176
     1
 90
        0
176
     1
290
     0
176
     1
 90
        1
176
     1
 40
0.0
176
     1
 90
        0
176
     1
290
     1
176
     1
290
     1
176
     1
290
     0
176
     1
290
     0
176
     1
290
     0
176
     1
290
     0
176
     1
290
     0
176
     1
290
     0
176
     1
290
     0
176
     1
 90
       50
176
     1
 40
0.0
176
     1
 40
1.0
176
     1
 90
        0
176
     1
 62
    18
420
        0
176
     1
 90
       50
176
     1
 90
        3
176
     1
 62
     5
420
      255
176
     1
290
     0
176
     1
 90
       50
176
     1
 90
       50
176
     1
 90
       50
176
     1
290
     0
176
     1
 90
       50
176
     1
 62
   256
176
     0
 40
1.0
176
     0
 90
        2
176
     1
  1
strokes_ogs.tif
176
     1
290
     0
176
     1
 40
1.0
176
     1
 40
1.0
176
     1
1001
ACAD
1000
AcDbSavedByObjectVersion
1070
     0
  0
VISUALSTYLE
  5
8092
102
{ACAD_REACTORS
330
808D
102
}
330
808D
100
AcDbVisualStyle
  2
Basic
 70
     7
177
     3
291
     1
 70
    58
 90
        1
176
     1
 90
        0
176
     1
 90
        1
176
     1
 90
        0
176
     1
 40
0.6
176
     1
 40
30.0
176
     1
 62
     7
420
 16777215
176
     1
 90
        0
176
     1
 90
        4
176
     1
 62
     7
176
     1
 62
   257
176
     1
 90
        1
176
     1
 90
        1
176
     1
 40
1.0
176
     1
 90
        8
176
     1
 62
     7
176
     1
 40
1.0
176
     1
 90
        1
176
     1
 90
        6
176
     1
 90
        2
176
     1
 62
     7
176
     1
 90
        5
176
     1
 90
        0
176
     1
 90
        0
176
     1
290
     0
176
     1
 90
        1
176
     1
 40
0.0
176
     1
 90
        0
176
     1
290
     0
176
     1
290
     1
176
     1
290
     1
176
     1
290
     0
176
     1
290
     0
176
     1
290
     0
176
     1
290
     0
176
     1
290
     0
176
     1
290
     0
176
     1
 90
       50
176
     1
 40
0.0
176
     1
 40
1.0
176
     1
 90
        0
176
     1
 62
    18
420
        0
176
     1
 90
       50
176
     1
 90
        3
176
     1
 62
     5
420
      255
176
     1
290
     0
176
     1
 90
       50
176
     1
 90
       50
176
     1
 90
       50
176
     1
290
     0
176
     1
 90
       50
176
     1
 62
   256
176
     0
 40
1.0
176
     0
 90
        2
176
     1
  1
strokes_ogs.tif
176
     1
290
     0
176
     1
 40
1.0
176
     1
 40
1.0
176
     1
1001
ACAD
1000
AcDbSavedByObjectVersion
1070
     0
  0
VISUALSTYLE
  5
8099
102
{ACAD_REACTORS
330
808D
102
}
330
808D
100
AcDbVisualStyle
  2
Brighten
 70
    12
177
     3
291
     1
 70
    58
 90
        2
176
     1
 90
        2
176
     1
 90
        0
176
     1
 90
        0
176
     1
 40
0.6
176
     1
 40
30.0
176
     1
 62
     7
420
 16777215
176
     1
 90
        1
176
     1
 90
        4
176
     1
 62
     7
176
     1
 62
   257
176
     1
 90
        1
176
     1
 90
        1
176
     1
 40
1.0
176
     1
 90
        8
176
     1
 62
     7
176
     1
 40
1.0
176
     1
 90
        1
176
     1
 90
        6
176
     1
 90
        2
176
     1
 62
     7
176
     1
 90
        5
176
     1
 90
        0
176
     1
 90
        0
176
     1
290
     0
176
     1
 90
        1
176
     1
 40
50.0
176
     1
 90
        0
176
     1
290
     0
176
     1
290
     1
176
     1
290
     1
176
     1
290
     0
176
     1
290
     0
176
     1
290
     0
176
     1
290
     0
176
     1
290
     0
176
     1
290
     0
176
     1
 90
       50
176
     1
 40
0.0
176
     1
 40
1.0
176
     1
 90
        0
176
     1
 62
    18
420
        0
176
     1
 90
       50
176
     1
 90
        3
176
     1
 62
     5
420
      255
176
     1
290
     0
176
     1
 90
       50
176
     1
 90
       50
176
     1
 90
       50
176
     1
290
     0
176
     1
 90
       50
176
     1
 62
   256
176
     0
 40
1.0
176
     0
 90
        2
176
     1
  1
strokes_ogs.tif
176
     1
290
     0
176
     1
 40
1.0
176
     1
 40
1.0
176
     1
1001
ACAD
1000
AcDbSavedByObjectVersion
1070
     0
  0
VISUALSTYLE
  5
809D
102
{ACAD_REACTORS
330
808D
102
}
330
808D
100
AcDbVisualStyle
  2
ColorChange
 70
    16
177
     3
291
     1
 70
    58
 90
        2
176
     1
 90
        2
176
     1
 90
        3
176
     1
 90
        0
176
     1
 40
0.6
176
     1
 40
30.0
176
     1
 62
     8
420
  8421504
176
     1
 90
        1
176
     1
 90
        4
176
     1
 62
     7
176
     1
 62
   257
176
     1
 90
        1
176
     1
 90
        1
176
     1
 40
1.0
176
     1
 90
        8
176
     1
 62
     8
420
  8421504
176
     1
 40
1.0
176
     1
 90
        1
176
     1
 90
        6
176
     1
 90
        2
176
     1
 62
     7
176
     1
 90
        5
176
     1
 90
        0
176
     1
 90
        0
176
     1
290
     0
176
     1
 90
        1
176
     1
 40
0.0
176
     1
 90
        0
176
     1
290
     0
176
     1
290
     1
176
     1
290
     1
176
     1
290
     0
176
     1
290
     0
176
     1
290
     0
176
     1
290
     0
176
     1
290
     0
176
     1
290
     0
176
     1
 90
       50
176
     1
 40
0.0
176
     1
 40
1.0
176
     1
 90
        0
176
     1
 62
    18
420
        0
176
     1
 90
       50
176
     1
 90
        3
176
     1
 62
     5
420
      255
176
     1
290
     0
176
     1
 90
       50
176
     1
 90
       50
176
     1
 90
       50
176
     1
290
     0
176
     1
 90
       50
176
     1
 62
   256
176
     0
 40
1.0
176
     0
 90
        2
176
     1
  1
strokes_ogs.tif
176
     1
290
     0
176
     1
 40
1.0
176
     1
 40
1.0
176
     1
1001
ACAD
1000
AcDbSavedByObjectVersion
1070
     0
  0
VISUALSTYLE
  5
8096
102
{ACAD_REACTORS
330
808D
102
}
330
808D
100
AcDbVisualStyle
  2
Conceptual
 70
     9
177
     3
291
     0
 70
    58
 90
        3
176
     1
 90
        2
176
     1
 90
        0
176
     1
 90
        0
176
     1
 40
0.6
176
     1
 40
30.0
176
     1
 62
     7
420
 16777215
176
     1
 90
        2
176
     1
 90
        2
176
     1
 62
     7
176
     1
 62
   257
176
     1
 90
        1
176
     1
 90
        1
176
     1
 40
179.0
176
     1
 90
        8
176
     1
 62
     7
176
     1
 40
1.0
176
     1
 90
        1
176
     1
 90
        6
176
     1
 90
        2
176
     1
 62
     7
176
     1
 90
        3
176
     1
 90
        0
176
     1
 90
        0
176
     1
290
     0
176
     1
 90
        1
176
     1
 40
0.0
176
     1
 90
        0
176
     1
290
     0
176
     1
290
     1
176
     1
290
     1
176
     1
290
     0
176
     1
290
     0
176
     1
290
     0
176
     1
290
     0
176
     1
290
     0
176
     1
290
     0
176
     1
 90
       50
176
     1
 40
0.0
176
     1
 40
1.0
176
     1
 90
        0
176
     1
 62
    18
420
        0
176
     1
 90
       50
176
     1
 90
        3
176
     1
 62
     5
420
      255
176
     1
290
     0
176
     1
 90
       50
176
     1
 90
       50
176
     1
 90
       50
176
     1
290
     0
176
     1
 90
       50
176
     1
 62
   256
176
     0
 40
1.0
176
     0
 90
        2
176
     1
  1
strokes_ogs.tif
176
     1
290
     0
176
     1
 40
1.0
176
     1
 40
1.0
176
     1
1001
ACAD
1000
AcDbSavedByObjectVersion
1070
     0
  0
VISUALSTYLE
  5
8098
102
{ACAD_REACTORS
330
808D
102
}
330
808D
100
AcDbVisualStyle
  2
Dim
 70
    11
177
     3
291
     1
 70
    58
 90
        2
176
     1
 90
        2
176
     1
 90
        0
176
     1
 90
        0
176
     1
 40
0.6
176
     1
 40
30.0
176
     1
 62
     7
420
 16777215
176
     1
 90
        1
176
     1
 90
        4
176
     1
 62
     7
176
     1
 62
   257
176
     1
 90
        1
176
     1
 90
        1
176
     1
 40
1.0
176
     1
 90
        8
176
     1
 62
     7
176
     1
 40
1.0
176
     1
 90
        1
176
     1
 90
        6
176
     1
 90
        2
176
     1
 62
     7
176
     1
 90
        5
176
     1
 90
        0
176
     1
 90
        0
176
     1
290
     0
176
     1
 90
        1
176
     1
 40
-50.0
176
     1
 90
        0
176
     1
290
     0
176
     1
290
     1
176
     1
290
     1
176
     1
290
     0
176
     1
290
     0
176
     1
290
     0
176
     1
290
     0
176
     1
290
     0
176
     1
290
     0
176
     1
 90
       50
176
     1
 40
0.0
176
     1
 40
1.0
176
     1
 90
        0
176
     1
 62
    18
420
        0
176
     1
 90
       50
176
     1
 90
        3
176
     1
 62
     5
420
      255
176
     1
290
     0
176
     1
 90
       50
176
     1
 90
       50
176
     1
 90
       50
176
     1
290
     0
176
     1
 90
       50
176
     1
 62
   256
176
     0
 40
1.0
176
     0
 90
        2
176
     1
  1
strokes_ogs.tif
176
     1
290
     0
176
     1
 40
1.0
176
     1
 40
1.0
176
     1
1001
ACAD
1000
AcDbSavedByObjectVersion
1070
     0
  0
VISUALSTYLE
  5
80A5
102
{ACAD_REACTORS
330
808D
102
}
330
808D
100
AcDbVisualStyle
  2
EdgeColorOff
 70
    22
177
     3
291
     1
 70
    58
 90
        2
176
     0
 90
        2
176
     0
 90
        0
176
     0
 90
        0
176
     0
 40
0.6
176
     0
 40
30.0
176
     0
 62
     7
420
 16777215
176
     0
 90
        1
176
     0
 90
        4
176
     0
 62
     7
176
     0
 62
   257
176
     0
 90
        1
176
     0
 90
        1
176
     0
 40
1.0
176
     0
 90
        8
176
     2
 62
     7
176
     0
 40
1.0
176
     0
 90
        1
176
     0
 90
        6
176
     0
 90
        2
176
     0
 62
     7
176
     0
 90
        5
176
     0
 90
        0
176
     0
 90
        0
176
     0
290
     0
176
     0
 90
        1
176
     0
 40
0.0
176
     0
 90
        0
176
     0
290
     0
176
     0
290
     1
176
     0
290
     1
176
     0
290
     0
176
     0
290
     0
176
     0
290
     0
176
     0
290
     0
176
     0
290
     0
176
     0
290
     0
176
     0
 90
       50
176
     0
 40
0.0
176
     0
 40
1.0
176
     0
 90
        0
176
     0
 62
    18
420
        0
176
     0
 90
       50
176
     0
 90
        3
176
     0
 62
     5
420
      255
176
     0
290
     0
176
     0
 90
       50
176
     0
 90
       50
176
     0
 90
       50
176
     0
290
     0
176
     0
 90
       50
176
     0
 62
   256
176
     0
 40
1.0
176
     0
 90
        2
176
     0
  1
strokes_ogs.tif
176
     0
290
     0
176
     0
 40
1.0
176
     0
 40
1.0
176
     0
1001
ACAD
1000
AcDbSavedByObjectVersion
1070
     0
  0
VISUALSTYLE
  5
809C
102
{ACAD_REACTORS
330
808D
102
}
330
808D
100
AcDbVisualStyle
  2
Facepattern
 70
    15
177
     3
291
     1
 70
    58
 90
        2
176
     1
 90
        2
176
     1
 90
        0
176
     1
 90
        0
176
     1
 40
0.6
176
     1
 40
30.0
176
     1
 62
     7
420
 16777215
176
     1
 90
        1
176
     1
 90
        4
176
     1
 62
     7
176
     1
 62
   257
176
     1
 90
        1
176
     1
 90
        1
176
     1
 40
1.0
176
     1
 90
        8
176
     1
 62
     7
176
     1
 40
1.0
176
     1
 90
        1
176
     1
 90
        6
176
     1
 90
        2
176
     1
 62
     7
176
     1
 90
        5
176
     1
 90
        0
176
     1
 90
        0
176
     1
290
     0
176
     1
 90
        1
176
     1
 40
0.0
176
     1
 90
        0
176
     1
290
     0
176
     1
290
     1
176
     1
290
     1
176
     1
290
     0
176
     1
290
     0
176
     1
290
     0
176
     1
290
     0
176
     1
290
     0
176
     1
290
     0
176
     1
 90
       50
176
     1
 40
0.0
176
     1
 40
1.0
176
     1
 90
        0
176
     1
 62
    18
420
        0
176
     1
 90
       50
176
     1
 90
        3
176
     1
 62
     5
420
      255
176
     1
290
     0
176
     1
 90
       50
176
     1
 90
       50
176
     1
 90
       50
176
     1
290
     0
176
     1
 90
       50
176
     1
 62
   256
176
     0
 40
1.0
176
     0
 90
        2
176
     1
  1
strokes_ogs.tif
176
     1
290
     0
176
     1
 40
1.0
176
     1
 40
1.0
176
     1
1001
ACAD
1000
AcDbSavedByObjectVersion
1070
     0
  0
VISUALSTYLE
  5
808E
102
{ACAD_REACTORS
330
808D
102
}
330
808D
100
AcDbVisualStyle
  2
Flat
 70
     0
177
     3
291
     1
 70
    58
 90
        2
176
     1
 90
        1
176
     1
 90
        1
176
     1
 90
        2
176
     1
 40
0.6
176
     1
 40
30.0
176
     1
 62
     7
420
 16777215
176
     1
 90
        0
176
     1
 90
        0
176
     1
 62
     7
176
     1
 62
   257
176
     1
 90
        1
176
     1
 90
        1
176
     1
 40
1.0
176
     1
 90
        8
176
     1
 62
     7
176
     1
 40
1.0
176
     1
 90
        1
176
     1
 90
        6
176
     1
 90
        2
176
     1
 62
     7
176
     1
 90
        5
176
     1
 90
        0
176
     1
 90
        0
176
     1
290
     0
176
     1
 90
       13
176
     1
 40
0.0
176
     1
 90
        0
176
     1
290
     0
176
     1
290
     1
176
     1
290
     1
176
     1
290
     0
176
     1
290
     0
176
     1
290
     0
176
     1
290
     0
176
     1
290
     0
176
     1
290
     0
176
     1
 90
       50
176
     1
 40
0.0
176
     1
 40
1.0
176
     1
 90
        0
176
     1
 62
    18
420
        0
176
     1
 90
       50
176
     1
 90
        3
176
     1
 62
     5
420
      255
176
     1
290
     0
176
     1
 90
       50
176
     1
 90
       50
176
     1
 90
       50
176
     1
290
     0
176
     1
 90
       50
176
     1
 62
   256
176
     0
 40
1.0
176
     0
 90
        2
176
     1
  1
strokes_ogs.tif
176
     1
290
     0
176
     1
 40
1.0
176
     1
 40
1.0
176
     1
1001
ACAD
1000
AcDbSavedByObjectVersion
1070
     0
  0
VISUALSTYLE
  5
808F
102
{ACAD_REACTORS
330
808D
102
}
330
808D
100
AcDbVisualStyle
  2
FlatWithEdges
 70
     1
177
     3
291
     1
 70
    58
 90
        2
176
     1
 90
        1
176
     1
 90
        1
176
     1
 90
        2
176
     1
 40
0.6
176
     1
 40
30.0
176
     1
 62
     7
420
 16777215
176
     1
 90
        1
176
     1
 90
        0
176
     1
 62
     7
176
     1
 62
   257
176
     1
 90
        1
176
     1
 90
        1
176
     1
 40
1.0
176
     1
 90
        0
176
     1
 62
   257
176
     1
 40
1.0
176
     1
 90
        1
176
     1
 90
        6
176
     1
 90
        2
176
     1
 62
     7
176
     1
 90
        5
176
     1
 90
        0
176
     1
 90
        0
176
     1
290
     0
176
     1
 90
       13
176
     1
 40
0.0
176
     1
 90
        0
176
     1
290
     0
176
     1
290
     1
176
     1
290
     1
176
     1
290
     0
176
     1
290
     0
176
     1
290
     0
176
     1
290
     0
176
     1
290
     0
176
     1
290
     0
176
     1
 90
       50
176
     1
 40
0.0
176
     1
 40
1.0
176
     1
 90
        0
176
     1
 62
    18
420
        0
176
     1
 90
       50
176
     1
 90
        3
176
     1
 62
     5
420
      255
176
     1
290
     0
176
     1
 90
       50
176
     1
 90
       50
176
     1
 90
       50
176
     1
290
     0
176
     1
 90
       50
176
     1
 62
   256
176
     0
 40
1.0
176
     0
 90
        2
176
     1
  1
strokes_ogs.tif
176
     1
290
     0
176
     1
 40
1.0
176
     1
 40
1.0
176
     1
1001
ACAD
1000
AcDbSavedByObjectVersion
1070
     0
  0
VISUALSTYLE
  5
8090
102
{ACAD_REACTORS
330
808D
102
}
330
808D
100
AcDbVisualStyle
  2
Gouraud
 70
     2
177
     3
291
     1
 70
    58
 90
        2
176
     1
 90
        2
176
     1
 90
        1
176
     1
 90
        2
176
     1
 40
0.6
176
     1
 40
30.0
176
     1
 62
     7
420
 16777215
176
     1
 90
        0
176
     1
 90
        0
176
     1
 62
     7
176
     1
 62
   257
176
     1
 90
        1
176
     1
 90
        1
176
     1
 40
1.0
176
     1
 90
        0
176
     1
 62
     7
176
     1
 40
1.0
176
     1
 90
        1
176
     1
 90
        6
176
     1
 90
        2
176
     1
 62
     7
176
     1
 90
        5
176
     1
 90
        0
176
     1
 90
        0
176
     1
290
     0
176
     1
 90
       13
176
     1
 40
0.0
176
     1
 90
        0
176
     1
290
     0
176
     1
290
     1
176
     1
290
     1
176
     1
290
     0
176
     1
290
     0
176
     1
290
     0
176
     1
290
     0
176
     1
290
     0
176
     1
290
     0
176
     1
 90
       50
176
     1
 40
0.0
176
     1
 40
1.0
176
     1
 90
        0
176
     1
 62
    18
420
        0
176
     1
 90
       50
176
     1
 90
        3
176
     1
 62
     5
420
      255
176
     1
290
     0
176
     1
 90
       50
176
     1
 90
       50
176
     1
 90
       50
176
     1
290
     0
176
     1
 90
       50
176
     1
 62
   256
176
     0
 40
1.0
176
     0
 90
        2
176
     1
  1
strokes_ogs.tif
176
     1
290
     0
176
     1
 40
1.0
176
     1
 40
1.0
176
     1
1001
ACAD
1000
AcDbSavedByObjectVersion
1070
     0
  0
VISUALSTYLE
  5
8091
102
{ACAD_REACTORS
330
808D
102
}
330
808D
100
AcDbVisualStyle
  2
GouraudWithEdges
 70
     3
177
     3
291
     1
 70
    58
 90
        2
176
     1
 90
        2
176
     1
 90
        1
176
     1
 90
        2
176
     1
 40
0.6
176
     1
 40
30.0
176
     1
 62
     7
420
 16777215
176
     1
 90
        1
176
     1
 90
        0
176
     1
 62
     7
176
     1
 62
   257
176
     1
 90
        1
176
     1
 90
        1
176
     1
 40
1.0
176
     1
 90
        0
176
     1
 62
   257
176
     1
 40
1.0
176
     1
 90
        1
176
     1
 90
        6
176
     1
 90
        2
176
     1
 62
     7
176
     1
 90
        5
176
     1
 90
        0
176
     1
 90
        0
176
     1
290
     0
176
     1
 90
       13
176
     1
 40
0.0
176
     1
 90
        0
176
     1
290
     0
176
     1
290
     1
176
     1
290
     1
176
     1
290
     0
176
     1
290
     0
176
     1
290
     0
176
     1
290
     0
176
     1
290
     0
176
     1
290
     0
176
     1
 90
       50
176
     1
 40
0.0
176
     1
 40
1.0
176
     1
 90
        0
176
     1
 62
    18
420
        0
176
     1
 90
       50
176
     1
 90
        3
176
     1
 62
     5
420
      255
176
     1
290
     0
176
     1
 90
       50
176
     1
 90
       50
176
     1
 90
       50
176
     1
290
     0
176
     1
 90
       50
176
     1
 62
   256
176
     0
 40
1.0
176
     0
 90
        2
176
     1
  1
strokes_ogs.tif
176
     1
290
     0
176
     1
 40
1.0
176
     1
 40
1.0
176
     1
1001
ACAD
1000
AcDbSavedByObjectVersion
1070
     0
  0
VISUALSTYLE
  5
8095
102
{ACAD_REACTORS
330
808D
102
}
330
808D
100
AcDbVisualStyle
  2
Hidden
 70
     6
177
     3
291
     0
 70
    58
 90
        1
176
     1
 90
        2
176
     1
 90
        2
176
     1
 90
        0
176
     1
 40
0.6
176
     1
 40
30.0
176
     1
 62
     7
420
 16777215
176
     1
 90
        2
176
     1
 90
        2
176
     1
 62
     7
176
     1
 62
   257
176
     1
 90
        2
176
     1
 90
        1
176
     1
 40
40.0
176
     1
 90
        0
176
     1
 62
   257
176
     1
 40
1.0
176
     1
 90
        1
176
     1
 90
        6
176
     1
 90
        2
176
     1
 62
     7
176
     1
 90
        3
176
     1
 90
        0
176
     1
 90
        0
176
     1
290
     0
176
     1
 90
        1
176
     1
 40
0.0
176
     1
 90
        0
176
     1
290
     0
176
     1
290
     1
176
     1
290
     1
176
     1
290
     0
176
     1
290
     0
176
     1
290
     0
176
     1
290
     0
176
     1
290
     0
176
     1
290
     0
176
     1
 90
       50
176
     1
 40
0.0
176
     1
 40
1.0
176
     1
 90
        0
176
     1
 62
    18
420
        0
176
     1
 90
       50
176
     1
 90
        3
176
     1
 62
     5
420
      255
176
     1
290
     0
176
     1
 90
       50
176
     1
 90
       50
176
     1
 90
       50
176
     1
290
     0
176
     1
 90
       50
176
     1
 62
   256
176
     0
 40
1.0
176
     0
 90
        2
176
     1
  1
strokes_ogs.tif
176
     1
290
     0
176
     1
 40
1.0
176
     1
 40
1.0
176
     1
1001
ACAD
1000
AcDbSavedByObjectVersion
1070
     0
  0
VISUALSTYLE
  5
80A3
102
{ACAD_REACTORS
330
808D
102
}
330
808D
100
AcDbVisualStyle
  2
JitterOff
 70
    20
177
     3
291
     1
 70
    58
 90
        2
176
     0
 90
        2
176
     0
 90
        0
176
     0
 90
        0
176
     0
 40
0.6
176
     0
 40
30.0
176
     0
 62
     7
420
 16777215
176
     0
 90
        1
176
     0
 90
        4
176
     0
 62
     7
176
     0
 62
   257
176
     0
 90
        1
176
     0
 90
        1
176
     0
 40
1.0
176
     0
 90
       10
176
     2
 62
     7
176
     0
 40
1.0
176
     0
 90
        1
176
     0
 90
        6
176
     0
 90
        2
176
     0
 62
     7
176
     0
 90
        5
176
     0
 90
        0
176
     0
 90
        0
176
     0
290
     0
176
     0
 90
        1
176
     0
 40
0.0
176
     0
 90
        0
176
     0
290
     0
176
     0
290
     1
176
     0
290
     1
176
     0
290
     0
176
     0
290
     0
176
     0
290
     0
176
     0
290
     0
176
     0
290
     0
176
     0
290
     0
176
     0
 90
       50
176
     0
 40
0.0
176
     0
 40
1.0
176
     0
 90
        0
176
     0
 62
    18
420
        0
176
     0
 90
       50
176
     0
 90
        3
176
     0
 62
     5
420
      255
176
     0
290
     0
176
     0
 90
       50
176
     0
 90
       50
176
     0
 90
       50
176
     0
290
     0
176
     0
 90
       50
176
     0
 62
   256
176
     0
 40
1.0
176
     0
 90
        2
176
     0
  1
strokes_ogs.tif
176
     0
290
     0
176
     0
 40
1.0
176
     0
 40
1.0
176
     0
1001
ACAD
1000
AcDbSavedByObjectVersion
1070
     0
  0
VISUALSTYLE
  5
809B
102
{ACAD_REACTORS
330
808D
102
}
330
808D
100
AcDbVisualStyle
  2
Linepattern
 70
    14
177
     3
291
     1
 70
    58
 90
        2
176
     1
 90
        2
176
     1
 90
        0
176
     1
 90
        0
176
     1
 40
0.6
176
     1
 40
30.0
176
     1
 62
     7
420
 16777215
176
     1
 90
        1
176
     1
 90
        4
176
     1
 62
     7
176
     1
 62
   257
176
     1
 90
        7
176
     1
 90
        7
176
     1
 40
1.0
176
     1
 90
        8
176
     1
 62
     7
176
     1
 40
1.0
176
     1
 90
        1
176
     1
 90
        6
176
     1
 90
        2
176
     1
 62
     7
176
     1
 90
        5
176
     1
 90
        0
176
     1
 90
        0
176
     1
290
     0
176
     1
 90
        1
176
     1
 40
0.0
176
     1
 90
        0
176
     1
290
     0
176
     1
290
     1
176
     1
290
     1
176
     1
290
     0
176
     1
290
     0
176
     1
290
     0
176
     1
290
     0
176
     1
290
     0
176
     1
290
     0
176
     1
 90
       50
176
     1
 40
0.0
176
     1
 40
1.0
176
     1
 90
        0
176
     1
 62
    18
420
        0
176
     1
 90
       50
176
     1
 90
        3
176
     1
 62
     5
420
      255
176
     1
290
     0
176
     1
 90
       50
176
     1
 90
       50
176
     1
 90
       50
176
     1
290
     0
176
     1
 90
       50
176
     1
 62
   256
176
     0
 40
1.0
176
     0
 90
        2
176
     1
  1
strokes_ogs.tif
176
     1
290
     0
176
     1
 40
1.0
176
     1
 40
1.0
176
     1
1001
ACAD
1000
AcDbSavedByObjectVersion
1070
     0
  0
VISUALSTYLE
  5
80A4
102
{ACAD_REACTORS
330
808D
102
}
330
808D
100
AcDbVisualStyle
  2
OverhangOff
 70
    21
177
     3
291
     1
 70
    58
 90
        2
176
     0
 90
        2
176
     0
 90
        0
176
     0
 90
        0
176
     0
 40
0.6
176
     0
 40
30.0
176
     0
 62
     7
420
 16777215
176
     0
 90
        1
176
     0
 90
        4
176
     0
 62
     7
176
     0
 62
   257
176
     0
 90
        1
176
     0
 90
        1
176
     0
 40
1.0
176
     0
 90
        9
176
     2
 62
     7
176
     0
 40
1.0
176
     0
 90
        1
176
     0
 90
        6
176
     0
 90
        2
176
     0
 62
     7
176
     0
 90
        5
176
     0
 90
        0
176
     0
 90
        0
176
     0
290
     0
176
     0
 90
        1
176
     0
 40
0.0
176
     0
 90
        0
176
     0
290
     0
176
     0
290
     1
176
     0
290
     1
176
     0
290
     0
176
     0
290
     0
176
     0
290
     0
176
     0
290
     0
176
     0
290
     0
176
     0
290
     0
176
     0
 90
       50
176
     0
 40
0.0
176
     0
 40
1.0
176
     0
 90
        0
176
     0
 62
    18
420
        0
176
     0
 90
       50
176
     0
 90
        3
176
     0
 62
     5
420
      255
176
     0
290
     0
176
     0
 90
       50
176
     0
 90
       50
176
     0
 90
       50
176
     0
290
     0
176
     0
 90
       50
176
     0
 62
   256
176
     0
 40
1.0
176
     0
 90
        2
176
     0
  1
strokes_ogs.tif
176
     0
290
     0
176
     0
 40
1.0
176
     0
 40
1.0
176
     0
1001
ACAD
1000
AcDbSavedByObjectVersion
1070
     0
  0
VISUALSTYLE
  5
8097
102
{ACAD_REACTORS
330
808D
102
}
330
808D
100
AcDbVisualStyle
  2
Realistic
 70
     8
177
     3
291
     0
 70
    58
 90
        2
176
     1
 90
        3
176
     1
 90
        0
176
     1
 90
        2
176
     1
 40
0.6
176
     1
 40
30.0
176
     1
 62
     7
420
 16777215
176
     1
 90
        0
176
     1
 90
        0
176
     1
 62
     7
176
     1
 62
   257
176
     1
 90
        1
176
     1
 90
        1
176
     1
 40
1.0
176
     1
 90
        8
176
     1
 62
   257
176
     1
 40
1.0
176
     1
 90
        1
176
     1
 90
        6
176
     1
 90
        2
176
     1
 62
     7
176
     1
 90
        3
176
     1
 90
        0
176
     1
 90
        0
176
     1
290
     0
176
     1
 90
       13
176
     1
 40
0.0
176
     1
 90
        0
176
     1
290
     0
176
     1
290
     1
176
     1
290
     1
176
     1
290
     0
176
     1
290
     0
176
     1
290
     0
176
     1
290
     0
176
     1
290
     0
176
     1
290
     0
176
     1
 90
       50
176
     1
 40
0.0
176
     1
 40
1.0
176
     1
 90
        0
176
     1
 62
    18
420
        0
176
     1
 90
       50
176
     1
 90
        3
176
     1
 62
     5
420
      255
176
     1
290
     0
176
     1
 90
       50
176
     1
 90
       50
176
     1
 90
       50
176
     1
290
     0
176
     1
 90
       50
176
     1
 62
   256
176
     0
 40
1.0
176
     0
 90
        2
176
     1
  1
strokes_ogs.tif
176
     1
290
     0
176
     1
 40
1.0
176
     1
 40
1.0
176
     1
1001
ACAD
1000
AcDbSavedByObjectVersion
1070
     0
  0
VISUALSTYLE
  5
80A2
102
{ACAD_REACTORS
330
808D
102
}
330
808D
100
AcDbVisualStyle
  2
Shaded
 70
    27
177
     3
291
     0
 70
    58
 90
        2
176
     1
 90
        2
176
     1
 90
        1
176
     1
 90
        2
176
     1
 40
0.6
176
     1
 40
30.0
176
     1
 62
     7
420
 16777215
176
     1
 90
        0
176
     1
 90
        4
176
     1
 62
     7
176
     1
 62
   257
176
     1
 90
        1
176
     1
 90
        1
176
     1
 40
1.0
176
     1
 90
        8
176
     1
 62
   257
176
     1
 40
1.0
176
     1
 90
        1
176
     1
 90
        6
176
     1
 90
        2
176
     1
 62
     8
420
  7895160
176
     1
 90
        3
176
     1
 90
        0
176
     1
 90
        0
176
     1
290
     0
176
     1
 90
        5
176
     1
 40
0.0
176
     1
 90
        0
176
     1
290
     0
176
     1
290
     1
176
     1
290
     1
176
     1
290
     0
176
     1
290
     0
176
     1
290
     0
176
     1
290
     0
176
     1
290
     0
176
     1
290
     0
176
     1
 90
       50
176
     1
 40
0.0
176
     1
 40
1.0
176
     1
 90
        0
176
     1
 62
    18
420
        0
176
     1
 90
       50
176
     1
 90
        3
176
     1
 62
     5
420
      255
176
     1
290
     0
176
     1
 90
       50
176
     1
 90
       50
176
     1
 90
       50
176
     1
290
     0
176
     1
 90
       50
176
     1
 62
   256
176
     0
 40
1.0
176
     0
 90
        2
176
     1
  1
strokes_ogs.tif
176
     1
290
     0
176
     1
 40
1.0
176
     1
 40
1.0
176
     1
1001
ACAD
1000
AcDbSavedByObjectVersion
1070
     0
  0
VISUALSTYLE
  5
80A1
102
{ACAD_REACTORS
330
808D
102
}
330
808D
100
AcDbVisualStyle
  2
Shaded with edges
 70
    26
177
     3
291
     0
 70
    58
 90
        2
176
     1
 90
        2
176
     1
 90
        1
176
     1
 90
        2
176
     1
 40
0.6
176
     1
 40
30.0
176
     1
 62
     7
420
 16777215
176
     1
 90
        1
176
     1
 90
        2
176
     1
 62
     7
176
     1
 62
   257
176
     1
 90
        2
176
     1
 90
        1
176
     1
 40
1.0
176
     1
 90
        8
176
     1
 62
   257
176
     1
 40
1.0
176
     1
 90
        1
176
     1
 90
        6
176
     1
 90
        2
176
     1
 62
     7
176
     1
 90
        3
176
     1
 90
        0
176
     1
 90
        0
176
     1
290
     0
176
     1
 90
        5
176
     1
 40
0.0
176
     1
 90
        0
176
     1
290
     0
176
     1
290
     1
176
     1
290
     1
176
     1
290
     0
176
     1
290
     0
176
     1
290
     0
176
     1
290
     0
176
     1
290
     0
176
     1
290
     0
176
     1
 90
       50
176
     1
 40
0.0
176
     1
 40
1.0
176
     1
 90
        0
176
     1
 62
    18
420
        0
176
     1
 90
       50
176
     1
 90
        3
176
     1
 62
     5
420
      255
176
     1
290
     0
176
     1
 90
       50
176
     1
 90
       50
176
     1
 90
       50
176
     1
290
     0
176
     1
 90
       50
176
     1
 62
   256
176
     0
 40
1.0
176
     0
 90
        2
176
     1
  1
strokes_ogs.tif
176
     1
290
     0
176
     1
 40
1.0
176
     1
 40
1.0
176
     1
1001
ACAD
1000
AcDbSavedByObjectVersion
1070
     0
  0
VISUALSTYLE
  5
809E
102
{ACAD_REACTORS
330
808D
102
}
330
808D
100
AcDbVisualStyle
  2
Shades of Gray
 70
    23
177
     3
291
     0
 70
    58
 90
        2
176
     1
 90
        2
176
     1
 90
        3
176
     1
 90
        0
176
     1
 40
0.6
176
     1
 40
30.0
176
     1
 62
     7
420
 16777215
176
     1
 90
        2
176
     1
 90
        2
176
     1
 62
     7
176
     1
 62
     7
176
     1
 90
        1
176
     1
 90
        1
176
     1
 40
40.0
176
     1
 90
        8
176
     1
 62
     7
176
     1
 40
1.0
176
     1
 90
        1
176
     1
 90
        6
176
     1
 90
        2
176
     1
 62
     7
176
     1
 90
        3
176
     1
 90
        0
176
     1
 90
        0
176
     1
290
     0
176
     1
 90
        1
176
     1
 40
0.0
176
     1
 90
        0
176
     1
290
     0
176
     1
290
     1
176
     1
290
     1
176
     1
290
     0
176
     1
290
     0
176
     1
290
     0
176
     1
290
     0
176
     1
290
     0
176
     1
290
     0
176
     1
 90
       50
176
     1
 40
0.0
176
     1
 40
1.0
176
     1
 90
        0
176
     1
 62
    18
420
        0
176
     1
 90
       50
176
     1
 90
        3
176
     1
 62
     5
420
      255
176
     1
290
     0
176
     1
 90
       50
176
     1
 90
       50
176
     1
 90
       50
176
     1
290
     0
176
     1
 90
       50
176
     1
 62
   256
176
     0
 40
1.0
176
     0
 90
        2
176
     1
  1
strokes_ogs.tif
176
     1
290
     0
176
     1
 40
1.0
176
     1
 40
1.0
176
     1
1001
ACAD
1000
AcDbSavedByObjectVersion
1070
     0
  0
VISUALSTYLE
  5
809F
102
{ACAD_REACTORS
330
808D
102
}
330
808D
100
AcDbVisualStyle
  2
Sketchy
 70
    24
177
     3
291
     0
 70
    58
 90
        1
176
     1
 90
        2
176
     1
 90
        2
176
     1
 90
        0
176
     1
 40
0.6
176
     1
 40
30.0
176
     1
 62
     7
420
 16777215
176
     1
 90
        2
176
     1
 90
        2
176
     1
 62
     7
176
     1
 62
     7
176
     1
 90
        1
176
     1
 90
        1
176
     1
 40
40.0
176
     1
 90
       11
176
     1
 62
     7
176
     1
 40
1.0
176
     1
 90
        1
176
     1
 90
        6
176
     1
 90
        2
176
     1
 62
     7
176
     1
 90
        6
176
     1
 90
        0
176
     1
 90
        0
176
     1
290
     0
176
     1
 90
        1
176
     1
 40
0.0
176
     1
 90
        0
176
     1
290
     0
176
     1
290
     1
176
     1
290
     1
176
     1
290
     0
176
     1
290
     0
176
     1
290
     0
176
     1
290
     0
176
     1
290
     0
176
     1
290
     0
176
     1
 90
       50
176
     1
 40
0.0
176
     1
 40
1.0
176
     1
 90
        0
176
     1
 62
    18
420
        0
176
     1
 90
       50
176
     1
 90
        3
176
     1
 62
     5
420
      255
176
     1
290
     0
176
     1
 90
       50
176
     1
 90
       50
176
     1
 90
       50
176
     1
290
     0
176
     1
 90
       50
176
     1
 62
   256
176
     0
 40
1.0
176
     0
 90
        2
176
     1
  1
strokes_ogs.tif
176
     1
290
     0
176
     1
 40
1.0
176
     1
 40
1.0
176
     1
1001
ACAD
1000
AcDbSavedByObjectVersion
1070
     0
  0
VISUALSTYLE
  5
809A
102
{ACAD_REACTORS
330
808D
102
}
330
808D
100
AcDbVisualStyle
  2
Thicken
 70
    13
177
     3
291
     1
 70
    58
 90
        2
176
     1
 90
        2
176
     1
 90
        0
176
     1
 90
        0
176
     1
 40
0.6
176
     1
 40
30.0
176
     1
 62
     7
420
 16777215
176
     1
 90
        1
176
     1
 90
        4
176
     1
 62
     7
176
     1
 62
   257
176
     1
 90
        1
176
     1
 90
        1
176
     1
 40
1.0
176
     1
 90
       12
176
     1
 62
     7
176
     1
 40
1.0
176
     1
 90
        1
176
     1
 90
        6
176
     1
 90
        2
176
     1
 62
     7
176
     1
 90
        5
176
     1
 90
        0
176
     1
 90
        0
176
     1
290
     0
176
     1
 90
        1
176
     1
 40
0.0
176
     1
 90
        0
176
     1
290
     0
176
     1
290
     1
176
     1
290
     1
176
     1
290
     0
176
     1
290
     0
176
     1
290
     0
176
     1
290
     0
176
     1
290
     0
176
     1
290
     0
176
     1
 90
       50
176
     1
 40
0.0
176
     1
 40
1.0
176
     1
 90
        0
176
     1
 62
    18
420
        0
176
     1
 90
       50
176
     1
 90
        3
176
     1
 62
     5
420
      255
176
     1
290
     0
176
     1
 90
       50
176
     1
 90
       50
176
     1
 90
       50
176
     1
290
     0
176
     1
 90
       50
176
     1
 62
   256
176
     0
 40
1.0
176
     0
 90
        2
176
     1
  1
strokes_ogs.tif
176
     1
290
     0
176
     1
 40
1.0
176
     1
 40
1.0
176
     1
1001
ACAD
1000
AcDbSavedByObjectVersion
1070
     0
  0
VISUALSTYLE
  5
8094
102
{ACAD_REACTORS
330
808D
102
}
330
808D
100
AcDbVisualStyle
  2
Wireframe
 70
     5
177
     3
291
     0
 70
    58
 90
        0
176
     1
 90
        2
176
     1
 90
        0
176
     1
 90
        0
176
     1
 40
0.6
176
     1
 40
30.0
176
     1
 62
     7
420
 16777215
176
     1
 90
        1
176
     1
 90
        4
176
     1
 62
     7
176
     1
 62
   257
176
     1
 90
        1
176
     1
 90
        1
176
     1
 40
1.0
176
     1
 90
        0
176
     1
 62
   257
176
     1
 40
1.0
176
     1
 90
        1
176
     1
 90
        6
176
     1
 90
        2
176
     1
 62
     7
176
     1
 90
        3
176
     1
 90
        0
176
     1
 90
        0
176
     1
290
     0
176
     1
 90
        1
176
     1
 40
0.0
176
     1
 90
        0
176
     1
290
     0
176
     1
290
     1
176
     1
290
     1
176
     1
290
     0
176
     1
290
     0
176
     1
290
     0
176
     1
290
     0
176
     1
290
     0
176
     1
290
     0
176
     1
 90
       50
176
     1
 40
0.0
176
     1
 40
1.0
176
     1
 90
        0
176
     1
 62
    18
420
        0
176
     1
 90
       50
176
     1
 90
        3
176
     1
 62
     5
420
      255
176
     1
290
     0
176
     1
 90
       50
176
     1
 90
       50
176
     1
 90
       50
176
     1
290
     0
176
     1
 90
       50
176
     1
 62
   256
176
     0
 40
1.0
176
     0
 90
        2
176
     1
  1
strokes_ogs.tif
176
     1
290
     0
176
     1
 40
1.0
176
     1
 40
1.0
176
     1
1001
ACAD
1000
AcDbSavedByObjectVersion
1070
     0
  0
VISUALSTYLE
  5
80A0
102
{ACAD_REACTORS
330
808D
102
}
330
808D
100
AcDbVisualStyle
  2
X-Ray
 70
    25
177
     3
291
     0
 70
    58
 90
        2
176
     1
 90
        2
176
     1
 90
        1
176
     1
 90
        1
176
     1
 40
0.5
176
     1
 40
30.0
176
     1
 62
     7
420
 16777215
176
     1
 90
        1
176
     1
 90
        0
176
     1
 62
     7
176
     1
 62
   257
176
     1
 90
        1
176
     1
 90
        1
176
     1
 40
1.0
176
     1
 90
        8
176
     1
 62
     7
176
     1
 40
1.0
176
     1
 90
        1
176
     1
 90
        6
176
     1
 90
        2
176
     1
 62
     7
176
     1
 90
        3
176
     1
 90
        0
176
     1
 90
        0
176
     1
290
     0
176
     1
 90
       13
176
     1
 40
0.0
176
     1
 90
        0
176
     1
290
     0
176
     1
290
     1
176
     1
290
     1
176
     1
290
     0
176
     1
290
     0
176
     1
290
     0
176
     1
290
     0
176
     1
290
     0
176
     1
290
     0
176
     1
 90
       50
176
     1
 40
0.0
176
     1
 40
1.0
176
     1
 90
        0
176
     1
 62
    18
420
        0
176
     1
 90
       50
176
     1
 90
        3
176
     1
 62
     5
420
      255
176
     1
290
     0
176
     1
 90
       50
176
     1
 90
       50
176
     1
 90
       50
176
     1
290
     0
176
     1
 90
       50
176
     1
 62
   256
176
     0
 40
1.0
176
     0
 90
        2
176
     1
  1
strokes_ogs.tif
176
     1
290
     0
176
     1
 40
1.0
176
     1
 40
1.0
176
     1
1001
ACAD
1000
AcDbSavedByObjectVersion
1070
     0
  0
DICTIONARYVAR
  5
839B
102
{ACAD_REACTORS
330
806C
102
}
330
806C
100
DictionaryVariables
280
     0
  1
1:1
  0
DICTIONARYVAR
  5
8397
102
{ACAD_REACTORS
330
806C
102
}
330
806C
100
DictionaryVariables
280
     0
  1
STANDARD
  0
DICTIONARYVAR
  5
8396
102
{ACAD_REACTORS
330
806C
102
}
330
806C
100
DictionaryVariables
280
     0
  1
STANDARD
  0
DICTIONARYVAR
  5
8398
102
{ACAD_REACTORS
330
806C
102
}
330
806C
100
DictionaryVariables
280
     0
  1
Metric50
  0
DICTIONARYVAR
  5
8399
102
{ACAD_REACTORS
330
806C
102
}
330
806C
100
DictionaryVariables
280
     0
  1
Metric50
  0
DICTIONARYVAR
  5
806D
102
{ACAD_REACTORS
330
806C
102
}
330
806C
100
DictionaryVariables
280
     0
  1
1
  0
DICTIONARYVAR
  5
839D
102
{ACAD_REACTORS
330
806C
102
}
330
806C
100
DictionaryVariables
280
     0
  1
1
  0
DICTIONARYVAR
  5
839E
102
{ACAD_REACTORS
330
806C
102
}
330
806C
100
DictionaryVariables
280
     0
  1
15
  0
DICTIONARYVAR
  5
839C
102
{ACAD_REACTORS
330
806C
102
}
330
806C
100
DictionaryVariables
280
     0
  1
0
  0
DICTIONARYVAR
  5
83A3
102
{ACAD_REACTORS
330
806C
102
}
330
806C
100
DictionaryVariables
280
     0
  1
0
  0
DICTIONARYVAR
  5
839A
102
{ACAD_REACTORS
330
806C
102
}
330
806C
100
DictionaryVariables
280
     0
  1
0
  0
DICTIONARY
  5
83AE
102
{ACAD_REACTORS
330
83AC
102
}
330
83AC
100
AcDbDictionary
281
     1
  0
DICTIONARY
  5
83AD
102
{ACAD_REACTORS
330
83AC
102
}
330
83AC
100
AcDbDictionary
281
     1
  3
2043714168176
350
83A7
  3
2043714168192
350
83A8
  3
2043714168208
350
83A9
  3
2043714168224
350
83AA
  3
2043714168240
350
83AB
  0
DICTIONARY
  5
83B1
330
80C0
100
AcDbDictionary
280
     1
281
     1
  3
ACAD_XREC_ROUNDTRIP
360
83B2
  0
DICTIONARY
  5
807E
330
807D
100
AcDbDictionary
280
     1
281
     1
  3
BUMPTILE
360
8080
  3
DIFFUSETILE
360
807F
  3
OPACITYTILE
360
8083
  3
REFLECTIONTILE
360
8082
  3
REFRACTIONTILE
360
8084
  3
SPECULARTILE
360
8081
  0
DICTIONARY
  5
8076
330
8075
100
AcDbDictionary
280
     1
281
     1
  3
BUMPTILE
360
8078
  3
DIFFUSETILE
360
8077
  3
OPACITYTILE
360
807B
  3
REFLECTIONTILE
360
807A
  3
REFRACTIONTILE
360
807C
  3
SPECULARTILE
360
8079
  0
DICTIONARY
  5
8086
330
8085
100
AcDbDictionary
280
     1
281
     1
  3
BUMPTILE
360
8088
  3
DIFFUSETILE
360
8087
  3
OPACITYTILE
360
808B
  3
REFLECTIONTILE
360
808A
  3
REFRACTIONTILE
360
808C
  3
SPECULARTILE
360
8089
  0
DICTIONARY
  5
83AF
330
80BE
100
AcDbDictionary
280
     1
281
     1
  3
ACAD_XREC_ROUNDTRIP
360
83B0
  0
DICTIONARY
  5
83A4
330
80A8
100
AcDbDictionary
280
     1
281
     1
  3
ACAD_ROUNDTRIP_2008_TABLESTYLE_CELLSTYLEMAP
360
83A5
  0
XRECORD
  5
83A7
102
{ACAD_REACTORS
330
83AD
102
}
330
83AD
100
AcDbXrecord
280
     1
  1
AcDb_Thumbnail_Schema
102
{ATTRRECORD
341
83A8
  2
AcDbDs::TreatedAsObjectData
280
     1
291
     1
102
ATTRRECORD}
102
{ATTRRECORD
341
83A9
  2
AcDbDs::Legacy
280
     1
291
     1
102
ATTRRECORD}
  2
AcDbDs::ID
280
    10
 91
        8
102
{ATTRRECORD
341
83AA
  2
AcDs:Indexable
280
     1
291
     1
102
ATTRRECORD}
102
{ATTRRECORD
341
83AB
  2
AcDbDs::HandleAttribute
280
     7
282
     1
102
ATTRRECORD}
  2
Thumbnail_Data
280
    15
 91
        0
  0
XRECORD
  5
83A8
102
{ACAD_REACTORS
330
83AD
102
}
330
83AD
100
AcDbXrecord
280
     1
  1
AcDbDs::TreatedAsObjectDataSchema
  2
AcDbDs::TreatedAsObjectData
280
     1
 91
        0
  0
XRECORD
  5
83A9
102
{ACAD_REACTORS
330
83AD
102
}
330
83AD
100
AcDbXrecord
280
     1
  1
AcDbDs::LegacySchema
  2
AcDbDs::Legacy
280
     1
 91
        0
  0
XRECORD
  5
83AA
102
{ACAD_REACTORS
330
83AD
102
}
330
83AD
100
AcDbXrecord
280
     1
  1
AcDbDs::IndexedPropertySchema
  2
AcDs:Indexable
280
     1
 91
        0
  0
XRECORD
  5
83AB
102
{ACAD_REACTORS
330
83AD
102
}
330
83AD
100
AcDbXrecord
280
     1
  1
AcDbDs::HandleAttributeSchema
  2
AcDbDs::HandleAttribute
280
     7
 91
        1
284
     1
  0
XRECORD
  5
83B2
102
{ACAD_REACTORS
330
83B1
102
}
330
83B1
100
AcDbXrecord
280
     1
102
DISPLAYNAME
  1
Metric50
102
FLAGS
 90
        0
  0
XRECORD
  5
8080
102
{ACAD_REACTORS
330
807E
102
}
330
807E
100
AcDbXrecord
280
     1
270
     1
271
     1
  0
XRECORD
  5
807F
102
{ACAD_REACTORS
330
807E
102
}
330
807E
100
AcDbXrecord
280
     1
270
     1
271
     1
  0
XRECORD
  5
8083
102
{ACAD_REACTORS
330
807E
102
}
330
807E
100
AcDbXrecord
280
     1
270
     1
271
     1
  0
XRECORD
  5
8082
102
{ACAD_REACTORS
330
807E
102
}
330
807E
100
AcDbXrecord
280
     1
270
     1
271
     1
  0
XRECORD
  5
8084
102
{ACAD_REACTORS
330
807E
102
}
330
807E
100
AcDbXrecord
280
     1
270
     1
271
     1
  0
XRECORD
  5
8081
102
{ACAD_REACTORS
330
807E
102
}
330
807E
100
AcDbXrecord
280
     1
270
     1
271
     1
  0
XRECORD
  5
8078
102
{ACAD_REACTORS
330
8076
102
}
330
8076
100
AcDbXrecord
280
     1
270
     1
271
     1
  0
XRECORD
  5
8077
102
{ACAD_REACTORS
330
8076
102
}
330
8076
100
AcDbXrecord
280
     1
270
     1
271
     1
  0
XRECORD
  5
807B
102
{ACAD_REACTORS
330
8076
102
}
330
8076
100
AcDbXrecord
280
     1
270
     1
271
     1
  0
XRECORD
  5
807A
102
{ACAD_REACTORS
330
8076
102
}
330
8076
100
AcDbXrecord
280
     1
270
     1
271
     1
  0
XRECORD
  5
807C
102
{ACAD_REACTORS
330
8076
102
}
330
8076
100
AcDbXrecord
280
     1
270
     1
271
     1
  0
XRECORD
  5
8079
102
{ACAD_REACTORS
330
8076
102
}
330
8076
100
AcDbXrecord
280
     1
270
     1
271
     1
  0
XRECORD
  5
8088
102
{ACAD_REACTORS
330
8086
102
}
330
8086
100
AcDbXrecord
280
     1
270
     1
271
     1
  0
XRECORD
  5
8087
102
{ACAD_REACTORS
330
8086
102
}
330
8086
100
AcDbXrecord
280
     1
270
     1
271
     1
  0
XRECORD
  5
808B
102
{ACAD_REACTORS
330
8086
102
}
330
8086
100
AcDbXrecord
280
     1
270
     1
271
     1
  0
XRECORD
  5
808A
102
{ACAD_REACTORS
330
8086
102
}
330
8086
100
AcDbXrecord
280
     1
270
     1
271
     1
  0
XRECORD
  5
808C
102
{ACAD_REACTORS
330
8086
102
}
330
8086
100
AcDbXrecord
280
     1
270
     1
271
     1
  0
XRECORD
  5
8089
102
{ACAD_REACTORS
330
8086
102
}
330
8086
100
AcDbXrecord
280
     1
270
     1
271
     1
  0
XRECORD
  5
83B0
102
{ACAD_REACTORS
330
83AF
102
}
330
83AF
100
AcDbXrecord
280
     1
102
DISPLAYNAME
  1
Metric50
102
FLAGS
 90
        0
  0
CELLSTYLEMAP
  5
83A5
102
{ACAD_REACTORS
330
83A4
102
}
330
83A4
100
AcDbCellStyleMap
 90
        3
300
CELLSTYLE
  1
TABLEFORMAT_BEGIN
 90
        5
170
     1
 91
        0
 92
    32768
 62
   257
 93
        1
300
CONTENTFORMAT
  1
CONTENTFORMAT_BEGIN
 90
        0
 91
        0
 92
      512
 93
        0
300

 40
0.0
140
1.0
 94
        5
 62
     0
340
10
144
6.0
309
CONTENTFORMAT_END
171
     1
301
MARGIN
  1
CELLMARGIN_BEGIN
 40
1.5
 40
1.5
 40
1.5
 40
1.5
 40
4.5
 40
4.5
309
CELLMARGIN_END
 94
        6
 95
        1
302
GRIDFORMAT
  1
GRIDFORMAT_BEGIN
 90
        0
 91
        1
 62
     0
 92
       -2
340
0
 93
        0
 40
1.125
309
GRIDFORMAT_END
 95
        2
302
GRIDFORMAT
  1
GRIDFORMAT_BEGIN
 90
        0
 91
        1
 62
     0
 92
       -2
340
0
 93
        0
 40
1.125
309
GRIDFORMAT_END
 95
        4
302
GRIDFORMAT
  1
GRIDFORMAT_BEGIN
 90
        0
 91
        1
 62
     0
 92
       -2
340
0
 93
        0
 40
1.125
309
GRIDFORMAT_END
 95
        8
302
GRIDFORMAT
  1
GRIDFORMAT_BEGIN
 90
        0
 91
        1
 62
     0
 92
       -2
340
0
 93
        0
 40
1.125
309
GRIDFORMAT_END
 95
       16
302
GRIDFORMAT
  1
GRIDFORMAT_BEGIN
 90
        0
 91
        1
 62
     0
 92
       -2
340
0
 93
        0
 40
1.125
309
GRIDFORMAT_END
 95
       32
302
GRIDFORMAT
  1
GRIDFORMAT_BEGIN
 90
        0
 91
        1
 62
     0
 92
       -2
340
0
 93
        0
 40
1.125
309
GRIDFORMAT_END
309
TABLEFORMAT_END
  1
CELLSTYLE_BEGIN
 90
        1
 91
        1
300
_TITLE
309
CELLSTYLE_END
300
CELLSTYLE
  1
TABLEFORMAT_BEGIN
 90
        5
170
     1
 91
        0
 92
        0
 62
   257
 93
        1
300
CONTENTFORMAT
  1
CONTENTFORMAT_BEGIN
 90
        0
 91
        0
 92
      512
 93
        0
300

 40
0.0
140
1.0
 94
        5
 62
     0
340
10
144
4.5
309
CONTENTFORMAT_END
171
     1
301
MARGIN
  1
CELLMARGIN_BEGIN
 40
1.5
 40
1.5
 40
1.5
 40
1.5
 40
4.5
 40
4.5
309
CELLMARGIN_END
 94
        6
 95
        1
302
GRIDFORMAT
  1
GRIDFORMAT_BEGIN
 90
        0
 91
        1
 62
     0
 92
       -2
340
0
 93
        0
 40
1.125
309
GRIDFORMAT_END
 95
        2
302
GRIDFORMAT
  1
GRIDFORMAT_BEGIN
 90
        0
 91
        1
 62
     0
 92
       -2
340
0
 93
        0
 40
1.125
309
GRIDFORMAT_END
 95
        4
302
GRIDFORMAT
  1
GRIDFORMAT_BEGIN
 90
        0
 91
        1
 62
     0
 92
       -2
340
0
 93
        0
 40
1.125
309
GRIDFORMAT_END
 95
        8
302
GRIDFORMAT
  1
GRIDFORMAT_BEGIN
 90
        0
 91
        1
 62
     0
 92
       -2
340
0
 93
        0
 40
1.125
309
GRIDFORMAT_END
 95
       16
302
GRIDFORMAT
  1
GRIDFORMAT_BEGIN
 90
        0
 91
        1
 62
     0
 92
       -2
340
0
 93
        0
 40
1.125
309
GRIDFORMAT_END
 95
       32
302
GRIDFORMAT
  1
GRIDFORMAT_BEGIN
 90
        0
 91
        1
 62
     0
 92
       -2
340
0
 93
        0
 40
1.125
309
GRIDFORMAT_END
309
TABLEFORMAT_END
  1
CELLSTYLE_BEGIN
 90
        2
 91
        1
300
_HEADER
309
CELLSTYLE_END
300
CELLSTYLE
  1
TABLEFORMAT_BEGIN
 90
        5
170
     1
 91
        0
 92
        0
 62
   257
 93
        1
300
CONTENTFORMAT
  1
CONTENTFORMAT_BEGIN
 90
        0
 91
        0
 92
      512
 93
        0
300

 40
0.0
140
1.0
 94
        2
 62
     0
340
10
144
4.5
309
CONTENTFORMAT_END
171
     1
301
MARGIN
  1
CELLMARGIN_BEGIN
 40
1.5
 40
1.5
 40
1.5
 40
1.5
 40
4.5
 40
4.5
309
CELLMARGIN_END
 94
        6
 95
        1
302
GRIDFORMAT
  1
GRIDFORMAT_BEGIN
 90
        0
 91
        1
 62
     0
 92
       -2
340
0
 93
        0
 40
1.125
309
GRIDFORMAT_END
 95
        2
302
GRIDFORMAT
  1
GRIDFORMAT_BEGIN
 90
        0
 91
        1
 62
     0
 92
       -2
340
0
 93
        0
 40
1.125
309
GRIDFORMAT_END
 95
        4
302
GRIDFORMAT
  1
GRIDFORMAT_BEGIN
 90
        0
 91
        1
 62
     0
 92
       -2
340
0
 93
        0
 40
1.125
309
GRIDFORMAT_END
 95
        8
302
GRIDFORMAT
  1
GRIDFORMAT_BEGIN
 90
        0
 91
        1
 62
     0
 92
       -2
340
0
 93
        0
 40
1.125
309
GRIDFORMAT_END
 95
       16
302
GRIDFORMAT
  1
GRIDFORMAT_BEGIN
 90
        0
 91
        1
 62
     0
 92
       -2
340
0
 93
        0
 40
1.125
309
GRIDFORMAT_END
 95
       32
302
GRIDFORMAT
  1
GRIDFORMAT_BEGIN
 90
        0
 91
        1
 62
     0
 92
       -2
340
0
 93
        0
 40
1.125
309
GRIDFORMAT_END
309
TABLEFORMAT_END
  1
CELLSTYLE_BEGIN
 90
        3
 91
        2
300
_DATA
309
CELLSTYLE_END
  0
ENDSEC
  0
SECTION
  2
ACDSDATA
 70
     2
 71
     8
  0
ACDSSCHEMA
 90
        0
  1
AcDb_Thumbnail_Schema
  2
AcDbDs::ID
280
    10
 91
        8
  2
Thumbnail_Data
280
    15
 91
        0
101
ACDSRECORD
 95
        0
 90
        1
  2
AcDbDs::TreatedAsObjectData
280
     1
291
     1
101
ACDSRECORD
 95
        0
 90
        2
  2
AcDbDs::Legacy
280
     1
291
     1
101
ACDSRECORD
  1
AcDbDs::ID
 90
        3
  2
AcDs:Indexable
280
     1
291
     1
101
ACDSRECORD
  1
AcDbDs::ID
 90
        4
  2
AcDbDs::HandleAttribute
280
     7
282
     1
  0
ACDSSCHEMA
 90
        1
  1
AcDbDs::TreatedAsObjectDataSchema
  2
AcDbDs::TreatedAsObjectData
280
     1
 91
        0
  0
ACDSSCHEMA
 90
        2
  1
AcDbDs::LegacySchema
  2
AcDbDs::Legacy
280
     1
 91
        0
  0
ACDSSCHEMA
 90
        3
  1
AcDbDs::IndexedPropertySchema
  2
AcDs:Indexable
280
     1
 91
        0
  0
ACDSSCHEMA
 90
        4
  1
AcDbDs::HandleAttributeSchema
  2
AcDbDs::HandleAttribute
280
     7
 91
        1
284
     1
  0
ACDSRECORD
 90
        0
  2
AcDbDs::ID
280
    10
320
8019
  2
Thumbnail_Data
280
    15
 94
     1700
310
89504E470D0A1A0A0000000D49484452000001000000007C0803000000B13B9E5A00000300504C5445000000000000C8C8C80000000000000000000000000000000000000000000000000000330000660000990000CC0000FF0033000033330033660033990033CC0033FF0066000066330066660066990066CC0066FF0099
310
000099330099660099990099CC0099FF00CC0000CC3300CC6600CC9900CCCC00CCFF00FF0000FF3300FF6600FF9900FFCC00FFFF3300003300333300663300993300CC3300FF3333003333333333663333993333CC3333FF3366003366333366663366993366CC3366FF3399003399333399663399993399CC3399FF33CC00
310
33CC3333CC6633CC9933CCCC33CCFF33FF0033FF3333FF6633FF9933FFCC33FFFF6600006600336600666600996600CC6600FF6633006633336633666633996633CC6633FF6666006666336666666666996666CC6666FF6699006699336699666699996699CC6699FF66CC0066CC3366CC6666CC9966CCCC66CCFF66FF0066
310
FF3366FF6666FF9966FFCC66FFFF9900009900339900669900999900CC9900FF9933009933339933669933999933CC9933FF9966009966339966669966999966CC9966FF9999009999339999669999999999CC9999FF99CC0099CC3399CC6699CC9999CCCC99CCFF99FF0099FF3399FF6699FF9999FFCC99FFFFCC0000CC00
310
33CC0066CC0099CC00CCCC00FFCC3300CC3333CC3366CC3399CC33CCCC33FFCC6600CC6633CC6666CC6699CC66CCCC66FFCC9900CC9933CC9966CC9999CC99CCCC99FFCCCC00CCCC33CCCC66CCCC99CCCCCCCCCCFFCCFF00CCFF33CCFF66CCFF99CCFFCCCCFFFFFF0000FF0033FF0066FF0099FF00CCFF00FFFF3300FF3333
310
FF3366FF3399FF33CCFF33FFFF6600FF6633FF6666FF6699FF66CCFF66FFFF9900FF9933FF9966FF9999FF99CCFF99FFFFCC00FFCC33FFCC66FFCC99FFCCCCFFCCFFFFFF00FFFF33FFFF66FFFF99FFFFCCFFFFFF0000000D0D0D1A1A1A2828283535354343435050505D5D5D6B6B6B787878868686939393A1A1A1AEAEAEBB
310
BBBBC9C9C9D6D6D6E4E4E4F1F1F1FFFFFF00000000000000000000000000000000000000000000000000000000000008F1915C0000035F4944415478DAED9D4D72C3200C85751C6DB8FF65B806FBC646E2CFE078917482F49836B11D27137D3C241094127DA1A46F15DAA4A4CD3E17000000000000007EE58BDEC53E270086
310
B727970A700F2079064096007C7600B023808FCA0900B604203A1E645D9F49459EEFAD8E402E5A0040E2D8AAF924A7A43F497A00490FF51E230A587943ADEB6C7155C0E5CAE600B2A0A5423B15DC9996E004D10F703818BAFB846D010CDE7F10467947B9470FCD012806776181AA935400E378C012001A1420A1426E239B00
310
3EF57EE40401000000606F00F128DD991F00A7AD0AA03C4679C105806571026079060000601EC0D1D0C3A4F801F0FA156B59CD7E5D01009F00F4A81CB803900F03F905A0C603801700710420FE4F82E1F3FEF0CE0038702EE773C88FEA0D9FAAC08C02FA260000EE009430587AC4D136806547E875C4E40E40D31506005700
310
E6E3E10C80FC28A00A205F03001F001619A1B62F6C1A40F503478D7712A861D10780B04E0D7A00708441EA27C8D8635A7C68F3981AF301E0973F1700000000FEF58BAE3D5FE31467FE716700919E8441CB00DE86C10731727305F4B65E1410A78289D614C093AAF701A0F6FD8B029600AE740C01B85740EC01448B00568D3F
310
CE3CA1010083457CCD04B400AED9A2FD01E4A47751C072915406D0BA8AE3D40680A67EB9C900BD0730F4043605A01EFFAC73A64AE09902CC00D089909A1A7707E0309DF3536BAC0238001906100A00757F03803007B0B90F287F1120F51B984A04B80068DC833500B90370D47E5E24941930F700F2EB6D39678D8C28804401
310
41D7C894A670A7002300A489CB54D8B04AAEF501CDACB95E3300204A803B09542718D4E8D6096A78E41A28ED00286B82AA1B3C14119A26601980B47B1D0B90FAC1C0918B1314D767B12BAC92D73542D20C1E3401238321B586EB386018F1760B072D0110118B6D1C5643FEEE1A4FD70EEC9D1099036887C76417403DE5E156
310
9E7F023F4DB56DAF80305740B0D7046E5689D57BAB5F98A504F75E2D1EA9CBF24E53FFB19932982485770510A709EFD9F4DFBBE5335B03F882B2000000367182040000000000A02F79DF51B2DB48F09161C9AE02AE54A8ECC05B779977A180BADF662ABB6E925100F00133C352D944FABA91A60B1FD0EE2A9EDC0058B50B3F
310
0AC0CED2E80A0300000000000000000000000000001803B0D1BFDEFE03464001F3C8F47B3A0000000049454E44AE426082
  0
ENDSEC
  0
EOF
