  0
SECTION
  2
HEADER
  9
$ACADVER
  1
AC1027
  9
$ACADMAINTVER
 70
   125
  9
$DWGCODEPAGE
  3
ANSI_932
  9
$LASTSAVEDBY
  1
yasukiyo.ogawa
  9
$REQUIREDVERSIONS
160
                 0
  9
$INSBASE
 10
0.0
 20
0.0
 30
0.0
  9
$EXTMIN
 10
0.0
 20
0.0
 30
0.0
  9
$EXTMAX
 10
6300.0
 20
8850.0
 30
0.0
  9
$LIMMIN
 10
0.0
 20
0.0
  9
$LIMMAX
 10
297.0
 20
210.0
  9
$ORTHOMODE
 70
     1
  9
$REGENMODE
 70
     1
  9
$FILLMODE
 70
     0
  9
$QTEXTMODE
 70
     0
  9
$MIRRTEXT
 70
     1
  9
$LTSCALE
 40
100.0
  9
$ATTMODE
 70
     1
  9
$TEXTSIZE
 40
180.0
  9
$TRACEWID
 40
0.05
  9
$TEXTSTYLE
  7
STANDARD
  9
$CLAYER
  8
3
  9
$CELTYPE
  6
BYLAYER
  9
$CECOLOR
 62
   256
  9
$CELTSCALE
 40
1.0
  9
$DISPSILH
 70
     0
  9
$DIMSCALE
 40
30.0
  9
$DIMASZ
 40
2.0
  9
$DIMEXO
 40
0.5
  9
$DIMDLI
 40
10.0
  9
$DIMRND
 40
0.0
  9
$DIMDLE
 40
0.0
  9
$DIMEXE
 40
1.0
  9
$DIMTP
 40
1.0
  9
$DIMTM
 40
1.0
  9
$DIMTXT
 40
3.0
  9
$DIMCEN
 40
0.0
  9
$DIMTSZ
 40
0.0
  9
$DIMTOL
 70
     0
  9
$DIMLIM
 70
     0
  9
$DIMTIH
 70
     0
  9
$DIMTOH
 70
     0
  9
$DIMSE1
 70
     0
  9
$DIMSE2
 70
     0
  9
$DIMTAD
 70
     1
  9
$DIMZIN
 70
     8
  9
$DIMBLK
  1

  9
$DIMASO
 70
     1
  9
$DIMSHO
 70
     1
  9
$DIMPOST
  1
(<>)
  9
$DIMAPOST
  1

  9
$DIMALT
 70
     0
  9
$DIMALTD
 70
     2
  9
$DIMALTF
 40
0.039
  9
$DIMLFAC
 40
1.0
  9
$DIMTOFL
 70
     1
  9
$DIMTVP
 40
0.0
  9
$DIMTIX
 70
     0
  9
$DIMSOXD
 70
     0
  9
$DIMSAH
 70
     1
  9
$DIMBLK1
  1
OPEN
  9
$DIMBLK2
  1
OPEN
  9
$DIMSTYLE
  2
IGA
  9
$DIMCLRD
 70
     0
  9
$DIMCLRE
 70
     0
  9
$DIMCLRT
 70
     0
  9
$DIMTFAC
 40
10.0
  9
$DIMGAP
 40
1.0
  9
$DIMJUST
 70
     0
  9
$DIMSD1
 70
     0
  9
$DIMSD2
 70
     0
  9
$DIMTOLJ
 70
     1
  9
$DIMTZIN
 70
     8
  9
$DIMALTZ
 70
     0
  9
$DIMALTTZ
 70
     0
  9
$DIMUPT
 70
     0
  9
$DIMDEC
 70
     0
  9
$DIMTDEC
 70
     0
  9
$DIMALTU
 70
     2
  9
$DIMALTTD
 70
     2
  9
$DIMTXSTY
  7
STANDARD
  9
$DIMAUNIT
 70
     0
  9
$DIMADEC
 70
     0
  9
$DIMALTRND
 40
0.0
  9
$DIMAZIN
 70
     0
  9
$DIMDSEP
 70
    46
  9
$DIMATFIT
 70
     3
  9
$DIMFRAC
 70
     0
  9
$DIMLDRBLK
  1
OPEN
  9
$DIMLUNIT
 70
     2
  9
$DIMLWD
 70
    -2
  9
$DIMLWE
 70
    -2
  9
$DIMTMOVE
 70
     2
  9
$DIMFXL
 40
1.0
  9
$DIMFXLON
 70
     0
  9
$DIMJOGANG
 40
0.7853981633974483
  9
$DIMTFILL
 70
     0
  9
$DIMTFILLCLR
 70
     0
  9
$DIMARCSYM
 70
     0
  9
$DIMLTYPE
  6

  9
$DIMLTEX1
  6

  9
$DIMLTEX2
  6

  9
$DIMTXTDIRECTION
 70
     0
  9
$LUNITS
 70
     2
  9
$LUPREC
 70
     3
  9
$SKETCHINC
 40
0.1
  9
$FILLETRAD
 40
50.0
  9
$AUNITS
 70
     0
  9
$AUPREC
 70
     0
  9
$MENU
  1
acad
  9
$ELEVATION
 40
0.0
  9
$PELEVATION
 40
0.0
  9
$THICKNESS
 40
0.0
  9
$LIMCHECK
 70
     0
  9
$CHAMFERA
 40
0.5
  9
$CHAMFERB
 40
0.5
  9
$CHAMFERC
 40
20.0
  9
$CHAMFERD
 40
0.0
  9
$SKPOLY
 70
     0
  9
$TDCREATE
 40
2451382.399930555
  9
$TDUCREATE
 40
2451382.024940857
  9
$TDUPDATE
 40
2460241.619560186
  9
$TDUUPDATE
 40
2460241.244562720
  9
$TDINDWG
 40
0.0399504398
  9
$TDUSRTIMER
 40
0.0399504398
  9
$USRTIMER
 70
     1
  9
$ANGBASE
 50
0.0
  9
$ANGDIR
 70
     0
  9
$PDMODE
 70
     0
  9
$PDSIZE
 40
0.0
  9
$PLINEWID
 40
0.0
  9
$SPLFRAME
 70
     0
  9
$SPLINETYPE
 70
     6
  9
$SPLINESEGS
 70
     8
  9
$HANDSEED
  5
8418
  9
$SURFTAB1
 70
     6
  9
$SURFTAB2
 70
     6
  9
$SURFTYPE
 70
     6
  9
$SURFU
 70
     6
  9
$SURFV
 70
     6
  9
$UCSBASE
  2

  9
$UCSNAME
  2

  9
$UCSORG
 10
0.0
 20
0.0
 30
0.0
  9
$UCSXDIR
 10
1.0
 20
0.0
 30
0.0
  9
$UCSYDIR
 10
0.0
 20
1.0
 30
0.0
  9
$UCSORTHOREF
  2

  9
$UCSORTHOVIEW
 70
     0
  9
$UCSORGTOP
 10
0.0
 20
0.0
 30
0.0
  9
$UCSORGBOTTOM
 10
0.0
 20
0.0
 30
0.0
  9
$UCSORGLEFT
 10
0.0
 20
0.0
 30
0.0
  9
$UCSORGRIGHT
 10
0.0
 20
0.0
 30
0.0
  9
$UCSORGFRONT
 10
0.0
 20
0.0
 30
0.0
  9
$UCSORGBACK
 10
0.0
 20
0.0
 30
0.0
  9
$PUCSBASE
  2

  9
$PUCSNAME
  2

  9
$PUCSORG
 10
0.0
 20
0.0
 30
0.0
  9
$PUCSXDIR
 10
1.0
 20
0.0
 30
0.0
  9
$PUCSYDIR
 10
0.0
 20
1.0
 30
0.0
  9
$PUCSORTHOREF
  2

  9
$PUCSORTHOVIEW
 70
     0
  9
$PUCSORGTOP
 10
0.0
 20
0.0
 30
0.0
  9
$PUCSORGBOTTOM
 10
0.0
 20
0.0
 30
0.0
  9
$PUCSORGLEFT
 10
0.0
 20
0.0
 30
0.0
  9
$PUCSORGRIGHT
 10
0.0
 20
0.0
 30
0.0
  9
$PUCSORGFRONT
 10
0.0
 20
0.0
 30
0.0
  9
$PUCSORGBACK
 10
0.0
 20
0.0
 30
0.0
  9
$USERI1
 70
     0
  9
$USERI2
 70
     0
  9
$USERI3
 70
     0
  9
$USERI4
 70
     0
  9
$USERI5
 70
     0
  9
$USERR1
 40
0.0
  9
$USERR2
 40
0.0
  9
$USERR3
 40
0.0
  9
$USERR4
 40
0.0
  9
$USERR5
 40
0.0
  9
$WORLDVIEW
 70
     1
  9
$SHADEDGE
 70
     3
  9
$SHADEDIF
 70
    70
  9
$TILEMODE
 70
     1
  9
$MAXACTVP
 70
    16
  9
$PINSBASE
 10
0.0
 20
0.0
 30
0.0
  9
$PLIMCHECK
 70
     0
  9
$PEXTMIN
 10
1.000000000000000E+20
 20
1.000000000000000E+20
 30
1.000000000000000E+20
  9
$PEXTMAX
 10
-1.000000000000000E+20
 20
-1.000000000000000E+20
 30
-1.000000000000000E+20
  9
$PLIMMIN
 10
0.0
 20
0.0
  9
$PLIMMAX
 10
12.0
 20
9.0
  9
$UNITMODE
 70
     0
  9
$VISRETAIN
 70
     0
  9
$PLINEGEN
 70
     0
  9
$PSLTSCALE
 70
     1
  9
$TREEDEPTH
 70
  3020
  9
$CMLSTYLE
  2
STANDARD
  9
$CMLJUST
 70
     0
  9
$CMLSCALE
 40
20.0
  9
$PROXYGRAPHICS
 70
     1
  9
$MEASUREMENT
 70
     1
  9
$CELWEIGHT
370
    -1
  9
$ENDCAPS
280
     0
  9
$JOINSTYLE
280
     0
  9
$LWDISPLAY
290
     0
  9
$INSUNITS
 70
     0
  9
$HYPERLINKBASE
  1

  9
$STYLESHEET
  1

  9
$XEDIT
290
     1
  9
$CEPSNTYPE
380
     0
  9
$PSTYLEMODE
290
     1
  9
$FINGERPRINTGUID
  2
{8735FEE9-C535-4200-A221-8949137AF6DF}
  9
$VERSIONGUID
  2
{33137AA9-8C73-4F92-8DAC-57949024E48B}
  9
$EXTNAMES
290
     1
  9
$PSVPSCALE
 40
0.0
  9
$OLESTARTUP
290
     0
  9
$SORTENTS
280
   127
  9
$INDEXCTL
280
     0
  9
$HIDETEXT
280
     0
  9
$XCLIPFRAME
280
     2
  9
$HALOGAP
280
     0
  9
$OBSCOLOR
 70
   257
  9
$OBSLTYPE
280
     0
  9
$INTERSECTIONDISPLAY
280
     0
  9
$INTERSECTIONCOLOR
 70
   257
  9
$DIMASSOC
280
     1
  9
$PROJECTNAME
  1

  9
$CAMERADISPLAY
290
     0
  9
$LENSLENGTH
 40
50.0
  9
$CAMERAHEIGHT
 40
0.0
  9
$STEPSPERSEC
 40
2.0
  9
$STEPSIZE
 40
6.0
  9
$3DDWFPREC
 40
2.0
  9
$PSOLWIDTH
 40
0.25
  9
$PSOLHEIGHT
 40
4.0
  9
$LOFTANG1
 40
1.570796326794896
  9
$LOFTANG2
 40
1.570796326794896
  9
$LOFTMAG1
 40
0.0
  9
$LOFTMAG2
 40
0.0
  9
$LOFTPARAM
 70
     7
  9
$LOFTNORMALS
280
     1
  9
$LATITUDE
 40
37.795
  9
$LONGITUDE
 40
-122.394
  9
$NORTHDIRECTION
 40
0.0
  9
$TIMEZONE
 70
 -8000
  9
$LIGHTGLYPHDISPLAY
280
     1
  9
$TILEMODELIGHTSYNCH
280
     1
  9
$CMATERIAL
347
80C1
  9
$SOLIDHIST
280
     0
  9
$SHOWHIST
280
     1
  9
$DWFFRAME
280
     2
  9
$DGNFRAME
280
     0
  9
$REALWORLDSCALE
290
     1
  9
$INTERFERECOLOR
 62
     1
  9
$INTERFEREOBJVS
345
80E3
  9
$INTERFEREVPVS
346
80E0
  9
$CSHADOW
280
     0
  9
$SHADOWPLANELOCATION
 40
0.0
  0
ENDSEC
  0
SECTION
  2
CLASSES
  0
CLASS
  1
ACDBDICTIONARYWDFLT
  2
AcDbDictionaryWithDefault
  3
ObjectDBX Classes
 90
        0
 91
        1
280
     0
281
     0
  0
CLASS
  1
MATERIAL
  2
AcDbMaterial
  3
ObjectDBX Classes
 90
     1153
 91
        3
280
     0
281
     0
  0
CLASS
  1
VISUALSTYLE
  2
AcDbVisualStyle
  3
ObjectDBX Classes
 90
     4095
 91
       24
280
     0
281
     0
  0
CLASS
  1
TABLESTYLE
  2
AcDbTableStyle
  3
ObjectDBX Classes
 90
     4095
 91
        1
280
     0
281
     0
  0
CLASS
  1
SCALE
  2
AcDbScale
  3
ObjectDBX Classes
 90
     1153
 91
       17
280
     0
281
     0
  0
CLASS
  1
MLEADERSTYLE
  2
AcDbMLeaderStyle
  3
ACDB_MLEADERSTYLE_CLASS
 90
     4095
 91
        1
280
     0
281
     0
  0
CLASS
  1
ACDBSECTIONVIEWSTYLE
  2
AcDbSectionViewStyle
  3
ObjectDBX Classes
 90
     1025
 91
        1
280
     0
281
     0
  0
CLASS
  1
ACDBDETAILVIEWSTYLE
  2
AcDbDetailViewStyle
  3
ObjectDBX Classes
 90
     1025
 91
        1
280
     0
281
     0
  0
CLASS
  1
DICTIONARYVAR
  2
AcDbDictionaryVar
  3
ObjectDBX Classes
 90
        0
 91
       19
280
     0
281
     0
  0
CLASS
  1
CELLSTYLEMAP
  2
AcDbCellStyleMap
  3
ObjectDBX Classes
 90
     1152
 91
        1
280
     0
281
     0
  0
ENDSEC
  0
SECTION
  2
TABLES
  0
TABLE
  2
VPORT
  5
8
330
0
100
AcDbSymbolTable
 70
     1
1001
ACAD
1000
DbSaveVer
1071
      278
  0
VPORT
  5
80BE
330
8
100
AcDbSymbolTableRecord
100
AcDbViewportTableRecord
  2
*Active
 70
     0
 10
0.0
 20
0.0
 11
1.0
 21
1.0
 12
4041.5848172089
 22
4425.000020605514
 13
0.0
 23
0.0
 14
10.0
 24
10.0
 15
10.0
 25
10.0
 16
0.0
 26
0.0
 36
1.0
 17
0.0
 27
0.0
 37
0.0
 40
8911.357138281468
 41
2.250314465408805
 42
50.0
 43
0.0
 44
0.0
 50
0.0
 51
0.0
 71
     0
 72
   100
 73
     1
 74
     0
 75
     0
 76
     0
 77
     0
 78
     0
281
     0
 65
     1
110
0.0
120
0.0
130
0.0
111
1.0
121
0.0
131
0.0
112
0.0
122
1.0
132
0.0
 79
     0
146
0.0
348
80DF
 60
     3
 61
     5
292
     1
282
     1
141
0.0
142
0.0
 63
   250
421
  3355443
1001
ACAD_NAV_VCDISPLAY
1070
     3
  0
ENDTAB
  0
TABLE
  2
LTYPE
  5
5
330
0
100
AcDbSymbolTable
 70
     2
  0
LTYPE
  5
13
330
5
100
AcDbSymbolTableRecord
100
AcDbLinetypeTableRecord
  2
BYBLOCK
 70
     0
  3

 72
    65
 73
     0
 40
0.0
  0
LTYPE
  5
14
330
5
100
AcDbSymbolTableRecord
100
AcDbLinetypeTableRecord
  2
BYLAYER
 70
     0
  3

 72
    65
 73
     0
 40
0.0
  0
LTYPE
  5
15
330
5
100
AcDbSymbolTableRecord
100
AcDbLinetypeTableRecord
  2
CONTINUOUS
 70
     0
  3
Solid line
 72
    65
 73
     0
 40
0.0
  0
LTYPE
  5
1F
330
5
100
AcDbSymbolTableRecord
100
AcDbLinetypeTableRecord
  2
CENTER
 70
     0
  3
____ _ ____ _ ____ _ ____ _ ____ _ ____ _ ____ 
 72
    65
 73
     4
 40
2.0
 49
1.25
 74
     0
 49
-0.25
 74
     0
 49
0.25
 74
     0
 49
-0.25
 74
     0
  0
ENDTAB
  0
TABLE
  2
LAYER
  5
2
102
{ACAD_XDICTIONARY
360
819C
102
}
330
0
100
AcDbSymbolTable
 70
     7
  0
LAYER
  5
F
102
{ACAD_XDICTIONARY
360
8392
102
}
330
2
100
AcDbSymbolTableRecord
100
AcDbLayerTableRecord
  2
0
 70
     0
 62
     7
  6
CONTINUOUS
370
    -3
390
806B
347
80D1
348
0
  0
LAYER
  5
31
102
{ACAD_XDICTIONARY
360
8394
102
}
330
2
100
AcDbSymbolTableRecord
100
AcDbLayerTableRecord
  2
3
 70
     0
 62
     2
  6
CONTINUOUS
370
    -3
390
806B
347
80D1
348
0
  0
LAYER
  5
76D0
102
{ACAD_XDICTIONARY
360
8396
102
}
330
2
100
AcDbSymbolTableRecord
100
AcDbLayerTableRecord
  2
2
 70
     0
 62
     3
  6
CENTER
370
    -3
390
806B
347
80D1
348
0
  0
LAYER
  5
76D1
102
{ACAD_XDICTIONARY
360
8398
102
}
330
2
100
AcDbSymbolTableRecord
100
AcDbLayerTableRecord
  2
1
 70
     0
 62
     4
  6
CONTINUOUS
370
    -3
390
806B
347
80D1
348
0
  0
LAYER
  5
76D2
102
{ACAD_XDICTIONARY
360
839A
102
}
330
2
100
AcDbSymbolTableRecord
100
AcDbLayerTableRecord
  2
4
 70
     0
 62
     7
  6
CONTINUOUS
370
    -3
390
806B
347
80D1
348
0
  0
LAYER
  5
7B32
330
2
100
AcDbSymbolTableRecord
100
AcDbLayerTableRecord
  2
DEFPOINTS
 70
     0
 62
     7
  6
CONTINUOUS
290
     0
370
    -3
390
806B
347
80D1
348
0
  0
LAYER
  5
819A
102
{ACAD_XDICTIONARY
360
819B
102
}
330
2
100
AcDbSymbolTableRecord
100
AcDbLayerTableRecord
  2
FUTO
 70
     0
 62
     4
  6
CONTINUOUS
370
    -3
390
806B
347
80D1
348
0
  0
ENDTAB
  0
TABLE
  2
STYLE
  5
3
330
0
100
AcDbSymbolTable
 70
     1
  0
STYLE
  5
10
330
3
100
AcDbSymbolTableRecord
100
AcDbTextStyleTableRecord
  2
STANDARD
 70
     0
 40
0.0
 41
1.0
 50
0.0
 71
     0
 42
180.0
  3
simplex.shx
  4
extfont.shx
  0
ENDTAB
  0
TABLE
  2
VIEW
  5
6
330
0
100
AcDbSymbolTable
 70
     1
  0
VIEW
  5
8110
102
{ACAD_XDICTIONARY
360
8111
102
}
330
6
100
AcDbSymbolTableRecord
100
AcDbViewTableRecord
  2
OLE1
 70
     0
 40
10057.60322448291
 10
6995.191537155162
 20
3946.260528397205
 41
20620.23567070802
 11
0.0
 21
0.0
 31
1.0
 12
0.0
 22
0.0
 32
0.0
 42
50.0
 43
0.0
 44
0.0
 50
0.0
 71
     0
281
     0
 72
     0
 73
     0
348
80DF
  0
ENDTAB
  0
TABLE
  2
UCS
  5
7
330
0
100
AcDbSymbolTable
 70
     0
  0
ENDTAB
  0
TABLE
  2
APPID
  5
9
330
0
100
AcDbSymbolTable
 70
     4
  0
APPID
  5
11
330
9
100
AcDbSymbolTableRecord
100
AcDbRegAppTableRecord
  2
ACAD
 70
     0
  0
APPID
  5
8113
330
9
100
AcDbSymbolTableRecord
100
AcDbRegAppTableRecord
  2
ACAD_NAV_VCDISPLAY
 70
     0
  0
APPID
  5
831A
330
9
100
AcDbSymbolTableRecord
100
AcDbRegAppTableRecord
  2
AcadAnnoMonitorAlertIconDisabled
 70
     0
  0
APPID
  5
831B
330
9
100
AcDbSymbolTableRecord
100
AcDbRegAppTableRecord
  2
ACAD_EXEMPT_FROM_CAD_STANDARDS
 70
     0
  0
ENDTAB
  0
TABLE
  2
DIMSTYLE
  5
A
330
0
100
AcDbSymbolTable
 70
     2
100
AcDbDimStyleTable
 71
     1
340
1D
  0
DIMSTYLE
105
1D
102
{ACAD_REACTORS
330
7CF6
330
7CF7
330
8056
330
8063
330
8354
330
8361
102
}
330
A
100
AcDbSymbolTableRecord
100
AcDbDimStyleTableRecord
  2
IGA
 70
     0
 40
2.0
 41
2.0
 42
0.5
 43
10.0
 44
1.0
 47
1.0
 48
1.0
 73
     0
 74
     0
 77
     1
 78
     8
140
3.0
141
0.0
143
0.03937
146
10.0
147
1.0
173
     1
271
     1
272
     0
279
     2
284
     8
340
10
341
79FC
343
79FC
344
79FC
  0
DIMSTYLE
105
7B34
102
{ACAD_REACTORS
330
7C63
330
7C64
330
7C65
330
7CAB
330
7CB1
330
7CCA
330
7CCB
330
7CCC
330
7CD2
330
7CED
330
7CEE
330
7CEF
330
7CF0
330
7CF1
330
7CF5
330
7D21
330
7D22
102
}
330
A
100
AcDbSymbolTableRecord
100
AcDbDimStyleTableRecord
  2
MATSU
 70
     0
 41
2.0
 42
1.0
 43
10.0
 44
1.0
 73
     0
 74
     0
 77
     1
 78
     8
140
3.0
141
0.0
143
0.03937
147
0.5
172
     1
173
     1
176
   256
177
   256
178
   256
284
     8
289
     0
340
10
341
79FC
343
79FC
344
79FC
  0
ENDTAB
  0
TABLE
  2
BLOCK_RECORD
  5
1
330
0
100
AcDbSymbolTable
 70
    48
  0
BLOCK_RECORD
  5
19
102
{ACAD_XDICTIONARY
360
8099
102
}
330
1
100
AcDbSymbolTableRecord
100
AcDbBlockTableRecord
  2
*MODEL_SPACE
340
806E
 70
     0
280
     1
281
     0
  0
BLOCK_RECORD
  5
16
102
{ACAD_XDICTIONARY
360
8097
102
}
330
1
100
AcDbSymbolTableRecord
100
AcDbBlockTableRecord
  2
*PAPER_SPACE
340
806F
 70
     0
280
     1
281
     0
  0
BLOCK_RECORD
  5
79FC
330
1
100
AcDbSymbolTableRecord
100
AcDbBlockTableRecord
  2
_OPEN
340
0
102
{BLKREFS
331
8128
331
8129
331
8134
331
8135
331
8140
331
8141
331
7EF9
331
7EFA
331
7F3D
331
7F3E
331
7FF1
331
800C
331
800D
331
8017
331
8018
331
8022
331
8023
331
802D
331
802E
331
80A7
331
80AE
331
80AF
331
7E54
331
7E55
331
7E5F
331
7E60
331
7E6A
331
7E6B
331
7E80
331
7E81
331
7EC2
331
7EC3
331
7ECD
331
7ECE
331
7ED8
331
7ED9
331
7EE3
331
7EE4
331
7EEE
331
7EEF
331
8329
331
832A
331
8332
331
8333
331
834D
331
834E
331
8383
331
8384
331
838C
331
838D
331
814C
331
814D
331
8157
331
8158
331
8163
331
8164
331
816F
331
8170
331
817B
331
817C
331
8187
331
8188
331
8193
331
8194
102
}
 70
     0
280
     1
281
     0
  0
BLOCK_RECORD
  5
7A0A
330
1
100
AcDbSymbolTableRecord
100
AcDbBlockTableRecord
  2
YA_N
340
0
102
{BLKREFS
331
7C61
331
7C9F
331
7CA1
331
7C35
102
}
 70
     0
280
     1
281
     0
  0
BLOCK_RECORD
  5
7A0D
330
1
100
AcDbSymbolTableRecord
100
AcDbBlockTableRecord
  2
ARROW
340
0
 70
     0
280
     1
281
     0
  0
BLOCK_RECORD
  5
7D2F
330
1
100
AcDbSymbolTableRecord
100
AcDbBlockTableRecord
  2
*D3
340
0
 70
     0
280
     1
281
     0
  0
BLOCK_RECORD
  5
7D3B
330
1
100
AcDbSymbolTableRecord
100
AcDbBlockTableRecord
  2
*D4
340
0
 70
     0
280
     1
281
     0
  0
BLOCK_RECORD
  5
7D47
330
1
100
AcDbSymbolTableRecord
100
AcDbBlockTableRecord
  2
*D5
340
0
 70
     0
280
     1
281
     0
  0
BLOCK_RECORD
  5
7D53
330
1
100
AcDbSymbolTableRecord
100
AcDbBlockTableRecord
  2
*D6
340
0
 70
     0
280
     1
281
     0
  0
BLOCK_RECORD
  5
7D5F
330
1
100
AcDbSymbolTableRecord
100
AcDbBlockTableRecord
  2
*D7
340
0
 70
     0
280
     1
281
     0
  0
BLOCK_RECORD
  5
7D6B
330
1
100
AcDbSymbolTableRecord
100
AcDbBlockTableRecord
  2
*D8
340
0
 70
     0
280
     1
281
     0
  0
BLOCK_RECORD
  5
7D77
330
1
100
AcDbSymbolTableRecord
100
AcDbBlockTableRecord
  2
*D9
340
0
 70
     0
280
     1
281
     0
  0
BLOCK_RECORD
  5
7D83
330
1
100
AcDbSymbolTableRecord
100
AcDbBlockTableRecord
  2
*D10
340
0
 70
     0
280
     1
281
     0
  0
BLOCK_RECORD
  5
7D9B
330
1
100
AcDbSymbolTableRecord
100
AcDbBlockTableRecord
  2
*D11
340
0
 70
     0
280
     1
281
     0
  0
BLOCK_RECORD
  5
7DB3
330
1
100
AcDbSymbolTableRecord
100
AcDbBlockTableRecord
  2
*D12
340
0
 70
     0
280
     1
281
     0
  0
BLOCK_RECORD
  5
7DBF
330
1
100
AcDbSymbolTableRecord
100
AcDbBlockTableRecord
  2
*D13
340
0
 70
     0
280
     1
281
     0
  0
BLOCK_RECORD
  5
7DCB
330
1
100
AcDbSymbolTableRecord
100
AcDbBlockTableRecord
  2
*D14
340
0
 70
     0
280
     1
281
     0
  0
BLOCK_RECORD
  5
7DD7
330
1
100
AcDbSymbolTableRecord
100
AcDbBlockTableRecord
  2
*D15
340
0
 70
     0
280
     1
281
     0
  0
BLOCK_RECORD
  5
7DE3
330
1
100
AcDbSymbolTableRecord
100
AcDbBlockTableRecord
  2
*D16
340
0
 70
     0
280
     1
281
     0
  0
BLOCK_RECORD
  5
7DEF
330
1
100
AcDbSymbolTableRecord
100
AcDbBlockTableRecord
  2
*D17
340
0
 70
     0
280
     1
281
     0
  0
BLOCK_RECORD
  5
7DFB
330
1
100
AcDbSymbolTableRecord
100
AcDbBlockTableRecord
  2
*D18
340
0
 70
     0
280
     1
281
     0
  0
BLOCK_RECORD
  5
7E09
330
1
100
AcDbSymbolTableRecord
100
AcDbBlockTableRecord
  2
*D19
340
0
 70
     0
280
     1
281
     0
  0
BLOCK_RECORD
  5
7E2E
330
1
100
AcDbSymbolTableRecord
100
AcDbBlockTableRecord
  2
*D20
340
0
 70
     0
280
     1
281
     0
  0
BLOCK_RECORD
  5
7E39
330
1
100
AcDbSymbolTableRecord
100
AcDbBlockTableRecord
  2
*D21
340
0
 70
     0
280
     1
281
     0
  0
BLOCK_RECORD
  5
7FD3
330
1
100
AcDbSymbolTableRecord
100
AcDbBlockTableRecord
  2
_DOT
340
0
102
{BLKREFS
331
7FF2
331
80A6
102
}
 70
     0
280
     1
281
     0
  0
BLOCK_RECORD
  5
804A
330
1
100
AcDbSymbolTableRecord
100
AcDbBlockTableRecord
  2
*D23
340
0
 70
     0
280
     1
281
     0
  0
BLOCK_RECORD
  5
8057
330
1
100
AcDbSymbolTableRecord
100
AcDbBlockTableRecord
  2
*D24
340
0
 70
     0
280
     1
281
     0
  0
BLOCK_RECORD
  5
8123
330
1
100
AcDbSymbolTableRecord
100
AcDbBlockTableRecord
  2
*D25
340
0
 70
     0
280
     1
281
     0
  0
BLOCK_RECORD
  5
812F
330
1
100
AcDbSymbolTableRecord
100
AcDbBlockTableRecord
  2
*D26
340
0
 70
     0
280
     1
281
     0
  0
BLOCK_RECORD
  5
813B
330
1
100
AcDbSymbolTableRecord
100
AcDbBlockTableRecord
  2
*D27
340
0
 70
     0
280
     1
281
     0
  0
BLOCK_RECORD
  5
8147
330
1
100
AcDbSymbolTableRecord
100
AcDbBlockTableRecord
  2
*D28
340
0
 70
     0
280
     1
281
     0
  0
BLOCK_RECORD
  5
8153
330
1
100
AcDbSymbolTableRecord
100
AcDbBlockTableRecord
  2
*D29
340
0
 70
     0
280
     1
281
     0
  0
BLOCK_RECORD
  5
815E
330
1
100
AcDbSymbolTableRecord
100
AcDbBlockTableRecord
  2
*D30
340
0
 70
     0
280
     1
281
     0
  0
BLOCK_RECORD
  5
816A
330
1
100
AcDbSymbolTableRecord
100
AcDbBlockTableRecord
  2
*D31
340
0
 70
     0
280
     1
281
     0
  0
BLOCK_RECORD
  5
8176
330
1
100
AcDbSymbolTableRecord
100
AcDbBlockTableRecord
  2
*D32
340
0
 70
     0
280
     1
281
     0
  0
BLOCK_RECORD
  5
8182
330
1
100
AcDbSymbolTableRecord
100
AcDbBlockTableRecord
  2
*D33
340
0
 70
     0
280
     1
281
     0
  0
BLOCK_RECORD
  5
818E
330
1
100
AcDbSymbolTableRecord
100
AcDbBlockTableRecord
  2
*D34
340
0
 70
     0
280
     1
281
     0
  0
BLOCK_RECORD
  5
819E
102
{ACAD_XDICTIONARY
360
81EE
102
}
330
1
100
AcDbSymbolTableRecord
100
AcDbBlockTableRecord
  2
A$C2C6238AF
340
0
 70
     0
280
     1
281
     0
  0
BLOCK_RECORD
  5
8355
330
1
100
AcDbSymbolTableRecord
100
AcDbBlockTableRecord
  2
*D46
340
0
 70
     0
280
     1
281
     0
  0
BLOCK_RECORD
  5
8362
330
1
100
AcDbSymbolTableRecord
100
AcDbBlockTableRecord
  2
*D47
340
0
 70
     0
280
     1
281
     0
  0
ENDTAB
  0
ENDSEC
  0
SECTION
  2
BLOCKS
  0
BLOCK
  5
1A
330
19
100
AcDbEntity
  8
0
100
AcDbBlockBegin
  2
*MODEL_SPACE
 70
     0
 10
0.0
 20
0.0
 30
0.0
  3
*MODEL_SPACE
  1

  0
ENDBLK
  5
1B
330
19
100
AcDbEntity
  8
0
100
AcDbBlockEnd
  0
BLOCK
  5
17
330
16
100
AcDbEntity
 67
     1
  8
0
100
AcDbBlockBegin
  2
*PAPER_SPACE
 70
     0
 10
0.0
 20
0.0
 30
0.0
  3
*PAPER_SPACE
  1

  0
ENDBLK
  5
18
330
16
100
AcDbEntity
 67
     1
  8
0
100
AcDbBlockEnd
  0
BLOCK
  5
7A00
330
79FC
100
AcDbEntity
  8
0
100
AcDbBlockBegin
  2
_OPEN
 70
     0
 10
0.0
 20
0.0
 30
0.0
  3
_OPEN
  1

  0
LINE
  5
79FD
330
79FC
100
AcDbEntity
  8
0
  6
ByBlock
 62
     0
100
AcDbLine
 10
-1.0
 20
0.1666666666666666
 30
0.0
 11
0.0
 21
0.0
 31
0.0
  0
LINE
  5
79FE
330
79FC
100
AcDbEntity
  8
0
  6
ByBlock
 62
     0
100
AcDbLine
 10
0.0
 20
0.0
 30
0.0
 11
-1.0
 21
-0.1666666666666666
 31
0.0
  0
LINE
  5
79FF
330
79FC
100
AcDbEntity
  8
0
  6
ByBlock
 62
     0
100
AcDbLine
 10
0.0
 20
0.0
 30
0.0
 11
-1.0
 21
0.0
 31
0.0
  0
ENDBLK
  5
7A01
330
79FC
100
AcDbEntity
  8
0
100
AcDbBlockEnd
  0
BLOCK
  5
7A0B
330
7A0A
100
AcDbEntity
  8
0
100
AcDbBlockBegin
  2
YA_N
 70
     0
 10
0.0
 20
0.0
 30
0.0
  3
YA_N
  1

  0
ENDBLK
  5
7A0C
330
7A0A
100
AcDbEntity
  8
0
100
AcDbBlockEnd
  0
BLOCK
  5
7A11
330
7A0D
100
AcDbEntity
  8
0
100
AcDbBlockBegin
  2
ARROW
 70
     0
 10
0.0
 20
0.0
 30
0.0
  3
ARROW
  1

  0
LINE
  5
7A0E
330
7A0D
100
AcDbEntity
  8
0
100
AcDbLine
 10
-0.9999999999999991
 20
0.1666666667000003
 30
0.0
 11
0.0
 21
0.0
 31
0.0
  0
LINE
  5
7A0F
330
7A0D
100
AcDbEntity
  8
0
100
AcDbLine
 10
-0.9999999999999991
 20
0.0
 30
0.0
 11
0.0
 21
0.0
 31
0.0
  0
LINE
  5
7A10
330
7A0D
100
AcDbEntity
  8
0
100
AcDbLine
 10
-0.9999999999999991
 20
-0.1666666667000003
 30
0.0
 11
0.0
 21
0.0
 31
0.0
  0
ENDBLK
  5
7A12
330
7A0D
100
AcDbEntity
  8
0
100
AcDbBlockEnd
  0
BLOCK
  5
8029
330
7D2F
100
AcDbEntity
  8
0
100
AcDbBlockBegin
  2
*D3
 70
     1
 10
0.0
 20
0.0
 30
0.0
  3
*D3
  1

  0
LINE
  5
802A
330
7D2F
100
AcDbEntity
  8
0
  6
ByBlock
440
 16777216
100
AcDbLine
 10
1591.79738266154
 20
2247.549504980872
 30
0.0
 11
1591.79738266154
 21
2027.3073487531
 31
0.0
  0
LINE
  5
802B
330
7D2F
100
AcDbEntity
  8
0
  6
ByBlock
440
 16777216
100
AcDbLine
 10
2091.79738266154
 20
2247.549504980872
 30
0.0
 11
2091.79738266154
 21
2027.3073487531
 31
0.0
  0
LINE
  5
802C
330
7D2F
100
AcDbEntity
  8
0
  6
ByBlock
440
 16777216
100
AcDbLine
 10
1651.79738266154
 20
2057.3073487531
 30
0.0
 11
2031.79738266154
 21
2057.3073487531
 31
0.0
  0
INSERT
  5
802D
330
7D2F
100
AcDbEntity
  8
0
  6
ByBlock
440
 16777216
100
AcDbBlockReference
  2
_OPEN
 10
1591.79738266154
 20
2057.3073487531
 30
0.0
 41
60.0
 42
60.0
 43
60.0
 50
180.0
  0
INSERT
  5
802E
330
7D2F
100
AcDbEntity
  8
0
  6
ByBlock
440
 16777216
100
AcDbBlockReference
  2
_OPEN
 10
2091.79738266154
 20
2057.3073487531
 30
0.0
 41
60.0
 42
60.0
 43
60.0
  0
MTEXT
  5
802F
330
7D2F
100
AcDbEntity
  8
0
  6
ByBlock
440
 16777216
100
AcDbMText
 10
1841.79738266154
 20
2117.3073487531
 30
0.0
 40
90.0
 41
0.0
 46
0.0
 71
     5
 72
     5
  1
\A1;500
 73
     1
 44
1.0
  0
POINT
  5
8030
330
7D2F
100
AcDbEntity
  8
DEFPOINTS
  6
ByBlock
 62
     0
440
 16777216
100
AcDbPoint
 10
1591.79738266154
 20
2277.549504980873
 30
0.0
  0
POINT
  5
8031
330
7D2F
100
AcDbEntity
  8
DEFPOINTS
  6
ByBlock
 62
     0
440
 16777216
100
AcDbPoint
 10
2091.79738266154
 20
2277.549504980873
 30
0.0
  0
POINT
  5
8032
330
7D2F
100
AcDbEntity
  8
DEFPOINTS
  6
ByBlock
 62
     0
440
 16777216
100
AcDbPoint
 10
2091.79738266154
 20
2057.3073487531
 30
0.0
  0
ENDBLK
  5
8033
330
7D2F
100
AcDbEntity
  8
0
100
AcDbBlockEnd
  0
BLOCK
  5
7E50
330
7D3B
100
AcDbEntity
  8
0
100
AcDbBlockBegin
  2
*D4
 70
     1
 10
0.0
 20
0.0
 30
0.0
  3
*D4
  1

  0
LINE
  5
7E51
330
7D3B
100
AcDbEntity
  8
0
  6
ByBlock
440
 16777216
100
AcDbLine
 10
1247.495117579665
 20
713.8876154094814
 30
0.0
 11
1099.149774037601
 21
713.8876154094814
 31
0.0
  0
LINE
  5
7E52
330
7D3B
100
AcDbEntity
  8
0
  6
ByBlock
440
 16777216
100
AcDbLine
 10
1247.495117579665
 20
1538.887615409481
 30
0.0
 11
1099.149774037601
 21
1538.887615409481
 31
0.0
  0
LINE
  5
7E53
330
7D3B
100
AcDbEntity
  8
0
  6
ByBlock
440
 16777216
100
AcDbLine
 10
1129.149774037601
 20
773.8876154094814
 30
0.0
 11
1129.149774037601
 21
1478.887615409481
 31
0.0
  0
INSERT
  5
7E54
330
7D3B
100
AcDbEntity
  8
0
  6
ByBlock
440
 16777216
100
AcDbBlockReference
  2
_OPEN
 10
1129.149774037601
 20
713.8876154094814
 30
0.0
 41
60.0
 42
60.0
 43
60.0
 50
270.0
  0
INSERT
  5
7E55
330
7D3B
100
AcDbEntity
  8
0
  6
ByBlock
440
 16777216
100
AcDbBlockReference
  2
_OPEN
 10
1129.149774037601
 20
1538.887615409481
 30
0.0
 41
60.0
 42
60.0
 43
60.0
 50
90.0
  0
MTEXT
  5
7E56
330
7D3B
100
AcDbEntity
  8
0
  6
ByBlock
440
 16777216
100
AcDbMText
 10
1069.149774037601
 20
1126.387615409481
 30
0.0
 40
90.0
 41
0.0
 46
0.0
 71
     5
 72
     5
  1
\A1;825
 11
0.0
 21
1.0
 31
0.0
 73
     1
 44
1.0
  0
POINT
  5
7E57
330
7D3B
100
AcDbEntity
  8
DEFPOINTS
  6
ByBlock
 62
     0
440
 16777216
100
AcDbPoint
 10
1277.495117579665
 20
713.8876154094814
 30
0.0
  0
POINT
  5
7E58
330
7D3B
100
AcDbEntity
  8
DEFPOINTS
  6
ByBlock
 62
     0
440
 16777216
100
AcDbPoint
 10
1277.495117579665
 20
1538.887615409481
 30
0.0
  0
POINT
  5
7E59
330
7D3B
100
AcDbEntity
  8
DEFPOINTS
  6
ByBlock
 62
     0
440
 16777216
100
AcDbPoint
 10
1129.149774037601
 20
1538.887615409481
 30
0.0
  0
ENDBLK
  5
7E5A
330
7D3B
100
AcDbEntity
  8
0
100
AcDbBlockEnd
  0
BLOCK
  5
7E5B
330
7D47
100
AcDbEntity
  8
0
100
AcDbBlockBegin
  2
*D5
 70
     1
 10
0.0
 20
0.0
 30
0.0
  3
*D5
  1

  0
LINE
  5
7E5C
330
7D47
100
AcDbEntity
  8
0
  6
ByBlock
440
 16777216
100
AcDbLine
 10
1247.495117579665
 20
713.8876154094814
 30
0.0
 11
946.8663714637987
 21
713.8876154094814
 31
0.0
  0
LINE
  5
7E5D
330
7D47
100
AcDbEntity
  8
0
  6
ByBlock
440
 16777216
100
AcDbLine
 10
1126.023325729275
 20
1561.887615409481
 30
0.0
 11
946.8663714637987
 21
1561.887615409481
 31
0.0
  0
LINE
  5
7E5E
330
7D47
100
AcDbEntity
  8
0
  6
ByBlock
440
 16777216
100
AcDbLine
 10
976.8663714637987
 20
773.8876154094814
 30
0.0
 11
976.8663714637987
 21
1501.887615409481
 31
0.0
  0
INSERT
  5
7E5F
330
7D47
100
AcDbEntity
  8
0
  6
ByBlock
440
 16777216
100
AcDbBlockReference
  2
_OPEN
 10
976.8663714637987
 20
713.8876154094814
 30
0.0
 41
60.0
 42
60.0
 43
60.0
 50
270.0
  0
INSERT
  5
7E60
330
7D47
100
AcDbEntity
  8
0
  6
ByBlock
440
 16777216
100
AcDbBlockReference
  2
_OPEN
 10
976.8663714637987
 20
1561.887615409481
 30
0.0
 41
60.0
 42
60.0
 43
60.0
 50
90.0
  0
MTEXT
  5
7E61
330
7D47
100
AcDbEntity
  8
0
  6
ByBlock
440
 16777216
100
AcDbMText
 10
916.8663714637986
 20
1137.887615409481
 30
0.0
 40
90.0
 41
0.0
 46
0.0
 71
     5
 72
     5
  1
\A1;848
 11
0.0
 21
1.0
 31
0.0
 73
     1
 44
1.0
  0
POINT
  5
7E62
330
7D47
100
AcDbEntity
  8
DEFPOINTS
  6
ByBlock
 62
     0
440
 16777216
100
AcDbPoint
 10
1277.495117579665
 20
713.8876154094814
 30
0.0
  0
POINT
  5
7E63
330
7D47
100
AcDbEntity
  8
DEFPOINTS
  6
ByBlock
 62
     0
440
 16777216
100
AcDbPoint
 10
1156.023325729275
 20
1561.887615409481
 30
0.0
  0
POINT
  5
7E64
330
7D47
100
AcDbEntity
  8
DEFPOINTS
  6
ByBlock
 62
     0
440
 16777216
100
AcDbPoint
 10
976.8663714637987
 20
1561.887615409481
 30
0.0
  0
ENDBLK
  5
7E65
330
7D47
100
AcDbEntity
  8
0
100
AcDbBlockEnd
  0
BLOCK
  5
7E66
330
7D53
100
AcDbEntity
  8
0
100
AcDbBlockBegin
  2
*D6
 70
     1
 10
0.0
 20
0.0
 30
0.0
  3
*D6
  1

  0
LINE
  5
7E67
330
7D53
100
AcDbEntity
  8
0
  6
ByBlock
440
 16777216
100
AcDbLine
 10
1126.023325729275
 20
1561.887615409481
 30
0.0
 11
783.4148450250104
 21
1561.887615409481
 31
0.0
  0
LINE
  5
7E68
330
7D53
100
AcDbEntity
  8
0
  6
ByBlock
440
 16777216
100
AcDbLine
 10
1292.495117579665
 20
601.8876154094814
 30
0.0
 11
783.4148450250104
 21
601.8876154094814
 31
0.0
  0
LINE
  5
7E69
330
7D53
100
AcDbEntity
  8
0
  6
ByBlock
440
 16777216
100
AcDbLine
 10
813.4148450250105
 20
1501.887615409481
 30
0.0
 11
813.4148450250105
 21
661.8876154094814
 31
0.0
  0
INSERT
  5
7E6A
330
7D53
100
AcDbEntity
  8
0
  6
ByBlock
440
 16777216
100
AcDbBlockReference
  2
_OPEN
 10
813.4148450250105
 20
1561.887615409481
 30
0.0
 41
60.0
 42
60.0
 43
60.0
 50
90.0
  0
INSERT
  5
7E6B
330
7D53
100
AcDbEntity
  8
0
  6
ByBlock
440
 16777216
100
AcDbBlockReference
  2
_OPEN
 10
813.4148450250105
 20
601.8876154094814
 30
0.0
 41
60.0
 42
60.0
 43
60.0
 50
270.0
  0
MTEXT
  5
7E6C
330
7D53
100
AcDbEntity
  8
0
  6
ByBlock
440
 16777216
100
AcDbMText
 10
753.4148450250104
 20
1081.887615409481
 30
0.0
 40
90.0
 41
0.0
 46
0.0
 71
     5
 72
     5
  1
\A1;960
 11
0.0
 21
1.0
 31
0.0
 73
     1
 44
1.0
  0
POINT
  5
7E6D
330
7D53
100
AcDbEntity
  8
DEFPOINTS
  6
ByBlock
 62
     0
440
 16777216
100
AcDbPoint
 10
1156.023325729275
 20
1561.887615409481
 30
0.0
  0
POINT
  5
7E6E
330
7D53
100
AcDbEntity
  8
DEFPOINTS
  6
ByBlock
 62
     0
440
 16777216
100
AcDbPoint
 10
1322.495117579665
 20
601.8876154094814
 30
0.0
  0
POINT
  5
7E6F
330
7D53
100
AcDbEntity
  8
DEFPOINTS
  6
ByBlock
 62
     0
440
 16777216
100
AcDbPoint
 10
813.4148450250105
 20
601.8876154094814
 30
0.0
  0
ENDBLK
  5
7E70
330
7D53
100
AcDbEntity
  8
0
100
AcDbBlockEnd
  0
BLOCK
  5
7E71
330
7D5F
100
AcDbEntity
  8
0
100
AcDbBlockBegin
  2
*D7
 70
     1
 10
0.0
 20
0.0
 30
0.0
  3
*D7
  1

  0
LINE
  5
8326
330
7D5F
100
AcDbEntity
  8
3
440
 16777216
370
    -2
100
AcDbLine
 10
2091.79738266154
 20
3958.823298751017
 30
0.0
 11
2091.79738266154
 21
4141.149475370897
 31
0.0
  0
LINE
  5
8327
330
7D5F
100
AcDbEntity
  8
3
440
 16777216
370
    -2
100
AcDbLine
 10
2767.79738266154
 20
3353.549504980872
 30
0.0
 11
2767.79738266154
 21
4141.149475370897
 31
0.0
  0
LINE
  5
8328
330
7D5F
100
AcDbEntity
  8
3
440
 16777216
370
    -2
100
AcDbLine
 10
2151.79738266154
 20
4111.149475370897
 30
0.0
 11
2707.79738266154
 21
4111.149475370897
 31
0.0
  0
INSERT
  5
8329
330
7D5F
100
AcDbEntity
  8
3
440
 16777216
370
    -2
100
AcDbBlockReference
  2
_OPEN
 10
2091.79738266154
 20
4111.149475370897
 30
0.0
 41
60.0
 42
60.0
 43
60.0
 50
180.0
  0
INSERT
  5
832A
330
7D5F
100
AcDbEntity
  8
3
440
 16777216
370
    -2
100
AcDbBlockReference
  2
_OPEN
 10
2767.79738266154
 20
4111.149475370897
 30
0.0
 41
60.0
 42
60.0
 43
60.0
  0
MTEXT
  5
832B
330
7D5F
100
AcDbEntity
  8
3
440
 16777216
100
AcDbMText
 10
2429.79738266154
 20
4171.149475370897
 30
0.0
 40
90.0
 41
0.0
 46
0.0
 71
     5
 72
     1
  1
\A1;676
 73
     1
 44
1.0
  0
POINT
  5
832C
330
7D5F
100
AcDbEntity
  8
DEFPOINTS
 62
     0
440
 16777216
100
AcDbPoint
 10
2091.79738266154
 20
3928.823298751016
 30
0.0
  0
POINT
  5
832D
330
7D5F
100
AcDbEntity
  8
DEFPOINTS
 62
     0
440
 16777216
100
AcDbPoint
 10
2767.79738266154
 20
3323.549504980873
 30
0.0
  0
POINT
  5
832E
330
7D5F
100
AcDbEntity
  8
DEFPOINTS
 62
     0
440
 16777216
100
AcDbPoint
 10
2767.79738266154
 20
4111.149475370897
 30
0.0
  0
ENDBLK
  5
7E7B
330
7D5F
100
AcDbEntity
  8
0
100
AcDbBlockEnd
  0
BLOCK
  5
7E7C
330
7D6B
100
AcDbEntity
  8
0
100
AcDbBlockBegin
  2
*D8
 70
     1
 10
0.0
 20
0.0
 30
0.0
  3
*D8
  1

  0
LINE
  5
7E7D
330
7D6B
100
AcDbEntity
  8
0
  6
ByBlock
440
 16777216
100
AcDbLine
 10
5476.207505112643
 20
1161.887615409481
 30
0.0
 11
5724.703349046961
 21
1161.887615409481
 31
0.0
  0
LINE
  5
7E7E
330
7D6B
100
AcDbEntity
  8
0
  6
ByBlock
440
 16777216
100
AcDbLine
 10
5476.207505112643
 20
1961.887615409481
 30
0.0
 11
5724.703349046961
 21
1961.887615409481
 31
0.0
  0
LINE
  5
7E7F
330
7D6B
100
AcDbEntity
  8
0
  6
ByBlock
440
 16777216
100
AcDbLine
 10
5694.703349046962
 20
1221.887615409481
 30
0.0
 11
5694.703349046962
 21
1901.887615409481
 31
0.0
  0
INSERT
  5
7E80
330
7D6B
100
AcDbEntity
  8
0
  6
ByBlock
440
 16777216
100
AcDbBlockReference
  2
_OPEN
 10
5694.703349046962
 20
1161.887615409481
 30
0.0
 41
60.0
 42
60.0
 43
60.0
 50
270.0
  0
INSERT
  5
7E81
330
7D6B
100
AcDbEntity
  8
0
  6
ByBlock
440
 16777216
100
AcDbBlockReference
  2
_OPEN
 10
5694.703349046962
 20
1961.887615409481
 30
0.0
 41
60.0
 42
60.0
 43
60.0
 50
90.0
  0
MTEXT
  5
7E82
330
7D6B
100
AcDbEntity
  8
0
  6
ByBlock
440
 16777216
100
AcDbMText
 10
5634.703349046962
 20
1561.887615409481
 30
0.0
 40
90.0
 41
0.0
 46
0.0
 71
     5
 72
     5
  1
\A1;φ800
 11
0.0
 21
1.0
 31
0.0
 73
     1
 44
1.0
  0
POINT
  5
7E83
330
7D6B
100
AcDbEntity
  8
DEFPOINTS
  6
ByBlock
 62
     0
440
 16777216
100
AcDbPoint
 10
5446.207505112644
 20
1161.887615409481
 30
0.0
  0
POINT
  5
7E84
330
7D6B
100
AcDbEntity
  8
DEFPOINTS
  6
ByBlock
 62
     0
440
 16777216
100
AcDbPoint
 10
5446.207505112644
 20
1961.887615409481
 30
0.0
  0
POINT
  5
7E85
330
7D6B
100
AcDbEntity
  8
DEFPOINTS
  6
ByBlock
 62
     0
440
 16777216
100
AcDbPoint
 10
5694.703349046962
 20
1961.887615409481
 30
0.0
  0
ENDBLK
  5
7E86
330
7D6B
100
AcDbEntity
  8
0
100
AcDbBlockEnd
  0
BLOCK
  5
8013
330
7D77
100
AcDbEntity
  8
0
100
AcDbBlockBegin
  2
*D9
 70
     1
 10
0.0
 20
0.0
 30
0.0
  3
*D9
  1

  0
LINE
  5
8014
330
7D77
100
AcDbEntity
  8
0
  6
ByBlock
440
 16777216
100
AcDbLine
 10
4176.907505112644
 20
2247.549504980872
 30
0.0
 11
4176.907505112644
 21
2026.624312903834
 31
0.0
  0
LINE
  5
8015
330
7D77
100
AcDbEntity
  8
0
  6
ByBlock
440
 16777216
100
AcDbLine
 10
4913.907505112645
 20
2247.549504980872
 30
0.0
 11
4913.907505112645
 21
2026.624312903834
 31
0.0
  0
LINE
  5
8016
330
7D77
100
AcDbEntity
  8
0
  6
ByBlock
440
 16777216
100
AcDbLine
 10
4236.907505112643
 20
2056.624312903834
 30
0.0
 11
4853.907505112644
 21
2056.624312903834
 31
0.0
  0
INSERT
  5
8017
330
7D77
100
AcDbEntity
  8
0
  6
ByBlock
440
 16777216
100
AcDbBlockReference
  2
_OPEN
 10
4176.907505112644
 20
2056.624312903834
 30
0.0
 41
60.0
 42
60.0
 43
60.0
 50
180.0
  0
INSERT
  5
8018
330
7D77
100
AcDbEntity
  8
0
  6
ByBlock
440
 16777216
100
AcDbBlockReference
  2
_OPEN
 10
4913.907505112645
 20
2056.624312903834
 30
0.0
 41
60.0
 42
60.0
 43
60.0
  0
MTEXT
  5
8019
330
7D77
100
AcDbEntity
  8
0
  6
ByBlock
440
 16777216
100
AcDbMText
 10
4545.407505112644
 20
2116.624312903834
 30
0.0
 40
90.0
 41
0.0
 46
0.0
 71
     5
 72
     5
  1
\A1;737
 73
     1
 44
1.0
  0
POINT
  5
801A
330
7D77
100
AcDbEntity
  8
DEFPOINTS
  6
ByBlock
 62
     0
440
 16777216
100
AcDbPoint
 10
4176.907505112644
 20
2277.549504980872
 30
0.0
  0
POINT
  5
801B
330
7D77
100
AcDbEntity
  8
DEFPOINTS
  6
ByBlock
 62
     0
440
 16777216
100
AcDbPoint
 10
4913.907505112645
 20
2277.549504980872
 30
0.0
  0
POINT
  5
801C
330
7D77
100
AcDbEntity
  8
DEFPOINTS
  6
ByBlock
 62
     0
440
 16777216
100
AcDbPoint
 10
4913.907505112645
 20
2056.624312903834
 30
0.0
  0
ENDBLK
  5
801D
330
7D77
100
AcDbEntity
  8
0
100
AcDbBlockEnd
  0
BLOCK
  5
8008
330
7D83
100
AcDbEntity
  8
0
100
AcDbBlockBegin
  2
*D10
 70
     1
 10
0.0
 20
0.0
 30
0.0
  3
*D10
  1

  0
LINE
  5
8009
330
7D83
100
AcDbEntity
  8
0
  6
ByBlock
440
 16777216
100
AcDbLine
 10
4913.907505112645
 20
2247.549504980872
 30
0.0
 11
4913.907505112645
 21
2026.624312903834
 31
0.0
  0
LINE
  5
800A
330
7D83
100
AcDbEntity
  8
0
  6
ByBlock
440
 16777216
100
AcDbLine
 10
5496.907505112644
 20
2247.549504980872
 30
0.0
 11
5496.907505112644
 21
2026.624312903834
 31
0.0
  0
LINE
  5
800B
330
7D83
100
AcDbEntity
  8
0
  6
ByBlock
440
 16777216
100
AcDbLine
 10
4973.907505112645
 20
2056.624312903834
 30
0.0
 11
5436.907505112643
 21
2056.624312903834
 31
0.0
  0
INSERT
  5
800C
330
7D83
100
AcDbEntity
  8
0
  6
ByBlock
440
 16777216
100
AcDbBlockReference
  2
_OPEN
 10
4913.907505112645
 20
2056.624312903834
 30
0.0
 41
60.0
 42
60.0
 43
60.0
 50
180.0
  0
INSERT
  5
800D
330
7D83
100
AcDbEntity
  8
0
  6
ByBlock
440
 16777216
100
AcDbBlockReference
  2
_OPEN
 10
5496.907505112644
 20
2056.624312903834
 30
0.0
 41
60.0
 42
60.0
 43
60.0
  0
MTEXT
  5
800E
330
7D83
100
AcDbEntity
  8
0
  6
ByBlock
440
 16777216
100
AcDbMText
 10
5205.407505112644
 20
2116.624312903834
 30
0.0
 40
90.0
 41
0.0
 46
0.0
 71
     5
 72
     5
  1
\A1;583
 73
     1
 44
1.0
  0
POINT
  5
800F
330
7D83
100
AcDbEntity
  8
DEFPOINTS
  6
ByBlock
 62
     0
440
 16777216
100
AcDbPoint
 10
4913.907505112645
 20
2277.549504980872
 30
0.0
  0
POINT
  5
8010
330
7D83
100
AcDbEntity
  8
DEFPOINTS
  6
ByBlock
 62
     0
440
 16777216
100
AcDbPoint
 10
5496.907505112644
 20
2277.549504980872
 30
0.0
  0
POINT
  5
8011
330
7D83
100
AcDbEntity
  8
DEFPOINTS
  6
ByBlock
 62
     0
440
 16777216
100
AcDbPoint
 10
5496.907505112644
 20
2056.624312903834
 30
0.0
  0
ENDBLK
  5
8012
330
7D83
100
AcDbEntity
  8
0
100
AcDbBlockEnd
  0
BLOCK
  5
801E
330
7D9B
100
AcDbEntity
  8
0
100
AcDbBlockBegin
  2
*D11
 70
     1
 10
0.0
 20
0.0
 30
0.0
  3
*D11
  1

  0
LINE
  5
801F
330
7D9B
100
AcDbEntity
  8
0
  6
ByBlock
440
 16777216
100
AcDbLine
 10
3441.79738266154
 20
2247.549504980872
 30
0.0
 11
3441.79738266154
 21
2027.970414731719
 31
0.0
  0
LINE
  5
8020
330
7D9B
100
AcDbEntity
  8
0
  6
ByBlock
440
 16777216
100
AcDbLine
 10
2091.79738266154
 20
2247.549504980872
 30
0.0
 11
2091.79738266154
 21
2027.970414731719
 31
0.0
  0
LINE
  5
8021
330
7D9B
100
AcDbEntity
  8
0
  6
ByBlock
440
 16777216
100
AcDbLine
 10
3381.79738266154
 20
2057.970414731719
 30
0.0
 11
2151.79738266154
 21
2057.970414731719
 31
0.0
  0
INSERT
  5
8022
330
7D9B
100
AcDbEntity
  8
0
  6
ByBlock
440
 16777216
100
AcDbBlockReference
  2
_OPEN
 10
3441.79738266154
 20
2057.970414731719
 30
0.0
 41
60.0
 42
60.0
 43
60.0
  0
INSERT
  5
8023
330
7D9B
100
AcDbEntity
  8
0
  6
ByBlock
440
 16777216
100
AcDbBlockReference
  2
_OPEN
 10
2091.79738266154
 20
2057.970414731719
 30
0.0
 41
60.0
 42
60.0
 43
60.0
 50
180.0
  0
MTEXT
  5
8024
330
7D9B
100
AcDbEntity
  8
0
  6
ByBlock
440
 16777216
100
AcDbMText
 10
2766.79738266154
 20
2117.970414731719
 30
0.0
 40
90.0
 41
0.0
 46
0.0
 71
     5
 72
     5
  1
\A1;1350
 73
     1
 44
1.0
  0
POINT
  5
8025
330
7D9B
100
AcDbEntity
  8
DEFPOINTS
  6
ByBlock
 62
     0
440
 16777216
100
AcDbPoint
 10
3441.79738266154
 20
2277.549504980873
 30
0.0
  0
POINT
  5
8026
330
7D9B
100
AcDbEntity
  8
DEFPOINTS
  6
ByBlock
 62
     0
440
 16777216
100
AcDbPoint
 10
2091.79738266154
 20
2277.549504980873
 30
0.0
  0
POINT
  5
8027
330
7D9B
100
AcDbEntity
  8
DEFPOINTS
  6
ByBlock
 62
     0
440
 16777216
100
AcDbPoint
 10
2091.79738266154
 20
2057.970414731719
 30
0.0
  0
ENDBLK
  5
8028
330
7D9B
100
AcDbEntity
  8
0
100
AcDbBlockEnd
  0
BLOCK
  5
7EBE
330
7DB3
100
AcDbEntity
  8
0
100
AcDbBlockBegin
  2
*D12
 70
     1
 10
0.0
 20
0.0
 30
0.0
  3
*D12
  1

  0
LINE
  5
7EBF
330
7DB3
100
AcDbEntity
  8
0
  6
ByBlock
440
 16777216
100
AcDbLine
 10
2322.495117579665
 20
5305.6229154676
 30
0.0
 11
2322.495117579665
 21
5606.194826451464
 31
0.0
  0
LINE
  5
7EC0
330
7DB3
100
AcDbEntity
  8
0
  6
ByBlock
440
 16777216
100
AcDbLine
 10
1322.495117579665
 20
5305.6229154676
 30
0.0
 11
1322.495117579665
 21
5606.194826451464
 31
0.0
  0
LINE
  5
7EC1
330
7DB3
100
AcDbEntity
  8
0
  6
ByBlock
440
 16777216
100
AcDbLine
 10
2262.495117579666
 20
5576.194826451465
 30
0.0
 11
1382.495117579665
 21
5576.194826451465
 31
0.0
  0
INSERT
  5
7EC2
330
7DB3
100
AcDbEntity
  8
0
  6
ByBlock
440
 16777216
100
AcDbBlockReference
  2
_OPEN
 10
2322.495117579665
 20
5576.194826451465
 30
0.0
 41
60.0
 42
60.0
 43
60.0
  0
INSERT
  5
7EC3
330
7DB3
100
AcDbEntity
  8
0
  6
ByBlock
440
 16777216
100
AcDbBlockReference
  2
_OPEN
 10
1322.495117579665
 20
5576.194826451465
 30
0.0
 41
60.0
 42
60.0
 43
60.0
 50
180.0
  0
MTEXT
  5
7EC4
330
7DB3
100
AcDbEntity
  8
0
  6
ByBlock
440
 16777216
100
AcDbMText
 10
1822.495117579665
 20
5636.194826451465
 30
0.0
 40
90.0
 41
0.0
 46
0.0
 71
     5
 72
     5
  1
\A1;1000
 73
     1
 44
1.0
  0
POINT
  5
7EC5
330
7DB3
100
AcDbEntity
  8
DEFPOINTS
  6
ByBlock
 62
     0
440
 16777216
100
AcDbPoint
 10
2322.495117579665
 20
5275.6229154676
 30
0.0
  0
POINT
  5
7EC6
330
7DB3
100
AcDbEntity
  8
DEFPOINTS
  6
ByBlock
 62
     0
440
 16777216
100
AcDbPoint
 10
1322.495117579665
 20
5275.6229154676
 30
0.0
  0
POINT
  5
7EC7
330
7DB3
100
AcDbEntity
  8
DEFPOINTS
  6
ByBlock
 62
     0
440
 16777216
100
AcDbPoint
 10
1322.495117579665
 20
5576.194826451465
 30
0.0
  0
ENDBLK
  5
7EC8
330
7DB3
100
AcDbEntity
  8
0
100
AcDbBlockEnd
  0
BLOCK
  5
7EC9
330
7DBF
100
AcDbEntity
  8
0
100
AcDbBlockBegin
  2
*D13
 70
     1
 10
0.0
 20
0.0
 30
0.0
  3
*D13
  1

  0
LINE
  5
7ECA
330
7DBF
100
AcDbEntity
  8
0
  6
ByBlock
440
 16777216
100
AcDbLine
 10
3172.495117579666
 20
4785.6229154676
 30
0.0
 11
3172.495117579666
 21
5606.194826451464
 31
0.0
  0
LINE
  5
7ECB
330
7DBF
100
AcDbEntity
  8
0
  6
ByBlock
440
 16777216
100
AcDbLine
 10
2322.495117579665
 20
5305.6229154676
 30
0.0
 11
2322.495117579665
 21
5606.194826451464
 31
0.0
  0
LINE
  5
7ECC
330
7DBF
100
AcDbEntity
  8
0
  6
ByBlock
440
 16777216
100
AcDbLine
 10
3112.495117579666
 20
5576.194826451465
 30
0.0
 11
2382.495117579666
 21
5576.194826451465
 31
0.0
  0
INSERT
  5
7ECD
330
7DBF
100
AcDbEntity
  8
0
  6
ByBlock
440
 16777216
100
AcDbBlockReference
  2
_OPEN
 10
3172.495117579666
 20
5576.194826451465
 30
0.0
 41
60.0
 42
60.0
 43
60.0
  0
INSERT
  5
7ECE
330
7DBF
100
AcDbEntity
  8
0
  6
ByBlock
440
 16777216
100
AcDbBlockReference
  2
_OPEN
 10
2322.495117579665
 20
5576.194826451465
 30
0.0
 41
60.0
 42
60.0
 43
60.0
 50
180.0
  0
MTEXT
  5
7ECF
330
7DBF
100
AcDbEntity
  8
0
  6
ByBlock
440
 16777216
100
AcDbMText
 10
2747.495117579666
 20
5636.194826451465
 30
0.0
 40
90.0
 41
0.0
 46
0.0
 71
     5
 72
     5
  1
\A1;850
 73
     1
 44
1.0
  0
POINT
  5
7ED0
330
7DBF
100
AcDbEntity
  8
DEFPOINTS
  6
ByBlock
 62
     0
440
 16777216
100
AcDbPoint
 10
3172.495117579666
 20
4755.6229154676
 30
0.0
  0
POINT
  5
7ED1
330
7DBF
100
AcDbEntity
  8
DEFPOINTS
  6
ByBlock
 62
     0
440
 16777216
100
AcDbPoint
 10
2322.495117579665
 20
5275.6229154676
 30
0.0
  0
POINT
  5
7ED2
330
7DBF
100
AcDbEntity
  8
DEFPOINTS
  6
ByBlock
 62
     0
440
 16777216
100
AcDbPoint
 10
2322.495117579665
 20
5576.194826451465
 30
0.0
  0
ENDBLK
  5
7ED3
330
7DBF
100
AcDbEntity
  8
0
100
AcDbBlockEnd
  0
BLOCK
  5
7ED4
330
7DCB
100
AcDbEntity
  8
0
100
AcDbBlockBegin
  2
*D14
 70
     1
 10
0.0
 20
0.0
 30
0.0
  3
*D14
  1

  0
LINE
  5
7ED5
330
7DCB
100
AcDbEntity
  8
0
  6
ByBlock
440
 16777216
100
AcDbLine
 10
1292.495117579665
 20
5275.6229154676
 30
0.0
 11
993.0031989647396
 21
5275.6229154676
 31
0.0
  0
LINE
  5
7ED6
330
7DCB
100
AcDbEntity
  8
0
  6
ByBlock
440
 16777216
100
AcDbLine
 10
1292.495117579665
 20
3955.6229154676
 30
0.0
 11
993.0031989647396
 21
3955.6229154676
 31
0.0
  0
LINE
  5
7ED7
330
7DCB
100
AcDbEntity
  8
0
  6
ByBlock
440
 16777216
100
AcDbLine
 10
1023.003198964739
 20
5215.622915467601
 30
0.0
 11
1023.003198964739
 21
4015.6229154676
 31
0.0
  0
INSERT
  5
7ED8
330
7DCB
100
AcDbEntity
  8
0
  6
ByBlock
440
 16777216
100
AcDbBlockReference
  2
_OPEN
 10
1023.003198964739
 20
5275.6229154676
 30
0.0
 41
60.0
 42
60.0
 43
60.0
 50
90.0
  0
INSERT
  5
7ED9
330
7DCB
100
AcDbEntity
  8
0
  6
ByBlock
440
 16777216
100
AcDbBlockReference
  2
_OPEN
 10
1023.003198964739
 20
3955.6229154676
 30
0.0
 41
60.0
 42
60.0
 43
60.0
 50
270.0
  0
MTEXT
  5
7EDA
330
7DCB
100
AcDbEntity
  8
0
  6
ByBlock
440
 16777216
100
AcDbMText
 10
963.0031989647395
 20
4615.6229154676
 30
0.0
 40
90.0
 41
0.0
 46
0.0
 71
     5
 72
     5
  1
\A1;1320
 11
0.0
 21
1.0
 31
0.0
 73
     1
 44
1.0
  0
POINT
  5
7EDB
330
7DCB
100
AcDbEntity
  8
DEFPOINTS
  6
ByBlock
 62
     0
440
 16777216
100
AcDbPoint
 10
1322.495117579665
 20
5275.6229154676
 30
0.0
  0
POINT
  5
7EDC
330
7DCB
100
AcDbEntity
  8
DEFPOINTS
  6
ByBlock
 62
     0
440
 16777216
100
AcDbPoint
 10
1322.495117579665
 20
3955.6229154676
 30
0.0
  0
POINT
  5
7EDD
330
7DCB
100
AcDbEntity
  8
DEFPOINTS
  6
ByBlock
 62
     0
440
 16777216
100
AcDbPoint
 10
1023.003198964739
 20
3955.6229154676
 30
0.0
  0
ENDBLK
  5
7EDE
330
7DCB
100
AcDbEntity
  8
0
100
AcDbBlockEnd
  0
BLOCK
  5
7EDF
330
7DD7
100
AcDbEntity
  8
0
100
AcDbBlockBegin
  2
*D15
 70
     1
 10
0.0
 20
0.0
 30
0.0
  3
*D15
  1

  0
LINE
  5
7EE0
330
7DD7
100
AcDbEntity
  8
0
  6
ByBlock
440
 16777216
100
AcDbLine
 10
3202.495117579666
 20
4755.6229154676
 30
0.0
 11
3504.40118090776
 21
4755.6229154676
 31
0.0
  0
LINE
  5
7EE1
330
7DD7
100
AcDbEntity
  8
0
  6
ByBlock
440
 16777216
100
AcDbLine
 10
3202.495117579666
 20
3955.6229154676
 30
0.0
 11
3504.40118090776
 21
3955.6229154676
 31
0.0
  0
LINE
  5
7EE2
330
7DD7
100
AcDbEntity
  8
0
  6
ByBlock
440
 16777216
100
AcDbLine
 10
3474.401180907761
 20
4695.6229154676
 30
0.0
 11
3474.401180907761
 21
4015.6229154676
 31
0.0
  0
INSERT
  5
7EE3
330
7DD7
100
AcDbEntity
  8
0
  6
ByBlock
440
 16777216
100
AcDbBlockReference
  2
_OPEN
 10
3474.401180907761
 20
4755.6229154676
 30
0.0
 41
60.0
 42
60.0
 43
60.0
 50
90.0
  0
INSERT
  5
7EE4
330
7DD7
100
AcDbEntity
  8
0
  6
ByBlock
440
 16777216
100
AcDbBlockReference
  2
_OPEN
 10
3474.401180907761
 20
3955.6229154676
 30
0.0
 41
60.0
 42
60.0
 43
60.0
 50
270.0
  0
MTEXT
  5
7EE5
330
7DD7
100
AcDbEntity
  8
0
  6
ByBlock
440
 16777216
100
AcDbMText
 10
3414.401180907761
 20
4355.6229154676
 30
0.0
 40
90.0
 41
0.0
 46
0.0
 71
     5
 72
     5
  1
\A1;800
 11
0.0
 21
1.0
 31
0.0
 73
     1
 44
1.0
  0
POINT
  5
7EE6
330
7DD7
100
AcDbEntity
  8
DEFPOINTS
  6
ByBlock
 62
     0
440
 16777216
100
AcDbPoint
 10
3172.495117579666
 20
4755.6229154676
 30
0.0
  0
POINT
  5
7EE7
330
7DD7
100
AcDbEntity
  8
DEFPOINTS
  6
ByBlock
 62
     0
440
 16777216
100
AcDbPoint
 10
3172.495117579666
 20
3955.6229154676
 30
0.0
  0
POINT
  5
7EE8
330
7DD7
100
AcDbEntity
  8
DEFPOINTS
  6
ByBlock
 62
     0
440
 16777216
100
AcDbPoint
 10
3474.401180907761
 20
3955.6229154676
 30
0.0
  0
ENDBLK
  5
7EE9
330
7DD7
100
AcDbEntity
  8
0
100
AcDbBlockEnd
  0
BLOCK
  5
7EEA
330
7DE3
100
AcDbEntity
  8
0
100
AcDbBlockBegin
  2
*D16
 70
     1
 10
0.0
 20
0.0
 30
0.0
  3
*D16
  1

  0
LINE
  5
7EEB
330
7DE3
100
AcDbEntity
  8
0
  6
ByBlock
440
 16777216
100
AcDbLine
 10
3172.495117579666
 20
3925.622915467601
 30
0.0
 11
3172.495117579666
 21
3583.448439770715
 31
0.0
  0
LINE
  5
7EEC
330
7DE3
100
AcDbEntity
  8
0
  6
ByBlock
440
 16777216
100
AcDbLine
 10
1322.495117579665
 20
3925.622915467601
 30
0.0
 11
1322.495117579665
 21
3583.448439770715
 31
0.0
  0
LINE
  5
7EED
330
7DE3
100
AcDbEntity
  8
0
  6
ByBlock
440
 16777216
100
AcDbLine
 10
3112.495117579666
 20
3613.448439770715
 30
0.0
 11
1382.495117579665
 21
3613.448439770715
 31
0.0
  0
INSERT
  5
7EEE
330
7DE3
100
AcDbEntity
  8
0
  6
ByBlock
440
 16777216
100
AcDbBlockReference
  2
_OPEN
 10
3172.495117579666
 20
3613.448439770715
 30
0.0
 41
60.0
 42
60.0
 43
60.0
  0
INSERT
  5
7EEF
330
7DE3
100
AcDbEntity
  8
0
  6
ByBlock
440
 16777216
100
AcDbBlockReference
  2
_OPEN
 10
1322.495117579665
 20
3613.448439770715
 30
0.0
 41
60.0
 42
60.0
 43
60.0
 50
180.0
  0
MTEXT
  5
7EF0
330
7DE3
100
AcDbEntity
  8
0
  6
ByBlock
440
 16777216
100
AcDbMText
 10
2247.495117579665
 20
3673.448439770715
 30
0.0
 40
90.0
 41
0.0
 46
0.0
 71
     5
 72
     5
  1
\A1;1850
 73
     1
 44
1.0
  0
POINT
  5
7EF1
330
7DE3
100
AcDbEntity
  8
DEFPOINTS
  6
ByBlock
 62
     0
440
 16777216
100
AcDbPoint
 10
3172.495117579666
 20
3955.6229154676
 30
0.0
  0
POINT
  5
7EF2
330
7DE3
100
AcDbEntity
  8
DEFPOINTS
  6
ByBlock
 62
     0
440
 16777216
100
AcDbPoint
 10
1322.495117579665
 20
3955.6229154676
 30
0.0
  0
POINT
  5
7EF3
330
7DE3
100
AcDbEntity
  8
DEFPOINTS
  6
ByBlock
 62
     0
440
 16777216
100
AcDbPoint
 10
1322.495117579665
 20
3613.448439770715
 30
0.0
  0
ENDBLK
  5
7EF4
330
7DE3
100
AcDbEntity
  8
0
100
AcDbBlockEnd
  0
BLOCK
  5
7EF5
330
7DEF
100
AcDbEntity
  8
0
100
AcDbBlockBegin
  2
*D17
 70
     1
 10
0.0
 20
0.0
 30
0.0
  3
*D17
  1

  0
LINE
  5
7EF6
330
7DEF
100
AcDbEntity
  8
0
  6
ByBlock
440
 16777216
100
AcDbLine
 10
4383.907505112644
 20
2159.887615409481
 30
0.0
 11
4383.907505112644
 21
2266.819859761795
 31
0.0
  0
LINE
  5
7EF7
330
7DEF
100
AcDbEntity
  8
0
  6
ByBlock
440
 16777216
100
AcDbLine
 10
5443.907505112644
 20
2159.887615409481
 30
0.0
 11
5443.907505112644
 21
2266.819859761795
 31
0.0
  0
LINE
  5
7EF8
330
7DEF
100
AcDbEntity
  8
0
  6
ByBlock
440
 16777216
100
AcDbLine
 10
4443.907505112644
 20
2236.819859761796
 30
0.0
 11
5383.907505112643
 21
2236.819859761796
 31
0.0
  0
INSERT
  5
7EF9
330
7DEF
100
AcDbEntity
  8
0
  6
ByBlock
440
 16777216
100
AcDbBlockReference
  2
_OPEN
 10
4383.907505112644
 20
2236.819859761796
 30
0.0
 41
60.0
 42
60.0
 43
60.0
 50
180.0
  0
INSERT
  5
7EFA
330
7DEF
100
AcDbEntity
  8
0
  6
ByBlock
440
 16777216
100
AcDbBlockReference
  2
_OPEN
 10
5443.907505112644
 20
2236.819859761796
 30
0.0
 41
60.0
 42
60.0
 43
60.0
  0
MTEXT
  5
7EFB
330
7DEF
100
AcDbEntity
  8
0
  6
ByBlock
440
 16777216
100
AcDbMText
 10
4913.907505112644
 20
2296.819859761796
 30
0.0
 40
90.0
 41
0.0
 46
0.0
 71
     5
 72
     5
  1
\A1;1060
 73
     1
 44
1.0
  0
POINT
  5
7EFC
330
7DEF
100
AcDbEntity
  8
DEFPOINTS
  6
ByBlock
 62
     0
440
 16777216
100
AcDbPoint
 10
4383.907505112644
 20
2129.887615409481
 30
0.0
  0
POINT
  5
7EFD
330
7DEF
100
AcDbEntity
  8
DEFPOINTS
  6
ByBlock
 62
     0
440
 16777216
100
AcDbPoint
 10
5443.907505112644
 20
2129.887615409481
 30
0.0
  0
POINT
  5
7EFE
330
7DEF
100
AcDbEntity
  8
DEFPOINTS
  6
ByBlock
 62
     0
440
 16777216
100
AcDbPoint
 10
5443.907505112644
 20
2236.819859761796
 30
0.0
  0
ENDBLK
  5
7EFF
330
7DEF
100
AcDbEntity
  8
0
100
AcDbBlockEnd
  0
BLOCK
  5
7FEA
330
7DFB
100
AcDbEntity
  8
0
100
AcDbBlockBegin
  2
*D18
 70
     1
 10
0.0
 20
0.0
 30
0.0
  3
*D18
  1

  0
LINE
  5
7FEB
330
7DFB
100
AcDbEntity
  8
0
  6
ByBlock
 62
     0
440
 16777216
100
AcDbLine
 10
1307.495117579665
 20
2422.549504980873
 30
0.0
 11
783.4470404559906
 21
2422.549504980873
 31
0.0
  0
LINE
  5
7FEC
330
7DFB
100
AcDbEntity
  8
0
  6
ByBlock
 62
     0
440
 16777216
100
AcDbLine
 10
1307.495117579665
 20
2377.549504980873
 30
0.0
 11
783.4470404559906
 21
2377.549504980873
 31
0.0
  0
LINE
  5
7FED
330
7DFB
100
AcDbEntity
  8
0
  6
ByBlock
 62
     0
440
 16777216
100
AcDbLine
 10
813.4470404559905
 20
2482.549504980872
 30
0.0
 11
813.4470404559905
 21
2542.549504980872
 31
0.0
  0
LINE
  5
7FEE
330
7DFB
100
AcDbEntity
  8
0
  6
ByBlock
 62
     0
440
 16777216
100
AcDbLine
 10
813.4470404559905
 20
2317.549504980872
 30
0.0
 11
813.4470404559905
 21
2257.549504980872
 31
0.0
  0
MTEXT
  5
7FEF
330
7DFB
100
AcDbEntity
  8
0
  6
ByBlock
 62
     0
440
 16777216
100
AcDbMText
 10
697.6269412629481
 20
2436.27700991814
 30
0.0
 40
90.0
 41
0.0
 46
0.0
 71
     5
 72
     5
  1
\A1;(45)
 11
0.0
 21
1.0
 31
0.0
 73
     1
 44
1.0
  0
LINE
  5
7FF0
330
7DFB
100
AcDbEntity
  8
0
  6
ByBlock
 62
     0
440
 16777216
100
AcDbLine
 10
813.4470404559905
 20
2422.549504980873
 30
0.0
 11
813.4470404559905
 21
2377.549504980873
 31
0.0
  0
INSERT
  5
7FF1
330
7DFB
100
AcDbEntity
  8
0
  6
ByBlock
 62
     0
440
 16777216
100
AcDbBlockReference
  2
_OPEN
 10
813.4470404559905
 20
2422.549504980873
 30
0.0
 41
60.0
 42
60.0
 43
60.0
 50
270.0
  0
INSERT
  5
7FF2
330
7DFB
100
AcDbEntity
  8
0
  6
ByBlock
 62
     0
440
 16777216
100
AcDbBlockReference
  2
_DOT
 10
813.4470404559905
 20
2377.549504980873
 30
0.0
 41
60.0
 42
60.0
 43
60.0
 50
90.0
  0
POINT
  5
7FF3
330
7DFB
100
AcDbEntity
  8
DEFPOINTS
  6
ByBlock
 62
     0
440
 16777216
100
AcDbPoint
 10
1322.495117579665
 20
2422.549504980873
 30
0.0
  0
POINT
  5
7FF4
330
7DFB
100
AcDbEntity
  8
DEFPOINTS
  6
ByBlock
 62
     0
440
 16777216
100
AcDbPoint
 10
1322.495117579665
 20
2377.549504980873
 30
0.0
  0
POINT
  5
7FF5
330
7DFB
100
AcDbEntity
  8
DEFPOINTS
  6
ByBlock
 62
     0
440
 16777216
100
AcDbPoint
 10
813.4470404559905
 20
2377.549504980873
 30
0.0
  0
ENDBLK
  5
7FF6
330
7DFB
100
AcDbEntity
  8
0
100
AcDbBlockEnd
  0
BLOCK
  5
7FDD
330
7E09
100
AcDbEntity
  8
0
100
AcDbBlockBegin
  2
*D19
 70
     1
 10
0.0
 20
0.0
 30
0.0
  3
*D19
  1

  0
LINE
  5
80A1
330
7E09
100
AcDbEntity
  8
3
 62
     0
440
 16777216
100
AcDbLine
 10
1576.797382661539
 20
2377.549504980873
 30
0.0
 11
1052.717110106885
 21
2377.549504980873
 31
0.0
  0
LINE
  5
80A2
330
7E09
100
AcDbEntity
  8
3
 62
     0
440
 16777216
100
AcDbLine
 10
1576.797382661539
 20
2277.549504980873
 30
0.0
 11
1052.717110106885
 21
2277.549504980873
 31
0.0
  0
LINE
  5
80A3
330
7E09
100
AcDbEntity
  8
3
 62
     0
440
 16777216
100
AcDbLine
 10
1082.717110106885
 20
2437.549504980872
 30
0.0
 11
1082.717110106885
 21
2497.549504980872
 31
0.0
  0
LINE
  5
80A4
330
7E09
100
AcDbEntity
  8
3
 62
     0
440
 16777216
100
AcDbLine
 10
1082.717110106885
 20
2217.549504980873
 30
0.0
 11
1082.717110106885
 21
1883.263790695158
 31
0.0
  0
LINE
  5
80A5
330
7E09
100
AcDbEntity
  8
3
 62
     0
440
 16777216
100
AcDbLine
 10
1082.717110106885
 20
2377.549504980873
 30
0.0
 11
1082.717110106885
 21
2277.549504980873
 31
0.0
  0
INSERT
  5
80A6
330
7E09
100
AcDbEntity
  8
3
 62
     0
440
 16777216
100
AcDbBlockReference
  2
_DOT
 10
1082.717110106885
 20
2377.549504980873
 30
0.0
 41
60.0
 42
60.0
 43
60.0
 50
270.0
  0
INSERT
  5
80A7
330
7E09
100
AcDbEntity
  8
3
 62
     0
440
 16777216
100
AcDbBlockReference
  2
_OPEN
 10
1082.717110106885
 20
2277.549504980873
 30
0.0
 41
60.0
 42
60.0
 43
60.0
 50
90.0
  0
MTEXT
  5
80A8
330
7E09
100
AcDbEntity
  8
3
 62
     0
440
 16777216
100
AcDbMText
 10
1007.717110106885
 20
2020.406647838016
 30
0.0
 40
90.0
 41
0.0
 46
0.0
 71
     5
 72
     5
  1
\A1;100
 11
0.0000000000000001
 21
1.0
 31
0.0
 73
     1
 44
1.0
  0
POINT
  5
80A9
330
7E09
100
AcDbEntity
  8
DEFPOINTS
 62
     0
440
 16777216
100
AcDbPoint
 10
1591.79738266154
 20
2377.549504980873
 30
0.0
  0
POINT
  5
80AA
330
7E09
100
AcDbEntity
  8
DEFPOINTS
 62
     0
440
 16777216
100
AcDbPoint
 10
1591.79738266154
 20
2277.549504980873
 30
0.0
  0
POINT
  5
80AB
330
7E09
100
AcDbEntity
  8
DEFPOINTS
 62
     0
440
 16777216
100
AcDbPoint
 10
1082.717110106885
 20
2277.549504980873
 30
0.0
  0
ENDBLK
  5
7FE9
330
7E09
100
AcDbEntity
  8
0
100
AcDbBlockEnd
  0
BLOCK
  5
7F2F
330
7E2E
100
AcDbEntity
  8
0
100
AcDbBlockBegin
  2
*D20
 70
     1
 10
0.0
 20
0.0
 30
0.0
  3
*D20
  1

  0
LINE
  5
80AC
330
7E2E
100
AcDbEntity
  8
3
440
 16777216
100
AcDbLine
 10
1546.797382661541
 20
3432.049504980873
 30
0.0
 11
1546.797382661541
 21
4141.149475370897
 31
0.0
  0
LINE
  5
80AD
330
7E2E
100
AcDbEntity
  8
3
440
 16777216
100
AcDbLine
 10
2031.79738266154
 20
4111.149475370897
 30
0.0
 11
1606.797382661541
 21
4111.149475370897
 31
0.0
  0
INSERT
  5
80AE
330
7E2E
100
AcDbEntity
  8
3
440
 16777216
100
AcDbBlockReference
  2
_OPEN
 10
2091.79738266154
 20
4111.149475370897
 30
0.0
 41
60.0
 42
60.0
 43
60.0
  0
INSERT
  5
80AF
330
7E2E
100
AcDbEntity
  8
3
440
 16777216
100
AcDbBlockReference
  2
_OPEN
 10
1546.797382661541
 20
4111.149475370897
 30
0.0
 41
60.0
 42
60.0
 43
60.0
 50
180.0
  0
MTEXT
  5
80B0
330
7E2E
100
AcDbEntity
  8
3
440
 16777216
100
AcDbMText
 10
1819.29738266154
 20
4171.149475370897
 30
0.0
 40
90.0
 41
0.0
 46
0.0
 71
     5
 72
     5
  1
\A1;545
 73
     1
 44
1.0
  0
POINT
  5
80B1
330
7E2E
100
AcDbEntity
  8
DEFPOINTS
 62
     0
440
 16777216
100
AcDbPoint
 10
2091.79738266154
 20
3928.823298751016
 30
0.0
  0
POINT
  5
80B2
330
7E2E
100
AcDbEntity
  8
DEFPOINTS
 62
     0
440
 16777216
100
AcDbPoint
 10
1546.797382661541
 20
3402.049504980872
 30
0.0
  0
POINT
  5
80B3
330
7E2E
100
AcDbEntity
  8
DEFPOINTS
 62
     0
440
 16777216
100
AcDbPoint
 10
1546.797382661541
 20
4111.149475370897
 30
0.0
  0
ENDBLK
  5
7F38
330
7E2E
100
AcDbEntity
  8
0
100
AcDbBlockEnd
  0
BLOCK
  5
7F39
330
7E39
100
AcDbEntity
  8
0
100
AcDbBlockBegin
  2
*D21
 70
     1
 10
0.0
 20
0.0
 30
0.0
  3
*D21
  1

  0
LINE
  5
7F3A
330
7E39
100
AcDbEntity
  8
0
  6
ByBlock
440
 16777216
100
AcDbLine
 10
1277.495117579666
 20
1611.387615409481
 30
0.0
 11
1277.495117579666
 21
2482.203029394709
 31
0.0
  0
LINE
  5
7F3B
330
7E39
100
AcDbEntity
  8
0
  6
ByBlock
440
 16777216
100
AcDbLine
 10
3172.495117579666
 20
731.8876154094814
 30
0.0
 11
3172.495117579666
 21
2482.203029394709
 31
0.0
  0
LINE
  5
7F3C
330
7E39
100
AcDbEntity
  8
0
  6
ByBlock
440
 16777216
100
AcDbLine
 10
1337.495117579666
 20
2452.203029394708
 30
0.0
 11
3112.495117579666
 21
2452.203029394708
 31
0.0
  0
INSERT
  5
7F3D
330
7E39
100
AcDbEntity
  8
0
  6
ByBlock
440
 16777216
100
AcDbBlockReference
  2
_OPEN
 10
1277.495117579666
 20
2452.203029394708
 30
0.0
 41
60.0
 42
60.0
 43
60.0
 50
180.0
  0
INSERT
  5
7F3E
330
7E39
100
AcDbEntity
  8
0
  6
ByBlock
440
 16777216
100
AcDbBlockReference
  2
_OPEN
 10
3172.495117579666
 20
2452.203029394708
 30
0.0
 41
60.0
 42
60.0
 43
60.0
  0
MTEXT
  5
7F3F
330
7E39
100
AcDbEntity
  8
0
  6
ByBlock
440
 16777216
100
AcDbMText
 10
2224.995117579666
 20
2512.203029394708
 30
0.0
 40
90.0
 41
0.0
 46
0.0
 71
     5
 72
     5
  1
\A1;1895
 73
     1
 44
1.0
  0
POINT
  5
7F40
330
7E39
100
AcDbEntity
  8
DEFPOINTS
  6
ByBlock
 62
     0
440
 16777216
100
AcDbPoint
 10
1277.495117579666
 20
1581.387615409481
 30
0.0
  0
POINT
  5
7F41
330
7E39
100
AcDbEntity
  8
DEFPOINTS
  6
ByBlock
 62
     0
440
 16777216
100
AcDbPoint
 10
3172.495117579666
 20
701.8876154094814
 30
0.0
  0
POINT
  5
7F42
330
7E39
100
AcDbEntity
  8
DEFPOINTS
  6
ByBlock
 62
     0
440
 16777216
100
AcDbPoint
 10
3172.495117579666
 20
2452.203029394708
 30
0.0
  0
ENDBLK
  5
7F43
330
7E39
100
AcDbEntity
  8
0
100
AcDbBlockEnd
  0
BLOCK
  5
7FD9
330
7FD3
100
AcDbEntity
  8
0
100
AcDbBlockBegin
  2
_DOT
 70
     0
 10
0.0
 20
0.0
 30
0.0
  3
_DOT
  1

  0
LWPOLYLINE
  5
7FD4
330
7FD3
100
AcDbEntity
  8
0
  6
ByBlock
 62
     0
100
AcDbPolyline
 90
        2
 70
     1
 43
0.25
 10
-0.125
 20
0.0
 42
1.0
 10
0.125
 20
0.0
 42
1.0
  0
LINE
  5
7FD8
330
7FD3
100
AcDbEntity
  8
0
  6
ByBlock
 62
     0
100
AcDbLine
 10
-0.25
 20
0.0
 30
0.0
 11
-1.0
 21
0.0
 31
0.0
  0
ENDBLK
  5
7FDA
330
7FD3
100
AcDbEntity
  8
0
100
AcDbBlockEnd
  0
BLOCK
  5
804B
330
804A
100
AcDbEntity
  8
0
100
AcDbBlockBegin
  2
*D23
 70
     1
 10
0.0
 20
0.0
 30
0.0
  3
*D23
  1

  0
LINE
  5
834A
330
804A
100
AcDbEntity
  8
3
 62
     0
440
 16777216
370
    -2
100
AcDbLine
 10
2124.29738266154
 20
3940.549504980873
 30
0.0
 11
1053.45770958094
 21
3940.549504980873
 31
0.0
  0
LINE
  5
834B
330
804A
100
AcDbEntity
  8
3
 62
     0
440
 16777216
370
    -2
100
AcDbLine
 10
1410.325590811149
 20
3382.549504980872
 30
0.0
 11
1053.45770958094
 21
3382.549504980872
 31
0.0
  0
LINE
  5
834C
330
804A
100
AcDbEntity
  8
3
 62
     0
440
 16777216
370
    -2
100
AcDbLine
 10
1083.45770958094
 20
3880.549504980873
 30
0.0
 11
1083.45770958094
 21
3442.549504980873
 31
0.0
  0
INSERT
  5
834D
330
804A
100
AcDbEntity
  8
3
 62
     0
440
 16777216
370
    -2
100
AcDbBlockReference
  2
_OPEN
 10
1083.45770958094
 20
3940.549504980873
 30
0.0
 41
60.0
 42
60.0
 43
60.0
 50
90.0
  0
INSERT
  5
834E
330
804A
100
AcDbEntity
  8
3
 62
     0
440
 16777216
370
    -2
100
AcDbBlockReference
  2
_OPEN
 10
1083.45770958094
 20
3382.549504980872
 30
0.0
 41
60.0
 42
60.0
 43
60.0
 50
270.0
  0
MTEXT
  5
834F
330
804A
100
AcDbEntity
  8
3
 62
     0
440
 16777216
100
AcDbMText
 10
1008.457709580939
 20
3661.549504980873
 30
0.0
 40
90.0
 41
0.0
 46
0.0
 71
     5
 72
     1
  1
\A1;558
 11
0.0000000000000001
 21
1.0
 31
0.0
 73
     1
 44
1.0
  0
POINT
  5
8350
330
804A
100
AcDbEntity
  8
DEFPOINTS
 62
     0
440
 16777216
100
AcDbPoint
 10
2139.29738266154
 20
3940.549504980873
 30
0.0
  0
POINT
  5
8351
330
804A
100
AcDbEntity
  8
DEFPOINTS
 62
     0
440
 16777216
100
AcDbPoint
 10
1425.32559081115
 20
3382.549504980872
 30
0.0
  0
POINT
  5
8352
330
804A
100
AcDbEntity
  8
DEFPOINTS
 62
     0
440
 16777216
100
AcDbPoint
 10
1083.45770958094
 20
3382.549504980872
 30
0.0
  0
ENDBLK
  5
8055
330
804A
100
AcDbEntity
  8
0
100
AcDbBlockEnd
  0
BLOCK
  5
8058
330
8057
100
AcDbEntity
  8
0
100
AcDbBlockBegin
  2
*D24
 70
     1
 10
0.0
 20
0.0
 30
0.0
  3
*D24
  1

  0
LINE
  5
832F
330
8057
100
AcDbEntity
  8
3
 62
     0
440
 16777216
370
    -2
100
AcDbLine
 10
2124.29738266154
 20
3940.549504980873
 30
0.0
 11
820.1600593886254
 21
3940.549504980873
 31
0.0
  0
LINE
  5
8330
330
8057
100
AcDbEntity
  8
3
 62
     0
440
 16777216
370
    -2
100
AcDbLine
 10
1576.797382661539
 20
2277.549504980873
 30
0.0
 11
820.1600593886251
 21
2277.549504980873
 31
0.0
  0
LINE
  5
8331
330
8057
100
AcDbEntity
  8
3
 62
     0
440
 16777216
370
    -2
100
AcDbLine
 10
850.1600593886255
 20
3880.549504980873
 30
0.0
 11
850.1600593886251
 21
2337.549504980873
 31
0.0
  0
INSERT
  5
8332
330
8057
100
AcDbEntity
  8
3
 62
     0
440
 16777216
370
    -2
100
AcDbBlockReference
  2
_OPEN
 10
850.1600593886255
 20
3940.549504980873
 30
0.0
 41
60.0
 42
60.0
 43
60.0
 50
90.0
  0
INSERT
  5
8333
330
8057
100
AcDbEntity
  8
3
 62
     0
440
 16777216
370
    -2
100
AcDbBlockReference
  2
_OPEN
 10
850.160059388625
 20
2277.549504980873
 30
0.0
 41
60.0
 42
60.0
 43
60.0
 50
270.0
  0
MTEXT
  5
8334
330
8057
100
AcDbEntity
  8
3
 62
     0
440
 16777216
100
AcDbMText
 10
751.5886308171963
 20
3109.049504980873
 30
0.0
 40
90.0
 41
0.0
 46
0.0
 71
     5
 72
     1
  1
\A1;(1663)
 11
0.0000000000000001
 21
1.0
 31
0.0
 73
     1
 44
1.0
  0
POINT
  5
8335
330
8057
100
AcDbEntity
  8
DEFPOINTS
 62
     0
440
 16777216
100
AcDbPoint
 10
2139.29738266154
 20
3940.549504980873
 30
0.0
  0
POINT
  5
8336
330
8057
100
AcDbEntity
  8
DEFPOINTS
 62
     0
440
 16777216
100
AcDbPoint
 10
1591.79738266154
 20
2277.549504980873
 30
0.0
  0
POINT
  5
8337
330
8057
100
AcDbEntity
  8
DEFPOINTS
 62
     0
440
 16777216
100
AcDbPoint
 10
850.160059388625
 20
2277.549504980873
 30
0.0
  0
ENDBLK
  5
8062
330
8057
100
AcDbEntity
  8
0
100
AcDbBlockEnd
  0
BLOCK
  5
8124
330
8123
100
AcDbEntity
  8
0
100
AcDbBlockBegin
  2
*D25
 70
     1
 10
0.0
 20
0.0
 30
0.0
  3
*D25
  1

  0
LINE
  5
8125
330
8123
100
AcDbEntity
  8
0
  6
ByBlock
440
 16777216
100
AcDbLine
 10
1247.495117579665
 20
713.8876154094814
 30
0.0
 11
1099.149774037601
 21
713.8876154094814
 31
0.0
  0
LINE
  5
8126
330
8123
100
AcDbEntity
  8
0
  6
ByBlock
440
 16777216
100
AcDbLine
 10
1247.495117579665
 20
1538.887615409481
 30
0.0
 11
1099.149774037601
 21
1538.887615409481
 31
0.0
  0
LINE
  5
8127
330
8123
100
AcDbEntity
  8
0
  6
ByBlock
440
 16777216
100
AcDbLine
 10
1129.149774037601
 20
773.8876154094814
 30
0.0
 11
1129.149774037601
 21
1478.887615409481
 31
0.0
  0
INSERT
  5
8128
330
8123
100
AcDbEntity
  8
0
  6
ByBlock
440
 16777216
100
AcDbBlockReference
  2
_OPEN
 10
1129.149774037601
 20
713.8876154094814
 30
0.0
 41
60.0
 42
60.0
 43
60.0
 50
270.0
  0
INSERT
  5
8129
330
8123
100
AcDbEntity
  8
0
  6
ByBlock
440
 16777216
100
AcDbBlockReference
  2
_OPEN
 10
1129.149774037601
 20
1538.887615409481
 30
0.0
 41
60.0
 42
60.0
 43
60.0
 50
90.0
  0
MTEXT
  5
812A
330
8123
100
AcDbEntity
  8
0
  6
ByBlock
440
 16777216
100
AcDbMText
 10
1069.149774037601
 20
1126.387615409481
 30
0.0
 40
90.0
 41
0.0
 46
0.0
 71
     5
 72
     5
  1
\A1;825
 11
0.0
 21
1.0
 31
0.0
 73
     1
 44
1.0
  0
POINT
  5
812B
330
8123
100
AcDbEntity
  8
DEFPOINTS
  6
ByBlock
 62
     0
440
 16777216
100
AcDbPoint
 10
1277.495117579665
 20
713.8876154094814
 30
0.0
  0
POINT
  5
812C
330
8123
100
AcDbEntity
  8
DEFPOINTS
  6
ByBlock
 62
     0
440
 16777216
100
AcDbPoint
 10
1277.495117579665
 20
1538.887615409481
 30
0.0
  0
POINT
  5
812D
330
8123
100
AcDbEntity
  8
DEFPOINTS
  6
ByBlock
 62
     0
440
 16777216
100
AcDbPoint
 10
1129.149774037601
 20
1538.887615409481
 30
0.0
  0
ENDBLK
  5
812E
330
8123
100
AcDbEntity
  8
0
100
AcDbBlockEnd
  0
BLOCK
  5
8130
330
812F
100
AcDbEntity
  8
0
100
AcDbBlockBegin
  2
*D26
 70
     1
 10
0.0
 20
0.0
 30
0.0
  3
*D26
  1

  0
LINE
  5
8131
330
812F
100
AcDbEntity
  8
0
  6
ByBlock
440
 16777216
100
AcDbLine
 10
1247.495117579665
 20
713.8876154094814
 30
0.0
 11
946.8663714637987
 21
713.8876154094814
 31
0.0
  0
LINE
  5
8132
330
812F
100
AcDbEntity
  8
0
  6
ByBlock
440
 16777216
100
AcDbLine
 10
1126.023325729275
 20
1561.887615409481
 30
0.0
 11
946.8663714637987
 21
1561.887615409481
 31
0.0
  0
LINE
  5
8133
330
812F
100
AcDbEntity
  8
0
  6
ByBlock
440
 16777216
100
AcDbLine
 10
976.8663714637987
 20
773.8876154094814
 30
0.0
 11
976.8663714637987
 21
1501.887615409481
 31
0.0
  0
INSERT
  5
8134
330
812F
100
AcDbEntity
  8
0
  6
ByBlock
440
 16777216
100
AcDbBlockReference
  2
_OPEN
 10
976.8663714637987
 20
713.8876154094814
 30
0.0
 41
60.0
 42
60.0
 43
60.0
 50
270.0
  0
INSERT
  5
8135
330
812F
100
AcDbEntity
  8
0
  6
ByBlock
440
 16777216
100
AcDbBlockReference
  2
_OPEN
 10
976.8663714637987
 20
1561.887615409481
 30
0.0
 41
60.0
 42
60.0
 43
60.0
 50
90.0
  0
MTEXT
  5
8136
330
812F
100
AcDbEntity
  8
0
  6
ByBlock
440
 16777216
100
AcDbMText
 10
916.8663714637986
 20
1137.887615409481
 30
0.0
 40
90.0
 41
0.0
 46
0.0
 71
     5
 72
     5
  1
\A1;848
 11
0.0
 21
1.0
 31
0.0
 73
     1
 44
1.0
  0
POINT
  5
8137
330
812F
100
AcDbEntity
  8
DEFPOINTS
  6
ByBlock
 62
     0
440
 16777216
100
AcDbPoint
 10
1277.495117579665
 20
713.8876154094814
 30
0.0
  0
POINT
  5
8138
330
812F
100
AcDbEntity
  8
DEFPOINTS
  6
ByBlock
 62
     0
440
 16777216
100
AcDbPoint
 10
1156.023325729275
 20
1561.887615409481
 30
0.0
  0
POINT
  5
8139
330
812F
100
AcDbEntity
  8
DEFPOINTS
  6
ByBlock
 62
     0
440
 16777216
100
AcDbPoint
 10
976.8663714637987
 20
1561.887615409481
 30
0.0
  0
ENDBLK
  5
813A
330
812F
100
AcDbEntity
  8
0
100
AcDbBlockEnd
  0
BLOCK
  5
813C
330
813B
100
AcDbEntity
  8
0
100
AcDbBlockBegin
  2
*D27
 70
     1
 10
0.0
 20
0.0
 30
0.0
  3
*D27
  1

  0
LINE
  5
813D
330
813B
100
AcDbEntity
  8
0
  6
ByBlock
440
 16777216
100
AcDbLine
 10
1126.023325729275
 20
1561.887615409481
 30
0.0
 11
783.4148450250104
 21
1561.887615409481
 31
0.0
  0
LINE
  5
813E
330
813B
100
AcDbEntity
  8
0
  6
ByBlock
440
 16777216
100
AcDbLine
 10
1292.495117579665
 20
601.8876154094814
 30
0.0
 11
783.4148450250104
 21
601.8876154094814
 31
0.0
  0
LINE
  5
813F
330
813B
100
AcDbEntity
  8
0
  6
ByBlock
440
 16777216
100
AcDbLine
 10
813.4148450250105
 20
1501.887615409481
 30
0.0
 11
813.4148450250105
 21
661.8876154094814
 31
0.0
  0
INSERT
  5
8140
330
813B
100
AcDbEntity
  8
0
  6
ByBlock
440
 16777216
100
AcDbBlockReference
  2
_OPEN
 10
813.4148450250105
 20
1561.887615409481
 30
0.0
 41
60.0
 42
60.0
 43
60.0
 50
90.0
  0
INSERT
  5
8141
330
813B
100
AcDbEntity
  8
0
  6
ByBlock
440
 16777216
100
AcDbBlockReference
  2
_OPEN
 10
813.4148450250105
 20
601.8876154094814
 30
0.0
 41
60.0
 42
60.0
 43
60.0
 50
270.0
  0
MTEXT
  5
8142
330
813B
100
AcDbEntity
  8
0
  6
ByBlock
440
 16777216
100
AcDbMText
 10
753.4148450250104
 20
1081.887615409481
 30
0.0
 40
90.0
 41
0.0
 46
0.0
 71
     5
 72
     5
  1
\A1;960
 11
0.0
 21
1.0
 31
0.0
 73
     1
 44
1.0
  0
POINT
  5
8143
330
813B
100
AcDbEntity
  8
DEFPOINTS
  6
ByBlock
 62
     0
440
 16777216
100
AcDbPoint
 10
1156.023325729275
 20
1561.887615409481
 30
0.0
  0
POINT
  5
8144
330
813B
100
AcDbEntity
  8
DEFPOINTS
  6
ByBlock
 62
     0
440
 16777216
100
AcDbPoint
 10
1322.495117579665
 20
601.8876154094814
 30
0.0
  0
POINT
  5
8145
330
813B
100
AcDbEntity
  8
DEFPOINTS
  6
ByBlock
 62
     0
440
 16777216
100
AcDbPoint
 10
813.4148450250105
 20
601.8876154094814
 30
0.0
  0
ENDBLK
  5
8146
330
813B
100
AcDbEntity
  8
0
100
AcDbBlockEnd
  0
BLOCK
  5
8148
330
8147
100
AcDbEntity
  8
0
100
AcDbBlockBegin
  2
*D28
 70
     1
 10
0.0
 20
0.0
 30
0.0
  3
*D28
  1

  0
LINE
  5
8149
330
8147
100
AcDbEntity
  8
3
440
 16777216
370
    -2
100
AcDbLine
 10
2091.79738266154
 20
3958.823298751017
 30
0.0
 11
2091.79738266154
 21
4141.149475370897
 31
0.0
  0
LINE
  5
814A
330
8147
100
AcDbEntity
  8
3
440
 16777216
370
    -2
100
AcDbLine
 10
2767.79738266154
 20
3353.549504980872
 30
0.0
 11
2767.79738266154
 21
4141.149475370897
 31
0.0
  0
LINE
  5
814B
330
8147
100
AcDbEntity
  8
3
440
 16777216
370
    -2
100
AcDbLine
 10
2151.79738266154
 20
4111.149475370897
 30
0.0
 11
2707.79738266154
 21
4111.149475370897
 31
0.0
  0
INSERT
  5
814C
330
8147
100
AcDbEntity
  8
3
440
 16777216
370
    -2
100
AcDbBlockReference
  2
_OPEN
 10
2091.79738266154
 20
4111.149475370897
 30
0.0
 41
60.0
 42
60.0
 43
60.0
 50
180.0
  0
INSERT
  5
814D
330
8147
100
AcDbEntity
  8
3
440
 16777216
370
    -2
100
AcDbBlockReference
  2
_OPEN
 10
2767.79738266154
 20
4111.149475370897
 30
0.0
 41
60.0
 42
60.0
 43
60.0
  0
MTEXT
  5
814E
330
8147
100
AcDbEntity
  8
3
440
 16777216
100
AcDbMText
 10
2429.79738266154
 20
4171.149475370897
 30
0.0
 40
90.0
 41
0.0
 46
0.0
 71
     5
 72
     1
  1
\A1;676
 73
     1
 44
1.0
  0
POINT
  5
814F
330
8147
100
AcDbEntity
  8
DEFPOINTS
 62
     0
440
 16777216
100
AcDbPoint
 10
2091.79738266154
 20
3928.823298751016
 30
0.0
  0
POINT
  5
8150
330
8147
100
AcDbEntity
  8
DEFPOINTS
 62
     0
440
 16777216
100
AcDbPoint
 10
2767.79738266154
 20
3323.549504980873
 30
0.0
  0
POINT
  5
8151
330
8147
100
AcDbEntity
  8
DEFPOINTS
 62
     0
440
 16777216
100
AcDbPoint
 10
2767.79738266154
 20
4111.149475370897
 30
0.0
  0
ENDBLK
  5
8152
330
8147
100
AcDbEntity
  8
0
100
AcDbBlockEnd
  0
BLOCK
  5
8154
330
8153
100
AcDbEntity
  8
0
100
AcDbBlockBegin
  2
*D29
 70
     1
 10
0.0
 20
0.0
 30
0.0
  3
*D29
  1

  0
LINE
  5
8155
330
8153
100
AcDbEntity
  8
3
440
 16777216
100
AcDbLine
 10
1546.797382661541
 20
3432.049504980873
 30
0.0
 11
1546.797382661541
 21
4141.149475370897
 31
0.0
  0
LINE
  5
8156
330
8153
100
AcDbEntity
  8
3
440
 16777216
100
AcDbLine
 10
2031.79738266154
 20
4111.149475370897
 30
0.0
 11
1606.797382661541
 21
4111.149475370897
 31
0.0
  0
INSERT
  5
8157
330
8153
100
AcDbEntity
  8
3
440
 16777216
100
AcDbBlockReference
  2
_OPEN
 10
2091.79738266154
 20
4111.149475370897
 30
0.0
 41
60.0
 42
60.0
 43
60.0
  0
INSERT
  5
8158
330
8153
100
AcDbEntity
  8
3
440
 16777216
100
AcDbBlockReference
  2
_OPEN
 10
1546.797382661541
 20
4111.149475370897
 30
0.0
 41
60.0
 42
60.0
 43
60.0
 50
180.0
  0
MTEXT
  5
8159
330
8153
100
AcDbEntity
  8
3
440
 16777216
100
AcDbMText
 10
1819.29738266154
 20
4171.149475370897
 30
0.0
 40
90.0
 41
0.0
 46
0.0
 71
     5
 72
     5
  1
\A1;545
 73
     1
 44
1.0
  0
POINT
  5
815A
330
8153
100
AcDbEntity
  8
DEFPOINTS
 62
     0
440
 16777216
100
AcDbPoint
 10
2091.79738266154
 20
3928.823298751016
 30
0.0
  0
POINT
  5
815B
330
8153
100
AcDbEntity
  8
DEFPOINTS
 62
     0
440
 16777216
100
AcDbPoint
 10
1546.797382661541
 20
3402.049504980872
 30
0.0
  0
POINT
  5
815C
330
8153
100
AcDbEntity
  8
DEFPOINTS
 62
     0
440
 16777216
100
AcDbPoint
 10
1546.797382661541
 20
4111.149475370897
 30
0.0
  0
ENDBLK
  5
815D
330
8153
100
AcDbEntity
  8
0
100
AcDbBlockEnd
  0
BLOCK
  5
815F
330
815E
100
AcDbEntity
  8
0
100
AcDbBlockBegin
  2
*D30
 70
     1
 10
0.0
 20
0.0
 30
0.0
  3
*D30
  1

  0
LINE
  5
8160
330
815E
100
AcDbEntity
  8
0
  6
ByBlock
440
 16777216
100
AcDbLine
 10
1277.495117579666
 20
1611.387615409481
 30
0.0
 11
1277.495117579666
 21
2482.203029394709
 31
0.0
  0
LINE
  5
8161
330
815E
100
AcDbEntity
  8
0
  6
ByBlock
440
 16777216
100
AcDbLine
 10
3172.495117579666
 20
731.8876154094814
 30
0.0
 11
3172.495117579666
 21
2482.203029394709
 31
0.0
  0
LINE
  5
8162
330
815E
100
AcDbEntity
  8
0
  6
ByBlock
440
 16777216
100
AcDbLine
 10
1337.495117579666
 20
2452.203029394708
 30
0.0
 11
3112.495117579666
 21
2452.203029394708
 31
0.0
  0
INSERT
  5
8163
330
815E
100
AcDbEntity
  8
0
  6
ByBlock
440
 16777216
100
AcDbBlockReference
  2
_OPEN
 10
1277.495117579666
 20
2452.203029394708
 30
0.0
 41
60.0
 42
60.0
 43
60.0
 50
180.0
  0
INSERT
  5
8164
330
815E
100
AcDbEntity
  8
0
  6
ByBlock
440
 16777216
100
AcDbBlockReference
  2
_OPEN
 10
3172.495117579666
 20
2452.203029394708
 30
0.0
 41
60.0
 42
60.0
 43
60.0
  0
MTEXT
  5
8165
330
815E
100
AcDbEntity
  8
0
  6
ByBlock
440
 16777216
100
AcDbMText
 10
2224.995117579666
 20
2512.203029394708
 30
0.0
 40
90.0
 41
0.0
 46
0.0
 71
     5
 72
     5
  1
\A1;1895
 73
     1
 44
1.0
  0
POINT
  5
8166
330
815E
100
AcDbEntity
  8
DEFPOINTS
  6
ByBlock
 62
     0
440
 16777216
100
AcDbPoint
 10
1277.495117579666
 20
1581.387615409481
 30
0.0
  0
POINT
  5
8167
330
815E
100
AcDbEntity
  8
DEFPOINTS
  6
ByBlock
 62
     0
440
 16777216
100
AcDbPoint
 10
3172.495117579666
 20
701.8876154094814
 30
0.0
  0
POINT
  5
8168
330
815E
100
AcDbEntity
  8
DEFPOINTS
  6
ByBlock
 62
     0
440
 16777216
100
AcDbPoint
 10
3172.495117579666
 20
2452.203029394708
 30
0.0
  0
ENDBLK
  5
8169
330
815E
100
AcDbEntity
  8
0
100
AcDbBlockEnd
  0
BLOCK
  5
816B
330
816A
100
AcDbEntity
  8
0
100
AcDbBlockBegin
  2
*D31
 70
     1
 10
0.0
 20
0.0
 30
0.0
  3
*D31
  1

  0
LINE
  5
816C
330
816A
100
AcDbEntity
  8
3
 62
     0
440
 16777216
370
    -2
100
AcDbLine
 10
2135.79738266154
 20
3940.549504980873
 30
0.0
 11
1053.45770958094
 21
3940.549504980873
 31
0.0
  0
LINE
  5
816D
330
816A
100
AcDbEntity
  8
3
 62
     0
440
 16777216
370
    -2
100
AcDbLine
 10
1410.325590811149
 20
3382.549504980872
 30
0.0
 11
1053.45770958094
 21
3382.549504980872
 31
0.0
  0
LINE
  5
816E
330
816A
100
AcDbEntity
  8
3
 62
     0
440
 16777216
370
    -2
100
AcDbLine
 10
1083.45770958094
 20
3880.549504980873
 30
0.0
 11
1083.45770958094
 21
3442.549504980873
 31
0.0
  0
INSERT
  5
816F
330
816A
100
AcDbEntity
  8
3
 62
     0
440
 16777216
370
    -2
100
AcDbBlockReference
  2
_OPEN
 10
1083.45770958094
 20
3940.549504980873
 30
0.0
 41
60.0
 42
60.0
 43
60.0
 50
90.0
  0
INSERT
  5
8170
330
816A
100
AcDbEntity
  8
3
 62
     0
440
 16777216
370
    -2
100
AcDbBlockReference
  2
_OPEN
 10
1083.45770958094
 20
3382.549504980872
 30
0.0
 41
60.0
 42
60.0
 43
60.0
 50
270.0
  0
MTEXT
  5
8171
330
816A
100
AcDbEntity
  8
3
 62
     0
440
 16777216
100
AcDbMText
 10
1008.457709580939
 20
3661.549504980873
 30
0.0
 40
90.0
 41
0.0
 46
0.0
 71
     5
 72
     1
  1
\A1;558
 11
0.0000000000000001
 21
1.0
 31
0.0
 73
     1
 44
1.0
  0
POINT
  5
8172
330
816A
100
AcDbEntity
  8
DEFPOINTS
 62
     0
440
 16777216
100
AcDbPoint
 10
2150.79738266154
 20
3940.549504980873
 30
0.0
  0
POINT
  5
8173
330
816A
100
AcDbEntity
  8
DEFPOINTS
 62
     0
440
 16777216
100
AcDbPoint
 10
1425.32559081115
 20
3382.549504980872
 30
0.0
  0
POINT
  5
8174
330
816A
100
AcDbEntity
  8
DEFPOINTS
 62
     0
440
 16777216
100
AcDbPoint
 10
1083.45770958094
 20
3382.549504980872
 30
0.0
  0
ENDBLK
  5
8175
330
816A
100
AcDbEntity
  8
0
100
AcDbBlockEnd
  0
BLOCK
  5
8177
330
8176
100
AcDbEntity
  8
0
100
AcDbBlockBegin
  2
*D32
 70
     1
 10
0.0
 20
0.0
 30
0.0
  3
*D32
  1

  0
LINE
  5
8178
330
8176
100
AcDbEntity
  8
0
  6
ByBlock
 62
     0
440
 16777216
100
AcDbLine
 10
1591.79738266154
 20
2407.549504980873
 30
0.0
 11
1591.79738266154
 21
2196.553944115571
 31
0.0
  0
LINE
  5
8179
330
8176
100
AcDbEntity
  8
0
  6
ByBlock
 62
     0
440
 16777216
100
AcDbLine
 10
2091.79738266154
 20
2407.549504980873
 30
0.0
 11
2091.79738266154
 21
2196.553944115571
 31
0.0
  0
LINE
  5
817A
330
8176
100
AcDbEntity
  8
0
  6
ByBlock
 62
     0
440
 16777216
100
AcDbLine
 10
1651.79738266154
 20
2226.553944115571
 30
0.0
 11
2031.79738266154
 21
2226.553944115571
 31
0.0
  0
INSERT
  5
817B
330
8176
100
AcDbEntity
  8
0
  6
ByBlock
 62
     0
440
 16777216
100
AcDbBlockReference
  2
_OPEN
 10
1591.79738266154
 20
2226.553944115571
 30
0.0
 41
60.0
 42
60.0
 43
60.0
 50
180.0
  0
INSERT
  5
817C
330
8176
100
AcDbEntity
  8
0
  6
ByBlock
 62
     0
440
 16777216
100
AcDbBlockReference
  2
_OPEN
 10
2091.79738266154
 20
2226.553944115571
 30
0.0
 41
60.0
 42
60.0
 43
60.0
  0
MTEXT
  5
817D
330
8176
100
AcDbEntity
  8
0
  6
ByBlock
 62
     0
440
 16777216
100
AcDbMText
 10
1841.79738266154
 20
2301.553944115571
 30
0.0
 40
90.0
 41
0.0
 46
0.0
 71
     5
 72
     5
  1
\A1;500
 73
     1
 44
1.0
  0
POINT
  5
817E
330
8176
100
AcDbEntity
  8
DEFPOINTS
  6
ByBlock
 62
     0
440
 16777216
100
AcDbPoint
 10
1591.79738266154
 20
2422.549504980873
 30
0.0
  0
POINT
  5
817F
330
8176
100
AcDbEntity
  8
DEFPOINTS
  6
ByBlock
 62
     0
440
 16777216
100
AcDbPoint
 10
2091.79738266154
 20
2422.549504980873
 30
0.0
  0
POINT
  5
8180
330
8176
100
AcDbEntity
  8
DEFPOINTS
  6
ByBlock
 62
     0
440
 16777216
100
AcDbPoint
 10
2091.79738266154
 20
2226.553944115571
 30
0.0
  0
ENDBLK
  5
8181
330
8176
100
AcDbEntity
  8
0
100
AcDbBlockEnd
  0
BLOCK
  5
8183
330
8182
100
AcDbEntity
  8
0
100
AcDbBlockBegin
  2
*D33
 70
     1
 10
0.0
 20
0.0
 30
0.0
  3
*D33
  1

  0
LINE
  5
8184
330
8182
100
AcDbEntity
  8
0
  6
ByBlock
 62
     0
440
 16777216
100
AcDbLine
 10
2091.79738266154
 20
2407.549504980873
 30
0.0
 11
2091.79738266154
 21
2196.553944115571
 31
0.0
  0
LINE
  5
8185
330
8182
100
AcDbEntity
  8
0
  6
ByBlock
 62
     0
440
 16777216
100
AcDbLine
 10
3441.79738266154
 20
2407.549504980873
 30
0.0
 11
3441.79738266154
 21
2196.553944115571
 31
0.0
  0
LINE
  5
8186
330
8182
100
AcDbEntity
  8
0
  6
ByBlock
 62
     0
440
 16777216
100
AcDbLine
 10
2151.79738266154
 20
2226.553944115571
 30
0.0
 11
3381.79738266154
 21
2226.553944115571
 31
0.0
  0
INSERT
  5
8187
330
8182
100
AcDbEntity
  8
0
  6
ByBlock
 62
     0
440
 16777216
100
AcDbBlockReference
  2
_OPEN
 10
2091.79738266154
 20
2226.553944115571
 30
0.0
 41
60.0
 42
60.0
 43
60.0
 50
180.0
  0
INSERT
  5
8188
330
8182
100
AcDbEntity
  8
0
  6
ByBlock
 62
     0
440
 16777216
100
AcDbBlockReference
  2
_OPEN
 10
3441.79738266154
 20
2226.553944115571
 30
0.0
 41
60.0
 42
60.0
 43
60.0
  0
MTEXT
  5
8189
330
8182
100
AcDbEntity
  8
0
  6
ByBlock
 62
     0
440
 16777216
100
AcDbMText
 10
2766.79738266154
 20
2301.553944115571
 30
0.0
 40
90.0
 41
0.0
 46
0.0
 71
     5
 72
     5
  1
\A1;1350
 73
     1
 44
1.0
  0
POINT
  5
818A
330
8182
100
AcDbEntity
  8
DEFPOINTS
  6
ByBlock
 62
     0
440
 16777216
100
AcDbPoint
 10
2091.79738266154
 20
2422.549504980873
 30
0.0
  0
POINT
  5
818B
330
8182
100
AcDbEntity
  8
DEFPOINTS
  6
ByBlock
 62
     0
440
 16777216
100
AcDbPoint
 10
3441.79738266154
 20
2422.549504980873
 30
0.0
  0
POINT
  5
818C
330
8182
100
AcDbEntity
  8
DEFPOINTS
  6
ByBlock
 62
     0
440
 16777216
100
AcDbPoint
 10
3441.79738266154
 20
2226.553944115571
 30
0.0
  0
ENDBLK
  5
818D
330
8182
100
AcDbEntity
  8
0
100
AcDbBlockEnd
  0
BLOCK
  5
818F
330
818E
100
AcDbEntity
  8
0
100
AcDbBlockBegin
  2
*D34
 70
     1
 10
0.0
 20
0.0
 30
0.0
  3
*D34
  1

  0
LINE
  5
8190
330
818E
100
AcDbEntity
  8
3
 62
     0
440
 16777216
370
    -2
100
AcDbLine
 10
2135.79738266154
 20
3940.549504980873
 30
0.0
 11
887.5420994112142
 21
3940.549504980873
 31
0.0
  0
LINE
  5
8191
330
818E
100
AcDbEntity
  8
3
 62
     0
440
 16777216
370
    -2
100
AcDbLine
 10
1576.797382661539
 20
2422.549504980873
 30
0.0
 11
887.5420994112136
 21
2422.549504980873
 31
0.0
  0
LINE
  5
8192
330
818E
100
AcDbEntity
  8
3
 62
     0
440
 16777216
370
    -2
100
AcDbLine
 10
917.542099411214
 20
3880.549504980873
 30
0.0
 11
917.5420994112137
 21
2482.549504980873
 31
0.0
  0
INSERT
  5
8193
330
818E
100
AcDbEntity
  8
3
 62
     0
440
 16777216
370
    -2
100
AcDbBlockReference
  2
_OPEN
 10
917.542099411214
 20
3940.549504980873
 30
0.0
 41
60.0
 42
60.0
 43
60.0
 50
90.0
  0
INSERT
  5
8194
330
818E
100
AcDbEntity
  8
3
 62
     0
440
 16777216
370
    -2
100
AcDbBlockReference
  2
_OPEN
 10
917.5420994112137
 20
2422.549504980873
 30
0.0
 41
60.0
 42
60.0
 43
60.0
 50
270.0
  0
MTEXT
  5
8195
330
818E
100
AcDbEntity
  8
3
 62
     0
440
 16777216
100
AcDbMText
 10
842.5420994112133
 20
3181.549504980873
 30
0.0
 40
90.0
 41
0.0
 46
0.0
 71
     5
 72
     1
  1
\A1;1518
 11
0.0000000000000001
 21
1.0
 31
0.0
 73
     1
 44
1.0
  0
POINT
  5
8196
330
818E
100
AcDbEntity
  8
DEFPOINTS
 62
     0
440
 16777216
100
AcDbPoint
 10
2150.79738266154
 20
3940.549504980873
 30
0.0
  0
POINT
  5
8197
330
818E
100
AcDbEntity
  8
DEFPOINTS
 62
     0
440
 16777216
100
AcDbPoint
 10
1591.79738266154
 20
2422.549504980873
 30
0.0
  0
POINT
  5
8198
330
818E
100
AcDbEntity
  8
DEFPOINTS
 62
     0
440
 16777216
100
AcDbPoint
 10
917.5420994112137
 20
2422.549504980873
 30
0.0
  0
ENDBLK
  5
8199
330
818E
100
AcDbEntity
  8
0
100
AcDbBlockEnd
  0
BLOCK
  5
81EF
330
819E
100
AcDbEntity
  8
0
100
AcDbBlockBegin
  2
A$C2C6238AF
 70
     0
 10
0.0
 20
0.0
 30
0.0
  3
A$C2C6238AF
  1

  0
LINE
  5
819F
330
819E
100
AcDbEntity
  8
2
100
AcDbLine
 10
1294.255264426405
 20
1732.269363849366
 30
0.0
 11
1294.255264426405
 21
225.9955700792216
 31
0.0
  0
LINE
  5
81A0
330
819E
100
AcDbEntity
  8
2
100
AcDbLine
 10
627.7834725760149
 20
1185.995570079221
 30
0.0
 11
2052.158841616441
 21
1185.995570079221
 31
0.0
  0
LINE
  5
81A1
330
819E
100
AcDbEntity
  8
1
100
AcDbLine
 10
2644.255264426405
 20
225.9955700792216
 30
0.0
 11
794.2552644264051
 21
225.9955700792216
 31
0.0
1001
ACAD
1000
ASC_BOUNDS
1002
{
1070
    19
1002
}
  0
LINE
  5
81A2
330
819E
100
AcDbEntity
  8
1
100
AcDbLine
 10
2644.255264426405
 20
325.9955700792216
 30
0.0
 11
794.2552644264051
 21
325.9955700792216
 31
0.0
  0
LINE
  5
81A3
330
819E
100
AcDbEntity
  8
1
100
AcDbLine
 10
2644.255264426405
 20
325.9955700792216
 30
0.0
 11
2644.255264426405
 21
225.9955700792216
 31
0.0
  0
LINE
  5
81A4
330
819E
100
AcDbEntity
  8
1
100
AcDbLine
 10
2596.255264426406
 20
365.9955700792216
 30
0.0
 11
2192.255264426405
 21
365.9955700792216
 31
0.0
  0
LINE
  5
81A5
330
819E
100
AcDbEntity
  8
1
100
AcDbLine
 10
2194.255264426405
 20
365.9955700792216
 30
0.0
 11
2194.255264426405
 21
325.9955700792216
 31
0.0
  0
LINE
  5
81A6
330
819E
100
AcDbEntity
  8
1
100
AcDbLine
 10
794.2552644264051
 20
325.9955700792216
 30
0.0
 11
794.2552644264051
 21
225.9955700792216
 31
0.0
  0
POINT
  5
81A7
330
819E
100
AcDbEntity
  8
1
100
AcDbPoint
 10
794.2552644264051
 20
225.9955700792216
 30
0.0
  0
POINT
  5
81A8
330
819E
100
AcDbEntity
  8
1
100
AcDbPoint
 10
794.2552644264051
 20
225.9955700792216
 30
0.0
  0
POINT
  5
81A9
330
819E
100
AcDbEntity
  8
1
100
AcDbPoint
 10
794.2552644264051
 20
225.9955700792216
 30
0.0
  0
DIMENSION
  5
81AA
330
819E
100
AcDbEntity
  8
3
100
AcDbDimension
280
     0
  2
*D25
 10
600.9099208843418
 20
1162.995570079221
 30
0.0
 11
540.9099208843417
 21
750.4955700792216
 31
0.0
 12
-528.2398531532598
 22
-375.8920453302599
 32
0.0
 71
     5
 42
-1.0
 73
     0
 74
     0
 75
     0
  3
MATSU
100
AcDbAlignedDimension
 13
749.2552644264051
 23
337.9955700792216
 33
0.0
 14
749.2552644264051
 24
1162.995570079221
 34
0.0
 50
90.0
100
AcDbRotatedDimension
1001
ACAD
1000
DSTYLE
1002
{
1070
    40
1040
30.0
1002
}
  0
DIMENSION
  5
81AB
330
819E
100
AcDbEntity
  8
3
100
AcDbDimension
280
     0
  2
*D26
 10
448.6265183105388
 20
1185.995570079221
 30
0.0
 11
388.6265183105388
 21
761.9955700792216
 31
0.0
 12
-528.2398531532598
 22
-375.8920453302599
 32
0.0
 71
     5
 42
-1.0
 73
     0
 74
     0
 75
     0
  3
MATSU
100
AcDbAlignedDimension
 13
749.2552644264051
 23
337.9955700792216
 33
0.0
 14
627.7834725760149
 24
1185.995570079221
 34
0.0
 50
90.0
100
AcDbRotatedDimension
1001
ACAD
1000
DSTYLE
1002
{
1070
    40
1040
30.0
1002
}
  0
LINE
  5
81AC
330
819E
100
AcDbEntity
  8
1
100
AcDbLine
 10
2528.714164426406
 20
485.6835700792216
 30
0.0
 11
2548.255264426405
 21
431.9955700792215
 31
0.0
  0
LINE
  5
81AD
330
819E
100
AcDbEntity
  8
1
100
AcDbLine
 10
2259.808464426406
 20
485.7165700792211
 30
0.0
 11
2240.255264426405
 21
431.9955700792215
 31
0.0
  0
ARC
  5
81AE
330
819E
100
AcDbEntity
  8
1
100
AcDbCircle
 10
2394.255264426405
 20
575.9955700792215
 30
0.0
 40
162.0
100
AcDbArc
 50
285.6418999999984
 51
0.0
  0
ARC
  5
81AF
330
819E
100
AcDbEntity
  8
1
100
AcDbCircle
 10
2394.255264426405
 20
575.9955700792215
 30
0.0
 40
162.0
100
AcDbArc
 50
0.0
 51
254.360099999996
  0
LINE
  5
81B0
330
819E
100
AcDbEntity
  8
2
100
AcDbLine
 10
2394.255264426405
 20
804.444256522016
 30
0.0
 11
2394.255264426405
 21
225.9955700792211
 31
0.0
  0
LINE
  5
81B1
330
819E
100
AcDbEntity
  8
1
100
AcDbLine
 10
2350.574664426405
 20
419.9955700792215
 30
0.0
 11
2437.935964426406
 21
419.9955700792215
 31
0.0
  0
LINE
  5
81B2
330
819E
100
AcDbEntity
  8
1
100
AcDbLine
 10
2309.311364426406
 20
438.0515700792211
 30
0.0
 11
2301.133964426405
 21
429.8735700792213
 31
0.0
  0
LINE
  5
81B3
330
819E
100
AcDbEntity
  8
1
100
AcDbLine
 10
2287.042064426405
 20
433.9955700792216
 30
0.0
 11
2242.255264426405
 21
433.9955700792216
 31
0.0
  0
ARC
  5
81B4
330
819E
100
AcDbEntity
  8
1
100
AcDbCircle
 10
2242.255264426405
 20
431.9955700792215
 30
0.0
 40
2.0
100
AcDbArc
 50
90.0
 51
180.0
  0
LINE
  5
81B5
330
819E
100
AcDbEntity
  8
1
100
AcDbLine
 10
2240.255264426405
 20
415.9955700792215
 30
0.0
 11
2240.255264426405
 21
431.9955700792215
 31
0.0
  0
LINE
  5
81B6
330
819E
100
AcDbEntity
  8
1
100
AcDbLine
 10
2299.144064426406
 20
444.854570079221
 30
0.0
 11
2289.163464426405
 21
434.8735700792213
 31
0.0
  0
ARC
  5
81B7
330
819E
100
AcDbEntity
  8
1
100
AcDbCircle
 10
2303.255264426405
 20
427.7525700792211
 30
0.0
 40
3.0
100
AcDbArc
 50
134.9999999999954
 51
180.0
  0
LINE
  5
81B8
330
819E
100
AcDbEntity
  8
1
100
AcDbLine
 10
2300.255264426406
 20
415.9955700792215
 30
0.0
 11
2300.255264426406
 21
427.7525700792211
 31
0.0
  0
LINE
  5
81B9
330
819E
100
AcDbEntity
  8
1
100
AcDbLine
 10
2501.468464426406
 20
433.9955700792216
 30
0.0
 11
2546.255264426405
 21
433.9955700792216
 31
0.0
  0
LINE
  5
81BA
330
819E
100
AcDbEntity
  8
1
100
AcDbLine
 10
2499.293764426406
 20
434.9275700792214
 30
0.0
 11
2489.366464426405
 21
444.854570079221
 31
0.0
  0
LINE
  5
81BB
330
819E
100
AcDbEntity
  8
1
100
AcDbLine
 10
2479.199164426406
 20
438.0515700792211
 30
0.0
 11
2487.376664426405
 21
429.8735700792213
 31
0.0
  0
ARC
  5
81BC
330
819E
100
AcDbEntity
  8
1
100
AcDbCircle
 10
2485.255264426405
 20
427.7525700792211
 30
0.0
 40
3.0
100
AcDbArc
 50
0.0
 51
45.0000000000046
  0
LINE
  5
81BD
330
819E
100
AcDbEntity
  8
1
100
AcDbLine
 10
2488.255264426405
 20
415.9955700792215
 30
0.0
 11
2488.255264426405
 21
427.7525700792211
 31
0.0
  0
ARC
  5
81BE
330
819E
100
AcDbEntity
  8
1
100
AcDbCircle
 10
2501.468464426406
 20
436.9955700792216
 30
0.0
 40
3.0
100
AcDbArc
 50
225.0000000000046
 51
270.0
  0
ARC
  5
81BF
330
819E
100
AcDbEntity
  8
1
100
AcDbCircle
 10
2546.255264426405
 20
431.9955700792215
 30
0.0
 40
2.0
100
AcDbArc
 50
0.0
 51
90.0
  0
LINE
  5
81C0
330
819E
100
AcDbEntity
  8
1
100
AcDbLine
 10
2548.255264426405
 20
415.9955700792215
 30
0.0
 11
2548.255264426405
 21
431.9955700792215
 31
0.0
  0
LINE
  5
81C1
330
819E
100
AcDbEntity
  8
2
100
AcDbLine
 10
2206.144820363734
 20
575.9955700792215
 30
0.0
 11
2695.561729291105
 21
575.9955700792207
 31
0.0
  0
LINE
  5
81C2
330
819E
100
AcDbEntity
  8
1
100
AcDbLine
 10
2582.769907692446
 20
415.9955700792215
 30
0.0
 11
2454.255264426406
 21
415.9955700792206
 31
0.0
  0
LINE
  5
81C3
330
819E
100
AcDbEntity
  8
1
100
AcDbLine
 10
2192.255264426406
 20
365.9955700792216
 30
0.0
 11
2205.500396811594
 21
415.9955700792215
 31
0.0
  0
LINE
  5
81C4
330
819E
100
AcDbEntity
  8
1
100
AcDbLine
 10
2596.255264426406
 20
365.9955700792216
 30
0.0
 11
2582.769907692446
 21
415.9955700792215
 31
0.0
  0
LINE
  5
81C5
330
819E
100
AcDbEntity
  8
1
100
AcDbLine
 10
2454.255264426406
 20
405.9955700792215
 30
0.0
 11
2334.255264426405
 21
405.9955700792215
 31
0.0
  0
LINE
  5
81C6
330
819E
100
AcDbEntity
  8
1
100
AcDbLine
 10
2454.255264426407
 20
415.9955700792206
 30
0.0
 11
2454.255264426406
 21
405.9955700792215
 31
0.0
  0
LINE
  5
81C7
330
819E
100
AcDbEntity
  8
1
100
AcDbLine
 10
2334.255264426406
 20
415.9955700792206
 30
0.0
 11
2334.255264426406
 21
405.9955700792215
 31
0.0
  0
LINE
  5
81C8
330
819E
100
AcDbEntity
  8
1
100
AcDbLine
 10
2334.255264426405
 20
415.9955700792206
 30
0.0
 11
2205.500396811594
 21
415.9955700792215
 31
0.0
  0
CIRCLE
  5
81C9
330
819E
100
AcDbEntity
  8
1
100
AcDbCircle
 10
2394.255264426405
 20
575.9955700792215
 30
0.0
 40
110.0
  0
CIRCLE
  5
81CA
330
819E
100
AcDbEntity
  8
1
100
AcDbCircle
 10
1294.255264426405
 20
1185.995570079221
 30
0.0
 40
127.0
  0
POINT
  5
81CB
330
819E
100
AcDbEntity
  8
1
100
AcDbPoint
 10
794.2552644264051
 20
225.9955700792216
 30
0.0
  0
DIMENSION
  5
81CC
330
819E
100
AcDbEntity
  8
3
100
AcDbDimension
280
     0
  2
*D27
 10
285.1749918717505
 20
225.9955700792216
 30
0.0
 11
225.1749918717505
 21
705.9955700792215
 31
0.0
 12
-528.2398531532598
 22
-375.8920453302599
 32
0.0
 71
     5
 42
-1.0
 73
     0
 74
     0
 75
     0
  3
MATSU
100
AcDbAlignedDimension
 13
627.7834725760149
 23
1185.995570079221
 33
0.0
 14
794.2552644264051
 24
225.9955700792216
 34
0.0
 50
90.0
100
AcDbRotatedDimension
1001
ACAD
1000
DSTYLE
1002
{
1070
    40
1040
30.0
1002
}
  0
LINE
  5
81CD
330
819E
100
AcDbEntity
  8
3
100
AcDbLine
 10
285.1749918717505
 20
275.9955700792216
 30
0.0
 11
285.1749918717505
 21
919.6732474475011
 31
0.0
  0
POINT
  5
81CE
330
819E
100
AcDbEntity
  8
1
100
AcDbPoint
 10
794.2552644264051
 20
225.9955700792216
 30
0.0
  0
DIMENSION
  5
81CF
330
819E
100
AcDbEntity
  8
3
100
AcDbDimension
280
     0
  2
*D28
 10
1970.255264426405
 20
1914.595540469247
 30
0.0
 11
1632.255264426405
 21
1974.595540469247
 31
0.0
 12
-797.5421182351347
 22
-2196.553934901651
 32
0.0
 71
     5
 42
676.0
 73
     0
 74
     0
 75
     0
  3
MATSU
100
AcDbAlignedDimension
 13
1294.255264426405
 23
1732.269363849366
 33
0.0
 14
1970.255264426405
 24
1126.995570079222
 34
0.0
100
AcDbRotatedDimension
1001
ACAD
1000
DSTYLE
1002
{
1070
    40
1040
30.0
1002
}
  0
LINE
  5
81D0
330
819E
100
AcDbEntity
  8
1
100
AcDbLine
 10
2594.255264426406
 20
365.9955700792216
 30
0.0
 11
2594.255264426406
 21
325.9955700792216
 31
0.0
  0
ARC
  5
81D1
330
819E
100
AcDbEntity
  8
1
100
AcDbCircle
 10
1294.255264426405
 20
1185.995570079221
 30
0.0
 40
220.0
100
AcDbArc
 50
60.98963973731621
 51
240.9896397373162
  0
ARC
  5
81D2
330
819E
100
AcDbEntity
  8
1
100
AcDbCircle
 10
2394.255264426406
 20
575.9955700792215
 30
0.0
 40
220.0
100
AcDbArc
 50
240.9896397373162
 51
60.98963973731621
  0
CIRCLE
  5
81D3
330
819E
100
AcDbEntity
  8
1
100
AcDbCircle
 10
1294.255264426405
 20
1185.995570079221
 30
0.0
 40
400.0
  0
CIRCLE
  5
81D4
330
819E
100
AcDbEntity
  8
1
100
AcDbCircle
 10
1294.255264426405
 20
1185.995570079221
 30
0.0
 40
440.0
  0
DIMENSION
  5
81D5
330
819E
100
AcDbEntity
  8
3
100
AcDbDimension
280
     0
  2
*D29
 10
749.255264426406
 20
1914.595540469247
 30
0.0
 11
1021.755264426405
 21
1974.595540469247
 31
0.0
 12
-797.5421182351347
 22
-2196.553934901651
 32
0.0
 71
     5
 42
-1.0
 73
     0
 74
     0
 75
     0
  3
MATSU
100
AcDbAlignedDimension
 13
1294.255264426405
 23
1732.269363849366
 33
0.0
 14
749.255264426406
 24
1205.495570079222
 34
0.0
100
AcDbRotatedDimension
1001
ACAD
1000
DSTYLE
1002
{
1070
   287
1070
     4
1070
    40
1040
30.0
1070
    75
1070
     1
1070
   279
1070
     1
1070
   289
1070
     3
1002
}
  0
DIMENSION
  5
81D6
330
819E
100
AcDbEntity
  8
3
100
AcDbDimension
280
     0
  2
*D30
 10
2644.255264426405
 20
2076.310984064448
 30
0.0
 11
1696.755264426406
 21
2136.310984064448
 31
0.0
 12
-528.2398531532598
 22
-375.8920453302599
 32
0.0
 71
     5
 42
-1.0
 73
     0
 74
     0
 75
     0
  3
MATSU
100
AcDbAlignedDimension
 13
749.255264426406
 23
1205.495570079222
 33
0.0
 14
2644.255264426405
 24
325.9955700792216
 34
0.0
100
AcDbRotatedDimension
1001
ACAD
1000
DSTYLE
1002
{
1070
    40
1040
30.0
1002
}
  0
LINE
  5
81D7
330
819E
100
AcDbEntity
  8
1
100
AcDbLine
 10
1400.948171992335
 20
1378.392616509586
 30
0.0
 11
2500.948171992335
 21
768.3926165095863
 31
0.0
  0
LINE
  5
81D8
330
819E
100
AcDbEntity
  8
1
100
AcDbLine
 10
1357.341650663084
 20
1296.21856165356
 30
0.0
 11
2448.897016284945
 21
671.4643029388844
 31
0.0
  0
LINE
  5
81D9
330
819E
100
AcDbEntity
  8
1
100
AcDbLine
 10
1234.171090439268
 20
1074.107715348319
 30
0.0
 11
2342.213853886366
 21
479.0848297611173
 31
0.0
  0
LINE
  5
81DA
330
819E
100
AcDbEntity
  8
1
100
AcDbLine
 10
1187.562356860476
 20
993.5985236488567
 30
0.0
 11
2287.562356860477
 21
383.5985236488568
 31
0.0
  0
DIMENSION
  5
81DB
330
819E
100
AcDbEntity
  8
3
100
AcDbDimension
280
     0
  2
*D31
 10
285.9155913458053
 20
1185.995570079221
 30
0.0
 11
210.9155913458049
 21
1464.995570079222
 31
0.0
 12
-797.5421182351347
 22
-2196.553934901651
 32
0.0
 71
     5
 42
558.0
 73
     0
 74
     0
 75
     0
  3
IGA
100
AcDbAlignedDimension
 13
1353.255264426405
 23
1743.995570079221
 33
0.0
 14
627.7834725760149
 24
1185.995570079221
 34
0.0
 50
90.0
100
AcDbRotatedDimension
1001
ACAD
1000
DSTYLE
1002
{
1070
   172
1070
     1
1070
    40
1040
30.0
1070
   271
1070
     0
1070
   143
1040
0.039
1002
}
  0
DIMENSION
  5
81DC
330
819E
100
AcDbEntity
  8
3
100
AcDbDimension
280
     0
  2
*D32
 10
1294.255264426405
 20
30.00000921391984
 30
0.0
 11
1044.255264426405
 21
105.0000092139198
 31
0.0
 12
-797.5421182351347
 22
-2196.553934901651
 32
0.0
 71
     5
 42
-1.0
 73
     0
 74
     0
 75
     0
  3
IGA
100
AcDbAlignedDimension
 13
794.2552644264051
 23
225.9955700792216
 33
0.0
 14
1294.255264426405
 24
225.9955700792216
 34
0.0
100
AcDbRotatedDimension
1001
ACAD
1000
DSTYLE
1002
{
1070
   172
1070
     1
1070
    40
1040
30.0
1070
   271
1070
     0
1070
   143
1040
0.039
1002
}
  0
DIMENSION
  5
81DD
330
819E
100
AcDbEntity
  8
3
100
AcDbDimension
280
     0
  2
*D33
 10
2644.255264426405
 20
30.00000921391984
 30
0.0
 11
1969.255264426405
 21
105.0000092139198
 31
0.0
 12
-797.5421182351347
 22
-2196.553934901651
 32
0.0
 71
     5
 42
-1.0
 73
     0
 74
     0
 75
     0
  3
IGA
100
AcDbAlignedDimension
 13
1294.255264426405
 23
225.9955700792216
 33
0.0
 14
2644.255264426405
 24
225.9955700792216
 34
0.0
100
AcDbRotatedDimension
1001
ACAD
1000
DSTYLE
1002
{
1070
   172
1070
     1
1070
    40
1040
30.0
1070
   271
1070
     0
1070
   143
1040
0.039
1002
}
  0
DIMENSION
  5
81DE
330
819E
100
AcDbEntity
  8
3
100
AcDbDimension
280
     0
  2
*D34
 10
119.999981176079
 20
225.995570079222
 30
0.0
 11
44.99998117607868
 21
984.995570079222
 31
0.0
 12
-797.5421182351347
 22
-2196.553934901651
 32
0.0
 71
     5
 42
1518.0
 73
     0
 74
     0
 75
     0
  3
IGA
100
AcDbAlignedDimension
 13
1353.255264426405
 23
1743.995570079221
 33
0.0
 14
794.2552644264051
 24
225.9955700792216
 34
0.0
 50
90.0
100
AcDbRotatedDimension
1001
ACAD
1000
DSTYLE
1002
{
1070
   172
1070
     1
1070
    40
1040
30.0
1070
   271
1070
     0
1070
   143
1040
0.039
1002
}
  0
ARC
  5
81DF
330
819E
100
AcDbEntity
  8
FUTO
100
AcDbCircle
 10
1341.755264426405
 20
1233.495570079221
 30
0.0
 40
510.5
100
AcDbArc
 50
90.0
 51
180.0
  0
LINE
  5
81E0
330
819E
100
AcDbEntity
  8
FUTO
100
AcDbLine
 10
749.2552644264051
 20
337.9955700792211
 30
0.0
 11
1294.255264426405
 21
394.3674242917423
 31
0.0
  0
ARC
  5
81E1
330
819E
100
AcDbEntity
  8
FUTO
100
AcDbCircle
 10
1353.255264426405
 20
1126.995570079222
 30
0.0
 40
617.0
100
AcDbArc
 50
0.0
 51
90.0
  0
ARC
  5
81E2
330
819E
100
AcDbEntity
  8
FUTO
100
AcDbCircle
 10
1235.255264426405
 20
1126.995570079222
 30
0.0
 40
735.0
100
AcDbArc
 50
274.6042067265532
 51
0.0
  0
LINE
  5
81E3
330
819E
100
AcDbEntity
  8
FUTO
100
AcDbLine
 10
1353.255264426405
 20
1743.995570079221
 30
0.0
 11
1341.755264426405
 21
1743.995570079221
 31
0.0
  0
ARC
  5
81E4
330
819E
100
AcDbEntity
  8
FUTO
100
AcDbCircle
 10
1263.755264426405
 20
1216.495570079221
 30
0.0
 40
432.5
100
AcDbArc
 50
180.0
 51
187.1056552472975
  0
LINE
  5
81E5
330
819E
100
AcDbEntity
  8
FUTO
100
AcDbLine
 10
834.5769797940157
 20
1162.995570079221
 30
0.0
 11
749.2552644264051
 21
1162.995570079221
 31
0.0
  0
LINE
  5
81E6
330
819E
100
AcDbEntity
  8
FUTO
100
AcDbLine
 10
831.2552644264052
 20
1233.495570079221
 30
0.0
 11
831.2552644264052
 21
1216.495570079221
 31
0.0
  0
LINE
  5
81E7
330
819E
100
AcDbEntity
  8
1
100
AcDbLine
 10
749.2552644264051
 20
295.4955700792211
 30
0.0
 11
749.2552644264069
 21
1205.495570079221
 31
0.0
  0
LINE
  5
81E8
330
819E
100
AcDbEntity
  8
1
100
AcDbLine
 10
749.2552644264051
 20
295.4955700792211
 30
0.0
 11
752.2552644264051
 21
295.4955700792211
 31
0.0
  0
LINE
  5
81E9
330
819E
100
AcDbEntity
  8
1
100
AcDbLine
 10
749.2552644264069
 20
1205.495570079221
 30
0.0
 11
752.2552644264069
 21
1205.495570079221
 31
0.0
  0
LINE
  5
81EA
330
819E
100
AcDbEntity
  8
1
100
AcDbLine
 10
789.2552644264051
 20
341.3966648496439
 30
0.0
 11
789.2552644264069
 21
1162.995570079221
 31
0.0
  0
LINE
  5
81EB
330
819E
100
AcDbEntity
  8
1
100
AcDbLine
 10
752.2552644264051
 20
295.4955700792211
 30
0.0
 11
752.2552644264069
 21
1205.495570079221
 31
0.0
  0
POINT
  5
81EC
330
819E
100
AcDbEntity
  8
1
100
AcDbPoint
 10
729.0373537573832
 20
1185.995570079221
 30
0.0
 50
0.0000000000000325
  0
POINT
  5
81ED
330
819E
100
AcDbEntity
  8
1
100
AcDbPoint
 10
729.0373537573832
 20
1185.995570079221
 30
0.0
 50
0.0000000000000325
  0
ENDBLK
  5
81F0
330
819E
100
AcDbEntity
  8
0
100
AcDbBlockEnd
  0
BLOCK
  5
8356
330
8355
100
AcDbEntity
  8
0
100
AcDbBlockBegin
  2
*D46
 70
     1
 10
0.0
 20
0.0
 30
0.0
  3
*D46
  1

  0
LINE
  5
8380
330
8355
100
AcDbEntity
  8
3
 62
     0
440
 16777216
370
    -2
100
AcDbLine
 10
4013.607505112644
 20
3617.549504980872
 30
0.0
 11
4013.607505112644
 21
4294.873388319614
 31
0.0
  0
LINE
  5
8381
330
8355
100
AcDbEntity
  8
3
 62
     0
440
 16777216
370
    -2
100
AcDbLine
 10
4913.907505112644
 20
4177.481749333186
 30
0.0
 11
4913.907505112644
 21
4294.873388319614
 31
0.0
  0
LINE
  5
8382
330
8355
100
AcDbEntity
  8
3
 62
     0
440
 16777216
370
    -2
100
AcDbLine
 10
4073.607505112643
 20
4264.873388319614
 30
0.0
 11
4853.907505112644
 21
4264.873388319614
 31
0.0
  0
INSERT
  5
8383
330
8355
100
AcDbEntity
  8
3
 62
     0
440
 16777216
370
    -2
100
AcDbBlockReference
  2
_OPEN
 10
4013.607505112644
 20
4264.873388319614
 30
0.0
 41
60.0
 42
60.0
 43
60.0
 50
180.0
  0
INSERT
  5
8384
330
8355
100
AcDbEntity
  8
3
 62
     0
440
 16777216
370
    -2
100
AcDbBlockReference
  2
_OPEN
 10
4913.907505112644
 20
4264.873388319614
 30
0.0
 41
60.0
 42
60.0
 43
60.0
  0
MTEXT
  5
8385
330
8355
100
AcDbEntity
  8
3
 62
     0
440
 16777216
100
AcDbMText
 10
4463.757505112644
 20
4363.444816891043
 30
0.0
 40
90.0
 41
0.0
 46
0.0
 71
     5
 72
     1
  1
\A1;(900)
 73
     1
 44
1.0
  0
POINT
  5
8386
330
8355
100
AcDbEntity
  8
DEFPOINTS
 62
     0
440
 16777216
100
AcDbPoint
 10
4013.607505112644
 20
3602.549504980872
 30
0.0
  0
POINT
  5
8387
330
8355
100
AcDbEntity
  8
DEFPOINTS
 62
     0
440
 16777216
100
AcDbPoint
 10
4913.907505112644
 20
4162.481749333187
 30
0.0
  0
POINT
  5
8388
330
8355
100
AcDbEntity
  8
DEFPOINTS
 62
     0
440
 16777216
100
AcDbPoint
 10
4913.907505112644
 20
4264.873388319614
 30
0.0
  0
ENDBLK
  5
8357
330
8355
100
AcDbEntity
  8
0
100
AcDbBlockEnd
  0
BLOCK
  5
8363
330
8362
100
AcDbEntity
  8
0
100
AcDbBlockBegin
  2
*D47
 70
     1
 10
0.0
 20
0.0
 30
0.0
  3
*D47
  1

  0
LINE
  5
8389
330
8362
100
AcDbEntity
  8
3
 62
     0
440
 16777216
370
    -2
100
AcDbLine
 10
4913.907505112644
 20
4177.481749333186
 30
0.0
 11
4913.907505112644
 21
4294.873388319614
 31
0.0
  0
LINE
  5
838A
330
8362
100
AcDbEntity
  8
3
 62
     0
440
 16777216
370
    -2
100
AcDbLine
 10
5573.707505112645
 20
3367.549504980872
 30
0.0
 11
5573.707505112645
 21
4294.873388319614
 31
0.0
  0
LINE
  5
838B
330
8362
100
AcDbEntity
  8
3
 62
     0
440
 16777216
370
    -2
100
AcDbLine
 10
4973.907505112644
 20
4264.873388319614
 30
0.0
 11
5513.707505112645
 21
4264.873388319614
 31
0.0
  0
INSERT
  5
838C
330
8362
100
AcDbEntity
  8
3
 62
     0
440
 16777216
370
    -2
100
AcDbBlockReference
  2
_OPEN
 10
4913.907505112644
 20
4264.873388319614
 30
0.0
 41
60.0
 42
60.0
 43
60.0
 50
180.0
  0
INSERT
  5
838D
330
8362
100
AcDbEntity
  8
3
 62
     0
440
 16777216
370
    -2
100
AcDbBlockReference
  2
_OPEN
 10
5573.707505112645
 20
4264.873388319614
 30
0.0
 41
60.0
 42
60.0
 43
60.0
  0
MTEXT
  5
838E
330
8362
100
AcDbEntity
  8
3
 62
     0
440
 16777216
100
AcDbMText
 10
5243.807505112645
 20
4363.444816891043
 30
0.0
 40
90.0
 41
0.0
 46
0.0
 71
     5
 72
     1
  1
\A1;(660)
 73
     1
 44
1.0
  0
POINT
  5
838F
330
8362
100
AcDbEntity
  8
DEFPOINTS
 62
     0
440
 16777216
100
AcDbPoint
 10
4913.907505112644
 20
4162.481749333187
 30
0.0
  0
POINT
  5
8390
330
8362
100
AcDbEntity
  8
DEFPOINTS
 62
     0
440
 16777216
100
AcDbPoint
 10
5573.707505112645
 20
3352.549504980872
 30
0.0
  0
POINT
  5
8391
330
8362
100
AcDbEntity
  8
DEFPOINTS
 62
     0
440
 16777216
100
AcDbPoint
 10
5573.707505112645
 20
4264.873388319614
 30
0.0
  0
ENDBLK
  5
8364
330
8362
100
AcDbEntity
  8
0
100
AcDbBlockEnd
  0
ENDSEC
  0
SECTION
  2
ENTITIES
  0
INSERT
  5
7C35
330
19
100
AcDbEntity
  8
0
100
AcDbBlockReference
  2
YA_N
 10
6.0
 20
5.0
 30
0.0
  0
LINE
  5
7C37
330
19
100
AcDbEntity
  8
2
100
AcDbLine
 10
2091.79738266154
 20
3928.823298751016
 30
0.0
 11
2091.79738266154
 21
2283.549504980872
 31
0.0
  0
LINE
  5
7C38
330
19
100
AcDbEntity
  8
2
100
AcDbLine
 10
1425.32559081115
 20
3382.549504980872
 30
0.0
 11
2849.700959851576
 21
3382.549504980872
 31
0.0
  0
LINE
  5
7C44
330
19
100
AcDbEntity
  8
1
100
AcDbLine
 10
3441.79738266154
 20
2422.549504980873
 30
0.0
 11
1591.79738266154
 21
2422.549504980873
 31
0.0
1001
ACAD
1000
ASC_BOUNDS
1002
{
1070
    19
1002
}
  0
LINE
  5
7C45
330
19
100
AcDbEntity
  8
1
100
AcDbLine
 10
3441.79738266154
 20
2522.549504980873
 30
0.0
 11
1591.79738266154
 21
2522.549504980873
 31
0.0
  0
LINE
  5
7C46
330
19
100
AcDbEntity
  8
1
100
AcDbLine
 10
3441.79738266154
 20
2522.549504980873
 30
0.0
 11
3441.79738266154
 21
2422.549504980873
 31
0.0
  0
LINE
  5
7C47
330
19
100
AcDbEntity
  8
1
100
AcDbLine
 10
3441.79738266154
 20
2277.549504980873
 30
0.0
 11
1591.79738266154
 21
2277.549504980873
 31
0.0
  0
LINE
  5
7C48
330
19
100
AcDbEntity
  8
1
100
AcDbLine
 10
1591.79738266154
 20
2377.549504980873
 30
0.0
 11
1591.79738266154
 21
2277.549504980873
 31
0.0
  0
LINE
  5
7C49
330
19
100
AcDbEntity
  8
1
100
AcDbLine
 10
3441.79738266154
 20
2377.549504980873
 30
0.0
 11
3441.79738266154
 21
2277.549504980873
 31
0.0
  0
LINE
  5
7C4A
330
19
100
AcDbEntity
  8
1
100
AcDbLine
 10
3393.797382661541
 20
2562.549504980872
 30
0.0
 11
2989.79738266154
 21
2562.549504980872
 31
0.0
  0
LINE
  5
7C4B
330
19
100
AcDbEntity
  8
1
100
AcDbLine
 10
2991.79738266154
 20
2562.549504980872
 30
0.0
 11
2991.79738266154
 21
2522.549504980873
 31
0.0
  0
LINE
  5
7C4C
330
19
100
AcDbEntity
  8
1
100
AcDbLine
 10
1591.79738266154
 20
2522.549504980873
 30
0.0
 11
1591.79738266154
 21
2422.549504980873
 31
0.0
  0
LINE
  5
7C4E
330
19
100
AcDbEntity
  8
1
100
AcDbLine
 10
4176.907505112644
 20
2422.549504980872
 30
0.0
 11
5496.907505112644
 21
2422.549504980872
 31
0.0
1001
ACAD
1000
ASC_BOUNDS
1002
{
1070
    19
1002
}
  0
LINE
  5
7C4F
330
19
100
AcDbEntity
  8
1
100
AcDbLine
 10
4176.907505112644
 20
2522.549504980871
 30
0.0
 11
5496.907505112646
 21
2522.549504980872
 31
0.0
  0
LINE
  5
7C50
330
19
100
AcDbEntity
  8
1
100
AcDbLine
 10
4176.907505112644
 20
2277.549504980872
 30
0.0
 11
5496.907505112645
 21
2277.549504980872
 31
0.0
  0
LINE
  5
7C51
330
19
100
AcDbEntity
  8
1
100
AcDbLine
 10
4176.907505112644
 20
2522.549504980871
 30
0.0
 11
4176.907505112644
 21
2422.549504980872
 31
0.0
  0
LINE
  5
7C52
330
19
100
AcDbEntity
  8
1
100
AcDbLine
 10
5496.907505112645
 20
2522.549504980873
 30
0.0
 11
5496.907505112644
 21
2422.549504980872
 31
0.0
  0
LINE
  5
7C53
330
19
100
AcDbEntity
  8
1
100
AcDbLine
 10
5496.907505112644
 20
2522.549504980872
 30
0.0
 11
5496.907505112645
 21
2517.023389824283
 31
0.0
  0
LINE
  5
7C54
330
19
100
AcDbEntity
  8
2
100
AcDbLine
 10
4026.424836725975
 20
3382.549504980872
 30
0.0
 11
5564.957351691841
 21
3382.549504980872
 31
0.0
  0
LINE
  5
7C55
330
19
100
AcDbEntity
  8
2
100
AcDbLine
 10
4027.313689911075
 20
2772.549504980872
 30
0.0
 11
4704.607505112643
 21
2772.549504980871
 31
0.0
  0
LINE
  5
7C56
330
19
100
AcDbEntity
  8
1
100
AcDbLine
 10
4101.607505112643
 20
3509.549504980872
 30
0.0
 11
4101.607505112643
 21
2662.549504980872
 31
0.0
  0
LINE
  5
7C57
330
19
100
AcDbEntity
  8
1
100
AcDbLine
 10
4013.607505112644
 20
3602.549504980872
 30
0.0
 11
4013.607505112644
 21
2552.549504980872
 31
0.0
  0
LINE
  5
7C58
330
19
100
AcDbEntity
  8
1
100
AcDbLine
 10
4013.607505112644
 20
3602.549504980872
 30
0.0
 11
4216.607505112643
 21
3602.549504980872
 31
0.0
  0
LINE
  5
7C59
330
19
100
AcDbEntity
  8
1
100
AcDbLine
 10
4216.607505112643
 20
3602.549504980872
 30
0.0
 11
4216.607505112643
 21
3552.549504980872
 31
0.0
  0
LINE
  5
7C5A
330
19
100
AcDbEntity
  8
1
100
AcDbLine
 10
4216.607505112644
 20
2594.438225664237
 30
0.0
 11
4216.607505112644
 21
2552.549504980872
 31
0.0
  0
LINE
  5
7C5B
330
19
100
AcDbEntity
  8
2
100
AcDbLine
 10
4913.907505112644
 20
4029.999618500773
 30
0.0
 11
4913.907505112645
 21
2283.549504980872
 31
0.0
  0
POINT
  5
7C5C
330
19
100
AcDbEntity
  8
1
100
AcDbPoint
 10
1591.79738266154
 20
2422.549504980873
 30
0.0
  0
POINT
  5
7C5D
330
19
100
AcDbEntity
  8
1
100
AcDbPoint
 10
1591.79738266154
 20
2422.549504980873
 30
0.0
  0
POINT
  5
7C5E
330
19
100
AcDbEntity
  8
1
100
AcDbPoint
 10
1591.79738266154
 20
2422.549504980873
 30
0.0
  0
INSERT
  5
7C61
330
19
100
AcDbEntity
  8
0
100
AcDbBlockReference
  2
YA_N
 10
-733.6448571667497
 20
-271.0302667023643
 30
0.0
 41
20.0
 42
20.0
 43
20.0
  0
DIMENSION
  5
7C63
330
19
100
AcDbEntity
  8
3
100
AcDbDimension
280
     0
  2
*D3
 10
2091.79738266154
 20
2057.3073487531
 30
0.0
 11
1841.79738266154
 21
2117.3073487531
 31
0.0
 70
    32
 71
     5
 42
-1.0
 73
     0
 74
     0
 75
     0
  3
MATSU
100
AcDbAlignedDimension
 13
1591.79738266154
 23
2277.549504980873
 33
0.0
 14
2091.79738266154
 24
2277.549504980873
 34
0.0
100
AcDbRotatedDimension
1001
ACAD
1000
DSTYLE
1002
{
1070
    40
1040
30.0
1002
}
  0
DIMENSION
  5
7C64
330
19
100
AcDbEntity
  8
3
100
AcDbDimension
280
     0
  2
*D4
 10
1398.452039119476
 20
3359.549504980873
 30
0.0
 11
1338.452039119476
 21
2947.049504980873
 31
0.0
 12
269.3022650818748
 22
1820.661889571391
 32
0.0
 70
    32
 71
     5
 42
-1.0
 73
     0
 74
     0
 75
     0
  3
MATSU
100
AcDbAlignedDimension
 13
1546.79738266154
 23
2534.549504980873
 33
0.0
 14
1546.79738266154
 24
3359.549504980873
 34
0.0
 50
90.0
100
AcDbRotatedDimension
1001
ACAD
1000
DSTYLE
1002
{
1070
    40
1040
30.0
1002
}
  0
DIMENSION
  5
7C65
330
19
100
AcDbEntity
  8
3
100
AcDbDimension
280
     0
  2
*D5
 10
1246.168636545673
 20
3382.549504980872
 30
0.0
 11
1186.168636545673
 21
2958.549504980873
 31
0.0
 12
269.3022650818748
 22
1820.661889571391
 32
0.0
 70
    32
 71
     5
 42
-1.0
 73
     0
 74
     0
 75
     0
  3
MATSU
100
AcDbAlignedDimension
 13
1546.79738266154
 23
2534.549504980873
 33
0.0
 14
1425.32559081115
 24
3382.549504980872
 34
0.0
 50
90.0
100
AcDbRotatedDimension
1001
ACAD
1000
DSTYLE
1002
{
1070
    40
1040
30.0
1002
}
  0
LINE
  5
7C66
330
19
100
AcDbEntity
  8
1
100
AcDbLine
 10
3326.25628266154
 20
2682.237504980873
 30
0.0
 11
3345.79738266154
 21
2628.549504980873
 31
0.0
  0
LINE
  5
7C67
330
19
100
AcDbEntity
  8
1
100
AcDbLine
 10
3057.35058266154
 20
2682.270504980872
 30
0.0
 11
3037.79738266154
 21
2628.549504980873
 31
0.0
  0
ARC
  5
7C68
330
19
100
AcDbEntity
  8
1
100
AcDbCircle
 10
3191.79738266154
 20
2772.549504980873
 30
0.0
 40
162.0
100
AcDbArc
 50
285.6419
 51
0.0
  0
ARC
  5
7C69
330
19
100
AcDbEntity
  8
1
100
AcDbCircle
 10
3191.79738266154
 20
2772.549504980873
 30
0.0
 40
162.0
100
AcDbArc
 50
0.0
 51
254.3601
  0
LINE
  5
7C6A
330
19
100
AcDbEntity
  8
2
100
AcDbLine
 10
3191.79738266154
 20
3000.998191423667
 30
0.0
 11
3191.797382661541
 21
2283.549504980872
 31
0.0
  0
LINE
  5
7C6B
330
19
100
AcDbEntity
  8
1
100
AcDbLine
 10
3148.11678266154
 20
2616.549504980873
 30
0.0
 11
3235.47808266154
 21
2616.549504980873
 31
0.0
  0
LINE
  5
7C6C
330
19
100
AcDbEntity
  8
1
100
AcDbLine
 10
3106.853482661541
 20
2634.605504980872
 30
0.0
 11
3098.67608266154
 21
2626.427504980872
 31
0.0
  0
LINE
  5
7C6F
330
19
100
AcDbEntity
  8
1
100
AcDbLine
 10
3084.58418266154
 20
2630.549504980872
 30
0.0
 11
3039.79738266154
 21
2630.549504980872
 31
0.0
  0
ARC
  5
7C71
330
19
100
AcDbEntity
  8
1
100
AcDbCircle
 10
3039.79738266154
 20
2628.549504980873
 30
0.0
 40
2.0
100
AcDbArc
 50
90.0
 51
180.0
  0
LINE
  5
7C72
330
19
100
AcDbEntity
  8
1
100
AcDbLine
 10
3037.79738266154
 20
2612.549504980873
 30
0.0
 11
3037.79738266154
 21
2628.549504980873
 31
0.0
  0
LINE
  5
7C75
330
19
100
AcDbEntity
  8
1
100
AcDbLine
 10
3096.686182661541
 20
2641.408504980872
 30
0.0
 11
3086.70558266154
 21
2631.427504980872
 31
0.0
  0
ARC
  5
7C77
330
19
100
AcDbEntity
  8
1
100
AcDbCircle
 10
3084.58418266154
 20
2633.549504980873
 30
0.0
 40
3.0
100
AcDbArc
 50
270.0
 51
315.0
  0
ARC
  5
7C78
330
19
100
AcDbEntity
  8
1
100
AcDbCircle
 10
3100.79738266154
 20
2624.306504980872
 30
0.0
 40
3.0
100
AcDbArc
 50
135.0
 51
180.0
  0
LINE
  5
7C79
330
19
100
AcDbEntity
  8
1
100
AcDbLine
 10
3097.79738266154
 20
2612.549504980873
 30
0.0
 11
3097.79738266154
 21
2624.306504980872
 31
0.0
  0
LINE
  5
7C7D
330
19
100
AcDbEntity
  8
1
100
AcDbLine
 10
3299.01058266154
 20
2630.549504980872
 30
0.0
 11
3343.79738266154
 21
2630.549504980872
 31
0.0
  0
LINE
  5
7C7E
330
19
100
AcDbEntity
  8
1
100
AcDbLine
 10
3296.835882661541
 20
2631.481504980872
 30
0.0
 11
3286.908582661541
 21
2641.408504980872
 31
0.0
  0
LINE
  5
7C7F
330
19
100
AcDbEntity
  8
1
100
AcDbLine
 10
3276.74128266154
 20
2634.605504980872
 30
0.0
 11
3284.91878266154
 21
2626.427504980872
 31
0.0
  0
ARC
  5
7C80
330
19
100
AcDbEntity
  8
1
100
AcDbCircle
 10
3282.79738266154
 20
2624.306504980872
 30
0.0
 40
3.0
100
AcDbArc
 50
0.0
 51
45.0
  0
LINE
  5
7C81
330
19
100
AcDbEntity
  8
1
100
AcDbLine
 10
3285.79738266154
 20
2612.549504980873
 30
0.0
 11
3285.79738266154
 21
2624.306504980872
 31
0.0
  0
ARC
  5
7C82
330
19
100
AcDbEntity
  8
1
100
AcDbCircle
 10
3299.01058266154
 20
2633.549504980873
 30
0.0
 40
3.0
100
AcDbArc
 50
225.0
 51
270.0
  0
ARC
  5
7C84
330
19
100
AcDbEntity
  8
1
100
AcDbCircle
 10
3343.79738266154
 20
2628.549504980873
 30
0.0
 40
2.0
100
AcDbArc
 50
0.0
 51
90.0
  0
LINE
  5
7C89
330
19
100
AcDbEntity
  8
1
100
AcDbLine
 10
3345.79738266154
 20
2612.549504980873
 30
0.0
 11
3345.79738266154
 21
2628.549504980873
 31
0.0
  0
LINE
  5
7C8A
330
19
100
AcDbEntity
  8
2
100
AcDbLine
 10
3003.686938598868
 20
2772.549504980873
 30
0.0
 11
3493.10384752624
 21
2772.549504980871
 31
0.0
  0
LINE
  5
7C8B
330
19
100
AcDbEntity
  8
1
100
AcDbLine
 10
3380.31202592758
 20
2612.549504980873
 30
0.0
 11
3251.797382661541
 21
2612.549504980872
 31
0.0
  0
LINE
  5
7C8C
330
19
100
AcDbEntity
  8
1
100
AcDbLine
 10
2989.797382661541
 20
2562.549504980872
 30
0.0
 11
3003.042515046729
 21
2612.549504980873
 31
0.0
  0
LINE
  5
7C8D
330
19
100
AcDbEntity
  8
1
100
AcDbLine
 10
3393.797382661541
 20
2562.549504980872
 30
0.0
 11
3380.31202592758
 21
2612.549504980873
 31
0.0
  0
LINE
  5
7C8E
330
19
100
AcDbEntity
  8
1
100
AcDbLine
 10
3251.797382661541
 20
2602.549504980873
 30
0.0
 11
3131.79738266154
 21
2602.549504980873
 31
0.0
  0
LINE
  5
7C90
330
19
100
AcDbEntity
  8
1
100
AcDbLine
 10
3251.797382661542
 20
2612.549504980872
 30
0.0
 11
3251.797382661541
 21
2602.549504980873
 31
0.0
  0
LINE
  5
7C91
330
19
100
AcDbEntity
  8
1
100
AcDbLine
 10
3131.797382661541
 20
2612.549504980872
 30
0.0
 11
3131.797382661541
 21
2602.549504980873
 31
0.0
  0
LINE
  5
7C92
330
19
100
AcDbEntity
  8
1
100
AcDbLine
 10
3131.79738266154
 20
2612.549504980872
 30
0.0
 11
3003.042515046729
 21
2612.549504980873
 31
0.0
  0
CIRCLE
  5
7C97
330
19
100
AcDbEntity
  8
1
100
AcDbCircle
 10
3191.79738266154
 20
2772.549504980873
 30
0.0
 40
110.0
  0
CIRCLE
  5
7C98
330
19
100
AcDbEntity
  8
1
100
AcDbCircle
 10
2091.79738266154
 20
3382.549504980872
 30
0.0
 40
127.0
  0
LINE
  5
7C99
330
19
100
AcDbEntity
  8
1
100
AcDbLine
 10
4101.607505112643
 20
3509.549504980872
 30
0.0
 11
4186.607505112643
 21
3509.549504980872
 31
0.0
  0
LINE
  5
7C9A
330
19
100
AcDbEntity
  8
1
100
AcDbLine
 10
4101.607505112643
 20
3255.549504980872
 30
0.0
 11
4186.607505112644
 21
3255.549504980872
 31
0.0
  0
LINE
  5
7C9B
330
19
100
AcDbEntity
  8
1
100
AcDbLine
 10
4101.607505112644
 20
2882.549504980872
 30
0.0
 11
4186.607505112643
 21
2882.549504980872
 31
0.0
  0
LINE
  5
7C9C
330
19
100
AcDbEntity
  8
1
100
AcDbLine
 10
4101.607505112643
 20
2662.549504980872
 30
0.0
 11
4186.607505112643
 21
2662.549504980872
 31
0.0
  0
LINE
  5
7C9D
330
19
100
AcDbEntity
  8
1
100
AcDbLine
 10
4013.607505112644
 20
2552.549504980872
 30
0.0
 11
4216.607505112643
 21
2552.549504980872
 31
0.0
  0
LINE
  5
7C9E
330
19
100
AcDbEntity
  8
1
100
AcDbLine
 10
4186.607505112643
 20
3509.549504980872
 30
0.0
 11
4186.607505112643
 21
2662.549504980872
 31
0.0
  0
INSERT
  5
7C9F
330
19
100
AcDbEntity
  8
0
100
AcDbBlockReference
  2
YA_N
 10
-36.73462870802178
 20
301.6536876033206
 30
0.0
 41
20.0
 42
20.0
 43
20.0
  0
INSERT
  5
7CA1
330
19
100
AcDbEntity
  8
0
100
AcDbBlockReference
  2
YA_N
 10
77.48489664613953
 20
225.311977764075
 30
0.0
 41
20.0
 42
20.0
 43
20.0
  0
LINE
  5
7CA3
330
19
100
AcDbEntity
  8
1
100
AcDbLine
 10
4176.907505112644
 20
2377.549504980871
 30
0.0
 11
5496.907505112644
 21
2377.549504980872
 31
0.0
1001
ACAD
1000
ASC_BOUNDS
1002
{
1070
    19
1002
}
  0
LINE
  5
7CA4
330
19
100
AcDbEntity
  8
1
100
AcDbLine
 10
1591.79738266154
 20
2377.549504980873
 30
0.0
 11
3441.79738266154
 21
2377.549504980871
 31
0.0
1001
ACAD
1000
ASC_BOUNDS
1002
{
1070
    19
1002
}
  0
POINT
  5
7CA5
330
19
100
AcDbEntity
  8
1
100
AcDbPoint
 10
1591.79738266154
 20
2377.549504980873
 30
0.0
  0
POINT
  5
7CA6
330
19
100
AcDbEntity
  8
1
100
AcDbPoint
 10
1591.79738266154
 20
2277.549504980873
 30
0.0
  0
POINT
  5
7CA7
330
19
100
AcDbEntity
  8
1
100
AcDbPoint
 10
1591.79738266154
 20
2377.549504980873
 30
0.0
  0
POINT
  5
7CA8
330
19
100
AcDbEntity
  8
1
100
AcDbPoint
 10
1591.79738266154
 20
2422.549504980873
 30
0.0
  0
LINE
  5
7CA9
330
19
100
AcDbEntity
  8
1
100
AcDbLine
 10
4176.907505112643
 20
2377.549504980871
 30
0.0
 11
4176.907505112644
 21
2277.549504980872
 31
0.0
  0
LINE
  5
7CAA
330
19
100
AcDbEntity
  8
1
100
AcDbLine
 10
5496.907505112644
 20
2377.549504980872
 30
0.0
 11
5496.907505112644
 21
2277.549504980872
 31
0.0
  0
DIMENSION
  5
7CAB
330
19
100
AcDbEntity
  8
3
100
AcDbDimension
280
     0
  2
*D6
 10
1082.717110106885
 20
2422.549504980873
 30
0.0
 11
1022.717110106885
 21
2902.549504980873
 31
0.0
 12
269.3022650818748
 22
1820.661889571391
 32
0.0
 70
    32
 71
     5
 42
-1.0
 73
     0
 74
     0
 75
     0
  3
MATSU
100
AcDbAlignedDimension
 13
1425.32559081115
 23
3382.549504980872
 33
0.0
 14
1591.79738266154
 24
2422.549504980873
 34
0.0
 50
90.0
100
AcDbRotatedDimension
1001
ACAD
1000
DSTYLE
1002
{
1070
    40
1040
30.0
1002
}
  0
POINT
  5
7CAC
330
19
100
AcDbEntity
  8
1
100
AcDbPoint
 10
1591.79738266154
 20
2377.549504980873
 30
0.0
  0
POINT
  5
7CAD
330
19
100
AcDbEntity
  8
1
100
AcDbPoint
 10
1591.79738266154
 20
2277.549504980873
 30
0.0
  0
LINE
  5
7CAE
330
19
100
AcDbEntity
  8
3
100
AcDbLine
 10
1082.717110106885
 20
2472.549504980873
 30
0.0
 11
1082.717110106885
 21
3116.227182349152
 31
0.0
  0
POINT
  5
7CAF
330
19
100
AcDbEntity
  8
1
100
AcDbPoint
 10
1591.79738266154
 20
2377.549504980873
 30
0.0
  0
POINT
  5
7CB0
330
19
100
AcDbEntity
  8
1
100
AcDbPoint
 10
1591.79738266154
 20
2422.549504980873
 30
0.0
  0
DIMENSION
  5
7CB1
330
19
100
AcDbEntity
  8
3
100
AcDbDimension
280
     0
  2
*D7
 10
2767.79738266154
 20
4111.149475370897
 30
0.0
 11
2429.79738266154
 21
4171.149475370897
 31
0.0
 70
    32
 71
     5
 42
676.0
 73
     0
 74
     0
 75
     0
  3
MATSU
100
AcDbAlignedDimension
 13
2091.79738266154
 23
3928.823298751016
 33
0.0
 14
2767.79738266154
 24
3323.549504980873
 34
0.0
100
AcDbRotatedDimension
1001
ACAD
1000
DSTYLE
1002
{
1070
    40
1040
30.0
1002
}
  0
LINE
  5
7CB2
330
19
100
AcDbEntity
  8
1
100
AcDbLine
 10
5443.907505112646
 20
3950.549504980872
 30
0.0
 11
5443.907505112643
 21
2534.549504980872
 31
0.0
  0
LINE
  5
7CB3
330
19
100
AcDbEntity
  8
1
100
AcDbLine
 10
4383.907505112643
 20
3950.549504980872
 30
0.0
 11
4383.907505112643
 21
2934.549504980873
 31
0.0
  0
LINE
  5
7CB5
330
19
100
AcDbEntity
  8
1
100
AcDbLine
 10
4225.907505112644
 20
3412.549504980873
 30
0.0
 11
4383.907505112643
 21
3412.549504980873
 31
0.0
  0
LINE
  5
7CB6
330
19
100
AcDbEntity
  8
1
100
AcDbLine
 10
4225.907505112644
 20
3352.549504980872
 30
0.0
 11
4383.907505112643
 21
3352.549504980872
 31
0.0
  0
LINE
  5
7CB7
330
19
100
AcDbEntity
  8
1
100
AcDbLine
 10
4225.907505112646
 20
3412.549504980873
 30
0.0
 11
4225.907505112646
 21
3352.549504980872
 31
0.0
  0
LINE
  5
7CB8
330
19
100
AcDbEntity
  8
1
100
AcDbLine
 10
4186.607505112644
 20
3406.549504980873
 30
0.0
 11
4225.907505112646
 21
3406.549504980873
 31
0.0
  0
LINE
  5
7CB9
330
19
100
AcDbEntity
  8
1
100
AcDbLine
 10
4186.607505112644
 20
3358.549504980873
 30
0.0
 11
4225.907505112646
 21
3358.549504980873
 31
0.0
  0
LINE
  5
7CBA
330
19
100
AcDbEntity
  8
1
100
AcDbLine
 10
4370.907505112642
 20
3341.549504980872
 30
0.0
 11
4370.907505112643
 21
3191.549504980873
 31
0.0
  0
LINE
  5
7CBB
330
19
100
AcDbEntity
  8
1
100
AcDbLine
 10
4245.907505112644
 20
3331.549504980872
 30
0.0
 11
4245.907505112644
 21
3201.549504980872
 31
0.0
  0
LINE
  5
7CBC
330
19
100
AcDbEntity
  8
1
100
AcDbLine
 10
4255.907505112644
 20
3341.549504980872
 30
0.0
 11
4331.607505112645
 21
3341.549504980871
 31
0.0
  0
LINE
  5
7CBD
330
19
100
AcDbEntity
  8
1
100
AcDbLine
 10
4255.907505112644
 20
3191.549504980873
 30
0.0
 11
4331.607505112645
 21
3191.549504980872
 31
0.0
  0
ARC
  5
7CBE
330
19
100
AcDbEntity
  8
1
100
AcDbCircle
 10
4255.907505112644
 20
3331.549504980872
 30
0.0
 40
10.0
100
AcDbArc
 50
90.0
 51
180.0
  0
ARC
  5
7CBF
330
19
100
AcDbEntity
  8
1
100
AcDbCircle
 10
4255.907505112644
 20
3201.549504980872
 30
0.0
 40
10.0
100
AcDbArc
 50
180.0
 51
270.0
  0
LINE
  5
7CC0
330
19
100
AcDbEntity
  8
1
100
AcDbLine
 10
4331.607505112645
 20
3191.549504980871
 30
0.0
 11
4370.907505112642
 21
3191.549504980872
 31
0.0
  0
LINE
  5
7CC1
330
19
100
AcDbEntity
  8
1
100
AcDbLine
 10
4331.607505112645
 20
3341.549504980872
 30
0.0
 11
4370.907505112642
 21
3341.549504980871
 31
0.0
  0
LINE
  5
7CC2
330
19
100
AcDbEntity
  8
1
100
AcDbLine
 10
5483.707505112644
 20
3242.549504980872
 30
0.0
 11
5483.707505112644
 21
3362.549504980872
 31
0.0
  0
LINE
  5
7CC3
330
19
100
AcDbEntity
  8
1
100
AcDbLine
 10
5573.707505112645
 20
3352.549504980872
 30
0.0
 11
5573.707505112645
 21
3252.549504980872
 31
0.0
  0
LINE
  5
7CC4
330
19
100
AcDbEntity
  8
1
100
AcDbLine
 10
5483.707505112644
 20
3362.549504980872
 30
0.0
 11
5524.207505112643
 21
3362.549504980871
 31
0.0
  0
LINE
  5
7CC5
330
19
100
AcDbEntity
  8
1
100
AcDbLine
 10
5483.707505112644
 20
3242.549504980872
 30
0.0
 11
5524.207505112643
 21
3242.549504980872
 31
0.0
  0
ARC
  5
7CC6
330
19
100
AcDbEntity
  8
1
100
AcDbCircle
 10
5563.707505112645
 20
3252.549504980872
 30
0.0
 40
10.0
100
AcDbArc
 50
270.0
 51
0.0
  0
ARC
  5
7CC7
330
19
100
AcDbEntity
  8
1
100
AcDbCircle
 10
5563.707505112645
 20
3352.549504980872
 30
0.0
 40
10.0
100
AcDbArc
 50
0.0
 51
90.0
  0
LINE
  5
7CC8
330
19
100
AcDbEntity
  8
1
100
AcDbLine
 10
5524.207505112643
 20
3242.549504980872
 30
0.0
 11
5563.707505112645
 21
3242.549504980872
 31
0.0
  0
LINE
  5
7CC9
330
19
100
AcDbEntity
  8
1
100
AcDbLine
 10
5524.207505112643
 20
3362.549504980873
 30
0.0
 11
5563.707505112645
 21
3362.549504980871
 31
0.0
  0
DIMENSION
  5
7CCA
330
19
100
AcDbEntity
  8
3
100
AcDbDimension
280
     0
  2
*D8
 10
5694.703349046962
 20
3782.549504980873
 30
0.0
 11
5634.703349046962
 21
3382.549504980872
 31
0.0
 12
0.0
 22
1820.661889571391
 32
0.0
 70
    32
  1
φ<>
 71
     5
 42
-1.0
 73
     0
 74
     0
 75
     0
  3
MATSU
100
AcDbAlignedDimension
 13
5446.207505112644
 23
2982.549504980872
 33
0.0
 14
5446.207505112644
 24
3782.549504980873
 34
0.0
 50
90.0
100
AcDbRotatedDimension
1001
ACAD
1000
DSTYLE
1002
{
1070
    40
1040
30.0
1002
}
  0
DIMENSION
  5
7CCB
330
19
100
AcDbEntity
  8
3
100
AcDbDimension
280
     0
  2
*D9
 10
4913.907505112645
 20
2056.624312903834
 30
0.0
 11
4545.407505112644
 21
2116.624312903834
 31
0.0
 70
    32
 71
     5
 42
-1.0
 73
     0
 74
     0
 75
     0
  3
MATSU
100
AcDbAlignedDimension
 13
4176.907505112644
 23
2277.549504980872
 33
0.0
 14
4913.907505112645
 24
2277.549504980872
 34
0.0
100
AcDbRotatedDimension
1001
ACAD
1000
DSTYLE
1002
{
1070
    40
1040
30.0
1002
}
  0
DIMENSION
  5
7CCC
330
19
100
AcDbEntity
  8
3
100
AcDbDimension
280
     0
  2
*D10
 10
5496.907505112644
 20
2056.624312903834
 30
0.0
 11
5205.407505112644
 21
2116.624312903834
 31
0.0
 70
    32
 71
     5
 42
-1.0
 73
     0
 74
     0
 75
     0
  3
MATSU
100
AcDbAlignedDimension
 13
4913.907505112645
 23
2277.549504980872
 33
0.0
 14
5496.907505112644
 24
2277.549504980872
 34
0.0
100
AcDbRotatedDimension
1001
ACAD
1000
DSTYLE
1002
{
1070
    40
1040
30.0
1002
}
  0
LINE
  5
7CCF
330
19
100
AcDbEntity
  8
1
100
AcDbLine
 10
3391.797382661541
 20
2562.549504980872
 30
0.0
 11
3391.797382661541
 21
2522.549504980873
 31
0.0
  0
ARC
  5
7CD0
330
19
100
AcDbEntity
  8
1
100
AcDbCircle
 10
2091.79738266154
 20
3382.549504980872
 30
0.0
 40
220.0
100
AcDbArc
 50
60.98963973731262
 51
240.9896397373126
  0
ARC
  5
7CD1
330
19
100
AcDbEntity
  8
1
100
AcDbCircle
 10
3191.797382661541
 20
2772.549504980873
 30
0.0
 40
220.0
100
AcDbArc
 50
240.9896397373126
 51
60.98963973731262
  0
DIMENSION
  5
7CD2
330
19
100
AcDbEntity
  8
3
100
AcDbDimension
280
     0
  2
*D11
 10
2091.79738266154
 20
2057.970414731719
 30
0.0
 11
2766.79738266154
 21
2117.970414731719
 31
0.0
 70
    32
 71
     5
 42
-1.0
 73
     0
 74
     0
 75
     0
  3
MATSU
100
AcDbAlignedDimension
 13
3441.79738266154
 23
2277.549504980873
 33
0.0
 14
2091.79738266154
 24
2277.549504980873
 34
0.0
100
AcDbRotatedDimension
1001
ACAD
1000
DSTYLE
1002
{
1070
    40
1040
30.0
1002
}
  0
POINT
  5
7CE2
330
19
100
AcDbEntity
  8
1
100
AcDbPoint
 10
5573.707505112645
 20
3352.549504980872
 30
0.0
  0
LINE
  5
7CE4
330
19
100
AcDbEntity
  8
1
100
AcDbLine
 10
3441.79738266154
 20
5095.515573001729
 30
0.0
 11
1591.79738266154
 21
5095.515573001729
 31
0.0
  0
LINE
  5
7CE5
330
19
100
AcDbEntity
  8
1
100
AcDbLine
 10
2591.79738266154
 20
6415.515573001728
 30
0.0
 11
1591.79738266154
 21
6415.515573001728
 31
0.0
  0
LINE
  5
7CE6
330
19
100
AcDbEntity
  8
1
100
AcDbLine
 10
1591.79738266154
 20
6415.515573001728
 30
0.0
 11
1591.797382661541
 21
6362.515573001727
 31
0.0
  0
LINE
  5
7CE7
330
19
100
AcDbEntity
  8
1
100
AcDbLine
 10
3441.79738266154
 20
5895.515573001729
 30
0.0
 11
3441.79738266154
 21
5095.515573001729
 31
0.0
  0
LINE
  5
7CE8
330
19
100
AcDbEntity
  8
1
100
AcDbLine
 10
2591.79738266154
 20
6415.515573001728
 30
0.0
 11
2591.79738266154
 21
6362.515573001729
 31
0.0
  0
LINE
  5
7CE9
330
19
100
AcDbEntity
  8
1
100
AcDbLine
 10
3441.79738266154
 20
5895.515573001729
 30
0.0
 11
2777.797382661541
 21
5895.515573001729
 31
0.0
  0
LINE
  5
7CEA
330
19
100
AcDbEntity
  8
2
100
AcDbLine
 10
2777.797382661541
 20
5832.515573001728
 30
0.0
 11
1500.31035629164
 21
5832.515573001728
 31
0.0
  0
LINE
  5
7CEB
330
19
100
AcDbEntity
  8
2
100
AcDbLine
 10
2091.797382661541
 20
6422.510114241918
 30
0.0
 11
2091.79738266154
 21
4908.806363591104
 31
0.0
  0
LINE
  5
7CEC
330
19
100
AcDbEntity
  8
2
100
AcDbLine
 10
3191.79738266154
 20
5634.745520629547
 30
0.0
 11
3191.79738266154
 21
4905.19701275954
 31
0.0
  0
DIMENSION
  5
7CED
330
19
100
AcDbEntity
  8
3
100
AcDbDimension
280
     0
  2
*D12
 10
1591.79738266154
 20
6716.087483985593
 30
0.0
 11
2091.79738266154
 21
6776.087483985593
 31
0.0
 12
269.3022650818748
 22
1139.892657534128
 32
0.0
 70
    32
 71
     5
 42
-1.0
 73
     0
 74
     0
 75
     0
  3
MATSU
100
AcDbAlignedDimension
 13
2591.79738266154
 23
6415.515573001728
 33
0.0
 14
1591.79738266154
 24
6415.515573001728
 34
0.0
100
AcDbRotatedDimension
1001
ACAD
1000
DSTYLE
1002
{
1070
    40
1040
30.0
1002
}
  0
DIMENSION
  5
7CEE
330
19
100
AcDbEntity
  8
3
100
AcDbDimension
280
     0
  2
*D13
 10
2591.79738266154
 20
6716.087483985593
 30
0.0
 11
3016.79738266154
 21
6776.087483985593
 31
0.0
 12
269.3022650818748
 22
1139.892657534128
 32
0.0
 70
    32
 71
     5
 42
-1.0
 73
     0
 74
     0
 75
     0
  3
MATSU
100
AcDbAlignedDimension
 13
3441.79738266154
 23
5895.515573001729
 33
0.0
 14
2591.79738266154
 24
6415.515573001728
 34
0.0
100
AcDbRotatedDimension
1001
ACAD
1000
DSTYLE
1002
{
1070
    40
1040
30.0
1002
}
  0
DIMENSION
  5
7CEF
330
19
100
AcDbEntity
  8
3
100
AcDbDimension
280
     0
  2
*D14
 10
1292.305464046614
 20
5095.515573001729
 30
0.0
 11
1232.305464046614
 21
5755.515573001729
 31
0.0
 12
269.3022650818748
 22
1139.892657534128
 32
0.0
 70
    32
 71
     5
 42
-1.0
 73
     0
 74
     0
 75
     0
  3
MATSU
100
AcDbAlignedDimension
 13
1591.79738266154
 23
6415.515573001728
 33
0.0
 14
1591.79738266154
 24
5095.515573001729
 34
0.0
 50
270.0
100
AcDbRotatedDimension
1001
ACAD
1000
DSTYLE
1002
{
1070
    40
1040
30.0
1002
}
  0
DIMENSION
  5
7CF0
330
19
100
AcDbEntity
  8
3
100
AcDbDimension
280
     0
  2
*D15
 10
3743.703445989635
 20
5095.515573001729
 30
0.0
 11
3683.703445989635
 21
5495.515573001728
 31
0.0
 12
269.3022650818748
 22
1139.892657534128
 32
0.0
 70
    32
 71
     5
 42
-1.0
 73
     0
 74
     0
 75
     0
  3
MATSU
100
AcDbAlignedDimension
 13
3441.79738266154
 23
5895.515573001729
 33
0.0
 14
3441.79738266154
 24
5095.515573001729
 34
0.0
 50
270.0
100
AcDbRotatedDimension
1001
ACAD
1000
DSTYLE
1002
{
1070
    40
1040
30.0
1002
}
  0
DIMENSION
  5
7CF1
330
19
100
AcDbEntity
  8
3
100
AcDbDimension
280
     0
  2
*D16
 10
1591.79738266154
 20
4753.341097304843
 30
0.0
 11
2516.79738266154
 21
4753.341097304843
 31
0.0
 12
269.3022650818748
 22
1139.892657534128
 32
0.0
 70
   160
 71
     5
 42
-1.0
 73
     0
 74
     0
 75
     0
  3
MATSU
100
AcDbAlignedDimension
 13
3441.79738266154
 23
5095.515573001729
 33
0.0
 14
1591.79738266154
 24
5095.515573001729
 34
0.0
100
AcDbRotatedDimension
1001
ACAD
1000
DSTYLE
1002
{
1070
    40
1040
30.0
1002
}
  0
CIRCLE
  5
7CF2
330
19
100
AcDbEntity
  8
1
100
AcDbCircle
 10
2091.79738266154
 20
3382.549504980872
 30
0.0
 40
400.0
  0
CIRCLE
  5
7CF3
330
19
100
AcDbEntity
  8
1
100
AcDbCircle
 10
2091.79738266154
 20
3382.549504980872
 30
0.0
 40
440.0
  0
LINE
  5
7CF4
330
19
100
AcDbEntity
  8
1
100
AcDbLine
 10
4383.907505112644
 20
3950.549504980872
 30
0.0
 11
5443.907505112645
 21
3950.549504980872
 31
0.0
  0
DIMENSION
  5
7CF5
330
19
100
AcDbEntity
  8
3
100
AcDbDimension
280
     0
  2
*D17
 10
5443.907505112644
 20
4057.481749333186
 30
0.0
 11
4913.907505112644
 21
4057.481749333186
 31
0.0
 12
0.0
 22
1820.661889571391
 32
0.0
 70
   160
 71
     5
 42
-1.0
 73
     0
 74
     0
 75
     0
  3
MATSU
100
AcDbAlignedDimension
 13
4383.907505112644
 23
3950.549504980872
 33
0.0
 14
5443.907505112644
 24
3950.549504980872
 34
0.0
100
AcDbRotatedDimension
1001
ACAD
1000
DSTYLE
1002
{
1070
    40
1040
30.0
1002
}
  0
DIMENSION
  5
7CF6
330
19
100
AcDbEntity
  8
3
100
AcDbDimension
280
     0
  2
*D18
 10
1082.749305537865
 20
2377.549504980873
 30
0.0
 11
966.9292063448228
 21
2436.27700991814
 31
0.0
 12
269.3022650818748
 22
0.0
 32
0.0
 70
   160
  1
(<>)
 71
     5
 42
-1.0
 73
     0
 74
     0
 75
     0
  3
IGA
100
AcDbAlignedDimension
 13
1591.79738266154
 23
2422.549504980873
 33
0.0
 14
1591.79738266154
 24
2377.549504980873
 34
0.0
 50
270.0
100
AcDbRotatedDimension
1001
ACAD
1000
DSTYLE
1002
{
1070
   288
1070
     1
1070
   172
1070
     1
1070
    40
1040
30.0
1070
   271
1070
     0
1070
     7
1000
_DOT
1070
   143
1040
0.039
1002
}
  0
DIMENSION
  5
7CF7
330
19
100
AcDbEntity
  8
3
100
AcDbDimension
280
     0
  2
*D19
 10
1082.717110106885
 20
2277.549504980873
 30
0.0
 11
1007.717110106885
 21
2020.406647838016
 31
0.0
 70
    32
 71
     5
 42
-1.0
 73
     0
 74
     0
 75
     0
  3
IGA
100
AcDbAlignedDimension
 13
1591.79738266154
 23
2377.549504980873
 33
0.0
 14
1591.79738266154
 24
2277.549504980873
 34
0.0
 50
270.0
100
AcDbRotatedDimension
1001
ACAD
1000
DSTYLE
1002
{
1070
   287
1070
     3
1070
    40
1040
30.0
1070
   143
1040
0.039
1070
   172
1070
     1
1070
   271
1070
     0
1070
   279
1070
     0
1070
   288
1070
     1
1070
     6
1000
DOT
1002
}
  0
LINE
  5
7CF8
330
19
100
AcDbEntity
  8
1
100
AcDbLine
 10
1546.797382661541
 20
6402.515573001728
 30
0.0
 11
1546.79738266154
 21
5262.515573001728
 31
0.0
  0
LINE
  5
7CF9
330
19
100
AcDbEntity
  8
1
100
AcDbLine
 10
2777.797382661541
 20
6362.515573001729
 30
0.0
 11
2777.79738266154
 21
5302.51557300173
 31
0.0
  0
LINE
  5
7CFA
330
19
100
AcDbEntity
  8
1
100
AcDbLine
 10
2777.797382661541
 20
6362.515573001729
 30
0.0
 11
1546.797382661541
 21
6362.515573001729
 31
0.0
  0
LINE
  5
7CFB
330
19
100
AcDbEntity
  8
1
100
AcDbLine
 10
2777.79738266154
 20
5302.51557300173
 30
0.0
 11
1546.79738266154
 21
5302.515573001727
 31
0.0
  0
LINE
  5
7CFC
330
19
100
AcDbEntity
  8
1
100
AcDbLine
 10
1549.79738266154
 20
6402.515573001728
 30
0.0
 11
1546.797382661541
 21
6402.515573001728
 31
0.0
  0
LINE
  5
7CFD
330
19
100
AcDbEntity
  8
1
100
AcDbLine
 10
1549.79738266154
 20
5262.515573001728
 30
0.0
 11
1546.79738266154
 21
5262.515573001728
 31
0.0
  0
LINE
  5
7CFE
330
19
100
AcDbEntity
  8
1
100
AcDbLine
 10
1549.79738266154
 20
6402.515573001728
 30
0.0
 11
1549.79738266154
 21
5262.515573001728
 31
0.0
  0
LINE
  5
7CFF
330
19
100
AcDbEntity
  8
1
100
AcDbLine
 10
2061.797382661541
 20
5302.515573001729
 30
0.0
 11
2061.79738266154
 21
5062.515573001727
 31
0.0
  0
LINE
  5
7D00
330
19
100
AcDbEntity
  8
1
100
AcDbLine
 10
2121.797382661541
 20
5302.515573001729
 30
0.0
 11
2121.79738266154
 21
5062.515573001727
 31
0.0
  0
LINE
  5
7D01
330
19
100
AcDbEntity
  8
1
100
AcDbLine
 10
3411.797382661541
 20
4932.51557300173
 30
0.0
 11
1871.79738266154
 21
4932.515573001727
 31
0.0
  0
LINE
  5
7D02
330
19
100
AcDbEntity
  8
1
100
AcDbLine
 10
3411.797382661541
 20
5092.51557300173
 30
0.0
 11
1871.79738266154
 21
5092.515573001726
 31
0.0
  0
LINE
  5
7D03
330
19
100
AcDbEntity
  8
1
100
AcDbLine
 10
1871.79738266154
 20
4932.515573001728
 30
0.0
 11
1871.79738266154
 21
5092.515573001728
 31
0.0
  0
LINE
  5
7D04
330
19
100
AcDbEntity
  8
1
100
AcDbLine
 10
3411.797382661541
 20
4932.51557300173
 30
0.0
 11
3411.797382661541
 21
5092.515573001731
 31
0.0
  0
LINE
  5
7D05
330
19
100
AcDbEntity
  8
1
100
AcDbLine
 10
3301.79738266154
 20
4977.515573001729
 30
0.0
 11
3081.79738266154
 21
4977.515573001729
 31
0.0
  0
LINE
  5
7D06
330
19
100
AcDbEntity
  8
1
100
AcDbLine
 10
3301.79738266154
 20
5062.515573001729
 30
0.0
 11
3081.79738266154
 21
5062.515573001729
 31
0.0
  0
LINE
  5
7D07
330
19
100
AcDbEntity
  8
1
100
AcDbLine
 10
1964.797382661541
 20
5062.515573001727
 30
0.0
 11
1964.79738266154
 21
4977.515573001728
 31
0.0
  0
LINE
  5
7D08
330
19
100
AcDbEntity
  8
1
100
AcDbLine
 10
2218.797382661541
 20
5062.515573001728
 30
0.0
 11
2218.79738266154
 21
4977.515573001728
 31
0.0
  0
LINE
  5
7D09
330
19
100
AcDbEntity
  8
1
100
AcDbLine
 10
3081.79738266154
 20
5062.515573001729
 30
0.0
 11
3081.79738266154
 21
4977.515573001729
 31
0.0
  0
LINE
  5
7D0A
330
19
100
AcDbEntity
  8
1
100
AcDbLine
 10
3301.79738266154
 20
5062.515573001729
 30
0.0
 11
3301.79738266154
 21
4977.515573001729
 31
0.0
  0
LINE
  5
7D0B
330
19
100
AcDbEntity
  8
1
100
AcDbLine
 10
2218.79738266154
 20
4977.515573001728
 30
0.0
 11
1964.797382661541
 21
4977.515573001727
 31
0.0
  0
LINE
  5
7D0C
330
19
100
AcDbEntity
  8
1
100
AcDbLine
 10
2218.797382661541
 20
5062.515573001728
 30
0.0
 11
1964.797382661542
 21
5062.515573001728
 31
0.0
  0
LINE
  5
7D0D
330
19
100
AcDbEntity
  8
1
100
AcDbLine
 10
3029.79738266154
 20
5580.515573001729
 30
0.0
 11
3029.79738266154
 21
5095.51557300173
 31
0.0
  0
LINE
  5
7D0E
330
19
100
AcDbEntity
  8
1
100
AcDbLine
 10
3353.79738266154
 20
5580.515573001729
 30
0.0
 11
3353.79738266154
 21
5095.51557300173
 31
0.0
  0
LINE
  5
7D0F
330
19
100
AcDbEntity
  8
1
100
AcDbLine
 10
3353.79738266154
 20
5580.515573001729
 30
0.0
 11
3029.79738266154
 21
5580.515573001729
 31
0.0
  0
LINE
  5
7D10
330
19
100
AcDbEntity
  8
1
100
AcDbLine
 10
3441.79738266154
 20
5095.51557300173
 30
0.0
 11
3029.79738266154
 21
5095.51557300173
 31
0.0
  0
LINE
  5
7D11
330
19
100
AcDbEntity
  8
1
100
AcDbLine
 10
3170.79738266154
 20
5095.515573001729
 30
0.0
 11
3170.79738266154
 21
5062.515573001729
 31
0.0
  0
LINE
  5
7D12
330
19
100
AcDbEntity
  8
1
100
AcDbLine
 10
3212.79738266154
 20
5095.515573001729
 30
0.0
 11
3212.79738266154
 21
5062.515573001729
 31
0.0
  0
LINE
  5
7D13
330
19
100
AcDbEntity
  8
1
100
AcDbLine
 10
4704.607505112643
 20
2610.549504980872
 30
0.0
 11
4219.607505112644
 21
2610.549504980872
 31
0.0
  0
LINE
  5
7D14
330
19
100
AcDbEntity
  8
1
100
AcDbLine
 10
4219.607505112644
 20
2934.549504980873
 30
0.0
 11
4219.607505112644
 21
2610.549504980872
 31
0.0
  0
LINE
  5
7D15
330
19
100
AcDbEntity
  8
1
100
AcDbLine
 10
4219.607505112643
 20
2751.549504980872
 30
0.0
 11
4186.607505112643
 21
2751.549504980872
 31
0.0
  0
LINE
  5
7D16
330
19
100
AcDbEntity
  8
1
100
AcDbLine
 10
4219.607505112643
 20
2793.549504980873
 30
0.0
 11
4186.607505112643
 21
2793.549504980873
 31
0.0
  0
LINE
  5
7D17
330
19
100
AcDbEntity
  8
1
100
AcDbLine
 10
4704.607505112643
 20
2934.549504980872
 30
0.0
 11
4219.607505112644
 21
2934.549504980873
 31
0.0
  0
LINE
  5
7D1E
330
19
100
AcDbEntity
  8
1
100
AcDbLine
 10
1591.79738266154
 20
5302.515573001727
 30
0.0
 11
1591.79738266154
 21
5095.515573001729
 31
0.0
  0
DIMENSION
  5
7D21
330
19
100
AcDbEntity
  8
3
100
AcDbDimension
280
     0
  2
*D20
 10
1546.797382661541
 20
4111.149475370897
 30
0.0
 11
1819.29738266154
 21
4171.149475370897
 31
0.0
 70
    32
 71
     5
 42
-1.0
 73
     0
 74
     0
 75
     0
  3
MATSU
100
AcDbAlignedDimension
 13
2091.79738266154
 23
3928.823298751016
 33
0.0
 14
1546.797382661541
 24
3402.049504980872
 34
0.0
100
AcDbRotatedDimension
1001
ACAD
1000
DSTYLE
1002
{
1070
   287
1070
     4
1070
    40
1040
30.0
1070
    75
1070
     1
1070
   279
1070
     1
1070
   289
1070
     3
1002
}
  0
DIMENSION
  5
7D22
330
19
100
AcDbEntity
  8
3
100
AcDbDimension
280
     0
  2
*D21
 10
3441.79738266154
 20
4272.864918966098
 30
0.0
 11
2494.297382661541
 21
4332.864918966099
 31
0.0
 12
269.3022650818748
 22
1820.661889571391
 32
0.0
 70
    32
 71
     5
 42
-1.0
 73
     0
 74
     0
 75
     0
  3
MATSU
100
AcDbAlignedDimension
 13
1546.797382661541
 23
3402.049504980872
 33
0.0
 14
3441.79738266154
 24
2522.549504980873
 34
0.0
100
AcDbRotatedDimension
1001
ACAD
1000
DSTYLE
1002
{
1070
    40
1040
30.0
1002
}
  0
LINE
  5
7D23
330
19
100
AcDbEntity
  8
1
100
AcDbLine
 10
2198.49029022747
 20
3574.946551411237
 30
0.0
 11
3298.49029022747
 21
2964.946551411237
 31
0.0
  0
LINE
  5
7D24
330
19
100
AcDbEntity
  8
1
100
AcDbLine
 10
2154.883768898219
 20
3492.772496555211
 30
0.0
 11
3246.43913452008
 21
2868.018237840535
 31
0.0
  0
LINE
  5
7D25
330
19
100
AcDbEntity
  8
1
100
AcDbLine
 10
2031.713208674403
 20
3270.66165024997
 30
0.0
 11
3139.755972121501
 21
2675.638764662768
 31
0.0
  0
LINE
  5
7D26
330
19
100
AcDbEntity
  8
1
100
AcDbLine
 10
1985.10447509561
 20
3190.152458550508
 30
0.0
 11
3085.104475095612
 21
2580.152458550508
 31
0.0
  0
LINE
  5
7D27
330
19
100
AcDbEntity
  8
1
100
AcDbLine
 10
4641.855384701024
 20
2534.549504980873
 30
0.0
 11
5443.907505112644
 21
2534.549504980872
 31
0.0
  0
LINE
  5
7D2B
330
19
100
AcDbEntity
  8
1
100
AcDbLine
 10
4704.607505112643
 20
2934.549504980873
 30
0.0
 11
4704.607505112643
 21
2610.549504980872
 31
0.0
  0
LINE
  5
7D2C
330
19
100
AcDbEntity
  8
1
100
AcDbLine
 10
4295.778995272843
 20
2562.549504980872
 30
0.0
 11
4641.855384701024
 21
2562.549504980872
 31
0.0
  0
LINE
  5
7D2D
330
19
100
AcDbEntity
  8
1
100
AcDbLine
 10
4641.855384701024
 20
2610.549504980872
 30
0.0
 11
4641.855384701023
 21
2522.549504980871
 31
0.0
  0
LINE
  5
7D2E
330
19
100
AcDbEntity
  8
1
100
AcDbLine
 10
4295.778995272843
 20
2610.549504980872
 30
0.0
 11
4295.778995272843
 21
2522.549504980871
 31
0.0
  0
LINE
  5
7F44
330
19
100
AcDbEntity
  8
4
100
AcDbLine
 10
5550.0
 20
1500.0
 30
0.0
 11
5550.0
 21
900.0
 31
0.0
  0
LINE
  5
7F45
330
19
100
AcDbEntity
  8
4
100
AcDbLine
 10
3450.0
 20
1500.0
 30
0.0
 11
3450.0
 21
900.0
 31
0.0
  0
LINE
  5
7F46
330
19
100
AcDbEntity
  8
4
100
AcDbLine
 10
1950.0
 20
1500.0
 30
0.0
 11
1950.0
 21
900.0
 31
0.0
  0
LINE
  5
7F49
330
19
100
AcDbEntity
  8
4
100
AcDbLine
 10
1950.0
 20
900.0
 30
0.0
 11
5550.0
 21
900.0
 31
0.0
  0
LINE
  5
7F4A
330
19
100
AcDbEntity
  8
4
100
AcDbLine
 10
1950.0
 20
1200.0
 30
0.0
 11
5550.0
 21
1200.0
 31
0.0
  0
TEXT
  5
7F4B
330
19
100
AcDbEntity
  8
4
100
AcDbText
 10
2065.506242540705
 20
1294.629077599839
 30
0.0
 40
150.0
  1
機器名称
100
AcDbText
  0
TEXT
  5
7F4C
330
19
100
AcDbEntity
  8
4
100
AcDbText
 10
2058.774318074393
 20
964.9354701960328
 30
0.0
 40
150.0
  1
機器型番
100
AcDbText
  0
TEXT
  5
7F4D
330
19
100
AcDbEntity
  8
4
100
AcDbText
 10
3537.703866973613
 20
1259.565806104118
 30
0.0
 40
120.0
  1
ミツヤリミットロードファン
100
AcDbText
  0
TEXT
  5
7F4E
330
19
100
AcDbEntity
  8
4
100
AcDbText
 10
3559.963486756442
 20
951.4787528398301
 30
0.0
 40
150.0
  1
LL#5-5
100
AcDbText
  0
TEXT
  5
7F50
330
19
100
AcDbEntity
  8
4
100
AcDbText
 10
2413.372380949542
 20
7150.286523997547
 30
0.0
 40
161.9999999999999
  1
床置防振ベット
100
AcDbText
  0
TEXT
  5
7F51
330
19
100
AcDbEntity
  8
4
100
AcDbText
 10
948.5027799883392
 20
7601.642928597894
 30
0.0
 40
216.0
  1
遠心式両吸込両持リミットロードファン
100
AcDbText
  0
LINE
  5
7F52
330
19
100
AcDbEntity
  8
4
100
AcDbLine
 10
750.0
 20
7408.226262794414
 30
0.0
 11
5550.0
 21
7408.226262794414
 31
0.0
  0
LINE
  5
7F53
330
19
100
AcDbEntity
  8
4
100
AcDbLine
 10
750.0
 20
8008.226262794414
 30
0.0
 11
5550.0
 21
8008.226262794414
 31
0.0
  0
LINE
  5
7F54
330
19
100
AcDbEntity
  8
4
100
AcDbLine
 10
1950.0
 20
1500.0
 30
0.0
 11
5550.0
 21
1500.0
 31
0.0
  0
LINE
  5
7F55
330
19
100
AcDbEntity
  8
4
100
AcDbLine
 10
750.0
 20
8008.226262794414
 30
0.0
 11
750.0
 21
7408.226262794414
 31
0.0
  0
TEXT
  5
7F56
330
19
100
AcDbEntity
  8
4
100
AcDbText
 10
1105.795884221436
 20
7146.95843263903
 30
0.0
 40
161.9999999999999
  1
右回転左横向
100
AcDbText
  0
TEXT
  5
7F57
330
19
100
AcDbEntity
  8
4
100
AcDbText
 10
4406.908677747869
 20
8118.183244485926
 30
0.0
 40
168.0
  1
No.
100
AcDbText
  0
TEXT
  5
7F58
330
19
100
AcDbEntity
  8
4
100
AcDbText
 10
3933.88818780004
 20
7150.286523997547
 30
0.0
 40
161.9999999999999
  1
縮尺：1/30
100
AcDbText
  0
LINE
  5
7F59
330
19
100
AcDbEntity
  8
4
100
AcDbLine
 10
5550.0
 20
8008.226262794414
 30
0.0
 11
5550.0
 21
7408.226262794414
 31
0.0
  0
LINE
  5
7F5A
330
19
100
AcDbEntity
  8
4
100
AcDbLine
 10
6300.0
 20
8850.0
 30
0.0
 11
6300.0
 21
8850.0
 31
0.0
  0
LINE
  5
7F5B
330
19
100
AcDbEntity
  8
4
100
AcDbLine
 10
4321.852267079594
 20
8043.790749376205
 30
0.0
 11
4321.852267079594
 21
8359.956784649257
 31
0.0
  0
LINE
  5
7F5C
330
19
100
AcDbEntity
  8
4
100
AcDbLine
 10
4321.852267079594
 20
8359.956784649257
 30
0.0
 11
5550.0
 21
8359.956784649257
 31
0.0
  0
LINE
  5
7F5D
330
19
100
AcDbEntity
  8
4
100
AcDbLine
 10
5550.0
 20
8359.956784649257
 30
0.0
 11
5550.0
 21
8043.790749376205
 31
0.0
  0
LINE
  5
7F5E
330
19
100
AcDbEntity
  8
4
100
AcDbLine
 10
5550.0
 20
8043.790749376205
 30
0.0
 11
4321.852267079594
 21
8043.790749376205
 31
0.0
  0
LINE
  5
7F5F
330
19
100
AcDbEntity
  8
4
100
AcDbLine
 10
0.0
 20
0.0
 30
0.0
 11
0.0
 21
8850.0
 31
0.0
  0
LINE
  5
7F60
330
19
100
AcDbEntity
  8
4
100
AcDbLine
 10
0.0
 20
8850.0
 30
0.0
 11
6300.0
 21
8850.0
 31
0.0
  0
LINE
  5
7F61
330
19
100
AcDbEntity
  8
4
100
AcDbLine
 10
6300.0
 20
8850.0
 30
0.0
 11
6300.0
 21
0.0
 31
0.0
  0
LINE
  5
7F62
330
19
100
AcDbEntity
  8
4
100
AcDbLine
 10
6300.0
 20
0.0
 30
0.0
 11
0.0
 21
0.0
 31
0.0
  0
DIMENSION
  5
8056
330
19
100
AcDbEntity
  8
3
100
AcDbDimension
280
     0
  2
*D23
 10
1083.45770958094
 20
3382.549504980872
 30
0.0
 11
1008.457709580939
 21
3661.549504980873
 31
0.0
 70
    32
 71
     5
 42
558.0
 73
     0
 74
     0
 75
     0
  3
IGA
100
AcDbAlignedDimension
 13
2139.29738266154
 23
3940.549504980873
 33
0.0
 14
1425.32559081115
 24
3382.549504980872
 34
0.0
 50
90.0
100
AcDbRotatedDimension
1001
ACAD
1000
DSTYLE
1002
{
1070
   172
1070
     1
1070
    40
1040
30.0
1070
   271
1070
     0
1070
   143
1040
0.039
1002
}
  0
DIMENSION
  5
8063
330
19
100
AcDbEntity
  8
3
100
AcDbDimension
280
     0
  2
*D24
 10
850.160059388625
 20
2277.549504980873
 30
0.0
 11
751.5886308171963
 21
3109.049504980873
 31
0.0
 70
    32
 71
     5
 42
1663.0
 73
     0
 74
     0
 75
     0
  3
IGA
100
AcDbAlignedDimension
 13
2139.29738266154
 23
3940.549504980873
 33
0.0
 14
1591.79738266154
 24
2277.549504980873
 34
0.0
 50
90.0
100
AcDbRotatedDimension
1001
ACAD
1000
DSTYLE
1002
{
1070
   172
1070
     1
1070
    40
1040
30.0
1070
     3
1000
(<>)
1070
   271
1070
     0
1070
   143
1040
0.039
1002
}
  0
CIRCLE
  5
8226
330
19
100
AcDbEntity
  8
1
100
AcDbCircle
 10
2091.79738266154
 20
3382.549504980872
 30
0.0
 40
400.0
  0
CIRCLE
  5
8227
330
19
100
AcDbEntity
  8
1
100
AcDbCircle
 10
2091.79738266154
 20
3382.549504980872
 30
0.0
 40
440.0
  0
ARC
  5
8232
330
19
100
AcDbEntity
  8
FUTO
100
AcDbCircle
 10
2139.29738266154
 20
3430.049504980873
 30
0.0
 40
510.5
100
AcDbArc
 50
90.0
 51
180.0
  0
LINE
  5
8233
330
19
100
AcDbEntity
  8
FUTO
100
AcDbLine
 10
1546.79738266154
 20
2534.549504980872
 30
0.0
 11
2091.79738266154
 21
2590.921359193393
 31
0.0
  0
ARC
  5
8234
330
19
100
AcDbEntity
  8
FUTO
100
AcDbCircle
 10
2150.79738266154
 20
3323.549504980873
 30
0.0
 40
617.0
100
AcDbArc
 50
0.0
 51
90.0
  0
ARC
  5
8235
330
19
100
AcDbEntity
  8
FUTO
100
AcDbCircle
 10
2032.79738266154
 20
3323.549504980873
 30
0.0
 40
735.0
100
AcDbArc
 50
274.6042067265536
 51
0.0
  0
ARC
  5
8237
330
19
100
AcDbEntity
  8
FUTO
100
AcDbCircle
 10
2061.29738266154
 20
3413.049504980872
 30
0.0
 40
432.5
100
AcDbArc
 50
180.0
 51
187.1056552473
  0
LINE
  5
8238
330
19
100
AcDbEntity
  8
FUTO
100
AcDbLine
 10
1632.11909802915
 20
3359.549504980872
 30
0.0
 11
1546.79738266154
 21
3359.549504980872
 31
0.0
  0
LINE
  5
8239
330
19
100
AcDbEntity
  8
FUTO
100
AcDbLine
 10
1628.79738266154
 20
3430.049504980872
 30
0.0
 11
1628.79738266154
 21
3413.049504980872
 31
0.0
  0
LINE
  5
823A
330
19
100
AcDbEntity
  8
1
100
AcDbLine
 10
1546.79738266154
 20
2492.049504980872
 30
0.0
 11
1546.797382661542
 21
3402.049504980872
 31
0.0
  0
LINE
  5
823B
330
19
100
AcDbEntity
  8
1
100
AcDbLine
 10
1546.79738266154
 20
2492.049504980872
 30
0.0
 11
1549.79738266154
 21
2492.049504980872
 31
0.0
  0
LINE
  5
823C
330
19
100
AcDbEntity
  8
1
100
AcDbLine
 10
1546.797382661542
 20
3402.049504980872
 30
0.0
 11
1549.797382661541
 21
3402.049504980872
 31
0.0
  0
LINE
  5
823D
330
19
100
AcDbEntity
  8
1
100
AcDbLine
 10
1586.79738266154
 20
2537.950599751295
 30
0.0
 11
1586.797382661542
 21
3359.549504980872
 31
0.0
  0
LINE
  5
823E
330
19
100
AcDbEntity
  8
1
100
AcDbLine
 10
1549.79738266154
 20
2492.049504980872
 30
0.0
 11
1549.797382661541
 21
3402.049504980872
 31
0.0
  0
POINT
  5
823F
330
19
100
AcDbEntity
  8
1
100
AcDbPoint
 10
1526.579471992518
 20
3382.549504980872
 30
0.0
 50
0.0000000000000325
  0
POINT
  5
8240
330
19
100
AcDbEntity
  8
1
100
AcDbPoint
 10
1526.579471992518
 20
3382.549504980872
 30
0.0
 50
0.0000000000000325
  0
LINE
  5
8353
330
19
100
AcDbEntity
  8
FUTO
100
AcDbLine
 10
2139.29738266154
 20
3940.549504980873
 30
0.0
 11
2150.79738266154
 21
3940.549504980873
 31
0.0
  0
DIMENSION
  5
8354
330
19
100
AcDbEntity
  8
3
100
AcDbDimension
280
     0
  2
*D46
 10
4913.907505112644
 20
4264.873388319614
 30
0.0
 11
4463.757505112644
 21
4363.444816891043
 31
0.0
 70
    32
 71
     5
 42
900.3000000000001
 73
     0
 74
     0
 75
     0
  3
IGA
100
AcDbAlignedDimension
 13
4013.607505112644
 23
3602.549504980872
 33
0.0
 14
4913.907505112644
 24
4162.481749333187
 34
0.0
100
AcDbRotatedDimension
1001
ACAD
1000
DSTYLE
1002
{
1070
     3
1000
(<>)
1070
    40
1040
30.0
1070
   143
1040
0.039
1070
   172
1070
     1
1070
   271
1070
     0
1002
}
  0
DIMENSION
  5
8361
330
19
100
AcDbEntity
  8
3
100
AcDbDimension
280
     0
  2
*D47
 10
5573.707505112645
 20
4264.873388319614
 30
0.0
 11
5243.807505112645
 21
4363.444816891043
 31
0.0
 70
    32
 71
     5
 42
659.8000000000011
 73
     0
 74
     0
 75
     0
  3
IGA
100
AcDbAlignedDimension
 13
4913.907505112644
 23
4162.481749333187
 33
0.0
 14
5573.707505112645
 24
3352.549504980872
 34
0.0
100
AcDbRotatedDimension
1001
ACAD
1000
DSTYLE
1002
{
1070
     3
1000
(<>)
1070
    40
1040
30.0
1070
   143
1040
0.039
1070
   172
1070
     1
1070
   271
1070
     0
1002
}
  0
ENDSEC
  0
SECTION
  2
OBJECTS
  0
DICTIONARY
  5
C
330
0
100
AcDbDictionary
281
     1
  3
ACAD_CIP_PREVIOUS_PRODUCT_INFO
350
810F
  3
ACAD_COLOR
350
80F2
  3
ACAD_DETAILVIEWSTYLE
350
810B
  3
ACAD_GROUP
350
D
  3
ACAD_LAYOUT
350
806C
  3
ACAD_MATERIAL
350
80C0
  3
ACAD_MLEADERSTYLE
350
8107
  3
ACAD_MLINESTYLE
350
E
  3
ACAD_PLOTSETTINGS
350
806D
  3
ACAD_PLOTSTYLENAME
350
806A
  3
ACAD_SCALELIST
350
80F5
  3
ACAD_SECTIONVIEWSTYLE
350
8109
  3
ACAD_TABLESTYLE
350
80F3
  3
ACAD_VISUALSTYLE
350
80D9
  3
ACDB_RECOMPOSE_DATA
350
840B
  3
AcDbVariableDictionary
350
83FA
  3
AcDsDecomposeData
350
8411
  0
DICTIONARY
  5
819C
330
2
100
AcDbDictionary
280
     1
281
     1
  3
ACAD_LAYERSTATES
360
819D
  0
DICTIONARY
  5
8392
330
F
100
AcDbDictionary
280
     1
281
     1
  3
ADSK_XREC_LAYER_RECONCILED
360
8393
  0
DICTIONARY
  5
8394
330
31
100
AcDbDictionary
280
     1
281
     1
  3
ADSK_XREC_LAYER_RECONCILED
360
8395
  0
DICTIONARY
  5
8396
330
76D0
100
AcDbDictionary
280
     1
281
     1
  3
ADSK_XREC_LAYER_RECONCILED
360
8397
  0
DICTIONARY
  5
8398
330
76D1
100
AcDbDictionary
280
     1
281
     1
  3
ADSK_XREC_LAYER_RECONCILED
360
8399
  0
DICTIONARY
  5
839A
330
76D2
100
AcDbDictionary
280
     1
281
     1
  3
ADSK_XREC_LAYER_RECONCILED
360
839B
  0
DICTIONARY
  5
819B
330
819A
100
AcDbDictionary
280
     1
281
     1
  3
ADSK_XREC_LAYER_RECONCILED
360
839C
  0
DICTIONARY
  5
8111
330
8110
100
AcDbDictionary
280
     1
281
     1
  3
ADSK_XREC_VTR_ANNOSCALE_DATA
360
8112
  0
DICTIONARY
  5
8099
330
19
100
AcDbDictionary
280
     1
281
     1
  3
ACAD_LAYOUTSELFREF
360
809A
  0
DICTIONARY
  5
8097
330
16
100
AcDbDictionary
280
     1
281
     1
  3
ACAD_LAYOUTSELFREF
360
8098
  0
DICTIONARY
  5
81EE
330
819E
100
AcDbDictionary
280
     1
281
     1
  0
XRECORD
  5
810F
102
{ACAD_REACTORS
330
C
102
}
330
C
100
AcDbXrecord
280
     1
300
ACDLT
300
2023
300

  0
DICTIONARY
  5
80F2
102
{ACAD_REACTORS
330
C
102
}
330
C
100
AcDbDictionary
281
     1
  0
DICTIONARY
  5
810B
102
{ACAD_REACTORS
330
C
102
}
330
C
100
AcDbDictionary
281
     1
  3
Metric50
350
810C
  0
DICTIONARY
  5
D
102
{ACAD_REACTORS
330
C
102
}
330
C
100
AcDbDictionary
281
     1
  0
DICTIONARY
  5
806C
102
{ACAD_REACTORS
330
C
102
}
330
C
100
AcDbDictionary
281
     1
  3
Model
350
806E
  3
ﾚｲｱｳﾄ1
350
806F
  0
DICTIONARY
  5
80C0
102
{ACAD_REACTORS
330
C
102
}
330
C
100
AcDbDictionary
281
     1
  3
ByBlock
350
80C9
  3
ByLayer
350
80C1
  3
Global
350
80D1
  0
DICTIONARY
  5
8107
102
{ACAD_REACTORS
330
C
102
}
330
C
100
AcDbDictionary
281
     1
  3
Standard
350
8108
  0
DICTIONARY
  5
E
102
{ACAD_REACTORS
330
C
102
}
330
C
100
AcDbDictionary
281
     1
  3
STANDARD
350
1C
  0
DICTIONARY
  5
806D
102
{ACAD_REACTORS
330
C
102
}
330
C
100
AcDbDictionary
281
     1
  0
ACDBDICTIONARYWDFLT
  5
806A
102
{ACAD_REACTORS
330
C
102
}
330
C
100
AcDbDictionary
281
     1
  3
Normal
350
806B
100
AcDbDictionaryWithDefault
340
806B
  0
DICTIONARY
  5
80F5
102
{ACAD_REACTORS
330
C
102
}
330
C
100
AcDbDictionary
281
     1
  3
A0
350
80F6
  3
A1
350
80F7
  3
A2
350
80F8
  3
A3
350
80F9
  3
A4
350
80FA
  3
A5
350
80FB
  3
A6
350
80FC
  3
A7
350
80FD
  3
A8
350
80FE
  3
A9
350
80FF
  3
B0
350
8100
  3
B1
350
8101
  3
B2
350
8102
  3
B3
350
8103
  3
B4
350
8104
  3
B5
350
8105
  3
B6
350
8106
  0
DICTIONARY
  5
8109
102
{ACAD_REACTORS
330
C
102
}
330
C
100
AcDbDictionary
281
     1
  3
Metric50
350
810A
  0
DICTIONARY
  5
80F3
102
{ACAD_REACTORS
330
C
102
}
330
C
100
AcDbDictionary
281
     1
  3
Standard
350
80F4
  0
DICTIONARY
  5
80D9
102
{ACAD_REACTORS
330
C
102
}
330
C
100
AcDbDictionary
281
     1
  3
2dWireframe
350
80DF
  3
Basic
350
80DE
  3
Brighten
350
80E5
  3
ColorChange
350
80E9
  3
Conceptual
350
80E2
  3
Dim
350
80E4
  3
EdgeColorOff
350
80F1
  3
Facepattern
350
80E8
  3
Flat
350
80DA
  3
FlatWithEdges
350
80DB
  3
Gouraud
350
80DC
  3
GouraudWithEdges
350
80DD
  3
Hidden
350
80E1
  3
JitterOff
350
80EF
  3
Linepattern
350
80E7
  3
OverhangOff
350
80F0
  3
Realistic
350
80E3
  3
Shaded
350
80EE
  3
Shaded with edges
350
80ED
  3
Shades of Gray
350
80EA
  3
Sketchy
350
80EB
  3
Thicken
350
80E6
  3
Wireframe
350
80E0
  3
X-Ray
350
80EC
  0
XRECORD
  5
840B
102
{ACAD_REACTORS
330
C
102
}
330
C
100
AcDbXrecord
280
     1
 90
        1
330
7D21
330
80F4
330
81D5
  0
DICTIONARY
  5
83FA
102
{ACAD_REACTORS
330
C
102
}
330
C
100
AcDbDictionary
281
     1
  3
CANNOSCALE
350
8400
  3
CMLEADERSTYLE
350
83FC
  3
CTABLESTYLE
350
83FB
  3
CVIEWDETAILSTYLE
350
83FD
  3
CVIEWSECTIONSTYLE
350
83FE
  3
LAYEREVAL
350
8402
  3
LAYERNOTIFY
350
8403
  3
LIGHTINGUNITS
350
8401
  3
MARKUPASSISTMODE
350
8408
  3
MSLTSCALE
350
83FF
  0
DICTIONARY
  5
8411
102
{ACAD_REACTORS
330
C
102
}
330
C
100
AcDbDictionary
281
     1
  3
AcDsRecords
350
8413
  3
AcDsSchemas
350
8412
1001
ACAD
1070
     2
  0
DICTIONARY
  5
819D
102
{ACAD_REACTORS
330
819C
102
}
330
819C
100
AcDbDictionary
281
     1
  0
XRECORD
  5
8393
102
{ACAD_REACTORS
330
8392
102
}
330
8392
100
AcDbXrecord
280
     1
290
     1
  0
XRECORD
  5
8395
102
{ACAD_REACTORS
330
8394
102
}
330
8394
100
AcDbXrecord
280
     1
290
     1
  0
XRECORD
  5
8397
102
{ACAD_REACTORS
330
8396
102
}
330
8396
100
AcDbXrecord
280
     1
290
     1
  0
XRECORD
  5
8399
102
{ACAD_REACTORS
330
8398
102
}
330
8398
100
AcDbXrecord
280
     1
290
     1
  0
XRECORD
  5
839B
102
{ACAD_REACTORS
330
839A
102
}
330
839A
100
AcDbXrecord
280
     1
290
     1
  0
XRECORD
  5
839C
102
{ACAD_REACTORS
330
819B
102
}
330
819B
100
AcDbXrecord
280
     1
290
     1
  0
XRECORD
  5
8112
102
{ACAD_REACTORS
330
8111
102
}
330
8111
100
AcDbXrecord
280
     1
340
80F6
  0
XRECORD
  5
809A
102
{ACAD_REACTORS
330
8099
102
}
330
8099
100
AcDbXrecord
280
     1
340
19
  0
XRECORD
  5
8098
102
{ACAD_REACTORS
330
8097
102
}
330
8097
100
AcDbXrecord
280
     1
340
16
  0
ACDBDETAILVIEWSTYLE
  5
810C
102
{ACAD_XDICTIONARY
360
8416
102
}
102
{ACAD_REACTORS
330
810B
102
}
330
810B
100
AcDbModelDocViewStyle
 70
     0
  3
Metric50
290
     0
100
AcDbDetailViewStyle
 70
     0
 71
     0
 90
        3
 71
     1
340
10
 62
   256
 40
5.0
340
0
 62
   256
 40
5.0
300

 40
0.0
280
     1
 71
     2
340
15
 90
       25
 62
   256
 71
     3
340
10
 62
   256
 40
5.0
 90
        0
 40
15.0
 90
        1
300
%<\AcVar ViewDetailId>% (%<\AcVar ViewScale \f "%sn">%)
 71
     4
340
15
 90
       25
 62
   256
340
15
 90
       25
 62
   256
280
     0
  0
LAYOUT
  5
806E
102
{ACAD_REACTORS
330
806C
102
}
330
806C
100
AcDbPlotSettings
  1

  2
EPSON LP-9300
  4

  6

 40
0.0
 41
0.0
 42
0.0
 43
0.0
 44
0.0
 45
0.0
 46
0.0
 47
0.0
 48
0.0
 49
0.0
140
0.0
141
0.0
142
1.0
143
1.0
 70
  1712
 72
     0
 73
     0
 74
     0
  7

 75
     0
147
1.0
 76
     0
 77
     2
 78
   300
148
0.0
149
0.0
100
AcDbLayout
  1
Model
 70
     1
 71
     0
 10
0.0
 20
0.0
 11
12.0
 21
9.0
 12
0.0
 22
0.0
 32
0.0
 14
0.0
 24
0.0
 34
0.0
 15
0.0
 25
0.0
 35
0.0
146
0.0
 13
0.0
 23
0.0
 33
0.0
 16
1.0
 26
0.0
 36
0.0
 17
0.0
 27
1.0
 37
0.0
 76
     0
330
19
331
80BE
  0
LAYOUT
  5
806F
102
{ACAD_REACTORS
330
806C
102
}
330
806C
100
AcDbPlotSettings
  1

  2
EPSON LP-9300
  4

  6

 40
0.0
 41
0.0
 42
0.0
 43
0.0
 44
0.0
 45
0.0
 46
0.0
 47
0.0
 48
0.0
 49
0.0
140
0.0
141
0.0
142
1.0
143
1.0
 70
   688
 72
     0
 73
     0
 74
     5
  7

 75
    16
147
1.0
 76
     0
 77
     2
 78
   300
148
0.0
149
0.0
100
AcDbLayout
  1
ﾚｲｱｳﾄ1
 70
     1
 71
     1
 10
0.0
 20
0.0
 11
12.0
 21
9.0
 12
0.0
 22
0.0
 32
0.0
 14
1.000000000000000E+20
 24
1.000000000000000E+20
 34
1.000000000000000E+20
 15
-1.000000000000000E+20
 25
-1.000000000000000E+20
 35
-1.000000000000000E+20
146
0.0
 13
0.0
 23
0.0
 33
0.0
 16
1.0
 26
0.0
 36
0.0
 17
0.0
 27
1.0
 37
0.0
 76
     0
330
16
  0
MATERIAL
  5
80C9
102
{ACAD_XDICTIONARY
360
80CA
102
}
102
{ACAD_REACTORS
330
80C0
102
}
330
80C0
100
AcDbMaterial
  1
ByBlock
 72
     0
 43
0.0208333333333333
 43
0.0
 43
0.0
 43
0.0
 43
0.0
 43
0.0208333333333333
 43
0.0
 43
0.0
 43
0.0
 43
0.0
 43
1.0
 43
0.0
 43
0.0
 43
0.0
 43
0.0
 43
1.0
 77
     0
 47
0.0208333333333333
 47
0.0
 47
0.0
 47
0.0
 47
0.0
 47
0.0208333333333333
 47
0.0
 47
0.0
 47
0.0
 47
0.0
 47
1.0
 47
0.0
 47
0.0
 47
0.0
 47
0.0
 47
1.0
171
     0
 49
0.0208333333333333
 49
0.0
 49
0.0
 49
0.0
 49
0.0
 49
0.0208333333333333
 49
0.0
 49
0.0
 49
0.0
 49
0.0
 49
1.0
 49
0.0
 49
0.0
 49
0.0
 49
0.0
 49
1.0
175
     0
142
0.0208333333333333
142
0.0
142
0.0
142
0.0
142
0.0
142
0.0208333333333333
142
0.0
142
0.0
142
0.0
142
0.0
142
1.0
142
0.0
142
0.0
142
0.0
142
0.0
142
1.0
179
     0
144
0.0208333333333333
144
0.0
144
0.0
144
0.0
144
0.0
144
0.0208333333333333
144
0.0
144
0.0
144
0.0
144
0.0
144
1.0
144
0.0
144
0.0
144
0.0
144
0.0
144
1.0
147
0.0208333333333333
147
0.0
147
0.0
147
0.0
147
0.0
147
0.0208333333333333
147
0.0
147
0.0
147
0.0
147
0.0
147
1.0
147
0.0
147
0.0
147
0.0
147
0.0
147
1.0
  0
MATERIAL
  5
80C1
102
{ACAD_XDICTIONARY
360
80C2
102
}
102
{ACAD_REACTORS
330
80C0
102
}
330
80C0
100
AcDbMaterial
  1
ByLayer
 72
     0
 43
0.0208333333333333
 43
0.0
 43
0.0
 43
0.0
 43
0.0
 43
0.0208333333333333
 43
0.0
 43
0.0
 43
0.0
 43
0.0
 43
1.0
 43
0.0
 43
0.0
 43
0.0
 43
0.0
 43
1.0
 77
     0
 47
0.0208333333333333
 47
0.0
 47
0.0
 47
0.0
 47
0.0
 47
0.0208333333333333
 47
0.0
 47
0.0
 47
0.0
 47
0.0
 47
1.0
 47
0.0
 47
0.0
 47
0.0
 47
0.0
 47
1.0
171
     0
 49
0.0208333333333333
 49
0.0
 49
0.0
 49
0.0
 49
0.0
 49
0.0208333333333333
 49
0.0
 49
0.0
 49
0.0
 49
0.0
 49
1.0
 49
0.0
 49
0.0
 49
0.0
 49
0.0
 49
1.0
175
     0
142
0.0208333333333333
142
0.0
142
0.0
142
0.0
142
0.0
142
0.0208333333333333
142
0.0
142
0.0
142
0.0
142
0.0
142
1.0
142
0.0
142
0.0
142
0.0
142
0.0
142
1.0
179
     0
144
0.0208333333333333
144
0.0
144
0.0
144
0.0
144
0.0
144
0.0208333333333333
144
0.0
144
0.0
144
0.0
144
0.0
144
1.0
144
0.0
144
0.0
144
0.0
144
0.0
144
1.0
147
0.0208333333333333
147
0.0
147
0.0
147
0.0
147
0.0
147
0.0208333333333333
147
0.0
147
0.0
147
0.0
147
0.0
147
1.0
147
0.0
147
0.0
147
0.0
147
0.0
147
1.0
  0
MATERIAL
  5
80D1
102
{ACAD_XDICTIONARY
360
80D2
102
}
102
{ACAD_REACTORS
330
80C0
102
}
330
80C0
100
AcDbMaterial
  1
Global
 72
     0
 43
0.0208333333333333
 43
0.0
 43
0.0
 43
0.0
 43
0.0
 43
0.0208333333333333
 43
0.0
 43
0.0
 43
0.0
 43
0.0
 43
1.0
 43
0.0
 43
0.0
 43
0.0
 43
0.0
 43
1.0
 77
     0
 47
0.0208333333333333
 47
0.0
 47
0.0
 47
0.0
 47
0.0
 47
0.0208333333333333
 47
0.0
 47
0.0
 47
0.0
 47
0.0
 47
1.0
 47
0.0
 47
0.0
 47
0.0
 47
0.0
 47
1.0
171
     0
 49
0.0208333333333333
 49
0.0
 49
0.0
 49
0.0
 49
0.0
 49
0.0208333333333333
 49
0.0
 49
0.0
 49
0.0
 49
0.0
 49
1.0
 49
0.0
 49
0.0
 49
0.0
 49
0.0
 49
1.0
175
     0
142
0.0208333333333333
142
0.0
142
0.0
142
0.0
142
0.0
142
0.0208333333333333
142
0.0
142
0.0
142
0.0
142
0.0
142
1.0
142
0.0
142
0.0
142
0.0
142
0.0
142
1.0
179
     0
144
0.0208333333333333
144
0.0
144
0.0
144
0.0
144
0.0
144
0.0208333333333333
144
0.0
144
0.0
144
0.0
144
0.0
144
1.0
144
0.0
144
0.0
144
0.0
144
0.0
144
1.0
147
0.0208333333333333
147
0.0
147
0.0
147
0.0
147
0.0
147
0.0208333333333333
147
0.0
147
0.0
147
0.0
147
0.0
147
1.0
147
0.0
147
0.0
147
0.0
147
0.0
147
1.0
  0
MLEADERSTYLE
  5
8108
102
{ACAD_REACTORS
330
8107
102
}
330
8107
100
AcDbMLeaderStyle
179
     2
170
     2
171
     1
172
     0
 90
        2
 40
0.0
 41
0.0
173
     1
 91
-1056964608
340
13
 92
       -2
290
     1
 42
2.0
291
     1
 43
0.36
  3
Standard
 44
4.0
300

342
10
174
     1
178
     6
175
     1
176
     0
 93
-1056964608
 45
4.0
292
     0
297
     0
 46
4.0
 94
-1056964608
 47
1.0
 49
1.0
140
1.0
293
     1
141
0.0
294
     1
177
     0
142
1.0
295
     0
296
     0
143
0.125
271
     0
272
     9
273
     9
298
     1
  0
MLINESTYLE
  5
1C
102
{ACAD_REACTORS
330
E
102
}
330
E
100
AcDbMlineStyle
  2
STANDARD
 70
     0
  3

 62
     0
 51
90.0
 52
90.0
 71
     2
 49
0.5
 62
   256
  6
BYLAYER
 49
-0.5
 62
   256
  6
BYLAYER
  0
ACDBPLACEHOLDER
  5
806B
102
{ACAD_REACTORS
330
806A
102
}
330
806A
  0
SCALE
  5
80F6
102
{ACAD_REACTORS
330
80F5
102
}
330
80F5
100
AcDbScale
 70
     0
300
1:1
140
1.0
141
1.0
290
     1
  0
SCALE
  5
80F7
102
{ACAD_REACTORS
330
80F5
102
}
330
80F5
100
AcDbScale
 70
     0
300
1:2
140
1.0
141
2.0
290
     0
  0
SCALE
  5
80F8
102
{ACAD_REACTORS
330
80F5
102
}
330
80F5
100
AcDbScale
 70
     0
300
1:4
140
1.0
141
4.0
290
     0
  0
SCALE
  5
80F9
102
{ACAD_REACTORS
330
80F5
102
}
330
80F5
100
AcDbScale
 70
     0
300
1:5
140
1.0
141
5.0
290
     0
  0
SCALE
  5
80FA
102
{ACAD_REACTORS
330
80F5
102
}
330
80F5
100
AcDbScale
 70
     0
300
1:8
140
1.0
141
8.0
290
     0
  0
SCALE
  5
80FB
102
{ACAD_REACTORS
330
80F5
102
}
330
80F5
100
AcDbScale
 70
     0
300
1:10
140
1.0
141
10.0
290
     0
  0
SCALE
  5
80FC
102
{ACAD_REACTORS
330
80F5
102
}
330
80F5
100
AcDbScale
 70
     0
300
1:16
140
1.0
141
16.0
290
     0
  0
SCALE
  5
80FD
102
{ACAD_REACTORS
330
80F5
102
}
330
80F5
100
AcDbScale
 70
     0
300
1:20
140
1.0
141
20.0
290
     0
  0
SCALE
  5
80FE
102
{ACAD_REACTORS
330
80F5
102
}
330
80F5
100
AcDbScale
 70
     0
300
1:30
140
1.0
141
30.0
290
     0
  0
SCALE
  5
80FF
102
{ACAD_REACTORS
330
80F5
102
}
330
80F5
100
AcDbScale
 70
     0
300
1:40
140
1.0
141
40.0
290
     0
  0
SCALE
  5
8100
102
{ACAD_REACTORS
330
80F5
102
}
330
80F5
100
AcDbScale
 70
     0
300
1:50
140
1.0
141
50.0
290
     0
  0
SCALE
  5
8101
102
{ACAD_REACTORS
330
80F5
102
}
330
80F5
100
AcDbScale
 70
     0
300
1:100
140
1.0
141
100.0
290
     0
  0
SCALE
  5
8102
102
{ACAD_REACTORS
330
80F5
102
}
330
80F5
100
AcDbScale
 70
     0
300
2:1
140
2.0
141
1.0
290
     0
  0
SCALE
  5
8103
102
{ACAD_REACTORS
330
80F5
102
}
330
80F5
100
AcDbScale
 70
     0
300
4:1
140
4.0
141
1.0
290
     0
  0
SCALE
  5
8104
102
{ACAD_REACTORS
330
80F5
102
}
330
80F5
100
AcDbScale
 70
     0
300
8:1
140
8.0
141
1.0
290
     0
  0
SCALE
  5
8105
102
{ACAD_REACTORS
330
80F5
102
}
330
80F5
100
AcDbScale
 70
     0
300
10:1
140
10.0
141
1.0
290
     0
  0
SCALE
  5
8106
102
{ACAD_REACTORS
330
80F5
102
}
330
80F5
100
AcDbScale
 70
     0
300
100:1
140
100.0
141
1.0
290
     0
  0
ACDBSECTIONVIEWSTYLE
  5
810A
102
{ACAD_XDICTIONARY
360
8414
102
}
102
{ACAD_REACTORS
330
8109
102
}
330
8109
100
AcDbModelDocViewStyle
 70
     0
  3
Metric50
290
     0
100
AcDbSectionViewStyle
 70
     0
 71
     0
 90
      102
 71
     1
340
10
 62
   256
 40
5.0
340
0
340
0
 62
   256
 40
5.0
300
I, O, Q, S, X, Z
 40
10.0
 90
        0
 40
2.5
 90
        0
 71
     2
340
15
 90
       25
 62
   256
340
15
 90
       50
 62
   256
 40
5.0
 40
2.5
 40
5.0
 71
     3
340
10
 62
   256
 40
5.0
 90
        0
 40
15.0
 90
        1
300
%<\AcVar ViewSectionStartId>%-%<\AcVar ViewSectionEndId>% (%<\AcVar ViewScale \f "%sn">%)
 71
     4
 62
   256
 62
   257
300
ANSI31
 40
1.0
 90
        0
290
     0
290
     0
 90
        6
 40
0.0
 40
1.570796326794896
 40
0.2617993877991494
 40
1.308996938995747
 40
-0.2617993877991494
 40
1.832595714594046
  0
TABLESTYLE
  5
80F4
102
{ACAD_XDICTIONARY
360
8409
102
}
102
{ACAD_REACTORS
330
80F3
102
}
330
80F3
100
AcDbTableStyle
280
     0
  3
Standard
 70
     0
 71
     0
 40
1.5
 41
1.5
280
     0
281
     0
  7
STANDARD
140
4.5
170
     2
 62
     0
 63
     7
283
     0
 90
      512
 91
        0
  1

274
    -2
284
     1
 64
     0
275
    -2
285
     1
 65
     0
276
    -2
286
     1
 66
     0
277
    -2
287
     1
 67
     0
278
    -2
288
     1
 68
     0
279
    -2
289
     1
 69
     0
  7
STANDARD
140
6.0
170
     5
 62
     0
 63
     7
283
     0
 90
      512
 91
        0
  1

274
    -2
284
     1
 64
     0
275
    -2
285
     1
 65
     0
276
    -2
286
     1
 66
     0
277
    -2
287
     1
 67
     0
278
    -2
288
     1
 68
     0
279
    -2
289
     1
 69
     0
  7
STANDARD
140
4.5
170
     5
 62
     0
 63
     7
283
     0
 90
      512
 91
        0
  1

274
    -2
284
     1
 64
     0
275
    -2
285
     1
 65
     0
276
    -2
286
     1
 66
     0
277
    -2
287
     1
 67
     0
278
    -2
288
     1
 68
     0
279
    -2
289
     1
 69
     0
  0
VISUALSTYLE
  5
80DF
102
{ACAD_REACTORS
330
80D9
102
}
330
80D9
100
AcDbVisualStyle
  2
2dWireframe
 70
     4
177
     3
291
     0
 70
    58
 90
        0
176
     1
 90
        2
176
     1
 90
        0
176
     1
 90
        0
176
     1
 40
0.6
176
     1
 40
30.0
176
     1
 62
     7
420
 16777215
176
     1
 90
        1
176
     1
 90
        4
176
     1
 62
     7
176
     1
 62
   257
176
     1
 90
        1
176
     1
 90
        1
176
     1
 40
1.0
176
     1
 90
        0
176
     1
 62
   257
176
     1
 40
1.0
176
     1
 90
        1
176
     1
 90
        6
176
     1
 90
        2
176
     1
 62
     7
176
     1
 90
        5
176
     1
 90
        0
176
     1
 90
        0
176
     1
290
     0
176
     1
 90
        1
176
     1
 40
0.0
176
     1
 90
        0
176
     1
290
     1
176
     1
290
     1
176
     1
290
     0
176
     1
290
     0
176
     1
290
     0
176
     1
290
     0
176
     1
290
     0
176
     1
290
     0
176
     1
290
     0
176
     1
 90
       50
176
     1
 40
0.0
176
     1
 40
1.0
176
     1
 90
        0
176
     1
 62
    18
420
        0
176
     1
 90
       50
176
     1
 90
        3
176
     1
 62
     5
420
      255
176
     1
290
     0
176
     1
 90
       50
176
     1
 90
       50
176
     1
 90
       50
176
     1
290
     0
176
     1
 90
       50
176
     1
 62
   256
176
     0
 40
1.0
176
     0
 90
        2
176
     1
  1
strokes_ogs.tif
176
     1
290
     0
176
     1
 40
1.0
176
     1
 40
1.0
176
     1
1001
ACAD
1000
AcDbSavedByObjectVersion
1070
     0
  0
VISUALSTYLE
  5
80DE
102
{ACAD_REACTORS
330
80D9
102
}
330
80D9
100
AcDbVisualStyle
  2
Basic
 70
     7
177
     3
291
     1
 70
    58
 90
        1
176
     1
 90
        0
176
     1
 90
        1
176
     1
 90
        0
176
     1
 40
0.6
176
     1
 40
30.0
176
     1
 62
     7
420
 16777215
176
     1
 90
        0
176
     1
 90
        4
176
     1
 62
     7
176
     1
 62
   257
176
     1
 90
        1
176
     1
 90
        1
176
     1
 40
1.0
176
     1
 90
        8
176
     1
 62
     7
176
     1
 40
1.0
176
     1
 90
        1
176
     1
 90
        6
176
     1
 90
        2
176
     1
 62
     7
176
     1
 90
        5
176
     1
 90
        0
176
     1
 90
        0
176
     1
290
     0
176
     1
 90
        1
176
     1
 40
0.0
176
     1
 90
        0
176
     1
290
     0
176
     1
290
     1
176
     1
290
     1
176
     1
290
     0
176
     1
290
     0
176
     1
290
     0
176
     1
290
     0
176
     1
290
     0
176
     1
290
     0
176
     1
 90
       50
176
     1
 40
0.0
176
     1
 40
1.0
176
     1
 90
        0
176
     1
 62
    18
420
        0
176
     1
 90
       50
176
     1
 90
        3
176
     1
 62
     5
420
      255
176
     1
290
     0
176
     1
 90
       50
176
     1
 90
       50
176
     1
 90
       50
176
     1
290
     0
176
     1
 90
       50
176
     1
 62
   256
176
     0
 40
1.0
176
     0
 90
        2
176
     1
  1
strokes_ogs.tif
176
     1
290
     0
176
     1
 40
1.0
176
     1
 40
1.0
176
     1
1001
ACAD
1000
AcDbSavedByObjectVersion
1070
     0
  0
VISUALSTYLE
  5
80E5
102
{ACAD_REACTORS
330
80D9
102
}
330
80D9
100
AcDbVisualStyle
  2
Brighten
 70
    12
177
     3
291
     1
 70
    58
 90
        2
176
     1
 90
        2
176
     1
 90
        0
176
     1
 90
        0
176
     1
 40
0.6
176
     1
 40
30.0
176
     1
 62
     7
420
 16777215
176
     1
 90
        1
176
     1
 90
        4
176
     1
 62
     7
176
     1
 62
   257
176
     1
 90
        1
176
     1
 90
        1
176
     1
 40
1.0
176
     1
 90
        8
176
     1
 62
     7
176
     1
 40
1.0
176
     1
 90
        1
176
     1
 90
        6
176
     1
 90
        2
176
     1
 62
     7
176
     1
 90
        5
176
     1
 90
        0
176
     1
 90
        0
176
     1
290
     0
176
     1
 90
        1
176
     1
 40
50.0
176
     1
 90
        0
176
     1
290
     0
176
     1
290
     1
176
     1
290
     1
176
     1
290
     0
176
     1
290
     0
176
     1
290
     0
176
     1
290
     0
176
     1
290
     0
176
     1
290
     0
176
     1
 90
       50
176
     1
 40
0.0
176
     1
 40
1.0
176
     1
 90
        0
176
     1
 62
    18
420
        0
176
     1
 90
       50
176
     1
 90
        3
176
     1
 62
     5
420
      255
176
     1
290
     0
176
     1
 90
       50
176
     1
 90
       50
176
     1
 90
       50
176
     1
290
     0
176
     1
 90
       50
176
     1
 62
   256
176
     0
 40
1.0
176
     0
 90
        2
176
     1
  1
strokes_ogs.tif
176
     1
290
     0
176
     1
 40
1.0
176
     1
 40
1.0
176
     1
1001
ACAD
1000
AcDbSavedByObjectVersion
1070
     0
  0
VISUALSTYLE
  5
80E9
102
{ACAD_REACTORS
330
80D9
102
}
330
80D9
100
AcDbVisualStyle
  2
ColorChange
 70
    16
177
     3
291
     1
 70
    58
 90
        2
176
     1
 90
        2
176
     1
 90
        3
176
     1
 90
        0
176
     1
 40
0.6
176
     1
 40
30.0
176
     1
 62
     8
420
  8421504
176
     1
 90
        1
176
     1
 90
        4
176
     1
 62
     7
176
     1
 62
   257
176
     1
 90
        1
176
     1
 90
        1
176
     1
 40
1.0
176
     1
 90
        8
176
     1
 62
     8
420
  8421504
176
     1
 40
1.0
176
     1
 90
        1
176
     1
 90
        6
176
     1
 90
        2
176
     1
 62
     7
176
     1
 90
        5
176
     1
 90
        0
176
     1
 90
        0
176
     1
290
     0
176
     1
 90
        1
176
     1
 40
0.0
176
     1
 90
        0
176
     1
290
     0
176
     1
290
     1
176
     1
290
     1
176
     1
290
     0
176
     1
290
     0
176
     1
290
     0
176
     1
290
     0
176
     1
290
     0
176
     1
290
     0
176
     1
 90
       50
176
     1
 40
0.0
176
     1
 40
1.0
176
     1
 90
        0
176
     1
 62
    18
420
        0
176
     1
 90
       50
176
     1
 90
        3
176
     1
 62
     5
420
      255
176
     1
290
     0
176
     1
 90
       50
176
     1
 90
       50
176
     1
 90
       50
176
     1
290
     0
176
     1
 90
       50
176
     1
 62
   256
176
     0
 40
1.0
176
     0
 90
        2
176
     1
  1
strokes_ogs.tif
176
     1
290
     0
176
     1
 40
1.0
176
     1
 40
1.0
176
     1
1001
ACAD
1000
AcDbSavedByObjectVersion
1070
     0
  0
VISUALSTYLE
  5
80E2
102
{ACAD_REACTORS
330
80D9
102
}
330
80D9
100
AcDbVisualStyle
  2
Conceptual
 70
     9
177
     3
291
     0
 70
    58
 90
        3
176
     1
 90
        2
176
     1
 90
        0
176
     1
 90
        0
176
     1
 40
0.6
176
     1
 40
30.0
176
     1
 62
     7
420
 16777215
176
     1
 90
        2
176
     1
 90
        2
176
     1
 62
     7
176
     1
 62
   257
176
     1
 90
        1
176
     1
 90
        1
176
     1
 40
179.0
176
     1
 90
        8
176
     1
 62
     7
176
     1
 40
1.0
176
     1
 90
        1
176
     1
 90
        6
176
     1
 90
        2
176
     1
 62
     7
176
     1
 90
        3
176
     1
 90
        0
176
     1
 90
        0
176
     1
290
     0
176
     1
 90
        1
176
     1
 40
0.0
176
     1
 90
        0
176
     1
290
     0
176
     1
290
     1
176
     1
290
     1
176
     1
290
     0
176
     1
290
     0
176
     1
290
     0
176
     1
290
     0
176
     1
290
     0
176
     1
290
     0
176
     1
 90
       50
176
     1
 40
0.0
176
     1
 40
1.0
176
     1
 90
        0
176
     1
 62
    18
420
        0
176
     1
 90
       50
176
     1
 90
        3
176
     1
 62
     5
420
      255
176
     1
290
     0
176
     1
 90
       50
176
     1
 90
       50
176
     1
 90
       50
176
     1
290
     0
176
     1
 90
       50
176
     1
 62
   256
176
     0
 40
1.0
176
     0
 90
        2
176
     1
  1
strokes_ogs.tif
176
     1
290
     0
176
     1
 40
1.0
176
     1
 40
1.0
176
     1
1001
ACAD
1000
AcDbSavedByObjectVersion
1070
     0
  0
VISUALSTYLE
  5
80E4
102
{ACAD_REACTORS
330
80D9
102
}
330
80D9
100
AcDbVisualStyle
  2
Dim
 70
    11
177
     3
291
     1
 70
    58
 90
        2
176
     1
 90
        2
176
     1
 90
        0
176
     1
 90
        0
176
     1
 40
0.6
176
     1
 40
30.0
176
     1
 62
     7
420
 16777215
176
     1
 90
        1
176
     1
 90
        4
176
     1
 62
     7
176
     1
 62
   257
176
     1
 90
        1
176
     1
 90
        1
176
     1
 40
1.0
176
     1
 90
        8
176
     1
 62
     7
176
     1
 40
1.0
176
     1
 90
        1
176
     1
 90
        6
176
     1
 90
        2
176
     1
 62
     7
176
     1
 90
        5
176
     1
 90
        0
176
     1
 90
        0
176
     1
290
     0
176
     1
 90
        1
176
     1
 40
-50.0
176
     1
 90
        0
176
     1
290
     0
176
     1
290
     1
176
     1
290
     1
176
     1
290
     0
176
     1
290
     0
176
     1
290
     0
176
     1
290
     0
176
     1
290
     0
176
     1
290
     0
176
     1
 90
       50
176
     1
 40
0.0
176
     1
 40
1.0
176
     1
 90
        0
176
     1
 62
    18
420
        0
176
     1
 90
       50
176
     1
 90
        3
176
     1
 62
     5
420
      255
176
     1
290
     0
176
     1
 90
       50
176
     1
 90
       50
176
     1
 90
       50
176
     1
290
     0
176
     1
 90
       50
176
     1
 62
   256
176
     0
 40
1.0
176
     0
 90
        2
176
     1
  1
strokes_ogs.tif
176
     1
290
     0
176
     1
 40
1.0
176
     1
 40
1.0
176
     1
1001
ACAD
1000
AcDbSavedByObjectVersion
1070
     0
  0
VISUALSTYLE
  5
80F1
102
{ACAD_REACTORS
330
80D9
102
}
330
80D9
100
AcDbVisualStyle
  2
EdgeColorOff
 70
    22
177
     3
291
     1
 70
    58
 90
        2
176
     0
 90
        2
176
     0
 90
        0
176
     0
 90
        0
176
     0
 40
0.6
176
     0
 40
30.0
176
     0
 62
     7
420
 16777215
176
     0
 90
        1
176
     0
 90
        4
176
     0
 62
     7
176
     0
 62
   257
176
     0
 90
        1
176
     0
 90
        1
176
     0
 40
1.0
176
     0
 90
        8
176
     2
 62
     7
176
     0
 40
1.0
176
     0
 90
        1
176
     0
 90
        6
176
     0
 90
        2
176
     0
 62
     7
176
     0
 90
        5
176
     0
 90
        0
176
     0
 90
        0
176
     0
290
     0
176
     0
 90
        1
176
     0
 40
0.0
176
     0
 90
        0
176
     0
290
     0
176
     0
290
     1
176
     0
290
     1
176
     0
290
     0
176
     0
290
     0
176
     0
290
     0
176
     0
290
     0
176
     0
290
     0
176
     0
290
     0
176
     0
 90
       50
176
     0
 40
0.0
176
     0
 40
1.0
176
     0
 90
        0
176
     0
 62
    18
420
        0
176
     0
 90
       50
176
     0
 90
        3
176
     0
 62
     5
420
      255
176
     0
290
     0
176
     0
 90
       50
176
     0
 90
       50
176
     0
 90
       50
176
     0
290
     0
176
     0
 90
       50
176
     0
 62
   256
176
     0
 40
1.0
176
     0
 90
        2
176
     0
  1
strokes_ogs.tif
176
     0
290
     0
176
     0
 40
1.0
176
     0
 40
1.0
176
     0
1001
ACAD
1000
AcDbSavedByObjectVersion
1070
     0
  0
VISUALSTYLE
  5
80E8
102
{ACAD_REACTORS
330
80D9
102
}
330
80D9
100
AcDbVisualStyle
  2
Facepattern
 70
    15
177
     3
291
     1
 70
    58
 90
        2
176
     1
 90
        2
176
     1
 90
        0
176
     1
 90
        0
176
     1
 40
0.6
176
     1
 40
30.0
176
     1
 62
     7
420
 16777215
176
     1
 90
        1
176
     1
 90
        4
176
     1
 62
     7
176
     1
 62
   257
176
     1
 90
        1
176
     1
 90
        1
176
     1
 40
1.0
176
     1
 90
        8
176
     1
 62
     7
176
     1
 40
1.0
176
     1
 90
        1
176
     1
 90
        6
176
     1
 90
        2
176
     1
 62
     7
176
     1
 90
        5
176
     1
 90
        0
176
     1
 90
        0
176
     1
290
     0
176
     1
 90
        1
176
     1
 40
0.0
176
     1
 90
        0
176
     1
290
     0
176
     1
290
     1
176
     1
290
     1
176
     1
290
     0
176
     1
290
     0
176
     1
290
     0
176
     1
290
     0
176
     1
290
     0
176
     1
290
     0
176
     1
 90
       50
176
     1
 40
0.0
176
     1
 40
1.0
176
     1
 90
        0
176
     1
 62
    18
420
        0
176
     1
 90
       50
176
     1
 90
        3
176
     1
 62
     5
420
      255
176
     1
290
     0
176
     1
 90
       50
176
     1
 90
       50
176
     1
 90
       50
176
     1
290
     0
176
     1
 90
       50
176
     1
 62
   256
176
     0
 40
1.0
176
     0
 90
        2
176
     1
  1
strokes_ogs.tif
176
     1
290
     0
176
     1
 40
1.0
176
     1
 40
1.0
176
     1
1001
ACAD
1000
AcDbSavedByObjectVersion
1070
     0
  0
VISUALSTYLE
  5
80DA
102
{ACAD_REACTORS
330
80D9
102
}
330
80D9
100
AcDbVisualStyle
  2
Flat
 70
     0
177
     3
291
     1
 70
    58
 90
        2
176
     1
 90
        1
176
     1
 90
        1
176
     1
 90
        2
176
     1
 40
0.6
176
     1
 40
30.0
176
     1
 62
     7
420
 16777215
176
     1
 90
        0
176
     1
 90
        0
176
     1
 62
     7
176
     1
 62
   257
176
     1
 90
        1
176
     1
 90
        1
176
     1
 40
1.0
176
     1
 90
        8
176
     1
 62
     7
176
     1
 40
1.0
176
     1
 90
        1
176
     1
 90
        6
176
     1
 90
        2
176
     1
 62
     7
176
     1
 90
        5
176
     1
 90
        0
176
     1
 90
        0
176
     1
290
     0
176
     1
 90
       13
176
     1
 40
0.0
176
     1
 90
        0
176
     1
290
     0
176
     1
290
     1
176
     1
290
     1
176
     1
290
     0
176
     1
290
     0
176
     1
290
     0
176
     1
290
     0
176
     1
290
     0
176
     1
290
     0
176
     1
 90
       50
176
     1
 40
0.0
176
     1
 40
1.0
176
     1
 90
        0
176
     1
 62
    18
420
        0
176
     1
 90
       50
176
     1
 90
        3
176
     1
 62
     5
420
      255
176
     1
290
     0
176
     1
 90
       50
176
     1
 90
       50
176
     1
 90
       50
176
     1
290
     0
176
     1
 90
       50
176
     1
 62
   256
176
     0
 40
1.0
176
     0
 90
        2
176
     1
  1
strokes_ogs.tif
176
     1
290
     0
176
     1
 40
1.0
176
     1
 40
1.0
176
     1
1001
ACAD
1000
AcDbSavedByObjectVersion
1070
     0
  0
VISUALSTYLE
  5
80DB
102
{ACAD_REACTORS
330
80D9
102
}
330
80D9
100
AcDbVisualStyle
  2
FlatWithEdges
 70
     1
177
     3
291
     1
 70
    58
 90
        2
176
     1
 90
        1
176
     1
 90
        1
176
     1
 90
        2
176
     1
 40
0.6
176
     1
 40
30.0
176
     1
 62
     7
420
 16777215
176
     1
 90
        1
176
     1
 90
        0
176
     1
 62
     7
176
     1
 62
   257
176
     1
 90
        1
176
     1
 90
        1
176
     1
 40
1.0
176
     1
 90
        0
176
     1
 62
   257
176
     1
 40
1.0
176
     1
 90
        1
176
     1
 90
        6
176
     1
 90
        2
176
     1
 62
     7
176
     1
 90
        5
176
     1
 90
        0
176
     1
 90
        0
176
     1
290
     0
176
     1
 90
       13
176
     1
 40
0.0
176
     1
 90
        0
176
     1
290
     0
176
     1
290
     1
176
     1
290
     1
176
     1
290
     0
176
     1
290
     0
176
     1
290
     0
176
     1
290
     0
176
     1
290
     0
176
     1
290
     0
176
     1
 90
       50
176
     1
 40
0.0
176
     1
 40
1.0
176
     1
 90
        0
176
     1
 62
    18
420
        0
176
     1
 90
       50
176
     1
 90
        3
176
     1
 62
     5
420
      255
176
     1
290
     0
176
     1
 90
       50
176
     1
 90
       50
176
     1
 90
       50
176
     1
290
     0
176
     1
 90
       50
176
     1
 62
   256
176
     0
 40
1.0
176
     0
 90
        2
176
     1
  1
strokes_ogs.tif
176
     1
290
     0
176
     1
 40
1.0
176
     1
 40
1.0
176
     1
1001
ACAD
1000
AcDbSavedByObjectVersion
1070
     0
  0
VISUALSTYLE
  5
80DC
102
{ACAD_REACTORS
330
80D9
102
}
330
80D9
100
AcDbVisualStyle
  2
Gouraud
 70
     2
177
     3
291
     1
 70
    58
 90
        2
176
     1
 90
        2
176
     1
 90
        1
176
     1
 90
        2
176
     1
 40
0.6
176
     1
 40
30.0
176
     1
 62
     7
420
 16777215
176
     1
 90
        0
176
     1
 90
        0
176
     1
 62
     7
176
     1
 62
   257
176
     1
 90
        1
176
     1
 90
        1
176
     1
 40
1.0
176
     1
 90
        0
176
     1
 62
     7
176
     1
 40
1.0
176
     1
 90
        1
176
     1
 90
        6
176
     1
 90
        2
176
     1
 62
     7
176
     1
 90
        5
176
     1
 90
        0
176
     1
 90
        0
176
     1
290
     0
176
     1
 90
       13
176
     1
 40
0.0
176
     1
 90
        0
176
     1
290
     0
176
     1
290
     1
176
     1
290
     1
176
     1
290
     0
176
     1
290
     0
176
     1
290
     0
176
     1
290
     0
176
     1
290
     0
176
     1
290
     0
176
     1
 90
       50
176
     1
 40
0.0
176
     1
 40
1.0
176
     1
 90
        0
176
     1
 62
    18
420
        0
176
     1
 90
       50
176
     1
 90
        3
176
     1
 62
     5
420
      255
176
     1
290
     0
176
     1
 90
       50
176
     1
 90
       50
176
     1
 90
       50
176
     1
290
     0
176
     1
 90
       50
176
     1
 62
   256
176
     0
 40
1.0
176
     0
 90
        2
176
     1
  1
strokes_ogs.tif
176
     1
290
     0
176
     1
 40
1.0
176
     1
 40
1.0
176
     1
1001
ACAD
1000
AcDbSavedByObjectVersion
1070
     0
  0
VISUALSTYLE
  5
80DD
102
{ACAD_REACTORS
330
80D9
102
}
330
80D9
100
AcDbVisualStyle
  2
GouraudWithEdges
 70
     3
177
     3
291
     1
 70
    58
 90
        2
176
     1
 90
        2
176
     1
 90
        1
176
     1
 90
        2
176
     1
 40
0.6
176
     1
 40
30.0
176
     1
 62
     7
420
 16777215
176
     1
 90
        1
176
     1
 90
        0
176
     1
 62
     7
176
     1
 62
   257
176
     1
 90
        1
176
     1
 90
        1
176
     1
 40
1.0
176
     1
 90
        0
176
     1
 62
   257
176
     1
 40
1.0
176
     1
 90
        1
176
     1
 90
        6
176
     1
 90
        2
176
     1
 62
     7
176
     1
 90
        5
176
     1
 90
        0
176
     1
 90
        0
176
     1
290
     0
176
     1
 90
       13
176
     1
 40
0.0
176
     1
 90
        0
176
     1
290
     0
176
     1
290
     1
176
     1
290
     1
176
     1
290
     0
176
     1
290
     0
176
     1
290
     0
176
     1
290
     0
176
     1
290
     0
176
     1
290
     0
176
     1
 90
       50
176
     1
 40
0.0
176
     1
 40
1.0
176
     1
 90
        0
176
     1
 62
    18
420
        0
176
     1
 90
       50
176
     1
 90
        3
176
     1
 62
     5
420
      255
176
     1
290
     0
176
     1
 90
       50
176
     1
 90
       50
176
     1
 90
       50
176
     1
290
     0
176
     1
 90
       50
176
     1
 62
   256
176
     0
 40
1.0
176
     0
 90
        2
176
     1
  1
strokes_ogs.tif
176
     1
290
     0
176
     1
 40
1.0
176
     1
 40
1.0
176
     1
1001
ACAD
1000
AcDbSavedByObjectVersion
1070
     0
  0
VISUALSTYLE
  5
80E1
102
{ACAD_REACTORS
330
80D9
102
}
330
80D9
100
AcDbVisualStyle
  2
Hidden
 70
     6
177
     3
291
     0
 70
    58
 90
        1
176
     1
 90
        2
176
     1
 90
        2
176
     1
 90
        0
176
     1
 40
0.6
176
     1
 40
30.0
176
     1
 62
     7
420
 16777215
176
     1
 90
        2
176
     1
 90
        2
176
     1
 62
     7
176
     1
 62
   257
176
     1
 90
        2
176
     1
 90
        1
176
     1
 40
40.0
176
     1
 90
        0
176
     1
 62
   257
176
     1
 40
1.0
176
     1
 90
        1
176
     1
 90
        6
176
     1
 90
        2
176
     1
 62
     7
176
     1
 90
        3
176
     1
 90
        0
176
     1
 90
        0
176
     1
290
     0
176
     1
 90
        1
176
     1
 40
0.0
176
     1
 90
        0
176
     1
290
     0
176
     1
290
     1
176
     1
290
     1
176
     1
290
     0
176
     1
290
     0
176
     1
290
     0
176
     1
290
     0
176
     1
290
     0
176
     1
290
     0
176
     1
 90
       50
176
     1
 40
0.0
176
     1
 40
1.0
176
     1
 90
        0
176
     1
 62
    18
420
        0
176
     1
 90
       50
176
     1
 90
        3
176
     1
 62
     5
420
      255
176
     1
290
     0
176
     1
 90
       50
176
     1
 90
       50
176
     1
 90
       50
176
     1
290
     0
176
     1
 90
       50
176
     1
 62
   256
176
     0
 40
1.0
176
     0
 90
        2
176
     1
  1
strokes_ogs.tif
176
     1
290
     0
176
     1
 40
1.0
176
     1
 40
1.0
176
     1
1001
ACAD
1000
AcDbSavedByObjectVersion
1070
     0
  0
VISUALSTYLE
  5
80EF
102
{ACAD_REACTORS
330
80D9
102
}
330
80D9
100
AcDbVisualStyle
  2
JitterOff
 70
    20
177
     3
291
     1
 70
    58
 90
        2
176
     0
 90
        2
176
     0
 90
        0
176
     0
 90
        0
176
     0
 40
0.6
176
     0
 40
30.0
176
     0
 62
     7
420
 16777215
176
     0
 90
        1
176
     0
 90
        4
176
     0
 62
     7
176
     0
 62
   257
176
     0
 90
        1
176
     0
 90
        1
176
     0
 40
1.0
176
     0
 90
       10
176
     2
 62
     7
176
     0
 40
1.0
176
     0
 90
        1
176
     0
 90
        6
176
     0
 90
        2
176
     0
 62
     7
176
     0
 90
        5
176
     0
 90
        0
176
     0
 90
        0
176
     0
290
     0
176
     0
 90
        1
176
     0
 40
0.0
176
     0
 90
        0
176
     0
290
     0
176
     0
290
     1
176
     0
290
     1
176
     0
290
     0
176
     0
290
     0
176
     0
290
     0
176
     0
290
     0
176
     0
290
     0
176
     0
290
     0
176
     0
 90
       50
176
     0
 40
0.0
176
     0
 40
1.0
176
     0
 90
        0
176
     0
 62
    18
420
        0
176
     0
 90
       50
176
     0
 90
        3
176
     0
 62
     5
420
      255
176
     0
290
     0
176
     0
 90
       50
176
     0
 90
       50
176
     0
 90
       50
176
     0
290
     0
176
     0
 90
       50
176
     0
 62
   256
176
     0
 40
1.0
176
     0
 90
        2
176
     0
  1
strokes_ogs.tif
176
     0
290
     0
176
     0
 40
1.0
176
     0
 40
1.0
176
     0
1001
ACAD
1000
AcDbSavedByObjectVersion
1070
     0
  0
VISUALSTYLE
  5
80E7
102
{ACAD_REACTORS
330
80D9
102
}
330
80D9
100
AcDbVisualStyle
  2
Linepattern
 70
    14
177
     3
291
     1
 70
    58
 90
        2
176
     1
 90
        2
176
     1
 90
        0
176
     1
 90
        0
176
     1
 40
0.6
176
     1
 40
30.0
176
     1
 62
     7
420
 16777215
176
     1
 90
        1
176
     1
 90
        4
176
     1
 62
     7
176
     1
 62
   257
176
     1
 90
        7
176
     1
 90
        7
176
     1
 40
1.0
176
     1
 90
        8
176
     1
 62
     7
176
     1
 40
1.0
176
     1
 90
        1
176
     1
 90
        6
176
     1
 90
        2
176
     1
 62
     7
176
     1
 90
        5
176
     1
 90
        0
176
     1
 90
        0
176
     1
290
     0
176
     1
 90
        1
176
     1
 40
0.0
176
     1
 90
        0
176
     1
290
     0
176
     1
290
     1
176
     1
290
     1
176
     1
290
     0
176
     1
290
     0
176
     1
290
     0
176
     1
290
     0
176
     1
290
     0
176
     1
290
     0
176
     1
 90
       50
176
     1
 40
0.0
176
     1
 40
1.0
176
     1
 90
        0
176
     1
 62
    18
420
        0
176
     1
 90
       50
176
     1
 90
        3
176
     1
 62
     5
420
      255
176
     1
290
     0
176
     1
 90
       50
176
     1
 90
       50
176
     1
 90
       50
176
     1
290
     0
176
     1
 90
       50
176
     1
 62
   256
176
     0
 40
1.0
176
     0
 90
        2
176
     1
  1
strokes_ogs.tif
176
     1
290
     0
176
     1
 40
1.0
176
     1
 40
1.0
176
     1
1001
ACAD
1000
AcDbSavedByObjectVersion
1070
     0
  0
VISUALSTYLE
  5
80F0
102
{ACAD_REACTORS
330
80D9
102
}
330
80D9
100
AcDbVisualStyle
  2
OverhangOff
 70
    21
177
     3
291
     1
 70
    58
 90
        2
176
     0
 90
        2
176
     0
 90
        0
176
     0
 90
        0
176
     0
 40
0.6
176
     0
 40
30.0
176
     0
 62
     7
420
 16777215
176
     0
 90
        1
176
     0
 90
        4
176
     0
 62
     7
176
     0
 62
   257
176
     0
 90
        1
176
     0
 90
        1
176
     0
 40
1.0
176
     0
 90
        9
176
     2
 62
     7
176
     0
 40
1.0
176
     0
 90
        1
176
     0
 90
        6
176
     0
 90
        2
176
     0
 62
     7
176
     0
 90
        5
176
     0
 90
        0
176
     0
 90
        0
176
     0
290
     0
176
     0
 90
        1
176
     0
 40
0.0
176
     0
 90
        0
176
     0
290
     0
176
     0
290
     1
176
     0
290
     1
176
     0
290
     0
176
     0
290
     0
176
     0
290
     0
176
     0
290
     0
176
     0
290
     0
176
     0
290
     0
176
     0
 90
       50
176
     0
 40
0.0
176
     0
 40
1.0
176
     0
 90
        0
176
     0
 62
    18
420
        0
176
     0
 90
       50
176
     0
 90
        3
176
     0
 62
     5
420
      255
176
     0
290
     0
176
     0
 90
       50
176
     0
 90
       50
176
     0
 90
       50
176
     0
290
     0
176
     0
 90
       50
176
     0
 62
   256
176
     0
 40
1.0
176
     0
 90
        2
176
     0
  1
strokes_ogs.tif
176
     0
290
     0
176
     0
 40
1.0
176
     0
 40
1.0
176
     0
1001
ACAD
1000
AcDbSavedByObjectVersion
1070
     0
  0
VISUALSTYLE
  5
80E3
102
{ACAD_REACTORS
330
80D9
102
}
330
80D9
100
AcDbVisualStyle
  2
Realistic
 70
     8
177
     3
291
     0
 70
    58
 90
        2
176
     1
 90
        3
176
     1
 90
        0
176
     1
 90
        2
176
     1
 40
0.6
176
     1
 40
30.0
176
     1
 62
     7
420
 16777215
176
     1
 90
        0
176
     1
 90
        0
176
     1
 62
     7
176
     1
 62
   257
176
     1
 90
        1
176
     1
 90
        1
176
     1
 40
1.0
176
     1
 90
        8
176
     1
 62
   257
176
     1
 40
1.0
176
     1
 90
        1
176
     1
 90
        6
176
     1
 90
        2
176
     1
 62
     7
176
     1
 90
        3
176
     1
 90
        0
176
     1
 90
        0
176
     1
290
     0
176
     1
 90
       13
176
     1
 40
0.0
176
     1
 90
        0
176
     1
290
     0
176
     1
290
     1
176
     1
290
     1
176
     1
290
     0
176
     1
290
     0
176
     1
290
     0
176
     1
290
     0
176
     1
290
     0
176
     1
290
     0
176
     1
 90
       50
176
     1
 40
0.0
176
     1
 40
1.0
176
     1
 90
        0
176
     1
 62
    18
420
        0
176
     1
 90
       50
176
     1
 90
        3
176
     1
 62
     5
420
      255
176
     1
290
     0
176
     1
 90
       50
176
     1
 90
       50
176
     1
 90
       50
176
     1
290
     0
176
     1
 90
       50
176
     1
 62
   256
176
     0
 40
1.0
176
     0
 90
        2
176
     1
  1
strokes_ogs.tif
176
     1
290
     0
176
     1
 40
1.0
176
     1
 40
1.0
176
     1
1001
ACAD
1000
AcDbSavedByObjectVersion
1070
     0
  0
VISUALSTYLE
  5
80EE
102
{ACAD_REACTORS
330
80D9
102
}
330
80D9
100
AcDbVisualStyle
  2
Shaded
 70
    27
177
     3
291
     0
 70
    58
 90
        2
176
     1
 90
        2
176
     1
 90
        1
176
     1
 90
        2
176
     1
 40
0.6
176
     1
 40
30.0
176
     1
 62
     7
420
 16777215
176
     1
 90
        0
176
     1
 90
        4
176
     1
 62
     7
176
     1
 62
   257
176
     1
 90
        1
176
     1
 90
        1
176
     1
 40
1.0
176
     1
 90
        8
176
     1
 62
   257
176
     1
 40
1.0
176
     1
 90
        1
176
     1
 90
        6
176
     1
 90
        2
176
     1
 62
     8
420
  7895160
176
     1
 90
        3
176
     1
 90
        0
176
     1
 90
        0
176
     1
290
     0
176
     1
 90
        5
176
     1
 40
0.0
176
     1
 90
        0
176
     1
290
     0
176
     1
290
     1
176
     1
290
     1
176
     1
290
     0
176
     1
290
     0
176
     1
290
     0
176
     1
290
     0
176
     1
290
     0
176
     1
290
     0
176
     1
 90
       50
176
     1
 40
0.0
176
     1
 40
1.0
176
     1
 90
        0
176
     1
 62
    18
420
        0
176
     1
 90
       50
176
     1
 90
        3
176
     1
 62
     5
420
      255
176
     1
290
     0
176
     1
 90
       50
176
     1
 90
       50
176
     1
 90
       50
176
     1
290
     0
176
     1
 90
       50
176
     1
 62
   256
176
     0
 40
1.0
176
     0
 90
        2
176
     1
  1
strokes_ogs.tif
176
     1
290
     0
176
     1
 40
1.0
176
     1
 40
1.0
176
     1
1001
ACAD
1000
AcDbSavedByObjectVersion
1070
     0
  0
VISUALSTYLE
  5
80ED
102
{ACAD_REACTORS
330
80D9
102
}
330
80D9
100
AcDbVisualStyle
  2
Shaded with edges
 70
    26
177
     3
291
     0
 70
    58
 90
        2
176
     1
 90
        2
176
     1
 90
        1
176
     1
 90
        2
176
     1
 40
0.6
176
     1
 40
30.0
176
     1
 62
     7
420
 16777215
176
     1
 90
        1
176
     1
 90
        2
176
     1
 62
     7
176
     1
 62
   257
176
     1
 90
        2
176
     1
 90
        1
176
     1
 40
1.0
176
     1
 90
        8
176
     1
 62
   257
176
     1
 40
1.0
176
     1
 90
        1
176
     1
 90
        6
176
     1
 90
        2
176
     1
 62
     7
176
     1
 90
        3
176
     1
 90
        0
176
     1
 90
        0
176
     1
290
     0
176
     1
 90
        5
176
     1
 40
0.0
176
     1
 90
        0
176
     1
290
     0
176
     1
290
     1
176
     1
290
     1
176
     1
290
     0
176
     1
290
     0
176
     1
290
     0
176
     1
290
     0
176
     1
290
     0
176
     1
290
     0
176
     1
 90
       50
176
     1
 40
0.0
176
     1
 40
1.0
176
     1
 90
        0
176
     1
 62
    18
420
        0
176
     1
 90
       50
176
     1
 90
        3
176
     1
 62
     5
420
      255
176
     1
290
     0
176
     1
 90
       50
176
     1
 90
       50
176
     1
 90
       50
176
     1
290
     0
176
     1
 90
       50
176
     1
 62
   256
176
     0
 40
1.0
176
     0
 90
        2
176
     1
  1
strokes_ogs.tif
176
     1
290
     0
176
     1
 40
1.0
176
     1
 40
1.0
176
     1
1001
ACAD
1000
AcDbSavedByObjectVersion
1070
     0
  0
VISUALSTYLE
  5
80EA
102
{ACAD_REACTORS
330
80D9
102
}
330
80D9
100
AcDbVisualStyle
  2
Shades of Gray
 70
    23
177
     3
291
     0
 70
    58
 90
        2
176
     1
 90
        2
176
     1
 90
        3
176
     1
 90
        0
176
     1
 40
0.6
176
     1
 40
30.0
176
     1
 62
     7
420
 16777215
176
     1
 90
        2
176
     1
 90
        2
176
     1
 62
     7
176
     1
 62
     7
176
     1
 90
        1
176
     1
 90
        1
176
     1
 40
40.0
176
     1
 90
        8
176
     1
 62
     7
176
     1
 40
1.0
176
     1
 90
        1
176
     1
 90
        6
176
     1
 90
        2
176
     1
 62
     7
176
     1
 90
        3
176
     1
 90
        0
176
     1
 90
        0
176
     1
290
     0
176
     1
 90
        1
176
     1
 40
0.0
176
     1
 90
        0
176
     1
290
     0
176
     1
290
     1
176
     1
290
     1
176
     1
290
     0
176
     1
290
     0
176
     1
290
     0
176
     1
290
     0
176
     1
290
     0
176
     1
290
     0
176
     1
 90
       50
176
     1
 40
0.0
176
     1
 40
1.0
176
     1
 90
        0
176
     1
 62
    18
420
        0
176
     1
 90
       50
176
     1
 90
        3
176
     1
 62
     5
420
      255
176
     1
290
     0
176
     1
 90
       50
176
     1
 90
       50
176
     1
 90
       50
176
     1
290
     0
176
     1
 90
       50
176
     1
 62
   256
176
     0
 40
1.0
176
     0
 90
        2
176
     1
  1
strokes_ogs.tif
176
     1
290
     0
176
     1
 40
1.0
176
     1
 40
1.0
176
     1
1001
ACAD
1000
AcDbSavedByObjectVersion
1070
     0
  0
VISUALSTYLE
  5
80EB
102
{ACAD_REACTORS
330
80D9
102
}
330
80D9
100
AcDbVisualStyle
  2
Sketchy
 70
    24
177
     3
291
     0
 70
    58
 90
        1
176
     1
 90
        2
176
     1
 90
        2
176
     1
 90
        0
176
     1
 40
0.6
176
     1
 40
30.0
176
     1
 62
     7
420
 16777215
176
     1
 90
        2
176
     1
 90
        2
176
     1
 62
     7
176
     1
 62
     7
176
     1
 90
        1
176
     1
 90
        1
176
     1
 40
40.0
176
     1
 90
       11
176
     1
 62
     7
176
     1
 40
1.0
176
     1
 90
        1
176
     1
 90
        6
176
     1
 90
        2
176
     1
 62
     7
176
     1
 90
        6
176
     1
 90
        0
176
     1
 90
        0
176
     1
290
     0
176
     1
 90
        1
176
     1
 40
0.0
176
     1
 90
        0
176
     1
290
     0
176
     1
290
     1
176
     1
290
     1
176
     1
290
     0
176
     1
290
     0
176
     1
290
     0
176
     1
290
     0
176
     1
290
     0
176
     1
290
     0
176
     1
 90
       50
176
     1
 40
0.0
176
     1
 40
1.0
176
     1
 90
        0
176
     1
 62
    18
420
        0
176
     1
 90
       50
176
     1
 90
        3
176
     1
 62
     5
420
      255
176
     1
290
     0
176
     1
 90
       50
176
     1
 90
       50
176
     1
 90
       50
176
     1
290
     0
176
     1
 90
       50
176
     1
 62
   256
176
     0
 40
1.0
176
     0
 90
        2
176
     1
  1
strokes_ogs.tif
176
     1
290
     0
176
     1
 40
1.0
176
     1
 40
1.0
176
     1
1001
ACAD
1000
AcDbSavedByObjectVersion
1070
     0
  0
VISUALSTYLE
  5
80E6
102
{ACAD_REACTORS
330
80D9
102
}
330
80D9
100
AcDbVisualStyle
  2
Thicken
 70
    13
177
     3
291
     1
 70
    58
 90
        2
176
     1
 90
        2
176
     1
 90
        0
176
     1
 90
        0
176
     1
 40
0.6
176
     1
 40
30.0
176
     1
 62
     7
420
 16777215
176
     1
 90
        1
176
     1
 90
        4
176
     1
 62
     7
176
     1
 62
   257
176
     1
 90
        1
176
     1
 90
        1
176
     1
 40
1.0
176
     1
 90
       12
176
     1
 62
     7
176
     1
 40
1.0
176
     1
 90
        1
176
     1
 90
        6
176
     1
 90
        2
176
     1
 62
     7
176
     1
 90
        5
176
     1
 90
        0
176
     1
 90
        0
176
     1
290
     0
176
     1
 90
        1
176
     1
 40
0.0
176
     1
 90
        0
176
     1
290
     0
176
     1
290
     1
176
     1
290
     1
176
     1
290
     0
176
     1
290
     0
176
     1
290
     0
176
     1
290
     0
176
     1
290
     0
176
     1
290
     0
176
     1
 90
       50
176
     1
 40
0.0
176
     1
 40
1.0
176
     1
 90
        0
176
     1
 62
    18
420
        0
176
     1
 90
       50
176
     1
 90
        3
176
     1
 62
     5
420
      255
176
     1
290
     0
176
     1
 90
       50
176
     1
 90
       50
176
     1
 90
       50
176
     1
290
     0
176
     1
 90
       50
176
     1
 62
   256
176
     0
 40
1.0
176
     0
 90
        2
176
     1
  1
strokes_ogs.tif
176
     1
290
     0
176
     1
 40
1.0
176
     1
 40
1.0
176
     1
1001
ACAD
1000
AcDbSavedByObjectVersion
1070
     0
  0
VISUALSTYLE
  5
80E0
102
{ACAD_REACTORS
330
80D9
102
}
330
80D9
100
AcDbVisualStyle
  2
Wireframe
 70
     5
177
     3
291
     0
 70
    58
 90
        0
176
     1
 90
        2
176
     1
 90
        0
176
     1
 90
        0
176
     1
 40
0.6
176
     1
 40
30.0
176
     1
 62
     7
420
 16777215
176
     1
 90
        1
176
     1
 90
        4
176
     1
 62
     7
176
     1
 62
   257
176
     1
 90
        1
176
     1
 90
        1
176
     1
 40
1.0
176
     1
 90
        0
176
     1
 62
   257
176
     1
 40
1.0
176
     1
 90
        1
176
     1
 90
        6
176
     1
 90
        2
176
     1
 62
     7
176
     1
 90
        3
176
     1
 90
        0
176
     1
 90
        0
176
     1
290
     0
176
     1
 90
        1
176
     1
 40
0.0
176
     1
 90
        0
176
     1
290
     0
176
     1
290
     1
176
     1
290
     1
176
     1
290
     0
176
     1
290
     0
176
     1
290
     0
176
     1
290
     0
176
     1
290
     0
176
     1
290
     0
176
     1
 90
       50
176
     1
 40
0.0
176
     1
 40
1.0
176
     1
 90
        0
176
     1
 62
    18
420
        0
176
     1
 90
       50
176
     1
 90
        3
176
     1
 62
     5
420
      255
176
     1
290
     0
176
     1
 90
       50
176
     1
 90
       50
176
     1
 90
       50
176
     1
290
     0
176
     1
 90
       50
176
     1
 62
   256
176
     0
 40
1.0
176
     0
 90
        2
176
     1
  1
strokes_ogs.tif
176
     1
290
     0
176
     1
 40
1.0
176
     1
 40
1.0
176
     1
1001
ACAD
1000
AcDbSavedByObjectVersion
1070
     0
  0
VISUALSTYLE
  5
80EC
102
{ACAD_REACTORS
330
80D9
102
}
330
80D9
100
AcDbVisualStyle
  2
X-Ray
 70
    25
177
     3
291
     0
 70
    58
 90
        2
176
     1
 90
        2
176
     1
 90
        1
176
     1
 90
        1
176
     1
 40
0.5
176
     1
 40
30.0
176
     1
 62
     7
420
 16777215
176
     1
 90
        1
176
     1
 90
        0
176
     1
 62
     7
176
     1
 62
   257
176
     1
 90
        1
176
     1
 90
        1
176
     1
 40
1.0
176
     1
 90
        8
176
     1
 62
     7
176
     1
 40
1.0
176
     1
 90
        1
176
     1
 90
        6
176
     1
 90
        2
176
     1
 62
     7
176
     1
 90
        3
176
     1
 90
        0
176
     1
 90
        0
176
     1
290
     0
176
     1
 90
       13
176
     1
 40
0.0
176
     1
 90
        0
176
     1
290
     0
176
     1
290
     1
176
     1
290
     1
176
     1
290
     0
176
     1
290
     0
176
     1
290
     0
176
     1
290
     0
176
     1
290
     0
176
     1
290
     0
176
     1
 90
       50
176
     1
 40
0.0
176
     1
 40
1.0
176
     1
 90
        0
176
     1
 62
    18
420
        0
176
     1
 90
       50
176
     1
 90
        3
176
     1
 62
     5
420
      255
176
     1
290
     0
176
     1
 90
       50
176
     1
 90
       50
176
     1
 90
       50
176
     1
290
     0
176
     1
 90
       50
176
     1
 62
   256
176
     0
 40
1.0
176
     0
 90
        2
176
     1
  1
strokes_ogs.tif
176
     1
290
     0
176
     1
 40
1.0
176
     1
 40
1.0
176
     1
1001
ACAD
1000
AcDbSavedByObjectVersion
1070
     0
  0
DICTIONARYVAR
  5
8400
102
{ACAD_REACTORS
330
83FA
102
}
330
83FA
100
DictionaryVariables
280
     0
  1
1:1
  0
DICTIONARYVAR
  5
83FC
102
{ACAD_REACTORS
330
83FA
102
}
330
83FA
100
DictionaryVariables
280
     0
  1
STANDARD
  0
DICTIONARYVAR
  5
83FB
102
{ACAD_REACTORS
330
83FA
102
}
330
83FA
100
DictionaryVariables
280
     0
  1
STANDARD
  0
DICTIONARYVAR
  5
83FD
102
{ACAD_REACTORS
330
83FA
102
}
330
83FA
100
DictionaryVariables
280
     0
  1
Metric50
  0
DICTIONARYVAR
  5
83FE
102
{ACAD_REACTORS
330
83FA
102
}
330
83FA
100
DictionaryVariables
280
     0
  1
Metric50
  0
DICTIONARYVAR
  5
8402
102
{ACAD_REACTORS
330
83FA
102
}
330
83FA
100
DictionaryVariables
280
     0
  1
1
  0
DICTIONARYVAR
  5
8403
102
{ACAD_REACTORS
330
83FA
102
}
330
83FA
100
DictionaryVariables
280
     0
  1
15
  0
DICTIONARYVAR
  5
8401
102
{ACAD_REACTORS
330
83FA
102
}
330
83FA
100
DictionaryVariables
280
     0
  1
0
  0
DICTIONARYVAR
  5
8408
102
{ACAD_REACTORS
330
83FA
102
}
330
83FA
100
DictionaryVariables
280
     0
  1
0
  0
DICTIONARYVAR
  5
83FF
102
{ACAD_REACTORS
330
83FA
102
}
330
83FA
100
DictionaryVariables
280
     0
  1
0
  0
DICTIONARY
  5
8413
102
{ACAD_REACTORS
330
8411
102
}
330
8411
100
AcDbDictionary
281
     1
  0
DICTIONARY
  5
8412
102
{ACAD_REACTORS
330
8411
102
}
330
8411
100
AcDbDictionary
281
     1
  3
2044496468416
350
840C
  3
2044496468432
350
840D
  3
2044496468448
350
840E
  3
2044496468464
350
840F
  3
2044496468480
350
8410
  0
DICTIONARY
  5
8416
330
810C
100
AcDbDictionary
280
     1
281
     1
  3
ACAD_XREC_ROUNDTRIP
360
8417
  0
DICTIONARY
  5
80CA
330
80C9
100
AcDbDictionary
280
     1
281
     1
  3
BUMPTILE
360
80CC
  3
DIFFUSETILE
360
80CB
  3
OPACITYTILE
360
80CF
  3
REFLECTIONTILE
360
80CE
  3
REFRACTIONTILE
360
80D0
  3
SPECULARTILE
360
80CD
  0
DICTIONARY
  5
80C2
330
80C1
100
AcDbDictionary
280
     1
281
     1
  3
BUMPTILE
360
80C4
  3
DIFFUSETILE
360
80C3
  3
OPACITYTILE
360
80C7
  3
REFLECTIONTILE
360
80C6
  3
REFRACTIONTILE
360
80C8
  3
SPECULARTILE
360
80C5
  0
DICTIONARY
  5
80D2
330
80D1
100
AcDbDictionary
280
     1
281
     1
  3
BUMPTILE
360
80D4
  3
DIFFUSETILE
360
80D3
  3
OPACITYTILE
360
80D7
  3
REFLECTIONTILE
360
80D6
  3
REFRACTIONTILE
360
80D8
  3
SPECULARTILE
360
80D5
  0
DICTIONARY
  5
8414
330
810A
100
AcDbDictionary
280
     1
281
     1
  3
ACAD_XREC_ROUNDTRIP
360
8415
  0
DICTIONARY
  5
8409
330
80F4
100
AcDbDictionary
280
     1
281
     1
  3
ACAD_ROUNDTRIP_2008_TABLESTYLE_CELLSTYLEMAP
360
840A
  0
XRECORD
  5
840C
102
{ACAD_REACTORS
330
8412
102
}
330
8412
100
AcDbXrecord
280
     1
  1
AcDb_Thumbnail_Schema
102
{ATTRRECORD
341
840D
  2
AcDbDs::TreatedAsObjectData
280
     1
291
     1
102
ATTRRECORD}
102
{ATTRRECORD
341
840E
  2
AcDbDs::Legacy
280
     1
291
     1
102
ATTRRECORD}
  2
AcDbDs::ID
280
    10
 91
        8
102
{ATTRRECORD
341
840F
  2
AcDs:Indexable
280
     1
291
     1
102
ATTRRECORD}
102
{ATTRRECORD
341
8410
  2
AcDbDs::HandleAttribute
280
     7
282
     1
102
ATTRRECORD}
  2
Thumbnail_Data
280
    15
 91
        0
  0
XRECORD
  5
840D
102
{ACAD_REACTORS
330
8412
102
}
330
8412
100
AcDbXrecord
280
     1
  1
AcDbDs::TreatedAsObjectDataSchema
  2
AcDbDs::TreatedAsObjectData
280
     1
 91
        0
  0
XRECORD
  5
840E
102
{ACAD_REACTORS
330
8412
102
}
330
8412
100
AcDbXrecord
280
     1
  1
AcDbDs::LegacySchema
  2
AcDbDs::Legacy
280
     1
 91
        0
  0
XRECORD
  5
840F
102
{ACAD_REACTORS
330
8412
102
}
330
8412
100
AcDbXrecord
280
     1
  1
AcDbDs::IndexedPropertySchema
  2
AcDs:Indexable
280
     1
 91
        0
  0
XRECORD
  5
8410
102
{ACAD_REACTORS
330
8412
102
}
330
8412
100
AcDbXrecord
280
     1
  1
AcDbDs::HandleAttributeSchema
  2
AcDbDs::HandleAttribute
280
     7
 91
        1
284
     1
  0
XRECORD
  5
8417
102
{ACAD_REACTORS
330
8416
102
}
330
8416
100
AcDbXrecord
280
     1
102
DISPLAYNAME
  1
Metric50
102
FLAGS
 90
        0
  0
XRECORD
  5
80CC
102
{ACAD_REACTORS
330
80CA
102
}
330
80CA
100
AcDbXrecord
280
     1
270
     1
271
     1
  0
XRECORD
  5
80CB
102
{ACAD_REACTORS
330
80CA
102
}
330
80CA
100
AcDbXrecord
280
     1
270
     1
271
     1
  0
XRECORD
  5
80CF
102
{ACAD_REACTORS
330
80CA
102
}
330
80CA
100
AcDbXrecord
280
     1
270
     1
271
     1
  0
XRECORD
  5
80CE
102
{ACAD_REACTORS
330
80CA
102
}
330
80CA
100
AcDbXrecord
280
     1
270
     1
271
     1
  0
XRECORD
  5
80D0
102
{ACAD_REACTORS
330
80CA
102
}
330
80CA
100
AcDbXrecord
280
     1
270
     1
271
     1
  0
XRECORD
  5
80CD
102
{ACAD_REACTORS
330
80CA
102
}
330
80CA
100
AcDbXrecord
280
     1
270
     1
271
     1
  0
XRECORD
  5
80C4
102
{ACAD_REACTORS
330
80C2
102
}
330
80C2
100
AcDbXrecord
280
     1
270
     1
271
     1
  0
XRECORD
  5
80C3
102
{ACAD_REACTORS
330
80C2
102
}
330
80C2
100
AcDbXrecord
280
     1
270
     1
271
     1
  0
XRECORD
  5
80C7
102
{ACAD_REACTORS
330
80C2
102
}
330
80C2
100
AcDbXrecord
280
     1
270
     1
271
     1
  0
XRECORD
  5
80C6
102
{ACAD_REACTORS
330
80C2
102
}
330
80C2
100
AcDbXrecord
280
     1
270
     1
271
     1
  0
XRECORD
  5
80C8
102
{ACAD_REACTORS
330
80C2
102
}
330
80C2
100
AcDbXrecord
280
     1
270
     1
271
     1
  0
XRECORD
  5
80C5
102
{ACAD_REACTORS
330
80C2
102
}
330
80C2
100
AcDbXrecord
280
     1
270
     1
271
     1
  0
XRECORD
  5
80D4
102
{ACAD_REACTORS
330
80D2
102
}
330
80D2
100
AcDbXrecord
280
     1
270
     1
271
     1
  0
XRECORD
  5
80D3
102
{ACAD_REACTORS
330
80D2
102
}
330
80D2
100
AcDbXrecord
280
     1
270
     1
271
     1
  0
XRECORD
  5
80D7
102
{ACAD_REACTORS
330
80D2
102
}
330
80D2
100
AcDbXrecord
280
     1
270
     1
271
     1
  0
XRECORD
  5
80D6
102
{ACAD_REACTORS
330
80D2
102
}
330
80D2
100
AcDbXrecord
280
     1
270
     1
271
     1
  0
XRECORD
  5
80D8
102
{ACAD_REACTORS
330
80D2
102
}
330
80D2
100
AcDbXrecord
280
     1
270
     1
271
     1
  0
XRECORD
  5
80D5
102
{ACAD_REACTORS
330
80D2
102
}
330
80D2
100
AcDbXrecord
280
     1
270
     1
271
     1
  0
XRECORD
  5
8415
102
{ACAD_REACTORS
330
8414
102
}
330
8414
100
AcDbXrecord
280
     1
102
DISPLAYNAME
  1
Metric50
102
FLAGS
 90
        0
  0
CELLSTYLEMAP
  5
840A
102
{ACAD_REACTORS
330
8409
102
}
330
8409
100
AcDbCellStyleMap
 90
        3
300
CELLSTYLE
  1
TABLEFORMAT_BEGIN
 90
        5
170
     1
 91
        0
 92
    32768
 62
   257
 93
        1
300
CONTENTFORMAT
  1
CONTENTFORMAT_BEGIN
 90
        0
 91
        0
 92
      512
 93
        0
300

 40
0.0
140
1.0
 94
        5
 62
     0
340
10
144
6.0
309
CONTENTFORMAT_END
171
     1
301
MARGIN
  1
CELLMARGIN_BEGIN
 40
1.5
 40
1.5
 40
1.5
 40
1.5
 40
4.5
 40
4.5
309
CELLMARGIN_END
 94
        6
 95
        1
302
GRIDFORMAT
  1
GRIDFORMAT_BEGIN
 90
        0
 91
        1
 62
     0
 92
       -2
340
0
 93
        0
 40
1.125
309
GRIDFORMAT_END
 95
        2
302
GRIDFORMAT
  1
GRIDFORMAT_BEGIN
 90
        0
 91
        1
 62
     0
 92
       -2
340
0
 93
        0
 40
1.125
309
GRIDFORMAT_END
 95
        4
302
GRIDFORMAT
  1
GRIDFORMAT_BEGIN
 90
        0
 91
        1
 62
     0
 92
       -2
340
0
 93
        0
 40
1.125
309
GRIDFORMAT_END
 95
        8
302
GRIDFORMAT
  1
GRIDFORMAT_BEGIN
 90
        0
 91
        1
 62
     0
 92
       -2
340
0
 93
        0
 40
1.125
309
GRIDFORMAT_END
 95
       16
302
GRIDFORMAT
  1
GRIDFORMAT_BEGIN
 90
        0
 91
        1
 62
     0
 92
       -2
340
0
 93
        0
 40
1.125
309
GRIDFORMAT_END
 95
       32
302
GRIDFORMAT
  1
GRIDFORMAT_BEGIN
 90
        0
 91
        1
 62
     0
 92
       -2
340
0
 93
        0
 40
1.125
309
GRIDFORMAT_END
309
TABLEFORMAT_END
  1
CELLSTYLE_BEGIN
 90
        1
 91
        1
300
_TITLE
309
CELLSTYLE_END
300
CELLSTYLE
  1
TABLEFORMAT_BEGIN
 90
        5
170
     1
 91
        0
 92
        0
 62
   257
 93
        1
300
CONTENTFORMAT
  1
CONTENTFORMAT_BEGIN
 90
        0
 91
        0
 92
      512
 93
        0
300

 40
0.0
140
1.0
 94
        5
 62
     0
340
10
144
4.5
309
CONTENTFORMAT_END
171
     1
301
MARGIN
  1
CELLMARGIN_BEGIN
 40
1.5
 40
1.5
 40
1.5
 40
1.5
 40
4.5
 40
4.5
309
CELLMARGIN_END
 94
        6
 95
        1
302
GRIDFORMAT
  1
GRIDFORMAT_BEGIN
 90
        0
 91
        1
 62
     0
 92
       -2
340
0
 93
        0
 40
1.125
309
GRIDFORMAT_END
 95
        2
302
GRIDFORMAT
  1
GRIDFORMAT_BEGIN
 90
        0
 91
        1
 62
     0
 92
       -2
340
0
 93
        0
 40
1.125
309
GRIDFORMAT_END
 95
        4
302
GRIDFORMAT
  1
GRIDFORMAT_BEGIN
 90
        0
 91
        1
 62
     0
 92
       -2
340
0
 93
        0
 40
1.125
309
GRIDFORMAT_END
 95
        8
302
GRIDFORMAT
  1
GRIDFORMAT_BEGIN
 90
        0
 91
        1
 62
     0
 92
       -2
340
0
 93
        0
 40
1.125
309
GRIDFORMAT_END
 95
       16
302
GRIDFORMAT
  1
GRIDFORMAT_BEGIN
 90
        0
 91
        1
 62
     0
 92
       -2
340
0
 93
        0
 40
1.125
309
GRIDFORMAT_END
 95
       32
302
GRIDFORMAT
  1
GRIDFORMAT_BEGIN
 90
        0
 91
        1
 62
     0
 92
       -2
340
0
 93
        0
 40
1.125
309
GRIDFORMAT_END
309
TABLEFORMAT_END
  1
CELLSTYLE_BEGIN
 90
        2
 91
        1
300
_HEADER
309
CELLSTYLE_END
300
CELLSTYLE
  1
TABLEFORMAT_BEGIN
 90
        5
170
     1
 91
        0
 92
        0
 62
   257
 93
        1
300
CONTENTFORMAT
  1
CONTENTFORMAT_BEGIN
 90
        0
 91
        0
 92
      512
 93
        0
300

 40
0.0
140
1.0
 94
        2
 62
     0
340
10
144
4.5
309
CONTENTFORMAT_END
171
     1
301
MARGIN
  1
CELLMARGIN_BEGIN
 40
1.5
 40
1.5
 40
1.5
 40
1.5
 40
4.5
 40
4.5
309
CELLMARGIN_END
 94
        6
 95
        1
302
GRIDFORMAT
  1
GRIDFORMAT_BEGIN
 90
        0
 91
        1
 62
     0
 92
       -2
340
0
 93
        0
 40
1.125
309
GRIDFORMAT_END
 95
        2
302
GRIDFORMAT
  1
GRIDFORMAT_BEGIN
 90
        0
 91
        1
 62
     0
 92
       -2
340
0
 93
        0
 40
1.125
309
GRIDFORMAT_END
 95
        4
302
GRIDFORMAT
  1
GRIDFORMAT_BEGIN
 90
        0
 91
        1
 62
     0
 92
       -2
340
0
 93
        0
 40
1.125
309
GRIDFORMAT_END
 95
        8
302
GRIDFORMAT
  1
GRIDFORMAT_BEGIN
 90
        0
 91
        1
 62
     0
 92
       -2
340
0
 93
        0
 40
1.125
309
GRIDFORMAT_END
 95
       16
302
GRIDFORMAT
  1
GRIDFORMAT_BEGIN
 90
        0
 91
        1
 62
     0
 92
       -2
340
0
 93
        0
 40
1.125
309
GRIDFORMAT_END
 95
       32
302
GRIDFORMAT
  1
GRIDFORMAT_BEGIN
 90
        0
 91
        1
 62
     0
 92
       -2
340
0
 93
        0
 40
1.125
309
GRIDFORMAT_END
309
TABLEFORMAT_END
  1
CELLSTYLE_BEGIN
 90
        3
 91
        2
300
_DATA
309
CELLSTYLE_END
  0
ENDSEC
  0
SECTION
  2
ACDSDATA
 70
     2
 71
     8
  0
ACDSSCHEMA
 90
        0
  1
AcDb_Thumbnail_Schema
  2
AcDbDs::ID
280
    10
 91
        8
  2
Thumbnail_Data
280
    15
 91
        0
101
ACDSRECORD
 95
        0
 90
        1
  2
AcDbDs::TreatedAsObjectData
280
     1
291
     1
101
ACDSRECORD
 95
        0
 90
        2
  2
AcDbDs::Legacy
280
     1
291
     1
101
ACDSRECORD
  1
AcDbDs::ID
 90
        3
  2
AcDs:Indexable
280
     1
291
     1
101
ACDSRECORD
  1
AcDbDs::ID
 90
        4
  2
AcDbDs::HandleAttribute
280
     7
282
     1
  0
ACDSSCHEMA
 90
        1
  1
AcDbDs::TreatedAsObjectDataSchema
  2
AcDbDs::TreatedAsObjectData
280
     1
 91
        0
  0
ACDSSCHEMA
 90
        2
  1
AcDbDs::LegacySchema
  2
AcDbDs::Legacy
280
     1
 91
        0
  0
ACDSSCHEMA
 90
        3
  1
AcDbDs::IndexedPropertySchema
  2
AcDs:Indexable
280
     1
 91
        0
  0
ACDSSCHEMA
 90
        4
  1
AcDbDs::HandleAttributeSchema
  2
AcDbDs::HandleAttribute
280
     7
 91
        1
284
     1
  0
ACDSRECORD
 90
        0
  2
AcDbDs::ID
280
    10
320
806E
  2
Thumbnail_Data
280
    15
 94
     1709
310
89504E470D0A1A0A0000000D49484452000001000000007C0803000000B13B9E5A00000300504C5445000000000000C8C8C80000000000000000000000000000000000000000000000000000330000660000990000CC0000FF0033000033330033660033990033CC0033FF0066000066330066660066990066CC0066FF0099
310
000099330099660099990099CC0099FF00CC0000CC3300CC6600CC9900CCCC00CCFF00FF0000FF3300FF6600FF9900FFCC00FFFF3300003300333300663300993300CC3300FF3333003333333333663333993333CC3333FF3366003366333366663366993366CC3366FF3399003399333399663399993399CC3399FF33CC00
310
33CC3333CC6633CC9933CCCC33CCFF33FF0033FF3333FF6633FF9933FFCC33FFFF6600006600336600666600996600CC6600FF6633006633336633666633996633CC6633FF6666006666336666666666996666CC6666FF6699006699336699666699996699CC6699FF66CC0066CC3366CC6666CC9966CCCC66CCFF66FF0066
310
FF3366FF6666FF9966FFCC66FFFF9900009900339900669900999900CC9900FF9933009933339933669933999933CC9933FF9966009966339966669966999966CC9966FF9999009999339999669999999999CC9999FF99CC0099CC3399CC6699CC9999CCCC99CCFF99FF0099FF3399FF6699FF9999FFCC99FFFFCC0000CC00
310
33CC0066CC0099CC00CCCC00FFCC3300CC3333CC3366CC3399CC33CCCC33FFCC6600CC6633CC6666CC6699CC66CCCC66FFCC9900CC9933CC9966CC9999CC99CCCC99FFCCCC00CCCC33CCCC66CCCC99CCCCCCCCCCFFCCFF00CCFF33CCFF66CCFF99CCFFCCCCFFFFFF0000FF0033FF0066FF0099FF00CCFF00FFFF3300FF3333
310
FF3366FF3399FF33CCFF33FFFF6600FF6633FF6666FF6699FF66CCFF66FFFF9900FF9933FF9966FF9999FF99CCFF99FFFFCC00FFCC33FFCC66FFCC99FFCCCCFFCCFFFFFF00FFFF33FFFF66FFFF99FFFFCCFFFFFF0000000D0D0D1A1A1A2828283535354343435050505D5D5D6B6B6B787878868686939393A1A1A1AEAEAEBB
310
BBBBC9C9C9D6D6D6E4E4E4F1F1F1FFFFFF00000000000000000000000000000000000000000000000000000000000008F1915C0000035C4944415478DAED9D598E23210C407D1C7EB8FF657C0DFEA70B3098356929AD8917A456A855F12B6F18BA02F0072DFD5103292D89BAAD0370000EC0013880EFF9A697E06705C07479
310
32A901E60124CB00262B900DE0A323009100BEEC660EE03F00A87ACC543A0D7D20252FE776CBA93B350080223474B1A16E92CF4BA9660089BA50C828F001CB531FFC5B2239470D6007B49800257989DBC45DB6E44ED0F3008383A197262110C0E6918E81B05ED222048F83EA015034E80903F470A8A520B2097E238D060074
310
02F8D0F55E1374000A00E0D3F886210038004006008D003837431AB0DD72000E403B80C7CE23C6DC42F9B00600202ECD92093C006A37D03E07E0001C800330022027BB2B80D6DE4C87650308314CAD6B407C4F0BD46980037000753382721F708E022525B60CE067D3015801B01B0D1200E54EB002A8E90FDF6F05405670DB
310
009E92D0B9A17A1F40439EA9145477182A8A1E14C00E001E06FBA6BDB2F834FEF5A9311B00BEF5B60EC0017CD537C5EE1471F28F7A005C1C1F738A8B7F140E00A730B839824C6AA42EEA01F0320CBE8891D201407BA2452C5C1221DC1989620DD80340E4005469C0F4448F005499C02C0D1B0F9F00CCA502E900483EACE5A0
310
4065A10380380E1AA37400CD8A4B61B85743DF04C08C40018047F84004DED60035008AE4A10A192D02C8E61F8B0FD801C8FB150368354160923200710B40BA0F6851A03EFA4091700BA0D58C1501E8194008CF5F288B457F3EF600A67524A201B4811DB9C02C784904E25E03161388BA004073856C82C40C802C7E00CA851A
310
82AB0F00900F20677359EB592E9827454BEF1A05C403A0311D53FD2C387305370028DE090E009A21F4E502314E26504E611A207930B40020C9C8DB0D93A3CD01E80150334184050094909F730206A02D22D503A0470106A03FFDA05E0316002C0398D607A80480DC04B6EB430600DA9C2001382F110AC30A9178F9D72AF945
310
D12380B80110AC008807007A35006F26D00FE2BA804AECC408EE3E3627C07DBA4C2A0036C9C7677B8749D1A57ED27AAA00BCB148EABA804ABE061837814FBB16714ED02E0070000EC00138003A64FD8D92BF97CC0400FECEE5F13DBCFA00C0E66793469187774EAAD6009B3E60AF01C34BB52DFA0093000E76614803FCCDD2
310
9E0A3B0007E0001C800370000EC001380007A00C80A09FDEFE071C9C49CE9DF545670000000049454E44AE4260820049454E44AE426082426082
  0
ENDSEC
  0
EOF
