  0
SECTION
  2
HEADER
  9
$ACADVER
  1
AC1027
  9
$ACADMAINTVER
 70
   125
  9
$DWGCODEPAGE
  3
ANSI_932
  9
$LASTSAVEDBY
  1
yasukiyo.ogawa
  9
$REQUIREDVERSIONS
160
                 0
  9
$INSBASE
 10
0.0
 20
0.0
 30
0.0
  9
$EXTMIN
 10
0.0
 20
0.0
 30
0.0
  9
$EXTMAX
 10
6300.0
 20
8850.0
 30
0.0
  9
$LIMMIN
 10
0.0
 20
0.0
  9
$LIMMAX
 10
297.0
 20
210.0
  9
$ORTHOMODE
 70
     1
  9
$REGENMODE
 70
     1
  9
$FILLMODE
 70
     0
  9
$QTEXTMODE
 70
     0
  9
$MIRRTEXT
 70
     1
  9
$LTSCALE
 40
100.0
  9
$ATTMODE
 70
     1
  9
$TEXTSIZE
 40
180.0
  9
$TRACEWID
 40
0.05
  9
$TEXTSTYLE
  7
STANDARD
  9
$CLAYER
  8
3
  9
$CELTYPE
  6
BYLAYER
  9
$CECOLOR
 62
   256
  9
$CELTSCALE
 40
1.0
  9
$DISPSILH
 70
     0
  9
$DIMSCALE
 40
30.0
  9
$DIMASZ
 40
2.0
  9
$DIMEXO
 40
0.5
  9
$DIMDLI
 40
10.0
  9
$DIMRND
 40
0.0
  9
$DIMDLE
 40
0.0
  9
$DIMEXE
 40
1.0
  9
$DIMTP
 40
1.0
  9
$DIMTM
 40
1.0
  9
$DIMTXT
 40
3.0
  9
$DIMCEN
 40
0.0
  9
$DIMTSZ
 40
0.0
  9
$DIMTOL
 70
     0
  9
$DIMLIM
 70
     0
  9
$DIMTIH
 70
     0
  9
$DIMTOH
 70
     0
  9
$DIMSE1
 70
     0
  9
$DIMSE2
 70
     0
  9
$DIMTAD
 70
     1
  9
$DIMZIN
 70
     8
  9
$DIMBLK
  1

  9
$DIMASO
 70
     1
  9
$DIMSHO
 70
     1
  9
$DIMPOST
  1

  9
$DIMAPOST
  1

  9
$DIMALT
 70
     0
  9
$DIMALTD
 70
     2
  9
$DIMALTF
 40
0.039
  9
$DIMLFAC
 40
1.0
  9
$DIMTOFL
 70
     1
  9
$DIMTVP
 40
0.0
  9
$DIMTIX
 70
     0
  9
$DIMSOXD
 70
     0
  9
$DIMSAH
 70
     1
  9
$DIMBLK1
  1
OPEN
  9
$DIMBLK2
  1
OPEN
  9
$DIMSTYLE
  2
IGA
  9
$DIMCLRD
 70
     0
  9
$DIMCLRE
 70
     0
  9
$DIMCLRT
 70
     0
  9
$DIMTFAC
 40
10.0
  9
$DIMGAP
 40
1.0
  9
$DIMJUST
 70
     0
  9
$DIMSD1
 70
     0
  9
$DIMSD2
 70
     0
  9
$DIMTOLJ
 70
     1
  9
$DIMTZIN
 70
     8
  9
$DIMALTZ
 70
     0
  9
$DIMALTTZ
 70
     0
  9
$DIMUPT
 70
     0
  9
$DIMDEC
 70
     0
  9
$DIMTDEC
 70
     0
  9
$DIMALTU
 70
     2
  9
$DIMALTTD
 70
     2
  9
$DIMTXSTY
  7
STANDARD
  9
$DIMAUNIT
 70
     0
  9
$DIMADEC
 70
     0
  9
$DIMALTRND
 40
0.0
  9
$DIMAZIN
 70
     0
  9
$DIMDSEP
 70
    46
  9
$DIMATFIT
 70
     3
  9
$DIMFRAC
 70
     0
  9
$DIMLDRBLK
  1
OPEN
  9
$DIMLUNIT
 70
     2
  9
$DIMLWD
 70
    -2
  9
$DIMLWE
 70
    -2
  9
$DIMTMOVE
 70
     2
  9
$DIMFXL
 40
1.0
  9
$DIMFXLON
 70
     0
  9
$DIMJOGANG
 40
0.7853981633974483
  9
$DIMTFILL
 70
     0
  9
$DIMTFILLCLR
 70
     0
  9
$DIMARCSYM
 70
     0
  9
$DIMLTYPE
  6

  9
$DIMLTEX1
  6

  9
$DIMLTEX2
  6

  9
$DIMTXTDIRECTION
 70
     0
  9
$LUNITS
 70
     2
  9
$LUPREC
 70
     3
  9
$SKETCHINC
 40
0.1
  9
$FILLETRAD
 40
50.0
  9
$AUNITS
 70
     0
  9
$AUPREC
 70
     0
  9
$MENU
  1
acad
  9
$ELEVATION
 40
0.0
  9
$PELEVATION
 40
0.0
  9
$THICKNESS
 40
0.0
  9
$LIMCHECK
 70
     0
  9
$CHAMFERA
 40
0.5
  9
$CHAMFERB
 40
0.5
  9
$CHAMFERC
 40
20.0
  9
$CHAMFERD
 40
0.0
  9
$SKPOLY
 70
     0
  9
$TDCREATE
 40
2451382.393877315
  9
$TDUCREATE
 40
2451382.018882524
  9
$TDUPDATE
 40
2460241.596504630
  9
$TDUUPDATE
 40
2460241.221509364
  9
$TDINDWG
 40
0.0413615741
  9
$TDUSRTIMER
 40
0.0413615741
  9
$USRTIMER
 70
     1
  9
$ANGBASE
 50
0.0
  9
$ANGDIR
 70
     0
  9
$PDMODE
 70
     0
  9
$PDSIZE
 40
0.0
  9
$PLINEWID
 40
0.0
  9
$SPLFRAME
 70
     0
  9
$SPLINETYPE
 70
     6
  9
$SPLINESEGS
 70
     8
  9
$HANDSEED
  5
84AB
  9
$SURFTAB1
 70
     6
  9
$SURFTAB2
 70
     6
  9
$SURFTYPE
 70
     6
  9
$SURFU
 70
     6
  9
$SURFV
 70
     6
  9
$UCSBASE
  2

  9
$UCSNAME
  2

  9
$UCSORG
 10
0.0
 20
0.0
 30
0.0
  9
$UCSXDIR
 10
1.0
 20
0.0
 30
0.0
  9
$UCSYDIR
 10
0.0
 20
1.0
 30
0.0
  9
$UCSORTHOREF
  2

  9
$UCSORTHOVIEW
 70
     0
  9
$UCSORGTOP
 10
0.0
 20
0.0
 30
0.0
  9
$UCSORGBOTTOM
 10
0.0
 20
0.0
 30
0.0
  9
$UCSORGLEFT
 10
0.0
 20
0.0
 30
0.0
  9
$UCSORGRIGHT
 10
0.0
 20
0.0
 30
0.0
  9
$UCSORGFRONT
 10
0.0
 20
0.0
 30
0.0
  9
$UCSORGBACK
 10
0.0
 20
0.0
 30
0.0
  9
$PUCSBASE
  2

  9
$PUCSNAME
  2

  9
$PUCSORG
 10
0.0
 20
0.0
 30
0.0
  9
$PUCSXDIR
 10
1.0
 20
0.0
 30
0.0
  9
$PUCSYDIR
 10
0.0
 20
1.0
 30
0.0
  9
$PUCSORTHOREF
  2

  9
$PUCSORTHOVIEW
 70
     0
  9
$PUCSORGTOP
 10
0.0
 20
0.0
 30
0.0
  9
$PUCSORGBOTTOM
 10
0.0
 20
0.0
 30
0.0
  9
$PUCSORGLEFT
 10
0.0
 20
0.0
 30
0.0
  9
$PUCSORGRIGHT
 10
0.0
 20
0.0
 30
0.0
  9
$PUCSORGFRONT
 10
0.0
 20
0.0
 30
0.0
  9
$PUCSORGBACK
 10
0.0
 20
0.0
 30
0.0
  9
$USERI1
 70
     0
  9
$USERI2
 70
     0
  9
$USERI3
 70
     0
  9
$USERI4
 70
     0
  9
$USERI5
 70
     0
  9
$USERR1
 40
0.0
  9
$USERR2
 40
0.0
  9
$USERR3
 40
0.0
  9
$USERR4
 40
0.0
  9
$USERR5
 40
0.0
  9
$WORLDVIEW
 70
     1
  9
$SHADEDGE
 70
     3
  9
$SHADEDIF
 70
    70
  9
$TILEMODE
 70
     1
  9
$MAXACTVP
 70
    16
  9
$PINSBASE
 10
0.0
 20
0.0
 30
0.0
  9
$PLIMCHECK
 70
     0
  9
$PEXTMIN
 10
1.000000000000000E+20
 20
1.000000000000000E+20
 30
1.000000000000000E+20
  9
$PEXTMAX
 10
-1.000000000000000E+20
 20
-1.000000000000000E+20
 30
-1.000000000000000E+20
  9
$PLIMMIN
 10
0.0
 20
0.0
  9
$PLIMMAX
 10
12.0
 20
9.0
  9
$UNITMODE
 70
     0
  9
$VISRETAIN
 70
     0
  9
$PLINEGEN
 70
     0
  9
$PSLTSCALE
 70
     1
  9
$TREEDEPTH
 70
  3020
  9
$CMLSTYLE
  2
STANDARD
  9
$CMLJUST
 70
     0
  9
$CMLSCALE
 40
20.0
  9
$PROXYGRAPHICS
 70
     1
  9
$MEASUREMENT
 70
     1
  9
$CELWEIGHT
370
    -1
  9
$ENDCAPS
280
     0
  9
$JOINSTYLE
280
     0
  9
$LWDISPLAY
290
     0
  9
$INSUNITS
 70
     0
  9
$HYPERLINKBASE
  1

  9
$STYLESHEET
  1

  9
$XEDIT
290
     1
  9
$CEPSNTYPE
380
     0
  9
$PSTYLEMODE
290
     1
  9
$FINGERPRINTGUID
  2
{8DD5B2D9-ACF8-4AD4-AB2C-53D8B0A26476}
  9
$VERSIONGUID
  2
{B1656867-43F6-41BD-B6DD-12471EC3B0D5}
  9
$EXTNAMES
290
     1
  9
$PSVPSCALE
 40
0.0
  9
$OLESTARTUP
290
     0
  9
$SORTENTS
280
   127
  9
$INDEXCTL
280
     0
  9
$HIDETEXT
280
     0
  9
$XCLIPFRAME
280
     2
  9
$HALOGAP
280
     0
  9
$OBSCOLOR
 70
   257
  9
$OBSLTYPE
280
     0
  9
$INTERSECTIONDISPLAY
280
     0
  9
$INTERSECTIONCOLOR
 70
   257
  9
$DIMASSOC
280
     1
  9
$PROJECTNAME
  1

  9
$CAMERADISPLAY
290
     0
  9
$LENSLENGTH
 40
50.0
  9
$CAMERAHEIGHT
 40
0.0
  9
$STEPSPERSEC
 40
2.0
  9
$STEPSIZE
 40
6.0
  9
$3DDWFPREC
 40
2.0
  9
$PSOLWIDTH
 40
0.25
  9
$PSOLHEIGHT
 40
4.0
  9
$LOFTANG1
 40
1.570796326794896
  9
$LOFTANG2
 40
1.570796326794896
  9
$LOFTMAG1
 40
0.0
  9
$LOFTMAG2
 40
0.0
  9
$LOFTPARAM
 70
     7
  9
$LOFTNORMALS
280
     1
  9
$LATITUDE
 40
37.795
  9
$LONGITUDE
 40
-122.394
  9
$NORTHDIRECTION
 40
0.0
  9
$TIMEZONE
 70
 -8000
  9
$LIGHTGLYPHDISPLAY
280
     1
  9
$TILEMODELIGHTSYNCH
280
     1
  9
$CMATERIAL
347
80BC
  9
$SOLIDHIST
280
     0
  9
$SHOWHIST
280
     1
  9
$DWFFRAME
280
     2
  9
$DGNFRAME
280
     0
  9
$REALWORLDSCALE
290
     1
  9
$INTERFERECOLOR
 62
     1
  9
$INTERFEREOBJVS
345
80DE
  9
$INTERFEREVPVS
346
80DB
  9
$CSHADOW
280
     0
  9
$SHADOWPLANELOCATION
 40
0.0
  0
ENDSEC
  0
SECTION
  2
CLASSES
  0
CLASS
  1
ACDBDICTIONARYWDFLT
  2
AcDbDictionaryWithDefault
  3
ObjectDBX Classes
 90
        0
 91
        1
280
     0
281
     0
  0
CLASS
  1
MATERIAL
  2
AcDbMaterial
  3
ObjectDBX Classes
 90
     1153
 91
        3
280
     0
281
     0
  0
CLASS
  1
VISUALSTYLE
  2
AcDbVisualStyle
  3
ObjectDBX Classes
 90
     4095
 91
       24
280
     0
281
     0
  0
CLASS
  1
TABLESTYLE
  2
AcDbTableStyle
  3
ObjectDBX Classes
 90
     4095
 91
        1
280
     0
281
     0
  0
CLASS
  1
SCALE
  2
AcDbScale
  3
ObjectDBX Classes
 90
     1153
 91
       17
280
     0
281
     0
  0
CLASS
  1
MLEADERSTYLE
  2
AcDbMLeaderStyle
  3
ACDB_MLEADERSTYLE_CLASS
 90
     4095
 91
        1
280
     0
281
     0
  0
CLASS
  1
ACDBSECTIONVIEWSTYLE
  2
AcDbSectionViewStyle
  3
ObjectDBX Classes
 90
     1025
 91
        1
280
     0
281
     0
  0
CLASS
  1
ACDBDETAILVIEWSTYLE
  2
AcDbDetailViewStyle
  3
ObjectDBX Classes
 90
     1025
 91
        1
280
     0
281
     0
  0
CLASS
  1
DICTIONARYVAR
  2
AcDbDictionaryVar
  3
ObjectDBX Classes
 90
        0
 91
       19
280
     0
281
     0
  0
CLASS
  1
CELLSTYLEMAP
  2
AcDbCellStyleMap
  3
ObjectDBX Classes
 90
     1152
 91
        1
280
     0
281
     0
  0
ENDSEC
  0
SECTION
  2
TABLES
  0
TABLE
  2
VPORT
  5
8
330
0
100
AcDbSymbolTable
 70
     1
1001
ACAD
1000
DbSaveVer
1071
      278
  0
VPORT
  5
80B9
330
8
100
AcDbSymbolTableRecord
100
AcDbViewportTableRecord
  2
*Active
 70
     0
 10
0.0
 20
0.0
 11
1.0
 21
1.0
 12
4041.593551043339
 22
4425.000020605514
 13
0.0
 23
0.0
 14
10.0
 24
10.0
 15
10.0
 25
10.0
 16
0.0
 26
0.0
 36
1.0
 17
0.0
 27
0.0
 37
0.0
 40
8911.444432633784
 41
2.250314465408805
 42
50.0
 43
0.0
 44
0.0
 50
0.0
 51
0.0
 71
     0
 72
   100
 73
     1
 74
     0
 75
     0
 76
     0
 77
     0
 78
     0
281
     0
 65
     1
110
0.0
120
0.0
130
0.0
111
1.0
121
0.0
131
0.0
112
0.0
122
1.0
132
0.0
 79
     0
146
0.0
348
80DA
 60
     3
 61
     5
292
     1
282
     1
141
0.0
142
0.0
 63
   250
421
  3355443
1001
ACAD_NAV_VCDISPLAY
1070
     3
  0
ENDTAB
  0
TABLE
  2
LTYPE
  5
5
330
0
100
AcDbSymbolTable
 70
     2
  0
LTYPE
  5
13
330
5
100
AcDbSymbolTableRecord
100
AcDbLinetypeTableRecord
  2
BYBLOCK
 70
     0
  3

 72
    65
 73
     0
 40
0.0
  0
LTYPE
  5
14
330
5
100
AcDbSymbolTableRecord
100
AcDbLinetypeTableRecord
  2
BYLAYER
 70
     0
  3

 72
    65
 73
     0
 40
0.0
  0
LTYPE
  5
15
330
5
100
AcDbSymbolTableRecord
100
AcDbLinetypeTableRecord
  2
CONTINUOUS
 70
     0
  3
Solid line
 72
    65
 73
     0
 40
0.0
  0
LTYPE
  5
1F
330
5
100
AcDbSymbolTableRecord
100
AcDbLinetypeTableRecord
  2
CENTER
 70
     0
  3
____ _ ____ _ ____ _ ____ _ ____ _ ____ _ ____ 
 72
    65
 73
     4
 40
2.0
 49
1.25
 74
     0
 49
-0.25
 74
     0
 49
0.25
 74
     0
 49
-0.25
 74
     0
  0
ENDTAB
  0
TABLE
  2
LAYER
  5
2
102
{ACAD_XDICTIONARY
360
8178
102
}
330
0
100
AcDbSymbolTable
 70
     7
  0
LAYER
  5
F
102
{ACAD_XDICTIONARY
360
8451
102
}
330
2
100
AcDbSymbolTableRecord
100
AcDbLayerTableRecord
  2
0
 70
     0
 62
     7
  6
CONTINUOUS
370
    -3
390
8069
347
80CC
348
0
  0
LAYER
  5
31
102
{ACAD_XDICTIONARY
360
8453
102
}
330
2
100
AcDbSymbolTableRecord
100
AcDbLayerTableRecord
  2
3
 70
     0
 62
     2
  6
CONTINUOUS
370
    -3
390
8069
347
80CC
348
0
  0
LAYER
  5
76D0
102
{ACAD_XDICTIONARY
360
8455
102
}
330
2
100
AcDbSymbolTableRecord
100
AcDbLayerTableRecord
  2
2
 70
     0
 62
     3
  6
CENTER
370
    -3
390
8069
347
80CC
348
0
  0
LAYER
  5
76D1
102
{ACAD_XDICTIONARY
360
8457
102
}
330
2
100
AcDbSymbolTableRecord
100
AcDbLayerTableRecord
  2
1
 70
     0
 62
     4
  6
CONTINUOUS
370
    -3
390
8069
347
80CC
348
0
  0
LAYER
  5
76D2
102
{ACAD_XDICTIONARY
360
8459
102
}
330
2
100
AcDbSymbolTableRecord
100
AcDbLayerTableRecord
  2
4
 70
     0
 62
     7
  6
CONTINUOUS
370
    -3
390
8069
347
80CC
348
0
  0
LAYER
  5
7B26
330
2
100
AcDbSymbolTableRecord
100
AcDbLayerTableRecord
  2
DEFPOINTS
 70
     0
 62
     7
  6
CONTINUOUS
290
     0
370
    -3
390
8069
347
80CC
348
0
  0
LAYER
  5
8175
102
{ACAD_XDICTIONARY
360
8176
102
}
330
2
100
AcDbSymbolTableRecord
100
AcDbLayerTableRecord
  2
FUTO
 70
     0
 62
     4
  6
CONTINUOUS
370
    -3
390
8069
347
80CC
348
0
  0
ENDTAB
  0
TABLE
  2
STYLE
  5
3
330
0
100
AcDbSymbolTable
 70
     1
  0
STYLE
  5
10
330
3
100
AcDbSymbolTableRecord
100
AcDbTextStyleTableRecord
  2
STANDARD
 70
     0
 40
0.0
 41
1.0
 50
0.0
 71
     0
 42
180.0
  3
simplex.shx
  4
extfont.shx
  0
ENDTAB
  0
TABLE
  2
VIEW
  5
6
330
0
100
AcDbSymbolTable
 70
     0
  0
ENDTAB
  0
TABLE
  2
UCS
  5
7
330
0
100
AcDbSymbolTable
 70
     0
  0
ENDTAB
  0
TABLE
  2
APPID
  5
9
330
0
100
AcDbSymbolTable
 70
     4
  0
APPID
  5
11
330
9
100
AcDbSymbolTableRecord
100
AcDbRegAppTableRecord
  2
ACAD
 70
     0
  0
APPID
  5
8177
330
9
100
AcDbSymbolTableRecord
100
AcDbRegAppTableRecord
  2
ACAD_NAV_VCDISPLAY
 70
     0
  0
APPID
  5
8406
330
9
100
AcDbSymbolTableRecord
100
AcDbRegAppTableRecord
  2
AcadAnnoMonitorAlertIconDisabled
 70
     0
  0
APPID
  5
8407
330
9
100
AcDbSymbolTableRecord
100
AcDbRegAppTableRecord
  2
ACAD_EXEMPT_FROM_CAD_STANDARDS
 70
     0
  0
ENDTAB
  0
TABLE
  2
DIMSTYLE
  5
A
330
0
100
AcDbSymbolTable
 70
     2
100
AcDbDimStyleTable
 71
     1
340
1D
  0
DIMSTYLE
105
1D
102
{ACAD_REACTORS
330
802C
330
8039
330
8046
330
8053
330
8060
330
83EC
330
83F9
102
}
330
A
100
AcDbSymbolTableRecord
100
AcDbDimStyleTableRecord
  2
IGA
 70
     0
 40
2.0
 41
2.0
 42
0.5
 43
10.0
 44
1.0
 47
1.0
 48
1.0
 73
     0
 74
     0
 77
     1
 78
     8
140
3.0
141
0.0
143
0.03937
146
10.0
147
1.0
173
     1
271
     1
272
     0
279
     2
284
     8
340
10
341
79FC
343
79FC
344
79FC
  0
DIMSTYLE
105
7B28
102
{ACAD_REACTORS
330
7C52
330
7C53
330
7C99
330
7CB6
330
7CDD
330
7CDE
330
7CDF
330
7CE0
330
7CE1
330
7CE5
330
7D09
330
7D0B
330
7D0C
102
}
330
A
100
AcDbSymbolTableRecord
100
AcDbDimStyleTableRecord
  2
MATSU
 70
     0
 41
2.0
 42
1.0
 43
10.0
 44
1.0
 73
     0
 74
     0
 77
     1
 78
     8
140
3.0
141
0.0
143
0.03937
147
0.5
172
     1
173
     1
176
   256
177
   256
178
   256
284
     8
289
     0
340
10
341
79FC
343
79FC
344
79FC
  0
ENDTAB
  0
TABLE
  2
BLOCK_RECORD
  5
1
330
0
100
AcDbSymbolTable
 70
    51
  0
BLOCK_RECORD
  5
19
102
{ACAD_XDICTIONARY
360
8097
102
}
330
1
100
AcDbSymbolTableRecord
100
AcDbBlockTableRecord
  2
*MODEL_SPACE
340
806C
 70
     0
280
     1
281
     0
  0
BLOCK_RECORD
  5
16
102
{ACAD_XDICTIONARY
360
8095
102
}
330
1
100
AcDbSymbolTableRecord
100
AcDbBlockTableRecord
  2
*PAPER_SPACE
340
806D
 70
     0
280
     1
281
     0
  0
BLOCK_RECORD
  5
79FC
330
1
100
AcDbSymbolTableRecord
100
AcDbBlockTableRecord
  2
_OPEN
340
0
102
{BLKREFS
331
7E93
331
7E94
331
7E9E
331
7E9F
331
7EA9
331
7EAA
331
7EBF
331
7EC0
331
7ECA
331
7ECB
331
80A1
331
80A2
331
7E30
331
7E31
331
7E3B
331
7E3C
331
7E46
331
7E47
331
7E51
331
7E52
331
7FCF
331
7FD0
331
8025
331
8026
331
8032
331
8033
331
803F
331
8040
331
804C
331
804D
331
8059
331
805A
331
83DD
331
83DE
331
83E6
331
83E7
331
8442
331
8443
331
844B
331
844C
102
}
 70
     0
280
     1
281
     0
  0
BLOCK_RECORD
  5
7A0A
330
1
100
AcDbSymbolTableRecord
100
AcDbBlockTableRecord
  2
YA_N
340
0
102
{BLKREFS
331
7C4F
331
7C8D
331
7C8F
331
7C23
102
}
 70
     0
280
     1
281
     0
  0
BLOCK_RECORD
  5
7A0D
330
1
100
AcDbSymbolTableRecord
100
AcDbBlockTableRecord
  2
ARROW
340
0
 70
     0
280
     1
281
     0
  0
BLOCK_RECORD
  5
7D23
330
1
100
AcDbSymbolTableRecord
100
AcDbBlockTableRecord
  2
*D3
340
0
 70
     0
280
     1
281
     0
  0
BLOCK_RECORD
  5
7D2F
330
1
100
AcDbSymbolTableRecord
100
AcDbBlockTableRecord
  2
*D4
340
0
 70
     0
280
     1
281
     0
  0
BLOCK_RECORD
  5
7D3B
330
1
100
AcDbSymbolTableRecord
100
AcDbBlockTableRecord
  2
*D5
340
0
 70
     0
280
     1
281
     0
  0
BLOCK_RECORD
  5
7D47
330
1
100
AcDbSymbolTableRecord
100
AcDbBlockTableRecord
  2
*D6
340
0
 70
     0
280
     1
281
     0
  0
BLOCK_RECORD
  5
7D8F
330
1
100
AcDbSymbolTableRecord
100
AcDbBlockTableRecord
  2
*D7
340
0
 70
     0
280
     1
281
     0
  0
BLOCK_RECORD
  5
7D9B
330
1
100
AcDbSymbolTableRecord
100
AcDbBlockTableRecord
  2
*D8
340
0
 70
     0
280
     1
281
     0
  0
BLOCK_RECORD
  5
7DA7
330
1
100
AcDbSymbolTableRecord
100
AcDbBlockTableRecord
  2
*D9
340
0
 70
     0
280
     1
281
     0
  0
BLOCK_RECORD
  5
7DB3
330
1
100
AcDbSymbolTableRecord
100
AcDbBlockTableRecord
  2
*D10
340
0
 70
     0
280
     1
281
     0
  0
BLOCK_RECORD
  5
7DBF
330
1
100
AcDbSymbolTableRecord
100
AcDbBlockTableRecord
  2
*D11
340
0
 70
     0
280
     1
281
     0
  0
BLOCK_RECORD
  5
7DCB
330
1
100
AcDbSymbolTableRecord
100
AcDbBlockTableRecord
  2
*D12
340
0
 70
     0
280
     1
281
     0
  0
BLOCK_RECORD
  5
7DF3
330
1
100
AcDbSymbolTableRecord
100
AcDbBlockTableRecord
  2
*D13
340
0
 70
     0
280
     1
281
     0
  0
BLOCK_RECORD
  5
7E0A
330
1
100
AcDbSymbolTableRecord
100
AcDbBlockTableRecord
  2
*D14
340
0
 70
     0
280
     1
281
     0
  0
BLOCK_RECORD
  5
7E15
330
1
100
AcDbSymbolTableRecord
100
AcDbBlockTableRecord
  2
*D15
340
0
 70
     0
280
     1
281
     0
  0
BLOCK_RECORD
  5
7F97
330
1
100
AcDbSymbolTableRecord
100
AcDbBlockTableRecord
  2
_DOT
340
0
 70
     0
280
     1
281
     0
  0
BLOCK_RECORD
  5
8020
330
1
100
AcDbSymbolTableRecord
100
AcDbBlockTableRecord
  2
*D17
340
0
 70
     0
280
     1
281
     0
  0
BLOCK_RECORD
  5
802D
330
1
100
AcDbSymbolTableRecord
100
AcDbBlockTableRecord
  2
*D18
340
0
 70
     0
280
     1
281
     0
  0
BLOCK_RECORD
  5
803A
330
1
100
AcDbSymbolTableRecord
100
AcDbBlockTableRecord
  2
*D19
340
0
 70
     0
280
     1
281
     0
  0
BLOCK_RECORD
  5
8047
330
1
100
AcDbSymbolTableRecord
100
AcDbBlockTableRecord
  2
*D20
340
0
 70
     0
280
     1
281
     0
  0
BLOCK_RECORD
  5
8054
330
1
100
AcDbSymbolTableRecord
100
AcDbBlockTableRecord
  2
*D21
340
0
 70
     0
280
     1
281
     0
  0
BLOCK_RECORD
  5
83ED
330
1
100
AcDbSymbolTableRecord
100
AcDbBlockTableRecord
  2
*D49
340
0
 70
     0
280
     1
281
     0
  0
BLOCK_RECORD
  5
83FA
330
1
100
AcDbSymbolTableRecord
100
AcDbBlockTableRecord
  2
*D50
340
0
 70
     0
280
     1
281
     0
  0
ENDTAB
  0
ENDSEC
  0
SECTION
  2
BLOCKS
  0
BLOCK
  5
1A
330
19
100
AcDbEntity
  8
0
100
AcDbBlockBegin
  2
*MODEL_SPACE
 70
     0
 10
0.0
 20
0.0
 30
0.0
  3
*MODEL_SPACE
  1

  0
ENDBLK
  5
1B
330
19
100
AcDbEntity
  8
0
100
AcDbBlockEnd
  0
BLOCK
  5
17
330
16
100
AcDbEntity
 67
     1
  8
0
100
AcDbBlockBegin
  2
*PAPER_SPACE
 70
     0
 10
0.0
 20
0.0
 30
0.0
  3
*PAPER_SPACE
  1

  0
ENDBLK
  5
18
330
16
100
AcDbEntity
 67
     1
  8
0
100
AcDbBlockEnd
  0
BLOCK
  5
7A00
330
79FC
100
AcDbEntity
  8
0
100
AcDbBlockBegin
  2
_OPEN
 70
     0
 10
0.0
 20
0.0
 30
0.0
  3
_OPEN
  1

  0
LINE
  5
79FD
330
79FC
100
AcDbEntity
  8
0
  6
ByBlock
 62
     0
100
AcDbLine
 10
-1.0
 20
0.1666666666666666
 30
0.0
 11
0.0
 21
0.0
 31
0.0
  0
LINE
  5
79FE
330
79FC
100
AcDbEntity
  8
0
  6
ByBlock
 62
     0
100
AcDbLine
 10
0.0
 20
0.0
 30
0.0
 11
-1.0
 21
-0.1666666666666666
 31
0.0
  0
LINE
  5
79FF
330
79FC
100
AcDbEntity
  8
0
  6
ByBlock
 62
     0
100
AcDbLine
 10
0.0
 20
0.0
 30
0.0
 11
-1.0
 21
0.0
 31
0.0
  0
ENDBLK
  5
7A01
330
79FC
100
AcDbEntity
  8
0
100
AcDbBlockEnd
  0
BLOCK
  5
7A0B
330
7A0A
100
AcDbEntity
  8
0
100
AcDbBlockBegin
  2
YA_N
 70
     0
 10
0.0
 20
0.0
 30
0.0
  3
YA_N
  1

  0
ENDBLK
  5
7A0C
330
7A0A
100
AcDbEntity
  8
0
100
AcDbBlockEnd
  0
BLOCK
  5
7A11
330
7A0D
100
AcDbEntity
  8
0
100
AcDbBlockBegin
  2
ARROW
 70
     0
 10
0.0
 20
0.0
 30
0.0
  3
ARROW
  1

  0
LINE
  5
7A0E
330
7A0D
100
AcDbEntity
  8
0
100
AcDbLine
 10
-0.9999999999999991
 20
0.1666666667000003
 30
0.0
 11
0.0
 21
0.0
 31
0.0
  0
LINE
  5
7A0F
330
7A0D
100
AcDbEntity
  8
0
100
AcDbLine
 10
-0.9999999999999991
 20
0.0
 30
0.0
 11
0.0
 21
0.0
 31
0.0
  0
LINE
  5
7A10
330
7A0D
100
AcDbEntity
  8
0
100
AcDbLine
 10
-0.9999999999999991
 20
-0.1666666667000003
 30
0.0
 11
0.0
 21
0.0
 31
0.0
  0
ENDBLK
  5
7A12
330
7A0D
100
AcDbEntity
  8
0
100
AcDbBlockEnd
  0
BLOCK
  5
7E2C
330
7D23
100
AcDbEntity
  8
0
100
AcDbBlockBegin
  2
*D3
 70
     1
 10
0.0
 20
0.0
 30
0.0
  3
*D3
  1

  0
LINE
  5
7E2D
330
7D23
100
AcDbEntity
  8
0
  6
ByBlock
440
 16777216
100
AcDbLine
 10
1380.866167799454
 20
2136.887615409481
 30
0.0
 11
1380.866167799454
 21
2285.232958951545
 31
0.0
  0
LINE
  5
7E2E
330
7D23
100
AcDbEntity
  8
0
  6
ByBlock
440
 16777216
100
AcDbLine
 10
2205.866167799454
 20
2136.887615409481
 30
0.0
 11
2205.866167799454
 21
2285.232958951545
 31
0.0
  0
LINE
  5
7E2F
330
7D23
100
AcDbEntity
  8
0
  6
ByBlock
440
 16777216
100
AcDbLine
 10
1440.866167799454
 20
2255.232958951545
 30
0.0
 11
2145.866167799454
 21
2255.232958951545
 31
0.0
  0
INSERT
  5
7E30
330
7D23
100
AcDbEntity
  8
0
  6
ByBlock
440
 16777216
100
AcDbBlockReference
  2
_OPEN
 10
1380.866167799454
 20
2255.232958951545
 30
0.0
 41
60.0
 42
60.0
 43
60.0
 50
180.0
  0
INSERT
  5
7E31
330
7D23
100
AcDbEntity
  8
0
  6
ByBlock
440
 16777216
100
AcDbBlockReference
  2
_OPEN
 10
2205.866167799454
 20
2255.232958951545
 30
0.0
 41
60.0
 42
60.0
 43
60.0
  0
MTEXT
  5
7E32
330
7D23
100
AcDbEntity
  8
0
  6
ByBlock
440
 16777216
100
AcDbMText
 10
1793.366167799454
 20
2315.232958951545
 30
0.0
 40
90.0
 41
0.0
 46
0.0
 71
     5
 72
     5
  1
\A1;825
 73
     1
 44
1.0
  0
POINT
  5
7E33
330
7D23
100
AcDbEntity
  8
DEFPOINTS
  6
ByBlock
 62
     0
440
 16777216
100
AcDbPoint
 10
1380.866167799454
 20
2106.887615409481
 30
0.0
  0
POINT
  5
7E34
330
7D23
100
AcDbEntity
  8
DEFPOINTS
  6
ByBlock
 62
     0
440
 16777216
100
AcDbPoint
 10
2205.866167799454
 20
2106.887615409481
 30
0.0
  0
POINT
  5
7E35
330
7D23
100
AcDbEntity
  8
DEFPOINTS
  6
ByBlock
 62
     0
440
 16777216
100
AcDbPoint
 10
2205.866167799454
 20
2255.232958951545
 30
0.0
  0
ENDBLK
  5
7E36
330
7D23
100
AcDbEntity
  8
0
100
AcDbBlockEnd
  0
BLOCK
  5
7E37
330
7D2F
100
AcDbEntity
  8
0
100
AcDbBlockBegin
  2
*D4
 70
     1
 10
0.0
 20
0.0
 30
0.0
  3
*D4
  1

  0
LINE
  5
7E38
330
7D2F
100
AcDbEntity
  8
0
  6
ByBlock
440
 16777216
100
AcDbLine
 10
1380.866167799454
 20
2136.887615409481
 30
0.0
 11
1380.866167799454
 21
2437.516361525348
 31
0.0
  0
LINE
  5
7E39
330
7D2F
100
AcDbEntity
  8
0
  6
ByBlock
440
 16777216
100
AcDbLine
 10
2228.866167799455
 20
2258.359407259872
 30
0.0
 11
2228.866167799455
 21
2437.516361525348
 31
0.0
  0
LINE
  5
7E3A
330
7D2F
100
AcDbEntity
  8
0
  6
ByBlock
440
 16777216
100
AcDbLine
 10
1440.866167799454
 20
2407.516361525348
 30
0.0
 11
2168.866167799455
 21
2407.516361525348
 31
0.0
  0
INSERT
  5
7E3B
330
7D2F
100
AcDbEntity
  8
0
  6
ByBlock
440
 16777216
100
AcDbBlockReference
  2
_OPEN
 10
1380.866167799454
 20
2407.516361525348
 30
0.0
 41
60.0
 42
60.0
 43
60.0
 50
180.0
  0
INSERT
  5
7E3C
330
7D2F
100
AcDbEntity
  8
0
  6
ByBlock
440
 16777216
100
AcDbBlockReference
  2
_OPEN
 10
2228.866167799455
 20
2407.516361525348
 30
0.0
 41
60.0
 42
60.0
 43
60.0
  0
MTEXT
  5
7E3D
330
7D2F
100
AcDbEntity
  8
0
  6
ByBlock
440
 16777216
100
AcDbMText
 10
1804.866167799454
 20
2467.516361525348
 30
0.0
 40
90.0
 41
0.0
 46
0.0
 71
     5
 72
     5
  1
\A1;848
 73
     1
 44
1.0
  0
POINT
  5
7E3E
330
7D2F
100
AcDbEntity
  8
DEFPOINTS
  6
ByBlock
 62
     0
440
 16777216
100
AcDbPoint
 10
1380.866167799454
 20
2106.887615409481
 30
0.0
  0
POINT
  5
7E3F
330
7D2F
100
AcDbEntity
  8
DEFPOINTS
  6
ByBlock
 62
     0
440
 16777216
100
AcDbPoint
 10
2228.866167799455
 20
2228.359407259872
 30
0.0
  0
POINT
  5
7E40
330
7D2F
100
AcDbEntity
  8
DEFPOINTS
  6
ByBlock
 62
     0
440
 16777216
100
AcDbPoint
 10
2228.866167799455
 20
2407.516361525348
 30
0.0
  0
ENDBLK
  5
7E41
330
7D2F
100
AcDbEntity
  8
0
100
AcDbBlockEnd
  0
BLOCK
  5
7E42
330
7D3B
100
AcDbEntity
  8
0
100
AcDbBlockBegin
  2
*D5
 70
     1
 10
0.0
 20
0.0
 30
0.0
  3
*D5
  1

  0
LINE
  5
7E43
330
7D3B
100
AcDbEntity
  8
0
  6
ByBlock
440
 16777216
100
AcDbLine
 10
2925.337959649846
 20
1561.887615409481
 30
0.0
 11
3105.135824977384
 21
1561.887615409481
 31
0.0
  0
LINE
  5
7E44
330
7D3B
100
AcDbEntity
  8
0
  6
ByBlock
440
 16777216
100
AcDbLine
 10
2758.866167799455
 20
861.887615409481
 30
0.0
 11
3105.135824977384
 21
861.887615409481
 31
0.0
  0
LINE
  5
7E45
330
7D3B
100
AcDbEntity
  8
0
  6
ByBlock
440
 16777216
100
AcDbLine
 10
3075.135824977384
 20
1501.887615409481
 30
0.0
 11
3075.135824977384
 21
921.8876154094809
 31
0.0
  0
INSERT
  5
7E46
330
7D3B
100
AcDbEntity
  8
0
  6
ByBlock
440
 16777216
100
AcDbBlockReference
  2
_OPEN
 10
3075.135824977384
 20
1561.887615409481
 30
0.0
 41
60.0
 42
60.0
 43
60.0
 50
90.0
  0
INSERT
  5
7E47
330
7D3B
100
AcDbEntity
  8
0
  6
ByBlock
440
 16777216
100
AcDbBlockReference
  2
_OPEN
 10
3075.135824977384
 20
861.887615409481
 30
0.0
 41
60.0
 42
60.0
 43
60.0
 50
270.0
  0
MTEXT
  5
7E48
330
7D3B
100
AcDbEntity
  8
0
  6
ByBlock
440
 16777216
100
AcDbMText
 10
3015.135824977384
 20
1211.887615409481
 30
0.0
 40
90.0
 41
0.0
 46
0.0
 71
     5
 72
     5
  1
\A1;700
 11
0.0
 21
1.0
 31
0.0
 73
     1
 44
1.0
  0
POINT
  5
7E49
330
7D3B
100
AcDbEntity
  8
DEFPOINTS
  6
ByBlock
 62
     0
440
 16777216
100
AcDbPoint
 10
2895.337959649845
 20
1561.887615409481
 30
0.0
  0
POINT
  5
7E4A
330
7D3B
100
AcDbEntity
  8
DEFPOINTS
  6
ByBlock
 62
     0
440
 16777216
100
AcDbPoint
 10
2728.866167799455
 20
861.887615409481
 30
0.0
  0
POINT
  5
7E4B
330
7D3B
100
AcDbEntity
  8
DEFPOINTS
  6
ByBlock
 62
     0
440
 16777216
100
AcDbPoint
 10
3075.135824977384
 20
861.887615409481
 30
0.0
  0
ENDBLK
  5
7E4C
330
7D3B
100
AcDbEntity
  8
0
100
AcDbBlockEnd
  0
BLOCK
  5
7E4D
330
7D47
100
AcDbEntity
  8
0
100
AcDbBlockBegin
  2
*D6
 70
     1
 10
0.0
 20
0.0
 30
0.0
  3
*D6
  1

  0
LINE
  5
7E4E
330
7D47
100
AcDbEntity
  8
0
  6
ByBlock
440
 16777216
100
AcDbLine
 10
5476.207505112643
 20
1161.887615409481
 30
0.0
 11
5724.703349046961
 21
1161.887615409481
 31
0.0
  0
LINE
  5
7E4F
330
7D47
100
AcDbEntity
  8
0
  6
ByBlock
440
 16777216
100
AcDbLine
 10
5476.207505112643
 20
1961.887615409481
 30
0.0
 11
5724.703349046961
 21
1961.887615409481
 31
0.0
  0
LINE
  5
7E50
330
7D47
100
AcDbEntity
  8
0
  6
ByBlock
440
 16777216
100
AcDbLine
 10
5694.703349046962
 20
1221.887615409481
 30
0.0
 11
5694.703349046962
 21
1901.887615409481
 31
0.0
  0
INSERT
  5
7E51
330
7D47
100
AcDbEntity
  8
0
  6
ByBlock
440
 16777216
100
AcDbBlockReference
  2
_OPEN
 10
5694.703349046962
 20
1161.887615409481
 30
0.0
 41
60.0
 42
60.0
 43
60.0
 50
270.0
  0
INSERT
  5
7E52
330
7D47
100
AcDbEntity
  8
0
  6
ByBlock
440
 16777216
100
AcDbBlockReference
  2
_OPEN
 10
5694.703349046962
 20
1961.887615409481
 30
0.0
 41
60.0
 42
60.0
 43
60.0
 50
90.0
  0
MTEXT
  5
7E53
330
7D47
100
AcDbEntity
  8
0
  6
ByBlock
440
 16777216
100
AcDbMText
 10
5634.703349046962
 20
1561.887615409481
 30
0.0
 40
90.0
 41
0.0
 46
0.0
 71
     5
 72
     5
  1
\A1;φ800
 11
0.0
 21
1.0
 31
0.0
 73
     1
 44
1.0
  0
POINT
  5
7E54
330
7D47
100
AcDbEntity
  8
DEFPOINTS
  6
ByBlock
 62
     0
440
 16777216
100
AcDbPoint
 10
5446.207505112644
 20
1161.887615409481
 30
0.0
  0
POINT
  5
7E55
330
7D47
100
AcDbEntity
  8
DEFPOINTS
  6
ByBlock
 62
     0
440
 16777216
100
AcDbPoint
 10
5446.207505112644
 20
1961.887615409481
 30
0.0
  0
POINT
  5
7E56
330
7D47
100
AcDbEntity
  8
DEFPOINTS
  6
ByBlock
 62
     0
440
 16777216
100
AcDbPoint
 10
5694.703349046962
 20
1961.887615409481
 30
0.0
  0
ENDBLK
  5
7E57
330
7D47
100
AcDbEntity
  8
0
100
AcDbBlockEnd
  0
BLOCK
  5
7E8F
330
7D8F
100
AcDbEntity
  8
0
100
AcDbBlockBegin
  2
*D7
 70
     1
 10
0.0
 20
0.0
 30
0.0
  3
*D7
  1

  0
LINE
  5
7E90
330
7D8F
100
AcDbEntity
  8
0
  6
ByBlock
440
 16777216
100
AcDbLine
 10
1728.866167799455
 20
5305.6229154676
 30
0.0
 11
1728.866167799455
 21
5606.194826451464
 31
0.0
  0
LINE
  5
7E91
330
7D8F
100
AcDbEntity
  8
0
  6
ByBlock
440
 16777216
100
AcDbLine
 10
2728.866167799455
 20
5305.6229154676
 30
0.0
 11
2728.866167799455
 21
5606.194826451464
 31
0.0
  0
LINE
  5
7E92
330
7D8F
100
AcDbEntity
  8
0
  6
ByBlock
440
 16777216
100
AcDbLine
 10
1788.866167799454
 20
5576.194826451465
 30
0.0
 11
2668.866167799455
 21
5576.194826451465
 31
0.0
  0
INSERT
  5
7E93
330
7D8F
100
AcDbEntity
  8
0
  6
ByBlock
440
 16777216
100
AcDbBlockReference
  2
_OPEN
 10
1728.866167799455
 20
5576.194826451465
 30
0.0
 41
60.0
 42
60.0
 43
60.0
 50
180.0
  0
INSERT
  5
7E94
330
7D8F
100
AcDbEntity
  8
0
  6
ByBlock
440
 16777216
100
AcDbBlockReference
  2
_OPEN
 10
2728.866167799455
 20
5576.194826451465
 30
0.0
 41
60.0
 42
60.0
 43
60.0
  0
MTEXT
  5
7E95
330
7D8F
100
AcDbEntity
  8
0
  6
ByBlock
440
 16777216
100
AcDbMText
 10
2228.866167799455
 20
5636.194826451465
 30
0.0
 40
90.0
 41
0.0
 46
0.0
 71
     5
 72
     5
  1
\A1;1000
 73
     1
 44
1.0
  0
POINT
  5
7E96
330
7D8F
100
AcDbEntity
  8
DEFPOINTS
  6
ByBlock
 62
     0
440
 16777216
100
AcDbPoint
 10
1728.866167799455
 20
5275.6229154676
 30
0.0
  0
POINT
  5
7E97
330
7D8F
100
AcDbEntity
  8
DEFPOINTS
  6
ByBlock
 62
     0
440
 16777216
100
AcDbPoint
 10
2728.866167799455
 20
5275.6229154676
 30
0.0
  0
POINT
  5
7E98
330
7D8F
100
AcDbEntity
  8
DEFPOINTS
  6
ByBlock
 62
     0
440
 16777216
100
AcDbPoint
 10
2728.866167799455
 20
5576.194826451465
 30
0.0
  0
ENDBLK
  5
7E99
330
7D8F
100
AcDbEntity
  8
0
100
AcDbBlockEnd
  0
BLOCK
  5
7E9A
330
7D9B
100
AcDbEntity
  8
0
100
AcDbBlockBegin
  2
*D8
 70
     1
 10
0.0
 20
0.0
 30
0.0
  3
*D8
  1

  0
LINE
  5
7E9B
330
7D9B
100
AcDbEntity
  8
0
  6
ByBlock
440
 16777216
100
AcDbLine
 10
878.8661677994547
 20
4785.6229154676
 30
0.0
 11
878.8661677994547
 21
5606.194826451464
 31
0.0
  0
LINE
  5
7E9C
330
7D9B
100
AcDbEntity
  8
0
  6
ByBlock
440
 16777216
100
AcDbLine
 10
1728.866167799455
 20
5305.6229154676
 30
0.0
 11
1728.866167799455
 21
5606.194826451464
 31
0.0
  0
LINE
  5
7E9D
330
7D9B
100
AcDbEntity
  8
0
  6
ByBlock
440
 16777216
100
AcDbLine
 10
938.8661677994546
 20
5576.194826451465
 30
0.0
 11
1668.866167799454
 21
5576.194826451465
 31
0.0
  0
INSERT
  5
7E9E
330
7D9B
100
AcDbEntity
  8
0
  6
ByBlock
440
 16777216
100
AcDbBlockReference
  2
_OPEN
 10
878.8661677994547
 20
5576.194826451465
 30
0.0
 41
60.0
 42
60.0
 43
60.0
 50
180.0
  0
INSERT
  5
7E9F
330
7D9B
100
AcDbEntity
  8
0
  6
ByBlock
440
 16777216
100
AcDbBlockReference
  2
_OPEN
 10
1728.866167799455
 20
5576.194826451465
 30
0.0
 41
60.0
 42
60.0
 43
60.0
  0
MTEXT
  5
7EA0
330
7D9B
100
AcDbEntity
  8
0
  6
ByBlock
440
 16777216
100
AcDbMText
 10
1303.866167799454
 20
5636.194826451465
 30
0.0
 40
90.0
 41
0.0
 46
0.0
 71
     5
 72
     5
  1
\A1;850
 73
     1
 44
1.0
  0
POINT
  5
7EA1
330
7D9B
100
AcDbEntity
  8
DEFPOINTS
  6
ByBlock
 62
     0
440
 16777216
100
AcDbPoint
 10
878.8661677994547
 20
4755.6229154676
 30
0.0
  0
POINT
  5
7EA2
330
7D9B
100
AcDbEntity
  8
DEFPOINTS
  6
ByBlock
 62
     0
440
 16777216
100
AcDbPoint
 10
1728.866167799455
 20
5275.6229154676
 30
0.0
  0
POINT
  5
7EA3
330
7D9B
100
AcDbEntity
  8
DEFPOINTS
  6
ByBlock
 62
     0
440
 16777216
100
AcDbPoint
 10
1728.866167799455
 20
5576.194826451465
 30
0.0
  0
ENDBLK
  5
7EA4
330
7D9B
100
AcDbEntity
  8
0
100
AcDbBlockEnd
  0
BLOCK
  5
7EA5
330
7DA7
100
AcDbEntity
  8
0
100
AcDbBlockBegin
  2
*D9
 70
     1
 10
0.0
 20
0.0
 30
0.0
  3
*D9
  1

  0
LINE
  5
7EA6
330
7DA7
100
AcDbEntity
  8
0
  6
ByBlock
440
 16777216
100
AcDbLine
 10
2758.866167799455
 20
5275.6229154676
 30
0.0
 11
3058.358086414381
 21
5275.6229154676
 31
0.0
  0
LINE
  5
7EA7
330
7DA7
100
AcDbEntity
  8
0
  6
ByBlock
440
 16777216
100
AcDbLine
 10
2758.866167799455
 20
3955.6229154676
 30
0.0
 11
3058.358086414381
 21
3955.6229154676
 31
0.0
  0
LINE
  5
7EA8
330
7DA7
100
AcDbEntity
  8
0
  6
ByBlock
440
 16777216
100
AcDbLine
 10
3028.35808641438
 20
5215.622915467601
 30
0.0
 11
3028.35808641438
 21
4015.6229154676
 31
0.0
  0
INSERT
  5
7EA9
330
7DA7
100
AcDbEntity
  8
0
  6
ByBlock
440
 16777216
100
AcDbBlockReference
  2
_OPEN
 10
3028.35808641438
 20
5275.6229154676
 30
0.0
 41
60.0
 42
60.0
 43
60.0
 50
90.0
  0
INSERT
  5
7EAA
330
7DA7
100
AcDbEntity
  8
0
  6
ByBlock
440
 16777216
100
AcDbBlockReference
  2
_OPEN
 10
3028.35808641438
 20
3955.6229154676
 30
0.0
 41
60.0
 42
60.0
 43
60.0
 50
270.0
  0
MTEXT
  5
7EAB
330
7DA7
100
AcDbEntity
  8
0
  6
ByBlock
440
 16777216
100
AcDbMText
 10
2968.358086414381
 20
4615.6229154676
 30
0.0
 40
90.0
 41
0.0
 46
0.0
 71
     5
 72
     5
  1
\A1;1320
 11
0.0
 21
1.0
 31
0.0
 73
     1
 44
1.0
  0
POINT
  5
7EAC
330
7DA7
100
AcDbEntity
  8
DEFPOINTS
  6
ByBlock
 62
     0
440
 16777216
100
AcDbPoint
 10
2728.866167799455
 20
5275.6229154676
 30
0.0
  0
POINT
  5
7EAD
330
7DA7
100
AcDbEntity
  8
DEFPOINTS
  6
ByBlock
 62
     0
440
 16777216
100
AcDbPoint
 10
2728.866167799455
 20
3955.6229154676
 30
0.0
  0
POINT
  5
7EAE
330
7DA7
100
AcDbEntity
  8
DEFPOINTS
  6
ByBlock
 62
     0
440
 16777216
100
AcDbPoint
 10
3028.35808641438
 20
3955.6229154676
 30
0.0
  0
ENDBLK
  5
7EAF
330
7DA7
100
AcDbEntity
  8
0
100
AcDbBlockEnd
  0
BLOCK
  5
7FCB
330
7DB3
100
AcDbEntity
  8
0
100
AcDbBlockBegin
  2
*D10
 70
     1
 10
0.0
 20
0.0
 30
0.0
  3
*D10
  1

  0
LINE
  5
7FCC
330
7DB3
100
AcDbEntity
  8
0
  6
ByBlock
440
 16777216
100
AcDbLine
 10
848.8661677994551
 20
5768.860847012715
 30
0.0
 11
610.3253433141544
 21
5768.860847012715
 31
0.0
  0
LINE
  5
7FCD
330
7DB3
100
AcDbEntity
  8
0
  6
ByBlock
440
 16777216
100
AcDbLine
 10
848.8661677994551
 20
4968.860847012715
 30
0.0
 11
610.3253433141544
 21
4968.860847012715
 31
0.0
  0
LINE
  5
7FCE
330
7DB3
100
AcDbEntity
  8
0
  6
ByBlock
440
 16777216
100
AcDbLine
 10
640.3253433141544
 20
5708.860847012715
 30
0.0
 11
640.3253433141544
 21
5028.860847012714
 31
0.0
  0
INSERT
  5
7FCF
330
7DB3
100
AcDbEntity
  8
0
  6
ByBlock
440
 16777216
100
AcDbBlockReference
  2
_OPEN
 10
640.3253433141544
 20
5768.860847012715
 30
0.0
 41
60.0
 42
60.0
 43
60.0
 50
90.0
  0
INSERT
  5
7FD0
330
7DB3
100
AcDbEntity
  8
0
  6
ByBlock
440
 16777216
100
AcDbBlockReference
  2
_OPEN
 10
640.3253433141544
 20
4968.860847012715
 30
0.0
 41
60.0
 42
60.0
 43
60.0
 50
270.0
  0
MTEXT
  5
7FD1
330
7DB3
100
AcDbEntity
  8
0
  6
ByBlock
440
 16777216
100
AcDbMText
 10
580.3253433141544
 20
5368.860847012715
 30
0.0
 40
90.0
 41
0.0
 46
0.0
 71
     5
 72
     5
  1
\A1;800
 11
0.0
 21
1.0
 31
0.0
 73
     1
 44
1.0
  0
POINT
  5
7FD2
330
7DB3
100
AcDbEntity
  8
DEFPOINTS
  6
ByBlock
 62
     0
440
 16777216
100
AcDbPoint
 10
878.866167799455
 20
5768.860847012715
 30
0.0
  0
POINT
  5
7FD3
330
7DB3
100
AcDbEntity
  8
DEFPOINTS
  6
ByBlock
 62
     0
440
 16777216
100
AcDbPoint
 10
878.866167799455
 20
4968.860847012715
 30
0.0
  0
POINT
  5
7FD4
330
7DB3
100
AcDbEntity
  8
DEFPOINTS
  6
ByBlock
 62
     0
440
 16777216
100
AcDbPoint
 10
640.3253433141544
 20
4968.860847012715
 30
0.0
  0
ENDBLK
  5
7FD5
330
7DB3
100
AcDbEntity
  8
0
100
AcDbBlockEnd
  0
BLOCK
  5
7EBB
330
7DBF
100
AcDbEntity
  8
0
100
AcDbBlockBegin
  2
*D11
 70
     1
 10
0.0
 20
0.0
 30
0.0
  3
*D11
  1

  0
LINE
  5
7EBC
330
7DBF
100
AcDbEntity
  8
0
  6
ByBlock
440
 16777216
100
AcDbLine
 10
878.8661677994547
 20
3925.622915467601
 30
0.0
 11
878.8661677994547
 21
3583.448439770715
 31
0.0
  0
LINE
  5
7EBD
330
7DBF
100
AcDbEntity
  8
0
  6
ByBlock
440
 16777216
100
AcDbLine
 10
2728.866167799455
 20
3925.622915467601
 30
0.0
 11
2728.866167799455
 21
3583.448439770715
 31
0.0
  0
LINE
  5
7EBE
330
7DBF
100
AcDbEntity
  8
0
  6
ByBlock
440
 16777216
100
AcDbLine
 10
938.8661677994546
 20
3613.448439770715
 30
0.0
 11
2668.866167799455
 21
3613.448439770715
 31
0.0
  0
INSERT
  5
7EBF
330
7DBF
100
AcDbEntity
  8
0
  6
ByBlock
440
 16777216
100
AcDbBlockReference
  2
_OPEN
 10
878.8661677994547
 20
3613.448439770715
 30
0.0
 41
60.0
 42
60.0
 43
60.0
 50
180.0
  0
INSERT
  5
7EC0
330
7DBF
100
AcDbEntity
  8
0
  6
ByBlock
440
 16777216
100
AcDbBlockReference
  2
_OPEN
 10
2728.866167799455
 20
3613.448439770715
 30
0.0
 41
60.0
 42
60.0
 43
60.0
  0
MTEXT
  5
7EC1
330
7DBF
100
AcDbEntity
  8
0
  6
ByBlock
440
 16777216
100
AcDbMText
 10
1803.866167799455
 20
3673.448439770715
 30
0.0
 40
90.0
 41
0.0
 46
0.0
 71
     5
 72
     5
  1
\A1;1850
 73
     1
 44
1.0
  0
POINT
  5
7EC2
330
7DBF
100
AcDbEntity
  8
DEFPOINTS
  6
ByBlock
 62
     0
440
 16777216
100
AcDbPoint
 10
878.8661677994547
 20
3955.6229154676
 30
0.0
  0
POINT
  5
7EC3
330
7DBF
100
AcDbEntity
  8
DEFPOINTS
  6
ByBlock
 62
     0
440
 16777216
100
AcDbPoint
 10
2728.866167799455
 20
3955.6229154676
 30
0.0
  0
POINT
  5
7EC4
330
7DBF
100
AcDbEntity
  8
DEFPOINTS
  6
ByBlock
 62
     0
440
 16777216
100
AcDbPoint
 10
2728.866167799455
 20
3613.448439770715
 30
0.0
  0
ENDBLK
  5
7EC5
330
7DBF
100
AcDbEntity
  8
0
100
AcDbBlockEnd
  0
BLOCK
  5
7EC6
330
7DCB
100
AcDbEntity
  8
0
100
AcDbBlockBegin
  2
*D12
 70
     1
 10
0.0
 20
0.0
 30
0.0
  3
*D12
  1

  0
LINE
  5
7EC7
330
7DCB
100
AcDbEntity
  8
0
  6
ByBlock
440
 16777216
100
AcDbLine
 10
4383.907505112644
 20
2136.887615409481
 30
0.0
 11
4383.907505112644
 21
2243.819859761796
 31
0.0
  0
LINE
  5
7EC8
330
7DCB
100
AcDbEntity
  8
0
  6
ByBlock
440
 16777216
100
AcDbLine
 10
5443.907505112644
 20
2136.887615409481
 30
0.0
 11
5443.907505112644
 21
2243.819859761796
 31
0.0
  0
LINE
  5
7EC9
330
7DCB
100
AcDbEntity
  8
0
  6
ByBlock
440
 16777216
100
AcDbLine
 10
4443.907505112644
 20
2213.819859761796
 30
0.0
 11
5383.907505112643
 21
2213.819859761796
 31
0.0
  0
INSERT
  5
7ECA
330
7DCB
100
AcDbEntity
  8
0
  6
ByBlock
440
 16777216
100
AcDbBlockReference
  2
_OPEN
 10
4383.907505112644
 20
2213.819859761796
 30
0.0
 41
60.0
 42
60.0
 43
60.0
 50
180.0
  0
INSERT
  5
7ECB
330
7DCB
100
AcDbEntity
  8
0
  6
ByBlock
440
 16777216
100
AcDbBlockReference
  2
_OPEN
 10
5443.907505112644
 20
2213.819859761796
 30
0.0
 41
60.0
 42
60.0
 43
60.0
  0
MTEXT
  5
7ECC
330
7DCB
100
AcDbEntity
  8
0
  6
ByBlock
440
 16777216
100
AcDbMText
 10
4913.907505112644
 20
2273.819859761796
 30
0.0
 40
90.0
 41
0.0
 46
0.0
 71
     5
 72
     5
  1
\A1;1060
 73
     1
 44
1.0
  0
POINT
  5
7ECD
330
7DCB
100
AcDbEntity
  8
DEFPOINTS
  6
ByBlock
 62
     0
440
 16777216
100
AcDbPoint
 10
4383.907505112644
 20
2106.887615409481
 30
0.0
  0
POINT
  5
7ECE
330
7DCB
100
AcDbEntity
  8
DEFPOINTS
  6
ByBlock
 62
     0
440
 16777216
100
AcDbPoint
 10
5443.907505112644
 20
2106.887615409481
 30
0.0
  0
POINT
  5
7ECF
330
7DCB
100
AcDbEntity
  8
DEFPOINTS
  6
ByBlock
 62
     0
440
 16777216
100
AcDbPoint
 10
5443.907505112644
 20
2213.819859761796
 30
0.0
  0
ENDBLK
  5
7ED0
330
7DCB
100
AcDbEntity
  8
0
100
AcDbBlockEnd
  0
BLOCK
  5
7EEB
330
7DF3
100
AcDbEntity
  8
0
100
AcDbBlockBegin
  2
*D13
 70
     1
 10
0.0
 20
0.0
 30
0.0
  3
*D13
  1

  0
LINE
  5
809F
330
7DF3
100
AcDbEntity
  8
3
440
 16777216
100
AcDbLine
 10
2278.366167799454
 20
3563.417139429895
 30
0.0
 11
3105.135824977384
 21
3563.417139429895
 31
0.0
  0
LINE
  5
80A0
330
7DF3
100
AcDbEntity
  8
3
440
 16777216
100
AcDbLine
 10
3075.135824977384
 20
3078.417139429895
 30
0.0
 11
3075.135824977384
 21
3503.417139429894
 31
0.0
  0
INSERT
  5
80A1
330
7DF3
100
AcDbEntity
  8
3
440
 16777216
100
AcDbBlockReference
  2
_OPEN
 10
3075.135824977384
 20
3018.417139429895
 30
0.0
 41
60.0
 42
60.0
 43
60.0
 50
270.0
  0
INSERT
  5
80A2
330
7DF3
100
AcDbEntity
  8
3
440
 16777216
100
AcDbBlockReference
  2
_OPEN
 10
3075.135824977384
 20
3563.417139429895
 30
0.0
 41
60.0
 42
60.0
 43
60.0
 50
90.0
  0
MTEXT
  5
80A3
330
7DF3
100
AcDbEntity
  8
3
440
 16777216
100
AcDbMText
 10
3015.135824977383
 20
3290.917139429896
 30
0.0
 40
90.0
 41
0.0
 46
0.0
 71
     5
 72
     5
  1
\A1;545
 11
0.0000000000000001
 21
1.0
 31
0.0
 73
     1
 44
1.0
  0
POINT
  5
80A4
330
7DF3
100
AcDbEntity
  8
DEFPOINTS
 62
     0
440
 16777216
100
AcDbPoint
 10
2895.337959649845
 20
3018.417139429896
 30
0.0
  0
POINT
  5
80A5
330
7DF3
100
AcDbEntity
  8
DEFPOINTS
 62
     0
440
 16777216
100
AcDbPoint
 10
2248.366167799455
 20
3563.417139429895
 30
0.0
  0
POINT
  5
80A6
330
7DF3
100
AcDbEntity
  8
DEFPOINTS
 62
     0
440
 16777216
100
AcDbPoint
 10
3075.135824977384
 20
3563.417139429895
 30
0.0
  0
ENDBLK
  5
7EF4
330
7DF3
100
AcDbEntity
  8
0
100
AcDbBlockEnd
  0
BLOCK
  5
7F00
330
7E0A
100
AcDbEntity
  8
0
100
AcDbBlockBegin
  2
*D14
 70
     1
 10
0.0
 20
0.0
 30
0.0
  3
*D14
  1

  0
LINE
  5
83DB
330
7E0A
100
AcDbEntity
  8
3
440
 16777216
370
    -2
100
AcDbLine
 10
2786.866167799455
 20
2989.417139429896
 30
0.0
 11
2786.866167799455
 21
3894.045885545762
 31
0.0
  0
LINE
  5
83DC
330
7E0A
100
AcDbEntity
  8
3
440
 16777216
370
    -2
100
AcDbLine
 10
2288.866167799455
 20
3864.045885545762
 30
0.0
 11
2726.866167799455
 21
3864.045885545762
 31
0.0
  0
INSERT
  5
83DD
330
7E0A
100
AcDbEntity
  8
3
440
 16777216
370
    -2
100
AcDbBlockReference
  2
_OPEN
 10
2228.866167799455
 20
3864.045885545762
 30
0.0
 41
60.0
 42
60.0
 43
60.0
 50
180.0
  0
INSERT
  5
83DE
330
7E0A
100
AcDbEntity
  8
3
440
 16777216
370
    -2
100
AcDbBlockReference
  2
_OPEN
 10
2786.866167799455
 20
3864.045885545762
 30
0.0
 41
60.0
 42
60.0
 43
60.0
  0
MTEXT
  5
83DF
330
7E0A
100
AcDbEntity
  8
3
440
 16777216
100
AcDbMText
 10
2507.866167799455
 20
3924.045885545762
 30
0.0
 40
90.0
 41
0.0
 46
0.0
 71
     5
 72
     1
  1
\A1;558
 73
     1
 44
1.0
  0
POINT
  5
83E0
330
7E0A
100
AcDbEntity
  8
DEFPOINTS
 62
     0
440
 16777216
100
AcDbPoint
 10
2228.866167799455
 20
3684.888931280286
 30
0.0
  0
POINT
  5
83E1
330
7E0A
100
AcDbEntity
  8
DEFPOINTS
 62
     0
440
 16777216
100
AcDbPoint
 10
2786.866167799455
 20
2959.417139429896
 30
0.0
  0
POINT
  5
83E2
330
7E0A
100
AcDbEntity
  8
DEFPOINTS
 62
     0
440
 16777216
100
AcDbPoint
 10
2786.866167799455
 20
3864.045885545762
 30
0.0
  0
ENDBLK
  5
7F09
330
7E0A
100
AcDbEntity
  8
0
100
AcDbBlockEnd
  0
BLOCK
  5
7F0A
330
7E15
100
AcDbEntity
  8
0
100
AcDbBlockBegin
  2
*D15
 70
     1
 10
0.0
 20
0.0
 30
0.0
  3
*D15
  1

  0
LINE
  5
83E3
330
7E15
100
AcDbEntity
  8
3
440
 16777216
370
    -2
100
AcDbLine
 10
2786.866167799455
 20
2989.417139429896
 30
0.0
 11
2786.866167799455
 21
4065.467637232223
 31
0.0
  0
LINE
  5
83E4
330
7E15
100
AcDbEntity
  8
3
440
 16777216
370
    -2
100
AcDbLine
 10
878.866167799455
 20
2448.417139429896
 30
0.0
 11
878.8661677994552
 21
4065.467637232223
 31
0.0
  0
LINE
  5
83E5
330
7E15
100
AcDbEntity
  8
3
440
 16777216
370
    -2
100
AcDbLine
 10
2726.866167799455
 20
4035.467637232223
 30
0.0
 11
938.8661677994551
 21
4035.467637232223
 31
0.0
  0
INSERT
  5
83E6
330
7E15
100
AcDbEntity
  8
3
440
 16777216
370
    -2
100
AcDbBlockReference
  2
_OPEN
 10
2786.866167799455
 20
4035.467637232223
 30
0.0
 41
60.0
 42
60.0
 43
60.0
  0
INSERT
  5
83E7
330
7E15
100
AcDbEntity
  8
3
440
 16777216
370
    -2
100
AcDbBlockReference
  2
_OPEN
 10
878.8661677994552
 20
4035.467637232223
 30
0.0
 41
60.0
 42
60.0
 43
60.0
 50
180.0
  0
MTEXT
  5
83E8
330
7E15
100
AcDbEntity
  8
3
440
 16777216
100
AcDbMText
 10
1832.866167799455
 20
4095.467637232223
 30
0.0
 40
90.0
 41
0.0
 46
0.0
 71
     5
 72
     1
  1
\A1;1908
 73
     1
 44
1.0
  0
POINT
  5
83E9
330
7E15
100
AcDbEntity
  8
DEFPOINTS
 62
     0
440
 16777216
100
AcDbPoint
 10
2786.866167799455
 20
2959.417139429896
 30
0.0
  0
POINT
  5
83EA
330
7E15
100
AcDbEntity
  8
DEFPOINTS
 62
     0
440
 16777216
100
AcDbPoint
 10
878.866167799455
 20
2418.417139429896
 30
0.0
  0
POINT
  5
83EB
330
7E15
100
AcDbEntity
  8
DEFPOINTS
 62
     0
440
 16777216
100
AcDbPoint
 10
878.8661677994552
 20
4035.467637232223
 30
0.0
  0
ENDBLK
  5
7F14
330
7E15
100
AcDbEntity
  8
0
100
AcDbBlockEnd
  0
BLOCK
  5
7F9D
330
7F97
100
AcDbEntity
  8
0
100
AcDbBlockBegin
  2
_DOT
 70
     0
 10
0.0
 20
0.0
 30
0.0
  3
_DOT
  1

  0
LWPOLYLINE
  5
7F98
330
7F97
100
AcDbEntity
  8
0
  6
ByBlock
 62
     0
100
AcDbPolyline
 90
        2
 70
     1
 43
0.25
 10
-0.125
 20
0.0
 42
1.0
 10
0.125
 20
0.0
 42
1.0
  0
LINE
  5
7F9C
330
7F97
100
AcDbEntity
  8
0
  6
ByBlock
 62
     0
100
AcDbLine
 10
-0.25
 20
0.0
 30
0.0
 11
-1.0
 21
0.0
 31
0.0
  0
ENDBLK
  5
7F9E
330
7F97
100
AcDbEntity
  8
0
100
AcDbBlockEnd
  0
BLOCK
  5
8021
330
8020
100
AcDbEntity
  8
0
100
AcDbBlockBegin
  2
*D17
 70
     1
 10
0.0
 20
0.0
 30
0.0
  3
*D17
  1

  0
LINE
  5
8022
330
8020
100
AcDbEntity
  8
0
  6
ByBlock
 62
     0
440
 16777216
100
AcDbLine
 10
878.866167799455
 20
2303.417139429896
 30
0.0
 11
878.866167799455
 21
2106.168360336367
 31
0.0
  0
LINE
  5
8023
330
8020
100
AcDbEntity
  8
0
  6
ByBlock
 62
     0
440
 16777216
100
AcDbLine
 10
2228.866167799455
 20
2303.417139429896
 30
0.0
 11
2228.866167799455
 21
2106.168360336367
 31
0.0
  0
LINE
  5
8024
330
8020
100
AcDbEntity
  8
0
  6
ByBlock
 62
     0
440
 16777216
100
AcDbLine
 10
938.866167799455
 20
2136.168360336367
 30
0.0
 11
2168.866167799455
 21
2136.168360336367
 31
0.0
  0
INSERT
  5
8025
330
8020
100
AcDbEntity
  8
0
  6
ByBlock
 62
     0
440
 16777216
100
AcDbBlockReference
  2
_OPEN
 10
878.866167799455
 20
2136.168360336367
 30
0.0
 41
60.0
 42
60.0
 43
60.0
 50
180.0
  0
INSERT
  5
8026
330
8020
100
AcDbEntity
  8
0
  6
ByBlock
 62
     0
440
 16777216
100
AcDbBlockReference
  2
_OPEN
 10
2228.866167799455
 20
2136.168360336367
 30
0.0
 41
60.0
 42
60.0
 43
60.0
  0
MTEXT
  5
8027
330
8020
100
AcDbEntity
  8
0
  6
ByBlock
 62
     0
440
 16777216
100
AcDbMText
 10
1553.866167799455
 20
2211.168360336367
 30
0.0
 40
90.0
 41
0.0
 46
0.0
 71
     5
 72
     5
  1
\A1;1350
 73
     1
 44
1.0
  0
POINT
  5
8028
330
8020
100
AcDbEntity
  8
DEFPOINTS
  6
ByBlock
 62
     0
440
 16777216
100
AcDbPoint
 10
878.866167799455
 20
2318.417139429896
 30
0.0
  0
POINT
  5
8029
330
8020
100
AcDbEntity
  8
DEFPOINTS
  6
ByBlock
 62
     0
440
 16777216
100
AcDbPoint
 10
2228.866167799455
 20
2318.417139429896
 30
0.0
  0
POINT
  5
802A
330
8020
100
AcDbEntity
  8
DEFPOINTS
  6
ByBlock
 62
     0
440
 16777216
100
AcDbPoint
 10
2228.866167799455
 20
2136.168360336367
 30
0.0
  0
ENDBLK
  5
802B
330
8020
100
AcDbEntity
  8
0
100
AcDbBlockEnd
  0
BLOCK
  5
802E
330
802D
100
AcDbEntity
  8
0
100
AcDbBlockBegin
  2
*D18
 70
     1
 10
0.0
 20
0.0
 30
0.0
  3
*D18
  1

  0
LINE
  5
802F
330
802D
100
AcDbEntity
  8
0
  6
ByBlock
 62
     0
440
 16777216
100
AcDbLine
 10
2228.866167799455
 20
2303.417139429896
 30
0.0
 11
2228.866167799455
 21
2106.168360336367
 31
0.0
  0
LINE
  5
8030
330
802D
100
AcDbEntity
  8
0
  6
ByBlock
 62
     0
440
 16777216
100
AcDbLine
 10
2728.866167799455
 20
2303.417139429896
 30
0.0
 11
2728.866167799455
 21
2106.168360336367
 31
0.0
  0
LINE
  5
8031
330
802D
100
AcDbEntity
  8
0
  6
ByBlock
 62
     0
440
 16777216
100
AcDbLine
 10
2288.866167799455
 20
2136.168360336367
 30
0.0
 11
2668.866167799456
 21
2136.168360336367
 31
0.0
  0
INSERT
  5
8032
330
802D
100
AcDbEntity
  8
0
  6
ByBlock
 62
     0
440
 16777216
100
AcDbBlockReference
  2
_OPEN
 10
2228.866167799455
 20
2136.168360336367
 30
0.0
 41
60.0
 42
60.0
 43
60.0
 50
180.0
  0
INSERT
  5
8033
330
802D
100
AcDbEntity
  8
0
  6
ByBlock
 62
     0
440
 16777216
100
AcDbBlockReference
  2
_OPEN
 10
2728.866167799455
 20
2136.168360336367
 30
0.0
 41
60.0
 42
60.0
 43
60.0
  0
MTEXT
  5
8034
330
802D
100
AcDbEntity
  8
0
  6
ByBlock
 62
     0
440
 16777216
100
AcDbMText
 10
2478.866167799455
 20
2211.168360336367
 30
0.0
 40
90.0
 41
0.0
 46
0.0
 71
     5
 72
     5
  1
\A1;500
 73
     1
 44
1.0
  0
POINT
  5
8035
330
802D
100
AcDbEntity
  8
DEFPOINTS
  6
ByBlock
 62
     0
440
 16777216
100
AcDbPoint
 10
2228.866167799455
 20
2318.417139429896
 30
0.0
  0
POINT
  5
8036
330
802D
100
AcDbEntity
  8
DEFPOINTS
  6
ByBlock
 62
     0
440
 16777216
100
AcDbPoint
 10
2728.866167799455
 20
2318.417139429896
 30
0.0
  0
POINT
  5
8037
330
802D
100
AcDbEntity
  8
DEFPOINTS
  6
ByBlock
 62
     0
440
 16777216
100
AcDbPoint
 10
2728.866167799455
 20
2136.168360336367
 30
0.0
  0
ENDBLK
  5
8038
330
802D
100
AcDbEntity
  8
0
100
AcDbBlockEnd
  0
BLOCK
  5
803B
330
803A
100
AcDbEntity
  8
0
100
AcDbBlockBegin
  2
*D19
 70
     1
 10
0.0
 20
0.0
 30
0.0
  3
*D19
  1

  0
LINE
  5
803C
330
803A
100
AcDbEntity
  8
0
  6
ByBlock
 62
     0
440
 16777216
100
AcDbLine
 10
4176.907505112644
 20
2303.417139429896
 30
0.0
 11
4176.907505112644
 21
2106.168360336367
 31
0.0
  0
LINE
  5
803D
330
803A
100
AcDbEntity
  8
0
  6
ByBlock
 62
     0
440
 16777216
100
AcDbLine
 10
4913.907505112645
 20
2303.417139429896
 30
0.0
 11
4913.907505112645
 21
2106.168360336367
 31
0.0
  0
LINE
  5
803E
330
803A
100
AcDbEntity
  8
0
  6
ByBlock
 62
     0
440
 16777216
100
AcDbLine
 10
4236.907505112643
 20
2136.168360336367
 30
0.0
 11
4853.907505112646
 21
2136.168360336367
 31
0.0
  0
INSERT
  5
803F
330
803A
100
AcDbEntity
  8
0
  6
ByBlock
 62
     0
440
 16777216
100
AcDbBlockReference
  2
_OPEN
 10
4176.907505112644
 20
2136.168360336367
 30
0.0
 41
60.0
 42
60.0
 43
60.0
 50
180.0
  0
INSERT
  5
8040
330
803A
100
AcDbEntity
  8
0
  6
ByBlock
 62
     0
440
 16777216
100
AcDbBlockReference
  2
_OPEN
 10
4913.907505112645
 20
2136.168360336367
 30
0.0
 41
60.0
 42
60.0
 43
60.0
  0
MTEXT
  5
8041
330
803A
100
AcDbEntity
  8
0
  6
ByBlock
 62
     0
440
 16777216
100
AcDbMText
 10
4545.407505112645
 20
2211.168360336367
 30
0.0
 40
90.0
 41
0.0
 46
0.0
 71
     5
 72
     5
  1
\A1;737
 73
     1
 44
1.0
  0
POINT
  5
8042
330
803A
100
AcDbEntity
  8
DEFPOINTS
  6
ByBlock
 62
     0
440
 16777216
100
AcDbPoint
 10
4176.907505112644
 20
2318.417139429896
 30
0.0
  0
POINT
  5
8043
330
803A
100
AcDbEntity
  8
DEFPOINTS
  6
ByBlock
 62
     0
440
 16777216
100
AcDbPoint
 10
4913.907505112645
 20
2318.417139429896
 30
0.0
  0
POINT
  5
8044
330
803A
100
AcDbEntity
  8
DEFPOINTS
  6
ByBlock
 62
     0
440
 16777216
100
AcDbPoint
 10
4913.907505112645
 20
2136.168360336367
 30
0.0
  0
ENDBLK
  5
8045
330
803A
100
AcDbEntity
  8
0
100
AcDbBlockEnd
  0
BLOCK
  5
8048
330
8047
100
AcDbEntity
  8
0
100
AcDbBlockBegin
  2
*D20
 70
     1
 10
0.0
 20
0.0
 30
0.0
  3
*D20
  1

  0
LINE
  5
8049
330
8047
100
AcDbEntity
  8
0
  6
ByBlock
 62
     0
440
 16777216
100
AcDbLine
 10
4913.907505112645
 20
2303.417139429896
 30
0.0
 11
4913.907505112645
 21
2106.168360336367
 31
0.0
  0
LINE
  5
804A
330
8047
100
AcDbEntity
  8
0
  6
ByBlock
 62
     0
440
 16777216
100
AcDbLine
 10
5496.907505112644
 20
2303.417139429896
 30
0.0
 11
5496.907505112644
 21
2106.168360336367
 31
0.0
  0
LINE
  5
804B
330
8047
100
AcDbEntity
  8
0
  6
ByBlock
 62
     0
440
 16777216
100
AcDbLine
 10
4973.907505112645
 20
2136.168360336367
 30
0.0
 11
5436.907505112643
 21
2136.168360336367
 31
0.0
  0
INSERT
  5
804C
330
8047
100
AcDbEntity
  8
0
  6
ByBlock
 62
     0
440
 16777216
100
AcDbBlockReference
  2
_OPEN
 10
4913.907505112645
 20
2136.168360336367
 30
0.0
 41
60.0
 42
60.0
 43
60.0
 50
180.0
  0
INSERT
  5
804D
330
8047
100
AcDbEntity
  8
0
  6
ByBlock
 62
     0
440
 16777216
100
AcDbBlockReference
  2
_OPEN
 10
5496.907505112644
 20
2136.168360336367
 30
0.0
 41
60.0
 42
60.0
 43
60.0
  0
MTEXT
  5
804E
330
8047
100
AcDbEntity
  8
0
  6
ByBlock
 62
     0
440
 16777216
100
AcDbMText
 10
5205.407505112645
 20
2211.168360336367
 30
0.0
 40
90.0
 41
0.0
 46
0.0
 71
     5
 72
     5
  1
\A1;583
 73
     1
 44
1.0
  0
POINT
  5
804F
330
8047
100
AcDbEntity
  8
DEFPOINTS
  6
ByBlock
 62
     0
440
 16777216
100
AcDbPoint
 10
4913.907505112645
 20
2318.417139429896
 30
0.0
  0
POINT
  5
8050
330
8047
100
AcDbEntity
  8
DEFPOINTS
  6
ByBlock
 62
     0
440
 16777216
100
AcDbPoint
 10
5496.907505112644
 20
2318.417139429896
 30
0.0
  0
POINT
  5
8051
330
8047
100
AcDbEntity
  8
DEFPOINTS
  6
ByBlock
 62
     0
440
 16777216
100
AcDbPoint
 10
5496.907505112644
 20
2136.168360336367
 30
0.0
  0
ENDBLK
  5
8052
330
8047
100
AcDbEntity
  8
0
100
AcDbBlockEnd
  0
BLOCK
  5
8055
330
8054
100
AcDbEntity
  8
0
100
AcDbBlockBegin
  2
*D21
 70
     1
 10
0.0
 20
0.0
 30
0.0
  3
*D21
  1

  0
LINE
  5
8056
330
8054
100
AcDbEntity
  8
0
  6
ByBlock
 62
     0
440
 16777216
100
AcDbLine
 10
2263.366167799454
 20
3563.417139429895
 30
0.0
 11
3301.209964472099
 21
3563.417139429895
 31
0.0
  0
LINE
  5
8057
330
8054
100
AcDbEntity
  8
0
  6
ByBlock
 62
     0
440
 16777216
100
AcDbLine
 10
2743.866167799455
 20
2318.417139429896
 30
0.0
 11
3301.209964472099
 21
2318.417139429896
 31
0.0
  0
LINE
  5
8058
330
8054
100
AcDbEntity
  8
0
  6
ByBlock
 62
     0
440
 16777216
100
AcDbLine
 10
3271.209964472099
 20
3503.417139429894
 30
0.0
 11
3271.209964472099
 21
2378.417139429895
 31
0.0
  0
INSERT
  5
8059
330
8054
100
AcDbEntity
  8
0
  6
ByBlock
 62
     0
440
 16777216
100
AcDbBlockReference
  2
_OPEN
 10
3271.209964472099
 20
3563.417139429895
 30
0.0
 41
60.0
 42
60.0
 43
60.0
 50
90.0
  0
INSERT
  5
805A
330
8054
100
AcDbEntity
  8
0
  6
ByBlock
 62
     0
440
 16777216
100
AcDbBlockReference
  2
_OPEN
 10
3271.209964472099
 20
2318.417139429896
 30
0.0
 41
60.0
 42
60.0
 43
60.0
 50
270.0
  0
MTEXT
  5
805B
330
8054
100
AcDbEntity
  8
0
  6
ByBlock
 62
     0
440
 16777216
100
AcDbMText
 10
3196.209964472098
 20
2940.917139429895
 30
0.0
 40
90.0
 41
0.0
 46
0.0
 71
     5
 72
     5
  1
\A1;1245
 11
0.0
 21
1.0
 31
0.0
 73
     1
 44
1.0
  0
POINT
  5
805C
330
8054
100
AcDbEntity
  8
DEFPOINTS
  6
ByBlock
 62
     0
440
 16777216
100
AcDbPoint
 10
2248.366167799455
 20
3563.417139429895
 30
0.0
  0
POINT
  5
805D
330
8054
100
AcDbEntity
  8
DEFPOINTS
  6
ByBlock
 62
     0
440
 16777216
100
AcDbPoint
 10
2728.866167799455
 20
2318.417139429896
 30
0.0
  0
POINT
  5
805E
330
8054
100
AcDbEntity
  8
DEFPOINTS
  6
ByBlock
 62
     0
440
 16777216
100
AcDbPoint
 10
3271.209964472099
 20
2318.417139429896
 30
0.0
  0
ENDBLK
  5
805F
330
8054
100
AcDbEntity
  8
0
100
AcDbBlockEnd
  0
BLOCK
  5
83EE
330
83ED
100
AcDbEntity
  8
0
100
AcDbBlockBegin
  2
*D49
 70
     1
 10
0.0
 20
0.0
 30
0.0
  3
*D49
  1

  0
LINE
  5
843F
330
83ED
100
AcDbEntity
  8
3
 62
     0
440
 16777216
370
    -2
100
AcDbLine
 10
4013.607505112644
 20
3253.417139429895
 30
0.0
 11
4013.607505112644
 21
4038.656152863667
 31
0.0
  0
LINE
  5
8440
330
83ED
100
AcDbEntity
  8
3
 62
     0
440
 16777216
370
    -2
100
AcDbLine
 10
4913.907505112644
 20
3790.34938378221
 30
0.0
 11
4913.907505112644
 21
4038.656152863667
 31
0.0
  0
LINE
  5
8441
330
83ED
100
AcDbEntity
  8
3
 62
     0
440
 16777216
370
    -2
100
AcDbLine
 10
4073.607505112643
 20
4008.656152863666
 30
0.0
 11
4853.907505112644
 21
4008.656152863666
 31
0.0
  0
INSERT
  5
8442
330
83ED
100
AcDbEntity
  8
3
 62
     0
440
 16777216
370
    -2
100
AcDbBlockReference
  2
_OPEN
 10
4013.607505112644
 20
4008.656152863666
 30
0.0
 41
60.0
 42
60.0
 43
60.0
 50
180.0
  0
INSERT
  5
8443
330
83ED
100
AcDbEntity
  8
3
 62
     0
440
 16777216
370
    -2
100
AcDbBlockReference
  2
_OPEN
 10
4913.907505112644
 20
4008.656152863666
 30
0.0
 41
60.0
 42
60.0
 43
60.0
  0
MTEXT
  5
8444
330
83ED
100
AcDbEntity
  8
3
 62
     0
440
 16777216
100
AcDbMText
 10
4463.757505112644
 20
4107.227581435095
 30
0.0
 40
90.0
 41
0.0
 46
0.0
 71
     5
 72
     1
  1
\A1;(900)
 73
     1
 44
1.0
  0
POINT
  5
8445
330
83ED
100
AcDbEntity
  8
DEFPOINTS
 62
     0
440
 16777216
100
AcDbPoint
 10
4013.607505112644
 20
3238.417139429895
 30
0.0
  0
POINT
  5
8446
330
83ED
100
AcDbEntity
  8
DEFPOINTS
 62
     0
440
 16777216
100
AcDbPoint
 10
4913.907505112644
 20
3775.34938378221
 30
0.0
  0
POINT
  5
8447
330
83ED
100
AcDbEntity
  8
DEFPOINTS
 62
     0
440
 16777216
100
AcDbPoint
 10
4913.907505112644
 20
4008.656152863666
 30
0.0
  0
ENDBLK
  5
83EF
330
83ED
100
AcDbEntity
  8
0
100
AcDbBlockEnd
  0
BLOCK
  5
83FB
330
83FA
100
AcDbEntity
  8
0
100
AcDbBlockBegin
  2
*D50
 70
     1
 10
0.0
 20
0.0
 30
0.0
  3
*D50
  1

  0
LINE
  5
8448
330
83FA
100
AcDbEntity
  8
3
 62
     0
440
 16777216
370
    -2
100
AcDbLine
 10
4913.907505112644
 20
3790.34938378221
 30
0.0
 11
4913.907505112644
 21
4038.656152863667
 31
0.0
  0
LINE
  5
8449
330
83FA
100
AcDbEntity
  8
3
 62
     0
440
 16777216
370
    -2
100
AcDbLine
 10
5573.707505112645
 20
3003.417139429895
 30
0.0
 11
5573.707505112645
 21
4038.656152863667
 31
0.0
  0
LINE
  5
844A
330
83FA
100
AcDbEntity
  8
3
 62
     0
440
 16777216
370
    -2
100
AcDbLine
 10
4973.907505112644
 20
4008.656152863666
 30
0.0
 11
5513.707505112645
 21
4008.656152863666
 31
0.0
  0
INSERT
  5
844B
330
83FA
100
AcDbEntity
  8
3
 62
     0
440
 16777216
370
    -2
100
AcDbBlockReference
  2
_OPEN
 10
4913.907505112644
 20
4008.656152863666
 30
0.0
 41
60.0
 42
60.0
 43
60.0
 50
180.0
  0
INSERT
  5
844C
330
83FA
100
AcDbEntity
  8
3
 62
     0
440
 16777216
370
    -2
100
AcDbBlockReference
  2
_OPEN
 10
5573.707505112645
 20
4008.656152863666
 30
0.0
 41
60.0
 42
60.0
 43
60.0
  0
MTEXT
  5
844D
330
83FA
100
AcDbEntity
  8
3
 62
     0
440
 16777216
100
AcDbMText
 10
5243.807505112645
 20
4107.227581435095
 30
0.0
 40
90.0
 41
0.0
 46
0.0
 71
     5
 72
     1
  1
\A1;(660)
 73
     1
 44
1.0
  0
POINT
  5
844E
330
83FA
100
AcDbEntity
  8
DEFPOINTS
 62
     0
440
 16777216
100
AcDbPoint
 10
4913.907505112644
 20
3775.34938378221
 30
0.0
  0
POINT
  5
844F
330
83FA
100
AcDbEntity
  8
DEFPOINTS
 62
     0
440
 16777216
100
AcDbPoint
 10
5573.707505112645
 20
2988.417139429895
 30
0.0
  0
POINT
  5
8450
330
83FA
100
AcDbEntity
  8
DEFPOINTS
 62
     0
440
 16777216
100
AcDbPoint
 10
5573.707505112645
 20
4008.656152863666
 30
0.0
  0
ENDBLK
  5
83FC
330
83FA
100
AcDbEntity
  8
0
100
AcDbBlockEnd
  0
ENDSEC
  0
SECTION
  2
ENTITIES
  0
INSERT
  5
7C23
330
19
100
AcDbEntity
  8
0
100
AcDbBlockReference
  2
YA_N
 10
6.0
 20
5.0
 30
0.0
  0
LINE
  5
7C25
330
19
100
AcDbEntity
  8
2
100
AcDbLine
 10
2228.866167799455
 20
3877.100472057139
 30
0.0
 11
2228.866167799455
 21
2318.417139429896
 31
0.0
  0
LINE
  5
7C26
330
19
100
AcDbEntity
  8
2
100
AcDbLine
 10
2895.337959649845
 20
3018.417139429896
 30
0.0
 11
1332.485571595601
 21
3018.417139429896
 31
0.0
  0
LINE
  5
7C32
330
19
100
AcDbEntity
  8
1
100
AcDbLine
 10
878.866167799455
 20
2318.417139429896
 30
0.0
 11
2728.866167799455
 21
2318.417139429896
 31
0.0
1001
ACAD
1000
ASC_BOUNDS
1002
{
1070
    19
1002
}
  0
LINE
  5
7C33
330
19
100
AcDbEntity
  8
1
100
AcDbLine
 10
878.866167799455
 20
2418.417139429896
 30
0.0
 11
2728.866167799455
 21
2418.417139429896
 31
0.0
  0
LINE
  5
7C34
330
19
100
AcDbEntity
  8
1
100
AcDbLine
 10
878.866167799455
 20
2418.417139429896
 30
0.0
 11
878.866167799455
 21
2318.417139429896
 31
0.0
  0
LINE
  5
7C38
330
19
100
AcDbEntity
  8
1
100
AcDbLine
 10
926.8661677994533
 20
2458.417139429896
 30
0.0
 11
1330.866167799455
 21
2458.417139429896
 31
0.0
  0
LINE
  5
7C39
330
19
100
AcDbEntity
  8
1
100
AcDbLine
 10
1328.866167799455
 20
2458.417139429896
 30
0.0
 11
1328.866167799455
 21
2418.417139429896
 31
0.0
  0
LINE
  5
7C3A
330
19
100
AcDbEntity
  8
1
100
AcDbLine
 10
2728.866167799455
 20
2418.417139429896
 30
0.0
 11
2728.866167799455
 21
2318.417139429896
 31
0.0
  0
LINE
  5
7C3B
330
19
100
AcDbEntity
  8
1
100
AcDbLine
 10
5443.907505112644
 20
3563.417139429895
 30
0.0
 11
5443.90750511264
 21
2418.417139429896
 31
0.0
  0
LINE
  5
7C3C
330
19
100
AcDbEntity
  8
1
100
AcDbLine
 10
4176.907505112644
 20
2318.417139429896
 30
0.0
 11
5496.907505112644
 21
2318.417139429896
 31
0.0
1001
ACAD
1000
ASC_BOUNDS
1002
{
1070
    19
1002
}
  0
LINE
  5
7C3D
330
19
100
AcDbEntity
  8
1
100
AcDbLine
 10
4176.907505112644
 20
2418.417139429895
 30
0.0
 11
5496.907505112646
 21
2418.417139429896
 31
0.0
  0
LINE
  5
7C3F
330
19
100
AcDbEntity
  8
1
100
AcDbLine
 10
4176.907505112644
 20
2418.417139429895
 30
0.0
 11
4176.907505112644
 21
2318.417139429896
 31
0.0
  0
LINE
  5
7C40
330
19
100
AcDbEntity
  8
1
100
AcDbLine
 10
5496.907505112645
 20
2418.417139429896
 30
0.0
 11
5496.907505112644
 21
2318.417139429896
 31
0.0
  0
LINE
  5
7C41
330
19
100
AcDbEntity
  8
1
100
AcDbLine
 10
5496.907505112644
 20
2418.417139429896
 30
0.0
 11
5496.907505112645
 21
2412.891024273306
 31
0.0
  0
LINE
  5
7C42
330
19
100
AcDbEntity
  8
2
100
AcDbLine
 10
4026.424836725975
 20
3018.417139429896
 30
0.0
 11
5564.957351691841
 21
3018.417139429896
 31
0.0
  0
LINE
  5
7C43
330
19
100
AcDbEntity
  8
2
100
AcDbLine
 10
4027.313689911075
 20
2668.417139429896
 30
0.0
 11
4383.907505112644
 21
2668.417139429896
 31
0.0
  0
LINE
  5
7C44
330
19
100
AcDbEntity
  8
1
100
AcDbLine
 10
4101.607505112643
 20
3145.417139429895
 30
0.0
 11
4101.607505112643
 21
2558.417139429895
 31
0.0
  0
LINE
  5
7C45
330
19
100
AcDbEntity
  8
1
100
AcDbLine
 10
4013.607505112644
 20
3238.417139429895
 30
0.0
 11
4013.607505112644
 21
2448.417139429895
 31
0.0
  0
LINE
  5
7C46
330
19
100
AcDbEntity
  8
1
100
AcDbLine
 10
4013.607505112644
 20
3238.417139429895
 30
0.0
 11
4216.607505112643
 21
3238.417139429895
 31
0.0
  0
LINE
  5
7C47
330
19
100
AcDbEntity
  8
1
100
AcDbLine
 10
4216.607505112643
 20
3238.417139429895
 30
0.0
 11
4216.607505112643
 21
3188.417139429895
 31
0.0
  0
LINE
  5
7C48
330
19
100
AcDbEntity
  8
1
100
AcDbLine
 10
4216.607505112644
 20
2600.912916821233
 30
0.0
 11
4216.607505112644
 21
2448.417139429896
 31
0.0
  0
LINE
  5
7C49
330
19
100
AcDbEntity
  8
2
100
AcDbLine
 10
4913.907505112644
 20
3642.867252949797
 30
0.0
 11
4913.907505112645
 21
2318.417139429896
 31
0.0
  0
POINT
  5
7C4A
330
19
100
AcDbEntity
  8
1
100
AcDbPoint
 10
2728.866167799455
 20
2318.417139429896
 30
0.0
  0
POINT
  5
7C4B
330
19
100
AcDbEntity
  8
1
100
AcDbPoint
 10
2728.866167799455
 20
2318.417139429896
 30
0.0
  0
POINT
  5
7C4C
330
19
100
AcDbEntity
  8
1
100
AcDbPoint
 10
2728.866167799455
 20
2318.417139429896
 30
0.0
  0
INSERT
  5
7C4F
330
19
100
AcDbEntity
  8
0
100
AcDbBlockReference
  2
YA_N
 10
-733.6448571667497
 20
-271.0302667023643
 30
0.0
 41
20.0
 42
20.0
 43
20.0
  0
DIMENSION
  5
7C52
330
19
100
AcDbEntity
  8
3
100
AcDbDimension
280
     0
  2
*D3
 10
2205.866167799454
 20
3711.762482971959
 30
0.0
 11
1793.366167799454
 21
3771.762482971959
 31
0.0
 12
0.0
 22
1456.529524020414
 32
0.0
 70
    32
 71
     5
 42
-1.0
 73
     0
 74
     0
 75
     0
  3
MATSU
100
AcDbAlignedDimension
 13
1380.866167799454
 23
3563.417139429895
 33
0.0
 14
2205.866167799454
 24
3563.417139429895
 34
0.0
100
AcDbRotatedDimension
1001
ACAD
1000
DSTYLE
1002
{
1070
    40
1040
30.0
1002
}
  0
DIMENSION
  5
7C53
330
19
100
AcDbEntity
  8
3
100
AcDbDimension
280
     0
  2
*D4
 10
2228.866167799455
 20
3864.045885545762
 30
0.0
 11
1804.866167799454
 21
3924.045885545762
 31
0.0
 12
0.0
 22
1456.529524020414
 32
0.0
 70
    32
 71
     5
 42
-1.0
 73
     0
 74
     0
 75
     0
  3
MATSU
100
AcDbAlignedDimension
 13
1380.866167799454
 23
3563.417139429895
 33
0.0
 14
2228.866167799455
 24
3684.888931280286
 34
0.0
100
AcDbRotatedDimension
1001
ACAD
1000
DSTYLE
1002
{
1070
    40
1040
30.0
1002
}
  0
LINE
  5
7C54
330
19
100
AcDbEntity
  8
1
100
AcDbLine
 10
994.4072677994554
 20
2578.105139429896
 30
0.0
 11
974.8661677994551
 21
2524.417139429896
 31
0.0
  0
LINE
  5
7C55
330
19
100
AcDbEntity
  8
1
100
AcDbLine
 10
1263.312967799455
 20
2578.138139429895
 30
0.0
 11
1282.866167799455
 21
2524.417139429896
 31
0.0
  0
ARC
  5
7C56
330
19
100
AcDbEntity
  8
1
100
AcDbCircle
 10
1128.866167799455
 20
2668.417139429896
 30
0.0
 40
162.0
100
AcDbArc
 50
180.0
 51
254.3581
  0
ARC
  5
7C57
330
19
100
AcDbEntity
  8
1
100
AcDbCircle
 10
1128.866167799455
 20
2668.417139429896
 30
0.0
 40
162.0
100
AcDbArc
 50
285.6399
 51
180.0
  0
LINE
  5
7C58
330
19
100
AcDbEntity
  8
2
100
AcDbLine
 10
1128.866167799455
 20
2896.86582587269
 30
0.0
 11
1128.866167799453
 21
2318.417139429896
 31
0.0
  0
LINE
  5
7C59
330
19
100
AcDbEntity
  8
1
100
AcDbLine
 10
1172.546767799454
 20
2512.417139429896
 30
0.0
 11
1085.185467799454
 21
2512.417139429896
 31
0.0
  0
LINE
  5
7C5A
330
19
100
AcDbEntity
  8
1
100
AcDbLine
 10
1213.810067799455
 20
2530.473139429895
 30
0.0
 11
1221.987467799455
 21
2522.295139429895
 31
0.0
  0
LINE
  5
7C5D
330
19
100
AcDbEntity
  8
1
100
AcDbLine
 10
1236.079367799455
 20
2526.417139429895
 30
0.0
 11
1280.866167799455
 21
2526.417139429895
 31
0.0
  0
ARC
  5
7C5F
330
19
100
AcDbEntity
  8
1
100
AcDbCircle
 10
1280.866167799455
 20
2524.417139429896
 30
0.0
 40
2.0
100
AcDbArc
 50
0.0
 51
90.0
  0
LINE
  5
7C60
330
19
100
AcDbEntity
  8
1
100
AcDbLine
 10
1282.866167799455
 20
2508.417139429896
 30
0.0
 11
1282.866167799455
 21
2524.417139429896
 31
0.0
  0
LINE
  5
7C63
330
19
100
AcDbEntity
  8
1
100
AcDbLine
 10
1223.977367799454
 20
2537.276139429895
 30
0.0
 11
1233.957967799455
 21
2527.295139429896
 31
0.0
  0
ARC
  5
7C65
330
19
100
AcDbEntity
  8
1
100
AcDbCircle
 10
1236.079367799455
 20
2529.417139429896
 30
0.0
 40
3.0
100
AcDbArc
 50
225.0
 51
270.0
  0
ARC
  5
7C66
330
19
100
AcDbEntity
  8
1
100
AcDbCircle
 10
1219.866167799455
 20
2520.174139429895
 30
0.0
 40
3.0
100
AcDbArc
 50
0.0
 51
45.0
  0
LINE
  5
7C67
330
19
100
AcDbEntity
  8
1
100
AcDbLine
 10
1222.866167799455
 20
2508.417139429896
 30
0.0
 11
1222.866167799455
 21
2520.174139429895
 31
0.0
  0
LINE
  5
7C6B
330
19
100
AcDbEntity
  8
1
100
AcDbLine
 10
1021.652967799455
 20
2526.417139429895
 30
0.0
 11
976.866167799455
 21
2526.417139429895
 31
0.0
  0
LINE
  5
7C6C
330
19
100
AcDbEntity
  8
1
100
AcDbLine
 10
1023.827667799454
 20
2527.349139429896
 30
0.0
 11
1033.754967799454
 21
2537.276139429895
 31
0.0
  0
LINE
  5
7C6D
330
19
100
AcDbEntity
  8
1
100
AcDbLine
 10
1043.922267799455
 20
2530.473139429895
 30
0.0
 11
1035.744767799455
 21
2522.295139429895
 31
0.0
  0
ARC
  5
7C6E
330
19
100
AcDbEntity
  8
1
100
AcDbCircle
 10
1037.866167799455
 20
2520.174139429895
 30
0.0
 40
3.0
100
AcDbArc
 50
135.0
 51
180.0
  0
LINE
  5
7C6F
330
19
100
AcDbEntity
  8
1
100
AcDbLine
 10
1034.866167799455
 20
2508.417139429896
 30
0.0
 11
1034.866167799455
 21
2520.174139429895
 31
0.0
  0
ARC
  5
7C70
330
19
100
AcDbEntity
  8
1
100
AcDbCircle
 10
1021.652967799455
 20
2529.417139429896
 30
0.0
 40
3.0
100
AcDbArc
 50
270.0
 51
315.0
  0
ARC
  5
7C72
330
19
100
AcDbEntity
  8
1
100
AcDbCircle
 10
976.866167799455
 20
2524.417139429896
 30
0.0
 40
2.0
100
AcDbArc
 50
90.0
 51
180.0
  0
LINE
  5
7C77
330
19
100
AcDbEntity
  8
1
100
AcDbLine
 10
974.8661677994551
 20
2508.417139429896
 30
0.0
 11
974.8661677994551
 21
2524.417139429896
 31
0.0
  0
LINE
  5
7C78
330
19
100
AcDbEntity
  8
2
100
AcDbLine
 10
1316.976611862126
 20
2668.417139429896
 30
0.0
 11
827.5597029347554
 21
2668.417139429895
 31
0.0
  0
LINE
  5
7C79
330
19
100
AcDbEntity
  8
1
100
AcDbLine
 10
940.3515245334146
 20
2508.417139429896
 30
0.0
 11
1068.866167799453
 21
2508.417139429895
 31
0.0
  0
LINE
  5
7C7A
330
19
100
AcDbEntity
  8
1
100
AcDbLine
 10
1330.866167799453
 20
2458.417139429896
 30
0.0
 11
1317.621035414266
 21
2508.417139429896
 31
0.0
  0
LINE
  5
7C7B
330
19
100
AcDbEntity
  8
1
100
AcDbLine
 10
926.8661677994533
 20
2458.417139429896
 30
0.0
 11
940.3515245334146
 21
2508.417139429896
 31
0.0
  0
LINE
  5
7C7C
330
19
100
AcDbEntity
  8
1
100
AcDbLine
 10
1068.866167799453
 20
2498.417139429895
 30
0.0
 11
1188.866167799455
 21
2498.417139429895
 31
0.0
  0
LINE
  5
7C7E
330
19
100
AcDbEntity
  8
1
100
AcDbLine
 10
1068.866167799453
 20
2508.417139429895
 30
0.0
 11
1068.866167799453
 21
2498.417139429895
 31
0.0
  0
LINE
  5
7C7F
330
19
100
AcDbEntity
  8
1
100
AcDbLine
 10
1188.866167799453
 20
2508.417139429895
 30
0.0
 11
1188.866167799453
 21
2498.417139429895
 31
0.0
  0
LINE
  5
7C80
330
19
100
AcDbEntity
  8
1
100
AcDbLine
 10
1188.866167799455
 20
2508.417139429895
 30
0.0
 11
1317.621035414266
 21
2508.417139429896
 31
0.0
  0
CIRCLE
  5
7C85
330
19
100
AcDbEntity
  8
1
100
AcDbCircle
 10
1128.866167799455
 20
2668.417139429896
 30
0.0
 40
110.0
  0
CIRCLE
  5
7C86
330
19
100
AcDbEntity
  8
1
100
AcDbCircle
 10
2228.866167799455
 20
3018.417139429896
 30
0.0
 40
127.0
  0
LINE
  5
7C87
330
19
100
AcDbEntity
  8
1
100
AcDbLine
 10
4101.607505112643
 20
3145.417139429895
 30
0.0
 11
4186.607505112643
 21
3145.417139429895
 31
0.0
  0
LINE
  5
7C88
330
19
100
AcDbEntity
  8
1
100
AcDbLine
 10
4101.607505112643
 20
2891.417139429896
 30
0.0
 11
4186.607505112644
 21
2891.417139429896
 31
0.0
  0
LINE
  5
7C89
330
19
100
AcDbEntity
  8
1
100
AcDbLine
 10
4101.607505112644
 20
2778.417139429896
 30
0.0
 11
4186.607505112643
 21
2778.417139429896
 31
0.0
  0
LINE
  5
7C8A
330
19
100
AcDbEntity
  8
1
100
AcDbLine
 10
4101.607505112643
 20
2558.417139429895
 30
0.0
 11
4186.607505112643
 21
2558.417139429895
 31
0.0
  0
LINE
  5
7C8B
330
19
100
AcDbEntity
  8
1
100
AcDbLine
 10
4013.607505112644
 20
2448.417139429895
 30
0.0
 11
4216.607505112643
 21
2448.417139429895
 31
0.0
  0
LINE
  5
7C8C
330
19
100
AcDbEntity
  8
1
100
AcDbLine
 10
4186.607505112643
 20
3145.417139429895
 30
0.0
 11
4186.607505112643
 21
2558.417139429895
 31
0.0
  0
INSERT
  5
7C8D
330
19
100
AcDbEntity
  8
0
100
AcDbBlockReference
  2
YA_N
 10
-36.73462870802178
 20
301.6536876033206
 30
0.0
 41
20.0
 42
20.0
 43
20.0
  0
INSERT
  5
7C8F
330
19
100
AcDbEntity
  8
0
100
AcDbBlockReference
  2
YA_N
 10
77.48489664613953
 20
225.311977764075
 30
0.0
 41
20.0
 42
20.0
 43
20.0
  0
POINT
  5
7C96
330
19
100
AcDbEntity
  8
1
100
AcDbPoint
 10
2728.866167799455
 20
2318.417139429896
 30
0.0
  0
DIMENSION
  5
7C99
330
19
100
AcDbEntity
  8
3
100
AcDbDimension
280
     0
  2
*D5
 10
3075.135824977384
 20
2318.417139429896
 30
0.0
 11
3015.135824977384
 21
2668.417139429896
 31
0.0
 12
0.0
 22
1456.529524020414
 32
0.0
 70
    32
 71
     5
 42
-1.0
 73
     0
 74
     0
 75
     0
  3
MATSU
100
AcDbAlignedDimension
 13
2895.337959649845
 23
3018.417139429896
 33
0.0
 14
2728.866167799455
 24
2318.417139429896
 34
0.0
 50
270.0
100
AcDbRotatedDimension
1001
ACAD
1000
DSTYLE
1002
{
1070
    40
1040
30.0
1002
}
  0
POINT
  5
7C9D
330
19
100
AcDbEntity
  8
1
100
AcDbPoint
 10
2728.866167799455
 20
2318.417139429896
 30
0.0
  0
LINE
  5
7CA0
330
19
100
AcDbEntity
  8
1
100
AcDbLine
 10
4383.907505112644
 20
3563.417139429895
 30
0.0
 11
4383.907505112644
 21
2418.417139429895
 31
0.0
  0
LINE
  5
7CA1
330
19
100
AcDbEntity
  8
1
100
AcDbLine
 10
4225.907505112644
 20
3048.417139429896
 30
0.0
 11
4383.907505112643
 21
3048.417139429896
 31
0.0
  0
LINE
  5
7CA2
330
19
100
AcDbEntity
  8
1
100
AcDbLine
 10
4225.907505112644
 20
2988.417139429896
 30
0.0
 11
4383.907505112643
 21
2988.417139429896
 31
0.0
  0
LINE
  5
7CA3
330
19
100
AcDbEntity
  8
1
100
AcDbLine
 10
4225.907505112646
 20
3048.417139429896
 30
0.0
 11
4225.907505112646
 21
2988.417139429895
 31
0.0
  0
LINE
  5
7CA4
330
19
100
AcDbEntity
  8
1
100
AcDbLine
 10
4186.607505112644
 20
3042.417139429896
 30
0.0
 11
4225.907505112646
 21
3042.417139429896
 31
0.0
  0
LINE
  5
7CA5
330
19
100
AcDbEntity
  8
1
100
AcDbLine
 10
4186.607505112644
 20
2994.417139429895
 30
0.0
 11
4225.907505112646
 21
2994.417139429895
 31
0.0
  0
LINE
  5
7CA6
330
19
100
AcDbEntity
  8
1
100
AcDbLine
 10
4370.907505112642
 20
2977.417139429896
 30
0.0
 11
4370.907505112643
 21
2827.417139429896
 31
0.0
  0
LINE
  5
7CA7
330
19
100
AcDbEntity
  8
1
100
AcDbLine
 10
4245.907505112644
 20
2967.417139429895
 30
0.0
 11
4245.907505112644
 21
2837.417139429895
 31
0.0
  0
LINE
  5
7CA8
330
19
100
AcDbEntity
  8
1
100
AcDbLine
 10
4255.907505112644
 20
2977.417139429896
 30
0.0
 11
4331.607505112645
 21
2977.417139429895
 31
0.0
  0
LINE
  5
7CA9
330
19
100
AcDbEntity
  8
1
100
AcDbLine
 10
4255.907505112644
 20
2827.417139429896
 30
0.0
 11
4331.607505112645
 21
2827.417139429896
 31
0.0
  0
ARC
  5
7CAA
330
19
100
AcDbEntity
  8
1
100
AcDbCircle
 10
4255.907505112644
 20
2967.417139429895
 30
0.0
 40
10.0
100
AcDbArc
 50
90.0
 51
180.0
  0
ARC
  5
7CAB
330
19
100
AcDbEntity
  8
1
100
AcDbCircle
 10
4255.907505112644
 20
2837.417139429895
 30
0.0
 40
10.0
100
AcDbArc
 50
180.0
 51
270.0
  0
LINE
  5
7CAC
330
19
100
AcDbEntity
  8
1
100
AcDbLine
 10
4331.607505112645
 20
2827.417139429895
 30
0.0
 11
4370.907505112642
 21
2827.417139429896
 31
0.0
  0
LINE
  5
7CAD
330
19
100
AcDbEntity
  8
1
100
AcDbLine
 10
4331.607505112645
 20
2977.417139429896
 30
0.0
 11
4370.907505112642
 21
2977.417139429895
 31
0.0
  0
LINE
  5
7CAE
330
19
100
AcDbEntity
  8
1
100
AcDbLine
 10
5483.707505112644
 20
2878.417139429895
 30
0.0
 11
5483.707505112644
 21
2998.417139429895
 31
0.0
  0
LINE
  5
7CAF
330
19
100
AcDbEntity
  8
1
100
AcDbLine
 10
5573.707505112645
 20
2988.417139429895
 30
0.0
 11
5573.707505112645
 21
2888.417139429895
 31
0.0
  0
LINE
  5
7CB0
330
19
100
AcDbEntity
  8
1
100
AcDbLine
 10
5483.707505112644
 20
2998.417139429895
 30
0.0
 11
5524.207505112643
 21
2998.417139429895
 31
0.0
  0
LINE
  5
7CB1
330
19
100
AcDbEntity
  8
1
100
AcDbLine
 10
5483.707505112644
 20
2878.417139429895
 30
0.0
 11
5524.207505112643
 21
2878.417139429895
 31
0.0
  0
ARC
  5
7CB2
330
19
100
AcDbEntity
  8
1
100
AcDbCircle
 10
5563.707505112645
 20
2888.417139429895
 30
0.0
 40
10.0
100
AcDbArc
 50
270.0
 51
0.0
  0
ARC
  5
7CB3
330
19
100
AcDbEntity
  8
1
100
AcDbCircle
 10
5563.707505112645
 20
2988.417139429895
 30
0.0
 40
10.0
100
AcDbArc
 50
0.0
 51
90.0
  0
LINE
  5
7CB4
330
19
100
AcDbEntity
  8
1
100
AcDbLine
 10
5524.207505112643
 20
2878.417139429895
 30
0.0
 11
5563.707505112645
 21
2878.417139429895
 31
0.0
  0
LINE
  5
7CB5
330
19
100
AcDbEntity
  8
1
100
AcDbLine
 10
5524.207505112643
 20
2998.417139429895
 30
0.0
 11
5563.707505112645
 21
2998.417139429895
 31
0.0
  0
DIMENSION
  5
7CB6
330
19
100
AcDbEntity
  8
3
100
AcDbDimension
280
     0
  2
*D6
 10
5694.703349046962
 20
3418.417139429895
 30
0.0
 11
5634.703349046962
 21
3018.417139429896
 31
0.0
 12
0.0
 22
1456.529524020414
 32
0.0
 70
    32
  1
φ<>
 71
     5
 42
-1.0
 73
     0
 74
     0
 75
     0
  3
MATSU
100
AcDbAlignedDimension
 13
5446.207505112644
 23
2618.417139429896
 33
0.0
 14
5446.207505112644
 24
3418.417139429895
 34
0.0
 50
90.0
100
AcDbRotatedDimension
1001
ACAD
1000
DSTYLE
1002
{
1070
    40
1040
30.0
1002
}
  0
LINE
  5
7CBB
330
19
100
AcDbEntity
  8
1
100
AcDbLine
 10
928.8661677994532
 20
2458.417139429896
 30
0.0
 11
928.8661677994532
 21
2418.417139429896
 31
0.0
  0
ARC
  5
7CBC
330
19
100
AcDbEntity
  8
1
100
AcDbCircle
 10
2228.866167799455
 20
3018.417139429896
 30
0.0
 40
220.0
100
AcDbArc
 50
282.3080158174279
 51
102.3080158174279
  0
ARC
  5
7CBD
330
19
100
AcDbEntity
  8
1
100
AcDbCircle
 10
1128.866167799453
 20
2668.417139429896
 30
0.0
 40
220.0
100
AcDbArc
 50
102.3080158174279
 51
282.3080158174279
  0
LINE
  5
7CBE
330
19
100
AcDbEntity
  8
1
100
AcDbLine
 10
2181.969411251776
 20
3233.360606940094
 30
0.0
 11
1081.969411251775
 21
2883.360606940094
 31
0.0
  0
LINE
  5
7CBF
330
19
100
AcDbEntity
  8
1
100
AcDbLine
 10
2199.923494970011
 20
3142.075223231513
 30
0.0
 11
1103.797711018047
 21
2775.522566344682
 31
0.0
  0
LINE
  5
7CC0
330
19
100
AcDbEntity
  8
1
100
AcDbLine
 10
2254.061759530761
 20
2893.941510661412
 30
0.0
 11
1150.689121267514
 21
2560.603602701288
 31
0.0
  0
LINE
  5
7CC1
330
19
100
AcDbEntity
  8
1
100
AcDbLine
 10
2275.762924347135
 20
2803.473671919697
 30
0.0
 11
1175.762924347135
 21
2453.473671919697
 31
0.0
  0
POINT
  5
7CD2
330
19
100
AcDbEntity
  8
1
100
AcDbPoint
 10
5573.707505112645
 20
2988.417139429895
 30
0.0
  0
LINE
  5
7CD4
330
19
100
AcDbEntity
  8
1
100
AcDbLine
 10
878.866167799455
 20
4968.860847012715
 30
0.0
 11
2728.866167799455
 21
4968.860847012715
 31
0.0
  0
LINE
  5
7CD5
330
19
100
AcDbEntity
  8
1
100
AcDbLine
 10
1728.866167799455
 20
6288.860847012714
 30
0.0
 11
2728.866167799455
 21
6288.860847012714
 31
0.0
  0
LINE
  5
7CD6
330
19
100
AcDbEntity
  8
1
100
AcDbLine
 10
2728.866167799455
 20
6288.860847012714
 30
0.0
 11
2728.866167799455
 21
6235.860847012714
 31
0.0
  0
LINE
  5
7CD7
330
19
100
AcDbEntity
  8
1
100
AcDbLine
 10
878.866167799455
 20
5768.860847012715
 30
0.0
 11
878.866167799455
 21
4968.860847012715
 31
0.0
  0
LINE
  5
7CD8
330
19
100
AcDbEntity
  8
1
100
AcDbLine
 10
1728.866167799455
 20
6288.860847012714
 30
0.0
 11
1728.866167799455
 21
6235.860847012713
 31
0.0
  0
LINE
  5
7CD9
330
19
100
AcDbEntity
  8
1
100
AcDbLine
 10
878.866167799455
 20
5768.860847012715
 30
0.0
 11
1380.866167799454
 21
5768.860847012715
 31
0.0
  0
LINE
  5
7CDA
330
19
100
AcDbEntity
  8
2
100
AcDbLine
 10
1380.866167799454
 20
5705.860847012717
 30
0.0
 11
2820.353194169355
 21
5705.860847012714
 31
0.0
  0
LINE
  5
7CDB
330
19
100
AcDbEntity
  8
2
100
AcDbLine
 10
2228.866167799454
 20
6295.855388252903
 30
0.0
 11
2228.866167799455
 21
4782.15163760209
 31
0.0
  0
LINE
  5
7CDC
330
19
100
AcDbEntity
  8
2
100
AcDbLine
 10
1128.866167799455
 20
5508.090794640533
 30
0.0
 11
1128.866167799455
 21
4778.542286770526
 31
0.0
  0
DIMENSION
  5
7CDD
330
19
100
AcDbEntity
  8
3
100
AcDbDimension
280
     0
  2
*D7
 10
2728.866167799455
 20
6589.432757996579
 30
0.0
 11
2228.866167799455
 21
6649.43275799658
 31
0.0
 12
0.0
 22
1013.237931545114
 32
0.0
 70
    32
 71
     5
 42
-1.0
 73
     0
 74
     0
 75
     0
  3
MATSU
100
AcDbAlignedDimension
 13
1728.866167799455
 23
6288.860847012714
 33
0.0
 14
2728.866167799455
 24
6288.860847012714
 34
0.0
100
AcDbRotatedDimension
1001
ACAD
1000
DSTYLE
1002
{
1070
    40
1040
30.0
1002
}
  0
DIMENSION
  5
7CDE
330
19
100
AcDbEntity
  8
3
100
AcDbDimension
280
     0
  2
*D8
 10
1728.866167799455
 20
6589.432757996579
 30
0.0
 11
1303.866167799455
 21
6649.43275799658
 31
0.0
 12
0.0
 22
1013.237931545114
 32
0.0
 70
    32
 71
     5
 42
-1.0
 73
     0
 74
     0
 75
     0
  3
MATSU
100
AcDbAlignedDimension
 13
878.866167799455
 23
5768.860847012715
 33
0.0
 14
1728.866167799455
 24
6288.860847012714
 34
0.0
100
AcDbRotatedDimension
1001
ACAD
1000
DSTYLE
1002
{
1070
    40
1040
30.0
1002
}
  0
DIMENSION
  5
7CDF
330
19
100
AcDbEntity
  8
3
100
AcDbDimension
280
     0
  2
*D9
 10
3028.35808641438
 20
4968.860847012715
 30
0.0
 11
2968.358086414381
 21
5628.860847012714
 31
0.0
 12
0.0
 22
1013.237931545114
 32
0.0
 70
    32
 71
     5
 42
-1.0
 73
     0
 74
     0
 75
     0
  3
MATSU
100
AcDbAlignedDimension
 13
2728.866167799455
 23
6288.860847012714
 33
0.0
 14
2728.866167799455
 24
4968.860847012715
 34
0.0
 50
90.0
100
AcDbRotatedDimension
1001
ACAD
1000
DSTYLE
1002
{
1070
    40
1040
30.0
1002
}
  0
DIMENSION
  5
7CE0
330
19
100
AcDbEntity
  8
3
100
AcDbDimension
280
     0
  2
*D10
 10
640.3253433141544
 20
4968.860847012715
 30
0.0
 11
580.3253433141544
 21
5368.860847012715
 31
0.0
 70
    32
 71
     5
 42
-1.0
 73
     0
 74
     0
 75
     0
  3
MATSU
100
AcDbAlignedDimension
 13
878.866167799455
 23
5768.860847012715
 33
0.0
 14
878.866167799455
 24
4968.860847012715
 34
0.0
 50
90.0
100
AcDbRotatedDimension
1001
ACAD
1000
DSTYLE
1002
{
1070
    40
1040
30.0
1002
}
  0
DIMENSION
  5
7CE1
330
19
100
AcDbEntity
  8
3
100
AcDbDimension
280
     0
  2
*D11
 10
2728.866167799455
 20
4626.686371315829
 30
0.0
 11
1803.866167799455
 21
4626.686371315829
 31
0.0
 12
0.0
 22
1013.237931545114
 32
0.0
 70
   160
 71
     5
 42
-1.0
 73
     0
 74
     0
 75
     0
  3
MATSU
100
AcDbAlignedDimension
 13
878.866167799455
 23
4968.860847012715
 33
0.0
 14
2728.866167799455
 24
4968.860847012715
 34
0.0
100
AcDbRotatedDimension
1001
ACAD
1000
DSTYLE
1002
{
1070
    40
1040
30.0
1002
}
  0
CIRCLE
  5
7CE2
330
19
100
AcDbEntity
  8
1
100
AcDbCircle
 10
2228.866167799455
 20
3018.417139429896
 30
0.0
 40
400.0
  0
CIRCLE
  5
7CE3
330
19
100
AcDbEntity
  8
1
100
AcDbCircle
 10
2228.866167799455
 20
3018.417139429896
 30
0.0
 40
440.0
  0
LINE
  5
7CE4
330
19
100
AcDbEntity
  8
1
100
AcDbLine
 10
4343.907505112644
 20
3563.417139429895
 30
0.0
 11
5483.907505112643
 21
3563.417139429895
 31
0.0
  0
DIMENSION
  5
7CE5
330
19
100
AcDbEntity
  8
3
100
AcDbDimension
280
     0
  2
*D12
 10
5443.907505112644
 20
3670.34938378221
 30
0.0
 11
4913.907505112644
 21
3670.34938378221
 31
0.0
 12
0.0
 22
1456.529524020414
 32
0.0
 70
   160
 71
     5
 42
-1.0
 73
     0
 74
     0
 75
     0
  3
MATSU
100
AcDbAlignedDimension
 13
4383.907505112644
 23
3563.417139429895
 33
0.0
 14
5443.907505112644
 24
3563.417139429895
 34
0.0
100
AcDbRotatedDimension
1001
ACAD
1000
DSTYLE
1002
{
1070
    40
1040
30.0
1002
}
  0
LINE
  5
7CE8
330
19
100
AcDbEntity
  8
1
100
AcDbLine
 10
1380.866167799454
 20
6235.860847012713
 30
0.0
 11
2773.866167799454
 21
6235.860847012714
 31
0.0
  0
LINE
  5
7CE9
330
19
100
AcDbEntity
  8
1
100
AcDbLine
 10
1380.866167799454
 20
5175.860847012716
 30
0.0
 11
2773.866167799455
 21
5175.860847012714
 31
0.0
  0
LINE
  5
7CEA
330
19
100
AcDbEntity
  8
1
100
AcDbLine
 10
2258.866167799454
 20
5175.860847012715
 30
0.0
 11
2258.866167799455
 21
4935.860847012713
 31
0.0
  0
LINE
  5
7CEB
330
19
100
AcDbEntity
  8
1
100
AcDbLine
 10
2198.866167799454
 20
5175.860847012715
 30
0.0
 11
2198.866167799455
 21
4935.860847012713
 31
0.0
  0
LINE
  5
7CEC
330
19
100
AcDbEntity
  8
1
100
AcDbLine
 10
908.8661677994533
 20
4805.860847012715
 30
0.0
 11
2448.866167799454
 21
4805.860847012713
 31
0.0
  0
LINE
  5
7CED
330
19
100
AcDbEntity
  8
1
100
AcDbLine
 10
908.8661677994533
 20
4965.860847012716
 30
0.0
 11
2448.866167799454
 21
4965.860847012713
 31
0.0
  0
LINE
  5
7CEE
330
19
100
AcDbEntity
  8
1
100
AcDbLine
 10
2448.866167799455
 20
4805.860847012714
 30
0.0
 11
2448.866167799455
 21
4965.860847012714
 31
0.0
  0
LINE
  5
7CEF
330
19
100
AcDbEntity
  8
1
100
AcDbLine
 10
908.8661677994533
 20
4805.860847012715
 30
0.0
 11
908.8661677994533
 21
4965.860847012717
 31
0.0
  0
LINE
  5
7CF0
330
19
100
AcDbEntity
  8
1
100
AcDbLine
 10
1018.866167799455
 20
4850.860847012715
 30
0.0
 11
1238.866167799455
 21
4850.860847012715
 31
0.0
  0
LINE
  5
7CF1
330
19
100
AcDbEntity
  8
1
100
AcDbLine
 10
1018.866167799455
 20
4935.860847012714
 30
0.0
 11
1238.866167799455
 21
4935.860847012715
 31
0.0
  0
LINE
  5
7CF2
330
19
100
AcDbEntity
  8
1
100
AcDbLine
 10
2355.866167799455
 20
4935.860847012713
 30
0.0
 11
2355.866167799455
 21
4850.860847012714
 31
0.0
  0
LINE
  5
7CF3
330
19
100
AcDbEntity
  8
1
100
AcDbLine
 10
2101.866167799454
 20
4935.860847012714
 30
0.0
 11
2101.866167799455
 21
4850.860847012714
 31
0.0
  0
LINE
  5
7CF4
330
19
100
AcDbEntity
  8
1
100
AcDbLine
 10
1238.866167799455
 20
4935.860847012714
 30
0.0
 11
1238.866167799455
 21
4850.860847012715
 31
0.0
  0
LINE
  5
7CF5
330
19
100
AcDbEntity
  8
1
100
AcDbLine
 10
1018.866167799455
 20
4935.860847012714
 30
0.0
 11
1018.866167799455
 21
4850.860847012715
 31
0.0
  0
LINE
  5
7CF6
330
19
100
AcDbEntity
  8
1
100
AcDbLine
 10
2101.866167799455
 20
4850.860847012714
 30
0.0
 11
2355.866167799455
 21
4850.860847012713
 31
0.0
  0
LINE
  5
7CF7
330
19
100
AcDbEntity
  8
1
100
AcDbLine
 10
2101.866167799454
 20
4935.860847012714
 30
0.0
 11
2355.866167799453
 21
4935.860847012714
 31
0.0
  0
LINE
  5
7CF8
330
19
100
AcDbEntity
  8
1
100
AcDbLine
 10
1290.866167799455
 20
5453.860847012714
 30
0.0
 11
1290.866167799455
 21
4968.860847012717
 31
0.0
  0
LINE
  5
7CF9
330
19
100
AcDbEntity
  8
1
100
AcDbLine
 10
966.8661677994551
 20
5453.860847012714
 30
0.0
 11
966.8661677994551
 21
4968.860847012717
 31
0.0
  0
LINE
  5
7CFA
330
19
100
AcDbEntity
  8
1
100
AcDbLine
 10
966.8661677994551
 20
5453.860847012716
 30
0.0
 11
1290.866167799455
 21
5453.860847012716
 31
0.0
  0
LINE
  5
7CFB
330
19
100
AcDbEntity
  8
1
100
AcDbLine
 10
878.866167799455
 20
4968.860847012716
 30
0.0
 11
1290.866167799455
 21
4968.860847012716
 31
0.0
  0
LINE
  5
7CFC
330
19
100
AcDbEntity
  8
1
100
AcDbLine
 10
1149.866167799455
 20
4968.860847012715
 30
0.0
 11
1149.866167799455
 21
4935.860847012715
 31
0.0
  0
LINE
  5
7CFD
330
19
100
AcDbEntity
  8
1
100
AcDbLine
 10
1107.866167799455
 20
4968.860847012715
 30
0.0
 11
1107.866167799455
 21
4935.860847012715
 31
0.0
  0
LINE
  5
7CFE
330
19
100
AcDbEntity
  8
1
100
AcDbLine
 10
4383.907505112643
 20
2830.417139429896
 30
0.0
 11
4370.907505112642
 21
2830.417139429896
 31
0.0
  0
LINE
  5
7CFF
330
19
100
AcDbEntity
  8
1
100
AcDbLine
 10
4383.907505112643
 20
2506.417139429896
 30
0.0
 11
4219.607505112644
 21
2506.417139429896
 31
0.0
  0
LINE
  5
7D00
330
19
100
AcDbEntity
  8
1
100
AcDbLine
 10
4219.607505112644
 20
2830.417139429896
 30
0.0
 11
4219.607505112644
 21
2506.417139429896
 31
0.0
  0
LINE
  5
7D01
330
19
100
AcDbEntity
  8
1
100
AcDbLine
 10
4219.607505112643
 20
2647.417139429896
 30
0.0
 11
4186.607505112643
 21
2647.417139429896
 31
0.0
  0
LINE
  5
7D02
330
19
100
AcDbEntity
  8
1
100
AcDbLine
 10
4245.907505112643
 20
2830.417139429896
 30
0.0
 11
4219.607505112644
 21
2830.417139429896
 31
0.0
  0
DIMENSION
  5
7D09
330
19
100
AcDbEntity
  8
3
100
AcDbDimension
280
     0
  2
*D13
 10
3075.135824977384
 20
3563.417139429895
 30
0.0
 11
3015.135824977383
 21
3290.917139429896
 31
0.0
 70
    32
 71
     5
 42
-1.0
 73
     0
 74
     0
 75
     0
  3
MATSU
100
AcDbAlignedDimension
 13
2895.337959649845
 23
3018.417139429896
 33
0.0
 14
2248.366167799455
 24
3563.417139429895
 34
0.0
 50
90.0
100
AcDbRotatedDimension
1001
ACAD
1000
DSTYLE
1002
{
1070
   287
1070
     4
1070
    40
1040
30.0
1070
    75
1070
     1
1070
   279
1070
     1
1070
   289
1070
     3
1002
}
  0
DIMENSION
  5
7D0B
330
19
100
AcDbEntity
  8
3
100
AcDbDimension
280
     0
  2
*D14
 10
2786.866167799455
 20
3864.045885545762
 30
0.0
 11
2507.866167799455
 21
3924.045885545762
 31
0.0
 70
    32
 71
     5
 42
558.0
 73
     0
 74
     0
 75
     0
  3
MATSU
100
AcDbAlignedDimension
 13
2228.866167799455
 23
3684.888931280286
 33
0.0
 14
2786.866167799455
 24
2959.417139429896
 34
0.0
100
AcDbRotatedDimension
1001
ACAD
1000
DSTYLE
1002
{
1070
   287
1070
     4
1070
    40
1040
30.0
1070
    75
1070
     1
1070
   279
1070
     1
1070
   289
1070
     3
1002
}
  0
DIMENSION
  5
7D0C
330
19
100
AcDbEntity
  8
3
100
AcDbDimension
280
     0
  2
*D15
 10
878.8661677994552
 20
4035.467637232223
 30
0.0
 11
1832.866167799455
 21
4095.467637232223
 31
0.0
 70
    32
 71
     5
 42
1908.0
 73
     0
 74
     0
 75
     0
  3
MATSU
100
AcDbAlignedDimension
 13
2786.866167799455
 23
2959.417139429896
 33
0.0
 14
878.866167799455
 24
2418.417139429896
 34
0.0
100
AcDbRotatedDimension
1001
ACAD
1000
DSTYLE
1002
{
1070
    40
1040
30.0
1002
}
  0
LINE
  5
7D0D
330
19
100
AcDbEntity
  8
1
100
AcDbLine
 10
4343.907505112644
 20
3563.417139429895
 30
0.0
 11
4343.907505112645
 21
3560.417139429896
 31
0.0
  0
LINE
  5
7D0E
330
19
100
AcDbEntity
  8
1
100
AcDbLine
 10
5483.907505112643
 20
3563.417139429895
 30
0.0
 11
5483.907505112645
 21
3560.417139429896
 31
0.0
  0
LINE
  5
7D0F
330
19
100
AcDbEntity
  8
1
100
AcDbLine
 10
4343.907505112644
 20
3560.417139429896
 30
0.0
 11
5483.907505112643
 21
3560.417139429896
 31
0.0
  0
LINE
  5
7D10
330
19
100
AcDbEntity
  8
1
100
AcDbLine
 10
1380.866167799454
 20
6235.860847012713
 30
0.0
 11
1380.866167799454
 21
5175.860847012716
 31
0.0
  0
LINE
  5
7D11
330
19
100
AcDbEntity
  8
1
100
AcDbLine
 10
2773.866167799455
 20
6235.860847012714
 30
0.0
 11
2773.866167799455
 21
5175.860847012714
 31
0.0
  0
LINE
  5
7D12
330
19
100
AcDbEntity
  8
1
100
AcDbLine
 10
2205.866167799454
 20
6235.860847012713
 30
0.0
 11
2205.866167799454
 21
5175.860847012716
 31
0.0
  0
LINE
  5
7D13
330
19
100
AcDbEntity
  8
1
100
AcDbLine
 10
2205.866167799454
 20
6235.860847012714
 30
0.0
 11
1380.866167799454
 21
5175.860847012716
 31
0.0
  0
LINE
  5
7D14
330
19
100
AcDbEntity
  8
1
100
AcDbLine
 10
1380.866167799454
 20
6235.860847012713
 30
0.0
 11
2205.866167799454
 21
5175.860847012715
 31
0.0
  0
LINE
  5
7D15
330
19
100
AcDbEntity
  8
1
100
AcDbLine
 10
2728.866167799455
 20
5175.860847012715
 30
0.0
 11
2728.866167799455
 21
4968.860847012715
 31
0.0
  0
LINE
  5
7D16
330
19
100
AcDbEntity
  8
1
100
AcDbLine
 10
4219.607505112643
 20
2689.417139429895
 30
0.0
 11
4186.607505112643
 21
2689.417139429895
 31
0.0
  0
LINE
  5
7F15
330
19
100
AcDbEntity
  8
4
100
AcDbLine
 10
5550.0
 20
1210.115599408855
 30
0.0
 11
5550.0
 21
610.115599408855
 31
0.0
  0
LINE
  5
7F16
330
19
100
AcDbEntity
  8
4
100
AcDbLine
 10
3450.0
 20
1210.115599408855
 30
0.0
 11
3450.0
 21
610.115599408855
 31
0.0
  0
LINE
  5
7F17
330
19
100
AcDbEntity
  8
4
100
AcDbLine
 10
1950.0
 20
1210.115599408855
 30
0.0
 11
1950.0
 21
610.115599408855
 31
0.0
  0
LINE
  5
7F1A
330
19
100
AcDbEntity
  8
4
100
AcDbLine
 10
1950.0
 20
610.1155994088549
 30
0.0
 11
5550.0
 21
610.1155994088549
 31
0.0
  0
LINE
  5
7F1B
330
19
100
AcDbEntity
  8
4
100
AcDbLine
 10
1950.0
 20
910.1155994088548
 30
0.0
 11
5550.0
 21
910.1155994088548
 31
0.0
  0
TEXT
  5
7F1C
330
19
100
AcDbEntity
  8
4
100
AcDbText
 10
2065.506242540705
 20
1004.744677008693
 30
0.0
 40
150.0
  1
機器名称
100
AcDbText
  0
TEXT
  5
7F1D
330
19
100
AcDbEntity
  8
4
100
AcDbText
 10
2058.774318074393
 20
675.0510696048877
 30
0.0
 40
150.0
  1
機器型番
100
AcDbText
  0
TEXT
  5
7F1E
330
19
100
AcDbEntity
  8
4
100
AcDbText
 10
3531.367343089334
 20
972.8477721172849
 30
0.0
 40
120.0
  1
ミツヤリミットロードファン
100
AcDbText
  0
TEXT
  5
7F1F
330
19
100
AcDbEntity
  8
4
100
AcDbText
 10
3559.963486756442
 20
661.594352248685
 30
0.0
 40
150.0
  1
LL#5-5
100
AcDbText
  0
TEXT
  5
7F21
330
19
100
AcDbEntity
  8
4
100
AcDbText
 10
2334.165832396051
 20
7150.286523997547
 30
0.0
 40
161.9999999999999
  1
床置ベット
100
AcDbText
  0
TEXT
  5
7F22
330
19
100
AcDbEntity
  8
4
100
AcDbText
 10
948.5027799883392
 20
7601.642928597894
 30
0.0
 40
216.0
  1
遠心式両吸込両持リミットロードファン
100
AcDbText
  0
LINE
  5
7F23
330
19
100
AcDbEntity
  8
4
100
AcDbLine
 10
750.0
 20
7408.226262794414
 30
0.0
 11
5550.0
 21
7408.226262794414
 31
0.0
  0
LINE
  5
7F24
330
19
100
AcDbEntity
  8
4
100
AcDbLine
 10
750.0
 20
8008.226262794414
 30
0.0
 11
5550.0
 21
8008.226262794414
 31
0.0
  0
LINE
  5
7F25
330
19
100
AcDbEntity
  8
4
100
AcDbLine
 10
1950.0
 20
1210.115599408855
 30
0.0
 11
5550.0
 21
1210.115599408855
 31
0.0
  0
LINE
  5
7F26
330
19
100
AcDbEntity
  8
4
100
AcDbLine
 10
750.0
 20
8008.226262794414
 30
0.0
 11
750.0
 21
7408.226262794414
 31
0.0
  0
TEXT
  5
7F27
330
19
100
AcDbEntity
  8
4
100
AcDbText
 10
1153.319813353533
 20
7146.95843263903
 30
0.0
 40
161.9999999999999
  1
右回転上向
100
AcDbText
  0
TEXT
  5
7F28
330
19
100
AcDbEntity
  8
4
100
AcDbText
 10
4406.908677747869
 20
8118.183244485926
 30
0.0
 40
168.0
  1
No.
100
AcDbText
  0
TEXT
  5
7F29
330
19
100
AcDbEntity
  8
4
100
AcDbText
 10
3933.88818780004
 20
7150.286523997547
 30
0.0
 40
161.9999999999999
  1
縮尺：1/30
100
AcDbText
  0
LINE
  5
7F2A
330
19
100
AcDbEntity
  8
4
100
AcDbLine
 10
5550.0
 20
8008.226262794414
 30
0.0
 11
5550.0
 21
7408.226262794414
 31
0.0
  0
LINE
  5
7F2B
330
19
100
AcDbEntity
  8
4
100
AcDbLine
 10
6300.0
 20
8850.0
 30
0.0
 11
6300.0
 21
8850.0
 31
0.0
  0
LINE
  5
7F2C
330
19
100
AcDbEntity
  8
4
100
AcDbLine
 10
4321.852267079594
 20
8043.790749376205
 30
0.0
 11
4321.852267079594
 21
8359.956784649257
 31
0.0
  0
LINE
  5
7F2D
330
19
100
AcDbEntity
  8
4
100
AcDbLine
 10
4321.852267079594
 20
8359.956784649257
 30
0.0
 11
5550.0
 21
8359.956784649257
 31
0.0
  0
LINE
  5
7F2E
330
19
100
AcDbEntity
  8
4
100
AcDbLine
 10
5550.0
 20
8359.956784649257
 30
0.0
 11
5550.0
 21
8043.790749376205
 31
0.0
  0
LINE
  5
7F2F
330
19
100
AcDbEntity
  8
4
100
AcDbLine
 10
5550.0
 20
8043.790749376205
 30
0.0
 11
4321.852267079594
 21
8043.790749376205
 31
0.0
  0
LINE
  5
7F30
330
19
100
AcDbEntity
  8
4
100
AcDbLine
 10
0.0
 20
0.0
 30
0.0
 11
0.0
 21
8850.0
 31
0.0
  0
LINE
  5
7F31
330
19
100
AcDbEntity
  8
4
100
AcDbLine
 10
0.0
 20
8850.0
 30
0.0
 11
6300.0
 21
8850.0
 31
0.0
  0
LINE
  5
7F32
330
19
100
AcDbEntity
  8
4
100
AcDbLine
 10
6300.0
 20
8850.0
 30
0.0
 11
6300.0
 21
0.0
 31
0.0
  0
LINE
  5
7F33
330
19
100
AcDbEntity
  8
4
100
AcDbLine
 10
6300.0
 20
0.0
 30
0.0
 11
0.0
 21
0.0
 31
0.0
  0
DIMENSION
  5
802C
330
19
100
AcDbEntity
  8
3
100
AcDbDimension
280
     0
  2
*D17
 10
2228.866167799455
 20
2136.168360336367
 30
0.0
 11
1553.866167799455
 21
2211.168360336367
 31
0.0
 70
    32
 71
     5
 42
-1.0
 73
     0
 74
     0
 75
     0
  3
IGA
100
AcDbAlignedDimension
 13
878.866167799455
 23
2318.417139429896
 33
0.0
 14
2228.866167799455
 24
2318.417139429896
 34
0.0
100
AcDbRotatedDimension
1001
ACAD
1000
DSTYLE
1002
{
1070
   172
1070
     1
1070
    40
1040
30.0
1070
   271
1070
     0
1070
   143
1040
0.039
1002
}
  0
DIMENSION
  5
8039
330
19
100
AcDbEntity
  8
3
100
AcDbDimension
280
     0
  2
*D18
 10
2728.866167799455
 20
2136.168360336367
 30
0.0
 11
2478.866167799455
 21
2211.168360336367
 31
0.0
 70
    32
 71
     5
 42
-1.0
 73
     0
 74
     0
 75
     0
  3
IGA
100
AcDbAlignedDimension
 13
2228.866167799455
 23
2318.417139429896
 33
0.0
 14
2728.866167799455
 24
2318.417139429896
 34
0.0
100
AcDbRotatedDimension
1001
ACAD
1000
DSTYLE
1002
{
1070
   172
1070
     1
1070
    40
1040
30.0
1070
   271
1070
     0
1070
   143
1040
0.039
1002
}
  0
DIMENSION
  5
8046
330
19
100
AcDbEntity
  8
3
100
AcDbDimension
280
     0
  2
*D19
 10
4913.907505112645
 20
2136.168360336367
 30
0.0
 11
4545.407505112645
 21
2211.168360336367
 31
0.0
 70
    32
 71
     5
 42
-1.0
 73
     0
 74
     0
 75
     0
  3
IGA
100
AcDbAlignedDimension
 13
4176.907505112644
 23
2318.417139429896
 33
0.0
 14
4913.907505112645
 24
2318.417139429896
 34
0.0
100
AcDbRotatedDimension
1001
ACAD
1000
DSTYLE
1002
{
1070
   172
1070
     1
1070
    40
1040
30.0
1070
   271
1070
     0
1070
   143
1040
0.039
1002
}
  0
DIMENSION
  5
8053
330
19
100
AcDbEntity
  8
3
100
AcDbDimension
280
     0
  2
*D20
 10
5496.907505112644
 20
2136.168360336367
 30
0.0
 11
5205.407505112645
 21
2211.168360336367
 31
0.0
 70
    32
 71
     5
 42
-1.0
 73
     0
 74
     0
 75
     0
  3
IGA
100
AcDbAlignedDimension
 13
4913.907505112645
 23
2318.417139429896
 33
0.0
 14
5496.907505112644
 24
2318.417139429896
 34
0.0
100
AcDbRotatedDimension
1001
ACAD
1000
DSTYLE
1002
{
1070
   172
1070
     1
1070
    40
1040
30.0
1070
   271
1070
     0
1070
   143
1040
0.039
1002
}
  0
DIMENSION
  5
8060
330
19
100
AcDbEntity
  8
3
100
AcDbDimension
280
     0
  2
*D21
 10
3271.209964472099
 20
2318.417139429896
 30
0.0
 11
3196.209964472098
 21
2940.917139429895
 31
0.0
 70
    32
 71
     5
 42
-1.0
 73
     0
 74
     0
 75
     0
  3
IGA
100
AcDbAlignedDimension
 13
2248.366167799455
 23
3563.417139429895
 33
0.0
 14
2728.866167799455
 24
2318.417139429896
 34
0.0
 50
90.0
100
AcDbRotatedDimension
1001
ACAD
1000
DSTYLE
1002
{
1070
   172
1070
     1
1070
    40
1040
30.0
1070
   271
1070
     0
1070
   143
1040
0.039
1002
}
  0
ARC
  5
8313
330
19
100
AcDbEntity
  8
FUTO
100
AcDbCircle
 10
2276.366167799455
 20
2970.917139429896
 30
0.0
 40
510.5
100
AcDbArc
 50
0.0
 51
90.0
  0
LINE
  5
8314
330
19
100
AcDbEntity
  8
FUTO
100
AcDbLine
 10
1380.866167799455
 20
3563.417139429895
 30
0.0
 11
1437.238022011976
 21
3018.417139429896
 31
0.0
  0
ARC
  5
8315
330
19
100
AcDbEntity
  8
FUTO
100
AcDbCircle
 10
2169.866167799455
 20
2959.417139429896
 30
0.0
 40
617.0
100
AcDbArc
 50
298.7384928435135
 51
0.0
  0
ARC
  5
8316
330
19
100
AcDbEntity
  8
FUTO
100
AcDbCircle
 10
2169.866167799455
 20
3077.417139429896
 30
0.0
 40
735.0
100
AcDbArc
 50
184.6042067265523
 51
243.7145140431353
  0
LINE
  5
8317
330
19
100
AcDbEntity
  8
FUTO
100
AcDbLine
 10
2786.866167799455
 20
2959.417139429896
 30
0.0
 11
2786.866167799455
 21
2970.917139429896
 31
0.0
  0
ARC
  5
8318
330
19
100
AcDbEntity
  8
FUTO
100
AcDbCircle
 10
2259.366167799455
 20
3048.917139429896
 30
0.0
 40
432.5
100
AcDbArc
 50
90.0
 51
97.10565524729711
  0
LINE
  5
8319
330
19
100
AcDbEntity
  8
FUTO
100
AcDbLine
 10
2205.866167799455
 20
3478.095424062285
 30
0.0
 11
2205.866167799455
 21
3563.417139429895
 31
0.0
  0
LINE
  5
831A
330
19
100
AcDbEntity
  8
FUTO
100
AcDbLine
 10
2276.366167799455
 20
3481.417139429896
 30
0.0
 11
2259.366167799455
 21
3481.417139429896
 31
0.0
  0
LINE
  5
831B
330
19
100
AcDbEntity
  8
1
100
AcDbLine
 10
1338.366167799455
 20
3563.417139429895
 30
0.0
 11
2248.366167799455
 21
3563.417139429894
 31
0.0
  0
LINE
  5
831C
330
19
100
AcDbEntity
  8
1
100
AcDbLine
 10
1338.366167799455
 20
3563.417139429895
 30
0.0
 11
1338.366167799455
 21
3560.417139429896
 31
0.0
  0
LINE
  5
831D
330
19
100
AcDbEntity
  8
1
100
AcDbLine
 10
2248.366167799455
 20
3563.417139429894
 30
0.0
 11
2248.366167799455
 21
3560.417139429894
 31
0.0
  0
LINE
  5
831E
330
19
100
AcDbEntity
  8
1
100
AcDbLine
 10
1384.267262569878
 20
3523.417139429895
 30
0.0
 11
2205.866167799455
 21
3523.417139429894
 31
0.0
  0
LINE
  5
831F
330
19
100
AcDbEntity
  8
1
100
AcDbLine
 10
1338.366167799455
 20
3560.417139429896
 30
0.0
 11
2248.366167799455
 21
3560.417139429894
 31
0.0
  0
POINT
  5
8320
330
19
100
AcDbEntity
  8
1
100
AcDbPoint
 10
2228.866167799455
 20
3583.635050098918
 30
0.0
 50
270.0
  0
POINT
  5
8321
330
19
100
AcDbEntity
  8
1
100
AcDbPoint
 10
2228.866167799455
 20
3583.635050098918
 30
0.0
 50
270.0
  0
DIMENSION
  5
83EC
330
19
100
AcDbEntity
  8
3
100
AcDbDimension
280
     0
  2
*D49
 10
4913.907505112644
 20
4008.656152863666
 30
0.0
 11
4463.757505112644
 21
4107.227581435095
 31
0.0
 70
    32
  1
(<>)
 71
     5
 42
900.3000000000001
 73
     0
 74
     0
 75
     0
  3
IGA
100
AcDbAlignedDimension
 13
4013.607505112644
 23
3238.417139429895
 33
0.0
 14
4913.907505112644
 24
3775.34938378221
 34
0.0
100
AcDbRotatedDimension
1001
ACAD
1000
DSTYLE
1002
{
1070
    40
1040
30.0
1070
   143
1040
0.039
1070
   172
1070
     1
1070
   271
1070
     0
1002
}
  0
DIMENSION
  5
83F9
330
19
100
AcDbEntity
  8
3
100
AcDbDimension
280
     0
  2
*D50
 10
5573.707505112645
 20
4008.656152863666
 30
0.0
 11
5243.807505112645
 21
4107.227581435095
 31
0.0
 70
    32
  1
(<>)
 71
     5
 42
659.8000000000011
 73
     0
 74
     0
 75
     0
  3
IGA
100
AcDbAlignedDimension
 13
4913.907505112644
 23
3775.34938378221
 33
0.0
 14
5573.707505112645
 24
2988.417139429895
 34
0.0
100
AcDbRotatedDimension
1001
ACAD
1000
DSTYLE
1002
{
1070
    40
1040
30.0
1070
   143
1040
0.039
1070
   172
1070
     1
1070
   271
1070
     0
1002
}
  0
ENDSEC
  0
SECTION
  2
OBJECTS
  0
DICTIONARY
  5
C
330
0
100
AcDbDictionary
281
     1
  3
ACAD_CIP_PREVIOUS_PRODUCT_INFO
350
810A
  3
ACAD_COLOR
350
80ED
  3
ACAD_DETAILVIEWSTYLE
350
8106
  3
ACAD_GROUP
350
D
  3
ACAD_LAYOUT
350
806A
  3
ACAD_MATERIAL
350
80BB
  3
ACAD_MLEADERSTYLE
350
8102
  3
ACAD_MLINESTYLE
350
E
  3
ACAD_PLOTSETTINGS
350
806B
  3
ACAD_PLOTSTYLENAME
350
8068
  3
ACAD_SCALELIST
350
80F0
  3
ACAD_SECTIONVIEWSTYLE
350
8104
  3
ACAD_TABLESTYLE
350
80EE
  3
ACAD_VISUALSTYLE
350
80D4
  3
ACDB_RECOMPOSE_DATA
350
849E
  3
AcDbVariableDictionary
350
848D
  3
AcDsDecomposeData
350
84A4
  0
DICTIONARY
  5
8178
330
2
100
AcDbDictionary
280
     1
281
     1
  3
ACAD_LAYERSTATES
360
8179
  0
DICTIONARY
  5
8451
330
F
100
AcDbDictionary
280
     1
281
     1
  3
ADSK_XREC_LAYER_RECONCILED
360
8452
  0
DICTIONARY
  5
8453
330
31
100
AcDbDictionary
280
     1
281
     1
  3
ADSK_XREC_LAYER_RECONCILED
360
8454
  0
DICTIONARY
  5
8455
330
76D0
100
AcDbDictionary
280
     1
281
     1
  3
ADSK_XREC_LAYER_RECONCILED
360
8456
  0
DICTIONARY
  5
8457
330
76D1
100
AcDbDictionary
280
     1
281
     1
  3
ADSK_XREC_LAYER_RECONCILED
360
8458
  0
DICTIONARY
  5
8459
330
76D2
100
AcDbDictionary
280
     1
281
     1
  3
ADSK_XREC_LAYER_RECONCILED
360
845A
  0
DICTIONARY
  5
8176
330
8175
100
AcDbDictionary
280
     1
281
     1
  3
ADSK_XREC_LAYER_RECONCILED
360
845B
  0
DICTIONARY
  5
8097
330
19
100
AcDbDictionary
280
     1
281
     1
  3
ACAD_LAYOUTSELFREF
360
8098
  0
DICTIONARY
  5
8095
330
16
100
AcDbDictionary
280
     1
281
     1
  3
ACAD_LAYOUTSELFREF
360
8096
  0
XRECORD
  5
810A
102
{ACAD_REACTORS
330
C
102
}
330
C
100
AcDbXrecord
280
     1
300
ACDLT
300
2023
300

  0
DICTIONARY
  5
80ED
102
{ACAD_REACTORS
330
C
102
}
330
C
100
AcDbDictionary
281
     1
  0
DICTIONARY
  5
8106
102
{ACAD_REACTORS
330
C
102
}
330
C
100
AcDbDictionary
281
     1
  3
Metric50
350
8107
  0
DICTIONARY
  5
D
102
{ACAD_REACTORS
330
C
102
}
330
C
100
AcDbDictionary
281
     1
  0
DICTIONARY
  5
806A
102
{ACAD_REACTORS
330
C
102
}
330
C
100
AcDbDictionary
281
     1
  3
Model
350
806C
  3
ﾚｲｱｳﾄ1
350
806D
  0
DICTIONARY
  5
80BB
102
{ACAD_REACTORS
330
C
102
}
330
C
100
AcDbDictionary
281
     1
  3
ByBlock
350
80C4
  3
ByLayer
350
80BC
  3
Global
350
80CC
  0
DICTIONARY
  5
8102
102
{ACAD_REACTORS
330
C
102
}
330
C
100
AcDbDictionary
281
     1
  3
Standard
350
8103
  0
DICTIONARY
  5
E
102
{ACAD_REACTORS
330
C
102
}
330
C
100
AcDbDictionary
281
     1
  3
STANDARD
350
1C
  0
DICTIONARY
  5
806B
102
{ACAD_REACTORS
330
C
102
}
330
C
100
AcDbDictionary
281
     1
  0
ACDBDICTIONARYWDFLT
  5
8068
102
{ACAD_REACTORS
330
C
102
}
330
C
100
AcDbDictionary
281
     1
  3
Normal
350
8069
100
AcDbDictionaryWithDefault
340
8069
  0
DICTIONARY
  5
80F0
102
{ACAD_REACTORS
330
C
102
}
330
C
100
AcDbDictionary
281
     1
  3
A0
350
80F1
  3
A1
350
80F2
  3
A2
350
80F3
  3
A3
350
80F4
  3
A4
350
80F5
  3
A5
350
80F6
  3
A6
350
80F7
  3
A7
350
80F8
  3
A8
350
80F9
  3
A9
350
80FA
  3
B0
350
80FB
  3
B1
350
80FC
  3
B2
350
80FD
  3
B3
350
80FE
  3
B4
350
80FF
  3
B5
350
8100
  3
B6
350
8101
  0
DICTIONARY
  5
8104
102
{ACAD_REACTORS
330
C
102
}
330
C
100
AcDbDictionary
281
     1
  3
Metric50
350
8105
  0
DICTIONARY
  5
80EE
102
{ACAD_REACTORS
330
C
102
}
330
C
100
AcDbDictionary
281
     1
  3
Standard
350
80EF
  0
DICTIONARY
  5
80D4
102
{ACAD_REACTORS
330
C
102
}
330
C
100
AcDbDictionary
281
     1
  3
2dWireframe
350
80DA
  3
Basic
350
80D9
  3
Brighten
350
80E0
  3
ColorChange
350
80E4
  3
Conceptual
350
80DD
  3
Dim
350
80DF
  3
EdgeColorOff
350
80EC
  3
Facepattern
350
80E3
  3
Flat
350
80D5
  3
FlatWithEdges
350
80D6
  3
Gouraud
350
80D7
  3
GouraudWithEdges
350
80D8
  3
Hidden
350
80DC
  3
JitterOff
350
80EA
  3
Linepattern
350
80E2
  3
OverhangOff
350
80EB
  3
Realistic
350
80DE
  3
Shaded
350
80E9
  3
Shaded with edges
350
80E8
  3
Shades of Gray
350
80E5
  3
Sketchy
350
80E6
  3
Thicken
350
80E1
  3
Wireframe
350
80DB
  3
X-Ray
350
80E7
  0
XRECORD
  5
849E
102
{ACAD_REACTORS
330
C
102
}
330
C
100
AcDbXrecord
280
     1
 90
        1
330
7D09
330
7D0B
330
80EF
  0
DICTIONARY
  5
848D
102
{ACAD_REACTORS
330
C
102
}
330
C
100
AcDbDictionary
281
     1
  3
CANNOSCALE
350
8493
  3
CMLEADERSTYLE
350
848F
  3
CTABLESTYLE
350
848E
  3
CVIEWDETAILSTYLE
350
8490
  3
CVIEWSECTIONSTYLE
350
8491
  3
LAYEREVAL
350
8495
  3
LAYERNOTIFY
350
8496
  3
LIGHTINGUNITS
350
8494
  3
MARKUPASSISTMODE
350
849B
  3
MSLTSCALE
350
8492
  0
DICTIONARY
  5
84A4
102
{ACAD_REACTORS
330
C
102
}
330
C
100
AcDbDictionary
281
     1
  3
AcDsRecords
350
84A6
  3
AcDsSchemas
350
84A5
1001
ACAD
1070
     2
  0
DICTIONARY
  5
8179
102
{ACAD_REACTORS
330
8178
102
}
330
8178
100
AcDbDictionary
281
     1
  0
XRECORD
  5
8452
102
{ACAD_REACTORS
330
8451
102
}
330
8451
100
AcDbXrecord
280
     1
290
     1
  0
XRECORD
  5
8454
102
{ACAD_REACTORS
330
8453
102
}
330
8453
100
AcDbXrecord
280
     1
290
     1
  0
XRECORD
  5
8456
102
{ACAD_REACTORS
330
8455
102
}
330
8455
100
AcDbXrecord
280
     1
290
     1
  0
XRECORD
  5
8458
102
{ACAD_REACTORS
330
8457
102
}
330
8457
100
AcDbXrecord
280
     1
290
     1
  0
XRECORD
  5
845A
102
{ACAD_REACTORS
330
8459
102
}
330
8459
100
AcDbXrecord
280
     1
290
     1
  0
XRECORD
  5
845B
102
{ACAD_REACTORS
330
8176
102
}
330
8176
100
AcDbXrecord
280
     1
290
     1
  0
XRECORD
  5
8098
102
{ACAD_REACTORS
330
8097
102
}
330
8097
100
AcDbXrecord
280
     1
340
19
  0
XRECORD
  5
8096
102
{ACAD_REACTORS
330
8095
102
}
330
8095
100
AcDbXrecord
280
     1
340
16
  0
ACDBDETAILVIEWSTYLE
  5
8107
102
{ACAD_XDICTIONARY
360
84A9
102
}
102
{ACAD_REACTORS
330
8106
102
}
330
8106
100
AcDbModelDocViewStyle
 70
     0
  3
Metric50
290
     0
100
AcDbDetailViewStyle
 70
     0
 71
     0
 90
        3
 71
     1
340
10
 62
   256
 40
5.0
340
0
 62
   256
 40
5.0
300

 40
0.0
280
     1
 71
     2
340
15
 90
       25
 62
   256
 71
     3
340
10
 62
   256
 40
5.0
 90
        0
 40
15.0
 90
        1
300
%<\AcVar ViewDetailId>% (%<\AcVar ViewScale \f "%sn">%)
 71
     4
340
15
 90
       25
 62
   256
340
15
 90
       25
 62
   256
280
     0
  0
LAYOUT
  5
806C
102
{ACAD_REACTORS
330
806A
102
}
330
806A
100
AcDbPlotSettings
  1

  2
EPSON LP-9300
  4

  6

 40
0.0
 41
0.0
 42
0.0
 43
0.0
 44
0.0
 45
0.0
 46
0.0
 47
0.0
 48
0.0
 49
0.0
140
0.0
141
0.0
142
1.0
143
1.0
 70
  1712
 72
     0
 73
     0
 74
     0
  7

 75
     0
147
1.0
 76
     0
 77
     2
 78
   300
148
0.0
149
0.0
100
AcDbLayout
  1
Model
 70
     1
 71
     0
 10
0.0
 20
0.0
 11
12.0
 21
9.0
 12
0.0
 22
0.0
 32
0.0
 14
0.0
 24
0.0
 34
0.0
 15
0.0
 25
0.0
 35
0.0
146
0.0
 13
0.0
 23
0.0
 33
0.0
 16
1.0
 26
0.0
 36
0.0
 17
0.0
 27
1.0
 37
0.0
 76
     0
330
19
331
80B9
  0
LAYOUT
  5
806D
102
{ACAD_REACTORS
330
806A
102
}
330
806A
100
AcDbPlotSettings
  1

  2
EPSON LP-9300
  4

  6

 40
0.0
 41
0.0
 42
0.0
 43
0.0
 44
0.0
 45
0.0
 46
0.0
 47
0.0
 48
0.0
 49
0.0
140
0.0
141
0.0
142
1.0
143
1.0
 70
   688
 72
     0
 73
     0
 74
     5
  7

 75
    16
147
1.0
 76
     0
 77
     2
 78
   300
148
0.0
149
0.0
100
AcDbLayout
  1
ﾚｲｱｳﾄ1
 70
     1
 71
     1
 10
0.0
 20
0.0
 11
12.0
 21
9.0
 12
0.0
 22
0.0
 32
0.0
 14
1.000000000000000E+20
 24
1.000000000000000E+20
 34
1.000000000000000E+20
 15
-1.000000000000000E+20
 25
-1.000000000000000E+20
 35
-1.000000000000000E+20
146
0.0
 13
0.0
 23
0.0
 33
0.0
 16
1.0
 26
0.0
 36
0.0
 17
0.0
 27
1.0
 37
0.0
 76
     0
330
16
  0
MATERIAL
  5
80C4
102
{ACAD_XDICTIONARY
360
80C5
102
}
102
{ACAD_REACTORS
330
80BB
102
}
330
80BB
100
AcDbMaterial
  1
ByBlock
 72
     0
 43
0.0208333333333333
 43
0.0
 43
0.0
 43
0.0
 43
0.0
 43
0.0208333333333333
 43
0.0
 43
0.0
 43
0.0
 43
0.0
 43
1.0
 43
0.0
 43
0.0
 43
0.0
 43
0.0
 43
1.0
 77
     0
 47
0.0208333333333333
 47
0.0
 47
0.0
 47
0.0
 47
0.0
 47
0.0208333333333333
 47
0.0
 47
0.0
 47
0.0
 47
0.0
 47
1.0
 47
0.0
 47
0.0
 47
0.0
 47
0.0
 47
1.0
171
     0
 49
0.0208333333333333
 49
0.0
 49
0.0
 49
0.0
 49
0.0
 49
0.0208333333333333
 49
0.0
 49
0.0
 49
0.0
 49
0.0
 49
1.0
 49
0.0
 49
0.0
 49
0.0
 49
0.0
 49
1.0
175
     0
142
0.0208333333333333
142
0.0
142
0.0
142
0.0
142
0.0
142
0.0208333333333333
142
0.0
142
0.0
142
0.0
142
0.0
142
1.0
142
0.0
142
0.0
142
0.0
142
0.0
142
1.0
179
     0
144
0.0208333333333333
144
0.0
144
0.0
144
0.0
144
0.0
144
0.0208333333333333
144
0.0
144
0.0
144
0.0
144
0.0
144
1.0
144
0.0
144
0.0
144
0.0
144
0.0
144
1.0
147
0.0208333333333333
147
0.0
147
0.0
147
0.0
147
0.0
147
0.0208333333333333
147
0.0
147
0.0
147
0.0
147
0.0
147
1.0
147
0.0
147
0.0
147
0.0
147
0.0
147
1.0
  0
MATERIAL
  5
80BC
102
{ACAD_XDICTIONARY
360
80BD
102
}
102
{ACAD_REACTORS
330
80BB
102
}
330
80BB
100
AcDbMaterial
  1
ByLayer
 72
     0
 43
0.0208333333333333
 43
0.0
 43
0.0
 43
0.0
 43
0.0
 43
0.0208333333333333
 43
0.0
 43
0.0
 43
0.0
 43
0.0
 43
1.0
 43
0.0
 43
0.0
 43
0.0
 43
0.0
 43
1.0
 77
     0
 47
0.0208333333333333
 47
0.0
 47
0.0
 47
0.0
 47
0.0
 47
0.0208333333333333
 47
0.0
 47
0.0
 47
0.0
 47
0.0
 47
1.0
 47
0.0
 47
0.0
 47
0.0
 47
0.0
 47
1.0
171
     0
 49
0.0208333333333333
 49
0.0
 49
0.0
 49
0.0
 49
0.0
 49
0.0208333333333333
 49
0.0
 49
0.0
 49
0.0
 49
0.0
 49
1.0
 49
0.0
 49
0.0
 49
0.0
 49
0.0
 49
1.0
175
     0
142
0.0208333333333333
142
0.0
142
0.0
142
0.0
142
0.0
142
0.0208333333333333
142
0.0
142
0.0
142
0.0
142
0.0
142
1.0
142
0.0
142
0.0
142
0.0
142
0.0
142
1.0
179
     0
144
0.0208333333333333
144
0.0
144
0.0
144
0.0
144
0.0
144
0.0208333333333333
144
0.0
144
0.0
144
0.0
144
0.0
144
1.0
144
0.0
144
0.0
144
0.0
144
0.0
144
1.0
147
0.0208333333333333
147
0.0
147
0.0
147
0.0
147
0.0
147
0.0208333333333333
147
0.0
147
0.0
147
0.0
147
0.0
147
1.0
147
0.0
147
0.0
147
0.0
147
0.0
147
1.0
  0
MATERIAL
  5
80CC
102
{ACAD_XDICTIONARY
360
80CD
102
}
102
{ACAD_REACTORS
330
80BB
102
}
330
80BB
100
AcDbMaterial
  1
Global
 72
     0
 43
0.0208333333333333
 43
0.0
 43
0.0
 43
0.0
 43
0.0
 43
0.0208333333333333
 43
0.0
 43
0.0
 43
0.0
 43
0.0
 43
1.0
 43
0.0
 43
0.0
 43
0.0
 43
0.0
 43
1.0
 77
     0
 47
0.0208333333333333
 47
0.0
 47
0.0
 47
0.0
 47
0.0
 47
0.0208333333333333
 47
0.0
 47
0.0
 47
0.0
 47
0.0
 47
1.0
 47
0.0
 47
0.0
 47
0.0
 47
0.0
 47
1.0
171
     0
 49
0.0208333333333333
 49
0.0
 49
0.0
 49
0.0
 49
0.0
 49
0.0208333333333333
 49
0.0
 49
0.0
 49
0.0
 49
0.0
 49
1.0
 49
0.0
 49
0.0
 49
0.0
 49
0.0
 49
1.0
175
     0
142
0.0208333333333333
142
0.0
142
0.0
142
0.0
142
0.0
142
0.0208333333333333
142
0.0
142
0.0
142
0.0
142
0.0
142
1.0
142
0.0
142
0.0
142
0.0
142
0.0
142
1.0
179
     0
144
0.0208333333333333
144
0.0
144
0.0
144
0.0
144
0.0
144
0.0208333333333333
144
0.0
144
0.0
144
0.0
144
0.0
144
1.0
144
0.0
144
0.0
144
0.0
144
0.0
144
1.0
147
0.0208333333333333
147
0.0
147
0.0
147
0.0
147
0.0
147
0.0208333333333333
147
0.0
147
0.0
147
0.0
147
0.0
147
1.0
147
0.0
147
0.0
147
0.0
147
0.0
147
1.0
  0
MLEADERSTYLE
  5
8103
102
{ACAD_REACTORS
330
8102
102
}
330
8102
100
AcDbMLeaderStyle
179
     2
170
     2
171
     1
172
     0
 90
        2
 40
0.0
 41
0.0
173
     1
 91
-1056964608
340
13
 92
       -2
290
     1
 42
2.0
291
     1
 43
0.36
  3
Standard
 44
4.0
300

342
10
174
     1
178
     6
175
     1
176
     0
 93
-1056964608
 45
4.0
292
     0
297
     0
 46
4.0
 94
-1056964608
 47
1.0
 49
1.0
140
1.0
293
     1
141
0.0
294
     1
177
     0
142
1.0
295
     0
296
     0
143
0.125
271
     0
272
     9
273
     9
298
     1
  0
MLINESTYLE
  5
1C
102
{ACAD_REACTORS
330
E
102
}
330
E
100
AcDbMlineStyle
  2
STANDARD
 70
     0
  3

 62
     0
 51
90.0
 52
90.0
 71
     2
 49
0.5
 62
   256
  6
BYLAYER
 49
-0.5
 62
   256
  6
BYLAYER
  0
ACDBPLACEHOLDER
  5
8069
102
{ACAD_REACTORS
330
8068
102
}
330
8068
  0
SCALE
  5
80F1
102
{ACAD_REACTORS
330
80F0
102
}
330
80F0
100
AcDbScale
 70
     0
300
1:1
140
1.0
141
1.0
290
     1
  0
SCALE
  5
80F2
102
{ACAD_REACTORS
330
80F0
102
}
330
80F0
100
AcDbScale
 70
     0
300
1:2
140
1.0
141
2.0
290
     0
  0
SCALE
  5
80F3
102
{ACAD_REACTORS
330
80F0
102
}
330
80F0
100
AcDbScale
 70
     0
300
1:4
140
1.0
141
4.0
290
     0
  0
SCALE
  5
80F4
102
{ACAD_REACTORS
330
80F0
102
}
330
80F0
100
AcDbScale
 70
     0
300
1:5
140
1.0
141
5.0
290
     0
  0
SCALE
  5
80F5
102
{ACAD_REACTORS
330
80F0
102
}
330
80F0
100
AcDbScale
 70
     0
300
1:8
140
1.0
141
8.0
290
     0
  0
SCALE
  5
80F6
102
{ACAD_REACTORS
330
80F0
102
}
330
80F0
100
AcDbScale
 70
     0
300
1:10
140
1.0
141
10.0
290
     0
  0
SCALE
  5
80F7
102
{ACAD_REACTORS
330
80F0
102
}
330
80F0
100
AcDbScale
 70
     0
300
1:16
140
1.0
141
16.0
290
     0
  0
SCALE
  5
80F8
102
{ACAD_REACTORS
330
80F0
102
}
330
80F0
100
AcDbScale
 70
     0
300
1:20
140
1.0
141
20.0
290
     0
  0
SCALE
  5
80F9
102
{ACAD_REACTORS
330
80F0
102
}
330
80F0
100
AcDbScale
 70
     0
300
1:30
140
1.0
141
30.0
290
     0
  0
SCALE
  5
80FA
102
{ACAD_REACTORS
330
80F0
102
}
330
80F0
100
AcDbScale
 70
     0
300
1:40
140
1.0
141
40.0
290
     0
  0
SCALE
  5
80FB
102
{ACAD_REACTORS
330
80F0
102
}
330
80F0
100
AcDbScale
 70
     0
300
1:50
140
1.0
141
50.0
290
     0
  0
SCALE
  5
80FC
102
{ACAD_REACTORS
330
80F0
102
}
330
80F0
100
AcDbScale
 70
     0
300
1:100
140
1.0
141
100.0
290
     0
  0
SCALE
  5
80FD
102
{ACAD_REACTORS
330
80F0
102
}
330
80F0
100
AcDbScale
 70
     0
300
2:1
140
2.0
141
1.0
290
     0
  0
SCALE
  5
80FE
102
{ACAD_REACTORS
330
80F0
102
}
330
80F0
100
AcDbScale
 70
     0
300
4:1
140
4.0
141
1.0
290
     0
  0
SCALE
  5
80FF
102
{ACAD_REACTORS
330
80F0
102
}
330
80F0
100
AcDbScale
 70
     0
300
8:1
140
8.0
141
1.0
290
     0
  0
SCALE
  5
8100
102
{ACAD_REACTORS
330
80F0
102
}
330
80F0
100
AcDbScale
 70
     0
300
10:1
140
10.0
141
1.0
290
     0
  0
SCALE
  5
8101
102
{ACAD_REACTORS
330
80F0
102
}
330
80F0
100
AcDbScale
 70
     0
300
100:1
140
100.0
141
1.0
290
     0
  0
ACDBSECTIONVIEWSTYLE
  5
8105
102
{ACAD_XDICTIONARY
360
84A7
102
}
102
{ACAD_REACTORS
330
8104
102
}
330
8104
100
AcDbModelDocViewStyle
 70
     0
  3
Metric50
290
     0
100
AcDbSectionViewStyle
 70
     0
 71
     0
 90
      102
 71
     1
340
10
 62
   256
 40
5.0
340
0
340
0
 62
   256
 40
5.0
300
I, O, Q, S, X, Z
 40
10.0
 90
        0
 40
2.5
 90
        0
 71
     2
340
15
 90
       25
 62
   256
340
15
 90
       50
 62
   256
 40
5.0
 40
2.5
 40
5.0
 71
     3
340
10
 62
   256
 40
5.0
 90
        0
 40
15.0
 90
        1
300
%<\AcVar ViewSectionStartId>%-%<\AcVar ViewSectionEndId>% (%<\AcVar ViewScale \f "%sn">%)
 71
     4
 62
   256
 62
   257
300
ANSI31
 40
1.0
 90
        0
290
     0
290
     0
 90
        6
 40
0.0
 40
1.570796326794896
 40
0.2617993877991494
 40
1.308996938995747
 40
-0.2617993877991494
 40
1.832595714594046
  0
TABLESTYLE
  5
80EF
102
{ACAD_XDICTIONARY
360
849C
102
}
102
{ACAD_REACTORS
330
80EE
102
}
330
80EE
100
AcDbTableStyle
280
     0
  3
Standard
 70
     0
 71
     0
 40
1.5
 41
1.5
280
     0
281
     0
  7
STANDARD
140
4.5
170
     2
 62
     0
 63
     7
283
     0
 90
      512
 91
        0
  1

274
    -2
284
     1
 64
     0
275
    -2
285
     1
 65
     0
276
    -2
286
     1
 66
     0
277
    -2
287
     1
 67
     0
278
    -2
288
     1
 68
     0
279
    -2
289
     1
 69
     0
  7
STANDARD
140
6.0
170
     5
 62
     0
 63
     7
283
     0
 90
      512
 91
        0
  1

274
    -2
284
     1
 64
     0
275
    -2
285
     1
 65
     0
276
    -2
286
     1
 66
     0
277
    -2
287
     1
 67
     0
278
    -2
288
     1
 68
     0
279
    -2
289
     1
 69
     0
  7
STANDARD
140
4.5
170
     5
 62
     0
 63
     7
283
     0
 90
      512
 91
        0
  1

274
    -2
284
     1
 64
     0
275
    -2
285
     1
 65
     0
276
    -2
286
     1
 66
     0
277
    -2
287
     1
 67
     0
278
    -2
288
     1
 68
     0
279
    -2
289
     1
 69
     0
  0
VISUALSTYLE
  5
80DA
102
{ACAD_REACTORS
330
80D4
102
}
330
80D4
100
AcDbVisualStyle
  2
2dWireframe
 70
     4
177
     3
291
     0
 70
    58
 90
        0
176
     1
 90
        2
176
     1
 90
        0
176
     1
 90
        0
176
     1
 40
0.6
176
     1
 40
30.0
176
     1
 62
     7
420
 16777215
176
     1
 90
        1
176
     1
 90
        4
176
     1
 62
     7
176
     1
 62
   257
176
     1
 90
        1
176
     1
 90
        1
176
     1
 40
1.0
176
     1
 90
        0
176
     1
 62
   257
176
     1
 40
1.0
176
     1
 90
        1
176
     1
 90
        6
176
     1
 90
        2
176
     1
 62
     7
176
     1
 90
        5
176
     1
 90
        0
176
     1
 90
        0
176
     1
290
     0
176
     1
 90
        1
176
     1
 40
0.0
176
     1
 90
        0
176
     1
290
     1
176
     1
290
     1
176
     1
290
     0
176
     1
290
     0
176
     1
290
     0
176
     1
290
     0
176
     1
290
     0
176
     1
290
     0
176
     1
290
     0
176
     1
 90
       50
176
     1
 40
0.0
176
     1
 40
1.0
176
     1
 90
        0
176
     1
 62
    18
420
        0
176
     1
 90
       50
176
     1
 90
        3
176
     1
 62
     5
420
      255
176
     1
290
     0
176
     1
 90
       50
176
     1
 90
       50
176
     1
 90
       50
176
     1
290
     0
176
     1
 90
       50
176
     1
 62
   256
176
     0
 40
1.0
176
     0
 90
        2
176
     1
  1
strokes_ogs.tif
176
     1
290
     0
176
     1
 40
1.0
176
     1
 40
1.0
176
     1
1001
ACAD
1000
AcDbSavedByObjectVersion
1070
     0
  0
VISUALSTYLE
  5
80D9
102
{ACAD_REACTORS
330
80D4
102
}
330
80D4
100
AcDbVisualStyle
  2
Basic
 70
     7
177
     3
291
     1
 70
    58
 90
        1
176
     1
 90
        0
176
     1
 90
        1
176
     1
 90
        0
176
     1
 40
0.6
176
     1
 40
30.0
176
     1
 62
     7
420
 16777215
176
     1
 90
        0
176
     1
 90
        4
176
     1
 62
     7
176
     1
 62
   257
176
     1
 90
        1
176
     1
 90
        1
176
     1
 40
1.0
176
     1
 90
        8
176
     1
 62
     7
176
     1
 40
1.0
176
     1
 90
        1
176
     1
 90
        6
176
     1
 90
        2
176
     1
 62
     7
176
     1
 90
        5
176
     1
 90
        0
176
     1
 90
        0
176
     1
290
     0
176
     1
 90
        1
176
     1
 40
0.0
176
     1
 90
        0
176
     1
290
     0
176
     1
290
     1
176
     1
290
     1
176
     1
290
     0
176
     1
290
     0
176
     1
290
     0
176
     1
290
     0
176
     1
290
     0
176
     1
290
     0
176
     1
 90
       50
176
     1
 40
0.0
176
     1
 40
1.0
176
     1
 90
        0
176
     1
 62
    18
420
        0
176
     1
 90
       50
176
     1
 90
        3
176
     1
 62
     5
420
      255
176
     1
290
     0
176
     1
 90
       50
176
     1
 90
       50
176
     1
 90
       50
176
     1
290
     0
176
     1
 90
       50
176
     1
 62
   256
176
     0
 40
1.0
176
     0
 90
        2
176
     1
  1
strokes_ogs.tif
176
     1
290
     0
176
     1
 40
1.0
176
     1
 40
1.0
176
     1
1001
ACAD
1000
AcDbSavedByObjectVersion
1070
     0
  0
VISUALSTYLE
  5
80E0
102
{ACAD_REACTORS
330
80D4
102
}
330
80D4
100
AcDbVisualStyle
  2
Brighten
 70
    12
177
     3
291
     1
 70
    58
 90
        2
176
     1
 90
        2
176
     1
 90
        0
176
     1
 90
        0
176
     1
 40
0.6
176
     1
 40
30.0
176
     1
 62
     7
420
 16777215
176
     1
 90
        1
176
     1
 90
        4
176
     1
 62
     7
176
     1
 62
   257
176
     1
 90
        1
176
     1
 90
        1
176
     1
 40
1.0
176
     1
 90
        8
176
     1
 62
     7
176
     1
 40
1.0
176
     1
 90
        1
176
     1
 90
        6
176
     1
 90
        2
176
     1
 62
     7
176
     1
 90
        5
176
     1
 90
        0
176
     1
 90
        0
176
     1
290
     0
176
     1
 90
        1
176
     1
 40
50.0
176
     1
 90
        0
176
     1
290
     0
176
     1
290
     1
176
     1
290
     1
176
     1
290
     0
176
     1
290
     0
176
     1
290
     0
176
     1
290
     0
176
     1
290
     0
176
     1
290
     0
176
     1
 90
       50
176
     1
 40
0.0
176
     1
 40
1.0
176
     1
 90
        0
176
     1
 62
    18
420
        0
176
     1
 90
       50
176
     1
 90
        3
176
     1
 62
     5
420
      255
176
     1
290
     0
176
     1
 90
       50
176
     1
 90
       50
176
     1
 90
       50
176
     1
290
     0
176
     1
 90
       50
176
     1
 62
   256
176
     0
 40
1.0
176
     0
 90
        2
176
     1
  1
strokes_ogs.tif
176
     1
290
     0
176
     1
 40
1.0
176
     1
 40
1.0
176
     1
1001
ACAD
1000
AcDbSavedByObjectVersion
1070
     0
  0
VISUALSTYLE
  5
80E4
102
{ACAD_REACTORS
330
80D4
102
}
330
80D4
100
AcDbVisualStyle
  2
ColorChange
 70
    16
177
     3
291
     1
 70
    58
 90
        2
176
     1
 90
        2
176
     1
 90
        3
176
     1
 90
        0
176
     1
 40
0.6
176
     1
 40
30.0
176
     1
 62
     8
420
  8421504
176
     1
 90
        1
176
     1
 90
        4
176
     1
 62
     7
176
     1
 62
   257
176
     1
 90
        1
176
     1
 90
        1
176
     1
 40
1.0
176
     1
 90
        8
176
     1
 62
     8
420
  8421504
176
     1
 40
1.0
176
     1
 90
        1
176
     1
 90
        6
176
     1
 90
        2
176
     1
 62
     7
176
     1
 90
        5
176
     1
 90
        0
176
     1
 90
        0
176
     1
290
     0
176
     1
 90
        1
176
     1
 40
0.0
176
     1
 90
        0
176
     1
290
     0
176
     1
290
     1
176
     1
290
     1
176
     1
290
     0
176
     1
290
     0
176
     1
290
     0
176
     1
290
     0
176
     1
290
     0
176
     1
290
     0
176
     1
 90
       50
176
     1
 40
0.0
176
     1
 40
1.0
176
     1
 90
        0
176
     1
 62
    18
420
        0
176
     1
 90
       50
176
     1
 90
        3
176
     1
 62
     5
420
      255
176
     1
290
     0
176
     1
 90
       50
176
     1
 90
       50
176
     1
 90
       50
176
     1
290
     0
176
     1
 90
       50
176
     1
 62
   256
176
     0
 40
1.0
176
     0
 90
        2
176
     1
  1
strokes_ogs.tif
176
     1
290
     0
176
     1
 40
1.0
176
     1
 40
1.0
176
     1
1001
ACAD
1000
AcDbSavedByObjectVersion
1070
     0
  0
VISUALSTYLE
  5
80DD
102
{ACAD_REACTORS
330
80D4
102
}
330
80D4
100
AcDbVisualStyle
  2
Conceptual
 70
     9
177
     3
291
     0
 70
    58
 90
        3
176
     1
 90
        2
176
     1
 90
        0
176
     1
 90
        0
176
     1
 40
0.6
176
     1
 40
30.0
176
     1
 62
     7
420
 16777215
176
     1
 90
        2
176
     1
 90
        2
176
     1
 62
     7
176
     1
 62
   257
176
     1
 90
        1
176
     1
 90
        1
176
     1
 40
179.0
176
     1
 90
        8
176
     1
 62
     7
176
     1
 40
1.0
176
     1
 90
        1
176
     1
 90
        6
176
     1
 90
        2
176
     1
 62
     7
176
     1
 90
        3
176
     1
 90
        0
176
     1
 90
        0
176
     1
290
     0
176
     1
 90
        1
176
     1
 40
0.0
176
     1
 90
        0
176
     1
290
     0
176
     1
290
     1
176
     1
290
     1
176
     1
290
     0
176
     1
290
     0
176
     1
290
     0
176
     1
290
     0
176
     1
290
     0
176
     1
290
     0
176
     1
 90
       50
176
     1
 40
0.0
176
     1
 40
1.0
176
     1
 90
        0
176
     1
 62
    18
420
        0
176
     1
 90
       50
176
     1
 90
        3
176
     1
 62
     5
420
      255
176
     1
290
     0
176
     1
 90
       50
176
     1
 90
       50
176
     1
 90
       50
176
     1
290
     0
176
     1
 90
       50
176
     1
 62
   256
176
     0
 40
1.0
176
     0
 90
        2
176
     1
  1
strokes_ogs.tif
176
     1
290
     0
176
     1
 40
1.0
176
     1
 40
1.0
176
     1
1001
ACAD
1000
AcDbSavedByObjectVersion
1070
     0
  0
VISUALSTYLE
  5
80DF
102
{ACAD_REACTORS
330
80D4
102
}
330
80D4
100
AcDbVisualStyle
  2
Dim
 70
    11
177
     3
291
     1
 70
    58
 90
        2
176
     1
 90
        2
176
     1
 90
        0
176
     1
 90
        0
176
     1
 40
0.6
176
     1
 40
30.0
176
     1
 62
     7
420
 16777215
176
     1
 90
        1
176
     1
 90
        4
176
     1
 62
     7
176
     1
 62
   257
176
     1
 90
        1
176
     1
 90
        1
176
     1
 40
1.0
176
     1
 90
        8
176
     1
 62
     7
176
     1
 40
1.0
176
     1
 90
        1
176
     1
 90
        6
176
     1
 90
        2
176
     1
 62
     7
176
     1
 90
        5
176
     1
 90
        0
176
     1
 90
        0
176
     1
290
     0
176
     1
 90
        1
176
     1
 40
-50.0
176
     1
 90
        0
176
     1
290
     0
176
     1
290
     1
176
     1
290
     1
176
     1
290
     0
176
     1
290
     0
176
     1
290
     0
176
     1
290
     0
176
     1
290
     0
176
     1
290
     0
176
     1
 90
       50
176
     1
 40
0.0
176
     1
 40
1.0
176
     1
 90
        0
176
     1
 62
    18
420
        0
176
     1
 90
       50
176
     1
 90
        3
176
     1
 62
     5
420
      255
176
     1
290
     0
176
     1
 90
       50
176
     1
 90
       50
176
     1
 90
       50
176
     1
290
     0
176
     1
 90
       50
176
     1
 62
   256
176
     0
 40
1.0
176
     0
 90
        2
176
     1
  1
strokes_ogs.tif
176
     1
290
     0
176
     1
 40
1.0
176
     1
 40
1.0
176
     1
1001
ACAD
1000
AcDbSavedByObjectVersion
1070
     0
  0
VISUALSTYLE
  5
80EC
102
{ACAD_REACTORS
330
80D4
102
}
330
80D4
100
AcDbVisualStyle
  2
EdgeColorOff
 70
    22
177
     3
291
     1
 70
    58
 90
        2
176
     0
 90
        2
176
     0
 90
        0
176
     0
 90
        0
176
     0
 40
0.6
176
     0
 40
30.0
176
     0
 62
     7
420
 16777215
176
     0
 90
        1
176
     0
 90
        4
176
     0
 62
     7
176
     0
 62
   257
176
     0
 90
        1
176
     0
 90
        1
176
     0
 40
1.0
176
     0
 90
        8
176
     2
 62
     7
176
     0
 40
1.0
176
     0
 90
        1
176
     0
 90
        6
176
     0
 90
        2
176
     0
 62
     7
176
     0
 90
        5
176
     0
 90
        0
176
     0
 90
        0
176
     0
290
     0
176
     0
 90
        1
176
     0
 40
0.0
176
     0
 90
        0
176
     0
290
     0
176
     0
290
     1
176
     0
290
     1
176
     0
290
     0
176
     0
290
     0
176
     0
290
     0
176
     0
290
     0
176
     0
290
     0
176
     0
290
     0
176
     0
 90
       50
176
     0
 40
0.0
176
     0
 40
1.0
176
     0
 90
        0
176
     0
 62
    18
420
        0
176
     0
 90
       50
176
     0
 90
        3
176
     0
 62
     5
420
      255
176
     0
290
     0
176
     0
 90
       50
176
     0
 90
       50
176
     0
 90
       50
176
     0
290
     0
176
     0
 90
       50
176
     0
 62
   256
176
     0
 40
1.0
176
     0
 90
        2
176
     0
  1
strokes_ogs.tif
176
     0
290
     0
176
     0
 40
1.0
176
     0
 40
1.0
176
     0
1001
ACAD
1000
AcDbSavedByObjectVersion
1070
     0
  0
VISUALSTYLE
  5
80E3
102
{ACAD_REACTORS
330
80D4
102
}
330
80D4
100
AcDbVisualStyle
  2
Facepattern
 70
    15
177
     3
291
     1
 70
    58
 90
        2
176
     1
 90
        2
176
     1
 90
        0
176
     1
 90
        0
176
     1
 40
0.6
176
     1
 40
30.0
176
     1
 62
     7
420
 16777215
176
     1
 90
        1
176
     1
 90
        4
176
     1
 62
     7
176
     1
 62
   257
176
     1
 90
        1
176
     1
 90
        1
176
     1
 40
1.0
176
     1
 90
        8
176
     1
 62
     7
176
     1
 40
1.0
176
     1
 90
        1
176
     1
 90
        6
176
     1
 90
        2
176
     1
 62
     7
176
     1
 90
        5
176
     1
 90
        0
176
     1
 90
        0
176
     1
290
     0
176
     1
 90
        1
176
     1
 40
0.0
176
     1
 90
        0
176
     1
290
     0
176
     1
290
     1
176
     1
290
     1
176
     1
290
     0
176
     1
290
     0
176
     1
290
     0
176
     1
290
     0
176
     1
290
     0
176
     1
290
     0
176
     1
 90
       50
176
     1
 40
0.0
176
     1
 40
1.0
176
     1
 90
        0
176
     1
 62
    18
420
        0
176
     1
 90
       50
176
     1
 90
        3
176
     1
 62
     5
420
      255
176
     1
290
     0
176
     1
 90
       50
176
     1
 90
       50
176
     1
 90
       50
176
     1
290
     0
176
     1
 90
       50
176
     1
 62
   256
176
     0
 40
1.0
176
     0
 90
        2
176
     1
  1
strokes_ogs.tif
176
     1
290
     0
176
     1
 40
1.0
176
     1
 40
1.0
176
     1
1001
ACAD
1000
AcDbSavedByObjectVersion
1070
     0
  0
VISUALSTYLE
  5
80D5
102
{ACAD_REACTORS
330
80D4
102
}
330
80D4
100
AcDbVisualStyle
  2
Flat
 70
     0
177
     3
291
     1
 70
    58
 90
        2
176
     1
 90
        1
176
     1
 90
        1
176
     1
 90
        2
176
     1
 40
0.6
176
     1
 40
30.0
176
     1
 62
     7
420
 16777215
176
     1
 90
        0
176
     1
 90
        0
176
     1
 62
     7
176
     1
 62
   257
176
     1
 90
        1
176
     1
 90
        1
176
     1
 40
1.0
176
     1
 90
        8
176
     1
 62
     7
176
     1
 40
1.0
176
     1
 90
        1
176
     1
 90
        6
176
     1
 90
        2
176
     1
 62
     7
176
     1
 90
        5
176
     1
 90
        0
176
     1
 90
        0
176
     1
290
     0
176
     1
 90
       13
176
     1
 40
0.0
176
     1
 90
        0
176
     1
290
     0
176
     1
290
     1
176
     1
290
     1
176
     1
290
     0
176
     1
290
     0
176
     1
290
     0
176
     1
290
     0
176
     1
290
     0
176
     1
290
     0
176
     1
 90
       50
176
     1
 40
0.0
176
     1
 40
1.0
176
     1
 90
        0
176
     1
 62
    18
420
        0
176
     1
 90
       50
176
     1
 90
        3
176
     1
 62
     5
420
      255
176
     1
290
     0
176
     1
 90
       50
176
     1
 90
       50
176
     1
 90
       50
176
     1
290
     0
176
     1
 90
       50
176
     1
 62
   256
176
     0
 40
1.0
176
     0
 90
        2
176
     1
  1
strokes_ogs.tif
176
     1
290
     0
176
     1
 40
1.0
176
     1
 40
1.0
176
     1
1001
ACAD
1000
AcDbSavedByObjectVersion
1070
     0
  0
VISUALSTYLE
  5
80D6
102
{ACAD_REACTORS
330
80D4
102
}
330
80D4
100
AcDbVisualStyle
  2
FlatWithEdges
 70
     1
177
     3
291
     1
 70
    58
 90
        2
176
     1
 90
        1
176
     1
 90
        1
176
     1
 90
        2
176
     1
 40
0.6
176
     1
 40
30.0
176
     1
 62
     7
420
 16777215
176
     1
 90
        1
176
     1
 90
        0
176
     1
 62
     7
176
     1
 62
   257
176
     1
 90
        1
176
     1
 90
        1
176
     1
 40
1.0
176
     1
 90
        0
176
     1
 62
   257
176
     1
 40
1.0
176
     1
 90
        1
176
     1
 90
        6
176
     1
 90
        2
176
     1
 62
     7
176
     1
 90
        5
176
     1
 90
        0
176
     1
 90
        0
176
     1
290
     0
176
     1
 90
       13
176
     1
 40
0.0
176
     1
 90
        0
176
     1
290
     0
176
     1
290
     1
176
     1
290
     1
176
     1
290
     0
176
     1
290
     0
176
     1
290
     0
176
     1
290
     0
176
     1
290
     0
176
     1
290
     0
176
     1
 90
       50
176
     1
 40
0.0
176
     1
 40
1.0
176
     1
 90
        0
176
     1
 62
    18
420
        0
176
     1
 90
       50
176
     1
 90
        3
176
     1
 62
     5
420
      255
176
     1
290
     0
176
     1
 90
       50
176
     1
 90
       50
176
     1
 90
       50
176
     1
290
     0
176
     1
 90
       50
176
     1
 62
   256
176
     0
 40
1.0
176
     0
 90
        2
176
     1
  1
strokes_ogs.tif
176
     1
290
     0
176
     1
 40
1.0
176
     1
 40
1.0
176
     1
1001
ACAD
1000
AcDbSavedByObjectVersion
1070
     0
  0
VISUALSTYLE
  5
80D7
102
{ACAD_REACTORS
330
80D4
102
}
330
80D4
100
AcDbVisualStyle
  2
Gouraud
 70
     2
177
     3
291
     1
 70
    58
 90
        2
176
     1
 90
        2
176
     1
 90
        1
176
     1
 90
        2
176
     1
 40
0.6
176
     1
 40
30.0
176
     1
 62
     7
420
 16777215
176
     1
 90
        0
176
     1
 90
        0
176
     1
 62
     7
176
     1
 62
   257
176
     1
 90
        1
176
     1
 90
        1
176
     1
 40
1.0
176
     1
 90
        0
176
     1
 62
     7
176
     1
 40
1.0
176
     1
 90
        1
176
     1
 90
        6
176
     1
 90
        2
176
     1
 62
     7
176
     1
 90
        5
176
     1
 90
        0
176
     1
 90
        0
176
     1
290
     0
176
     1
 90
       13
176
     1
 40
0.0
176
     1
 90
        0
176
     1
290
     0
176
     1
290
     1
176
     1
290
     1
176
     1
290
     0
176
     1
290
     0
176
     1
290
     0
176
     1
290
     0
176
     1
290
     0
176
     1
290
     0
176
     1
 90
       50
176
     1
 40
0.0
176
     1
 40
1.0
176
     1
 90
        0
176
     1
 62
    18
420
        0
176
     1
 90
       50
176
     1
 90
        3
176
     1
 62
     5
420
      255
176
     1
290
     0
176
     1
 90
       50
176
     1
 90
       50
176
     1
 90
       50
176
     1
290
     0
176
     1
 90
       50
176
     1
 62
   256
176
     0
 40
1.0
176
     0
 90
        2
176
     1
  1
strokes_ogs.tif
176
     1
290
     0
176
     1
 40
1.0
176
     1
 40
1.0
176
     1
1001
ACAD
1000
AcDbSavedByObjectVersion
1070
     0
  0
VISUALSTYLE
  5
80D8
102
{ACAD_REACTORS
330
80D4
102
}
330
80D4
100
AcDbVisualStyle
  2
GouraudWithEdges
 70
     3
177
     3
291
     1
 70
    58
 90
        2
176
     1
 90
        2
176
     1
 90
        1
176
     1
 90
        2
176
     1
 40
0.6
176
     1
 40
30.0
176
     1
 62
     7
420
 16777215
176
     1
 90
        1
176
     1
 90
        0
176
     1
 62
     7
176
     1
 62
   257
176
     1
 90
        1
176
     1
 90
        1
176
     1
 40
1.0
176
     1
 90
        0
176
     1
 62
   257
176
     1
 40
1.0
176
     1
 90
        1
176
     1
 90
        6
176
     1
 90
        2
176
     1
 62
     7
176
     1
 90
        5
176
     1
 90
        0
176
     1
 90
        0
176
     1
290
     0
176
     1
 90
       13
176
     1
 40
0.0
176
     1
 90
        0
176
     1
290
     0
176
     1
290
     1
176
     1
290
     1
176
     1
290
     0
176
     1
290
     0
176
     1
290
     0
176
     1
290
     0
176
     1
290
     0
176
     1
290
     0
176
     1
 90
       50
176
     1
 40
0.0
176
     1
 40
1.0
176
     1
 90
        0
176
     1
 62
    18
420
        0
176
     1
 90
       50
176
     1
 90
        3
176
     1
 62
     5
420
      255
176
     1
290
     0
176
     1
 90
       50
176
     1
 90
       50
176
     1
 90
       50
176
     1
290
     0
176
     1
 90
       50
176
     1
 62
   256
176
     0
 40
1.0
176
     0
 90
        2
176
     1
  1
strokes_ogs.tif
176
     1
290
     0
176
     1
 40
1.0
176
     1
 40
1.0
176
     1
1001
ACAD
1000
AcDbSavedByObjectVersion
1070
     0
  0
VISUALSTYLE
  5
80DC
102
{ACAD_REACTORS
330
80D4
102
}
330
80D4
100
AcDbVisualStyle
  2
Hidden
 70
     6
177
     3
291
     0
 70
    58
 90
        1
176
     1
 90
        2
176
     1
 90
        2
176
     1
 90
        0
176
     1
 40
0.6
176
     1
 40
30.0
176
     1
 62
     7
420
 16777215
176
     1
 90
        2
176
     1
 90
        2
176
     1
 62
     7
176
     1
 62
   257
176
     1
 90
        2
176
     1
 90
        1
176
     1
 40
40.0
176
     1
 90
        0
176
     1
 62
   257
176
     1
 40
1.0
176
     1
 90
        1
176
     1
 90
        6
176
     1
 90
        2
176
     1
 62
     7
176
     1
 90
        3
176
     1
 90
        0
176
     1
 90
        0
176
     1
290
     0
176
     1
 90
        1
176
     1
 40
0.0
176
     1
 90
        0
176
     1
290
     0
176
     1
290
     1
176
     1
290
     1
176
     1
290
     0
176
     1
290
     0
176
     1
290
     0
176
     1
290
     0
176
     1
290
     0
176
     1
290
     0
176
     1
 90
       50
176
     1
 40
0.0
176
     1
 40
1.0
176
     1
 90
        0
176
     1
 62
    18
420
        0
176
     1
 90
       50
176
     1
 90
        3
176
     1
 62
     5
420
      255
176
     1
290
     0
176
     1
 90
       50
176
     1
 90
       50
176
     1
 90
       50
176
     1
290
     0
176
     1
 90
       50
176
     1
 62
   256
176
     0
 40
1.0
176
     0
 90
        2
176
     1
  1
strokes_ogs.tif
176
     1
290
     0
176
     1
 40
1.0
176
     1
 40
1.0
176
     1
1001
ACAD
1000
AcDbSavedByObjectVersion
1070
     0
  0
VISUALSTYLE
  5
80EA
102
{ACAD_REACTORS
330
80D4
102
}
330
80D4
100
AcDbVisualStyle
  2
JitterOff
 70
    20
177
     3
291
     1
 70
    58
 90
        2
176
     0
 90
        2
176
     0
 90
        0
176
     0
 90
        0
176
     0
 40
0.6
176
     0
 40
30.0
176
     0
 62
     7
420
 16777215
176
     0
 90
        1
176
     0
 90
        4
176
     0
 62
     7
176
     0
 62
   257
176
     0
 90
        1
176
     0
 90
        1
176
     0
 40
1.0
176
     0
 90
       10
176
     2
 62
     7
176
     0
 40
1.0
176
     0
 90
        1
176
     0
 90
        6
176
     0
 90
        2
176
     0
 62
     7
176
     0
 90
        5
176
     0
 90
        0
176
     0
 90
        0
176
     0
290
     0
176
     0
 90
        1
176
     0
 40
0.0
176
     0
 90
        0
176
     0
290
     0
176
     0
290
     1
176
     0
290
     1
176
     0
290
     0
176
     0
290
     0
176
     0
290
     0
176
     0
290
     0
176
     0
290
     0
176
     0
290
     0
176
     0
 90
       50
176
     0
 40
0.0
176
     0
 40
1.0
176
     0
 90
        0
176
     0
 62
    18
420
        0
176
     0
 90
       50
176
     0
 90
        3
176
     0
 62
     5
420
      255
176
     0
290
     0
176
     0
 90
       50
176
     0
 90
       50
176
     0
 90
       50
176
     0
290
     0
176
     0
 90
       50
176
     0
 62
   256
176
     0
 40
1.0
176
     0
 90
        2
176
     0
  1
strokes_ogs.tif
176
     0
290
     0
176
     0
 40
1.0
176
     0
 40
1.0
176
     0
1001
ACAD
1000
AcDbSavedByObjectVersion
1070
     0
  0
VISUALSTYLE
  5
80E2
102
{ACAD_REACTORS
330
80D4
102
}
330
80D4
100
AcDbVisualStyle
  2
Linepattern
 70
    14
177
     3
291
     1
 70
    58
 90
        2
176
     1
 90
        2
176
     1
 90
        0
176
     1
 90
        0
176
     1
 40
0.6
176
     1
 40
30.0
176
     1
 62
     7
420
 16777215
176
     1
 90
        1
176
     1
 90
        4
176
     1
 62
     7
176
     1
 62
   257
176
     1
 90
        7
176
     1
 90
        7
176
     1
 40
1.0
176
     1
 90
        8
176
     1
 62
     7
176
     1
 40
1.0
176
     1
 90
        1
176
     1
 90
        6
176
     1
 90
        2
176
     1
 62
     7
176
     1
 90
        5
176
     1
 90
        0
176
     1
 90
        0
176
     1
290
     0
176
     1
 90
        1
176
     1
 40
0.0
176
     1
 90
        0
176
     1
290
     0
176
     1
290
     1
176
     1
290
     1
176
     1
290
     0
176
     1
290
     0
176
     1
290
     0
176
     1
290
     0
176
     1
290
     0
176
     1
290
     0
176
     1
 90
       50
176
     1
 40
0.0
176
     1
 40
1.0
176
     1
 90
        0
176
     1
 62
    18
420
        0
176
     1
 90
       50
176
     1
 90
        3
176
     1
 62
     5
420
      255
176
     1
290
     0
176
     1
 90
       50
176
     1
 90
       50
176
     1
 90
       50
176
     1
290
     0
176
     1
 90
       50
176
     1
 62
   256
176
     0
 40
1.0
176
     0
 90
        2
176
     1
  1
strokes_ogs.tif
176
     1
290
     0
176
     1
 40
1.0
176
     1
 40
1.0
176
     1
1001
ACAD
1000
AcDbSavedByObjectVersion
1070
     0
  0
VISUALSTYLE
  5
80EB
102
{ACAD_REACTORS
330
80D4
102
}
330
80D4
100
AcDbVisualStyle
  2
OverhangOff
 70
    21
177
     3
291
     1
 70
    58
 90
        2
176
     0
 90
        2
176
     0
 90
        0
176
     0
 90
        0
176
     0
 40
0.6
176
     0
 40
30.0
176
     0
 62
     7
420
 16777215
176
     0
 90
        1
176
     0
 90
        4
176
     0
 62
     7
176
     0
 62
   257
176
     0
 90
        1
176
     0
 90
        1
176
     0
 40
1.0
176
     0
 90
        9
176
     2
 62
     7
176
     0
 40
1.0
176
     0
 90
        1
176
     0
 90
        6
176
     0
 90
        2
176
     0
 62
     7
176
     0
 90
        5
176
     0
 90
        0
176
     0
 90
        0
176
     0
290
     0
176
     0
 90
        1
176
     0
 40
0.0
176
     0
 90
        0
176
     0
290
     0
176
     0
290
     1
176
     0
290
     1
176
     0
290
     0
176
     0
290
     0
176
     0
290
     0
176
     0
290
     0
176
     0
290
     0
176
     0
290
     0
176
     0
 90
       50
176
     0
 40
0.0
176
     0
 40
1.0
176
     0
 90
        0
176
     0
 62
    18
420
        0
176
     0
 90
       50
176
     0
 90
        3
176
     0
 62
     5
420
      255
176
     0
290
     0
176
     0
 90
       50
176
     0
 90
       50
176
     0
 90
       50
176
     0
290
     0
176
     0
 90
       50
176
     0
 62
   256
176
     0
 40
1.0
176
     0
 90
        2
176
     0
  1
strokes_ogs.tif
176
     0
290
     0
176
     0
 40
1.0
176
     0
 40
1.0
176
     0
1001
ACAD
1000
AcDbSavedByObjectVersion
1070
     0
  0
VISUALSTYLE
  5
80DE
102
{ACAD_REACTORS
330
80D4
102
}
330
80D4
100
AcDbVisualStyle
  2
Realistic
 70
     8
177
     3
291
     0
 70
    58
 90
        2
176
     1
 90
        3
176
     1
 90
        0
176
     1
 90
        2
176
     1
 40
0.6
176
     1
 40
30.0
176
     1
 62
     7
420
 16777215
176
     1
 90
        0
176
     1
 90
        0
176
     1
 62
     7
176
     1
 62
   257
176
     1
 90
        1
176
     1
 90
        1
176
     1
 40
1.0
176
     1
 90
        8
176
     1
 62
   257
176
     1
 40
1.0
176
     1
 90
        1
176
     1
 90
        6
176
     1
 90
        2
176
     1
 62
     7
176
     1
 90
        3
176
     1
 90
        0
176
     1
 90
        0
176
     1
290
     0
176
     1
 90
       13
176
     1
 40
0.0
176
     1
 90
        0
176
     1
290
     0
176
     1
290
     1
176
     1
290
     1
176
     1
290
     0
176
     1
290
     0
176
     1
290
     0
176
     1
290
     0
176
     1
290
     0
176
     1
290
     0
176
     1
 90
       50
176
     1
 40
0.0
176
     1
 40
1.0
176
     1
 90
        0
176
     1
 62
    18
420
        0
176
     1
 90
       50
176
     1
 90
        3
176
     1
 62
     5
420
      255
176
     1
290
     0
176
     1
 90
       50
176
     1
 90
       50
176
     1
 90
       50
176
     1
290
     0
176
     1
 90
       50
176
     1
 62
   256
176
     0
 40
1.0
176
     0
 90
        2
176
     1
  1
strokes_ogs.tif
176
     1
290
     0
176
     1
 40
1.0
176
     1
 40
1.0
176
     1
1001
ACAD
1000
AcDbSavedByObjectVersion
1070
     0
  0
VISUALSTYLE
  5
80E9
102
{ACAD_REACTORS
330
80D4
102
}
330
80D4
100
AcDbVisualStyle
  2
Shaded
 70
    27
177
     3
291
     0
 70
    58
 90
        2
176
     1
 90
        2
176
     1
 90
        1
176
     1
 90
        2
176
     1
 40
0.6
176
     1
 40
30.0
176
     1
 62
     7
420
 16777215
176
     1
 90
        0
176
     1
 90
        4
176
     1
 62
     7
176
     1
 62
   257
176
     1
 90
        1
176
     1
 90
        1
176
     1
 40
1.0
176
     1
 90
        8
176
     1
 62
   257
176
     1
 40
1.0
176
     1
 90
        1
176
     1
 90
        6
176
     1
 90
        2
176
     1
 62
     8
420
  7895160
176
     1
 90
        3
176
     1
 90
        0
176
     1
 90
        0
176
     1
290
     0
176
     1
 90
        5
176
     1
 40
0.0
176
     1
 90
        0
176
     1
290
     0
176
     1
290
     1
176
     1
290
     1
176
     1
290
     0
176
     1
290
     0
176
     1
290
     0
176
     1
290
     0
176
     1
290
     0
176
     1
290
     0
176
     1
 90
       50
176
     1
 40
0.0
176
     1
 40
1.0
176
     1
 90
        0
176
     1
 62
    18
420
        0
176
     1
 90
       50
176
     1
 90
        3
176
     1
 62
     5
420
      255
176
     1
290
     0
176
     1
 90
       50
176
     1
 90
       50
176
     1
 90
       50
176
     1
290
     0
176
     1
 90
       50
176
     1
 62
   256
176
     0
 40
1.0
176
     0
 90
        2
176
     1
  1
strokes_ogs.tif
176
     1
290
     0
176
     1
 40
1.0
176
     1
 40
1.0
176
     1
1001
ACAD
1000
AcDbSavedByObjectVersion
1070
     0
  0
VISUALSTYLE
  5
80E8
102
{ACAD_REACTORS
330
80D4
102
}
330
80D4
100
AcDbVisualStyle
  2
Shaded with edges
 70
    26
177
     3
291
     0
 70
    58
 90
        2
176
     1
 90
        2
176
     1
 90
        1
176
     1
 90
        2
176
     1
 40
0.6
176
     1
 40
30.0
176
     1
 62
     7
420
 16777215
176
     1
 90
        1
176
     1
 90
        2
176
     1
 62
     7
176
     1
 62
   257
176
     1
 90
        2
176
     1
 90
        1
176
     1
 40
1.0
176
     1
 90
        8
176
     1
 62
   257
176
     1
 40
1.0
176
     1
 90
        1
176
     1
 90
        6
176
     1
 90
        2
176
     1
 62
     7
176
     1
 90
        3
176
     1
 90
        0
176
     1
 90
        0
176
     1
290
     0
176
     1
 90
        5
176
     1
 40
0.0
176
     1
 90
        0
176
     1
290
     0
176
     1
290
     1
176
     1
290
     1
176
     1
290
     0
176
     1
290
     0
176
     1
290
     0
176
     1
290
     0
176
     1
290
     0
176
     1
290
     0
176
     1
 90
       50
176
     1
 40
0.0
176
     1
 40
1.0
176
     1
 90
        0
176
     1
 62
    18
420
        0
176
     1
 90
       50
176
     1
 90
        3
176
     1
 62
     5
420
      255
176
     1
290
     0
176
     1
 90
       50
176
     1
 90
       50
176
     1
 90
       50
176
     1
290
     0
176
     1
 90
       50
176
     1
 62
   256
176
     0
 40
1.0
176
     0
 90
        2
176
     1
  1
strokes_ogs.tif
176
     1
290
     0
176
     1
 40
1.0
176
     1
 40
1.0
176
     1
1001
ACAD
1000
AcDbSavedByObjectVersion
1070
     0
  0
VISUALSTYLE
  5
80E5
102
{ACAD_REACTORS
330
80D4
102
}
330
80D4
100
AcDbVisualStyle
  2
Shades of Gray
 70
    23
177
     3
291
     0
 70
    58
 90
        2
176
     1
 90
        2
176
     1
 90
        3
176
     1
 90
        0
176
     1
 40
0.6
176
     1
 40
30.0
176
     1
 62
     7
420
 16777215
176
     1
 90
        2
176
     1
 90
        2
176
     1
 62
     7
176
     1
 62
     7
176
     1
 90
        1
176
     1
 90
        1
176
     1
 40
40.0
176
     1
 90
        8
176
     1
 62
     7
176
     1
 40
1.0
176
     1
 90
        1
176
     1
 90
        6
176
     1
 90
        2
176
     1
 62
     7
176
     1
 90
        3
176
     1
 90
        0
176
     1
 90
        0
176
     1
290
     0
176
     1
 90
        1
176
     1
 40
0.0
176
     1
 90
        0
176
     1
290
     0
176
     1
290
     1
176
     1
290
     1
176
     1
290
     0
176
     1
290
     0
176
     1
290
     0
176
     1
290
     0
176
     1
290
     0
176
     1
290
     0
176
     1
 90
       50
176
     1
 40
0.0
176
     1
 40
1.0
176
     1
 90
        0
176
     1
 62
    18
420
        0
176
     1
 90
       50
176
     1
 90
        3
176
     1
 62
     5
420
      255
176
     1
290
     0
176
     1
 90
       50
176
     1
 90
       50
176
     1
 90
       50
176
     1
290
     0
176
     1
 90
       50
176
     1
 62
   256
176
     0
 40
1.0
176
     0
 90
        2
176
     1
  1
strokes_ogs.tif
176
     1
290
     0
176
     1
 40
1.0
176
     1
 40
1.0
176
     1
1001
ACAD
1000
AcDbSavedByObjectVersion
1070
     0
  0
VISUALSTYLE
  5
80E6
102
{ACAD_REACTORS
330
80D4
102
}
330
80D4
100
AcDbVisualStyle
  2
Sketchy
 70
    24
177
     3
291
     0
 70
    58
 90
        1
176
     1
 90
        2
176
     1
 90
        2
176
     1
 90
        0
176
     1
 40
0.6
176
     1
 40
30.0
176
     1
 62
     7
420
 16777215
176
     1
 90
        2
176
     1
 90
        2
176
     1
 62
     7
176
     1
 62
     7
176
     1
 90
        1
176
     1
 90
        1
176
     1
 40
40.0
176
     1
 90
       11
176
     1
 62
     7
176
     1
 40
1.0
176
     1
 90
        1
176
     1
 90
        6
176
     1
 90
        2
176
     1
 62
     7
176
     1
 90
        6
176
     1
 90
        0
176
     1
 90
        0
176
     1
290
     0
176
     1
 90
        1
176
     1
 40
0.0
176
     1
 90
        0
176
     1
290
     0
176
     1
290
     1
176
     1
290
     1
176
     1
290
     0
176
     1
290
     0
176
     1
290
     0
176
     1
290
     0
176
     1
290
     0
176
     1
290
     0
176
     1
 90
       50
176
     1
 40
0.0
176
     1
 40
1.0
176
     1
 90
        0
176
     1
 62
    18
420
        0
176
     1
 90
       50
176
     1
 90
        3
176
     1
 62
     5
420
      255
176
     1
290
     0
176
     1
 90
       50
176
     1
 90
       50
176
     1
 90
       50
176
     1
290
     0
176
     1
 90
       50
176
     1
 62
   256
176
     0
 40
1.0
176
     0
 90
        2
176
     1
  1
strokes_ogs.tif
176
     1
290
     0
176
     1
 40
1.0
176
     1
 40
1.0
176
     1
1001
ACAD
1000
AcDbSavedByObjectVersion
1070
     0
  0
VISUALSTYLE
  5
80E1
102
{ACAD_REACTORS
330
80D4
102
}
330
80D4
100
AcDbVisualStyle
  2
Thicken
 70
    13
177
     3
291
     1
 70
    58
 90
        2
176
     1
 90
        2
176
     1
 90
        0
176
     1
 90
        0
176
     1
 40
0.6
176
     1
 40
30.0
176
     1
 62
     7
420
 16777215
176
     1
 90
        1
176
     1
 90
        4
176
     1
 62
     7
176
     1
 62
   257
176
     1
 90
        1
176
     1
 90
        1
176
     1
 40
1.0
176
     1
 90
       12
176
     1
 62
     7
176
     1
 40
1.0
176
     1
 90
        1
176
     1
 90
        6
176
     1
 90
        2
176
     1
 62
     7
176
     1
 90
        5
176
     1
 90
        0
176
     1
 90
        0
176
     1
290
     0
176
     1
 90
        1
176
     1
 40
0.0
176
     1
 90
        0
176
     1
290
     0
176
     1
290
     1
176
     1
290
     1
176
     1
290
     0
176
     1
290
     0
176
     1
290
     0
176
     1
290
     0
176
     1
290
     0
176
     1
290
     0
176
     1
 90
       50
176
     1
 40
0.0
176
     1
 40
1.0
176
     1
 90
        0
176
     1
 62
    18
420
        0
176
     1
 90
       50
176
     1
 90
        3
176
     1
 62
     5
420
      255
176
     1
290
     0
176
     1
 90
       50
176
     1
 90
       50
176
     1
 90
       50
176
     1
290
     0
176
     1
 90
       50
176
     1
 62
   256
176
     0
 40
1.0
176
     0
 90
        2
176
     1
  1
strokes_ogs.tif
176
     1
290
     0
176
     1
 40
1.0
176
     1
 40
1.0
176
     1
1001
ACAD
1000
AcDbSavedByObjectVersion
1070
     0
  0
VISUALSTYLE
  5
80DB
102
{ACAD_REACTORS
330
80D4
102
}
330
80D4
100
AcDbVisualStyle
  2
Wireframe
 70
     5
177
     3
291
     0
 70
    58
 90
        0
176
     1
 90
        2
176
     1
 90
        0
176
     1
 90
        0
176
     1
 40
0.6
176
     1
 40
30.0
176
     1
 62
     7
420
 16777215
176
     1
 90
        1
176
     1
 90
        4
176
     1
 62
     7
176
     1
 62
   257
176
     1
 90
        1
176
     1
 90
        1
176
     1
 40
1.0
176
     1
 90
        0
176
     1
 62
   257
176
     1
 40
1.0
176
     1
 90
        1
176
     1
 90
        6
176
     1
 90
        2
176
     1
 62
     7
176
     1
 90
        3
176
     1
 90
        0
176
     1
 90
        0
176
     1
290
     0
176
     1
 90
        1
176
     1
 40
0.0
176
     1
 90
        0
176
     1
290
     0
176
     1
290
     1
176
     1
290
     1
176
     1
290
     0
176
     1
290
     0
176
     1
290
     0
176
     1
290
     0
176
     1
290
     0
176
     1
290
     0
176
     1
 90
       50
176
     1
 40
0.0
176
     1
 40
1.0
176
     1
 90
        0
176
     1
 62
    18
420
        0
176
     1
 90
       50
176
     1
 90
        3
176
     1
 62
     5
420
      255
176
     1
290
     0
176
     1
 90
       50
176
     1
 90
       50
176
     1
 90
       50
176
     1
290
     0
176
     1
 90
       50
176
     1
 62
   256
176
     0
 40
1.0
176
     0
 90
        2
176
     1
  1
strokes_ogs.tif
176
     1
290
     0
176
     1
 40
1.0
176
     1
 40
1.0
176
     1
1001
ACAD
1000
AcDbSavedByObjectVersion
1070
     0
  0
VISUALSTYLE
  5
80E7
102
{ACAD_REACTORS
330
80D4
102
}
330
80D4
100
AcDbVisualStyle
  2
X-Ray
 70
    25
177
     3
291
     0
 70
    58
 90
        2
176
     1
 90
        2
176
     1
 90
        1
176
     1
 90
        1
176
     1
 40
0.5
176
     1
 40
30.0
176
     1
 62
     7
420
 16777215
176
     1
 90
        1
176
     1
 90
        0
176
     1
 62
     7
176
     1
 62
   257
176
     1
 90
        1
176
     1
 90
        1
176
     1
 40
1.0
176
     1
 90
        8
176
     1
 62
     7
176
     1
 40
1.0
176
     1
 90
        1
176
     1
 90
        6
176
     1
 90
        2
176
     1
 62
     7
176
     1
 90
        3
176
     1
 90
        0
176
     1
 90
        0
176
     1
290
     0
176
     1
 90
       13
176
     1
 40
0.0
176
     1
 90
        0
176
     1
290
     0
176
     1
290
     1
176
     1
290
     1
176
     1
290
     0
176
     1
290
     0
176
     1
290
     0
176
     1
290
     0
176
     1
290
     0
176
     1
290
     0
176
     1
 90
       50
176
     1
 40
0.0
176
     1
 40
1.0
176
     1
 90
        0
176
     1
 62
    18
420
        0
176
     1
 90
       50
176
     1
 90
        3
176
     1
 62
     5
420
      255
176
     1
290
     0
176
     1
 90
       50
176
     1
 90
       50
176
     1
 90
       50
176
     1
290
     0
176
     1
 90
       50
176
     1
 62
   256
176
     0
 40
1.0
176
     0
 90
        2
176
     1
  1
strokes_ogs.tif
176
     1
290
     0
176
     1
 40
1.0
176
     1
 40
1.0
176
     1
1001
ACAD
1000
AcDbSavedByObjectVersion
1070
     0
  0
DICTIONARYVAR
  5
8493
102
{ACAD_REACTORS
330
848D
102
}
330
848D
100
DictionaryVariables
280
     0
  1
1:1
  0
DICTIONARYVAR
  5
848F
102
{ACAD_REACTORS
330
848D
102
}
330
848D
100
DictionaryVariables
280
     0
  1
STANDARD
  0
DICTIONARYVAR
  5
848E
102
{ACAD_REACTORS
330
848D
102
}
330
848D
100
DictionaryVariables
280
     0
  1
STANDARD
  0
DICTIONARYVAR
  5
8490
102
{ACAD_REACTORS
330
848D
102
}
330
848D
100
DictionaryVariables
280
     0
  1
Metric50
  0
DICTIONARYVAR
  5
8491
102
{ACAD_REACTORS
330
848D
102
}
330
848D
100
DictionaryVariables
280
     0
  1
Metric50
  0
DICTIONARYVAR
  5
8495
102
{ACAD_REACTORS
330
848D
102
}
330
848D
100
DictionaryVariables
280
     0
  1
1
  0
DICTIONARYVAR
  5
8496
102
{ACAD_REACTORS
330
848D
102
}
330
848D
100
DictionaryVariables
280
     0
  1
15
  0
DICTIONARYVAR
  5
8494
102
{ACAD_REACTORS
330
848D
102
}
330
848D
100
DictionaryVariables
280
     0
  1
0
  0
DICTIONARYVAR
  5
849B
102
{ACAD_REACTORS
330
848D
102
}
330
848D
100
DictionaryVariables
280
     0
  1
0
  0
DICTIONARYVAR
  5
8492
102
{ACAD_REACTORS
330
848D
102
}
330
848D
100
DictionaryVariables
280
     0
  1
0
  0
DICTIONARY
  5
84A6
102
{ACAD_REACTORS
330
84A4
102
}
330
84A4
100
AcDbDictionary
281
     1
  0
DICTIONARY
  5
84A5
102
{ACAD_REACTORS
330
84A4
102
}
330
84A4
100
AcDbDictionary
281
     1
  3
2044093892720
350
849F
  3
2044093892736
350
84A0
  3
2044093892752
350
84A1
  3
2044093892768
350
84A2
  3
2044093892784
350
84A3
  0
DICTIONARY
  5
84A9
330
8107
100
AcDbDictionary
280
     1
281
     1
  3
ACAD_XREC_ROUNDTRIP
360
84AA
  0
DICTIONARY
  5
80C5
330
80C4
100
AcDbDictionary
280
     1
281
     1
  3
BUMPTILE
360
80C7
  3
DIFFUSETILE
360
80C6
  3
OPACITYTILE
360
80CA
  3
REFLECTIONTILE
360
80C9
  3
REFRACTIONTILE
360
80CB
  3
SPECULARTILE
360
80C8
  0
DICTIONARY
  5
80BD
330
80BC
100
AcDbDictionary
280
     1
281
     1
  3
BUMPTILE
360
80BF
  3
DIFFUSETILE
360
80BE
  3
OPACITYTILE
360
80C2
  3
REFLECTIONTILE
360
80C1
  3
REFRACTIONTILE
360
80C3
  3
SPECULARTILE
360
80C0
  0
DICTIONARY
  5
80CD
330
80CC
100
AcDbDictionary
280
     1
281
     1
  3
BUMPTILE
360
80CF
  3
DIFFUSETILE
360
80CE
  3
OPACITYTILE
360
80D2
  3
REFLECTIONTILE
360
80D1
  3
REFRACTIONTILE
360
80D3
  3
SPECULARTILE
360
80D0
  0
DICTIONARY
  5
84A7
330
8105
100
AcDbDictionary
280
     1
281
     1
  3
ACAD_XREC_ROUNDTRIP
360
84A8
  0
DICTIONARY
  5
849C
330
80EF
100
AcDbDictionary
280
     1
281
     1
  3
ACAD_ROUNDTRIP_2008_TABLESTYLE_CELLSTYLEMAP
360
849D
  0
XRECORD
  5
849F
102
{ACAD_REACTORS
330
84A5
102
}
330
84A5
100
AcDbXrecord
280
     1
  1
AcDb_Thumbnail_Schema
102
{ATTRRECORD
341
84A0
  2
AcDbDs::TreatedAsObjectData
280
     1
291
     1
102
ATTRRECORD}
102
{ATTRRECORD
341
84A1
  2
AcDbDs::Legacy
280
     1
291
     1
102
ATTRRECORD}
  2
AcDbDs::ID
280
    10
 91
        8
102
{ATTRRECORD
341
84A2
  2
AcDs:Indexable
280
     1
291
     1
102
ATTRRECORD}
102
{ATTRRECORD
341
84A3
  2
AcDbDs::HandleAttribute
280
     7
282
     1
102
ATTRRECORD}
  2
Thumbnail_Data
280
    15
 91
        0
  0
XRECORD
  5
84A0
102
{ACAD_REACTORS
330
84A5
102
}
330
84A5
100
AcDbXrecord
280
     1
  1
AcDbDs::TreatedAsObjectDataSchema
  2
AcDbDs::TreatedAsObjectData
280
     1
 91
        0
  0
XRECORD
  5
84A1
102
{ACAD_REACTORS
330
84A5
102
}
330
84A5
100
AcDbXrecord
280
     1
  1
AcDbDs::LegacySchema
  2
AcDbDs::Legacy
280
     1
 91
        0
  0
XRECORD
  5
84A2
102
{ACAD_REACTORS
330
84A5
102
}
330
84A5
100
AcDbXrecord
280
     1
  1
AcDbDs::IndexedPropertySchema
  2
AcDs:Indexable
280
     1
 91
        0
  0
XRECORD
  5
84A3
102
{ACAD_REACTORS
330
84A5
102
}
330
84A5
100
AcDbXrecord
280
     1
  1
AcDbDs::HandleAttributeSchema
  2
AcDbDs::HandleAttribute
280
     7
 91
        1
284
     1
  0
XRECORD
  5
84AA
102
{ACAD_REACTORS
330
84A9
102
}
330
84A9
100
AcDbXrecord
280
     1
102
DISPLAYNAME
  1
Metric50
102
FLAGS
 90
        0
  0
XRECORD
  5
80C7
102
{ACAD_REACTORS
330
80C5
102
}
330
80C5
100
AcDbXrecord
280
     1
270
     1
271
     1
  0
XRECORD
  5
80C6
102
{ACAD_REACTORS
330
80C5
102
}
330
80C5
100
AcDbXrecord
280
     1
270
     1
271
     1
  0
XRECORD
  5
80CA
102
{ACAD_REACTORS
330
80C5
102
}
330
80C5
100
AcDbXrecord
280
     1
270
     1
271
     1
  0
XRECORD
  5
80C9
102
{ACAD_REACTORS
330
80C5
102
}
330
80C5
100
AcDbXrecord
280
     1
270
     1
271
     1
  0
XRECORD
  5
80CB
102
{ACAD_REACTORS
330
80C5
102
}
330
80C5
100
AcDbXrecord
280
     1
270
     1
271
     1
  0
XRECORD
  5
80C8
102
{ACAD_REACTORS
330
80C5
102
}
330
80C5
100
AcDbXrecord
280
     1
270
     1
271
     1
  0
XRECORD
  5
80BF
102
{ACAD_REACTORS
330
80BD
102
}
330
80BD
100
AcDbXrecord
280
     1
270
     1
271
     1
  0
XRECORD
  5
80BE
102
{ACAD_REACTORS
330
80BD
102
}
330
80BD
100
AcDbXrecord
280
     1
270
     1
271
     1
  0
XRECORD
  5
80C2
102
{ACAD_REACTORS
330
80BD
102
}
330
80BD
100
AcDbXrecord
280
     1
270
     1
271
     1
  0
XRECORD
  5
80C1
102
{ACAD_REACTORS
330
80BD
102
}
330
80BD
100
AcDbXrecord
280
     1
270
     1
271
     1
  0
XRECORD
  5
80C3
102
{ACAD_REACTORS
330
80BD
102
}
330
80BD
100
AcDbXrecord
280
     1
270
     1
271
     1
  0
XRECORD
  5
80C0
102
{ACAD_REACTORS
330
80BD
102
}
330
80BD
100
AcDbXrecord
280
     1
270
     1
271
     1
  0
XRECORD
  5
80CF
102
{ACAD_REACTORS
330
80CD
102
}
330
80CD
100
AcDbXrecord
280
     1
270
     1
271
     1
  0
XRECORD
  5
80CE
102
{ACAD_REACTORS
330
80CD
102
}
330
80CD
100
AcDbXrecord
280
     1
270
     1
271
     1
  0
XRECORD
  5
80D2
102
{ACAD_REACTORS
330
80CD
102
}
330
80CD
100
AcDbXrecord
280
     1
270
     1
271
     1
  0
XRECORD
  5
80D1
102
{ACAD_REACTORS
330
80CD
102
}
330
80CD
100
AcDbXrecord
280
     1
270
     1
271
     1
  0
XRECORD
  5
80D3
102
{ACAD_REACTORS
330
80CD
102
}
330
80CD
100
AcDbXrecord
280
     1
270
     1
271
     1
  0
XRECORD
  5
80D0
102
{ACAD_REACTORS
330
80CD
102
}
330
80CD
100
AcDbXrecord
280
     1
270
     1
271
     1
  0
XRECORD
  5
84A8
102
{ACAD_REACTORS
330
84A7
102
}
330
84A7
100
AcDbXrecord
280
     1
102
DISPLAYNAME
  1
Metric50
102
FLAGS
 90
        0
  0
CELLSTYLEMAP
  5
849D
102
{ACAD_REACTORS
330
849C
102
}
330
849C
100
AcDbCellStyleMap
 90
        3
300
CELLSTYLE
  1
TABLEFORMAT_BEGIN
 90
        5
170
     1
 91
        0
 92
    32768
 62
   257
 93
        1
300
CONTENTFORMAT
  1
CONTENTFORMAT_BEGIN
 90
        0
 91
        0
 92
      512
 93
        0
300

 40
0.0
140
1.0
 94
        5
 62
     0
340
10
144
6.0
309
CONTENTFORMAT_END
171
     1
301
MARGIN
  1
CELLMARGIN_BEGIN
 40
1.5
 40
1.5
 40
1.5
 40
1.5
 40
4.5
 40
4.5
309
CELLMARGIN_END
 94
        6
 95
        1
302
GRIDFORMAT
  1
GRIDFORMAT_BEGIN
 90
        0
 91
        1
 62
     0
 92
       -2
340
0
 93
        0
 40
1.125
309
GRIDFORMAT_END
 95
        2
302
GRIDFORMAT
  1
GRIDFORMAT_BEGIN
 90
        0
 91
        1
 62
     0
 92
       -2
340
0
 93
        0
 40
1.125
309
GRIDFORMAT_END
 95
        4
302
GRIDFORMAT
  1
GRIDFORMAT_BEGIN
 90
        0
 91
        1
 62
     0
 92
       -2
340
0
 93
        0
 40
1.125
309
GRIDFORMAT_END
 95
        8
302
GRIDFORMAT
  1
GRIDFORMAT_BEGIN
 90
        0
 91
        1
 62
     0
 92
       -2
340
0
 93
        0
 40
1.125
309
GRIDFORMAT_END
 95
       16
302
GRIDFORMAT
  1
GRIDFORMAT_BEGIN
 90
        0
 91
        1
 62
     0
 92
       -2
340
0
 93
        0
 40
1.125
309
GRIDFORMAT_END
 95
       32
302
GRIDFORMAT
  1
GRIDFORMAT_BEGIN
 90
        0
 91
        1
 62
     0
 92
       -2
340
0
 93
        0
 40
1.125
309
GRIDFORMAT_END
309
TABLEFORMAT_END
  1
CELLSTYLE_BEGIN
 90
        1
 91
        1
300
_TITLE
309
CELLSTYLE_END
300
CELLSTYLE
  1
TABLEFORMAT_BEGIN
 90
        5
170
     1
 91
        0
 92
        0
 62
   257
 93
        1
300
CONTENTFORMAT
  1
CONTENTFORMAT_BEGIN
 90
        0
 91
        0
 92
      512
 93
        0
300

 40
0.0
140
1.0
 94
        5
 62
     0
340
10
144
4.5
309
CONTENTFORMAT_END
171
     1
301
MARGIN
  1
CELLMARGIN_BEGIN
 40
1.5
 40
1.5
 40
1.5
 40
1.5
 40
4.5
 40
4.5
309
CELLMARGIN_END
 94
        6
 95
        1
302
GRIDFORMAT
  1
GRIDFORMAT_BEGIN
 90
        0
 91
        1
 62
     0
 92
       -2
340
0
 93
        0
 40
1.125
309
GRIDFORMAT_END
 95
        2
302
GRIDFORMAT
  1
GRIDFORMAT_BEGIN
 90
        0
 91
        1
 62
     0
 92
       -2
340
0
 93
        0
 40
1.125
309
GRIDFORMAT_END
 95
        4
302
GRIDFORMAT
  1
GRIDFORMAT_BEGIN
 90
        0
 91
        1
 62
     0
 92
       -2
340
0
 93
        0
 40
1.125
309
GRIDFORMAT_END
 95
        8
302
GRIDFORMAT
  1
GRIDFORMAT_BEGIN
 90
        0
 91
        1
 62
     0
 92
       -2
340
0
 93
        0
 40
1.125
309
GRIDFORMAT_END
 95
       16
302
GRIDFORMAT
  1
GRIDFORMAT_BEGIN
 90
        0
 91
        1
 62
     0
 92
       -2
340
0
 93
        0
 40
1.125
309
GRIDFORMAT_END
 95
       32
302
GRIDFORMAT
  1
GRIDFORMAT_BEGIN
 90
        0
 91
        1
 62
     0
 92
       -2
340
0
 93
        0
 40
1.125
309
GRIDFORMAT_END
309
TABLEFORMAT_END
  1
CELLSTYLE_BEGIN
 90
        2
 91
        1
300
_HEADER
309
CELLSTYLE_END
300
CELLSTYLE
  1
TABLEFORMAT_BEGIN
 90
        5
170
     1
 91
        0
 92
        0
 62
   257
 93
        1
300
CONTENTFORMAT
  1
CONTENTFORMAT_BEGIN
 90
        0
 91
        0
 92
      512
 93
        0
300

 40
0.0
140
1.0
 94
        2
 62
     0
340
10
144
4.5
309
CONTENTFORMAT_END
171
     1
301
MARGIN
  1
CELLMARGIN_BEGIN
 40
1.5
 40
1.5
 40
1.5
 40
1.5
 40
4.5
 40
4.5
309
CELLMARGIN_END
 94
        6
 95
        1
302
GRIDFORMAT
  1
GRIDFORMAT_BEGIN
 90
        0
 91
        1
 62
     0
 92
       -2
340
0
 93
        0
 40
1.125
309
GRIDFORMAT_END
 95
        2
302
GRIDFORMAT
  1
GRIDFORMAT_BEGIN
 90
        0
 91
        1
 62
     0
 92
       -2
340
0
 93
        0
 40
1.125
309
GRIDFORMAT_END
 95
        4
302
GRIDFORMAT
  1
GRIDFORMAT_BEGIN
 90
        0
 91
        1
 62
     0
 92
       -2
340
0
 93
        0
 40
1.125
309
GRIDFORMAT_END
 95
        8
302
GRIDFORMAT
  1
GRIDFORMAT_BEGIN
 90
        0
 91
        1
 62
     0
 92
       -2
340
0
 93
        0
 40
1.125
309
GRIDFORMAT_END
 95
       16
302
GRIDFORMAT
  1
GRIDFORMAT_BEGIN
 90
        0
 91
        1
 62
     0
 92
       -2
340
0
 93
        0
 40
1.125
309
GRIDFORMAT_END
 95
       32
302
GRIDFORMAT
  1
GRIDFORMAT_BEGIN
 90
        0
 91
        1
 62
     0
 92
       -2
340
0
 93
        0
 40
1.125
309
GRIDFORMAT_END
309
TABLEFORMAT_END
  1
CELLSTYLE_BEGIN
 90
        3
 91
        2
300
_DATA
309
CELLSTYLE_END
  0
ENDSEC
  0
SECTION
  2
ACDSDATA
 70
     2
 71
     8
  0
ACDSSCHEMA
 90
        0
  1
AcDb_Thumbnail_Schema
  2
AcDbDs::ID
280
    10
 91
        8
  2
Thumbnail_Data
280
    15
 91
        0
101
ACDSRECORD
 95
        0
 90
        1
  2
AcDbDs::TreatedAsObjectData
280
     1
291
     1
101
ACDSRECORD
 95
        0
 90
        2
  2
AcDbDs::Legacy
280
     1
291
     1
101
ACDSRECORD
  1
AcDbDs::ID
 90
        3
  2
AcDs:Indexable
280
     1
291
     1
101
ACDSRECORD
  1
AcDbDs::ID
 90
        4
  2
AcDbDs::HandleAttribute
280
     7
282
     1
  0
ACDSSCHEMA
 90
        1
  1
AcDbDs::TreatedAsObjectDataSchema
  2
AcDbDs::TreatedAsObjectData
280
     1
 91
        0
  0
ACDSSCHEMA
 90
        2
  1
AcDbDs::LegacySchema
  2
AcDbDs::Legacy
280
     1
 91
        0
  0
ACDSSCHEMA
 90
        3
  1
AcDbDs::IndexedPropertySchema
  2
AcDs:Indexable
280
     1
 91
        0
  0
ACDSSCHEMA
 90
        4
  1
AcDbDs::HandleAttributeSchema
  2
AcDbDs::HandleAttribute
280
     7
 91
        1
284
     1
  0
ACDSRECORD
 90
        0
  2
AcDbDs::ID
280
    10
320
806C
  2
Thumbnail_Data
280
    15
 94
     1670
310
89504E470D0A1A0A0000000D49484452000001000000007C0803000000B13B9E5A00000300504C5445000000000000C8C8C80000000000000000000000000000000000000000000000000000330000660000990000CC0000FF0033000033330033660033990033CC0033FF0066000066330066660066990066CC0066FF0099
310
000099330099660099990099CC0099FF00CC0000CC3300CC6600CC9900CCCC00CCFF00FF0000FF3300FF6600FF9900FFCC00FFFF3300003300333300663300993300CC3300FF3333003333333333663333993333CC3333FF3366003366333366663366993366CC3366FF3399003399333399663399993399CC3399FF33CC00
310
33CC3333CC6633CC9933CCCC33CCFF33FF0033FF3333FF6633FF9933FFCC33FFFF6600006600336600666600996600CC6600FF6633006633336633666633996633CC6633FF6666006666336666666666996666CC6666FF6699006699336699666699996699CC6699FF66CC0066CC3366CC6666CC9966CCCC66CCFF66FF0066
310
FF3366FF6666FF9966FFCC66FFFF9900009900339900669900999900CC9900FF9933009933339933669933999933CC9933FF9966009966339966669966999966CC9966FF9999009999339999669999999999CC9999FF99CC0099CC3399CC6699CC9999CCCC99CCFF99FF0099FF3399FF6699FF9999FFCC99FFFFCC0000CC00
310
33CC0066CC0099CC00CCCC00FFCC3300CC3333CC3366CC3399CC33CCCC33FFCC6600CC6633CC6666CC6699CC66CCCC66FFCC9900CC9933CC9966CC9999CC99CCCC99FFCCCC00CCCC33CCCC66CCCC99CCCCCCCCCCFFCCFF00CCFF33CCFF66CCFF99CCFFCCCCFFFFFF0000FF0033FF0066FF0099FF00CCFF00FFFF3300FF3333
310
FF3366FF3399FF33CCFF33FFFF6600FF6633FF6666FF6699FF66CCFF66FFFF9900FF9933FF9966FF9999FF99CCFF99FFFFCC00FFCC33FFCC66FFCC99FFCCCCFFCCFFFFFF00FFFF33FFFF66FFFF99FFFFCCFFFFFF0000000D0D0D1A1A1A2828283535354343435050505D5D5D6B6B6B787878868686939393A1A1A1AEAEAEBB
310
BBBBC9C9C9D6D6D6E4E4E4F1F1F1FFFFFF00000000000000000000000000000000000000000000000000000000000008F1915C000003414944415478DAED9D5B96C3200886598E2FEC7F336EC3F7690C2A5ED236E774662AFC3E24DAD89CF20511094D887EA1A45F2AB44B495B9D1600000000000000BEE7973E99FCBC0018
310
BE9E5C6A807B00C933806114EC0DE0A32B802D017CD9C900E01F00881E2B954E5D9D8A929F7DDBC8910F2D00A053686A6293348BCD4B493C8054AA7492316003A6ABDED9B754E4EC35401DB032048A9397F498782E5B8211841FE07031F47248EC08A0B3FEBADDF7AD7DF43C680C40EA01282FA0390CD4A6436B0052074026
310
89AE17D904F0A1EF232608000000007B02888FD235A2230087B02272DDCADE0B80CBE204C0457D6C0100007800C0B9847377DB0E6C0D8017E5AE166C0EA07CF0D000A9F802405C2B00E013C049E0D87B05502038029027BA66F2C5123600E6A7C143BE32F4C3A3E48D6C8FBD7D00D400F8D4801EC06403AC03C8E235B76F9E
310
059C00A090B70EFD0000D0005CAE053A001E57830A803ACAECC813740FA07AC2ABE2232294AD7EA70014F8FED5DF18007FC4006EBD1C0E7A7148B5ED2F2A3C8481716BCC0780EF3F2D0000000000C0DFFCD2774CBF9A1FA6A9C2851F6010C00D3FE04537131AA06A0B00ABBA1100EF698065004A03E2950D5826135AD40097
310
00B429780AC0A6119C63612B09E32A80624403B448419B051A3D03099F95288A1900A5DD87C422BD02A054C4048043F6334F300BFF1A00371DD9DB1162915F643B07B74300E71828DB1140BD8B6E1500EB6C8119002F014433008AF0F9C68818C2CE23360C204882F49923C521274C87714950FBA8620380CE9239B2C5AF35
310
80270DE0ED01E844C12A2695FB83F601E814A9AA0A92331367003C0220DA1E4010D5CFD737E70B1424EFCC029B0308315BBD2A7DA9497EC404E0D1D79A2BDC945E8D02F109DFD3003200A0C95C5DE132476800B4B40146005C25494C46B0FB67156F0F80DBC5AC76A15DDB3138CC6327131A104A10A8C478728B57D1E1587B
310
4A4DC5430C0445EB4717F705749428CE770F3C64883CEDB5FF3F4707A5A0CB43AAB63D80EF3F2D0000000000000000000000000000C05FFC52F74F95BD2F990B00298DCF5E6F6F9AB0068016AF4E534F5C2F4F5AB70BC0BD0D586B40F7607D8F36C025808B71E14803F07479B8C200000000000000000006016CF4EAED1F9D
310
D2CE4F63C59C040000000049454E44AE426082
  0
ENDSEC
  0
EOF
