  0
SECTION
  2
HEADER
  9
$ACADVER
  1
AC1009
  9
$INSBASE
 10
0.0
 20
0.0
 30
0.0
  9
$EXTMIN
 10
0.0
 20
0.0
 30
0.0
  9
$EXTMAX
 10
6300.0
 20
8850.0
 30
0.0
  9
$LIMMIN
 10
0.0
 20
0.0
  9
$LIMMAX
 10
297.0
 20
210.0
  9
$ORTHOMODE
 70
     0
  9
$REGENMODE
 70
     1
  9
$FILLMODE
 70
     0
  9
$QTEXTMODE
 70
     0
  9
$MIRRTEXT
 70
     1
  9
$DRAGMODE
 70
     2
  9
$LTSCALE
 40
100.0
  9
$OSMODE
 70
    37
  9
$ATTMODE
 70
     1
  9
$TEXTSIZE
 40
180.0
  9
$TRACEWID
 40
0.05
  9
$TEXTSTYLE
  7
STANDARD
  9
$CLAYER
  8
1
  9
$CELTYPE
  6
BYLAYER
  9
$CECOLOR
 62
   256
  9
$DIMSCALE
 40
30.0
  9
$DIMASZ
 40
2.0
  9
$DIMEXO
 40
0.5
  9
$DIMDLI
 40
10.0
  9
$DIMRND
 40
0.0
  9
$DIMDLE
 40
0.0
  9
$DIMEXE
 40
1.0
  9
$DIMTP
 40
1.0
  9
$DIMTM
 40
1.0
  9
$DIMTXT
 40
3.0
  9
$DIMCEN
 40
0.0
  9
$DIMTSZ
 40
0.0
  9
$DIMTOL
 70
     0
  9
$DIMLIM
 70
     0
  9
$DIMTIH
 70
     0
  9
$DIMTOH
 70
     0
  9
$DIMSE1
 70
     0
  9
$DIMSE2
 70
     0
  9
$DIMTAD
 70
     1
  9
$DIMZIN
 70
     8
  9
$DIMBLK
  1

  9
$DIMASO
 70
     1
  9
$DIMSHO
 70
     1
  9
$DIMPOST
  1

  9
$DIMAPOST
  1

  9
$DIMALT
 70
     0
  9
$DIMALTD
 70
     2
  9
$DIMALTF
 40
0.039
  9
$DIMLFAC
 40
1.0
  9
$DIMTOFL
 70
     1
  9
$DIMTVP
 40
0.0
  9
$DIMTIX
 70
     0
  9
$DIMSOXD
 70
     0
  9
$DIMSAH
 70
     1
  9
$DIMBLK1
  1
OPEN
  9
$DIMBLK2
  1
OPEN
  9
$DIMSTYLE
  2
IGA
  9
$DIMCLRD
 70
     0
  9
$DIMCLRE
 70
     0
  9
$DIMCLRT
 70
     0
  9
$DIMTFAC
 40
10.0
  9
$DIMGAP
 40
1.0
  9
$LUNITS
 70
     2
  9
$LUPREC
 70
     3
  9
$SKETCHINC
 40
0.1
  9
$FILLETRAD
 40
50.0
  9
$AUNITS
 70
     0
  9
$AUPREC
 70
     0
  9
$MENU
  1
acad
  9
$ELEVATION
 40
0.0
  9
$PELEVATION
 40
0.0
  9
$THICKNESS
 40
0.0
  9
$LIMCHECK
 70
     0
  9
$BLIPMODE
 70
     0
  9
$CHAMFERA
 40
0.0
  9
$CHAMFERB
 40
0.0
  9
$SKPOLY
 70
     0
  9
$TDCREATE
 40
2452676.6653555548
  9
$TDUPDATE
 40
2454953.644314595
  9
$TDINDWG
 40
0.0665039815
  9
$TDUSRTIMER
 40
0.0665039815
  9
$USRTIMER
 70
     1
  9
$ANGBASE
 50
0.0
  9
$ANGDIR
 70
     0
  9
$PDMODE
 70
     0
  9
$PDSIZE
 40
0.0
  9
$PLINEWID
 40
0.0
  9
$COORDS
 70
     1
  9
$SPLFRAME
 70
     0
  9
$SPLINETYPE
 70
     6
  9
$SPLINESEGS
 70
     8
  9
$ATTDIA
 70
     0
  9
$ATTREQ
 70
     1
  9
$HANDLING
 70
 10241
  9
$HANDSEED
  5
86A2
  9
$SURFTAB1
 70
     6
  9
$SURFTAB2
 70
     6
  9
$SURFTYPE
 70
     6
  9
$SURFU
 70
     6
  9
$SURFV
 70
     6
  9
$UCSNAME
  2

  9
$UCSORG
 10
0.0
 20
0.0
 30
0.0
  9
$UCSXDIR
 10
1.0
 20
0.0
 30
0.0
  9
$UCSYDIR
 10
0.0
 20
1.0
 30
0.0
  9
$PUCSNAME
  2

  9
$PUCSORG
 10
0.0
 20
0.0
 30
0.0
  9
$PUCSXDIR
 10
1.0
 20
0.0
 30
0.0
  9
$PUCSYDIR
 10
0.0
 20
1.0
 30
0.0
  9
$USERI1
 70
     0
  9
$USERI2
 70
     0
  9
$USERI3
 70
     0
  9
$USERI4
 70
     0
  9
$USERI5
 70
     0
  9
$USERR1
 40
0.0
  9
$USERR2
 40
0.0
  9
$USERR3
 40
0.0
  9
$USERR4
 40
0.0
  9
$USERR5
 40
0.0
  9
$WORLDVIEW
 70
     1
  9
$SHADEDGE
 70
     3
  9
$SHADEDIF
 70
    70
  9
$TILEMODE
 70
     1
  9
$MAXACTVP
 70
    16
  9
$PLIMCHECK
 70
     0
  9
$PEXTMIN
 10
1.0000000000000000E+020
 20
1.0000000000000000E+020
 30
1.0000000000000000E+020
  9
$PEXTMAX
 10
-1.0000000000000000E+020
 20
-1.0000000000000000E+020
 30
-1.0000000000000000E+020
  9
$PLIMMIN
 10
0.0
 20
0.0
  9
$PLIMMAX
 10
12.0
 20
9.0
  9
$UNITMODE
 70
     0
  9
$VISRETAIN
 70
     0
  9
$PLINEGEN
 70
     0
  9
$PSLTSCALE
 70
     1
  0
ENDSEC
  0
SECTION
  2
TABLES
  0
TABLE
  2
VPORT
 70
     2
  0
VPORT
  2
*ACTIVE
 70
     0
 10
0.0
 20
0.0
 11
1.0
 21
1.0
 12
5822.4634870600976
 22
978.93423609405545
 13
0.0
 23
0.0
 14
10.0
 24
10.0
 15
10.0
 25
10.0
 16
0.0
 26
0.0
 36
1.0
 17
0.0
 27
0.0
 37
0.0
 40
2544.073576855923
 41
3.1666666666666661
 42
50.0
 43
0.0
 44
0.0
 50
0.0
 51
0.0
 71
     0
 72
   100
 73
     1
 74
     0
 75
     0
 76
     0
 77
     0
 78
     0
  0
ENDTAB
  0
TABLE
  2
LTYPE
 70
     2
  0
LTYPE
  2
CONTINUOUS
 70
     0
  3
Solid line
 72
    65
 73
     0
 40
0.0
  0
LTYPE
  2
CENTER
 70
     0
  3
____ _ ____ _ ____ _ ____ _ ____ _ ____ _ ____ 
 72
    65
 73
     4
 40
2.0
 49
1.25
 49
-0.25
 49
0.25
 49
-0.25
  0
ENDTAB
  0
TABLE
  2
LAYER
 70
     6
  0
LAYER
  2
0
 70
     0
 62
     7
  6
CONTINUOUS
  0
LAYER
  2
3
 70
     0
 62
     2
  6
CONTINUOUS
  0
LAYER
  2
2
 70
     0
 62
     3
  6
CENTER
  0
LAYER
  2
1
 70
     0
 62
     4
  6
CONTINUOUS
  0
LAYER
  2
4
 70
     0
 62
     7
  6
CONTINUOUS
  0
LAYER
  2
DEFPOINTS
 70
     0
 62
     7
  6
CONTINUOUS
  0
ENDTAB
  0
TABLE
  2
STYLE
 70
     1
  0
STYLE
  2
STANDARD
 70
     0
 40
0.0
 41
1.0
 50
0.0
 71
     0
 42
180.0
  3
simplex.shx
  4
extfont.shx
  0
ENDTAB
  0
TABLE
  2
VIEW
 70
     0
  0
ENDTAB
  0
TABLE
  2
UCS
 70
     0
  0
ENDTAB
  0
TABLE
  2
APPID
 70
     1
  0
APPID
  2
ACAD
 70
     0
  0
ENDTAB
  0
TABLE
  2
DIMSTYLE
 70
     1
  0
DIMSTYLE
  2
IGA
 70
     0
  3

  4

  5

  6
OPEN
  7
OPEN
 40
2.0
 41
2.0
 42
0.5
 43
10.0
 44
1.0
 45
0.0
 46
0.0
 47
1.0
 48
1.0
140
3.0
141
0.0
142
0.0
143
0.03937
144
1.0
145
0.0
146
10.0
147
1.0
 71
     0
 72
     0
 73
     0
 74
     0
 75
     0
 76
     0
 77
     1
 78
     8
170
     0
171
     2
172
     0
173
     1
174
     0
175
     0
176
     0
177
     0
178
     0
  0
ENDTAB
  0
ENDSEC
  0
SECTION
  2
BLOCKS
  0
BLOCK
  8
0
  2
$MODEL_SPACE
 70
     0
 10
0.0
 20
0.0
 30
0.0
  3
$MODEL_SPACE
  1

  0
ENDBLK
  5
1B
  8
0
  0
BLOCK
 67
     1
  8
0
  2
$PAPER_SPACE
 70
     0
 10
0.0
 20
0.0
 30
0.0
  3
$PAPER_SPACE
  1

  0
ENDBLK
  5
18
 67
     1
  8
0
  0
BLOCK
  8
0
  2
_OPEN
 70
     0
 10
0.0
 20
0.0
 30
0.0
  3
_OPEN
  1

  0
LINE
  5
7B80
  8
0
  6
BYBLOCK
 62
     0
 10
-1.0
 20
0.1666666666666666
 30
0.0
 11
0.0
 21
0.0
 31
0.0
  0
LINE
  5
7B81
  8
0
  6
BYBLOCK
 62
     0
 10
0.0
 20
0.0
 30
0.0
 11
-1.0
 21
-0.1666666666666666
 31
0.0
  0
LINE
  5
7B82
  8
0
  6
BYBLOCK
 62
     0
 10
0.0
 20
0.0
 30
0.0
 11
-1.0
 21
0.0
 31
0.0
  0
ENDBLK
  5
7B83
  8
0
  0
BLOCK
  8
0
  2
*D1
 70
     1
 10
0.0
 20
0.0
 30
0.0
  3
*D1
  1

  0
LINE
  5
85CE
  8
3
 62
     0
 10
1496.1190920507149
 20
6514.1524204127254
 30
0.0
 11
1496.1190920507149
 21
6698.0473459470604
 31
0.0
  0
LINE
  5
85CF
  8
3
 62
     0
 10
2496.1190920507161
 20
6514.1524204127254
 30
0.0
 11
2496.1190920507161
 21
6698.0473459470604
 31
0.0
  0
LINE
  5
85D0
  8
3
 62
     0
 10
1556.1190920507149
 20
6668.0473459470586
 30
0.0
 11
2436.1190920507161
 21
6668.0473459470586
 31
0.0
  0
INSERT
  5
85D1
  8
3
 62
     0
  2
_OPEN
 10
1496.1190920507149
 20
6668.0473459470586
 30
0.0
 41
60.0
 42
60.0
 43
60.0
 50
180.0
  0
INSERT
  5
85D2
  8
3
 62
     0
  2
_OPEN
 10
2496.1190920507161
 20
6668.0473459470586
 30
0.0
 41
60.0
 42
60.0
 43
60.0
  0
TEXT
  8
3
  40
90
  5
868C
  62
0
  72
0
  71
0
 10
1814.83
 20
6583.75
 30
0.000000
  1
1000
  0
POINT
  5
85D4
  8
DEFPOINTS
 62
     0
 10
1496.1190920507149
 20
6499.1524204127236
 30
0.0
  0
POINT
  5
85D5
  8
DEFPOINTS
 62
     0
 10
2496.1190920507161
 20
6499.1524204127263
 30
0.0
  0
POINT
  5
85D6
  8
DEFPOINTS
 62
     0
 10
2496.1190920507161
 20
6668.0473459470586
 30
0.0
  0
ENDBLK
  5
82B2
  8
0
  0
BLOCK
  8
0
  2
*D2
 70
     1
 10
0.0
 20
0.0
 30
0.0
  3
*D2
  1

  0
LINE
  5
827D
  8
0
  6
BYBLOCK
 62
     0
 10
2489.1284585244448
 20
5854.1524204127254
 30
0.0
 11
2489.1284585244448
 21
6698.0473459470604
 31
0.0
  0
LINE
  5
827E
  8
0
  6
BYBLOCK
 62
     0
 10
2259.1284585244448
 20
6668.0473459470586
 30
0.0
 11
2429.1284585244448
 21
6668.0473459470586
 31
0.0
  0
TEXT
  5
827F
  8
1
 62
     0
 10
2228.414172810159
 20
6704.5069104125869
 30
0.0
 40
90.0
  1
290
  0
INSERT
  5
8280
  8
0
  6
BYBLOCK
 62
     0
  2
_OPEN
 10
2199.1284585244439
 20
6668.0473459470586
 30
0.0
 41
60.0
 42
60.0
 43
60.0
 50
180.0
  0
INSERT
  5
8281
  8
0
  6
BYBLOCK
 62
     0
  2
_OPEN
 10
2489.1284585244448
 20
6668.0473459470586
 30
0.0
 41
60.0
 42
60.0
 43
60.0
  0
POINT
  5
8282
  8
DEFPOINTS
  6
BYBLOCK
 62
     0
 10
2199.1284585244439
 20
6499.1524204127263
 30
0.0
  0
POINT
  5
8283
  8
DEFPOINTS
  6
BYBLOCK
 62
     0
 10
2489.1284585244448
 20
5839.1524204127263
 30
0.0
  0
POINT
  5
8284
  8
DEFPOINTS
  6
BYBLOCK
 62
     0
 10
2489.1284585244448
 20
6668.0473459470586
 30
0.0
  0
ENDBLK
  5
8285
  8
0
  0
BLOCK
  8
0
  2
*D3
 70
     1
 10
0.0
 20
0.0
 30
0.0
  3
*D3
  1

  0
LINE
  5
85D7
  8
3
 62
     0
 10
2801.1190920507161
 20
5839.1524204127263
 30
0.0
 11
2997.3293102383218
 21
5839.1524204127263
 31
0.0
  0
LINE
  5
85D8
  8
3
 62
     0
 10
2801.1190920507161
 20
5089.1524204127236
 30
0.0
 11
2997.3293102383218
 21
5089.1524204127236
 31
0.0
  0
LINE
  5
85D9
  8
3
 62
     0
 10
2967.3293102383218
 20
5779.1524204127254
 30
0.0
 11
2967.3293102383218
 21
5149.1524204127254
 31
0.0
  0
INSERT
  5
85DA
  8
3
 62
     0
  2
_OPEN
 10
2967.3293102383218
 20
5839.1524204127263
 30
0.0
 41
60.0
 42
60.0
 43
60.0
 50
90.0
  0
INSERT
  5
85DB
  8
3
 62
     0
  2
_OPEN
 10
2967.3293102383209
 20
5089.1524204127236
 30
0.0
 41
60.0
 42
60.0
 43
60.0
 50
270.0
  0
TEXT
  8
3
  40
90
  5
868D
  62
0
  72
0
  71
0
 10
2712.33
 20
5263.58
 30
0.000000
  1
750
  0
POINT
  5
85DD
  8
DEFPOINTS
 62
     0
 10
2786.1190920507161
 20
5839.1524204127263
 30
0.0
  0
POINT
  5
85DE
  8
DEFPOINTS
 62
     0
 10
2786.1190920507161
 20
5089.1524204127236
 30
0.0
  0
POINT
  5
85DF
  8
DEFPOINTS
 62
     0
 10
2967.3293102383209
 20
5089.1524204127236
 30
0.0
  0
ENDBLK
  5
8290
  8
0
  0
BLOCK
  8
0
  2
*D4
 70
     1
 10
0.0
 20
0.0
 30
0.0
  3
*D4
  1

  0
LINE
  5
85E0
  8
3
 62
     0
 10
2786.1190920507161
 20
5074.1524204127236
 30
0.0
 11
2786.1190920507161
 21
4665.5621277755699
 31
0.0
  0
LINE
  5
85E1
  8
3
 62
     0
 10
1716.1190920507161
 20
5074.1524204127254
 30
0.0
 11
1716.1190920507161
 21
4665.5621277755699
 31
0.0
  0
LINE
  5
85E2
  8
3
 62
     0
 10
2726.1190920507161
 20
4695.5621277755708
 30
0.0
 11
1776.1190920507161
 21
4695.5621277755708
 31
0.0
  0
INSERT
  5
85E3
  8
3
 62
     0
  2
_OPEN
 10
2786.1190920507161
 20
4695.5621277755708
 30
0.0
 41
60.0
 42
60.0
 43
60.0
  0
INSERT
  5
85E4
  8
3
 62
     0
  2
_OPEN
 10
1716.1190920507161
 20
4695.5621277755708
 30
0.0
 41
60.0
 42
60.0
 43
60.0
 50
180.0
  0
TEXT
  8
3
  40
90
  5
868E
  62
0
  72
0
  71
0
 10
2117.64
 20
4611.26
 30
0.000000
  1
1070
  0
POINT
  5
85E6
  8
DEFPOINTS
 62
     0
 10
2786.1190920507161
 20
5089.1524204127236
 30
0.0
  0
POINT
  5
85E7
  8
DEFPOINTS
 62
     0
 10
1716.1190920507161
 20
5089.1524204127263
 30
0.0
  0
POINT
  5
85E8
  8
DEFPOINTS
 62
     0
 10
1716.1190920507161
 20
4695.5621277755708
 30
0.0
  0
ENDBLK
  5
827B
  8
0
  0
BLOCK
  8
0
  2
*D5
 70
     1
 10
0.0
 20
0.0
 30
0.0
  3
*D5
  1

  0
LINE
  5
85E9
  8
3
 62
     0
 10
1716.1190920507161
 20
5074.1524204127254
 30
0.0
 11
1716.1190920507161
 21
4665.5621277755699
 31
0.0
  0
LINE
  5
85EA
  8
3
 62
     0
 10
1496.1190920507161
 20
5774.1524204127254
 30
0.0
 11
1496.1190920507161
 21
4665.5621277755699
 31
0.0
  0
LINE
  5
85EB
  8
3
 62
     0
 10
1656.1190920507161
 20
4695.5621277755708
 30
0.0
 11
1556.1190920507161
 21
4695.5621277755708
 31
0.0
  0
LINE
  5
85EC
  8
3
 62
     0
 10
1496.1190920507161
 20
4695.5621277755708
 30
0.0
 11
1144.690520622144
 21
4695.5621277755708
 31
0.0
  0
INSERT
  5
85ED
  8
3
 62
     0
  2
_OPEN
 10
1716.1190920507161
 20
4695.5621277755708
 30
0.0
 41
60.0
 42
60.0
 43
60.0
  0
INSERT
  5
85EE
  8
3
 62
     0
  2
_OPEN
 10
1496.1190920507161
 20
4695.5621277755708
 30
0.0
 41
60.0
 42
60.0
 43
60.0
 50
180.0
  0
TEXT
  8
3
  40
90
  5
868F
  62
0
  72
0
  71
0
 10
1110.40
 20
4611.26
 30
0.000000
  1
220
  0
POINT
  5
85F0
  8
DEFPOINTS
 62
     0
 10
1716.1190920507161
 20
5089.1524204127263
 30
0.0
  0
POINT
  5
85F1
  8
DEFPOINTS
 62
     0
 10
1496.1190920507161
 20
5789.1524204127236
 30
0.0
  0
POINT
  5
85F2
  8
DEFPOINTS
 62
     0
 10
1496.1190920507161
 20
4695.5621277755708
 30
0.0
  0
ENDBLK
  5
82A7
  8
0
  0
BLOCK
  8
0
  2
*D6
 70
     1
 10
0.0
 20
0.0
 30
0.0
  3
*D6
  1

  0
LINE
  5
85F3
  8
3
 62
     0
 10
1701.1190920507161
 20
5089.1524204127263
 30
0.0
 11
1132.0920475606949
 21
5089.1524204127263
 31
0.0
  0
LINE
  5
85F4
  8
3
 62
     0
 10
1481.1190920507161
 20
5789.1524204127236
 30
0.0
 11
1132.0920475606949
 21
5789.1524204127236
 31
0.0
  0
LINE
  5
85F5
  8
3
 62
     0
 10
1162.0920475606949
 20
5149.1524204127254
 30
0.0
 11
1162.0920475606949
 21
5729.1524204127254
 31
0.0
  0
INSERT
  5
85F6
  8
3
 62
     0
  2
_OPEN
 10
1162.0920475606949
 20
5089.1524204127263
 30
0.0
 41
60.0
 42
60.0
 43
60.0
 50
270.0
  0
INSERT
  5
85F7
  8
3
 62
     0
  2
_OPEN
 10
1162.0920475606949
 20
5789.1524204127236
 30
0.0
 41
60.0
 42
60.0
 43
60.0
 50
90.0
  0
TEXT
  8
3
  40
90
  5
8690
  62
0
  72
0
  71
0
 10
907.092
 20
5263.58
 30
0.000000
  1
700
  0
POINT
  5
85F9
  8
DEFPOINTS
 62
     0
 10
1716.1190920507161
 20
5089.1524204127263
 30
0.0
  0
POINT
  5
85FA
  8
DEFPOINTS
 62
     0
 10
1496.1190920507161
 20
5789.1524204127236
 30
0.0
  0
POINT
  5
85FB
  8
DEFPOINTS
 62
     0
 10
1162.0920475606949
 20
5789.1524204127236
 30
0.0
  0
ENDBLK
  5
829B
  8
0
  0
BLOCK
  8
0
  2
*D7
 70
     1
 10
0.0
 20
0.0
 30
0.0
  3
*D7
  1

  0
LINE
  5
85FC
  8
3
 62
     0
 10
1481.1190920507149
 20
6499.1524204127236
 30
0.0
 11
1132.092047560694
 21
6499.1524204127236
 31
0.0
  0
LINE
  5
85FD
  8
3
 62
     0
 10
1162.092047560694
 20
5849.1524204127254
 30
0.0
 11
1162.092047560694
 21
6439.1524204127254
 31
0.0
  0
INSERT
  5
85FE
  8
3
 62
     0
  2
_OPEN
 10
1162.092047560694
 20
5789.1524204127236
 30
0.0
 41
60.0
 42
60.0
 43
60.0
 50
270.0
  0
INSERT
  5
85FF
  8
3
 62
     0
  2
_OPEN
 10
1162.092047560694
 20
6499.1524204127236
 30
0.0
 41
60.0
 42
60.0
 43
60.0
 50
90.0
  0
TEXT
  8
3
  40
90
  5
8691
  62
0
  72
0
  71
0
 10
907.092
 20
5984.85
 30
0.000000
  1
710
  0
POINT
  5
8601
  8
DEFPOINTS
 62
     0
 10
1496.1190920507161
 20
5789.1524204127236
 30
0.0
  0
POINT
  5
8602
  8
DEFPOINTS
 62
     0
 10
1496.1190920507149
 20
6499.1524204127236
 30
0.0
  0
POINT
  5
8603
  8
DEFPOINTS
 62
     0
 10
1162.092047560694
 20
6499.1524204127236
 30
0.0
  0
ENDBLK
  5
82BC
  8
0
  0
BLOCK
  8
0
  2
YA_N
 70
     0
 10
0.0
 20
0.0
 30
0.0
  3
YA_N
  1

  0
ENDBLK
  5
7E7B
  8
0
  0
BLOCK
  8
0
  2
_DOT
 70
     0
 10
0.0
 20
0.0
 30
0.0
  3
_DOT
  1

  0
LINE
  5
8123
  8
0
  6
BYBLOCK
 62
     0
 10
0.0
 20
0.0
 30
0.0
 11
-1.0
 21
-0.0000000000000284
 31
0.0
  0
POLYLINE
  5
8124
  8
0
  6
BYBLOCK
 62
     0
 66
     1
 10
0.0
 20
0.0
 30
0.0
 70
     1
 40
0.1666666666666666
 41
0.1666666666666666
  0
VERTEX
  5
8604
  8
0
  6
BYBLOCK
 62
     0
 10
-0.0833333333333286
 20
-0.0000000000000284
 30
0.0
 42
1.0
  0
VERTEX
  5
8605
  8
0
  6
BYBLOCK
 62
     0
 10
0.0833333333333286
 20
-0.0000000000000284
 30
0.0
 42
1.0
  0
SEQEND
  5
8606
  8
0
  6
BYBLOCK
 62
     0
  0
ENDBLK
  5
8023
  8
0
  0
BLOCK
  8
0
  2
*D10
 70
     1
 10
0.0
 20
0.0
 30
0.0
  3
*D10
  1

  0
LINE
  5
8607
  8
3
 62
     0
 10
1496.1190920507161
 20
1976.823134848946
 30
0.0
 11
1496.1190920507161
 21
1717.2482764830229
 31
0.0
  0
LINE
  5
8608
  8
3
 62
     0
 10
1996.1190920507161
 20
1932.247683603076
 30
0.0
 11
1996.1190920507161
 21
1717.2482764830229
 31
0.0
  0
LINE
  5
8609
  8
3
 62
     0
 10
1556.1190920507161
 20
1747.2482764830229
 30
0.0
 11
1936.1190920507161
 21
1747.2482764830229
 31
0.0
  0
INSERT
  5
860A
  8
3
 62
     0
  2
_OPEN
 10
1496.1190920507161
 20
1747.2482764830229
 30
0.0
 41
60.0
 42
60.0
 43
60.0
 50
180.0
  0
INSERT
  5
860B
  8
3
 62
     0
  2
_OPEN
 10
1996.1190920507161
 20
1747.2482764830229
 30
0.0
 41
60.0
 42
60.0
 43
60.0
  0
TEXT
  8
3
  40
90
  5
8692
  62
0
  72
0
  71
0
 10
1579.05
 20
1662.95
 30
0.000000
  1
500
  0
POINT
  5
860D
  8
DEFPOINTS
 62
     0
 10
1496.1190920507161
 20
1991.823134848946
 30
0.0
  0
POINT
  5
860E
  8
DEFPOINTS
 62
     0
 10
1996.1190920507161
 20
1947.247683603076
 30
0.0
  0
POINT
  5
860F
  8
DEFPOINTS
 62
     0
 10
1996.1190920507161
 20
1747.2482764830229
 30
0.0
  0
ENDBLK
  5
84B7
  8
0
  0
BLOCK
  8
0
  2
*D11
 70
     1
 10
0.0
 20
0.0
 30
0.0
  3
*D11
  1

  0
LINE
  5
8610
  8
3
 62
     0
 10
2786.1190920507161
 20
1976.8231348489451
 30
0.0
 11
2786.1190920507161
 21
1717.2482764830229
 31
0.0
  0
LINE
  5
8611
  8
3
 62
     0
 10
2056.1190920507161
 20
1747.2482764830229
 30
0.0
 11
2726.1190920507161
 21
1747.2482764830229
 31
0.0
  0
INSERT
  5
8612
  8
3
 62
     0
  2
_OPEN
 10
1996.1190920507161
 20
1747.2482764830229
 30
0.0
 41
60.0
 42
60.0
 43
60.0
 50
180.0
  0
INSERT
  5
8613
  8
3
 62
     0
  2
_OPEN
 10
2786.1190920507161
 20
1747.2482764830229
 30
0.0
 41
60.0
 42
60.0
 43
60.0
  0
TEXT
  8
3
  40
90
  5
8693
  62
0
  72
0
  71
0
 10
2211.12
 20
1662.95
 30
0.000000
  1
790
  0
POINT
  5
8615
  8
DEFPOINTS
 62
     0
 10
1996.1190920507161
 20
1947.247683603076
 30
0.0
  0
POINT
  5
8616
  8
DEFPOINTS
 62
     0
 10
2786.1190920507161
 20
1991.8231348489451
 30
0.0
  0
POINT
  5
8617
  8
DEFPOINTS
 62
     0
 10
2786.1190920507161
 20
1747.2482764830229
 30
0.0
  0
ENDBLK
  5
84AC
  8
0
  0
BLOCK
  8
0
  2
*D12
 70
     1
 10
0.0
 20
0.0
 30
0.0
  3
*D12
  1

  0
LINE
  5
8618
  8
3
 62
     0
 10
3912.4860925977291
 20
1976.823134848943
 30
0.0
 11
3912.4860925977291
 21
1708.675394433702
 31
0.0
  0
LINE
  5
8619
  8
3
 62
     0
 10
4967.4860925977282
 20
1922.4697912130121
 30
0.0
 11
4967.4860925977282
 21
1708.675394433702
 31
0.0
  0
LINE
  5
861A
  8
3
 62
     0
 10
3972.4860925977282
 20
1738.675394433702
 30
0.0
 11
4907.4860925977291
 21
1738.675394433702
 31
0.0
  0
INSERT
  5
861B
  8
3
 62
     0
  2
_OPEN
 10
3912.4860925977291
 20
1738.675394433702
 30
0.0
 41
60.0
 42
60.0
 43
60.0
 50
180.0
  0
INSERT
  5
861C
  8
3
 62
     0
  2
_OPEN
 10
4967.4860925977282
 20
1738.675394433702
 30
0.0
 41
60.0
 42
60.0
 43
60.0
  0
TEXT
  8
3
  40
90
  5
8694
  62
0
  72
0
  71
0
 10
4246.59
 20
1654.38
 30
0.000000
  1
1055
  0
POINT
  5
861E
  8
DEFPOINTS
 62
     0
 10
3912.4860925977291
 20
1991.823134848943
 30
0.0
  0
POINT
  5
861F
  8
DEFPOINTS
 62
     0
 10
4967.4860925977282
 20
1937.4697912130121
 30
0.0
  0
POINT
  5
8620
  8
DEFPOINTS
 62
     0
 10
4967.4860925977282
 20
1738.675394433702
 30
0.0
  0
ENDBLK
  5
84A2
  8
0
  0
BLOCK
  8
0
  2
*D13
 70
     1
 10
0.0
 20
0.0
 30
0.0
  3
*D13
  1

  0
LINE
  5
848F
  8
0
  6
BYBLOCK
 62
     0
 10
5322.4860925977291
 20
1956.8231348489439
 30
0.0
 11
5322.4860925977291
 21
1688.675394433702
 31
0.0
  0
LINE
  5
8490
  8
0
  6
BYBLOCK
 62
     0
 10
5027.4860925977291
 20
1718.675394433702
 30
0.0
 11
5262.4860925977291
 21
1718.675394433702
 31
0.0
  0
TEXT
  5
8491
  8
1
 62
     0
 10
5029.2718068834429
 20
1741.4665603972551
 30
0.0
 40
90.0
  1
355
  0
INSERT
  5
8492
  8
0
  6
BYBLOCK
 62
     0
  2
_OPEN
 10
4967.4860925977282
 20
1718.675394433702
 30
0.0
 41
60.0
 42
60.0
 43
60.0
 50
180.0
  0
INSERT
  5
8493
  8
0
  6
BYBLOCK
 62
     0
  2
_OPEN
 10
5322.4860925977291
 20
1718.675394433702
 30
0.0
 41
60.0
 42
60.0
 43
60.0
  0
POINT
  5
8494
  8
DEFPOINTS
  6
BYBLOCK
 62
     0
 10
4967.4860925977282
 20
1917.4697912130121
 30
0.0
  0
POINT
  5
8495
  8
DEFPOINTS
  6
BYBLOCK
 62
     0
 10
5322.4860925977291
 20
1971.8231348489439
 30
0.0
  0
POINT
  5
8496
  8
DEFPOINTS
  6
BYBLOCK
 62
     0
 10
5322.4860925977291
 20
1718.675394433702
 30
0.0
  0
ENDBLK
  5
8497
  8
0
  0
BLOCK
  8
0
  2
*D14
 70
     1
 10
0.0
 20
0.0
 30
0.0
  3
*D14
  1

  0
LINE
  5
8621
  8
3
 62
     0
 10
1451.119092050717
 20
3181.3231348489462
 30
0.0
 11
1451.119092050717
 21
3904.8161292982441
 31
0.0
  0
LINE
  5
8622
  8
3
 62
     0
 10
1996.1190920507161
 20
3769.1940761845758
 30
0.0
 11
1996.1190920507161
 21
3904.8161292982441
 31
0.0
  0
LINE
  5
8623
  8
3
 62
     0
 10
1511.1190920507181
 20
3874.8161292982441
 30
0.0
 11
1936.1190920507161
 21
3874.8161292982441
 31
0.0
  0
INSERT
  5
8624
  8
3
 62
     0
  2
_OPEN
 10
1451.119092050717
 20
3874.8161292982441
 30
0.0
 41
60.0
 42
60.0
 43
60.0
 50
180.0
  0
INSERT
  5
8625
  8
3
 62
     0
  2
_OPEN
 10
1996.1190920507161
 20
3874.8161292982441
 30
0.0
 41
60.0
 42
60.0
 43
60.0
  0
TEXT
  8
3
  40
90
  5
8695
  62
0
  72
0
  71
0
 10
1541.95
 20
3790.52
 30
0.000000
  1
545
  0
POINT
  5
8627
  8
DEFPOINTS
 62
     0
 10
1451.119092050717
 20
3166.3231348489462
 30
0.0
  0
POINT
  5
8628
  8
DEFPOINTS
 62
     0
 10
1996.1190920507161
 20
3754.1940761845758
 30
0.0
  0
POINT
  5
8629
  8
DEFPOINTS
 62
     0
 10
1996.1190920507161
 20
3874.8161292982441
 30
0.0
  0
ENDBLK
  5
831B
  8
0
  0
BLOCK
  8
0
  2
*D15
 70
     1
 10
0.0
 20
0.0
 30
0.0
  3
*D15
  1

  0
LINE
  5
862A
  8
3
 62
     0
 10
2682.1190920507161
 20
3102.8231348489462
 30
0.0
 11
2682.1190920507161
 21
3904.8161292982441
 31
0.0
  0
LINE
  5
862B
  8
3
 62
     0
 10
2056.1190920507161
 20
3874.8161292982441
 30
0.0
 11
2622.1190920507161
 21
3874.8161292982441
 31
0.0
  0
INSERT
  5
862C
  8
3
 62
     0
  2
_OPEN
 10
1996.1190920507161
 20
3874.8161292982441
 30
0.0
 41
60.0
 42
60.0
 43
60.0
 50
180.0
  0
INSERT
  5
862D
  8
3
 62
     0
  2
_OPEN
 10
2682.1190920507161
 20
3874.8161292982441
 30
0.0
 41
60.0
 42
60.0
 43
60.0
  0
TEXT
  8
3
  40
90
  5
8696
  62
0
  72
0
  71
0
 10
2159.12
 20
3790.52
 30
0.000000
  1
686
  0
POINT
  5
862F
  8
DEFPOINTS
 62
     0
 10
1996.1190920507161
 20
3754.1940761845758
 30
0.0
  0
POINT
  5
8630
  8
DEFPOINTS
 62
     0
 10
2682.1190920507161
 20
3087.8231348489462
 30
0.0
  0
POINT
  5
8631
  8
DEFPOINTS
 62
     0
 10
2682.1190920507161
 20
3874.8161292982441
 30
0.0
  0
ENDBLK
  5
8327
  8
0
  0
BLOCK
  8
0
  2
*D16
 70
     1
 10
0.0
 20
0.0
 30
0.0
  3
*D16
  1

  0
LINE
  5
8632
  8
3
 62
     0
 10
2040.1190920507161
 20
3714.8231348489462
 30
0.0
 11
806.7355537026566
 21
3714.8231348489471
 31
0.0
  0
LINE
  5
8633
  8
3
 62
     0
 10
1314.6473002003249
 20
3146.8231348489462
 30
0.0
 11
806.73555370265638
 21
3146.8231348489471
 31
0.0
  0
LINE
  5
8634
  8
3
 62
     0
 10
836.73555370265649
 20
3654.8231348489462
 30
0.0
 11
836.73555370265649
 21
3206.8231348489471
 31
0.0
  0
INSERT
  5
8635
  8
3
 62
     0
  2
_OPEN
 10
836.73555370265649
 20
3714.8231348489471
 30
0.0
 41
60.0
 42
60.0
 43
60.0
 50
90.0
  0
INSERT
  5
8636
  8
3
 62
     0
  2
_OPEN
 10
836.73555370265649
 20
3146.8231348489471
 30
0.0
 41
60.0
 42
60.0
 43
60.0
 50
270.0
  0
TEXT
  8
3
  40
90
  5
8697
  62
0
  72
0
  71
0
 10
581.736
 20
3292.30
 30
0.000000
  1
568
  0
POINT
  5
8638
  8
DEFPOINTS
 62
     0
 10
2055.1190920507161
 20
3714.8231348489462
 30
0.0
  0
POINT
  5
8639
  8
DEFPOINTS
 62
     0
 10
1329.6473002003249
 20
3146.8231348489462
 30
0.0
  0
POINT
  5
863A
  8
DEFPOINTS
 62
     0
 10
836.73555370265649
 20
3146.8231348489471
 30
0.0
  0
ENDBLK
  5
840C
  8
0
  0
BLOCK
  8
0
  2
*D17
 70
     1
 10
0.0
 20
0.0
 30
0.0
  3
*D17
  1

  0
LINE
  5
863B
  8
3
 62
     0
 10
1481.1190920507161
 20
2186.8231348489462
 30
0.0
 11
806.73555370265615
 21
2186.8231348489462
 31
0.0
  0
LINE
  5
863C
  8
3
 62
     0
 10
836.73555370265626
 20
3086.8231348489462
 30
0.0
 11
836.73555370265592
 21
2246.8231348489462
 31
0.0
  0
INSERT
  5
863D
  8
3
 62
     0
  2
_OPEN
 10
836.73555370265626
 20
3146.8231348489471
 30
0.0
 41
60.0
 42
60.0
 43
60.0
 50
90.0
  0
INSERT
  5
863E
  8
3
 62
     0
  2
_OPEN
 10
836.73555370265592
 20
2186.8231348489462
 30
0.0
 41
60.0
 42
60.0
 43
60.0
 50
270.0
  0
TEXT
  8
3
  40
90
  5
8698
  62
0
  72
0
  71
0
 10
581.736
 20
2507.52
 30
0.000000
  1
960
  0
POINT
  5
8640
  8
DEFPOINTS
 62
     0
 10
1329.6473002003249
 20
3146.8231348489462
 30
0.0
  0
POINT
  5
8641
  8
DEFPOINTS
 62
     0
 10
1496.1190920507161
 20
2186.8231348489462
 30
0.0
  0
POINT
  5
8642
  8
DEFPOINTS
 62
     0
 10
836.73555370265592
 20
2186.8231348489462
 30
0.0
  0
ENDBLK
  5
83E8
  8
0
  0
BLOCK
  8
0
  2
*D18
 70
     1
 10
0.0
 20
0.0
 30
0.0
  3
*D18
  1

  0
LINE
  5
859B
  8
0
  6
BYBLOCK
 62
     0
 10
1481.1190920507161
 20
2091.8231348489462
 30
0.0
 11
806.73555370265615
 21
2091.8231348489462
 31
0.0
  0
LINE
  5
859C
  8
0
  6
BYBLOCK
 62
     0
 10
836.73555370265592
 20
2246.8231348489462
 30
0.0
 11
836.73555370265592
 21
2306.8231348489462
 31
0.0
  0
LINE
  5
859D
  8
0
  6
BYBLOCK
 62
     0
 10
836.73555370265592
 20
2031.823134848946
 30
0.0
 11
836.73555370265592
 21
1971.823134848946
 31
0.0
  0
TEXT
  5
859E
  8
1
 62
     0
 10
723.16412513122737
 20
2008.60884913466
 30
0.0
 40
90.0
  1
(95)
 50
90.0
  0
LINE
  5
859F
  8
0
  6
BYBLOCK
 62
     0
 10
836.73555370265592
 20
2186.8231348489462
 30
0.0
 11
836.73555370265592
 21
2091.8231348489462
 31
0.0
  0
INSERT
  5
85A0
  8
0
  6
BYBLOCK
 62
     0
  2
_OPEN
 10
836.73555370265592
 20
2186.8231348489462
 30
0.0
 41
60.0
 42
60.0
 43
60.0
 50
270.0
  0
INSERT
  5
85A1
  8
0
  6
BYBLOCK
 62
     0
  2
_DOT
 10
836.73555370265592
 20
2091.8231348489462
 30
0.0
 41
60.0
 42
60.0
 43
60.0
 50
90.0
  0
POINT
  5
85A2
  8
DEFPOINTS
  6
BYBLOCK
 62
     0
 10
1496.1190920507161
 20
2186.8231348489462
 30
0.0
  0
POINT
  5
85A3
  8
DEFPOINTS
  6
BYBLOCK
 62
     0
 10
1496.1190920507161
 20
2091.8231348489462
 30
0.0
  0
POINT
  5
85A4
  8
DEFPOINTS
  6
BYBLOCK
 62
     0
 10
836.73555370265592
 20
2091.8231348489462
 30
0.0
  0
ENDBLK
  5
85A5
  8
0
  0
BLOCK
  8
0
  2
*D19
 70
     1
 10
0.0
 20
0.0
 30
0.0
  3
*D19
  1

  0
LINE
  5
8643
  8
3
 62
     0
 10
1481.1190920507161
 20
2091.8231348489462
 30
0.0
 11
806.73555370265615
 21
2091.8231348489462
 31
0.0
  0
LINE
  5
8644
  8
3
 62
     0
 10
1481.1190920507161
 20
1991.823134848946
 30
0.0
 11
806.73555370265615
 21
1991.823134848946
 31
0.0
  0
LINE
  5
8645
  8
3
 62
     0
 10
836.73555370265592
 20
2151.8231348489462
 30
0.0
 11
836.73555370265592
 21
2211.8231348489462
 31
0.0
  0
LINE
  5
8646
  8
3
 62
     0
 10
836.73555370265592
 20
1931.823134848946
 30
0.0
 11
836.73555370265592
 21
1597.537420563232
 31
0.0
  0
LINE
  5
8647
  8
3
 62
     0
 10
836.73555370265592
 20
2091.8231348489462
 30
0.0
 11
836.73555370265592
 21
1991.823134848946
 31
0.0
  0
INSERT
  5
8648
  8
3
 62
     0
  2
_DOT
 10
836.73555370265592
 20
2091.8231348489462
 30
0.0
 41
60.0
 42
60.0
 43
60.0
 50
270.0
  0
INSERT
  5
8649
  8
3
 62
     0
  2
_OPEN
 10
836.73555370265592
 20
1991.823134848946
 30
0.0
 41
60.0
 42
60.0
 43
60.0
 50
90.0
  0
TEXT
  8
3
  40
90
  5
8699
  62
0
  72
0
  71
0
 10
581.736
 20
1575.38
 30
0.000000
  1
100
  0
POINT
  5
864B
  8
DEFPOINTS
 62
     0
 10
1496.1190920507161
 20
2091.8231348489462
 30
0.0
  0
POINT
  5
864C
  8
DEFPOINTS
 62
     0
 10
1496.1190920507161
 20
1991.823134848946
 30
0.0
  0
POINT
  5
864D
  8
DEFPOINTS
 62
     0
 10
836.73555370265592
 20
1991.823134848946
 30
0.0
  0
ENDBLK
  5
8599
  8
0
  0
BLOCK
  8
0
  2
*D20
 70
     1
 10
0.0
 20
0.0
 30
0.0
  3
*D20
  1

  0
LINE
  5
864E
  8
3
 62
     0
 10
1314.6473002003249
 20
3146.8231348489462
 30
0.0
 11
1008.421390771047
 21
3146.8231348489471
 31
0.0
  0
LINE
  5
864F
  8
3
 62
     0
 10
1436.1190920507161
 20
2298.8231348489462
 30
0.0
 11
1008.421390771047
 21
2298.8231348489462
 31
0.0
  0
LINE
  5
8650
  8
3
 62
     0
 10
1038.4213907710471
 20
3086.8231348489462
 30
0.0
 11
1038.4213907710471
 21
2358.8231348489462
 31
0.0
  0
INSERT
  5
8651
  8
3
 62
     0
  2
_OPEN
 10
1038.4213907710471
 20
3146.8231348489462
 30
0.0
 41
60.0
 42
60.0
 43
60.0
 50
90.0
  0
INSERT
  5
8652
  8
3
 62
     0
  2
_OPEN
 10
1038.4213907710471
 20
2298.8231348489462
 30
0.0
 41
60.0
 42
60.0
 43
60.0
 50
270.0
  0
TEXT
  8
3
  40
90
  5
869A
  62
0
  72
0
  71
0
 10
783.421
 20
2536.70
 30
0.000000
  1
848
  0
POINT
  5
8654
  8
DEFPOINTS
 62
     0
 10
1329.6473002003249
 20
3146.8231348489462
 30
0.0
  0
POINT
  5
8655
  8
DEFPOINTS
 62
     0
 10
1451.1190920507161
 20
2298.8231348489462
 30
0.0
  0
POINT
  5
8656
  8
DEFPOINTS
 62
     0
 10
1038.4213907710471
 20
2298.8231348489462
 30
0.0
  0
ENDBLK
  5
83DE
  8
0
  0
BLOCK
  8
0
  2
*D21
 70
     1
 10
0.0
 20
0.0
 30
0.0
  3
*D21
  1

  0
LINE
  5
8657
  8
3
 62
     0
 10
1436.1190920507161
 20
3123.8231348489462
 30
0.0
 11
1202.8123683826159
 21
3123.8231348489462
 31
0.0
  0
LINE
  5
8658
  8
3
 62
     0
 10
1436.1190920507161
 20
2298.8231348489462
 30
0.0
 11
1202.8123683826159
 21
2298.8231348489462
 31
0.0
  0
LINE
  5
8659
  8
3
 62
     0
 10
1232.8123683826159
 20
3063.8231348489462
 30
0.0
 11
1232.8123683826159
 21
2358.8231348489462
 31
0.0
  0
INSERT
  5
865A
  8
3
 62
     0
  2
_OPEN
 10
1232.8123683826159
 20
3123.8231348489462
 30
0.0
 41
60.0
 42
60.0
 43
60.0
 50
90.0
  0
INSERT
  5
865B
  8
3
 62
     0
  2
_OPEN
 10
1232.8123683826159
 20
2298.8231348489462
 30
0.0
 41
60.0
 42
60.0
 43
60.0
 50
270.0
  0
TEXT
  8
3
  40
90
  5
869B
  62
0
  72
0
  71
0
 10
977.812
 20
2588.90
 30
0.000000
  1
825
  0
POINT
  5
865D
  8
DEFPOINTS
 62
     0
 10
1451.1190920507161
 20
3123.8231348489462
 30
0.0
  0
POINT
  5
865E
  8
DEFPOINTS
 62
     0
 10
1451.1190920507161
 20
2298.8231348489462
 30
0.0
  0
POINT
  5
865F
  8
DEFPOINTS
 62
     0
 10
1232.8123683826159
 20
2298.8231348489462
 30
0.0
  0
ENDBLK
  5
8418
  8
0
  0
BLOCK
  8
0
  2
*D22
 70
     1
 10
0.0
 20
0.0
 30
0.0
  3
*D22
  1

  0
LINE
  5
8660
  8
3
 62
     0
 10
2040.1190920507161
 20
3714.8231348489462
 30
0.0
 11
544.56439001486137
 21
3714.8231348489471
 31
0.0
  0
LINE
  5
8661
  8
3
 62
     0
 10
1481.1190920507161
 20
1991.823134848946
 30
0.0
 11
544.56439001486103
 21
1991.823134848946
 31
0.0
  0
LINE
  5
8662
  8
3
 62
     0
 10
574.56439001486126
 20
3654.8231348489462
 30
0.0
 11
574.56439001486103
 21
2051.8231348489462
 31
0.0
  0
INSERT
  5
8663
  8
3
 62
     0
  2
_OPEN
 10
574.56439001486126
 20
3714.8231348489471
 30
0.0
 41
60.0
 42
60.0
 43
60.0
 50
90.0
  0
INSERT
  5
8664
  8
3
 62
     0
  2
_OPEN
 10
574.56439001486103
 20
1991.823134848946
 30
0.0
 41
60.0
 42
60.0
 43
60.0
 50
270.0
  0
TEXT
  8
3
  40
90
  5
869C
  62
0
  72
0
  71
0
 10
319.564
 20
2565.86
 30
0.000000
  1
1723
  0
POINT
  5
8666
  8
DEFPOINTS
 62
     0
 10
2055.1190920507161
 20
3714.8231348489462
 30
0.0
  0
POINT
  5
8667
  8
DEFPOINTS
 62
     0
 10
1496.1190920507161
 20
1991.823134848946
 30
0.0
  0
POINT
  5
8668
  8
DEFPOINTS
 62
     0
 10
574.56439001486103
 20
1991.823134848946
 30
0.0
  0
ENDBLK
  5
858C
  8
0
  0
BLOCK
  8
0
  2
*D23
 70
     1
 10
0.0
 20
0.0
 30
0.0
  3
*D23
  1

  0
LINE
  5
8669
  8
3
 62
     0
 10
5284.7860925977247
 20
3546.8231348489462
 30
0.0
 11
5564.1428272721541
 21
3546.8231348489462
 31
0.0
  0
LINE
  5
866A
  8
3
 62
     0
 10
5284.7860925977257
 20
2746.8231348489448
 30
0.0
 11
5564.1428272721541
 21
2746.8231348489448
 31
0.0
  0
LINE
  5
866B
  8
3
 62
     0
 10
5534.1428272721541
 20
3486.8231348489462
 30
0.0
 11
5534.1428272721541
 21
2806.8231348489448
 31
0.0
  0
INSERT
  5
866C
  8
3
 62
     0
  2
_OPEN
 10
5534.1428272721541
 20
3546.8231348489462
 30
0.0
 41
60.0
 42
60.0
 43
60.0
 50
90.0
  0
INSERT
  5
866D
  8
3
 62
     0
  2
_OPEN
 10
5534.1428272721541
 20
2746.8231348489448
 30
0.0
 41
60.0
 42
60.0
 43
60.0
 50
270.0
  0
TEXT
  8
3
  40
90
  5
869D
  62
0
  72
0
  71
0
 10
5279.14
 20
2978.27
 30
0.000000
  1
φ800
  0
POINT
  5
866F
  8
DEFPOINTS
 62
     0
 10
5269.7860925977238
 20
3546.8231348489462
 30
0.0
  0
POINT
  5
8670
  8
DEFPOINTS
 62
     0
 10
5269.7860925977257
 20
2746.8231348489448
 30
0.0
  0
POINT
  5
8671
  8
DEFPOINTS
 62
     0
 10
5534.1428272721541
 20
2746.8231348489448
 30
0.0
  0
ENDBLK
  5
8440
  8
0
  0
BLOCK
  8
0
  2
*D24
 70
     1
 10
0.0
 20
0.0
 30
0.0
  3
*D24
  1

  0
LINE
  5
8672
  8
3
 62
     0
 10
4667.4860925977264
 20
3727.5231348489451
 30
0.0
 11
4667.4860925977264
 21
3882.1499836953808
 31
0.0
  0
LINE
  5
8673
  8
3
 62
     0
 10
5267.4860925977246
 20
3727.523134848946
 30
0.0
 11
5267.4860925977246
 21
3882.1499836953808
 31
0.0
  0
LINE
  5
8674
  8
3
 62
     0
 10
4727.4860925977246
 20
3852.1499836953799
 30
0.0
 11
5207.4860925977264
 21
3852.1499836953799
 31
0.0
  0
INSERT
  5
8675
  8
3
 62
     0
  2
_OPEN
 10
4667.4860925977264
 20
3852.1499836953799
 30
0.0
 41
60.0
 42
60.0
 43
60.0
 50
180.0
  0
INSERT
  5
8676
  8
3
 62
     0
  2
_OPEN
 10
5267.4860925977246
 20
3852.1499836953799
 30
0.0
 41
60.0
 42
60.0
 43
60.0
  0
TEXT
  8
3
  40
90
  5
869E
  62
0
  72
0
  71
0
 10
4787.04
 20
3767.85
 30
0.000000
  1
600
  0
POINT
  5
8678
  8
DEFPOINTS
 62
     0
 10
4667.4860925977264
 20
3712.5231348489451
 30
0.0
  0
POINT
  5
8679
  8
DEFPOINTS
 62
     0
 10
5267.4860925977246
 20
3712.523134848946
 30
0.0
  0
POINT
  5
867A
  8
DEFPOINTS
 62
     0
 10
5267.4860925977246
 20
3852.1499836953799
 30
0.0
  0
ENDBLK
  5
844E
  8
0
  0
BLOCK
  8
0
  2
*D25
 70
     1
 10
0.0
 20
0.0
 30
0.0
  3
*D25
  1

  0
LINE
  5
84C5
  8
0
  6
BYBLOCK
 62
     0
 10
5271.4860925977282
 20
3601.8231348489448
 30
0.0
 11
5271.4860925977282
 21
4096.5999539467484
 31
0.0
  0
LINE
  5
84C6
  8
0
  6
BYBLOCK
 62
     0
 10
4967.4860925977246
 20
4029.4833803428191
 30
0.0
 11
4967.4860925977246
 21
4096.5999539467484
 31
0.0
  0
LINE
  5
84C7
  8
0
  6
BYBLOCK
 62
     0
 10
5211.4860925977273
 20
4066.599953946748
 30
0.0
 11
5027.4860925977237
 21
4066.599953946748
 31
0.0
  0
TEXT
  5
84C8
  8
1
 62
     0
 10
5001.6289497405842
 20
4091.0972975134819
 30
0.0
 40
90.0
  1
304
  0
INSERT
  5
84C9
  8
0
  6
BYBLOCK
 62
     0
  2
_OPEN
 10
5271.4860925977282
 20
4066.599953946748
 30
0.0
 41
60.0
 42
60.0
 43
60.0
  0
INSERT
  5
84CA
  8
0
  6
BYBLOCK
 62
     0
  2
_OPEN
 10
4967.4860925977246
 20
4066.599953946748
 30
0.0
 41
60.0
 42
60.0
 43
60.0
 50
180.0
  0
POINT
  5
84CB
  8
DEFPOINTS
  6
BYBLOCK
 62
     0
 10
5271.4860925977282
 20
3586.8231348489448
 30
0.0
  0
POINT
  5
84CC
  8
DEFPOINTS
  6
BYBLOCK
 62
     0
 10
4967.4860925977246
 20
4014.4833803428191
 30
0.0
  0
POINT
  5
84CD
  8
DEFPOINTS
  6
BYBLOCK
 62
     0
 10
4967.4860925977246
 20
4066.599953946748
 30
0.0
  0
ENDBLK
  5
84CE
  8
0
  0
BLOCK
  8
0
  2
*D26
 70
     1
 10
0.0
 20
0.0
 30
0.0
  3
*D26
  1

  0
LINE
  5
867B
  8
3
 62
     0
 10
3779.486092597725
 20
3381.8231348489448
 30
0.0
 11
3779.486092597725
 21
4096.5999539467484
 31
0.0
  0
LINE
  5
867C
  8
3
 62
     0
 10
4907.4860925977246
 20
4066.599953946748
 30
0.0
 11
3839.486092597725
 21
4066.599953946748
 31
0.0
  0
INSERT
  5
867D
  8
3
 62
     0
  2
_OPEN
 10
4967.4860925977246
 20
4066.599953946748
 30
0.0
 41
60.0
 42
60.0
 43
60.0
  0
INSERT
  5
867E
  8
3
 62
     0
  2
_OPEN
 10
3779.486092597725
 20
4066.599953946748
 30
0.0
 41
60.0
 42
60.0
 43
60.0
 50
180.0
  0
TEXT
  8
3
  40
90
  5
869F
  62
0
  72
0
  71
0
 10
4193.49
 20
4057.30
 30
0.000000
  1
MAX
  0
TEXT
  8
3
  40
90
  5
86A0
  62
0
  72
0
  71
0
 10
4193.49
 20
3940.30
 30
0.000000
  1
1240
  0
POINT
  5
8680
  8
DEFPOINTS
 62
     0
 10
4967.4860925977246
 20
4014.4833803428191
 30
0.0
  0
POINT
  5
8681
  8
DEFPOINTS
 62
     0
 10
3779.486092597725
 20
3366.8231348489448
 30
0.0
  0
POINT
  5
8682
  8
DEFPOINTS
 62
     0
 10
3779.486092597725
 20
4066.599953946748
 30
0.0
  0
ENDBLK
  5
84D8
  8
0
  0
BLOCK
  8
0
  2
*D27
 70
     1
 10
0.0
 20
0.0
 30
0.0
  3
*D27
  1

  0
LINE
  5
8683
  8
3
 62
     0
 10
1451.119092050717
 20
3181.3231348489462
 30
0.0
 11
1451.119092050717
 21
4113.974274384298
 31
0.0
  0
LINE
  5
8684
  8
3
 62
     0
 10
2816.1190920507152
 20
2551.8231348489448
 30
0.0
 11
2816.1190920507152
 21
4113.974274384298
 31
0.0
  0
LINE
  5
8685
  8
3
 62
     0
 10
1511.1190920507181
 20
4083.974274384298
 30
0.0
 11
2756.1190920507161
 21
4083.974274384298
 31
0.0
  0
INSERT
  5
8686
  8
3
 62
     0
  2
_OPEN
 10
1451.119092050717
 20
4083.974274384298
 30
0.0
 41
60.0
 42
60.0
 43
60.0
 50
180.0
  0
INSERT
  5
8687
  8
3
 62
     0
  2
_OPEN
 10
2816.1190920507152
 20
4083.974274384298
 30
0.0
 41
60.0
 42
60.0
 43
60.0
  0
TEXT
  8
3
  40
90
  5
86A1
  62
0
  72
0
  71
0
 10
2044.19
 20
3999.67
 30
0.000000
  1
1365
  0
POINT
  5
8689
  8
DEFPOINTS
 62
     0
 10
1451.119092050717
 20
3166.3231348489462
 30
0.0
  0
POINT
  5
868A
  8
DEFPOINTS
 62
     0
 10
2816.1190920507152
 20
2536.8231348489462
 30
0.0
  0
POINT
  5
868B
  8
DEFPOINTS
 62
     0
 10
2816.1190920507152
 20
4083.974274384298
 30
0.0
  0
ENDBLK
  5
848C
  8
0
  0
ENDSEC
  0
SECTION
  2
ENTITIES
  0
LINE
  5
7AC2
  8
2
 10
1389.2025445261199
 20
6144.1524204127254
 30
0.0
 11
2728.57213565557
 21
6144.1524204127254
 31
0.0
  0
LINE
  5
7B11
  8
2
 10
1996.1190920507161
 20
6603.8465752898683
 30
0.0
 11
1996.1190920507161
 21
4923.8901259765353
 31
0.0
  0
LINE
  5
7B13
  8
1
 10
2023.6190920507161
 20
5101.1524204127236
 30
0.0
 11
2023.6190920507099
 21
5841.8524204127216
 31
0.0
  0
LINE
  5
7B14
  8
1
 10
1968.6190920507161
 20
5101.1524204127236
 30
0.0
 11
1968.6190920507161
 21
5841.8524204127216
 31
0.0
  0
LINE
  5
7B15
  8
1
 10
1716.1190920507149
 20
5789.1524204127236
 30
0.0
 11
1716.1190920507161
 21
5089.1524204127263
 31
0.0
  0
LINE
  5
7B17
  8
1
 10
2786.1190920507161
 20
5839.1524204127236
 30
0.0
 11
2786.1190920507161
 21
5089.1524204127272
 31
0.0
  0
LINE
  5
7B18
  8
1
 10
1776.119092050717
 20
4956.1524204127227
 30
0.0
 11
2816.1190920507152
 21
4956.1524204127254
 31
0.0
  0
LINE
  5
7B19
  8
1
 10
1869.119092050717
 20
4996.1524204127227
 30
0.0
 11
2706.1190920507161
 21
4996.1524204127227
 31
0.0
  0
LINE
  5
7B1A
  8
1
 10
1869.119092050717
 20
5081.1524204127236
 30
0.0
 11
2706.1190920507161
 21
5081.1524204127236
 31
0.0
  0
LINE
  5
7B1B
  8
1
 10
1716.1190920507161
 20
5089.1524204127263
 30
0.0
 11
2786.1190920507161
 21
5089.1524204127236
 31
0.0
  0
LINE
  5
7B1C
  8
1
 10
2816.119092050717
 20
4956.1524204127236
 30
0.0
 11
2816.1190920507152
 21
5116.1524204127236
 31
0.0
  0
LINE
  5
7B1D
  8
2
 10
2596.1190920507161
 20
4927.0440016317534
 30
0.0
 11
2596.1190920507161
 21
5693.4344787991904
 31
0.0
  0
LINE
  5
7B1E
  8
1
 10
2758.1190920507161
 20
5147.1561287579789
 30
0.0
 11
2436.1190920507161
 21
5147.1561287579789
 31
0.0
  0
LINE
  5
7B1F
  8
1
 10
2436.1190920507161
 20
5621.2778485763993
 30
0.0
 11
2758.1190920507161
 21
5621.2778485763993
 31
0.0
  0
LINE
  5
7B20
  8
1
 10
2758.1190920507161
 20
5215.7472567477089
 30
0.0
 11
2758.1190920507161
 21
5457.9942967081297
 31
0.0
  0
LINE
  5
7B21
  8
1
 10
2758.1190920507161
 20
5621.2778485763993
 30
0.0
 11
2758.1190920507161
 21
5147.1561287579789
 31
0.0
  0
LINE
  5
7B22
  8
1
 10
2706.1190920507161
 20
4996.1524204127227
 30
0.0
 11
2706.1190920507161
 21
5081.1524204127236
 31
0.0
  0
LINE
  5
7B23
  8
1
 10
2436.1190920507161
 20
5147.1561287579789
 30
0.0
 11
2436.1190920507161
 21
5621.2778485763993
 31
0.0
  0
LINE
  5
7B25
  8
1
 10
2537.9016430681172
 20
5136.2778485764002
 30
0.0
 11
2654.336541033314
 21
5136.2778485764002
 31
0.0
  0
LINE
  5
7B26
  8
1
 10
2575.119092050717
 20
5018.2778485754079
 30
0.0
 11
2575.119092050717
 21
5128.2778485715371
 31
0.0
  0
LINE
  5
7B27
  8
1
 10
2617.1190920507161
 20
5018.2778485754079
 30
0.0
 11
2617.119092050717
 21
5128.2778485715371
 31
0.0
  0
LINE
  5
7B28
  8
1
 10
2617.1190920507161
 20
5018.2778485754079
 30
0.0
 11
2575.1190920507161
 21
5018.2778485754079
 31
0.0
  0
LINE
  5
7B29
  8
1
 10
2565.6977831048689
 20
5128.2778485715371
 30
0.0
 11
2624.5404009965619
 21
5128.2778485715371
 31
0.0
  0
LINE
  5
7B2A
  8
1
 10
2624.5404009965619
 20
5128.2778485715371
 30
0.0
 11
2624.5404009965619
 21
5136.2778485764002
 31
0.0
  0
LINE
  5
7B2B
  8
1
 10
2654.336541033314
 20
5147.1561287579789
 30
0.0
 11
2654.336541033314
 21
5136.2778485764002
 31
0.0
  0
LINE
  5
7B2C
  8
1
 10
2565.6977831048689
 20
5128.2778485715371
 30
0.0
 11
2565.6977831048698
 21
5136.2778485764002
 31
0.0
  0
LINE
  5
7B2D
  8
1
 10
2486.1190920507161
 20
4996.1524204127227
 30
0.0
 11
2486.1190920507161
 21
5081.1524204127236
 31
0.0
  0
LINE
  5
7B2E
  8
1
 10
2537.9016430681172
 20
5147.1561287579789
 30
0.0
 11
2537.9016430681172
 21
5136.2778485764002
 31
0.0
  0
LINE
  5
7B2F
  8
1
 10
1776.119092050717
 20
4956.1524204127236
 30
0.0
 11
1776.119092050717
 21
5116.1524204127236
 31
0.0
  0
LINE
  5
7B32
  8
1
 10
1826.1190920507161
 20
5136.1524204127218
 30
0.0
 11
1968.6190920507161
 21
5136.1524204127227
 31
0.0
  0
LINE
  5
7B33
  8
1
 10
2023.6190920507161
 20
5136.1524204127227
 30
0.0
 11
2166.1190920507161
 21
5136.1524204127227
 31
0.0
  0
LINE
  5
7B34
  8
1
 10
2123.119092050717
 20
4996.1524204127236
 30
0.0
 11
2123.119092050717
 21
5081.1524204127236
 31
0.0
  0
LINE
  5
7B35
  8
1
 10
1968.6190920507161
 20
5101.1524204127236
 30
0.0
 11
2023.6190920507161
 21
5101.1524204127236
 31
0.0
  0
LINE
  5
7B36
  8
1
 10
2020.119092050717
 20
5081.1524204127236
 30
0.0
 11
2020.119092050717
 21
5101.1524204127236
 31
0.0
  0
LINE
  5
7B37
  8
1
 10
1972.1190920507161
 20
5081.1524204127236
 30
0.0
 11
1972.1190920507161
 21
5101.1524204127236
 31
0.0
  0
LINE
  5
7B38
  8
1
 10
1869.119092050717
 20
4996.1524204127236
 30
0.0
 11
1869.119092050717
 21
5081.1524204127236
 31
0.0
  0
LINE
  5
7B39
  8
1
 10
1776.1190920507161
 20
5116.1524204127236
 30
0.0
 11
1796.119092050717
 21
5116.1524204127236
 31
0.0
  0
LINE
  5
7B3A
  8
1
 10
1491.1190920507149
 20
5844.1524204127227
 30
0.0
 11
2682.1190920507161
 21
5844.152420412719
 31
0.0
  0
LINE
  5
7B3B
  8
1
 10
1491.1190920507149
 20
6444.1524204127263
 30
0.0
 11
2682.1190920507161
 21
6444.1524204127199
 31
0.0
  0
LINE
  5
7B3C
  8
1
 10
1496.1190920507161
 20
6499.1524204127236
 30
0.0
 11
2496.1190920507161
 21
6499.1524204127263
 31
0.0
  0
LINE
  5
7B3D
  8
1
 10
2496.1190920507161
 20
6499.1524204127236
 30
0.0
 11
2496.1190920507161
 21
6444.1524204127199
 31
0.0
  0
LINE
  5
7B3E
  8
1
 10
2496.1190920507161
 20
5839.1524204127263
 30
0.0
 11
2786.1190920507161
 21
5839.1524204127263
 31
0.0
  0
LINE
  5
7B40
  8
1
 10
2496.1190920507161
 20
5844.152420412719
 30
0.0
 11
2496.1190920507161
 21
5839.1524204127236
 31
0.0
  0
LINE
  5
7B41
  8
1
 10
1496.1190920507149
 20
6499.1524204127236
 30
0.0
 11
1496.1190920507149
 21
6446.4524204127229
 31
0.0
  0
LINE
  5
7B42
  8
1
 10
1496.119092050717
 20
6444.1524204127236
 30
0.0
 11
1496.1190920507161
 21
6486.1524204127218
 31
0.0
  0
LINE
  5
7B45
  8
1
 10
1826.1190920507161
 20
5758.1524204127218
 30
0.0
 11
1968.6190920507161
 21
5758.1524204127218
 31
0.0
  0
LINE
  5
7B46
  8
1
 10
2023.6190920507111
 20
5758.1524204127218
 30
0.0
 11
2166.1190920507161
 21
5758.1524204127227
 31
0.0
  0
LINE
  5
7B47
  8
1
 10
1496.1190920507161
 20
5789.1524204127236
 30
0.0
 11
1716.1190920507149
 21
5789.1524204127236
 31
0.0
  0
LINE
  5
7B48
  8
1
 10
1496.119092050717
 20
5802.1524204127236
 30
0.0
 11
1496.119092050717
 21
5841.8524204127243
 31
0.0
  0
LINE
  5
7B49
  8
1
 10
1496.1190920507161
 20
5841.8524204127243
 30
0.0
 11
1496.1190920507161
 21
5789.1524204127227
 31
0.0
  0
LINE
  5
7B84
  8
4
 10
5550.0
 20
1500.0
 30
0.0
 11
5550.0
 21
900.0
 31
0.0
  0
LINE
  5
7B85
  8
4
 10
3450.0
 20
1500.0
 30
0.0
 11
3450.0
 21
900.0
 31
0.0
  0
LINE
  5
7B86
  8
4
 10
1950.0
 20
1500.0
 30
0.0
 11
1950.0
 21
900.0
 31
0.0
  0
LINE
  5
7B89
  8
4
 10
1950.0
 20
900.0
 30
0.0
 11
5550.0
 21
900.0
 31
0.0
  0
LINE
  5
7B8A
  8
4
 10
1950.0
 20
1200.0
 30
0.0
 11
5550.0
 21
1200.0
 31
0.0
  0
TEXT
  5
7B8B
  8
4
 10
2065.5062425407041
 20
1294.629077599838
 30
0.0
 40
150.0
  1
機器名称
  0
TEXT
  5
7B8C
  8
4
 10
2058.7743180743919
 20
964.93547019603284
 30
0.0
 40
150.0
  1
機器型番
  0
TEXT
  5
7B8D
  8
4
 10
3538.974217018409
 20
1270.006233746099
 30
0.0
 40
127.5
  1
ミツヤリミットロードファン
  0
TEXT
  5
7B8E
  8
4
 10
3559.9634867564419
 20
951.47875283983012
 30
0.0
 40
150.0
  1
LL#5-1
  0
TEXT
  5
7B90
  8
4
 10
2347.4864908824379
 20
7150.2865239975472
 30
0.0
 40
161.99999999999989
  1
床置防振ベット
  0
TEXT
  5
7B91
  8
4
 10
948.50277998833917
 20
7601.6429285978938
 30
0.0
 40
216.0
  1
遠心式片吸込片持リミットロードファン
  0
LINE
  5
7B92
  8
4
 10
750.0
 20
7408.2262627944137
 30
0.0
 11
5550.0
 21
7408.2262627944137
 31
0.0
  0
LINE
  5
7B93
  8
4
 10
750.0
 20
8008.2262627944137
 30
0.0
 11
5550.0
 21
8008.2262627944137
 31
0.0
  0
LINE
  5
7B94
  8
4
 10
1950.0
 20
1500.0
 30
0.0
 11
5550.0
 21
1500.0
 31
0.0
  0
LINE
  5
7B95
  8
4
 10
750.0
 20
8008.2262627944137
 30
0.0
 11
750.0
 21
7408.2262627944137
 31
0.0
  0
TEXT
  5
7B96
  8
4
 10
1039.9099941543309
 20
7146.9584326390304
 30
0.0
 40
161.99999999999989
  1
右回転左横向
  0
TEXT
  5
7B97
  8
4
 10
4406.9086777478688
 20
8118.1832444859256
 30
0.0
 40
168.0
  1
No.
  0
TEXT
  5
7B98
  8
4
 10
3933.8881878000388
 20
7150.2865239975472
 30
0.0
 40
161.99999999999989
  1
縮尺：1/30
  0
LINE
  5
7B99
  8
4
 10
5550.0
 20
8008.2262627944137
 30
0.0
 11
5550.0
 21
7408.2262627944137
 31
0.0
  0
LINE
  5
7B9A
  8
4
 10
6300.0
 20
8850.0
 30
0.0
 11
6300.0
 21
8850.0
 31
0.0
  0
LINE
  5
7B9B
  8
4
 10
4321.8522670795937
 20
8043.790749376205
 30
0.0
 11
4321.8522670795937
 21
8359.9567846492573
 31
0.0
  0
LINE
  5
7B9C
  8
4
 10
4321.8522670795937
 20
8359.9567846492573
 30
0.0
 11
5550.0
 21
8359.9567846492573
 31
0.0
  0
LINE
  5
7B9D
  8
4
 10
5550.0
 20
8359.9567846492573
 30
0.0
 11
5550.0
 21
8043.790749376205
 31
0.0
  0
LINE
  5
7B9E
  8
4
 10
5550.0
 20
8043.790749376205
 30
0.0
 11
4321.8522670795937
 21
8043.790749376205
 31
0.0
  0
LINE
  5
7B9F
  8
4
 10
0.0
 20
0.0
 30
0.0
 11
0.0
 21
8850.0
 31
0.0
  0
LINE
  5
7BA0
  8
4
 10
0.0
 20
8850.0
 30
0.0
 11
6300.0
 21
8850.0
 31
0.0
  0
LINE
  5
7BA1
  8
4
 10
6300.0
 20
8850.0
 30
0.0
 11
6300.0
 21
0.0
 31
0.0
  0
LINE
  5
7BA2
  8
4
 10
6300.0
 20
0.0
 30
0.0
 11
0.0
 21
0.0
 31
0.0
  0
DIMENSION
  5
7BC1
  8
3
  2
*D1
 10
2496.1190920507161
 20
6668.0473459470586
 30
0.0
 11
1994.830524624434
 21
6668.0473459470586
 31
0.0
 70
   128
 13
1496.1190920507149
 23
6499.1524204127236
 33
0.0
 14
2496.1190920507161
 24
6499.1524204127263
 34
0.0
1001
ACAD
1000
DSTYLE
1002
{
1070
   287
1070
     3
1070
    40
1040
30.0
1070
   143
1040
0.039
1070
   172
1070
     1
1070
   271
1070
     0
1070
   279
1070
     0
1070
   288
1070
     1
1002
}
  0
DIMENSION
  5
7BCF
  8
3
  2
*D2
 10
2786.1190920507161
 20
6668.0473459470586
 30
0.0
 11
2641.1190920507161
 21
6749.5069104125878
 31
0.0
 12
296.99063352627121
 22
0.0
 32
0.0
 70
   128
 13
2496.1190920507161
 23
6499.1524204127263
 33
0.0
 14
2786.1190920507161
 24
5839.1524204127263
 34
0.0
1001
ACAD
1000
DSTYLE
1002
{
1070
   288
1070
     1
1070
   172
1070
     1
1070
    75
1070
     1
1070
    40
1040
30.0
1070
   271
1070
     0
1070
   143
1040
0.039
1002
}
  0
DIMENSION
  5
7BF0
  8
3
  2
*D3
 10
2967.3293102383209
 20
5089.1524204127236
 30
0.0
 11
2967.3293102383209
 21
5422.8796853082104
 31
0.0
 70
   128
 13
2786.1190920507161
 23
5839.1524204127263
 33
0.0
 14
2786.1190920507161
 24
5089.1524204127236
 34
0.0
 50
270.0
1001
ACAD
1000
DSTYLE
1002
{
1070
   287
1070
     3
1070
    40
1040
30.0
1070
   143
1040
0.039
1070
   172
1070
     1
1070
   271
1070
     0
1070
   279
1070
     0
1070
   288
1070
     1
1002
}
  0
DIMENSION
  5
7BFD
  8
3
  2
*D4
 10
1716.1190920507161
 20
4695.5621277755708
 30
0.0
 11
2297.644532387817
 21
4695.5621277755708
 31
0.0
 70
   128
 13
2786.1190920507161
 23
5089.1524204127236
 33
0.0
 14
1716.1190920507161
 24
5089.1524204127263
 34
0.0
1001
ACAD
1000
DSTYLE
1002
{
1070
   287
1070
     3
1070
    40
1040
30.0
1070
   143
1040
0.039
1070
   172
1070
     1
1070
   271
1070
     0
1070
   279
1070
     0
1070
   288
1070
     1
1002
}
  0
DIMENSION
  5
7C0B
  8
3
  2
*D5
 10
1496.1190920507161
 20
4695.5621277755708
 30
0.0
 11
1290.4048063364301
 21
4770.5621277755708
 31
0.0
 70
     0
 13
1716.1190920507161
 23
5089.1524204127263
 33
0.0
 14
1496.1190920507161
 24
5789.1524204127236
 34
0.0
1001
ACAD
1000
DSTYLE
1002
{
1070
   287
1070
     3
1070
    40
1040
30.0
1070
   143
1040
0.039
1070
   172
1070
     1
1070
   271
1070
     0
1070
   279
1070
     0
1070
   288
1070
     1
1002
}
  0
DIMENSION
  5
7C24
  8
3
  2
*D6
 10
1162.0920475606949
 20
5789.1524204127236
 30
0.0
 11
1162.092047560694
 21
5422.8796853082104
 31
0.0
 70
   128
 13
1716.1190920507161
 23
5089.1524204127263
 33
0.0
 14
1496.1190920507161
 24
5789.1524204127236
 34
0.0
 50
270.0
1001
ACAD
1000
DSTYLE
1002
{
1070
   287
1070
     3
1070
    40
1040
30.0
1070
   143
1040
0.039
1070
   172
1070
     1
1070
   271
1070
     0
1070
   279
1070
     0
1070
   288
1070
     1
1002
}
  0
DIMENSION
  5
7C3C
  8
3
  2
*D7
 10
1162.092047560694
 20
6499.1524204127236
 30
0.0
 11
1087.0920475606929
 21
6144.1524204127254
 31
0.0
 70
     0
 13
1496.1190920507161
 23
5789.1524204127236
 33
0.0
 14
1496.1190920507149
 24
6499.1524204127236
 34
0.0
 50
270.0
1001
ACAD
1000
DSTYLE
1002
{
1070
   287
1070
     4
1070
    40
1040
30.0
1070
    75
1070
     1
1070
   143
1040
0.039
1070
   172
1070
     1
1070
   271
1070
     0
1070
   279
1070
     1
1070
   288
1070
     1
1002
}
  0
INSERT
  5
7F01
  8
0
  2
YA_N
 10
7177.4506212370316
 20
2719.3491153156788
 30
0.0
  0
LINE
  5
7F03
  8
2
 10
1996.1190920507161
 20
3754.1940761845758
 30
0.0
 11
1996.1190920507161
 21
1947.247683603076
 31
0.0
  0
LINE
  5
7F1A
  8
2
 10
3738.3594302183919
 20
3146.8231348489448
 30
0.0
 11
5356.0538028391638
 21
3146.8231348489448
 31
0.0
  0
LINE
  5
7F1B
  8
2
 10
4967.4860925977246
 20
3860.7710620372268
 30
0.0
 11
4967.4860925977282
 21
1937.4697912130121
 31
0.0
  0
INSERT
  5
7F1C
  8
0
  2
YA_N
 10
6437.8057640702827
 20
2443.3188486133149
 30
0.0
 41
20.0
 42
20.0
 43
20.0
  0
INSERT
  5
7F38
  8
0
  2
YA_N
 10
7134.7159925290107
 20
3016.0028029189998
 30
0.0
 41
20.0
 42
20.0
 43
20.0
  0
INSERT
  5
7F3A
  8
0
  2
YA_N
 10
7248.935517883172
 20
2939.6610930797542
 30
0.0
 41
20.0
 42
20.0
 43
20.0
  0
INSERT
  5
81FD
  8
0
  2
YA_N
 10
7579.2614950330253
 20
2579.7041388295538
 30
0.0
  0
LINE
  5
8200
  8
2
 10
1329.6473002003249
 20
3146.8231348489462
 30
0.0
 11
2754.0226692407518
 21
3146.8231348489462
 31
0.0
  0
ARC
  5
8201
  8
1
 10
1937.1190920507161
 20
3087.8231348489462
 30
0.0
 40
745.0
 50
295.51093861405059
 51
311.84968737612621
  0
ARC
  5
8202
  8
1
 10
2055.1190920507161
 20
3087.8231348489462
 30
0.0
 40
627.0
 50
5.3994573071069922
 51
95.399457307106957
  0
ARC
  5
8203
  8
1
 10
2043.6190920507161
 20
3194.3231348489462
 30
0.0
 40
520.5
 50
95.236006357188302
 51
185.2360063571883
  0
ARC
  5
8204
  8
1
 10
1948.6190920507161
 20
3194.3231348489462
 30
0.0
 40
425.49999999999989
 50
186.40948090824551
 51
189.5371707932178
  0
LINE
  5
8205
  8
1
 10
1451.1190920507161
 20
2256.3231348489462
 30
0.0
 11
1451.119092050717
 21
3166.3231348489462
 31
0.0
  0
LINE
  5
8206
  8
1
 10
1451.1190920507161
 20
2298.8231348489462
 30
0.0
 11
1721.0481294261749
 21
2321.7744907840179
 31
0.0
  0
LINE
  5
8207
  8
1
 10
1451.1190920507161
 20
3123.8231348489462
 30
0.0
 11
1529.0002173560711
 21
3123.8231348489462
 31
0.0
  0
LINE
  5
8208
  8
1
 10
1451.1190920507161
 20
2256.3231348489462
 30
0.0
 11
1491.1190920507161
 21
2256.3231348489462
 31
0.0
  0
LINE
  5
8209
  8
1
 10
1451.119092050717
 20
3166.3231348489462
 30
0.0
 11
1491.1190920507161
 21
3166.3231348489462
 31
0.0
  0
LINE
  5
820A
  8
1
 10
1491.1190920507161
 20
2256.3231348489462
 30
0.0
 11
1491.1190920507181
 21
3166.3231348489462
 31
0.0
  0
LINE
  5
820B
  8
1
 10
1454.1190920507161
 20
2256.3231348489462
 30
0.0
 11
1454.119092050717
 21
3166.3231348489462
 31
0.0
  0
LINE
  5
820C
  8
1
 10
2786.1190920507161
 20
2186.8231348489448
 30
0.0
 11
1496.1190920507161
 21
2186.8231348489462
 31
0.0
1001
ACAD
1000
ASC_BOUNDS
1002
{
1070
    19
1002
}
  0
LINE
  5
820D
  8
1
 10
2796.1190920507161
 20
2286.8231348489462
 30
0.0
 11
1496.1190920507161
 21
2286.8231348489462
 31
0.0
  0
LINE
  5
820E
  8
1
 10
2786.1190920507161
 20
2286.8231348489462
 30
0.0
 11
2786.1190920507161
 21
2186.8231348489462
 31
0.0
  0
LINE
  5
820F
  8
1
 10
2798.119092050717
 20
2326.8231348489462
 30
0.0
 11
2394.1190920507161
 21
2326.8231348489462
 31
0.0
  0
LINE
  5
8210
  8
1
 10
2396.1190920507161
 20
2326.8231348489462
 30
0.0
 11
2396.1190920507161
 21
2286.8231348489462
 31
0.0
  0
LINE
  5
8211
  8
1
 10
1496.1190920507161
 20
2286.8231348489462
 30
0.0
 11
1496.1190920507161
 21
2186.8231348489462
 31
0.0
  0
LINE
  5
8212
  8
1
 10
3912.486092597725
 20
2186.8231348489439
 30
0.0
 11
5322.4860925977246
 21
2186.8231348489462
 31
0.0
1001
ACAD
1000
ASC_BOUNDS
1002
{
1070
    19
1002
}
  0
LINE
  5
8213
  8
1
 10
3912.486092597725
 20
2286.8231348489448
 30
0.0
 11
5322.4860925977282
 21
2286.8231348489448
 31
0.0
  0
POINT
  5
8216
  8
1
 10
1430.901181381694
 20
3146.8231348489462
 30
0.0
  0
POINT
  5
8217
  8
1
 10
1430.901181381694
 20
3146.8231348489462
 30
0.0
  0
INSERT
  5
8218
  8
0
  2
YA_N
 10
6839.6166378662747
 20
2303.67387212719
 30
0.0
 41
20.0
 42
20.0
 43
20.0
  0
LINE
  5
821A
  8
1
 10
2730.5779920507148
 20
2446.5111348489459
 30
0.0
 11
2750.1190920507161
 21
2392.8231348489462
 31
0.0
  0
LINE
  5
821B
  8
1
 10
2461.6722920507159
 20
2446.5441348489462
 30
0.0
 11
2442.1190920507161
 21
2392.8231348489462
 31
0.0
  0
ARC
  5
821C
  8
1
 10
2596.1190920507161
 20
2536.8231348489462
 30
0.0
 40
162.0
 50
285.64190000000002
 51
0.0
  0
ARC
  5
821D
  8
1
 10
2596.1190920507161
 20
2536.8231348489462
 30
0.0
 40
162.0
 50
0.0
 51
254.3600999999999
  0
LINE
  5
821E
  8
2
 10
2596.1190920507161
 20
2765.2718212917398
 30
0.0
 11
2596.1190920507161
 21
2266.3355356911679
 31
0.0
  0
LINE
  5
821F
  8
1
 10
2552.4384920507159
 20
2380.8231348489462
 30
0.0
 11
2639.7997920507169
 21
2380.8231348489462
 31
0.0
  0
LINE
  5
8220
  8
1
 10
2511.1751920507159
 20
2398.8791348489449
 30
0.0
 11
2502.9977920507149
 21
2390.701134848945
 31
0.0
  0
ARC
  5
8221
  8
1
 10
2444.1190920507161
 20
2392.8231348489462
 30
0.0
 40
2.0
 50
90.0
 51
180.0
  0
LINE
  5
8222
  8
1
 10
2442.1190920507161
 20
2376.8231348489462
 30
0.0
 11
2442.1190920507161
 21
2392.8231348489462
 31
0.0
  0
ARC
  5
8223
  8
1
 10
2505.1190920507161
 20
2388.5801348489449
 30
0.0
 40
3.0
 50
135.0
 51
180.0
  0
LINE
  5
8224
  8
1
 10
2502.1190920507161
 20
2376.8231348489462
 30
0.0
 11
2502.1190920507161
 21
2388.5801348489449
 31
0.0
  0
LINE
  5
8225
  8
1
 10
2681.0629920507158
 20
2398.8791348489449
 30
0.0
 11
2689.2404920507161
 21
2390.701134848945
 31
0.0
  0
ARC
  5
8226
  8
1
 10
2687.1190920507161
 20
2388.5801348489449
 30
0.0
 40
3.0
 50
0.0
 51
45.0
  0
LINE
  5
8227
  8
1
 10
2690.1190920507161
 20
2376.8231348489462
 30
0.0
 11
2690.1190920507161
 21
2388.5801348489449
 31
0.0
  0
ARC
  5
8228
  8
1
 10
2748.1190920507161
 20
2392.8231348489462
 30
0.0
 40
2.0
 50
0.0
 51
90.0
  0
LINE
  5
8229
  8
1
 10
2750.1190920507161
 20
2376.8231348489462
 30
0.0
 11
2750.1190920507161
 21
2392.8231348489462
 31
0.0
  0
LINE
  5
822A
  8
2
 10
2408.0086479880438
 20
2536.8231348489462
 30
0.0
 11
2897.4255569154152
 21
2536.8231348489448
 31
0.0
  0
LINE
  5
822B
  8
1
 10
2784.633735316756
 20
2376.8231348489462
 30
0.0
 11
2656.1190920507179
 21
2376.8231348489448
 31
0.0
  0
LINE
  5
822C
  8
1
 10
2394.1190920507179
 20
2326.8231348489462
 30
0.0
 11
2407.3642244359048
 21
2376.8231348489462
 31
0.0
  0
LINE
  5
822D
  8
1
 10
2798.119092050717
 20
2326.8231348489462
 30
0.0
 11
2784.633735316756
 21
2376.8231348489462
 31
0.0
  0
LINE
  5
822E
  8
1
 10
2656.1190920507179
 20
2366.8231348489462
 30
0.0
 11
2536.1190920507161
 21
2366.8231348489462
 31
0.0
  0
LINE
  5
822F
  8
1
 10
2656.1190920507179
 20
2336.8231348489462
 30
0.0
 11
2536.1190920507161
 21
2336.8231348489462
 31
0.0
  0
LINE
  5
8230
  8
1
 10
2656.1190920507179
 20
2376.8231348489448
 30
0.0
 11
2656.1190920507179
 21
2366.8231348489462
 31
0.0
  0
LINE
  5
8231
  8
1
 10
2536.1190920507179
 20
2376.8231348489448
 30
0.0
 11
2536.1190920507179
 21
2366.8231348489462
 31
0.0
  0
LINE
  5
8232
  8
1
 10
2536.1190920507161
 20
2376.8231348489448
 30
0.0
 11
2407.3642244359048
 21
2376.8231348489462
 31
0.0
  0
LINE
  5
8233
  8
1
 10
2536.1190920507179
 20
2336.8231348489462
 30
0.0
 11
2536.1190920507179
 21
2326.8231348489462
 31
0.0
  0
LINE
  5
8234
  8
1
 10
2656.1190920507179
 20
2336.8231348489462
 30
0.0
 11
2656.1190920507179
 21
2326.8231348489462
 31
0.0
  0
INSERT
  5
8235
  8
0
  2
YA_N
 10
7536.5268663250044
 20
2876.3578264328748
 30
0.0
 41
20.0
 42
20.0
 43
20.0
  0
INSERT
  5
8237
  8
0
  2
YA_N
 10
7650.746391679163
 20
2800.0161165936302
 30
0.0
 41
20.0
 42
20.0
 43
20.0
  0
LINE
  5
8239
  8
1
 10
4665.1860925977198
 20
2286.8231348489448
 30
0.0
 11
4665.1860925977271
 21
3732.8231348489462
 31
0.0
  0
LINE
  5
823A
  8
1
 10
4667.4860925977264
 20
2286.8231348489448
 30
0.0
 11
4667.4860925977264
 21
3732.8231348489462
 31
0.0
  0
LINE
  5
823B
  8
1
 10
5269.7860925977257
 20
2286.8231348489448
 30
0.0
 11
5269.7860925977238
 21
3732.8231348489462
 31
0.0
  0
LINE
  5
823C
  8
1
 10
5267.4860925977246
 20
2286.8231348489448
 30
0.0
 11
5267.4860925977246
 21
3732.8231348489462
 31
0.0
  0
LINE
  5
823D
  8
1
 10
2796.1190920507161
 20
2326.8231348489462
 30
0.0
 11
2796.1190920507161
 21
2286.8231348489462
 31
0.0
  0
LINE
  5
823E
  8
1
 10
1496.1190920507161
 20
2091.8231348489462
 30
0.0
 11
1496.1190920507161
 21
1991.823134848946
 31
0.0
  0
LINE
  5
823F
  8
1
 10
2786.1190920507161
 20
1991.8231348489451
 30
0.0
 11
1496.1190920507161
 21
1991.823134848946
 31
0.0
1001
ACAD
1000
ASC_BOUNDS
1002
{
1070
    19
1002
}
  0
LINE
  5
8240
  8
1
 10
2786.1190920507161
 20
2091.8231348489462
 30
0.0
 11
1496.1190920507161
 21
2091.8231348489462
 31
0.0
  0
LINE
  5
8241
  8
1
 10
2786.1190920507161
 20
2091.8231348489462
 30
0.0
 11
2786.1190920507161
 21
1991.823134848946
 31
0.0
  0
CIRCLE
  5
8242
  8
1
 10
1996.1190920507161
 20
3146.8231348489462
 30
0.0
 40
127.0
  0
CIRCLE
  5
8243
  8
1
 10
2596.1190920507179
 20
2536.8231348489462
 30
0.0
 40
110.0
  0
LINE
  5
8244
  8
1
 10
1716.1190920507161
 20
2286.8231348489462
 30
0.0
 11
1716.1190920507161
 21
2186.8231348489462
 31
0.0
  0
LINE
  5
8245
  8
1
 10
1716.1190920507161
 20
2091.8231348489448
 30
0.0
 11
1716.1190920507161
 21
1991.8231348489451
 31
0.0
  0
LINE
  5
8249
  8
1
 10
3912.4860925977268
 20
2091.8231348489439
 30
0.0
 11
5322.4860925977291
 21
2091.823134848943
 31
0.0
  0
LINE
  5
824A
  8
1
 10
3912.4860925977268
 20
1991.823134848943
 30
0.0
 11
5322.4860925977291
 21
1991.8231348489439
 31
0.0
1001
ACAD
1000
ASC_BOUNDS
1002
{
1070
    19
1002
}
  0
LINE
  5
824B
  8
1
 10
3959.486092597725
 20
3066.8231348489448
 30
0.0
 11
3959.4860925977268
 21
2286.8231348489448
 31
0.0
  0
LINE
  5
824C
  8
1
 10
4581.4860925977246
 20
3066.8231348489448
 30
0.0
 11
4581.4860925977273
 21
2286.8231348489448
 31
0.0
  0
LINE
  5
824D
  8
1
 10
3819.486092597725
 20
3273.8231348489448
 30
0.0
 11
3819.486092597725
 21
2426.8231348489448
 31
0.0
  0
LINE
  5
824E
  8
1
 10
3904.486092597725
 20
3273.8231348489448
 30
0.0
 11
3904.486092597725
 21
2426.8231348489448
 31
0.0
  0
LINE
  5
824F
  8
1
 10
3819.4860925977268
 20
3273.8231348489448
 30
0.0
 11
3904.486092597725
 21
3273.8231348489448
 31
0.0
  0
LINE
  5
8250
  8
1
 10
3819.4860925977268
 20
3019.8231348489448
 30
0.0
 11
3904.486092597725
 21
3019.8231348489448
 31
0.0
  0
LINE
  5
8251
  8
2
 10
3735.2284799689728
 20
2536.8231348489462
 30
0.0
 11
3984.8743050644771
 21
2536.8231348489462
 31
0.0
  0
LINE
  5
8252
  8
1
 10
3819.486092597725
 20
2646.8231348489448
 30
0.0
 11
3904.4860925977268
 21
2646.8231348489448
 31
0.0
  0
LINE
  5
8253
  8
1
 10
3819.486092597725
 20
2426.8231348489448
 30
0.0
 11
3904.486092597725
 21
2426.8231348489448
 31
0.0
  0
LINE
  5
8254
  8
1
 10
3939.486092597725
 20
3366.8231348489448
 30
0.0
 11
3939.486092597725
 21
3346.8231348489448
 31
0.0
  0
LINE
  5
8255
  8
1
 10
3779.486092597725
 20
3366.8231348489448
 30
0.0
 11
3779.4860925977268
 21
2316.8231348489448
 31
0.0
  0
LINE
  5
8256
  8
1
 10
3779.486092597725
 20
3366.8231348489448
 30
0.0
 11
3939.486092597725
 21
3366.8231348489448
 31
0.0
  0
LINE
  5
8257
  8
1
 10
3779.4860925977268
 20
2316.8231348489448
 30
0.0
 11
3939.4860925977268
 21
2316.8231348489448
 31
0.0
  0
LINE
  5
8258
  8
1
 10
3939.486092597725
 20
2336.8231348489462
 30
0.0
 11
3939.486092597725
 21
2316.8231348489448
 31
0.0
  0
LINE
  5
8259
  8
1
 10
4662.4860925977227
 20
2286.8231348489448
 30
0.0
 11
4662.4860925977418
 21
2186.8231348489462
 31
0.0
  0
LINE
  5
825A
  8
1
 10
4662.4860925977273
 20
2091.8231348489439
 30
0.0
 11
4662.4860925977437
 21
1991.8231348489439
 31
0.0
  0
LINE
  5
825B
  8
1
 10
5271.4860925977282
 20
2706.8231348489439
 30
0.0
 11
5271.4860925977282
 21
3586.8231348489448
 31
0.0
  0
LINE
  5
825C
  8
1
 10
3959.4860925977268
 20
3066.8231348489448
 30
0.0
 11
4581.4860925977246
 21
3066.8231348489448
 31
0.0
  0
LINE
  5
825D
  8
1
 10
3904.486092597725
 20
3179.3231348489448
 30
0.0
 11
4665.1860925977253
 21
3179.3231348489448
 31
0.0
  0
LINE
  5
825E
  8
1
 10
3904.486092597725
 20
3114.3231348489448
 30
0.0
 11
4665.1860925977253
 21
3114.3231348489439
 31
0.0
  0
LINE
  5
825F
  8
1
 10
1996.1190920507161
 20
3019.8231348489462
 30
0.0
 11
1996.1190920507161
 21
3019.8231348489462
 31
0.0
  0
ARC
  5
8260
  8
1
 10
1996.1190920507161
 20
3146.8231348489462
 30
0.0
 40
220.0
 50
44.526491941265022
 51
224.52649194126511
  0
ARC
  5
8261
  8
1
 10
2596.1190920507161
 20
2536.8231348489462
 30
0.0
 40
220.0
 50
224.52649194126511
 51
44.526491941265071
  0
LINE
  5
8262
  8
1
 10
2152.9628763755281
 20
3301.095709594661
 30
0.0
 11
2752.9628763755259
 21
2691.095709594661
 31
0.0
  0
LINE
  5
8263
  8
1
 10
2088.412288951356
 20
3234.0639842594119
 30
0.0
 11
2676.0580814922182
 21
2612.386075283207
 31
0.0
  0
LINE
  5
8264
  8
1
 10
1839.2753077259049
 20
2992.5505601032301
 30
0.0
 11
2439.2753077259049
 21
2382.5505601032301
 31
0.0
  0
LINE
  5
8265
  8
1
 10
1907.3647559614401
 20
3055.9844436135932
 30
0.0
 11
2519.2452576426822
 21
2458.143953463994
 31
0.0
  0
POINT
  5
8266
  8
1
 10
1496.1190920507161
 20
1991.823134848946
 30
0.0
  0
LINE
  5
8267
  8
1
 10
4665.1860925977271
 20
3732.8231348489462
 30
0.0
 11
4667.4860925977264
 21
3732.8231348489462
 31
0.0
  0
LINE
  5
8268
  8
1
 10
5267.4860925977246
 20
3732.8231348489462
 30
0.0
 11
5269.7860925977238
 21
3732.8231348489462
 31
0.0
  0
LINE
  5
8269
  8
1
 10
4667.4860925977264
 20
3712.5231348489451
 30
0.0
 11
5267.4860925977246
 21
3712.523134848946
 31
0.0
  0
POINT
  5
826A
  8
1
 10
3779.486092597725
 20
3366.8231348489448
 30
0.0
  0
ARC
  5
826B
  8
1
 10
1937.1190920507161
 20
3087.8231348489462
 30
0.0
 40
745.0
 50
328.35128759245549
 51
4.5422746054242893
  0
LINE
  5
826C
  8
1
 10
5322.4860925977282
 20
2286.8231348489448
 30
0.0
 11
5322.4860925977282
 21
2186.8231348489462
 31
0.0
  0
LINE
  5
826D
  8
1
 10
5322.4860925977291
 20
2091.823134848943
 30
0.0
 11
5322.4860925977291
 21
1991.823134848943
 31
0.0
  0
LINE
  5
826E
  8
1
 10
3912.4860925977268
 20
2286.8231348489448
 30
0.0
 11
3912.4860925977268
 21
2186.8231348489439
 31
0.0
  0
LINE
  5
826F
  8
1
 10
3912.4860925977268
 20
2091.8231348489439
 30
0.0
 11
3912.4860925977291
 21
1991.8231348489419
 31
0.0
  0
DIMENSION
  5
82C9
  8
3
  2
*D10
 10
1996.1190920507161
 20
1747.2482764830229
 30
0.0
 11
1759.0467166729679
 21
1747.2482764830229
 31
0.0
 70
   128
 13
1496.1190920507161
 23
1991.823134848946
 33
0.0
 14
1996.1190920507161
 24
1947.247683603076
 34
0.0
1001
ACAD
1000
DSTYLE
1002
{
1070
   287
1070
     3
1070
    40
1040
30.0
1070
   143
1040
0.039
1070
   172
1070
     1
1070
   271
1070
     0
1070
   279
1070
     0
1070
   288
1070
     1
1002
}
  0
DIMENSION
  5
82E0
  8
3
  2
*D11
 10
2786.1190920507161
 20
1747.2482764830229
 30
0.0
 11
2391.1190920507161
 21
1822.248276483024
 31
0.0
 70
     0
 13
1996.1190920507161
 23
1947.247683603076
 33
0.0
 14
2786.1190920507161
 24
1991.8231348489451
 34
0.0
1001
ACAD
1000
DSTYLE
1002
{
1070
   287
1070
     4
1070
    40
1040
30.0
1070
    75
1070
     1
1070
   143
1040
0.039
1070
   172
1070
     1
1070
   271
1070
     0
1070
   279
1070
     1
1070
   288
1070
     1
1002
}
  0
DIMENSION
  5
82ED
  8
3
  2
*D12
 10
4967.4860925977282
 20
1738.675394433702
 30
0.0
 11
4426.5872140579322
 21
1738.675394433702
 31
0.0
 70
   128
 13
3912.4860925977291
 23
1991.823134848943
 33
0.0
 14
4967.4860925977282
 24
1937.4697912130121
 34
0.0
1001
ACAD
1000
DSTYLE
1002
{
1070
   287
1070
     3
1070
    40
1040
30.0
1070
   143
1040
0.039
1070
   172
1070
     1
1070
   271
1070
     0
1070
   279
1070
     0
1070
   288
1070
     1
1002
}
  0
DIMENSION
  5
82FB
  8
3
  2
*D13
 10
5322.4860925977291
 20
1738.675394433702
 30
0.0
 11
5144.9860925977282
 21
1806.4665603972551
 31
0.0
 12
0.0
 22
20.0
 32
0.0
 70
   128
 13
4967.4860925977282
 23
1937.4697912130121
 33
0.0
 14
5322.4860925977291
 24
1991.8231348489439
 34
0.0
1001
ACAD
1000
DSTYLE
1002
{
1070
   288
1070
     1
1070
   172
1070
     1
1070
    75
1070
     1
1070
    40
1040
30.0
1070
   271
1070
     0
1070
   143
1040
0.039
1002
}
  0
DIMENSION
  5
831C
  8
3
  2
*D14
 10
1996.1190920507161
 20
3874.8161292982441
 30
0.0
 11
1721.9530592354531
 21
3874.8161292982441
 31
0.0
 70
   128
 13
1451.119092050717
 23
3166.3231348489462
 33
0.0
 14
1996.1190920507161
 24
3754.1940761845758
 34
0.0
1001
ACAD
1000
DSTYLE
1002
{
1070
   287
1070
     3
1070
    40
1040
30.0
1070
   143
1040
0.039
1070
   172
1070
     1
1070
   271
1070
     0
1070
   279
1070
     0
1070
   288
1070
     1
1002
}
  0
DIMENSION
  5
8328
  8
3
  2
*D15
 10
2682.1190920507161
 20
3874.8161292982441
 30
0.0
 11
2339.1190920507161
 21
3949.8161292982431
 31
0.0
 70
     0
 13
1996.1190920507161
 23
3754.1940761845758
 33
0.0
 14
2682.1190920507161
 24
3087.8231348489462
 34
0.0
1001
ACAD
1000
DSTYLE
1002
{
1070
   287
1070
     4
1070
    40
1040
30.0
1070
    75
1070
     1
1070
   143
1040
0.039
1070
   172
1070
     1
1070
   271
1070
     0
1070
   279
1070
     1
1070
   288
1070
     1
1002
}
  0
DIMENSION
  5
8335
  8
3
  2
*D16
 10
836.73555370265649
 20
3146.8231348489471
 30
0.0
 11
836.73555370265592
 21
3451.5994774774622
 31
0.0
 70
   128
 13
2055.1190920507161
 23
3714.8231348489462
 33
0.0
 14
1329.6473002003249
 24
3146.8231348489462
 34
0.0
 50
90.0
1001
ACAD
1000
DSTYLE
1002
{
1070
   287
1070
     3
1070
    40
1040
30.0
1070
   143
1040
0.039
1070
   172
1070
     1
1070
   271
1070
     0
1070
   279
1070
     0
1070
   288
1070
     1
1002
}
  0
DIMENSION
  5
835A
  8
3
  2
*D17
 10
836.73555370265592
 20
2186.8231348489462
 30
0.0
 11
761.73555370265569
 21
2666.8231348489471
 31
0.0
 70
     0
 13
1329.6473002003249
 23
3146.8231348489462
 33
0.0
 14
1496.1190920507161
 24
2186.8231348489462
 34
0.0
 50
90.0
1001
ACAD
1000
DSTYLE
1002
{
1070
   287
1070
     4
1070
    40
1040
30.0
1070
    75
1070
     1
1070
   143
1040
0.039
1070
   172
1070
     1
1070
   271
1070
     0
1070
   279
1070
     1
1070
   288
1070
     1
1002
}
  0
DIMENSION
  5
836C
  8
3
  2
*D18
 10
836.73555370265592
 20
2091.8231348489462
 30
0.0
 11
693.16412513122737
 21
2139.3231348489462
 31
0.0
 70
     0
  1
(<>)
 13
1496.1190920507161
 23
2186.8231348489462
 33
0.0
 14
1496.1190920507161
 24
2091.8231348489462
 34
0.0
 50
90.0
1001
ACAD
1000
DSTYLE
1002
{
1070
   288
1070
     1
1070
   172
1070
     1
1070
    75
1070
     1
1070
    40
1040
30.0
1070
   271
1070
     0
1070
     7
1000
_DOT
1070
   143
1040
0.039
1002
}
  0
DIMENSION
  5
837C
  8
3
  2
*D19
 10
836.73555370265592
 20
1991.823134848946
 30
0.0
 11
761.73555370265569
 21
1734.6802777060891
 31
0.0
 70
     0
 13
1496.1190920507161
 23
2091.8231348489462
 33
0.0
 14
1496.1190920507161
 24
1991.823134848946
 34
0.0
 50
90.0
1001
ACAD
1000
DSTYLE
1002
{
1070
   287
1070
     3
1070
    40
1040
30.0
1070
   143
1040
0.039
1070
   172
1070
     1
1070
   271
1070
     0
1070
   279
1070
     0
1070
   288
1070
     1
1070
     6
1000
DOT
1002
}
  0
DIMENSION
  5
83D3
  8
3
  2
*D20
 10
1038.4213907710471
 20
2298.8231348489462
 30
0.0
 11
1038.4213907710471
 21
2696.0039043645338
 31
0.0
 70
   128
 13
1329.6473002003249
 23
3146.8231348489462
 33
0.0
 14
1451.1190920507161
 24
2298.8231348489462
 34
0.0
 50
90.0
1001
ACAD
1000
DSTYLE
1002
{
1070
   287
1070
     3
1070
    40
1040
30.0
1070
   143
1040
0.039
1070
   172
1070
     1
1070
   271
1070
     0
1070
   279
1070
     0
1070
   288
1070
     1
1002
}
  0
DIMENSION
  5
8419
  8
3
  2
*D21
 10
1232.8123683826159
 20
2298.8231348489462
 30
0.0
 11
1232.8123683826159
 21
2748.2018903463099
 31
0.0
 70
   128
 13
1451.1190920507161
 23
3123.8231348489462
 33
0.0
 14
1451.1190920507161
 24
2298.8231348489462
 34
0.0
 50
90.0
1001
ACAD
1000
DSTYLE
1002
{
1070
   287
1070
     3
1070
    40
1040
30.0
1070
   143
1040
0.039
1070
   172
1070
     1
1070
   271
1070
     0
1070
   279
1070
     0
1070
   288
1070
     1
1002
}
  0
DIMENSION
  5
8426
  8
3
  2
*D22
 10
574.56439001486103
 20
1991.823134848946
 30
0.0
 11
574.56439001486058
 21
2725.1598589938621
 31
0.0
 70
   128
 13
2055.1190920507161
 23
3714.8231348489462
 33
0.0
 14
1496.1190920507161
 24
1991.823134848946
 34
0.0
 50
90.0
1001
ACAD
1000
DSTYLE
1002
{
1070
   287
1070
     3
1070
    40
1040
30.0
1070
   143
1040
0.039
1070
   172
1070
     1
1070
   271
1070
     0
1070
   279
1070
     0
1070
   288
1070
     1
1002
}
  0
DIMENSION
  5
8435
  8
3
  2
*D23
 10
5534.1428272721541
 20
2746.8231348489448
 30
0.0
 11
5534.1428272721541
 21
3137.57044458768
 31
0.0
 70
   128
 13
5269.7860925977238
 23
3546.8231348489462
 33
0.0
 14
5269.7860925977257
 24
2746.8231348489448
 34
0.0
 50
90.0
1001
ACAD
1000
DSTYLE
1002
{
1070
   287
1070
     3
1070
     3
1000
φ<>
1070
    40
1040
30.0
1070
   143
1040
0.039
1070
   172
1070
     1
1070
   271
1070
     0
1070
   279
1070
     0
1070
   288
1070
     1
1002
}
  0
DIMENSION
  5
844F
  8
3
  2
*D24
 10
5267.4860925977246
 20
3852.1499836953799
 30
0.0
 11
4967.0378654046663
 21
3852.1499836953799
 31
0.0
 70
   128
 13
4667.4860925977264
 23
3712.5231348489451
 33
0.0
 14
5267.4860925977246
 24
3712.523134848946
 34
0.0
1001
ACAD
1000
DSTYLE
1002
{
1070
   287
1070
     3
1070
    40
1040
30.0
1070
   143
1040
0.039
1070
   172
1070
     1
1070
   271
1070
     0
1070
   279
1070
     0
1070
   288
1070
     1
1002
}
  0
DIMENSION
  5
845E
  8
3
  2
*D25
 10
4967.4860925977246
 20
4066.599953946748
 30
0.0
 11
5119.4860925977273
 21
4136.0972975134819
 31
0.0
 70
   128
 13
5271.4860925977282
 23
3586.8231348489448
 33
0.0
 14
4967.4860925977246
 24
4014.4833803428191
 34
0.0
1001
ACAD
1000
DSTYLE
1002
{
1070
   288
1070
     1
1070
   172
1070
     1
1070
    40
1040
30.0
1070
   271
1070
     0
1070
   143
1040
0.039
1002
}
  0
DIMENSION
  5
8480
  8
3
  2
*D26
 10
3779.486092597725
 20
4066.599953946748
 30
0.0
 11
4373.4860925977237
 21
4216.5999539467484
 31
0.0
 70
     0
  1
MAX\P1240
 13
4967.4860925977246
 23
4014.4833803428191
 33
0.0
 14
3779.486092597725
 24
3366.8231348489448
 34
0.0
1001
ACAD
1000
DSTYLE
1002
{
1070
   287
1070
     4
1070
    40
1040
30.0
1070
    75
1070
     1
1070
   143
1040
0.039
1070
   172
1070
     1
1070
   271
1070
     0
1070
   279
1070
     1
1070
   288
1070
     1
1002
}
  0
DIMENSION
  5
848D
  8
3
  2
*D27
 10
2816.1190920507152
 20
4083.974274384298
 30
0.0
 11
2224.1906912841068
 21
4083.974274384298
 31
0.0
 70
   128
 13
1451.119092050717
 23
3166.3231348489462
 33
0.0
 14
2816.1190920507152
 24
2536.8231348489462
 34
0.0
1001
ACAD
1000
DSTYLE
1002
{
1070
   287
1070
     3
1070
    40
1040
30.0
1070
   143
1040
0.039
1070
   172
1070
     1
1070
   271
1070
     0
1070
   279
1070
     0
1070
   288
1070
     1
1002
}
  0
LINE
  5
84DA
  8
1
 10
2682.1190920507161
 20
6444.1524204127199
 30
0.0
 11
2682.1190920507161
 21
5844.152420412719
 31
0.0
  0
LINE
  5
84DB
  8
1
 10
1451.1190920507161
 20
6484.1524204127254
 30
0.0
 11
1451.1190920507149
 21
5804.1524204127227
 31
0.0
  0
LINE
  5
84DC
  8
1
 10
1491.1190920507149
 20
6484.1524204127254
 30
0.0
 11
1491.1190920507149
 21
5804.1524204127227
 31
0.0
  0
LINE
  5
84DD
  8
1
 10
1451.1190920507161
 20
6484.1524204127254
 30
0.0
 11
1491.1190920507149
 21
6484.1524204127254
 31
0.0
  0
LINE
  5
84DE
  8
1
 10
1451.1190920507149
 20
5804.1524204127227
 30
0.0
 11
1491.1190920507149
 21
5804.1524204127227
 31
0.0
  0
LINE
  5
8504
  8
1
 10
3970.4898009429812
 20
2374.8231348489448
 30
0.0
 11
3970.4898009429812
 21
2696.8231348489448
 31
0.0
  0
LINE
  5
8505
  8
1
 10
4444.6115207614012
 20
2696.8231348489448
 30
0.0
 11
4444.6115207614012
 21
2374.8231348489448
 31
0.0
  0
LINE
  5
8507
  8
1
 10
3841.6115207604098
 20
2557.823134848943
 30
0.0
 11
3951.611520756539
 21
2557.823134848943
 31
0.0
  0
LINE
  5
8508
  8
1
 10
3841.6115207604098
 20
2515.8231348489448
 30
0.0
 11
3951.611520756539
 21
2515.8231348489439
 31
0.0
  0
LINE
  5
850A
  8
1
 10
3841.6115207604098
 20
2515.8231348489448
 30
0.0
 11
3841.6115207604098
 21
2557.8231348489448
 31
0.0
  0
LINE
  5
850C
  8
1
 10
3970.4898009429812
 20
2696.8231348489448
 30
0.0
 11
4444.6115207614012
 21
2696.8231348489448
 31
0.0
  0
LINE
  5
850D
  8
1
 10
3959.6115207614012
 20
2595.0405838315428
 30
0.0
 11
3959.6115207614012
 21
2478.6056858663478
 31
0.0
  0
LINE
  5
850E
  8
1
 10
3951.611520756539
 20
2567.244443794792
 30
0.0
 11
3951.611520756539
 21
2508.4018259030991
 31
0.0
  0
LINE
  5
850F
  8
1
 10
3951.611520756539
 20
2567.244443794792
 30
0.0
 11
3959.6115207614012
 21
2567.2444437947902
 31
0.0
  0
LINE
  5
8510
  8
1
 10
3970.4898009429812
 20
2595.0405838315428
 30
0.0
 11
3959.6115207614012
 21
2595.0405838315428
 31
0.0
  0
LINE
  5
8511
  8
1
 10
3951.611520756539
 20
2508.4018259030991
 30
0.0
 11
3959.6115207614012
 21
2508.4018259030991
 31
0.0
  0
LINE
  5
8512
  8
1
 10
3970.4898009429812
 20
2478.6056858663478
 30
0.0
 11
3959.6115207614012
 21
2478.6056858663478
 31
0.0
  0
LINE
  5
8515
  8
1
 10
4444.6115207614012
 20
2374.8231348489448
 30
0.0
 11
3970.4898009429812
 21
2374.8231348489448
 31
0.0
  0
LINE
  5
8516
  8
1
 10
4039.0809289327108
 20
2374.8231348489448
 30
0.0
 11
4281.3279688931316
 21
2374.8231348489448
 31
0.0
  0
LINE
  5
8576
  8
1
 10
4054.968535745385
 20
2326.8231348489462
 30
0.0
 11
4374.642269464428
 21
2326.8231348489462
 31
0.0
  0
LINE
  5
857A
  8
1
 10
4053.7379639819778
 20
2374.8231348489448
 30
0.0
 11
4053.7379639819769
 21
2286.8231348489448
 31
0.0
  0
LINE
  5
857B
  8
1
 10
4374.642269464428
 20
2374.8231348489448
 30
0.0
 11
4374.642269464428
 21
2286.8231348489448
 31
0.0
  0
LINE
  5
85AE
  8
1
 10
1826.1190920507161
 20
3066.8231348489448
 30
0.0
 11
2166.1190920507152
 21
3066.8231348489448
 31
0.0
  0
LINE
  5
85B0
  8
1
 10
1826.1190920507161
 20
3066.8231348489448
 30
0.0
 11
1716.1190920507161
 21
2286.8231348489462
 31
0.0
  0
LINE
  5
85B1
  8
1
 10
2166.1190920507161
 20
3066.8231348489448
 30
0.0
 11
2276.1190920507161
 21
2286.8231348489462
 31
0.0
  0
LINE
  5
85B2
  8
1
 10
1826.1190920507161
 20
5758.1524204127218
 30
0.0
 11
1826.1190920507161
 21
5136.1524204127218
 31
0.0
  0
LINE
  5
85B3
  8
1
 10
2166.1190920507161
 20
5758.1524204127218
 30
0.0
 11
2166.1190920507161
 21
5136.1524204127227
 31
0.0
  0
LINE
  5
85B4
  8
1
 10
2816.1190920507152
 20
5116.1524204127236
 30
0.0
 11
2796.1190920507161
 21
5116.1524204127236
 31
0.0
  0
ENDSEC
  0
EOF
