  0
SECTION
  2
HEADER
  9
$ACADVER
  1
AC1009
  9
$INSBASE
 10
0.0
 20
0.0
 30
0.0
  9
$EXTMIN
 10
0.0
 20
0.0
 30
0.0
  9
$EXTMAX
 10
6300.0
 20
8850.0
 30
0.0
  9
$LIMMIN
 10
0.0
 20
0.0
  9
$LIMMAX
 10
297.0
 20
210.0
  9
$ORTHOMODE
 70
     0
  9
$REGENMODE
 70
     1
  9
$FILLMODE
 70
     0
  9
$QTEXTMODE
 70
     0
  9
$MIRRTEXT
 70
     1
  9
$DRAGMODE
 70
     2
  9
$LTSCALE
 40
100.0
  9
$OSMODE
 70
    37
  9
$ATTMODE
 70
     1
  9
$TEXTSIZE
 40
180.0
  9
$TRACEWID
 40
0.05
  9
$TEXTSTYLE
  7
STANDARD
  9
$CLAYER
  8
1
  9
$CELTYPE
  6
BYLAYER
  9
$CECOLOR
 62
   256
  9
$DIMSCALE
 40
30.0
  9
$DIMASZ
 40
2.0
  9
$DIMEXO
 40
0.5
  9
$DIMDLI
 40
10.0
  9
$DIMRND
 40
0.0
  9
$DIMDLE
 40
0.0
  9
$DIMEXE
 40
1.0
  9
$DIMTP
 40
1.0
  9
$DIMTM
 40
1.0
  9
$DIMTXT
 40
3.0
  9
$DIMCEN
 40
0.0
  9
$DIMTSZ
 40
0.0
  9
$DIMTOL
 70
     0
  9
$DIMLIM
 70
     0
  9
$DIMTIH
 70
     0
  9
$DIMTOH
 70
     0
  9
$DIMSE1
 70
     0
  9
$DIMSE2
 70
     0
  9
$DIMTAD
 70
     1
  9
$DIMZIN
 70
     8
  9
$DIMBLK
  1

  9
$DIMASO
 70
     1
  9
$DIMSHO
 70
     1
  9
$DIMPOST
  1

  9
$DIMAPOST
  1

  9
$DIMALT
 70
     0
  9
$DIMALTD
 70
     2
  9
$DIMALTF
 40
0.039
  9
$DIMLFAC
 40
1.0
  9
$DIMTOFL
 70
     1
  9
$DIMTVP
 40
0.0
  9
$DIMTIX
 70
     0
  9
$DIMSOXD
 70
     0
  9
$DIMSAH
 70
     1
  9
$DIMBLK1
  1
OPEN
  9
$DIMBLK2
  1
OPEN
  9
$DIMSTYLE
  2
IGA
  9
$DIMCLRD
 70
     0
  9
$DIMCLRE
 70
     0
  9
$DIMCLRT
 70
     0
  9
$DIMTFAC
 40
10.0
  9
$DIMGAP
 40
1.0
  9
$LUNITS
 70
     2
  9
$LUPREC
 70
     3
  9
$SKETCHINC
 40
0.1
  9
$FILLETRAD
 40
50.0
  9
$AUNITS
 70
     0
  9
$AUPREC
 70
     0
  9
$MENU
  1
acad
  9
$ELEVATION
 40
0.0
  9
$PELEVATION
 40
0.0
  9
$THICKNESS
 40
0.0
  9
$LIMCHECK
 70
     0
  9
$BLIPMODE
 70
     0
  9
$CHAMFERA
 40
0.0
  9
$CHAMFERB
 40
0.0
  9
$SKPOLY
 70
     0
  9
$TDCREATE
 40
2452676.6653555548
  9
$TDUPDATE
 40
2454953.6440982982
  9
$TDINDWG
 40
0.090981956
  9
$TDUSRTIMER
 40
0.090981956
  9
$USRTIMER
 70
     1
  9
$ANGBASE
 50
0.0
  9
$ANGDIR
 70
     0
  9
$PDMODE
 70
     0
  9
$PDSIZE
 40
0.0
  9
$PLINEWID
 40
0.0
  9
$COORDS
 70
     1
  9
$SPLFRAME
 70
     0
  9
$SPLINETYPE
 70
     6
  9
$SPLINESEGS
 70
     8
  9
$ATTDIA
 70
     0
  9
$ATTREQ
 70
     1
  9
$HANDLING
 70
 10241
  9
$HANDSEED
  5
846C
  9
$SURFTAB1
 70
     6
  9
$SURFTAB2
 70
     6
  9
$SURFTYPE
 70
     6
  9
$SURFU
 70
     6
  9
$SURFV
 70
     6
  9
$UCSNAME
  2

  9
$UCSORG
 10
0.0
 20
0.0
 30
0.0
  9
$UCSXDIR
 10
1.0
 20
0.0
 30
0.0
  9
$UCSYDIR
 10
0.0
 20
1.0
 30
0.0
  9
$PUCSNAME
  2

  9
$PUCSORG
 10
0.0
 20
0.0
 30
0.0
  9
$PUCSXDIR
 10
1.0
 20
0.0
 30
0.0
  9
$PUCSYDIR
 10
0.0
 20
1.0
 30
0.0
  9
$USERI1
 70
     0
  9
$USERI2
 70
     0
  9
$USERI3
 70
     0
  9
$USERI4
 70
     0
  9
$USERI5
 70
     0
  9
$USERR1
 40
0.0
  9
$USERR2
 40
0.0
  9
$USERR3
 40
0.0
  9
$USERR4
 40
0.0
  9
$USERR5
 40
0.0
  9
$WORLDVIEW
 70
     1
  9
$SHADEDGE
 70
     3
  9
$SHADEDIF
 70
    70
  9
$TILEMODE
 70
     1
  9
$MAXACTVP
 70
    16
  9
$PLIMCHECK
 70
     0
  9
$PEXTMIN
 10
1.0000000000000000E+020
 20
1.0000000000000000E+020
 30
1.0000000000000000E+020
  9
$PEXTMAX
 10
-1.0000000000000000E+020
 20
-1.0000000000000000E+020
 30
-1.0000000000000000E+020
  9
$PLIMMIN
 10
0.0
 20
0.0
  9
$PLIMMAX
 10
12.0
 20
9.0
  9
$UNITMODE
 70
     0
  9
$VISRETAIN
 70
     0
  9
$PLINEGEN
 70
     0
  9
$PSLTSCALE
 70
     1
  0
ENDSEC
  0
SECTION
  2
TABLES
  0
TABLE
  2
VPORT
 70
     2
  0
VPORT
  2
*ACTIVE
 70
     0
 10
0.0
 20
0.0
 11
1.0
 21
1.0
 12
5867.4028923944552
 22
921.77019453506716
 13
0.0
 23
0.0
 14
10.0
 24
10.0
 15
10.0
 25
10.0
 16
0.0
 26
0.0
 36
1.0
 17
0.0
 27
0.0
 37
0.0
 40
2581.486402232154
 41
3.1666666666666661
 42
50.0
 43
0.0
 44
0.0
 50
0.0
 51
0.0
 71
     0
 72
   100
 73
     1
 74
     0
 75
     0
 76
     0
 77
     0
 78
     0
  0
ENDTAB
  0
TABLE
  2
LTYPE
 70
     2
  0
LTYPE
  2
CONTINUOUS
 70
     0
  3
Solid line
 72
    65
 73
     0
 40
0.0
  0
LTYPE
  2
CENTER
 70
     0
  3
____ _ ____ _ ____ _ ____ _ ____ _ ____ _ ____ 
 72
    65
 73
     4
 40
2.0
 49
1.25
 49
-0.25
 49
0.25
 49
-0.25
  0
ENDTAB
  0
TABLE
  2
LAYER
 70
     6
  0
LAYER
  2
0
 70
     0
 62
     7
  6
CONTINUOUS
  0
LAYER
  2
3
 70
     0
 62
     2
  6
CONTINUOUS
  0
LAYER
  2
2
 70
     0
 62
     3
  6
CENTER
  0
LAYER
  2
1
 70
     0
 62
     4
  6
CONTINUOUS
  0
LAYER
  2
4
 70
     0
 62
     7
  6
CONTINUOUS
  0
LAYER
  2
DEFPOINTS
 70
     0
 62
     7
  6
CONTINUOUS
  0
ENDTAB
  0
TABLE
  2
STYLE
 70
     1
  0
STYLE
  2
STANDARD
 70
     0
 40
0.0
 41
1.0
 50
0.0
 71
     0
 42
180.0
  3
simplex.shx
  4
extfont.shx
  0
ENDTAB
  0
TABLE
  2
VIEW
 70
     0
  0
ENDTAB
  0
TABLE
  2
UCS
 70
     0
  0
ENDTAB
  0
TABLE
  2
APPID
 70
     1
  0
APPID
  2
ACAD
 70
     0
  0
ENDTAB
  0
TABLE
  2
DIMSTYLE
 70
     1
  0
DIMSTYLE
  2
IGA
 70
     0
  3

  4

  5

  6
OPEN
  7
OPEN
 40
2.0
 41
2.0
 42
0.5
 43
10.0
 44
1.0
 45
0.0
 46
0.0
 47
1.0
 48
1.0
140
3.0
141
0.0
142
0.0
143
0.03937
144
1.0
145
0.0
146
10.0
147
1.0
 71
     0
 72
     0
 73
     0
 74
     0
 75
     0
 76
     0
 77
     1
 78
     8
170
     0
171
     2
172
     0
173
     1
174
     0
175
     0
176
     0
177
     0
178
     0
  0
ENDTAB
  0
ENDSEC
  0
SECTION
  2
BLOCKS
  0
BLOCK
  8
0
  2
$MODEL_SPACE
 70
     0
 10
0.0
 20
0.0
 30
0.0
  3
$MODEL_SPACE
  1

  0
ENDBLK
  5
1B
  8
0
  0
BLOCK
 67
     1
  8
0
  2
$PAPER_SPACE
 70
     0
 10
0.0
 20
0.0
 30
0.0
  3
$PAPER_SPACE
  1

  0
ENDBLK
  5
18
 67
     1
  8
0
  0
BLOCK
  8
0
  2
_OPEN
 70
     0
 10
0.0
 20
0.0
 30
0.0
  3
_OPEN
  1

  0
LINE
  5
7B80
  8
0
  6
BYBLOCK
 62
     0
 10
-1.0
 20
0.1666666666666666
 30
0.0
 11
0.0
 21
0.0
 31
0.0
  0
LINE
  5
7B81
  8
0
  6
BYBLOCK
 62
     0
 10
0.0
 20
0.0
 30
0.0
 11
-1.0
 21
-0.1666666666666666
 31
0.0
  0
LINE
  5
7B82
  8
0
  6
BYBLOCK
 62
     0
 10
0.0
 20
0.0
 30
0.0
 11
-1.0
 21
0.0
 31
0.0
  0
ENDBLK
  5
7B83
  8
0
  0
BLOCK
  8
0
  2
*D1
 70
     1
 10
0.0
 20
0.0
 30
0.0
  3
*D1
  1

  0
LINE
  5
83A2
  8
3
 62
     0
 10
1199.1284585244441
 20
6391.9630737144371
 30
0.0
 11
1199.1284585244441
 21
6575.8579992487721
 31
0.0
  0
LINE
  5
83A3
  8
3
 62
     0
 10
2199.1284585244439
 20
6391.963073714438
 30
0.0
 11
2199.1284585244439
 21
6575.8579992487721
 31
0.0
  0
LINE
  5
83A4
  8
3
 62
     0
 10
1259.1284585244441
 20
6545.857999248773
 30
0.0
 11
2139.1284585244439
 21
6545.857999248773
 31
0.0
  0
INSERT
  5
83A5
  8
3
 62
     0
  2
_OPEN
 10
1199.1284585244441
 20
6545.857999248773
 30
0.0
 41
60.0
 42
60.0
 43
60.0
 50
180.0
  0
INSERT
  5
83A6
  8
3
 62
     0
  2
_OPEN
 10
2199.1284585244439
 20
6545.857999248773
 30
0.0
 41
60.0
 42
60.0
 43
60.0
  0
TEXT
  8
3
  40
90
  5
8457
  62
0
  72
0
  71
0
 10
1517.84
 20
6461.56
 30
0.000000
  1
1000
  0
POINT
  5
83A8
  8
DEFPOINTS
 62
     0
 10
1199.1284585244441
 20
6376.963073714438
 30
0.0
  0
POINT
  5
83A9
  8
DEFPOINTS
 62
     0
 10
2199.1284585244439
 20
6376.963073714438
 30
0.0
  0
POINT
  5
83AA
  8
DEFPOINTS
 62
     0
 10
2199.1284585244439
 20
6545.857999248773
 30
0.0
  0
ENDBLK
  5
8235
  8
0
  0
BLOCK
  8
0
  2
*D2
 70
     1
 10
0.0
 20
0.0
 30
0.0
  3
*D2
  1

  0
LINE
  5
8200
  8
0
  6
BYBLOCK
 62
     0
 10
2489.1284585244448
 20
5854.1524204127254
 30
0.0
 11
2489.1284585244448
 21
6698.0473459470604
 31
0.0
  0
LINE
  5
8201
  8
0
  6
BYBLOCK
 62
     0
 10
2259.1284585244448
 20
6668.0473459470586
 30
0.0
 11
2429.1284585244448
 21
6668.0473459470586
 31
0.0
  0
TEXT
  5
8202
  8
1
 62
     0
 10
2228.414172810159
 20
6704.5069104125869
 30
0.0
 40
90.0
  1
290
  0
INSERT
  5
8203
  8
0
  6
BYBLOCK
 62
     0
  2
_OPEN
 10
2199.1284585244439
 20
6668.0473459470586
 30
0.0
 41
60.0
 42
60.0
 43
60.0
 50
180.0
  0
INSERT
  5
8204
  8
0
  6
BYBLOCK
 62
     0
  2
_OPEN
 10
2489.1284585244448
 20
6668.0473459470586
 30
0.0
 41
60.0
 42
60.0
 43
60.0
  0
POINT
  5
8205
  8
DEFPOINTS
  6
BYBLOCK
 62
     0
 10
2199.1284585244439
 20
6499.1524204127263
 30
0.0
  0
POINT
  5
8206
  8
DEFPOINTS
  6
BYBLOCK
 62
     0
 10
2489.1284585244448
 20
5839.1524204127263
 30
0.0
  0
POINT
  5
8207
  8
DEFPOINTS
  6
BYBLOCK
 62
     0
 10
2489.1284585244448
 20
6668.0473459470586
 30
0.0
  0
ENDBLK
  5
8208
  8
0
  0
BLOCK
  8
0
  2
*D3
 70
     1
 10
0.0
 20
0.0
 30
0.0
  3
*D3
  1

  0
LINE
  5
83AB
  8
3
 62
     0
 10
2504.1284585244439
 20
5716.963073714438
 30
0.0
 11
2700.338676712051
 21
5716.963073714438
 31
0.0
  0
LINE
  5
83AC
  8
3
 62
     0
 10
2504.1284585244439
 20
4966.9630737144371
 30
0.0
 11
2700.3386767120501
 21
4966.9630737144371
 31
0.0
  0
LINE
  5
83AD
  8
3
 62
     0
 10
2670.3386767120501
 20
5656.963073714438
 30
0.0
 11
2670.3386767120501
 21
5026.9630737144371
 31
0.0
  0
INSERT
  5
83AE
  8
3
 62
     0
  2
_OPEN
 10
2670.3386767120501
 20
5716.963073714438
 30
0.0
 41
60.0
 42
60.0
 43
60.0
 50
90.0
  0
INSERT
  5
83AF
  8
3
 62
     0
  2
_OPEN
 10
2670.3386767120501
 20
4966.9630737144371
 30
0.0
 41
60.0
 42
60.0
 43
60.0
 50
270.0
  0
TEXT
  8
3
  40
90
  5
8458
  62
0
  72
0
  71
0
 10
2415.34
 20
5141.39
 30
0.000000
  1
750
  0
POINT
  5
83B1
  8
DEFPOINTS
 62
     0
 10
2489.1284585244448
 20
5716.963073714438
 30
0.0
  0
POINT
  5
83B2
  8
DEFPOINTS
 62
     0
 10
2489.1284585244448
 20
4966.9630737144371
 30
0.0
  0
POINT
  5
83B3
  8
DEFPOINTS
 62
     0
 10
2670.3386767120501
 20
4966.9630737144371
 30
0.0
  0
ENDBLK
  5
8213
  8
0
  0
BLOCK
  8
0
  2
*D4
 70
     1
 10
0.0
 20
0.0
 30
0.0
  3
*D4
  1

  0
LINE
  5
83B4
  8
3
 62
     0
 10
2489.1284585244448
 20
4951.963073714438
 30
0.0
 11
2489.1284585244448
 21
4543.3727810772834
 31
0.0
  0
LINE
  5
83B5
  8
3
 62
     0
 10
1419.1284585244441
 20
4951.963073714438
 30
0.0
 11
1419.1284585244441
 21
4543.3727810772834
 31
0.0
  0
LINE
  5
83B6
  8
3
 62
     0
 10
2429.1284585244448
 20
4573.3727810772834
 30
0.0
 11
1479.1284585244441
 21
4573.3727810772834
 31
0.0
  0
INSERT
  5
83B7
  8
3
 62
     0
  2
_OPEN
 10
2489.1284585244448
 20
4573.3727810772834
 30
0.0
 41
60.0
 42
60.0
 43
60.0
  0
INSERT
  5
83B8
  8
3
 62
     0
  2
_OPEN
 10
1419.1284585244441
 20
4573.3727810772834
 30
0.0
 41
60.0
 42
60.0
 43
60.0
 50
180.0
  0
TEXT
  8
3
  40
90
  5
8459
  62
0
  72
0
  71
0
 10
1820.65
 20
4489.07
 30
0.000000
  1
1070
  0
POINT
  5
83BA
  8
DEFPOINTS
 62
     0
 10
2489.1284585244448
 20
4966.9630737144371
 30
0.0
  0
POINT
  5
83BB
  8
DEFPOINTS
 62
     0
 10
1419.1284585244441
 20
4966.963073714438
 30
0.0
  0
POINT
  5
83BC
  8
DEFPOINTS
 62
     0
 10
1419.1284585244441
 20
4573.3727810772834
 30
0.0
  0
ENDBLK
  5
81FE
  8
0
  0
BLOCK
  8
0
  2
*D5
 70
     1
 10
0.0
 20
0.0
 30
0.0
  3
*D5
  1

  0
LINE
  5
83BD
  8
3
 62
     0
 10
1419.1284585244441
 20
4951.963073714438
 30
0.0
 11
1419.1284585244441
 21
4543.3727810772834
 31
0.0
  0
LINE
  5
83BE
  8
3
 62
     0
 10
1199.128458524445
 20
5651.9630737144371
 30
0.0
 11
1199.128458524445
 21
4543.3727810772834
 31
0.0
  0
LINE
  5
83BF
  8
3
 62
     0
 10
1359.1284585244441
 20
4573.3727810772834
 30
0.0
 11
1259.128458524445
 21
4573.3727810772834
 31
0.0
  0
LINE
  5
83C0
  8
3
 62
     0
 10
1199.128458524445
 20
4573.3727810772834
 30
0.0
 11
847.69988709587381
 21
4573.3727810772834
 31
0.0
  0
INSERT
  5
83C1
  8
3
 62
     0
  2
_OPEN
 10
1419.1284585244441
 20
4573.3727810772834
 30
0.0
 41
60.0
 42
60.0
 43
60.0
  0
INSERT
  5
83C2
  8
3
 62
     0
  2
_OPEN
 10
1199.128458524445
 20
4573.3727810772834
 30
0.0
 41
60.0
 42
60.0
 43
60.0
 50
180.0
  0
TEXT
  8
3
  40
90
  5
845A
  62
0
  72
0
  71
0
 10
813.414
 20
4489.07
 30
0.000000
  1
220
  0
POINT
  5
83C4
  8
DEFPOINTS
 62
     0
 10
1419.1284585244441
 20
4966.963073714438
 30
0.0
  0
POINT
  5
83C5
  8
DEFPOINTS
 62
     0
 10
1199.128458524445
 20
5666.963073714438
 30
0.0
  0
POINT
  5
83C6
  8
DEFPOINTS
 62
     0
 10
1199.128458524445
 20
4573.3727810772834
 30
0.0
  0
ENDBLK
  5
822A
  8
0
  0
BLOCK
  8
0
  2
*D6
 70
     1
 10
0.0
 20
0.0
 30
0.0
  3
*D6
  1

  0
LINE
  5
83C7
  8
3
 62
     0
 10
1404.1284585244441
 20
4966.963073714438
 30
0.0
 11
835.10141403442401
 21
4966.963073714438
 31
0.0
  0
LINE
  5
83C8
  8
3
 62
     0
 10
1184.128458524445
 20
5666.963073714438
 30
0.0
 11
835.10141403442424
 21
5666.963073714438
 31
0.0
  0
LINE
  5
83C9
  8
3
 62
     0
 10
865.10141403442412
 20
5026.963073714438
 30
0.0
 11
865.10141403442412
 21
5606.9630737144371
 31
0.0
  0
INSERT
  5
83CA
  8
3
 62
     0
  2
_OPEN
 10
865.10141403442412
 20
4966.963073714438
 30
0.0
 41
60.0
 42
60.0
 43
60.0
 50
270.0
  0
INSERT
  5
83CB
  8
3
 62
     0
  2
_OPEN
 10
865.10141403442412
 20
5666.963073714438
 30
0.0
 41
60.0
 42
60.0
 43
60.0
 50
90.0
  0
TEXT
  8
3
  40
90
  5
845B
  62
0
  72
0
  71
0
 10
610.101
 20
5141.39
 30
0.000000
  1
700
  0
POINT
  5
83CD
  8
DEFPOINTS
 62
     0
 10
1419.1284585244441
 20
4966.963073714438
 30
0.0
  0
POINT
  5
83CE
  8
DEFPOINTS
 62
     0
 10
1199.128458524445
 20
5666.963073714438
 30
0.0
  0
POINT
  5
83CF
  8
DEFPOINTS
 62
     0
 10
865.10141403442412
 20
5666.963073714438
 30
0.0
  0
ENDBLK
  5
821E
  8
0
  0
BLOCK
  8
0
  2
*D7
 70
     1
 10
0.0
 20
0.0
 30
0.0
  3
*D7
  1

  0
LINE
  5
83D0
  8
3
 62
     0
 10
1184.1284585244441
 20
6376.963073714438
 30
0.0
 11
835.1014140344231
 21
6376.963073714438
 31
0.0
  0
LINE
  5
83D1
  8
3
 62
     0
 10
865.10141403442299
 20
5726.9630737144371
 30
0.0
 11
865.10141403442321
 21
6316.9630737144371
 31
0.0
  0
INSERT
  5
83D2
  8
3
 62
     0
  2
_OPEN
 10
865.10141403442299
 20
5666.963073714438
 30
0.0
 41
60.0
 42
60.0
 43
60.0
 50
270.0
  0
INSERT
  5
83D3
  8
3
 62
     0
  2
_OPEN
 10
865.10141403442321
 20
6376.963073714438
 30
0.0
 41
60.0
 42
60.0
 43
60.0
 50
90.0
  0
TEXT
  8
3
  40
90
  5
845C
  62
0
  72
0
  71
0
 10
610.101
 20
5862.66
 30
0.000000
  1
710
  0
POINT
  5
83D5
  8
DEFPOINTS
 62
     0
 10
1199.128458524445
 20
5666.963073714438
 30
0.0
  0
POINT
  5
83D6
  8
DEFPOINTS
 62
     0
 10
1199.1284585244441
 20
6376.963073714438
 30
0.0
  0
POINT
  5
83D7
  8
DEFPOINTS
 62
     0
 10
865.10141403442321
 20
6376.963073714438
 30
0.0
  0
ENDBLK
  5
823F
  8
0
  0
BLOCK
  8
0
  2
YA_N
 70
     0
 10
0.0
 20
0.0
 30
0.0
  3
YA_N
  1

  0
ENDBLK
  5
7E7B
  8
0
  0
BLOCK
  8
0
  2
*D9
 70
     1
 10
0.0
 20
0.0
 30
0.0
  3
*D9
  1

  0
LINE
  5
83D8
  8
3
 62
     0
 10
2547.1284585244439
 20
3474.4258460828169
 30
0.0
 11
2547.1284585244439
 21
3614.255352776268
 31
0.0
  0
LINE
  5
83D9
  8
3
 62
     0
 10
1722.1284585244441
 20
3474.4258460828169
 30
0.0
 11
1722.1284585244441
 21
3614.255352776268
 31
0.0
  0
LINE
  5
83DA
  8
3
 62
     0
 10
2487.1284585244448
 20
3584.255352776268
 30
0.0
 11
1782.128458524445
 21
3584.255352776268
 31
0.0
  0
INSERT
  5
83DB
  8
3
 62
     0
  2
_OPEN
 10
2547.1284585244439
 20
3584.255352776268
 30
0.0
 41
60.0
 42
60.0
 43
60.0
  0
INSERT
  5
83DC
  8
3
 62
     0
  2
_OPEN
 10
1722.1284585244441
 20
3584.255352776268
 30
0.0
 41
60.0
 42
60.0
 43
60.0
 50
180.0
  0
TEXT
  8
3
  40
90
  5
845D
  62
0
  72
0
  71
0
 10
1963.69
 20
3499.96
 30
0.000000
  1
825
  0
POINT
  5
83DE
  8
DEFPOINTS
 62
     0
 10
2547.1284585244439
 20
3459.4258460828169
 30
0.0
  0
POINT
  5
83DF
  8
DEFPOINTS
 62
     0
 10
1722.1284585244441
 20
3459.4258460828169
 30
0.0
  0
POINT
  5
83E0
  8
DEFPOINTS
 62
     0
 10
1722.1284585244441
 20
3584.255352776268
 30
0.0
  0
ENDBLK
  5
81A6
  8
0
  0
BLOCK
  8
0
  2
*D10
 70
     1
 10
0.0
 20
0.0
 30
0.0
  3
*D10
  1

  0
LINE
  5
83E1
  8
3
 62
     0
 10
2547.1284585244439
 20
3474.4258460828169
 30
0.0
 11
2547.1284585244439
 21
3822.2079311727639
 31
0.0
  0
LINE
  5
83E2
  8
3
 62
     0
 10
1699.1284585244441
 20
3536.7967874184469
 30
0.0
 11
1699.1284585244441
 21
3822.2079311727639
 31
0.0
  0
LINE
  5
83E3
  8
3
 62
     0
 10
2487.1284585244448
 20
3792.2079311727648
 30
0.0
 11
1759.1284585244441
 21
3792.2079311727648
 31
0.0
  0
INSERT
  5
83E4
  8
3
 62
     0
  2
_OPEN
 10
2547.1284585244439
 20
3792.2079311727648
 30
0.0
 41
60.0
 42
60.0
 43
60.0
  0
INSERT
  5
83E5
  8
3
 62
     0
  2
_OPEN
 10
1699.1284585244441
 20
3792.2079311727648
 30
0.0
 41
60.0
 42
60.0
 43
60.0
 50
180.0
  0
TEXT
  8
3
  40
90
  5
845E
  62
0
  72
0
  71
0
 10
1968.89
 20
3707.91
 30
0.000000
  1
848
  0
POINT
  5
83E7
  8
DEFPOINTS
 62
     0
 10
2547.1284585244439
 20
3459.4258460828169
 30
0.0
  0
POINT
  5
83E8
  8
DEFPOINTS
 62
     0
 10
1699.1284585244441
 20
3521.7967874184469
 30
0.0
  0
POINT
  5
83E9
  8
DEFPOINTS
 62
     0
 10
1699.1284585244441
 20
3792.2079311727648
 30
0.0
  0
ENDBLK
  5
819B
  8
0
  0
BLOCK
  8
0
  2
*D11
 70
     1
 10
0.0
 20
0.0
 30
0.0
  3
*D11
  1

  0
LINE
  5
83EA
  8
3
 62
     0
 10
1131.1284585244441
 20
2870.4258460828169
 30
0.0
 11
1131.1284585244441
 21
3822.2079311727639
 31
0.0
  0
LINE
  5
83EB
  8
3
 62
     0
 10
1639.1284585244441
 20
3792.2079311727648
 30
0.0
 11
1191.1284585244441
 21
3792.2079311727648
 31
0.0
  0
INSERT
  5
83EC
  8
3
 62
     0
  2
_OPEN
 10
1699.1284585244441
 20
3792.2079311727648
 30
0.0
 41
60.0
 42
60.0
 43
60.0
  0
INSERT
  5
83ED
  8
3
 62
     0
  2
_OPEN
 10
1131.1284585244441
 20
3792.2079311727648
 30
0.0
 41
60.0
 42
60.0
 43
60.0
 50
180.0
  0
TEXT
  8
3
  40
90
  5
845F
  62
0
  72
0
  71
0
 10
1235.13
 20
3707.91
 30
0.000000
  1
568
  0
POINT
  5
83EF
  8
DEFPOINTS
 62
     0
 10
1699.1284585244441
 20
3521.7967874184469
 30
0.0
  0
POINT
  5
83F0
  8
DEFPOINTS
 62
     0
 10
1131.1284585244441
 20
2855.425846082816
 30
0.0
  0
POINT
  5
83F1
  8
DEFPOINTS
 62
     0
 10
1131.1284585244441
 20
3792.2079311727648
 30
0.0
  0
ENDBLK
  5
81D0
  8
0
  0
BLOCK
  8
0
  2
*D12
 70
     1
 10
0.0
 20
0.0
 30
0.0
  3
*D12
  1

  0
LINE
  5
83F2
  8
3
 62
     0
 10
1664.6284585244441
 20
3459.4258460828169
 30
0.0
 11
759.48406522553387
 21
3459.4258460828169
 31
0.0
  0
LINE
  5
83F3
  8
3
 62
     0
 10
1017.656666674054
 20
2914.4258460828169
 30
0.0
 11
759.48406522553387
 21
2914.4258460828169
 31
0.0
  0
LINE
  5
83F4
  8
3
 62
     0
 10
789.48406522553387
 20
3399.4258460828169
 30
0.0
 11
789.48406522553375
 21
2974.4258460828169
 31
0.0
  0
INSERT
  5
83F5
  8
3
 62
     0
  2
_OPEN
 10
789.48406522553387
 20
3459.4258460828169
 30
0.0
 41
60.0
 42
60.0
 43
60.0
 50
90.0
  0
INSERT
  5
83F6
  8
3
 62
     0
  2
_OPEN
 10
789.48406522553375
 20
2914.4258460828169
 30
0.0
 41
60.0
 42
60.0
 43
60.0
 50
270.0
  0
TEXT
  8
3
  40
90
  5
8460
  62
0
  72
0
  71
0
 10
534.484
 20
3035.37
 30
0.000000
  1
545
  0
POINT
  5
83F8
  8
DEFPOINTS
 62
     0
 10
1679.6284585244441
 20
3459.4258460828169
 30
0.0
  0
POINT
  5
83F9
  8
DEFPOINTS
 62
     0
 10
1032.6566666740539
 20
2914.4258460828169
 30
0.0
  0
POINT
  5
83FA
  8
DEFPOINTS
 62
     0
 10
789.48406522553375
 20
2914.4258460828169
 30
0.0
  0
ENDBLK
  5
81C6
  8
0
  0
BLOCK
  8
0
  2
*D13
 70
     1
 10
0.0
 20
0.0
 30
0.0
  3
*D13
  1

  0
LINE
  5
83FB
  8
3
 62
     0
 10
1184.1284585244441
 20
2214.4258460828169
 30
0.0
 11
759.48406522553341
 21
2214.4258460828169
 31
0.0
  0
LINE
  5
83FC
  8
3
 62
     0
 10
789.48406522553364
 20
2854.4258460828169
 30
0.0
 11
789.48406522553341
 21
2274.4258460828169
 31
0.0
  0
INSERT
  5
83FD
  8
3
 62
     0
  2
_OPEN
 10
789.48406522553364
 20
2914.4258460828169
 30
0.0
 41
60.0
 42
60.0
 43
60.0
 50
90.0
  0
INSERT
  5
83FE
  8
3
 62
     0
  2
_OPEN
 10
789.48406522553341
 20
2214.4258460828169
 30
0.0
 41
60.0
 42
60.0
 43
60.0
 50
270.0
  0
TEXT
  8
3
  40
90
  5
8461
  62
0
  72
0
  71
0
 10
534.484
 20
2405.13
 30
0.000000
  1
700
  0
POINT
  5
8400
  8
DEFPOINTS
 62
     0
 10
1032.6566666740539
 20
2914.4258460828169
 30
0.0
  0
POINT
  5
8401
  8
DEFPOINTS
 62
     0
 10
1199.1284585244441
 20
2214.4258460828169
 30
0.0
  0
POINT
  5
8402
  8
DEFPOINTS
 62
     0
 10
789.48406522553341
 20
2214.4258460828169
 30
0.0
  0
ENDBLK
  5
81DA
  8
0
  0
BLOCK
  8
0
  2
*D14
 70
     1
 10
0.0
 20
0.0
 30
0.0
  3
*D14
  1

  0
LINE
  5
8368
  8
0
  6
BYBLOCK
 62
     0
 10
1184.1284585244441
 20
2119.425846082815
 30
0.0
 11
759.48406522553341
 21
2119.425846082815
 31
0.0
  0
LINE
  5
8369
  8
0
  6
BYBLOCK
 62
     0
 10
789.48406522553341
 20
2274.4258460828169
 30
0.0
 11
789.48406522553341
 21
2334.4258460828169
 31
0.0
  0
LINE
  5
836A
  8
0
  6
BYBLOCK
 62
     0
 10
789.48406522553341
 20
2059.425846082816
 30
0.0
 11
789.48406522553341
 21
1999.425846082815
 31
0.0
  0
TEXT
  5
836B
  8
1
 62
     0
 10
675.91263665410474
 20
2036.2115603685299
 30
0.0
 40
90.0
  1
(95)
 50
90.0
  0
LINE
  5
836C
  8
0
  6
BYBLOCK
 62
     0
 10
789.48406522553341
 20
2214.4258460828169
 30
0.0
 11
789.48406522553341
 21
2119.425846082815
 31
0.0
  0
INSERT
  5
836D
  8
0
  6
BYBLOCK
 62
     0
  2
_OPEN
 10
789.48406522553341
 20
2214.4258460828169
 30
0.0
 41
60.0
 42
60.0
 43
60.0
 50
270.0
  0
INSERT
  5
836E
  8
0
  6
BYBLOCK
 62
     0
  2
_DOT
 10
789.48406522553341
 20
2119.425846082815
 30
0.0
 41
60.0
 42
60.0
 43
60.0
 50
90.0
  0
POINT
  5
836F
  8
DEFPOINTS
  6
BYBLOCK
 62
     0
 10
1199.1284585244441
 20
2214.4258460828169
 30
0.0
  0
POINT
  5
8370
  8
DEFPOINTS
  6
BYBLOCK
 62
     0
 10
1199.1284585244441
 20
2119.425846082815
 30
0.0
  0
POINT
  5
8371
  8
DEFPOINTS
  6
BYBLOCK
 62
     0
 10
789.48406522553341
 20
2119.425846082815
 30
0.0
  0
ENDBLK
  5
8372
  8
0
  0
BLOCK
  8
0
  2
*D15
 70
     1
 10
0.0
 20
0.0
 30
0.0
  3
*D15
  1

  0
LINE
  5
8403
  8
3
 62
     0
 10
1184.1284585244441
 20
2119.425846082815
 30
0.0
 11
759.48406522553341
 21
2119.425846082816
 31
0.0
  0
LINE
  5
8404
  8
3
 62
     0
 10
1184.1284585244441
 20
2019.425846082815
 30
0.0
 11
759.48406522553341
 21
2019.425846082815
 31
0.0
  0
LINE
  5
8405
  8
3
 62
     0
 10
789.48406522553341
 20
2179.425846082816
 30
0.0
 11
789.48406522553341
 21
2239.425846082816
 31
0.0
  0
LINE
  5
8406
  8
3
 62
     0
 10
789.48406522553341
 20
1959.425846082816
 30
0.0
 11
789.4840652255333
 21
1625.140131797101
 31
0.0
  0
LINE
  5
8407
  8
3
 62
     0
 10
789.48406522553341
 20
2119.425846082816
 30
0.0
 11
789.48406522553341
 21
2019.425846082815
 31
0.0
  0
INSERT
  5
8408
  8
3
 62
     0
  2
_DOT
 10
789.48406522553341
 20
2119.425846082816
 30
0.0
 41
60.0
 42
60.0
 43
60.0
 50
270.0
  0
INSERT
  5
8409
  8
3
 62
     0
  2
_OPEN
 10
789.48406522553341
 20
2019.425846082815
 30
0.0
 41
60.0
 42
60.0
 43
60.0
 50
90.0
  0
TEXT
  8
3
  40
90
  5
8462
  62
0
  72
0
  71
0
 10
534.484
 20
1602.98
 30
0.000000
  1
100
  0
POINT
  5
840B
  8
DEFPOINTS
 62
     0
 10
1199.1284585244441
 20
2119.425846082815
 30
0.0
  0
POINT
  5
840C
  8
DEFPOINTS
 62
     0
 10
1199.1284585244441
 20
2019.425846082815
 30
0.0
  0
POINT
  5
840D
  8
DEFPOINTS
 62
     0
 10
789.48406522553341
 20
2019.425846082815
 30
0.0
  0
ENDBLK
  5
8366
  8
0
  0
BLOCK
  8
0
  2
_DOT
 70
     0
 10
0.0
 20
0.0
 30
0.0
  3
_DOT
  1

  0
LINE
  5
8123
  8
0
  6
BYBLOCK
 62
     0
 10
0.0
 20
0.0
 30
0.0
 11
-1.0
 21
-0.0000000000000284
 31
0.0
  0
POLYLINE
  5
8124
  8
0
  6
BYBLOCK
 62
     0
 66
     1
 10
0.0
 20
0.0
 30
0.0
 70
     1
 40
0.1666666666666666
 41
0.1666666666666666
  0
VERTEX
  5
8454
  8
0
  6
BYBLOCK
 62
     0
 10
-0.0833333333333286
 20
-0.0000000000000284
 30
0.0
 42
1.0
  0
VERTEX
  5
8455
  8
0
  6
BYBLOCK
 62
     0
 10
0.0833333333333286
 20
-0.0000000000000284
 30
0.0
 42
1.0
  0
SEQEND
  5
8456
  8
0
  6
BYBLOCK
 62
     0
  0
ENDBLK
  5
8023
  8
0
  0
BLOCK
  8
0
  2
*D17
 70
     1
 10
0.0
 20
0.0
 30
0.0
  3
*D17
  1

  0
LINE
  5
840E
  8
3
 62
     0
 10
2489.1284585244448
 20
2004.425846082815
 30
0.0
 11
2489.1284585244448
 21
1772.263705502035
 31
0.0
  0
LINE
  5
840F
  8
3
 62
     0
 10
1699.1284585244441
 20
1949.48058884836
 30
0.0
 11
1699.1284585244441
 21
1772.263705502035
 31
0.0
  0
LINE
  5
8410
  8
3
 62
     0
 10
2429.1284585244448
 20
1802.263705502035
 30
0.0
 11
1759.1284585244441
 21
1802.263705502035
 31
0.0
  0
INSERT
  5
8411
  8
3
 62
     0
  2
_OPEN
 10
2489.1284585244448
 20
1802.263705502035
 30
0.0
 41
60.0
 42
60.0
 43
60.0
  0
INSERT
  5
8412
  8
3
 62
     0
  2
_OPEN
 10
1699.1284585244441
 20
1802.263705502035
 30
0.0
 41
60.0
 42
60.0
 43
60.0
 50
180.0
  0
TEXT
  8
3
  40
90
  5
8463
  62
0
  72
0
  71
0
 10
1914.72
 20
1717.96
 30
0.000000
  1
790
  0
POINT
  5
8414
  8
DEFPOINTS
 62
     0
 10
2489.1284585244448
 20
2019.425846082815
 30
0.0
  0
POINT
  5
8415
  8
DEFPOINTS
 62
     0
 10
1699.1284585244441
 20
1964.48058884836
 30
0.0
  0
POINT
  5
8416
  8
DEFPOINTS
 62
     0
 10
1699.1284585244441
 20
1802.263705502035
 30
0.0
  0
ENDBLK
  5
8190
  8
0
  0
BLOCK
  8
0
  2
*D18
 70
     1
 10
0.0
 20
0.0
 30
0.0
  3
*D18
  1

  0
LINE
  5
8417
  8
3
 62
     0
 10
1199.1284585244441
 20
2004.425846082816
 30
0.0
 11
1199.1284585244441
 21
1772.263705502035
 31
0.0
  0
LINE
  5
8418
  8
3
 62
     0
 10
1639.1284585244441
 20
1802.263705502035
 30
0.0
 11
1259.1284585244441
 21
1802.263705502035
 31
0.0
  0
INSERT
  5
8419
  8
3
 62
     0
  2
_OPEN
 10
1699.1284585244441
 20
1802.263705502035
 30
0.0
 41
60.0
 42
60.0
 43
60.0
  0
INSERT
  5
841A
  8
3
 62
     0
  2
_OPEN
 10
1199.1284585244441
 20
1802.263705502035
 30
0.0
 41
60.0
 42
60.0
 43
60.0
 50
180.0
  0
TEXT
  8
3
  40
90
  5
8464
  62
0
  72
0
  71
0
 10
1269.13
 20
1717.96
 30
0.000000
  1
500
  0
POINT
  5
841C
  8
DEFPOINTS
 62
     0
 10
1699.1284585244441
 20
1964.48058884836
 30
0.0
  0
POINT
  5
841D
  8
DEFPOINTS
 62
     0
 10
1199.1284585244441
 20
2019.425846082815
 30
0.0
  0
POINT
  5
841E
  8
DEFPOINTS
 62
     0
 10
1199.1284585244441
 20
1802.263705502035
 30
0.0
  0
ENDBLK
  5
81BB
  8
0
  0
BLOCK
  8
0
  2
*D19
 70
     1
 10
0.0
 20
0.0
 30
0.0
  3
*D19
  1

  0
LINE
  5
841F
  8
3
 62
     0
 10
1131.1284585244441
 20
2870.4258460828169
 30
0.0
 11
1131.1284585244441
 21
4017.9381234761672
 31
0.0
  0
LINE
  5
8420
  8
3
 62
     0
 10
2589.6284585244439
 20
3474.4258460828169
 30
0.0
 11
2589.6284585244439
 21
4017.9381234761672
 31
0.0
  0
LINE
  5
8421
  8
3
 62
     0
 10
1191.1284585244441
 20
3987.9381234761681
 30
0.0
 11
2529.6284585244448
 21
3987.9381234761681
 31
0.0
  0
INSERT
  5
8422
  8
3
 62
     0
  2
_OPEN
 10
1131.1284585244441
 20
3987.9381234761681
 30
0.0
 41
60.0
 42
60.0
 43
60.0
 50
180.0
  0
INSERT
  5
8423
  8
3
 62
     0
  2
_OPEN
 10
2589.6284585244439
 20
3987.9381234761681
 30
0.0
 41
60.0
 42
60.0
 43
60.0
  0
TEXT
  8
3
  40
90
  5
8465
  62
0
  72
0
  71
0
 10
1678.21
 20
3903.64
 30
0.000000
  1
1459
  0
POINT
  5
8425
  8
DEFPOINTS
 62
     0
 10
1131.1284585244441
 20
2855.425846082816
 30
0.0
  0
POINT
  5
8426
  8
DEFPOINTS
 62
     0
 10
2589.6284585244439
 20
3459.4258460828169
 30
0.0
  0
POINT
  5
8427
  8
DEFPOINTS
 62
     0
 10
2589.6284585244439
 20
3987.9381234761681
 30
0.0
  0
ENDBLK
  5
8185
  8
0
  0
BLOCK
  8
0
  2
*D20
 70
     1
 10
0.0
 20
0.0
 30
0.0
  3
*D20
  1

  0
LINE
  5
8428
  8
3
 62
     0
 10
1664.6284585244441
 20
3459.4258460828169
 30
0.0
 11
433.73849755334652
 21
3459.4258460828169
 31
0.0
  0
LINE
  5
8429
  8
3
 62
     0
 10
1184.1284585244441
 20
2019.425846082815
 30
0.0
 11
433.73849755334618
 21
2019.425846082816
 31
0.0
  0
LINE
  5
842A
  8
3
 62
     0
 10
463.73849755334652
 20
3399.4258460828169
 30
0.0
 11
463.73849755334618
 21
2079.425846082816
 31
0.0
  0
INSERT
  5
842B
  8
3
 62
     0
  2
_OPEN
 10
463.73849755334652
 20
3459.4258460828169
 30
0.0
 41
60.0
 42
60.0
 43
60.0
 50
90.0
  0
INSERT
  5
842C
  8
3
 62
     0
  2
_OPEN
 10
463.73849755334618
 20
2019.425846082816
 30
0.0
 41
60.0
 42
60.0
 43
60.0
 50
270.0
  0
TEXT
  8
3
  40
90
  5
8466
  62
0
  72
0
  71
0
 10
208.738
 20
2528.87
 30
0.000000
  1
1440
  0
POINT
  5
842E
  8
DEFPOINTS
 62
     0
 10
1679.6284585244441
 20
3459.4258460828169
 30
0.0
  0
POINT
  5
842F
  8
DEFPOINTS
 62
     0
 10
1199.1284585244441
 20
2019.425846082815
 30
0.0
  0
POINT
  5
8430
  8
DEFPOINTS
 62
     0
 10
463.73849755334618
 20
2019.425846082816
 30
0.0
  0
ENDBLK
  5
8359
  8
0
  0
BLOCK
  8
0
  2
*D21
 70
     1
 10
0.0
 20
0.0
 30
0.0
  3
*D21
  1

  0
LINE
  5
8431
  8
3
 62
     0
 10
4424.9730063743218
 20
3474.425846082816
 30
0.0
 11
4424.9730063743218
 21
3709.230319817299
 31
0.0
  0
LINE
  5
8432
  8
3
 62
     0
 10
5024.9730063743227
 20
3474.425846082816
 30
0.0
 11
5024.9730063743227
 21
3709.230319817299
 31
0.0
  0
LINE
  5
8433
  8
3
 62
     0
 10
4484.9730063743227
 20
3679.230319817299
 30
0.0
 11
4964.9730063743218
 21
3679.230319817299
 31
0.0
  0
INSERT
  5
8434
  8
3
 62
     0
  2
_OPEN
 10
4424.9730063743218
 20
3679.230319817299
 30
0.0
 41
60.0
 42
60.0
 43
60.0
 50
180.0
  0
INSERT
  5
8435
  8
3
 62
     0
  2
_OPEN
 10
5024.9730063743227
 20
3679.230319817299
 30
0.0
 41
60.0
 42
60.0
 43
60.0
  0
TEXT
  8
3
  40
90
  5
8467
  62
0
  72
0
  71
0
 10
4544.68
 20
3594.93
 30
0.000000
  1
600
  0
POINT
  5
8437
  8
DEFPOINTS
 62
     0
 10
4424.9730063743218
 20
3459.425846082816
 30
0.0
  0
POINT
  5
8438
  8
DEFPOINTS
 62
     0
 10
5024.9730063743227
 20
3459.425846082816
 30
0.0
  0
POINT
  5
8439
  8
DEFPOINTS
 62
     0
 10
5024.9730063743227
 20
3679.230319817299
 30
0.0
  0
ENDBLK
  5
833F
  8
0
  0
BLOCK
  8
0
  2
*D22
 70
     1
 10
0.0
 20
0.0
 30
0.0
  3
*D22
  1

  0
LINE
  5
8341
  8
0
  6
BYBLOCK
 62
     0
 10
4724.9730063743236
 20
3833.0259136261911
 30
0.0
 11
4724.9730063743236
 21
3921.8289054225502
 31
0.0
  0
LINE
  5
8342
  8
0
  6
BYBLOCK
 62
     0
 10
5028.9730063743264
 20
3474.425846082816
 30
0.0
 11
5028.9730063743264
 21
3921.8289054225502
 31
0.0
  0
LINE
  5
8343
  8
0
  6
BYBLOCK
 62
     0
 10
4784.9730063743236
 20
3891.8289054225488
 30
0.0
 11
4968.9730063743264
 21
3891.8289054225488
 31
0.0
  0
TEXT
  5
8344
  8
1
 62
     0
 10
4759.1158635171823
 20
3915.7217862952712
 30
0.0
 40
90.0
  1
304
  0
INSERT
  5
8345
  8
0
  6
BYBLOCK
 62
     0
  2
_OPEN
 10
4724.9730063743236
 20
3891.8289054225488
 30
0.0
 41
60.0
 42
60.0
 43
60.0
 50
180.0
  0
INSERT
  5
8346
  8
0
  6
BYBLOCK
 62
     0
  2
_OPEN
 10
5028.9730063743264
 20
3891.8289054225488
 30
0.0
 41
60.0
 42
60.0
 43
60.0
  0
POINT
  5
8347
  8
DEFPOINTS
  6
BYBLOCK
 62
     0
 10
4724.9730063743236
 20
3818.0259136261921
 30
0.0
  0
POINT
  5
8348
  8
DEFPOINTS
  6
BYBLOCK
 62
     0
 10
5028.9730063743264
 20
3459.425846082816
 30
0.0
  0
POINT
  5
8349
  8
DEFPOINTS
  6
BYBLOCK
 62
     0
 10
5028.9730063743264
 20
3891.8289054225488
 30
0.0
  0
ENDBLK
  5
834A
  8
0
  0
BLOCK
  8
0
  2
*D23
 70
     1
 10
0.0
 20
0.0
 30
0.0
  3
*D23
  1

  0
LINE
  5
843A
  8
3
 62
     0
 10
3669.9730063743259
 20
2004.425846082816
 30
0.0
 11
3669.9730063743259
 21
1757.7689847585391
 31
0.0
  0
LINE
  5
843B
  8
3
 62
     0
 10
4724.9730063743264
 20
1956.3986422303619
 30
0.0
 11
4724.9730063743264
 21
1757.7689847585391
 31
0.0
  0
LINE
  5
843C
  8
3
 62
     0
 10
3729.9730063743259
 20
1787.7689847585391
 30
0.0
 11
4664.9730063743264
 21
1787.7689847585391
 31
0.0
  0
INSERT
  5
843D
  8
3
 62
     0
  2
_OPEN
 10
3669.9730063743259
 20
1787.7689847585391
 30
0.0
 41
60.0
 42
60.0
 43
60.0
 50
180.0
  0
INSERT
  5
843E
  8
3
 62
     0
  2
_OPEN
 10
4724.9730063743264
 20
1787.7689847585391
 30
0.0
 41
60.0
 42
60.0
 43
60.0
  0
TEXT
  8
3
  40
90
  5
8468
  62
0
  72
0
  71
0
 10
4008.98
 20
1703.47
 30
0.000000
  1
1055
  0
POINT
  5
8440
  8
DEFPOINTS
 62
     0
 10
3669.9730063743259
 20
2019.425846082816
 30
0.0
  0
POINT
  5
8441
  8
DEFPOINTS
 62
     0
 10
4724.9730063743264
 20
1971.398642230361
 30
0.0
  0
POINT
  5
8442
  8
DEFPOINTS
 62
     0
 10
4724.9730063743264
 20
1787.7689847585391
 30
0.0
  0
ENDBLK
  5
80F8
  8
0
  0
BLOCK
  8
0
  2
*D24
 70
     1
 10
0.0
 20
0.0
 30
0.0
  3
*D24
  1

  0
LINE
  5
8104
  8
0
  6
BYBLOCK
 62
     0
 10
5079.9730063743264
 20
2263.7157784495471
 30
0.0
 11
5079.9730063743264
 21
2017.058917125268
 31
0.0
  0
LINE
  5
8105
  8
0
  6
BYBLOCK
 62
     0
 10
4784.9730063743264
 20
2047.058917125268
 30
0.0
 11
5019.9730063743273
 21
2047.058917125268
 31
0.0
  0
TEXT
  5
8106
  8
1
 62
     0
 10
4786.758720660041
 20
2073.633440538425
 30
0.0
 40
90.0
  1
355
  0
INSERT
  5
8107
  8
0
  6
BYBLOCK
 62
     0
  2
_OPEN
 10
4724.9730063743264
 20
2047.058917125268
 30
0.0
 41
60.0
 42
60.0
 43
60.0
 50
180.0
  0
INSERT
  5
8108
  8
0
  6
BYBLOCK
 62
     0
  2
_OPEN
 10
5079.9730063743264
 20
2047.058917125268
 30
0.0
 41
60.0
 42
60.0
 43
60.0
  0
POINT
  5
8109
  8
DEFPOINTS
  6
BYBLOCK
 62
     0
 10
4724.9730063743264
 20
2230.6885745970908
 30
0.0
  0
POINT
  5
810A
  8
DEFPOINTS
  6
BYBLOCK
 62
     0
 10
5079.9730063743264
 20
2278.7157784495471
 30
0.0
  0
POINT
  5
810B
  8
DEFPOINTS
  6
BYBLOCK
 62
     0
 10
5079.9730063743264
 20
2047.058917125268
 30
0.0
  0
ENDBLK
  5
810C
  8
0
  0
BLOCK
  8
0
  2
*D25
 70
     1
 10
0.0
 20
0.0
 30
0.0
  3
*D25
  1

  0
LINE
  5
8443
  8
3
 62
     0
 10
5042.2730063743229
 20
3314.425846082816
 30
0.0
 11
5331.2434279509334
 21
3314.425846082816
 31
0.0
  0
LINE
  5
8444
  8
3
 62
     0
 10
5042.2730063743229
 20
2514.425846082816
 30
0.0
 11
5331.2434279509334
 21
2514.425846082815
 31
0.0
  0
LINE
  5
8445
  8
3
 62
     0
 10
5301.2434279509334
 20
3254.425846082816
 30
0.0
 11
5301.2434279509334
 21
2574.425846082815
 31
0.0
  0
INSERT
  5
8446
  8
3
 62
     0
  2
_OPEN
 10
5301.2434279509334
 20
3314.425846082816
 30
0.0
 41
60.0
 42
60.0
 43
60.0
 50
90.0
  0
INSERT
  5
8447
  8
3
 62
     0
  2
_OPEN
 10
5301.2434279509334
 20
2514.425846082815
 30
0.0
 41
60.0
 42
60.0
 43
60.0
 50
270.0
  0
TEXT
  8
3
  40
90
  5
8469
  62
0
  72
0
  71
0
 10
5046.24
 20
2741.57
 30
0.000000
  1
φ800
  0
POINT
  5
8449
  8
DEFPOINTS
 62
     0
 10
5027.2730063743238
 20
3314.425846082816
 30
0.0
  0
POINT
  5
844A
  8
DEFPOINTS
 62
     0
 10
5027.2730063743238
 20
2514.425846082816
 30
0.0
  0
POINT
  5
844B
  8
DEFPOINTS
 62
     0
 10
5301.2434279509334
 20
2514.425846082815
 30
0.0
  0
ENDBLK
  5
80ED
  8
0
  0
BLOCK
  8
0
  2
*D26
 70
     1
 10
0.0
 20
0.0
 30
0.0
  3
*D26
  1

  0
LINE
  5
844C
  8
3
 62
     0
 10
3536.9730063743241
 20
3149.425846082815
 30
0.0
 11
3536.9730063743241
 21
3921.8289054225502
 31
0.0
  0
LINE
  5
844D
  8
3
 62
     0
 10
4664.9730063743236
 20
3891.8289054225488
 30
0.0
 11
3596.973006374325
 21
3891.8289054225488
 31
0.0
  0
INSERT
  5
844E
  8
3
 62
     0
  2
_OPEN
 10
4724.9730063743236
 20
3891.8289054225488
 30
0.0
 41
60.0
 42
60.0
 43
60.0
  0
INSERT
  5
844F
  8
3
 62
     0
  2
_OPEN
 10
3536.9730063743241
 20
3891.8289054225488
 30
0.0
 41
60.0
 42
60.0
 43
60.0
 50
180.0
  0
TEXT
  8
3
  40
90
  5
846A
  62
0
  72
0
  71
0
 10
3950.97
 20
3882.53
 30
0.000000
  1
MAX
  0
TEXT
  8
3
  40
90
  5
846B
  62
0
  72
0
  71
0
 10
3950.97
 20
3765.53
 30
0.000000
  1
1240
  0
POINT
  5
8451
  8
DEFPOINTS
 62
     0
 10
4724.9730063743236
 20
3818.0259136261921
 30
0.0
  0
POINT
  5
8452
  8
DEFPOINTS
 62
     0
 10
3536.9730063743241
 20
3134.425846082815
 30
0.0
  0
POINT
  5
8453
  8
DEFPOINTS
 62
     0
 10
3536.9730063743241
 20
3891.8289054225488
 30
0.0
  0
ENDBLK
  5
8334
  8
0
  0
ENDSEC
  0
SECTION
  2
ENTITIES
  0
LINE
  5
7AC2
  8
2
 10
1092.2119109998489
 20
6021.9630737144371
 30
0.0
 11
2691.6695424282011
 21
6021.9630737144371
 31
0.0
  0
LINE
  5
7AC3
  8
2
 10
1032.6566666740539
 20
2914.4258460828169
 30
0.0
 11
2599.0802317535558
 21
2914.4258460828169
 31
0.0
  0
LINE
  5
7B11
  8
2
 10
1699.1284585244441
 20
6481.6572285915809
 30
0.0
 11
1699.1284585244441
 21
4801.7007792782479
 31
0.0
  0
LINE
  5
7B13
  8
1
 10
1726.628458524445
 20
4978.9630737144371
 30
0.0
 11
1726.62845852444
 21
5681.9630737144344
 31
0.0
  0
LINE
  5
7B14
  8
1
 10
1671.628458524445
 20
4978.9630737144371
 30
0.0
 11
1671.628458524445
 21
5719.663073714436
 31
0.0
  0
LINE
  5
7B15
  8
1
 10
1419.1284585244441
 20
5666.963073714438
 30
0.0
 11
1419.1284585244441
 21
4966.963073714438
 31
0.0
  0
LINE
  5
7B17
  8
1
 10
2489.1284585244448
 20
5716.9630737144371
 30
0.0
 11
2489.1284585244448
 21
4966.963073714438
 31
0.0
  0
LINE
  5
7B18
  8
1
 10
1479.1284585244459
 20
4833.9630737144362
 30
0.0
 11
2519.1284585244448
 21
4833.963073714438
 31
0.0
  0
LINE
  5
7B19
  8
1
 10
1572.128458524445
 20
4873.9630737144362
 30
0.0
 11
2409.1284585244448
 21
4873.9630737144362
 31
0.0
  0
LINE
  5
7B1A
  8
1
 10
1572.128458524445
 20
4958.9630737144362
 30
0.0
 11
2409.1284585244448
 21
4958.9630737144362
 31
0.0
  0
LINE
  5
7B1B
  8
1
 10
1419.1284585244441
 20
4966.963073714438
 30
0.0
 11
2489.1284585244448
 21
4966.9630737144371
 31
0.0
  0
LINE
  5
7B1C
  8
1
 10
2519.1284585244448
 20
4833.9630737144371
 30
0.0
 11
2519.1284585244448
 21
4993.9630737144371
 31
0.0
  0
LINE
  5
7B1D
  8
2
 10
2299.1284585244439
 20
4804.854654933466
 30
0.0
 11
2299.1284585244439
 21
5571.245132100903
 31
0.0
  0
LINE
  5
7B1E
  8
1
 10
2461.1284585244448
 20
5024.9667820596924
 30
0.0
 11
2139.1284585244439
 21
5024.9667820596924
 31
0.0
  0
LINE
  5
7B1F
  8
1
 10
2139.1284585244439
 20
5499.0885018781119
 30
0.0
 11
2461.1284585244448
 21
5499.0885018781119
 31
0.0
  0
LINE
  5
7B20
  8
1
 10
2461.1284585244448
 20
5093.5579100494224
 30
0.0
 11
2461.1284585244448
 21
5335.8049500098423
 31
0.0
  0
LINE
  5
7B21
  8
1
 10
2461.1284585244448
 20
5499.0885018781119
 30
0.0
 11
2461.1284585244448
 21
5024.9667820596924
 31
0.0
  0
LINE
  5
7B22
  8
1
 10
2409.1284585244448
 20
4873.9630737144362
 30
0.0
 11
2409.1284585244448
 21
4958.9630737144362
 31
0.0
  0
LINE
  5
7B23
  8
1
 10
2139.1284585244439
 20
5024.9667820596924
 30
0.0
 11
2139.1284585244439
 21
5499.0885018781119
 31
0.0
  0
LINE
  5
7B25
  8
1
 10
2240.9110095418459
 20
5014.0885018781119
 30
0.0
 11
2357.3459075070432
 21
5014.0885018781119
 31
0.0
  0
LINE
  5
7B26
  8
1
 10
2278.1284585244448
 20
4896.0885018771196
 30
0.0
 11
2278.1284585244448
 21
5006.0885018732497
 31
0.0
  0
LINE
  5
7B27
  8
1
 10
2320.1284585244448
 20
4896.0885018771196
 30
0.0
 11
2320.1284585244448
 21
5006.0885018732497
 31
0.0
  0
LINE
  5
7B28
  8
1
 10
2320.1284585244448
 20
4896.0885018771196
 30
0.0
 11
2278.1284585244448
 21
4896.0885018771196
 31
0.0
  0
LINE
  5
7B29
  8
1
 10
2268.7071495785981
 20
5006.0885018732497
 30
0.0
 11
2327.549767470291
 21
5006.0885018732497
 31
0.0
  0
LINE
  5
7B2A
  8
1
 10
2327.549767470291
 20
5006.0885018732497
 30
0.0
 11
2327.549767470291
 21
5014.0885018781119
 31
0.0
  0
LINE
  5
7B2B
  8
1
 10
2357.3459075070432
 20
5024.9667820596924
 30
0.0
 11
2357.3459075070432
 21
5014.0885018781119
 31
0.0
  0
LINE
  5
7B2C
  8
1
 10
2268.7071495785981
 20
5006.0885018732497
 30
0.0
 11
2268.707149578599
 21
5014.0885018781119
 31
0.0
  0
LINE
  5
7B2D
  8
1
 10
2189.1284585244439
 20
4873.9630737144362
 30
0.0
 11
2189.1284585244439
 21
4958.9630737144371
 31
0.0
  0
LINE
  5
7B2E
  8
1
 10
2240.9110095418459
 20
5024.9667820596924
 30
0.0
 11
2240.9110095418459
 21
5014.0885018781119
 31
0.0
  0
LINE
  5
7B2F
  8
1
 10
1479.128458524445
 20
4833.9630737144362
 30
0.0
 11
1479.128458524445
 21
4993.9630737144362
 31
0.0
  0
LINE
  5
7B32
  8
1
 10
1529.1284585244441
 20
5013.9630737144353
 30
0.0
 11
1671.628458524445
 21
5013.9630737144353
 31
0.0
  0
LINE
  5
7B33
  8
1
 10
1726.6284585244441
 20
5013.9630737144353
 30
0.0
 11
1869.1284585244441
 21
5013.9630737144353
 31
0.0
  0
LINE
  5
7B34
  8
1
 10
1826.128458524445
 20
4873.9630737144371
 30
0.0
 11
1826.128458524445
 21
4958.9630737144362
 31
0.0
  0
LINE
  5
7B35
  8
1
 10
1671.628458524445
 20
4978.9630737144362
 30
0.0
 11
1726.6284585244441
 21
4978.9630737144362
 31
0.0
  0
LINE
  5
7B36
  8
1
 10
1723.128458524445
 20
4958.9630737144362
 30
0.0
 11
1723.128458524445
 21
4978.9630737144371
 31
0.0
  0
LINE
  5
7B37
  8
1
 10
1675.128458524445
 20
4958.9630737144362
 30
0.0
 11
1675.128458524445
 21
4978.9630737144371
 31
0.0
  0
LINE
  5
7B38
  8
1
 10
1572.128458524445
 20
4873.9630737144371
 30
0.0
 11
1572.128458524445
 21
4958.9630737144362
 31
0.0
  0
LINE
  5
7B39
  8
1
 10
1479.1284585244441
 20
4993.9630737144362
 30
0.0
 11
1499.128458524445
 21
4993.9630737144362
 31
0.0
  0
LINE
  5
7B3A
  8
1
 10
1131.1284585244441
 20
5721.9630737144362
 30
0.0
 11
1682.1284585244441
 21
5721.9630737144344
 31
0.0
  0
LINE
  5
7B3B
  8
1
 10
1131.1284585244441
 20
6321.963073714438
 30
0.0
 11
1682.1284585244441
 21
6321.9630737144353
 31
0.0
  0
LINE
  5
7B3C
  8
1
 10
1199.1284585244441
 20
6376.963073714438
 30
0.0
 11
2199.1284585244439
 21
6376.963073714438
 31
0.0
  0
LINE
  5
7B3D
  8
1
 10
2199.1284585244439
 20
6376.963073714438
 30
0.0
 11
2199.1284585244439
 21
6361.9630737144334
 31
0.0
  0
LINE
  5
7B3E
  8
1
 10
2199.1284585244439
 20
5716.963073714438
 30
0.0
 11
2489.1284585244448
 21
5716.963073714438
 31
0.0
  0
LINE
  5
7B40
  8
1
 10
2199.1284585244439
 20
5721.9630737144334
 30
0.0
 11
2199.1284585244439
 21
5716.9630737144371
 31
0.0
  0
LINE
  5
7B41
  8
1
 10
1199.1284585244441
 20
6376.963073714438
 30
0.0
 11
1199.1284585244441
 21
6324.2630737144354
 31
0.0
  0
LINE
  5
7B42
  8
1
 10
1199.128458524445
 20
6321.9630737144362
 30
0.0
 11
1199.1284585244441
 21
6363.9630737144344
 31
0.0
  0
LINE
  5
7B45
  8
1
 10
1529.1284585244441
 20
5635.9630737144344
 30
0.0
 11
1671.628458524445
 21
5635.9630737144344
 31
0.0
  0
LINE
  5
7B46
  8
1
 10
1726.62845852444
 20
5635.9630737144344
 30
0.0
 11
1869.1284585244441
 21
5635.9630737144344
 31
0.0
  0
LINE
  5
7B47
  8
1
 10
1199.1284585244441
 20
5666.963073714438
 30
0.0
 11
1419.1284585244441
 21
5666.963073714438
 31
0.0
  0
LINE
  5
7B48
  8
1
 10
1199.1284585244459
 20
5679.9630737144371
 30
0.0
 11
1199.1284585244459
 21
5719.663073714436
 31
0.0
  0
LINE
  5
7B49
  8
1
 10
1199.128458524445
 20
5719.663073714436
 30
0.0
 11
1199.128458524445
 21
5666.9630737144362
 31
0.0
  0
LINE
  5
7B84
  8
4
 10
5550.0
 20
1500.0
 30
0.0
 11
5550.0
 21
900.0
 31
0.0
  0
LINE
  5
7B85
  8
4
 10
3450.0
 20
1500.0
 30
0.0
 11
3450.0
 21
900.0
 31
0.0
  0
LINE
  5
7B86
  8
4
 10
1950.0
 20
1500.0
 30
0.0
 11
1950.0
 21
900.0
 31
0.0
  0
LINE
  5
7B89
  8
4
 10
1950.0
 20
900.0
 30
0.0
 11
5550.0
 21
900.0
 31
0.0
  0
LINE
  5
7B8A
  8
4
 10
1950.0
 20
1200.0
 30
0.0
 11
5550.0
 21
1200.0
 31
0.0
  0
TEXT
  5
7B8B
  8
4
 10
2065.5062425407041
 20
1294.629077599838
 30
0.0
 40
150.0
  1
機器名称
  0
TEXT
  5
7B8C
  8
4
 10
2058.7743180743919
 20
964.93547019603284
 30
0.0
 40
150.0
  1
機器型番
  0
TEXT
  5
7B8D
  8
4
 10
3538.974217018409
 20
1270.006233746099
 30
0.0
 40
127.5
  1
ミツヤリミットロードファン
  0
TEXT
  5
7B8E
  8
4
 10
3559.9634867564419
 20
951.47875283983012
 30
0.0
 40
150.0
  1
LL#5-1
  0
TEXT
  5
7B90
  8
4
 10
2347.4864908824379
 20
7150.2865239975472
 30
0.0
 40
161.99999999999989
  1
床置防振ベット
  0
TEXT
  5
7B91
  8
4
 10
948.50277998833917
 20
7601.6429285978938
 30
0.0
 40
216.0
  1
遠心式片吸込片持リミットロードファン
  0
LINE
  5
7B92
  8
4
 10
750.0
 20
7408.2262627944137
 30
0.0
 11
5550.0
 21
7408.2262627944137
 31
0.0
  0
LINE
  5
7B93
  8
4
 10
750.0
 20
8008.2262627944137
 30
0.0
 11
5550.0
 21
8008.2262627944137
 31
0.0
  0
LINE
  5
7B94
  8
4
 10
1950.0
 20
1500.0
 30
0.0
 11
5550.0
 21
1500.0
 31
0.0
  0
LINE
  5
7B95
  8
4
 10
750.0
 20
8008.2262627944137
 30
0.0
 11
750.0
 21
7408.2262627944137
 31
0.0
  0
TEXT
  5
7B96
  8
4
 10
1039.9099941543309
 20
7146.9584326390304
 30
0.0
 40
161.99999999999989
  1
左回転上向
  0
TEXT
  5
7B97
  8
4
 10
4406.9086777478688
 20
8118.1832444859256
 30
0.0
 40
168.0
  1
No.
  0
TEXT
  5
7B98
  8
4
 10
3933.8881878000388
 20
7150.2865239975472
 30
0.0
 40
161.99999999999989
  1
縮尺：1/30
  0
LINE
  5
7B99
  8
4
 10
5550.0
 20
8008.2262627944137
 30
0.0
 11
5550.0
 21
7408.2262627944137
 31
0.0
  0
LINE
  5
7B9A
  8
4
 10
6300.0
 20
8850.0
 30
0.0
 11
6300.0
 21
8850.0
 31
0.0
  0
LINE
  5
7B9B
  8
4
 10
4321.8522670795937
 20
8043.790749376205
 30
0.0
 11
4321.8522670795937
 21
8359.9567846492573
 31
0.0
  0
LINE
  5
7B9C
  8
4
 10
4321.8522670795937
 20
8359.9567846492573
 30
0.0
 11
5550.0
 21
8359.9567846492573
 31
0.0
  0
LINE
  5
7B9D
  8
4
 10
5550.0
 20
8359.9567846492573
 30
0.0
 11
5550.0
 21
8043.790749376205
 31
0.0
  0
LINE
  5
7B9E
  8
4
 10
5550.0
 20
8043.790749376205
 30
0.0
 11
4321.8522670795937
 21
8043.790749376205
 31
0.0
  0
LINE
  5
7B9F
  8
4
 10
0.0
 20
0.0
 30
0.0
 11
0.0
 21
8850.0
 31
0.0
  0
LINE
  5
7BA0
  8
4
 10
0.0
 20
8850.0
 30
0.0
 11
6300.0
 21
8850.0
 31
0.0
  0
LINE
  5
7BA1
  8
4
 10
6300.0
 20
8850.0
 30
0.0
 11
6300.0
 21
0.0
 31
0.0
  0
LINE
  5
7BA2
  8
4
 10
6300.0
 20
0.0
 30
0.0
 11
0.0
 21
0.0
 31
0.0
  0
DIMENSION
  5
7BC1
  8
3
  2
*D1
 10
2199.1284585244439
 20
6545.857999248773
 30
0.0
 11
1697.839891098163
 21
6545.857999248773
 31
0.0
 70
   128
 13
1199.1284585244441
 23
6376.963073714438
 33
0.0
 14
2199.1284585244439
 24
6376.963073714438
 34
0.0
1001
ACAD
1000
DSTYLE
1002
{
1070
   287
1070
     3
1070
    40
1040
30.0
1070
   143
1040
0.039
1070
   172
1070
     1
1070
   271
1070
     0
1070
   279
1070
     0
1070
   288
1070
     1
1002
}
  0
DIMENSION
  5
7BCF
  8
3
  2
*D2
 10
2489.1284585244448
 20
6545.857999248773
 30
0.0
 11
2344.1284585244448
 21
6627.3175637142986
 31
0.0
 12
0.0
 22
-122.18934669828739
 32
0.0
 70
   128
 13
2199.1284585244439
 23
6376.963073714438
 33
0.0
 14
2489.1284585244448
 24
5716.963073714438
 34
0.0
1001
ACAD
1000
DSTYLE
1002
{
1070
   288
1070
     1
1070
   172
1070
     1
1070
    75
1070
     1
1070
    40
1040
30.0
1070
   271
1070
     0
1070
   143
1040
0.039
1002
}
  0
DIMENSION
  5
7BF0
  8
3
  2
*D3
 10
2670.3386767120501
 20
4966.9630737144371
 30
0.0
 11
2670.3386767120501
 21
5300.690338609922
 31
0.0
 70
   128
 13
2489.1284585244448
 23
5716.963073714438
 33
0.0
 14
2489.1284585244448
 24
4966.9630737144371
 34
0.0
 50
270.0
1001
ACAD
1000
DSTYLE
1002
{
1070
   287
1070
     3
1070
    40
1040
30.0
1070
   143
1040
0.039
1070
   172
1070
     1
1070
   271
1070
     0
1070
   279
1070
     0
1070
   288
1070
     1
1002
}
  0
DIMENSION
  5
7BFD
  8
3
  2
*D4
 10
1419.1284585244441
 20
4573.3727810772834
 30
0.0
 11
2000.6538988615459
 21
4573.3727810772834
 31
0.0
 70
   128
 13
2489.1284585244448
 23
4966.9630737144371
 33
0.0
 14
1419.1284585244441
 24
4966.963073714438
 34
0.0
1001
ACAD
1000
DSTYLE
1002
{
1070
   287
1070
     3
1070
    40
1040
30.0
1070
   143
1040
0.039
1070
   172
1070
     1
1070
   271
1070
     0
1070
   279
1070
     0
1070
   288
1070
     1
1002
}
  0
DIMENSION
  5
7C0B
  8
3
  2
*D5
 10
1199.128458524445
 20
4573.3727810772834
 30
0.0
 11
993.41417281015947
 21
4648.3727810772834
 31
0.0
 70
     0
 13
1419.1284585244441
 23
4966.963073714438
 33
0.0
 14
1199.128458524445
 24
5666.963073714438
 34
0.0
1001
ACAD
1000
DSTYLE
1002
{
1070
   287
1070
     3
1070
    40
1040
30.0
1070
   143
1040
0.039
1070
   172
1070
     1
1070
   271
1070
     0
1070
   279
1070
     0
1070
   288
1070
     1
1002
}
  0
DIMENSION
  5
7C24
  8
3
  2
*D6
 10
865.10141403442412
 20
5666.963073714438
 30
0.0
 11
865.10141403442321
 21
5300.690338609922
 31
0.0
 70
   128
 13
1419.1284585244441
 23
4966.963073714438
 33
0.0
 14
1199.128458524445
 24
5666.963073714438
 34
0.0
 50
270.0
1001
ACAD
1000
DSTYLE
1002
{
1070
   287
1070
     3
1070
    40
1040
30.0
1070
   143
1040
0.039
1070
   172
1070
     1
1070
   271
1070
     0
1070
   279
1070
     0
1070
   288
1070
     1
1002
}
  0
DIMENSION
  5
7C3C
  8
3
  2
*D7
 10
865.10141403442321
 20
6376.963073714438
 30
0.0
 11
790.10141403442219
 21
6021.9630737144371
 31
0.0
 70
     0
 13
1199.128458524445
 23
5666.963073714438
 33
0.0
 14
1199.1284585244441
 24
6376.963073714438
 34
0.0
 50
270.0
1001
ACAD
1000
DSTYLE
1002
{
1070
   287
1070
     4
1070
    40
1040
30.0
1070
    75
1070
     1
1070
   143
1040
0.039
1070
   172
1070
     1
1070
   271
1070
     0
1070
   279
1070
     1
1070
   288
1070
     1
1002
}
  0
INSERT
  5
7F01
  8
0
  2
YA_N
 10
7177.4506212370316
 20
2719.3491153156788
 30
0.0
  0
LINE
  5
7F03
  8
2
 10
1699.1284585244441
 20
3521.7967874184469
 30
0.0
 11
1699.1284585244441
 21
1964.48058884836
 31
0.0
  0
ARC
  5
7F05
  8
1
 10
1758.1284585244441
 20
2973.425846082816
 30
0.0
 40
745.0
 50
334.82836676800508
 51
355.45772539457568
  0
ARC
  5
7F06
  8
1
 10
1758.1284585244441
 20
2855.425846082816
 30
0.0
 40
627.0
 50
174.60054269289299
 51
239.6368462731277
  0
ARC
  5
7F07
  8
1
 10
1651.6284585244441
 20
2866.925846082816
 30
0.0
 40
520.5
 50
84.763993642811684
 51
174.76399364281161
  0
ARC
  5
7F08
  8
1
 10
1651.6284585244441
 20
2961.9258460828169
 30
0.0
 40
425.49999999999989
 50
80.462829206782203
 51
83.59051909175443
  0
LINE
  5
7F09
  8
1
 10
2589.6284585244439
 20
3459.4258460828169
 30
0.0
 11
1679.6284585244441
 21
3459.4258460828169
 31
0.0
  0
LINE
  5
7F0A
  8
1
 10
2547.1284585244439
 20
3459.4258460828169
 30
0.0
 11
2500.7885422774361
 21
2914.4258460828169
 31
0.0
  0
LINE
  5
7F0B
  8
1
 10
1722.1284585244441
 20
3459.4258460828169
 30
0.0
 11
1722.1284585244441
 21
3381.5447207774619
 31
0.0
  0
LINE
  5
7F0C
  8
1
 10
2589.6284585244439
 20
3459.4258460828169
 30
0.0
 11
2589.6284585244439
 21
3419.425846082816
 31
0.0
  0
LINE
  5
7F0D
  8
1
 10
1679.6284585244441
 20
3459.4258460828169
 30
0.0
 11
1679.6284585244441
 21
3419.425846082816
 31
0.0
  0
LINE
  5
7F0E
  8
1
 10
2589.6284585244439
 20
3419.425846082816
 30
0.0
 11
1679.6284585244441
 21
3419.425846082816
 31
0.0
  0
LINE
  5
7F0F
  8
1
 10
2589.6284585244439
 20
3456.4258460828169
 30
0.0
 11
1679.6284585244441
 21
3456.425846082816
 31
0.0
  0
LINE
  5
7F10
  8
1
 10
2489.1284585244448
 20
2214.425846082816
 30
0.0
 11
1199.1284585244441
 21
2214.4258460828169
 31
0.0
1001
ACAD
1000
ASC_BOUNDS
1002
{
1070
    19
1002
}
  0
LINE
  5
7F11
  8
1
 10
2499.1284585244439
 20
2314.4258460828169
 30
0.0
 11
1199.1284585244441
 21
2314.4258460828169
 31
0.0
  0
LINE
  5
7F12
  8
1
 10
2489.1284585244448
 20
2314.4258460828169
 30
0.0
 11
2489.1284585244448
 21
2214.4258460828169
 31
0.0
  0
LINE
  5
7F13
  8
1
 10
2501.1284585244462
 20
2354.425846082816
 30
0.0
 11
2097.1284585244439
 21
2354.425846082816
 31
0.0
  0
LINE
  5
7F14
  8
1
 10
2099.1284585244439
 20
2354.425846082816
 30
0.0
 11
2099.1284585244439
 21
2314.4258460828169
 31
0.0
  0
LINE
  5
7F15
  8
1
 10
1199.1284585244441
 20
2314.4258460828169
 30
0.0
 11
1199.1284585244441
 21
2214.4258460828169
 31
0.0
  0
LINE
  5
7F16
  8
1
 10
3669.9730063743241
 20
2214.425846082815
 30
0.0
 11
5079.9730063743236
 21
2214.425846082816
 31
0.0
1001
ACAD
1000
ASC_BOUNDS
1002
{
1070
    19
1002
}
  0
LINE
  5
7F17
  8
1
 10
3669.9730063743241
 20
2314.425846082816
 30
0.0
 11
5079.9730063743236
 21
2314.425846082815
 31
0.0
  0
LINE
  5
7F18
  8
1
 10
5079.9730063743236
 20
2220.0161698474421
 30
0.0
 11
5079.9730063743236
 21
2214.425846082816
 31
0.0
  0
LINE
  5
7F19
  8
1
 10
5079.9730063743236
 20
2314.425846082816
 30
0.0
 11
5079.9730063743264
 21
2308.8997309262259
 31
0.0
  0
LINE
  5
7F1A
  8
2
 10
3495.846343994991
 20
2914.425846082815
 30
0.0
 11
5113.5407166157638
 21
2914.425846082816
 31
0.0
  0
LINE
  5
7F1B
  8
2
 10
4724.9730063743236
 20
3695.4789817407541
 30
0.0
 11
4724.9730063743264
 21
1971.398642230361
 31
0.0
  0
INSERT
  5
7F1C
  8
0
  2
YA_N
 10
6437.8057640702827
 20
2443.3188486133149
 30
0.0
 41
20.0
 42
20.0
 43
20.0
  0
LINE
  5
7F1E
  8
1
 10
2433.587358524444
 20
2474.113846082817
 30
0.0
 11
2453.1284585244448
 21
2420.425846082816
 31
0.0
  0
LINE
  5
7F1F
  8
1
 10
2164.6816585244451
 20
2474.146846082816
 30
0.0
 11
2145.1284585244439
 21
2420.425846082816
 31
0.0
  0
ARC
  5
7F20
  8
1
 10
2299.1284585244439
 20
2564.4258460828169
 30
0.0
 40
162.0
 50
285.64190000000002
 51
0.0
  0
ARC
  5
7F21
  8
1
 10
2299.1284585244439
 20
2564.4258460828169
 30
0.0
 40
162.0
 50
0.0
 51
254.3600999999999
  0
LINE
  5
7F22
  8
2
 10
2299.1284585244439
 20
2792.8745325256109
 30
0.0
 11
2299.1284585244439
 21
2269.6290978023749
 31
0.0
  0
LINE
  5
7F23
  8
1
 10
2255.4478585244451
 20
2408.4258460828169
 30
0.0
 11
2342.8091585244451
 21
2408.4258460828169
 31
0.0
  0
LINE
  5
7F24
  8
1
 10
2214.1845585244441
 20
2426.4818460828169
 30
0.0
 11
2206.0071585244441
 21
2418.3038460828161
 31
0.0
  0
ARC
  5
7F25
  8
1
 10
2147.1284585244448
 20
2420.425846082816
 30
0.0
 40
2.0
 50
90.0
 51
180.0
  0
LINE
  5
7F26
  8
1
 10
2145.1284585244439
 20
2404.425846082816
 30
0.0
 11
2145.1284585244439
 21
2420.425846082816
 31
0.0
  0
ARC
  5
7F27
  8
1
 10
2208.1284585244439
 20
2416.182846082816
 30
0.0
 40
3.0
 50
135.0
 51
180.0
  0
LINE
  5
7F28
  8
1
 10
2205.1284585244439
 20
2404.425846082816
 30
0.0
 11
2205.1284585244439
 21
2416.182846082816
 31
0.0
  0
LINE
  5
7F29
  8
1
 10
2384.0723585244441
 20
2426.4818460828169
 30
0.0
 11
2392.2498585244439
 21
2418.3038460828161
 31
0.0
  0
ARC
  5
7F2A
  8
1
 10
2390.1284585244439
 20
2416.182846082816
 30
0.0
 40
3.0
 50
0.0
 51
45.0
  0
LINE
  5
7F2B
  8
1
 10
2393.1284585244448
 20
2404.425846082816
 30
0.0
 11
2393.1284585244448
 21
2416.182846082816
 31
0.0
  0
LINE
  5
7F2C
  8
1
 10
2453.1284585244448
 20
2404.425846082816
 30
0.0
 11
2453.1284585244448
 21
2420.425846082816
 31
0.0
  0
LINE
  5
7F2D
  8
2
 10
2111.018014461773
 20
2564.4258460828169
 30
0.0
 11
2600.4349233891439
 21
2564.425846082816
 31
0.0
  0
LINE
  5
7F2E
  8
1
 10
2487.6431017904852
 20
2404.425846082816
 30
0.0
 11
2359.1284585244462
 21
2404.425846082816
 31
0.0
  0
LINE
  5
7F2F
  8
1
 10
2097.1284585244462
 20
2354.425846082816
 30
0.0
 11
2110.373590909634
 21
2404.425846082816
 31
0.0
  0
LINE
  5
7F30
  8
1
 10
2501.1284585244462
 20
2354.425846082816
 30
0.0
 11
2487.6431017904852
 21
2404.425846082816
 31
0.0
  0
LINE
  5
7F31
  8
1
 10
2359.1284585244462
 20
2394.4258460828169
 30
0.0
 11
2239.1284585244448
 21
2394.4258460828169
 31
0.0
  0
LINE
  5
7F32
  8
1
 10
2359.1284585244462
 20
2364.425846082816
 30
0.0
 11
2239.1284585244448
 21
2364.425846082816
 31
0.0
  0
LINE
  5
7F33
  8
1
 10
2359.1284585244462
 20
2404.425846082816
 30
0.0
 11
2359.1284585244462
 21
2394.4258460828169
 31
0.0
  0
LINE
  5
7F34
  8
1
 10
2239.1284585244462
 20
2404.425846082816
 30
0.0
 11
2239.1284585244462
 21
2394.4258460828169
 31
0.0
  0
LINE
  5
7F35
  8
1
 10
2239.1284585244448
 20
2404.425846082816
 30
0.0
 11
2110.373590909634
 21
2404.425846082816
 31
0.0
  0
LINE
  5
7F36
  8
1
 10
2239.1284585244462
 20
2364.425846082816
 30
0.0
 11
2239.1284585244462
 21
2354.425846082816
 31
0.0
  0
LINE
  5
7F37
  8
1
 10
2359.1284585244462
 20
2364.425846082816
 30
0.0
 11
2359.1284585244462
 21
2354.425846082816
 31
0.0
  0
INSERT
  5
7F38
  8
0
  2
YA_N
 10
7134.7159925290107
 20
3016.0028029189998
 30
0.0
 41
20.0
 42
20.0
 43
20.0
  0
INSERT
  5
7F3A
  8
0
  2
YA_N
 10
7248.935517883172
 20
2939.6610930797542
 30
0.0
 41
20.0
 42
20.0
 43
20.0
  0
LINE
  5
7F3C
  8
1
 10
5066.9730063743227
 20
3459.425846082816
 30
0.0
 11
5066.9730063743227
 21
3419.425846082816
 31
0.0
  0
LINE
  5
7F3D
  8
1
 10
4382.9730063743264
 20
3459.425846082815
 30
0.0
 11
4382.9730063743264
 21
3419.425846082816
 31
0.0
  0
LINE
  5
7F3E
  8
1
 10
4422.6730063743216
 20
3459.425846082816
 30
0.0
 11
4422.6730063743253
 21
2314.425846082815
 31
0.0
  0
LINE
  5
7F3F
  8
1
 10
4424.9730063743218
 20
3459.425846082816
 30
0.0
 11
4424.9730063743264
 21
2314.425846082815
 31
0.0
  0
LINE
  5
7F40
  8
1
 10
5027.2730063743238
 20
3459.425846082816
 30
0.0
 11
5027.2730063743238
 21
2314.425846082815
 31
0.0
  0
LINE
  5
7F41
  8
1
 10
5024.9730063743227
 20
3459.425846082816
 30
0.0
 11
5024.9730063743264
 21
2314.425846082815
 31
0.0
  0
LINE
  5
7F42
  8
1
 10
2499.1284585244439
 20
2354.425846082816
 30
0.0
 11
2499.1284585244439
 21
2314.4258460828169
 31
0.0
  0
LINE
  5
7F43
  8
1
 10
1199.1284585244441
 20
2119.425846082815
 30
0.0
 11
1199.1284585244441
 21
2019.425846082815
 31
0.0
  0
LINE
  5
7F44
  8
1
 10
2489.1284585244448
 20
2019.425846082815
 30
0.0
 11
1199.1284585244441
 21
2019.425846082815
 31
0.0
1001
ACAD
1000
ASC_BOUNDS
1002
{
1070
    19
1002
}
  0
LINE
  5
7F45
  8
1
 10
2489.1284585244448
 20
2119.425846082815
 30
0.0
 11
1199.1284585244441
 21
2119.425846082815
 31
0.0
  0
LINE
  5
7F46
  8
1
 10
2489.1284585244448
 20
2119.425846082815
 30
0.0
 11
2489.1284585244448
 21
2019.425846082815
 31
0.0
  0
CIRCLE
  5
7F47
  8
1
 10
1699.1284585244441
 20
2914.4258460828169
 30
0.0
 40
127.0
  0
CIRCLE
  5
7F48
  8
1
 10
2299.1284585244462
 20
2564.4258460828169
 30
0.0
 40
110.0
  0
LINE
  5
7F49
  8
1
 10
1419.1284585244441
 20
2314.4258460828169
 30
0.0
 11
1419.1284585244441
 21
2214.4258460828169
 31
0.0
  0
LINE
  5
7F4A
  8
1
 10
1419.1284585244441
 20
2119.425846082815
 30
0.0
 11
1419.1284585244441
 21
2019.425846082815
 31
0.0
  0
LINE
  5
7F52
  8
1
 10
3669.9730063743241
 20
2119.4258460828169
 30
0.0
 11
5079.9730063743264
 21
2119.425846082816
 31
0.0
  0
LINE
  5
7F53
  8
1
 10
3669.9730063743241
 20
2019.425846082816
 30
0.0
 11
5079.9730063743264
 21
2019.4258460828171
 31
0.0
1001
ACAD
1000
ASC_BOUNDS
1002
{
1070
    19
1002
}
  0
LINE
  5
7F54
  8
1
 10
3716.9730063743241
 20
2834.425846082816
 30
0.0
 11
3716.9730063743259
 21
2314.425846082816
 31
0.0
  0
LINE
  5
7F55
  8
1
 10
4338.9730063743236
 20
2834.425846082816
 30
0.0
 11
4338.9730063743273
 21
2314.425846082815
 31
0.0
  0
LINE
  5
7F56
  8
1
 10
3576.9730063743241
 20
3041.425846082815
 30
0.0
 11
3576.9730063743241
 21
2454.425846082816
 31
0.0
  0
LINE
  5
7F57
  8
1
 10
3661.9730063743241
 20
3041.425846082815
 30
0.0
 11
3661.9730063743241
 21
2454.425846082815
 31
0.0
  0
LINE
  5
7F58
  8
1
 10
3576.9730063743268
 20
3041.425846082815
 30
0.0
 11
3661.9730063743241
 21
3041.425846082815
 31
0.0
  0
LINE
  5
7F59
  8
1
 10
3576.9730063743268
 20
2787.425846082815
 30
0.0
 11
3661.9730063743241
 21
2787.425846082815
 31
0.0
  0
LINE
  5
7F5A
  8
2
 10
3816.3763833373878
 20
2564.425846082816
 30
0.0
 11
3495.403169520745
 21
2564.425846082816
 31
0.0
  0
LINE
  5
7F5B
  8
1
 10
3576.9730063743241
 20
2674.425846082816
 30
0.0
 11
3661.9730063743259
 21
2674.425846082816
 31
0.0
  0
LINE
  5
7F5C
  8
1
 10
3576.9730063743241
 20
2454.425846082816
 30
0.0
 11
3661.9730063743241
 21
2454.425846082815
 31
0.0
  0
LINE
  5
7F5D
  8
1
 10
3696.9730063743241
 20
3134.425846082816
 30
0.0
 11
3696.9730063743241
 21
3114.425846082815
 31
0.0
  0
LINE
  5
7F5E
  8
1
 10
3536.9730063743241
 20
3134.425846082816
 30
0.0
 11
3536.9730063743259
 21
2344.425846082815
 31
0.0
  0
LINE
  5
7F5F
  8
1
 10
3536.9730063743241
 20
3134.425846082815
 30
0.0
 11
3696.9730063743241
 21
3134.425846082815
 31
0.0
  0
LINE
  5
7F60
  8
1
 10
3536.9730063743259
 20
2344.425846082815
 30
0.0
 11
3696.9730063743259
 21
2344.425846082816
 31
0.0
  0
LINE
  5
7F61
  8
1
 10
3696.9730063743241
 20
2364.425846082816
 30
0.0
 11
3696.9730063743241
 21
2344.425846082816
 31
0.0
  0
LINE
  5
7F62
  8
1
 10
4419.9730063743236
 20
2314.425846082816
 30
0.0
 11
4419.97300637434
 21
2214.425846082816
 31
0.0
  0
LINE
  5
7F63
  8
1
 10
5028.9730063743264
 20
3459.425846082816
 30
0.0
 11
5028.9730063743264
 21
2474.425846082816
 31
0.0
  0
LINE
  5
7F64
  8
1
 10
3716.9730063743259
 20
2834.425846082816
 30
0.0
 11
4338.9730063743236
 21
2834.425846082816
 31
0.0
  0
LINE
  5
7F65
  8
1
 10
3661.9730063743241
 20
2946.925846082815
 30
0.0
 11
4422.6730063743234
 21
2946.925846082815
 31
0.0
  0
LINE
  5
7F66
  8
1
 10
3661.9730063743241
 20
2881.925846082815
 30
0.0
 11
4422.6730063743234
 21
2881.925846082815
 31
0.0
  0
ARC
  5
7F67
  8
1
 10
1699.1284585244441
 20
2914.4258460828169
 30
0.0
 40
220.0
 50
59.743562836470701
 51
239.74356283647069
  0
ARC
  5
7F68
  8
1
 10
2299.1284585244439
 20
2564.425846082816
 30
0.0
 40
220.0
 50
239.74356283647069
 51
59.743562836470701
  0
LINE
  5
7F69
  8
1
 10
1809.9800841397439
 20
3104.4572042804721
 30
0.0
 11
2409.9800841397441
 21
2754.4572042804721
 31
0.0
  0
LINE
  5
7F6A
  8
1
 10
1765.785678405045
 20
3022.526794449559
 30
0.0
 11
2356.8630584210291
 21
2658.0565887626731
 31
0.0
  0
LINE
  5
7F6B
  8
1
 10
1588.2768329091471
 20
2724.3944878851612
 30
0.0
 11
2188.276832909145
 21
2374.3944878851612
 31
0.0
  0
LINE
  5
7F6C
  8
1
 10
1637.840772322601
 20
2803.1926697367981
 30
0.0
 11
2246.0446358299359
 21
2468.0821500350849
 31
0.0
  0
POINT
  5
7F6D
  8
1
 10
1199.1284585244441
 20
2019.425846082815
 30
0.0
  0
LINE
  5
7F6E
  8
1
 10
4382.9730063743264
 20
3459.425846082816
 30
0.0
 11
5066.9730063743227
 21
3459.425846082816
 31
0.0
  0
LINE
  5
7F6F
  8
1
 10
4382.9730063743264
 20
3419.425846082816
 30
0.0
 11
5066.9730063743227
 21
3419.425846082816
 31
0.0
  0
LINE
  5
7F70
  8
1
 10
4382.9730063743264
 20
3456.425846082816
 30
0.0
 11
5066.9730063743227
 21
3456.425846082816
 31
0.0
  0
POINT
  5
7F71
  8
1
 10
3536.9730063743241
 20
3134.425846082816
 30
0.0
  0
POINT
  5
7F72
  8
1
 10
5028.9730063743264
 20
3459.425846082816
 30
0.0
  0
LINE
  5
7F73
  8
1
 10
5079.9730063743236
 20
2314.425846082815
 30
0.0
 11
5079.9730063743236
 21
2214.425846082816
 31
0.0
  0
LINE
  5
7F74
  8
1
 10
3669.9730063743241
 20
2314.425846082816
 30
0.0
 11
3669.9730063743241
 21
2214.425846082815
 31
0.0
  0
LINE
  5
7F75
  8
1
 10
3669.9730063743259
 20
2119.4258460828169
 30
0.0
 11
3669.9730063743259
 21
2019.425846082815
 31
0.0
  0
LINE
  5
7F76
  8
1
 10
5079.9730063743264
 20
2119.425846082816
 30
0.0
 11
5079.9730063743264
 21
2019.4258460828171
 31
0.0
  0
DIMENSION
  5
7F84
  8
3
  2
*D9
 10
1722.1284585244441
 20
3584.255352776268
 30
0.0
 11
2143.6876544276379
 21
3584.255352776268
 31
0.0
 70
   128
 13
2547.1284585244439
 23
3459.4258460828169
 33
0.0
 14
1722.1284585244441
 24
3459.4258460828169
 34
0.0
1001
ACAD
1000
DSTYLE
1002
{
1070
   287
1070
     3
1070
    40
1040
30.0
1070
   143
1040
0.039
1070
   172
1070
     1
1070
   271
1070
     0
1070
   279
1070
     0
1070
   288
1070
     1
1002
}
  0
DIMENSION
  5
7F91
  8
3
  2
*D10
 10
1699.1284585244441
 20
3792.2079311727648
 30
0.0
 11
2148.8907828001202
 21
3792.2079311727648
 31
0.0
 70
   128
 13
2547.1284585244439
 23
3459.4258460828169
 33
0.0
 14
1699.1284585244441
 24
3521.7967874184469
 34
0.0
1001
ACAD
1000
DSTYLE
1002
{
1070
   287
1070
     3
1070
    40
1040
30.0
1070
   143
1040
0.039
1070
   172
1070
     1
1070
   271
1070
     0
1070
   279
1070
     0
1070
   288
1070
     1
1002
}
  0
DIMENSION
  5
7F9D
  8
3
  2
*D11
 10
1131.1284585244441
 20
3792.2079311727648
 30
0.0
 11
1415.128458524445
 21
3867.2079311727648
 31
0.0
 70
     0
 13
1699.1284585244441
 23
3521.7967874184469
 33
0.0
 14
1131.1284585244441
 24
2855.425846082816
 34
0.0
1001
ACAD
1000
DSTYLE
1002
{
1070
   287
1070
     4
1070
    40
1040
30.0
1070
    75
1070
     1
1070
   143
1040
0.039
1070
   172
1070
     1
1070
   271
1070
     0
1070
   279
1070
     1
1070
   288
1070
     1
1002
}
  0
DIMENSION
  5
7FAB
  8
3
  2
*D12
 10
789.48406522553375
 20
2914.4258460828169
 30
0.0
 11
789.48406522553341
 21
3194.671347301613
 31
0.0
 70
   128
 13
1679.6284585244441
 23
3459.4258460828169
 33
0.0
 14
1032.6566666740539
 24
2914.4258460828169
 34
0.0
 50
270.0
1001
ACAD
1000
DSTYLE
1002
{
1070
   287
1070
     3
1070
    40
1040
30.0
1070
   143
1040
0.039
1070
   172
1070
     1
1070
   271
1070
     0
1070
   279
1070
     0
1070
   288
1070
     1
1002
}
  0
DIMENSION
  5
7FC2
  8
3
  2
*D13
 10
789.48406522553341
 20
2214.4258460828169
 30
0.0
 11
714.48406522553296
 21
2564.4258460828169
 31
0.0
 70
     0
 13
1032.6566666740539
 23
2914.4258460828169
 33
0.0
 14
1199.1284585244441
 24
2214.4258460828169
 34
0.0
 50
270.0
1001
ACAD
1000
DSTYLE
1002
{
1070
   287
1070
     4
1070
    40
1040
30.0
1070
    75
1070
     1
1070
   143
1040
0.039
1070
   172
1070
     1
1070
   271
1070
     0
1070
   279
1070
     1
1070
   288
1070
     1
1002
}
  0
DIMENSION
  5
7FD2
  8
3
  2
*D14
 10
789.48406522553341
 20
2119.425846082815
 30
0.0
 11
645.91263665410474
 21
2166.925846082816
 31
0.0
 70
     0
  1
(<>)
 13
1199.1284585244441
 23
2214.4258460828169
 33
0.0
 14
1199.1284585244441
 24
2119.425846082815
 34
0.0
 50
270.0
1001
ACAD
1000
DSTYLE
1002
{
1070
   288
1070
     1
1070
   172
1070
     1
1070
    75
1070
     1
1070
    40
1040
30.0
1070
   271
1070
     0
1070
     7
1000
_DOT
1070
   143
1040
0.039
1002
}
  0
DIMENSION
  5
7FE2
  8
3
  2
*D15
 10
789.48406522553341
 20
2019.425846082815
 30
0.0
 11
714.48406522553296
 21
1762.2829889399591
 31
0.0
 70
     0
 13
1199.1284585244441
 23
2119.425846082815
 33
0.0
 14
1199.1284585244441
 24
2019.425846082815
 34
0.0
 50
270.0
1001
ACAD
1000
DSTYLE
1002
{
1070
   287
1070
     3
1070
    40
1040
30.0
1070
   143
1040
0.039
1070
   172
1070
     1
1070
   271
1070
     0
1070
   279
1070
     0
1070
   288
1070
     1
1070
     6
1000
DOT
1002
}
  0
DIMENSION
  5
8049
  8
3
  2
*D17
 10
1699.1284585244441
 20
1802.263705502035
 30
0.0
 11
2094.7233407153358
 21
1802.263705502035
 31
0.0
 70
   128
 13
2489.1284585244448
 23
2019.425846082815
 33
0.0
 14
1699.1284585244441
 24
1964.48058884836
 34
0.0
1001
ACAD
1000
DSTYLE
1002
{
1070
   287
1070
     3
1070
    40
1040
30.0
1070
   143
1040
0.039
1070
   172
1070
     1
1070
   271
1070
     0
1070
   279
1070
     0
1070
   288
1070
     1
1002
}
  0
DIMENSION
  5
8055
  8
3
  2
*D18
 10
1199.1284585244441
 20
1802.263705502035
 30
0.0
 11
1449.128458524445
 21
1877.263705502035
 31
0.0
 70
     0
 13
1699.1284585244441
 23
1964.48058884836
 33
0.0
 14
1199.1284585244441
 24
2019.425846082815
 34
0.0
1001
ACAD
1000
DSTYLE
1002
{
1070
   287
1070
     4
1070
    40
1040
30.0
1070
    75
1070
     1
1070
   143
1040
0.039
1070
   172
1070
     1
1070
   271
1070
     0
1070
   279
1070
     1
1070
   288
1070
     1
1002
}
  0
DIMENSION
  5
8062
  8
3
  2
*D19
 10
2589.6284585244439
 20
3987.9381234761681
 30
0.0
 11
1858.2059172787549
 21
3987.9381234761681
 31
0.0
 70
   128
 13
1131.1284585244441
 23
2855.425846082816
 33
0.0
 14
2589.6284585244439
 24
3459.4258460828169
 34
0.0
1001
ACAD
1000
DSTYLE
1002
{
1070
   287
1070
     3
1070
    40
1040
30.0
1070
   143
1040
0.039
1070
   172
1070
     1
1070
   271
1070
     0
1070
   279
1070
     0
1070
   288
1070
     1
1002
}
  0
DIMENSION
  5
806F
  8
3
  2
*D20
 10
463.73849755334618
 20
2019.425846082816
 30
0.0
 11
463.73849755334589
 21
2688.1656912394428
 31
0.0
 70
   128
 13
1679.6284585244441
 23
3459.4258460828169
 33
0.0
 14
1199.1284585244441
 24
2019.425846082815
 34
0.0
 50
270.0
1001
ACAD
1000
DSTYLE
1002
{
1070
   287
1070
     3
1070
    40
1040
30.0
1070
   143
1040
0.039
1070
   172
1070
     1
1070
   271
1070
     0
1070
   279
1070
     0
1070
   288
1070
     1
1002
}
  0
DIMENSION
  5
807C
  8
3
  2
*D21
 10
5024.9730063743227
 20
3679.230319817299
 30
0.0
 11
4724.681231214061
 21
3679.230319817299
 31
0.0
 70
   128
 13
4424.9730063743218
 23
3459.425846082816
 33
0.0
 14
5024.9730063743227
 24
3459.425846082816
 34
0.0
1001
ACAD
1000
DSTYLE
1002
{
1070
   287
1070
     3
1070
    40
1040
30.0
1070
   143
1040
0.039
1070
   172
1070
     1
1070
   271
1070
     0
1070
   279
1070
     0
1070
   288
1070
     1
1002
}
  0
DIMENSION
  5
808D
  8
3
  2
*D22
 10
5028.9730063743264
 20
3891.8289054225488
 30
0.0
 11
4876.9730063743255
 21
3960.7217862952712
 31
0.0
 70
   128
 13
4724.9730063743236
 23
3818.0259136261921
 33
0.0
 14
5028.9730063743264
 24
3459.425846082816
 34
0.0
1001
ACAD
1000
DSTYLE
1002
{
1070
   288
1070
     1
1070
   172
1070
     1
1070
    40
1040
30.0
1070
   271
1070
     0
1070
   143
1040
0.039
1002
}
  0
DIMENSION
  5
80B0
  8
3
  2
*D23
 10
4724.9730063743264
 20
1787.7689847585391
 30
0.0
 11
4188.9843337869088
 21
1787.7689847585391
 31
0.0
 70
   128
 13
3669.9730063743259
 23
2019.425846082816
 33
0.0
 14
4724.9730063743264
 24
1971.398642230361
 34
0.0
1001
ACAD
1000
DSTYLE
1002
{
1070
   287
1070
     3
1070
    40
1040
30.0
1070
   143
1040
0.039
1070
   172
1070
     1
1070
   271
1070
     0
1070
   279
1070
     0
1070
   288
1070
     1
1002
}
  0
DIMENSION
  5
80BE
  8
3
  2
*D24
 10
5079.9730063743264
 20
1787.7689847585391
 30
0.0
 11
4902.4730063743264
 21
1859.3435081716959
 31
0.0
 12
0.0
 22
-259.28993236672972
 32
0.0
 70
   128
 13
4724.9730063743264
 23
1971.398642230361
 33
0.0
 14
5079.9730063743264
 24
2019.4258460828171
 34
0.0
1001
ACAD
1000
DSTYLE
1002
{
1070
   288
1070
     1
1070
   172
1070
     1
1070
    75
1070
     1
1070
    40
1040
30.0
1070
   271
1070
     0
1070
   143
1040
0.039
1002
}
  0
DIMENSION
  5
80E2
  8
3
  2
*D25
 10
5301.2434279509334
 20
2514.425846082815
 30
0.0
 11
5301.2434279509316
 21
2900.8694885888758
 31
0.0
 70
   128
 13
5027.2730063743238
 23
3314.425846082816
 33
0.0
 14
5027.2730063743238
 24
2514.425846082816
 34
0.0
 50
90.0
1001
ACAD
1000
DSTYLE
1002
{
1070
   287
1070
     3
1070
     3
1000
φ<>
1070
    40
1040
30.0
1070
   143
1040
0.039
1070
   172
1070
     1
1070
   271
1070
     0
1070
   279
1070
     0
1070
   288
1070
     1
1002
}
  0
DIMENSION
  5
8118
  8
3
  2
*D26
 10
3536.9730063743241
 20
3891.8289054225488
 30
0.0
 11
4130.9730063743255
 21
4041.8289054225502
 31
0.0
 70
     0
  1
MAX\P1240
 13
4724.9730063743236
 23
3818.0259136261921
 33
0.0
 14
3536.9730063743241
 24
3134.425846082815
 34
0.0
1001
ACAD
1000
DSTYLE
1002
{
1070
   287
1070
     4
1070
    40
1040
30.0
1070
    75
1070
     1
1070
   143
1040
0.039
1070
   172
1070
     1
1070
   271
1070
     0
1070
   279
1070
     1
1070
   288
1070
     1
1002
}
  0
LINE
  5
816A
  8
1
 10
2547.1284585244439
 20
6321.9630737144334
 30
0.0
 11
2547.1284585244439
 21
5721.9630737144334
 31
0.0
  0
LINE
  5
816B
  8
1
 10
1131.1284585244441
 20
6321.9630737144371
 30
0.0
 11
1131.1284585244441
 21
5721.9630737144362
 31
0.0
  0
LINE
  5
816C
  8
1
 10
1722.1284585244441
 20
6321.9630737144334
 30
0.0
 11
1722.1284585244441
 21
5721.9630737144334
 31
0.0
  0
LINE
  5
816D
  8
1
 10
1682.1284585244441
 20
6361.9630737144353
 30
0.0
 11
2587.1284585244439
 21
6361.9630737144307
 31
0.0
  0
LINE
  5
816E
  8
1
 10
2587.1284585244439
 20
6361.9630737144307
 30
0.0
 11
2587.1284585244439
 21
5681.9630737144334
 31
0.0
  0
LINE
  5
816F
  8
1
 10
1682.1284585244441
 20
5681.9630737144353
 30
0.0
 11
2587.1284585244439
 21
5681.9630737144334
 31
0.0
  0
LINE
  5
8170
  8
1
 10
1682.1284585244441
 20
6361.9630737144353
 30
0.0
 11
1682.1284585244441
 21
5681.9630737144353
 31
0.0
  0
LINE
  5
8172
  8
1
 10
1722.1284585244441
 20
6321.9630737144353
 30
0.0
 11
2547.1284585244439
 21
6321.9630737144316
 31
0.0
  0
LINE
  5
8173
  8
1
 10
1722.1284585244441
 20
5721.9630737144344
 30
0.0
 11
2547.1284585244439
 21
5721.9630737144334
 31
0.0
  0
LINE
  5
8174
  8
1
 10
1722.1284585244441
 20
6321.9630737144353
 30
0.0
 11
2547.1284585244439
 21
5721.9630737144334
 31
0.0
  0
LINE
  5
8175
  8
1
 10
2547.1284585244439
 20
6321.9630737144316
 30
0.0
 11
1722.1284585244441
 21
5721.9630737144344
 31
0.0
  0
LINE
  5
824E
  8
1
 10
3727.9767147195789
 20
2402.425846082816
 30
0.0
 11
3727.9767147195789
 21
2724.425846082816
 31
0.0
  0
LINE
  5
824F
  8
1
 10
4202.0984345380002
 20
2724.425846082816
 30
0.0
 11
4202.0984345380002
 21
2402.425846082816
 31
0.0
  0
LINE
  5
826C
  8
1
 10
3727.9767147195789
 20
2724.425846082816
 30
0.0
 11
4202.0984345380002
 21
2724.425846082816
 31
0.0
  0
LINE
  5
8274
  8
1
 10
3599.098434537008
 20
2585.4258460828141
 30
0.0
 11
3709.0984345331372
 21
2585.4258460828141
 31
0.0
  0
LINE
  5
8275
  8
1
 10
3599.098434537008
 20
2543.425846082816
 30
0.0
 11
3709.0984345331372
 21
2543.4258460828141
 31
0.0
  0
LINE
  5
8276
  8
1
 10
3599.098434537008
 20
2543.425846082816
 30
0.0
 11
3599.098434537008
 21
2585.425846082816
 31
0.0
  0
LINE
  5
827A
  8
1
 10
3709.0984345331372
 20
2594.8471550286622
 30
0.0
 11
3709.0984345331372
 21
2536.0045371369702
 31
0.0
  0
LINE
  5
827B
  8
1
 10
3717.0984345380002
 20
2622.643295065413
 30
0.0
 11
3717.0984345380002
 21
2506.208397100218
 31
0.0
  0
LINE
  5
827C
  8
1
 10
3709.0984345331372
 20
2594.8471550286622
 30
0.0
 11
3717.0984345380002
 21
2594.8471550286608
 31
0.0
  0
LINE
  5
827D
  8
1
 10
3727.9767147195789
 20
2622.643295065413
 30
0.0
 11
3717.0984345380002
 21
2622.643295065413
 31
0.0
  0
LINE
  5
827E
  8
1
 10
3709.0984345331372
 20
2536.0045371369702
 30
0.0
 11
3717.0984345380002
 21
2536.0045371369702
 31
0.0
  0
LINE
  5
827F
  8
1
 10
3727.9767147195789
 20
2506.208397100218
 30
0.0
 11
3717.0984345380002
 21
2506.208397100218
 31
0.0
  0
LINE
  5
8280
  8
1
 10
4202.0984345380002
 20
2402.425846082816
 30
0.0
 11
3727.9767147195789
 21
2402.425846082816
 31
0.0
  0
LINE
  5
8281
  8
1
 10
3796.5678427093098
 20
2402.425846082816
 30
0.0
 11
4038.8148826697311
 21
2402.425846082816
 31
0.0
  0
LINE
  5
8326
  8
1
 10
3819.8909953516059
 20
2402.425846082816
 30
0.0
 11
3819.8909953516059
 21
2314.425846082815
 31
0.0
  0
LINE
  5
8328
  8
1
 10
4119.8909953516059
 20
2402.425846082816
 30
0.0
 11
4119.8909953516049
 21
2314.425846082816
 31
0.0
  0
LINE
  5
8329
  8
1
 10
3819.8909953516059
 20
2354.425846082816
 30
0.0
 11
4119.8909953516049
 21
2354.425846082816
 31
0.0
  0
LINE
  5
837B
  8
1
 10
1529.1284585244441
 20
2834.425846082816
 30
0.0
 11
1869.1284585244441
 21
2834.425846082816
 31
0.0
  0
LINE
  5
837E
  8
1
 10
1529.1284585244441
 20
2834.425846082816
 30
0.0
 11
1419.1284585244441
 21
2314.4258460828169
 31
0.0
  0
LINE
  5
837F
  8
1
 10
1869.1284585244441
 20
2834.425846082816
 30
0.0
 11
1979.1284585244441
 21
2314.4258460828169
 31
0.0
  0
LINE
  5
8380
  8
1
 10
1529.1284585244441
 20
5635.9630737144334
 30
0.0
 11
1529.1284585244441
 21
5013.9630737144353
 31
0.0
  0
LINE
  5
8381
  8
1
 10
1869.1284585244441
 20
5635.9630737144344
 30
0.0
 11
1869.1284585244441
 21
5013.9630737144353
 31
0.0
  0
LINE
  5
8386
  8
1
 10
2519.1284585244448
 20
4993.9630737144371
 30
0.0
 11
2499.1284585244439
 21
4993.9630737144371
 31
0.0
  0
ENDSEC
  0
EOF
