  0
SECTION
  2
HEADER
  9
$ACADVER
  1
AC1009
  9
$INSBASE
 10
0.0
 20
0.0
 30
0.0
  9
$EXTMIN
 10
0.0
 20
0.0
 30
0.0
  9
$EXTMAX
 10
6300.0
 20
8850.0
 30
0.0
  9
$LIMMIN
 10
0.0
 20
0.0
  9
$LIMMAX
 10
297.0
 20
210.0
  9
$ORTHOMODE
 70
     0
  9
$REGENMODE
 70
     1
  9
$FILLMODE
 70
     0
  9
$QTEXTMODE
 70
     0
  9
$MIRRTEXT
 70
     1
  9
$DRAGMODE
 70
     2
  9
$LTSCALE
 40
100.0
  9
$OSMODE
 70
    37
  9
$ATTMODE
 70
     1
  9
$TEXTSIZE
 40
180.0
  9
$TRACEWID
 40
0.05
  9
$TEXTSTYLE
  7
STANDARD
  9
$CLAYER
  8
1
  9
$CELTYPE
  6
BYLAYER
  9
$CECOLOR
 62
   256
  9
$DIMSCALE
 40
30.0
  9
$DIMASZ
 40
2.0
  9
$DIMEXO
 40
0.5
  9
$DIMDLI
 40
10.0
  9
$DIMRND
 40
0.0
  9
$DIMDLE
 40
0.0
  9
$DIMEXE
 40
1.0
  9
$DIMTP
 40
1.0
  9
$DIMTM
 40
1.0
  9
$DIMTXT
 40
3.0
  9
$DIMCEN
 40
0.0
  9
$DIMTSZ
 40
0.0
  9
$DIMTOL
 70
     0
  9
$DIMLIM
 70
     0
  9
$DIMTIH
 70
     0
  9
$DIMTOH
 70
     0
  9
$DIMSE1
 70
     0
  9
$DIMSE2
 70
     0
  9
$DIMTAD
 70
     1
  9
$DIMZIN
 70
     8
  9
$DIMBLK
  1

  9
$DIMASO
 70
     1
  9
$DIMSHO
 70
     1
  9
$DIMPOST
  1

  9
$DIMAPOST
  1

  9
$DIMALT
 70
     0
  9
$DIMALTD
 70
     2
  9
$DIMALTF
 40
0.039
  9
$DIMLFAC
 40
1.0
  9
$DIMTOFL
 70
     1
  9
$DIMTVP
 40
0.0
  9
$DIMTIX
 70
     0
  9
$DIMSOXD
 70
     0
  9
$DIMSAH
 70
     1
  9
$DIMBLK1
  1
OPEN
  9
$DIMBLK2
  1
OPEN
  9
$DIMSTYLE
  2
IGA
  9
$DIMCLRD
 70
     0
  9
$DIMCLRE
 70
     0
  9
$DIMCLRT
 70
     0
  9
$DIMTFAC
 40
10.0
  9
$DIMGAP
 40
1.0
  9
$LUNITS
 70
     2
  9
$LUPREC
 70
     3
  9
$SKETCHINC
 40
0.1
  9
$FILLETRAD
 40
50.0
  9
$AUNITS
 70
     0
  9
$AUPREC
 70
     0
  9
$MENU
  1
acad
  9
$ELEVATION
 40
0.0
  9
$PELEVATION
 40
0.0
  9
$THICKNESS
 40
0.0
  9
$LIMCHECK
 70
     0
  9
$BLIPMODE
 70
     0
  9
$CHAMFERA
 40
0.0
  9
$CHAMFERB
 40
0.0
  9
$SKPOLY
 70
     0
  9
$TDCREATE
 40
2452676.6653555548
  9
$TDUPDATE
 40
2454953.6439395249
  9
$TDINDWG
 40
0.0380959722
  9
$TDUSRTIMER
 40
0.0380959722
  9
$USRTIMER
 70
     1
  9
$ANGBASE
 50
0.0
  9
$ANGDIR
 70
     0
  9
$PDMODE
 70
     0
  9
$PDSIZE
 40
0.0
  9
$PLINEWID
 40
0.0
  9
$COORDS
 70
     1
  9
$SPLFRAME
 70
     0
  9
$SPLINETYPE
 70
     6
  9
$SPLINESEGS
 70
     8
  9
$ATTDIA
 70
     0
  9
$ATTREQ
 70
     1
  9
$HANDLING
 70
 10241
  9
$HANDSEED
  5
82C6
  9
$SURFTAB1
 70
     6
  9
$SURFTAB2
 70
     6
  9
$SURFTYPE
 70
     6
  9
$SURFU
 70
     6
  9
$SURFV
 70
     6
  9
$UCSNAME
  2

  9
$UCSORG
 10
0.0
 20
0.0
 30
0.0
  9
$UCSXDIR
 10
1.0
 20
0.0
 30
0.0
  9
$UCSYDIR
 10
0.0
 20
1.0
 30
0.0
  9
$PUCSNAME
  2

  9
$PUCSORG
 10
0.0
 20
0.0
 30
0.0
  9
$PUCSXDIR
 10
1.0
 20
0.0
 30
0.0
  9
$PUCSYDIR
 10
0.0
 20
1.0
 30
0.0
  9
$USERI1
 70
     0
  9
$USERI2
 70
     0
  9
$USERI3
 70
     0
  9
$USERI4
 70
     0
  9
$USERI5
 70
     0
  9
$USERR1
 40
0.0
  9
$USERR2
 40
0.0
  9
$USERR3
 40
0.0
  9
$USERR4
 40
0.0
  9
$USERR5
 40
0.0
  9
$WORLDVIEW
 70
     1
  9
$SHADEDGE
 70
     3
  9
$SHADEDIF
 70
    70
  9
$TILEMODE
 70
     1
  9
$MAXACTVP
 70
    16
  9
$PLIMCHECK
 70
     0
  9
$PEXTMIN
 10
1.0000000000000000E+020
 20
1.0000000000000000E+020
 30
1.0000000000000000E+020
  9
$PEXTMAX
 10
-1.0000000000000000E+020
 20
-1.0000000000000000E+020
 30
-1.0000000000000000E+020
  9
$PLIMMIN
 10
0.0
 20
0.0
  9
$PLIMMAX
 10
12.0
 20
9.0
  9
$UNITMODE
 70
     0
  9
$VISRETAIN
 70
     0
  9
$PLINEGEN
 70
     0
  9
$PSLTSCALE
 70
     1
  0
ENDSEC
  0
SECTION
  2
TABLES
  0
TABLE
  2
VPORT
 70
     2
  0
VPORT
  2
*ACTIVE
 70
     0
 10
0.0
 20
0.0
 11
1.0
 21
1.0
 12
5852.0819936253174
 22
971.78873402692273
 13
0.0
 23
0.0
 14
10.0
 24
10.0
 15
10.0
 25
10.0
 16
0.0
 26
0.0
 36
1.0
 17
0.0
 27
0.0
 37
0.0
 40
2562.7800020550089
 41
3.1666666666666661
 42
50.0
 43
0.0
 44
0.0
 50
0.0
 51
0.0
 71
     0
 72
   100
 73
     1
 74
     0
 75
     0
 76
     0
 77
     0
 78
     0
  0
ENDTAB
  0
TABLE
  2
LTYPE
 70
     2
  0
LTYPE
  2
CONTINUOUS
 70
     0
  3
Solid line
 72
    65
 73
     0
 40
0.0
  0
LTYPE
  2
CENTER
 70
     0
  3
____ _ ____ _ ____ _ ____ _ ____ _ ____ _ ____ 
 72
    65
 73
     4
 40
2.0
 49
1.25
 49
-0.25
 49
0.25
 49
-0.25
  0
ENDTAB
  0
TABLE
  2
LAYER
 70
     6
  0
LAYER
  2
0
 70
     0
 62
     7
  6
CONTINUOUS
  0
LAYER
  2
3
 70
     0
 62
     2
  6
CONTINUOUS
  0
LAYER
  2
2
 70
     0
 62
     3
  6
CENTER
  0
LAYER
  2
1
 70
     0
 62
     4
  6
CONTINUOUS
  0
LAYER
  2
4
 70
     0
 62
     7
  6
CONTINUOUS
  0
LAYER
  2
DEFPOINTS
 70
     0
 62
     7
  6
CONTINUOUS
  0
ENDTAB
  0
TABLE
  2
STYLE
 70
     1
  0
STYLE
  2
STANDARD
 70
     0
 40
0.0
 41
1.0
 50
0.0
 71
     0
 42
180.0
  3
simplex.shx
  4
extfont.shx
  0
ENDTAB
  0
TABLE
  2
VIEW
 70
     0
  0
ENDTAB
  0
TABLE
  2
UCS
 70
     0
  0
ENDTAB
  0
TABLE
  2
APPID
 70
     1
  0
APPID
  2
ACAD
 70
     0
  0
ENDTAB
  0
TABLE
  2
DIMSTYLE
 70
     1
  0
DIMSTYLE
  2
IGA
 70
     0
  3

  4

  5

  6
OPEN
  7
OPEN
 40
2.0
 41
2.0
 42
0.5
 43
10.0
 44
1.0
 45
0.0
 46
0.0
 47
1.0
 48
1.0
140
3.0
141
0.0
142
0.0
143
0.03937
144
1.0
145
0.0
146
10.0
147
1.0
 71
     0
 72
     0
 73
     0
 74
     0
 75
     0
 76
     0
 77
     1
 78
     8
170
     0
171
     2
172
     0
173
     1
174
     0
175
     0
176
     0
177
     0
178
     0
  0
ENDTAB
  0
ENDSEC
  0
SECTION
  2
BLOCKS
  0
BLOCK
  8
0
  2
$MODEL_SPACE
 70
     0
 10
0.0
 20
0.0
 30
0.0
  3
$MODEL_SPACE
  1

  0
ENDBLK
  5
1B
  8
0
  0
BLOCK
 67
     1
  8
0
  2
$PAPER_SPACE
 70
     0
 10
0.0
 20
0.0
 30
0.0
  3
$PAPER_SPACE
  1

  0
ENDBLK
  5
18
 67
     1
  8
0
  0
BLOCK
  8
0
  2
_OPEN
 70
     0
 10
0.0
 20
0.0
 30
0.0
  3
_OPEN
  1

  0
LINE
  5
7B80
  8
0
  6
BYBLOCK
 62
     0
 10
-1.0
 20
0.1666666666666666
 30
0.0
 11
0.0
 21
0.0
 31
0.0
  0
LINE
  5
7B81
  8
0
  6
BYBLOCK
 62
     0
 10
0.0
 20
0.0
 30
0.0
 11
-1.0
 21
-0.1666666666666666
 31
0.0
  0
LINE
  5
7B82
  8
0
  6
BYBLOCK
 62
     0
 10
0.0
 20
0.0
 30
0.0
 11
-1.0
 21
0.0
 31
0.0
  0
ENDBLK
  5
7B83
  8
0
  0
BLOCK
  8
0
  2
*D1
 70
     1
 10
0.0
 20
0.0
 30
0.0
  3
*D1
  1

  0
LINE
  5
81FC
  8
3
 62
     0
 10
2199.1284585244448
 20
6514.1524204127254
 30
0.0
 11
2199.1284585244448
 21
6698.0473459470604
 31
0.0
  0
LINE
  5
81FD
  8
3
 62
     0
 10
1199.1284585244441
 20
6514.1524204127254
 30
0.0
 11
1199.1284585244441
 21
6698.0473459470604
 31
0.0
  0
LINE
  5
81FE
  8
3
 62
     0
 10
2139.1284585244448
 20
6668.0473459470586
 30
0.0
 11
1259.1284585244441
 21
6668.0473459470586
 31
0.0
  0
INSERT
  5
81FF
  8
3
 62
     0
  2
_OPEN
 10
2199.1284585244448
 20
6668.0473459470586
 30
0.0
 41
60.0
 42
60.0
 43
60.0
  0
INSERT
  5
8200
  8
3
 62
     0
  2
_OPEN
 10
1199.1284585244441
 20
6668.0473459470586
 30
0.0
 41
60.0
 42
60.0
 43
60.0
 50
180.0
  0
TEXT
  8
3
  40
90
  5
82B1
  62
0
  72
0
  71
0
 10
1520.42
 20
6583.75
 30
0.000000
  1
1000
  0
POINT
  5
8202
  8
DEFPOINTS
 62
     0
 10
2199.1284585244448
 20
6499.1524204127236
 30
0.0
  0
POINT
  5
8203
  8
DEFPOINTS
 62
     0
 10
1199.1284585244441
 20
6499.1524204127263
 30
0.0
  0
POINT
  5
8204
  8
DEFPOINTS
 62
     0
 10
1199.1284585244441
 20
6668.0473459470586
 30
0.0
  0
ENDBLK
  5
7BC0
  8
0
  0
BLOCK
  8
0
  2
*D2
 70
     1
 10
0.0
 20
0.0
 30
0.0
  3
*D2
  1

  0
LINE
  5
7BDB
  8
0
  6
BYBLOCK
 62
     0
 10
1223.589143905157
 20
5854.1524204127254
 30
0.0
 11
1223.589143905157
 21
6698.0473459470604
 31
0.0
  0
LINE
  5
7BDC
  8
0
  6
BYBLOCK
 62
     0
 10
1453.589143905157
 20
6668.0473459470586
 30
0.0
 11
1283.589143905157
 21
6668.0473459470586
 31
0.0
  0
TEXT
  5
7BDD
  8
1
 62
     0
 10
1252.874858190871
 20
6704.5069104125869
 30
0.0
 40
90.0
  1
290
  0
INSERT
  5
7BDE
  8
0
  6
BYBLOCK
 62
     0
  2
_OPEN
 10
1513.589143905157
 20
6668.0473459470586
 30
0.0
 41
60.0
 42
60.0
 43
60.0
  0
INSERT
  5
7BDF
  8
0
  6
BYBLOCK
 62
     0
  2
_OPEN
 10
1223.589143905157
 20
6668.0473459470586
 30
0.0
 41
60.0
 42
60.0
 43
60.0
 50
180.0
  0
POINT
  5
7BE0
  8
DEFPOINTS
  6
BYBLOCK
 62
     0
 10
1513.589143905157
 20
6499.1524204127263
 30
0.0
  0
POINT
  5
7BE1
  8
DEFPOINTS
  6
BYBLOCK
 62
     0
 10
1223.589143905157
 20
5839.1524204127263
 30
0.0
  0
POINT
  5
7BE2
  8
DEFPOINTS
  6
BYBLOCK
 62
     0
 10
1223.589143905157
 20
6668.0473459470586
 30
0.0
  0
ENDBLK
  5
7BE3
  8
0
  0
BLOCK
  8
0
  2
*D3
 70
     1
 10
0.0
 20
0.0
 30
0.0
  3
*D3
  1

  0
LINE
  5
8205
  8
3
 62
     0
 10
894.1284585244448
 20
5839.1524204127263
 30
0.0
 11
697.91824033684043
 21
5839.1524204127263
 31
0.0
  0
LINE
  5
8206
  8
3
 62
     0
 10
894.1284585244448
 20
5089.1524204127236
 30
0.0
 11
697.91824033684031
 21
5089.1524204127236
 31
0.0
  0
LINE
  5
8207
  8
3
 62
     0
 10
727.91824033684043
 20
5779.1524204127254
 30
0.0
 11
727.91824033684031
 21
5149.1524204127254
 31
0.0
  0
INSERT
  5
8208
  8
3
 62
     0
  2
_OPEN
 10
727.91824033684043
 20
5839.1524204127263
 30
0.0
 41
60.0
 42
60.0
 43
60.0
 50
90.0
  0
INSERT
  5
8209
  8
3
 62
     0
  2
_OPEN
 10
727.91824033684031
 20
5089.1524204127236
 30
0.0
 41
60.0
 42
60.0
 43
60.0
 50
270.0
  0
TEXT
  8
3
  40
90
  5
82B2
  62
0
  72
0
  71
0
 10
472.918
 20
5263.58
 30
0.000000
  1
750
  0
POINT
  5
820B
  8
DEFPOINTS
 62
     0
 10
909.1284585244448
 20
5839.1524204127263
 30
0.0
  0
POINT
  5
820C
  8
DEFPOINTS
 62
     0
 10
909.1284585244448
 20
5089.1524204127236
 30
0.0
  0
POINT
  5
820D
  8
DEFPOINTS
 62
     0
 10
727.91824033684031
 20
5089.1524204127236
 30
0.0
  0
ENDBLK
  5
7BEF
  8
0
  0
BLOCK
  8
0
  2
*D4
 70
     1
 10
0.0
 20
0.0
 30
0.0
  3
*D4
  1

  0
LINE
  5
820E
  8
3
 62
     0
 10
909.1284585244448
 20
5074.1524204127236
 30
0.0
 11
909.1284585244448
 21
4665.5621277755699
 31
0.0
  0
LINE
  5
820F
  8
3
 62
     0
 10
1979.1284585244441
 20
5074.1524204127254
 30
0.0
 11
1979.1284585244441
 21
4665.5621277755699
 31
0.0
  0
LINE
  5
8210
  8
3
 62
     0
 10
969.1284585244448
 20
4695.5621277755708
 30
0.0
 11
1919.1284585244441
 21
4695.5621277755708
 31
0.0
  0
INSERT
  5
8211
  8
3
 62
     0
  2
_OPEN
 10
909.1284585244448
 20
4695.5621277755708
 30
0.0
 41
60.0
 42
60.0
 43
60.0
 50
180.0
  0
INSERT
  5
8212
  8
3
 62
     0
  2
_OPEN
 10
1979.1284585244441
 20
4695.5621277755708
 30
0.0
 41
60.0
 42
60.0
 43
60.0
  0
TEXT
  8
3
  40
90
  5
82B3
  62
0
  72
0
  71
0
 10
1217.60
 20
4611.26
 30
0.000000
  1
1070
  0
POINT
  5
8214
  8
DEFPOINTS
 62
     0
 10
909.1284585244448
 20
5089.1524204127236
 30
0.0
  0
POINT
  5
8215
  8
DEFPOINTS
 62
     0
 10
1979.1284585244441
 20
5089.1524204127263
 30
0.0
  0
POINT
  5
8216
  8
DEFPOINTS
 62
     0
 10
1979.1284585244441
 20
4695.5621277755708
 30
0.0
  0
ENDBLK
  5
7BFC
  8
0
  0
BLOCK
  8
0
  2
*D5
 70
     1
 10
0.0
 20
0.0
 30
0.0
  3
*D5
  1

  0
LINE
  5
8217
  8
3
 62
     0
 10
1979.1284585244441
 20
5074.1524204127254
 30
0.0
 11
1979.1284585244441
 21
4665.5621277755699
 31
0.0
  0
LINE
  5
8218
  8
3
 62
     0
 10
2199.1284585244439
 20
5774.1524204127254
 30
0.0
 11
2199.1284585244439
 21
4665.5621277755699
 31
0.0
  0
LINE
  5
8219
  8
3
 62
     0
 10
2039.1284585244441
 20
4695.5621277755708
 30
0.0
 11
2139.1284585244439
 21
4695.5621277755708
 31
0.0
  0
LINE
  5
821A
  8
3
 62
     0
 10
2199.1284585244439
 20
4695.5621277755708
 30
0.0
 11
2550.5570299530159
 21
4695.5621277755708
 31
0.0
  0
INSERT
  5
821B
  8
3
 62
     0
  2
_OPEN
 10
1979.1284585244441
 20
4695.5621277755708
 30
0.0
 41
60.0
 42
60.0
 43
60.0
 50
180.0
  0
INSERT
  5
821C
  8
3
 62
     0
  2
_OPEN
 10
2199.1284585244439
 20
4695.5621277755708
 30
0.0
 41
60.0
 42
60.0
 43
60.0
  0
TEXT
  8
3
  40
90
  5
82B4
  62
0
  72
0
  71
0
 10
2224.84
 20
4611.26
 30
0.000000
  1
220
  0
POINT
  5
821E
  8
DEFPOINTS
 62
     0
 10
1979.1284585244441
 20
5089.1524204127263
 30
0.0
  0
POINT
  5
821F
  8
DEFPOINTS
 62
     0
 10
2199.1284585244439
 20
5789.1524204127236
 30
0.0
  0
POINT
  5
8220
  8
DEFPOINTS
 62
     0
 10
2199.1284585244439
 20
4695.5621277755708
 30
0.0
  0
ENDBLK
  5
7C17
  8
0
  0
BLOCK
  8
0
  2
*D6
 70
     1
 10
0.0
 20
0.0
 30
0.0
  3
*D6
  1

  0
LINE
  5
8221
  8
3
 62
     0
 10
1994.1284585244441
 20
5089.1524204127263
 30
0.0
 11
2563.1555030144668
 21
5089.1524204127236
 31
0.0
  0
LINE
  5
8222
  8
3
 62
     0
 10
2214.1284585244439
 20
5789.1524204127236
 30
0.0
 11
2563.1555030144668
 21
5789.1524204127236
 31
0.0
  0
LINE
  5
8223
  8
3
 62
     0
 10
2533.1555030144668
 20
5149.1524204127254
 30
0.0
 11
2533.1555030144668
 21
5729.1524204127254
 31
0.0
  0
INSERT
  5
8224
  8
3
 62
     0
  2
_OPEN
 10
2533.1555030144668
 20
5089.1524204127236
 30
0.0
 41
60.0
 42
60.0
 43
60.0
 50
270.0
  0
INSERT
  5
8225
  8
3
 62
     0
  2
_OPEN
 10
2533.1555030144668
 20
5789.1524204127236
 30
0.0
 41
60.0
 42
60.0
 43
60.0
 50
90.0
  0
TEXT
  8
3
  40
90
  5
82B5
  62
0
  72
0
  71
0
 10
2278.16
 20
5263.58
 30
0.000000
  1
700
  0
POINT
  5
8227
  8
DEFPOINTS
 62
     0
 10
1979.1284585244441
 20
5089.1524204127263
 30
0.0
  0
POINT
  5
8228
  8
DEFPOINTS
 62
     0
 10
2199.1284585244439
 20
5789.1524204127236
 30
0.0
  0
POINT
  5
8229
  8
DEFPOINTS
 62
     0
 10
2533.1555030144668
 20
5789.1524204127236
 30
0.0
  0
ENDBLK
  5
7C23
  8
0
  0
BLOCK
  8
0
  2
*D7
 70
     1
 10
0.0
 20
0.0
 30
0.0
  3
*D7
  1

  0
LINE
  5
822A
  8
3
 62
     0
 10
2214.1284585244448
 20
6499.1524204127236
 30
0.0
 11
2563.1555030144659
 21
6499.1524204127236
 31
0.0
  0
LINE
  5
822B
  8
3
 62
     0
 10
2533.1555030144659
 20
5849.1524204127254
 30
0.0
 11
2533.1555030144659
 21
6439.1524204127254
 31
0.0
  0
INSERT
  5
822C
  8
3
 62
     0
  2
_OPEN
 10
2533.1555030144659
 20
5789.1524204127236
 30
0.0
 41
60.0
 42
60.0
 43
60.0
 50
270.0
  0
INSERT
  5
822D
  8
3
 62
     0
  2
_OPEN
 10
2533.1555030144659
 20
6499.1524204127236
 30
0.0
 41
60.0
 42
60.0
 43
60.0
 50
90.0
  0
TEXT
  8
3
  40
90
  5
82B6
  62
0
  72
0
  71
0
 10
2278.16
 20
5984.85
 30
0.000000
  1
710
  0
POINT
  5
822F
  8
DEFPOINTS
 62
     0
 10
2199.1284585244439
 20
5789.1524204127236
 30
0.0
  0
POINT
  5
8230
  8
DEFPOINTS
 62
     0
 10
2199.1284585244448
 20
6499.1524204127236
 30
0.0
  0
POINT
  5
8231
  8
DEFPOINTS
 62
     0
 10
2533.1555030144659
 20
6499.1524204127236
 30
0.0
  0
ENDBLK
  5
7C3B
  8
0
  0
BLOCK
  8
0
  2
YA_N
 70
     0
 10
0.0
 20
0.0
 30
0.0
  3
YA_N
  1

  0
ENDBLK
  5
7E7B
  8
0
  0
BLOCK
  8
0
  2
*D9
 70
     1
 10
0.0
 20
0.0
 30
0.0
  3
*D9
  1

  0
LINE
  5
8232
  8
3
 62
     0
 10
851.1284585244448
 20
3753.7157784495471
 30
0.0
 11
851.1284585244448
 21
3893.5452851429982
 31
0.0
  0
LINE
  5
8233
  8
3
 62
     0
 10
1676.1284585244441
 20
3753.7157784495471
 30
0.0
 11
1676.1284585244441
 21
3893.5452851429982
 31
0.0
  0
LINE
  5
8234
  8
3
 62
     0
 10
911.12845852444468
 20
3863.5452851429982
 30
0.0
 11
1616.1284585244441
 21
3863.5452851429982
 31
0.0
  0
INSERT
  5
8235
  8
3
 62
     0
  2
_OPEN
 10
851.1284585244448
 20
3863.5452851429982
 30
0.0
 41
60.0
 42
60.0
 43
60.0
 50
180.0
  0
INSERT
  5
8236
  8
3
 62
     0
  2
_OPEN
 10
1676.1284585244441
 20
3863.5452851429982
 30
0.0
 41
60.0
 42
60.0
 43
60.0
  0
TEXT
  8
3
  40
90
  5
82B7
  62
0
  72
0
  71
0
 10
1074.57
 20
3779.25
 30
0.000000
  1
825
  0
POINT
  5
8238
  8
DEFPOINTS
 62
     0
 10
851.1284585244448
 20
3738.7157784495462
 30
0.0
  0
POINT
  5
8239
  8
DEFPOINTS
 62
     0
 10
1676.1284585244441
 20
3738.7157784495462
 30
0.0
  0
POINT
  5
823A
  8
DEFPOINTS
 62
     0
 10
1676.1284585244441
 20
3863.5452851429982
 30
0.0
  0
ENDBLK
  5
7F83
  8
0
  0
BLOCK
  8
0
  2
*D10
 70
     1
 10
0.0
 20
0.0
 30
0.0
  3
*D10
  1

  0
LINE
  5
823B
  8
3
 62
     0
 10
851.1284585244448
 20
3753.7157784495471
 30
0.0
 11
851.1284585244448
 21
4101.4978635394946
 31
0.0
  0
LINE
  5
823C
  8
3
 62
     0
 10
1699.1284585244441
 20
3816.0867197851758
 30
0.0
 11
1699.1284585244441
 21
4101.4978635394946
 31
0.0
  0
LINE
  5
823D
  8
3
 62
     0
 10
911.12845852444468
 20
4071.4978635394941
 30
0.0
 11
1639.1284585244441
 21
4071.4978635394941
 31
0.0
  0
INSERT
  5
823E
  8
3
 62
     0
  2
_OPEN
 10
851.1284585244448
 20
4071.4978635394941
 30
0.0
 41
60.0
 42
60.0
 43
60.0
 50
180.0
  0
INSERT
  5
823F
  8
3
 62
     0
  2
_OPEN
 10
1699.1284585244441
 20
4071.4978635394941
 30
0.0
 41
60.0
 42
60.0
 43
60.0
  0
TEXT
  8
3
  40
90
  5
82B8
  62
0
  72
0
  71
0
 10
1069.37
 20
3987.20
 30
0.000000
  1
848
  0
POINT
  5
8241
  8
DEFPOINTS
 62
     0
 10
851.1284585244448
 20
3738.7157784495462
 30
0.0
  0
POINT
  5
8242
  8
DEFPOINTS
 62
     0
 10
1699.1284585244441
 20
3801.0867197851758
 30
0.0
  0
POINT
  5
8243
  8
DEFPOINTS
 62
     0
 10
1699.1284585244441
 20
4071.4978635394941
 30
0.0
  0
ENDBLK
  5
7F90
  8
0
  0
BLOCK
  8
0
  2
*D11
 70
     1
 10
0.0
 20
0.0
 30
0.0
  3
*D11
  1

  0
LINE
  5
8244
  8
3
 62
     0
 10
2267.1284585244439
 20
3149.7157784495471
 30
0.0
 11
2267.1284585244439
 21
4101.4978635394946
 31
0.0
  0
LINE
  5
8245
  8
3
 62
     0
 10
1759.1284585244441
 20
4071.4978635394941
 30
0.0
 11
2207.1284585244448
 21
4071.4978635394941
 31
0.0
  0
INSERT
  5
8246
  8
3
 62
     0
  2
_OPEN
 10
1699.1284585244441
 20
4071.4978635394941
 30
0.0
 41
60.0
 42
60.0
 43
60.0
 50
180.0
  0
INSERT
  5
8247
  8
3
 62
     0
  2
_OPEN
 10
2267.1284585244439
 20
4071.4978635394941
 30
0.0
 41
60.0
 42
60.0
 43
60.0
  0
TEXT
  8
3
  40
90
  5
82B9
  62
0
  72
0
  71
0
 10
1803.13
 20
3987.20
 30
0.000000
  1
568
  0
POINT
  5
8249
  8
DEFPOINTS
 62
     0
 10
1699.1284585244441
 20
3801.0867197851758
 30
0.0
  0
POINT
  5
824A
  8
DEFPOINTS
 62
     0
 10
2267.1284585244439
 20
3134.7157784495462
 30
0.0
  0
POINT
  5
824B
  8
DEFPOINTS
 62
     0
 10
2267.1284585244439
 20
4071.4978635394941
 30
0.0
  0
ENDBLK
  5
7F9C
  8
0
  0
BLOCK
  8
0
  2
*D12
 70
     1
 10
0.0
 20
0.0
 30
0.0
  3
*D12
  1

  0
LINE
  5
824C
  8
3
 62
     0
 10
1733.628458524445
 20
3738.7157784495462
 30
0.0
 11
2638.7728518233571
 21
3738.7157784495462
 31
0.0
  0
LINE
  5
824D
  8
3
 62
     0
 10
2380.6002503748341
 20
3193.7157784495471
 30
0.0
 11
2638.7728518233571
 21
3193.7157784495471
 31
0.0
  0
LINE
  5
824E
  8
3
 62
     0
 10
2608.7728518233571
 20
3678.7157784495471
 30
0.0
 11
2608.7728518233571
 21
3253.7157784495471
 31
0.0
  0
INSERT
  5
824F
  8
3
 62
     0
  2
_OPEN
 10
2608.7728518233571
 20
3738.7157784495462
 30
0.0
 41
60.0
 42
60.0
 43
60.0
 50
90.0
  0
INSERT
  5
8250
  8
3
 62
     0
  2
_OPEN
 10
2608.7728518233571
 20
3193.7157784495471
 30
0.0
 41
60.0
 42
60.0
 43
60.0
 50
270.0
  0
TEXT
  8
3
  40
90
  5
82BA
  62
0
  72
0
  71
0
 10
2353.77
 20
3314.66
 30
0.000000
  1
545
  0
POINT
  5
8252
  8
DEFPOINTS
 62
     0
 10
1718.6284585244441
 20
3738.7157784495462
 30
0.0
  0
POINT
  5
8253
  8
DEFPOINTS
 62
     0
 10
2365.6002503748341
 20
3193.7157784495471
 30
0.0
  0
POINT
  5
8254
  8
DEFPOINTS
 62
     0
 10
2608.7728518233571
 20
3193.7157784495471
 30
0.0
  0
ENDBLK
  5
7FB6
  8
0
  0
BLOCK
  8
0
  2
*D13
 70
     1
 10
0.0
 20
0.0
 30
0.0
  3
*D13
  1

  0
LINE
  5
8255
  8
3
 62
     0
 10
2214.1284585244448
 20
2493.7157784495462
 30
0.0
 11
2638.7728518233562
 21
2493.7157784495462
 31
0.0
  0
LINE
  5
8256
  8
3
 62
     0
 10
2608.7728518233562
 20
3133.7157784495471
 30
0.0
 11
2608.7728518233562
 21
2553.7157784495471
 31
0.0
  0
INSERT
  5
8257
  8
3
 62
     0
  2
_OPEN
 10
2608.7728518233562
 20
3193.7157784495471
 30
0.0
 41
60.0
 42
60.0
 43
60.0
 50
90.0
  0
INSERT
  5
8258
  8
3
 62
     0
  2
_OPEN
 10
2608.7728518233562
 20
2493.7157784495462
 30
0.0
 41
60.0
 42
60.0
 43
60.0
 50
270.0
  0
TEXT
  8
3
  40
90
  5
82BB
  62
0
  72
0
  71
0
 10
2353.77
 20
2684.42
 30
0.000000
  1
700
  0
POINT
  5
825A
  8
DEFPOINTS
 62
     0
 10
2365.6002503748341
 20
3193.7157784495471
 30
0.0
  0
POINT
  5
825B
  8
DEFPOINTS
 62
     0
 10
2199.1284585244439
 20
2493.7157784495462
 30
0.0
  0
POINT
  5
825C
  8
DEFPOINTS
 62
     0
 10
2608.7728518233562
 20
2493.7157784495462
 30
0.0
  0
ENDBLK
  5
7FC1
  8
0
  0
BLOCK
  8
0
  2
*D14
 70
     1
 10
0.0
 20
0.0
 30
0.0
  3
*D14
  1

  0
LINE
  5
81C8
  8
0
  6
BYBLOCK
 62
     0
 10
2214.1284585244448
 20
2473.7157784495462
 30
0.0
 11
2638.7728518233562
 21
2473.7157784495462
 31
0.0
  0
LINE
  5
81C9
  8
0
  6
BYBLOCK
 62
     0
 10
2608.7728518233562
 20
2553.7157784495471
 30
0.0
 11
2608.7728518233562
 21
2613.7157784495471
 31
0.0
  0
LINE
  5
81CA
  8
0
  6
BYBLOCK
 62
     0
 10
2608.7728518233562
 20
2413.7157784495448
 30
0.0
 11
2608.7728518233562
 21
2353.7157784495448
 31
0.0
  0
TEXT
  5
81CB
  8
1
 62
     0
 10
2782.3442803947842
 20
2418.1771634106231
 30
0.0
 40
90.0
  1
(20)
 50
90.0
  0
LINE
  5
81CC
  8
0
  6
BYBLOCK
 62
     0
 10
2608.7728518233562
 20
2493.7157784495462
 30
0.0
 11
2608.7728518233562
 21
2473.7157784495462
 31
0.0
  0
INSERT
  5
81CD
  8
0
  6
BYBLOCK
 62
     0
  2
_OPEN
 10
2608.7728518233562
 20
2493.7157784495462
 30
0.0
 41
60.0
 42
60.0
 43
60.0
 50
270.0
  0
INSERT
  5
81CE
  8
0
  6
BYBLOCK
 62
     0
  2
_DOT
 10
2608.7728518233562
 20
2473.7157784495462
 30
0.0
 41
60.0
 42
60.0
 43
60.0
 50
90.0
  0
POINT
  5
81CF
  8
DEFPOINTS
  6
BYBLOCK
 62
     0
 10
2199.1284585244439
 20
2493.7157784495462
 30
0.0
  0
POINT
  5
81D0
  8
DEFPOINTS
  6
BYBLOCK
 62
     0
 10
2199.1284585244439
 20
2473.7157784495462
 30
0.0
  0
POINT
  5
81D1
  8
DEFPOINTS
  6
BYBLOCK
 62
     0
 10
2608.7728518233562
 20
2473.7157784495462
 30
0.0
  0
ENDBLK
  5
81D2
  8
0
  0
BLOCK
  8
0
  2
*D15
 70
     1
 10
0.0
 20
0.0
 30
0.0
  3
*D15
  1

  0
LINE
  5
825D
  8
3
 62
     0
 10
2214.1284585244448
 20
2473.7157784495462
 30
0.0
 11
2638.7728518233562
 21
2473.7157784495462
 31
0.0
  0
LINE
  5
825E
  8
3
 62
     0
 10
2214.1284585244448
 20
2373.7157784495448
 30
0.0
 11
2638.7728518233562
 21
2373.7157784495448
 31
0.0
  0
LINE
  5
825F
  8
3
 62
     0
 10
2608.7728518233562
 20
2533.7157784495448
 30
0.0
 11
2608.7728518233562
 21
2593.7157784495462
 31
0.0
  0
LINE
  5
8260
  8
3
 62
     0
 10
2608.7728518233562
 20
2313.7157784495448
 30
0.0
 11
2608.7728518233562
 21
1979.4300641638299
 31
0.0
  0
LINE
  5
8261
  8
3
 62
     0
 10
2608.7728518233562
 20
2473.7157784495462
 30
0.0
 11
2608.7728518233562
 21
2373.7157784495448
 31
0.0
  0
INSERT
  5
8262
  8
3
 62
     0
  2
_DOT
 10
2608.7728518233562
 20
2473.7157784495462
 30
0.0
 41
60.0
 42
60.0
 43
60.0
 50
270.0
  0
INSERT
  5
8263
  8
3
 62
     0
  2
_OPEN
 10
2608.7728518233562
 20
2373.7157784495448
 30
0.0
 41
60.0
 42
60.0
 43
60.0
 50
90.0
  0
TEXT
  8
3
  40
90
  5
82BC
  62
0
  72
0
  71
0
 10
2353.77
 20
1957.27
 30
0.000000
  1
100
  0
POINT
  5
8265
  8
DEFPOINTS
 62
     0
 10
2199.1284585244439
 20
2473.7157784495462
 30
0.0
  0
POINT
  5
8266
  8
DEFPOINTS
 62
     0
 10
2199.1284585244439
 20
2373.7157784495448
 30
0.0
  0
POINT
  5
8267
  8
DEFPOINTS
 62
     0
 10
2608.7728518233562
 20
2373.7157784495448
 30
0.0
  0
ENDBLK
  5
81C6
  8
0
  0
BLOCK
  8
0
  2
_DOT
 70
     0
 10
0.0
 20
0.0
 30
0.0
  3
_DOT
  1

  0
LINE
  5
8123
  8
0
  6
BYBLOCK
 62
     0
 10
0.0
 20
0.0
 30
0.0
 11
-1.0
 21
-0.0000000000000284
 31
0.0
  0
POLYLINE
  5
8124
  8
0
  6
BYBLOCK
 62
     0
 66
     1
 10
0.0
 20
0.0
 30
0.0
 70
     1
 40
0.1666666666666666
 41
0.1666666666666666
  0
VERTEX
  5
82AE
  8
0
  6
BYBLOCK
 62
     0
 10
-0.0833333333333286
 20
-0.0000000000000284
 30
0.0
 42
1.0
  0
VERTEX
  5
82AF
  8
0
  6
BYBLOCK
 62
     0
 10
0.0833333333333286
 20
-0.0000000000000284
 30
0.0
 42
1.0
  0
SEQEND
  5
82B0
  8
0
  6
BYBLOCK
 62
     0
  0
ENDBLK
  5
8023
  8
0
  0
BLOCK
  8
0
  2
*D17
 70
     1
 10
0.0
 20
0.0
 30
0.0
  3
*D17
  1

  0
LINE
  5
8268
  8
3
 62
     0
 10
909.1284585244448
 20
2358.7157784495439
 30
0.0
 11
909.1284585244448
 21
2126.5536378687639
 31
0.0
  0
LINE
  5
8269
  8
3
 62
     0
 10
1699.1284585244441
 20
2303.77052121509
 30
0.0
 11
1699.1284585244441
 21
2126.5536378687639
 31
0.0
  0
LINE
  5
826A
  8
3
 62
     0
 10
969.1284585244448
 20
2156.5536378687648
 30
0.0
 11
1639.1284585244441
 21
2156.5536378687648
 31
0.0
  0
INSERT
  5
826B
  8
3
 62
     0
  2
_OPEN
 10
909.1284585244448
 20
2156.5536378687648
 30
0.0
 41
60.0
 42
60.0
 43
60.0
 50
180.0
  0
INSERT
  5
826C
  8
3
 62
     0
  2
_OPEN
 10
1699.1284585244441
 20
2156.5536378687648
 30
0.0
 41
60.0
 42
60.0
 43
60.0
  0
TEXT
  8
3
  40
90
  5
82BD
  62
0
  72
0
  71
0
 10
1123.53
 20
2072.25
 30
0.000000
  1
790
  0
POINT
  5
826E
  8
DEFPOINTS
 62
     0
 10
909.1284585244448
 20
2373.7157784495448
 30
0.0
  0
POINT
  5
826F
  8
DEFPOINTS
 62
     0
 10
1699.1284585244441
 20
2318.77052121509
 30
0.0
  0
POINT
  5
8270
  8
DEFPOINTS
 62
     0
 10
1699.1284585244441
 20
2156.5536378687648
 30
0.0
  0
ENDBLK
  5
8048
  8
0
  0
BLOCK
  8
0
  2
*D18
 70
     1
 10
0.0
 20
0.0
 30
0.0
  3
*D18
  1

  0
LINE
  5
8271
  8
3
 62
     0
 10
2199.1284585244439
 20
2358.7157784495448
 30
0.0
 11
2199.1284585244439
 21
2126.5536378687639
 31
0.0
  0
LINE
  5
8272
  8
3
 62
     0
 10
1759.1284585244441
 20
2156.5536378687648
 30
0.0
 11
2139.1284585244439
 21
2156.5536378687648
 31
0.0
  0
INSERT
  5
8273
  8
3
 62
     0
  2
_OPEN
 10
1699.1284585244441
 20
2156.5536378687648
 30
0.0
 41
60.0
 42
60.0
 43
60.0
 50
180.0
  0
INSERT
  5
8274
  8
3
 62
     0
  2
_OPEN
 10
2199.1284585244439
 20
2156.5536378687648
 30
0.0
 41
60.0
 42
60.0
 43
60.0
  0
TEXT
  8
3
  40
90
  5
82BE
  62
0
  72
0
  71
0
 10
1769.13
 20
2072.25
 30
0.000000
  1
500
  0
POINT
  5
8276
  8
DEFPOINTS
 62
     0
 10
1699.1284585244441
 20
2318.77052121509
 30
0.0
  0
POINT
  5
8277
  8
DEFPOINTS
 62
     0
 10
2199.1284585244439
 20
2373.7157784495448
 30
0.0
  0
POINT
  5
8278
  8
DEFPOINTS
 62
     0
 10
2199.1284585244439
 20
2156.5536378687648
 30
0.0
  0
ENDBLK
  5
8054
  8
0
  0
BLOCK
  8
0
  2
*D19
 70
     1
 10
0.0
 20
0.0
 30
0.0
  3
*D19
  1

  0
LINE
  5
8279
  8
3
 62
     0
 10
2267.1284585244439
 20
3149.7157784495471
 30
0.0
 11
2267.1284585244439
 21
4297.2280558428974
 31
0.0
  0
LINE
  5
827A
  8
3
 62
     0
 10
808.62845852444468
 20
3753.7157784495471
 30
0.0
 11
808.62845852444468
 21
4297.2280558428974
 31
0.0
  0
LINE
  5
827B
  8
3
 62
     0
 10
2207.1284585244448
 20
4267.2280558428974
 30
0.0
 11
868.62845852444491
 21
4267.2280558428974
 31
0.0
  0
INSERT
  5
827C
  8
3
 62
     0
  2
_OPEN
 10
2267.1284585244439
 20
4267.2280558428974
 30
0.0
 41
60.0
 42
60.0
 43
60.0
  0
INSERT
  5
827D
  8
3
 62
     0
  2
_OPEN
 10
808.62845852444468
 20
4267.2280558428974
 30
0.0
 41
60.0
 42
60.0
 43
60.0
 50
180.0
  0
TEXT
  8
3
  40
90
  5
82BF
  62
0
  72
0
  71
0
 10
1360.05
 20
4182.93
 30
0.000000
  1
1459
  0
POINT
  5
827F
  8
DEFPOINTS
 62
     0
 10
2267.1284585244439
 20
3134.7157784495462
 30
0.0
  0
POINT
  5
8280
  8
DEFPOINTS
 62
     0
 10
808.62845852444468
 20
3738.7157784495462
 30
0.0
  0
POINT
  5
8281
  8
DEFPOINTS
 62
     0
 10
808.62845852444468
 20
4267.2280558428974
 30
0.0
  0
ENDBLK
  5
8061
  8
0
  0
BLOCK
  8
0
  2
*D20
 70
     1
 10
0.0
 20
0.0
 30
0.0
  3
*D20
  1

  0
LINE
  5
8282
  8
3
 62
     0
 10
1733.628458524445
 20
3738.7157784495462
 30
0.0
 11
2964.5184194955441
 21
3738.7157784495462
 31
0.0
  0
LINE
  5
8283
  8
3
 62
     0
 10
2214.1284585244448
 20
2373.7157784495448
 30
0.0
 11
2964.5184194955441
 21
2373.7157784495448
 31
0.0
  0
LINE
  5
8284
  8
3
 62
     0
 10
2934.5184194955441
 20
3678.7157784495471
 30
0.0
 11
2934.5184194955441
 21
2433.7157784495462
 31
0.0
  0
INSERT
  5
8285
  8
3
 62
     0
  2
_OPEN
 10
2934.5184194955441
 20
3738.7157784495462
 30
0.0
 41
60.0
 42
60.0
 43
60.0
 50
90.0
  0
INSERT
  5
8286
  8
3
 62
     0
  2
_OPEN
 10
2934.5184194955441
 20
2373.7157784495448
 30
0.0
 41
60.0
 42
60.0
 43
60.0
 50
270.0
  0
TEXT
  8
3
  40
90
  5
82C0
  62
0
  72
0
  71
0
 10
2679.52
 20
2808.16
 30
0.000000
  1
1365
  0
POINT
  5
8288
  8
DEFPOINTS
 62
     0
 10
1718.6284585244441
 20
3738.7157784495462
 30
0.0
  0
POINT
  5
8289
  8
DEFPOINTS
 62
     0
 10
2199.1284585244439
 20
2373.7157784495448
 30
0.0
  0
POINT
  5
828A
  8
DEFPOINTS
 62
     0
 10
2934.5184194955441
 20
2373.7157784495448
 30
0.0
  0
ENDBLK
  5
81AD
  8
0
  0
BLOCK
  8
0
  2
*D21
 70
     1
 10
0.0
 20
0.0
 30
0.0
  3
*D21
  1

  0
LINE
  5
828B
  8
3
 62
     0
 10
4424.9730063743218
 20
3753.7157784495462
 30
0.0
 11
4424.9730063743218
 21
3858.3777548148059
 31
0.0
  0
LINE
  5
828C
  8
3
 62
     0
 10
5024.9730063743227
 20
3753.7157784495462
 30
0.0
 11
5024.9730063743227
 21
3858.3777548148059
 31
0.0
  0
LINE
  5
828D
  8
3
 62
     0
 10
4484.9730063743227
 20
3828.3777548148059
 30
0.0
 11
4964.9730063743218
 21
3828.3777548148059
 31
0.0
  0
INSERT
  5
828E
  8
3
 62
     0
  2
_OPEN
 10
4424.9730063743218
 20
3828.3777548148059
 30
0.0
 41
60.0
 42
60.0
 43
60.0
 50
180.0
  0
INSERT
  5
828F
  8
3
 62
     0
  2
_OPEN
 10
5024.9730063743227
 20
3828.3777548148059
 30
0.0
 41
60.0
 42
60.0
 43
60.0
  0
TEXT
  8
3
  40
90
  5
82C1
  62
0
  72
0
  71
0
 10
4544.68
 20
3744.08
 30
0.000000
  1
600
  0
POINT
  5
8291
  8
DEFPOINTS
 62
     0
 10
4424.9730063743218
 20
3738.7157784495462
 30
0.0
  0
POINT
  5
8292
  8
DEFPOINTS
 62
     0
 10
5024.9730063743227
 20
3738.7157784495462
 30
0.0
  0
POINT
  5
8293
  8
DEFPOINTS
 62
     0
 10
5024.9730063743227
 20
3828.3777548148059
 30
0.0
  0
ENDBLK
  5
807B
  8
0
  0
BLOCK
  8
0
  2
*D22
 70
     1
 10
0.0
 20
0.0
 30
0.0
  3
*D22
  1

  0
LINE
  5
8160
  8
0
  6
BYBLOCK
 62
     0
 10
4724.9730063743236
 20
3982.1733486236981
 30
0.0
 11
4724.9730063743236
 21
4070.9763404200562
 31
0.0
  0
LINE
  5
8161
  8
0
  6
BYBLOCK
 62
     0
 10
5028.9730063743264
 20
3753.7157784495462
 30
0.0
 11
5028.9730063743264
 21
4070.9763404200562
 31
0.0
  0
LINE
  5
8162
  8
0
  6
BYBLOCK
 62
     0
 10
4784.9730063743236
 20
4040.9763404200571
 30
0.0
 11
4968.9730063743264
 21
4040.9763404200571
 31
0.0
  0
TEXT
  5
8163
  8
1
 62
     0
 10
4759.1158635171823
 20
4064.8692212927781
 30
0.0
 40
90.0
  1
304
  0
INSERT
  5
8164
  8
0
  6
BYBLOCK
 62
     0
  2
_OPEN
 10
4724.9730063743236
 20
4040.9763404200571
 30
0.0
 41
60.0
 42
60.0
 43
60.0
 50
180.0
  0
INSERT
  5
8165
  8
0
  6
BYBLOCK
 62
     0
  2
_OPEN
 10
5028.9730063743264
 20
4040.9763404200571
 30
0.0
 41
60.0
 42
60.0
 43
60.0
  0
POINT
  5
8166
  8
DEFPOINTS
  6
BYBLOCK
 62
     0
 10
4724.9730063743236
 20
3967.173348623699
 30
0.0
  0
POINT
  5
8167
  8
DEFPOINTS
  6
BYBLOCK
 62
     0
 10
5028.9730063743264
 20
3738.7157784495462
 30
0.0
  0
POINT
  5
8168
  8
DEFPOINTS
  6
BYBLOCK
 62
     0
 10
5028.9730063743264
 20
4040.9763404200571
 30
0.0
  0
ENDBLK
  5
8169
  8
0
  0
BLOCK
  8
0
  2
*D23
 70
     1
 10
0.0
 20
0.0
 30
0.0
  3
*D23
  1

  0
LINE
  5
8294
  8
3
 62
     0
 10
3669.9730063743259
 20
2358.7157784495462
 30
0.0
 11
3669.9730063743259
 21
2112.0589171252682
 31
0.0
  0
LINE
  5
8295
  8
3
 62
     0
 10
4724.9730063743264
 20
2310.6885745970908
 30
0.0
 11
4724.9730063743264
 21
2112.0589171252682
 31
0.0
  0
LINE
  5
8296
  8
3
 62
     0
 10
3729.9730063743259
 20
2142.0589171252682
 30
0.0
 11
4664.9730063743264
 21
2142.0589171252682
 31
0.0
  0
INSERT
  5
8297
  8
3
 62
     0
  2
_OPEN
 10
3669.9730063743259
 20
2142.0589171252682
 30
0.0
 41
60.0
 42
60.0
 43
60.0
 50
180.0
  0
INSERT
  5
8298
  8
3
 62
     0
  2
_OPEN
 10
4724.9730063743264
 20
2142.0589171252682
 30
0.0
 41
60.0
 42
60.0
 43
60.0
  0
TEXT
  8
3
  40
90
  5
82C2
  62
0
  72
0
  71
0
 10
4008.98
 20
2057.76
 30
0.000000
  1
1055
  0
POINT
  5
829A
  8
DEFPOINTS
 62
     0
 10
3669.9730063743259
 20
2373.7157784495462
 30
0.0
  0
POINT
  5
829B
  8
DEFPOINTS
 62
     0
 10
4724.9730063743264
 20
2325.6885745970908
 30
0.0
  0
POINT
  5
829C
  8
DEFPOINTS
 62
     0
 10
4724.9730063743264
 20
2142.0589171252682
 30
0.0
  0
ENDBLK
  5
80F8
  8
0
  0
BLOCK
  8
0
  2
*D24
 70
     1
 10
0.0
 20
0.0
 30
0.0
  3
*D24
  1

  0
LINE
  5
8104
  8
0
  6
BYBLOCK
 62
     0
 10
5079.9730063743264
 20
2263.7157784495471
 30
0.0
 11
5079.9730063743264
 21
2017.058917125268
 31
0.0
  0
LINE
  5
8105
  8
0
  6
BYBLOCK
 62
     0
 10
4784.9730063743264
 20
2047.058917125268
 30
0.0
 11
5019.9730063743273
 21
2047.058917125268
 31
0.0
  0
TEXT
  5
8106
  8
1
 62
     0
 10
4786.758720660041
 20
2073.633440538425
 30
0.0
 40
90.0
  1
355
  0
INSERT
  5
8107
  8
0
  6
BYBLOCK
 62
     0
  2
_OPEN
 10
4724.9730063743264
 20
2047.058917125268
 30
0.0
 41
60.0
 42
60.0
 43
60.0
 50
180.0
  0
INSERT
  5
8108
  8
0
  6
BYBLOCK
 62
     0
  2
_OPEN
 10
5079.9730063743264
 20
2047.058917125268
 30
0.0
 41
60.0
 42
60.0
 43
60.0
  0
POINT
  5
8109
  8
DEFPOINTS
  6
BYBLOCK
 62
     0
 10
4724.9730063743264
 20
2230.6885745970908
 30
0.0
  0
POINT
  5
810A
  8
DEFPOINTS
  6
BYBLOCK
 62
     0
 10
5079.9730063743264
 20
2278.7157784495471
 30
0.0
  0
POINT
  5
810B
  8
DEFPOINTS
  6
BYBLOCK
 62
     0
 10
5079.9730063743264
 20
2047.058917125268
 30
0.0
  0
ENDBLK
  5
810C
  8
0
  0
BLOCK
  8
0
  2
*D25
 70
     1
 10
0.0
 20
0.0
 30
0.0
  3
*D25
  1

  0
LINE
  5
829D
  8
3
 62
     0
 10
5042.2730063743229
 20
3593.7157784495462
 30
0.0
 11
5331.2434279509334
 21
3593.7157784495462
 31
0.0
  0
LINE
  5
829E
  8
3
 62
     0
 10
5042.2730063743229
 20
2793.7157784495462
 30
0.0
 11
5331.2434279509334
 21
2793.7157784495448
 31
0.0
  0
LINE
  5
829F
  8
3
 62
     0
 10
5301.2434279509334
 20
3533.7157784495462
 30
0.0
 11
5301.2434279509334
 21
2853.7157784495448
 31
0.0
  0
INSERT
  5
82A0
  8
3
 62
     0
  2
_OPEN
 10
5301.2434279509334
 20
3593.7157784495462
 30
0.0
 41
60.0
 42
60.0
 43
60.0
 50
90.0
  0
INSERT
  5
82A1
  8
3
 62
     0
  2
_OPEN
 10
5301.2434279509334
 20
2793.7157784495448
 30
0.0
 41
60.0
 42
60.0
 43
60.0
 50
270.0
  0
TEXT
  8
3
  40
90
  5
82C3
  62
0
  72
0
  71
0
 10
5046.24
 20
3020.86
 30
0.000000
  1
φ800
  0
POINT
  5
82A3
  8
DEFPOINTS
 62
     0
 10
5027.2730063743238
 20
3593.7157784495462
 30
0.0
  0
POINT
  5
82A4
  8
DEFPOINTS
 62
     0
 10
5027.2730063743238
 20
2793.7157784495462
 30
0.0
  0
POINT
  5
82A5
  8
DEFPOINTS
 62
     0
 10
5301.2434279509334
 20
2793.7157784495448
 30
0.0
  0
ENDBLK
  5
80ED
  8
0
  0
BLOCK
  8
0
  2
*D26
 70
     1
 10
0.0
 20
0.0
 30
0.0
  3
*D26
  1

  0
LINE
  5
82A6
  8
3
 62
     0
 10
3536.9730063743241
 20
3428.7157784495448
 30
0.0
 11
3536.9730063743241
 21
4070.9763404200562
 31
0.0
  0
LINE
  5
82A7
  8
3
 62
     0
 10
4664.9730063743236
 20
4040.9763404200571
 30
0.0
 11
3596.973006374325
 21
4040.9763404200571
 31
0.0
  0
INSERT
  5
82A8
  8
3
 62
     0
  2
_OPEN
 10
4724.9730063743236
 20
4040.9763404200571
 30
0.0
 41
60.0
 42
60.0
 43
60.0
  0
INSERT
  5
82A9
  8
3
 62
     0
  2
_OPEN
 10
3536.9730063743241
 20
4040.9763404200571
 30
0.0
 41
60.0
 42
60.0
 43
60.0
 50
180.0
  0
TEXT
  8
3
  40
90
  5
82C4
  62
0
  72
0
  71
0
 10
3950.97
 20
4031.68
 30
0.000000
  1
MAX
  0
TEXT
  8
3
  40
90
  5
82C5
  62
0
  72
0
  71
0
 10
3950.97
 20
3914.68
 30
0.000000
  1
1240
  0
POINT
  5
82AB
  8
DEFPOINTS
 62
     0
 10
4724.9730063743236
 20
3967.173348623699
 30
0.0
  0
POINT
  5
82AC
  8
DEFPOINTS
 62
     0
 10
3536.9730063743241
 20
3413.7157784495448
 30
0.0
  0
POINT
  5
82AD
  8
DEFPOINTS
 62
     0
 10
3536.9730063743241
 20
4040.9763404200571
 30
0.0
  0
ENDBLK
  5
815E
  8
0
  0
ENDSEC
  0
SECTION
  2
ENTITIES
  0
LINE
  5
7AC2
  8
2
 10
2306.0450060490398
 20
6144.1524204127254
 30
0.0
 11
966.67541491959128
 21
6144.1524204127254
 31
0.0
  0
LINE
  5
7AC3
  8
2
 10
2365.6002503748341
 20
3193.7157784495471
 30
0.0
 11
799.1766852953333
 21
3193.7157784495471
 31
0.0
  0
LINE
  5
7B11
  8
2
 10
1699.1284585244441
 20
6603.8465752898683
 30
0.0
 11
1699.1284585244441
 21
4923.8901259765353
 31
0.0
  0
LINE
  5
7B13
  8
1
 10
1671.628458524443
 20
5101.1524204127236
 30
0.0
 11
1671.62845852445
 21
5841.8524204127216
 31
0.0
  0
LINE
  5
7B14
  8
1
 10
1726.6284585244441
 20
5101.1524204127236
 30
0.0
 11
1726.6284585244441
 21
5841.8524204127216
 31
0.0
  0
LINE
  5
7B15
  8
1
 10
1979.128458524445
 20
5789.1524204127236
 30
0.0
 11
1979.1284585244441
 21
5089.1524204127263
 31
0.0
  0
LINE
  5
7B17
  8
1
 10
909.1284585244448
 20
5839.1524204127236
 30
0.0
 11
909.1284585244448
 21
5089.1524204127272
 31
0.0
  0
LINE
  5
7B18
  8
1
 10
1919.128458524443
 20
4956.1524204127227
 30
0.0
 11
879.12845852444468
 21
4956.1524204127254
 31
0.0
  0
LINE
  5
7B19
  8
1
 10
1826.128458524443
 20
4996.1524204127227
 30
0.0
 11
989.12845852444468
 21
4996.1524204127227
 31
0.0
  0
LINE
  5
7B1A
  8
1
 10
1826.128458524443
 20
5081.1524204127236
 30
0.0
 11
989.12845852444377
 21
5081.1524204127236
 31
0.0
  0
LINE
  5
7B1B
  8
1
 10
1979.1284585244441
 20
5089.1524204127263
 30
0.0
 11
909.1284585244448
 21
5089.1524204127236
 31
0.0
  0
LINE
  5
7B1C
  8
1
 10
879.12845852444377
 20
4956.1524204127236
 30
0.0
 11
879.12845852444468
 21
5116.1524204127236
 31
0.0
  0
LINE
  5
7B1D
  8
2
 10
1099.1284585244441
 20
4927.0440016317534
 30
0.0
 11
1099.1284585244441
 21
5693.4344787991904
 31
0.0
  0
LINE
  5
7B1E
  8
1
 10
937.12845852444468
 20
5147.1561287579789
 30
0.0
 11
1259.1284585244441
 21
5147.1561287579789
 31
0.0
  0
LINE
  5
7B1F
  8
1
 10
1259.1284585244441
 20
5621.2778485763993
 30
0.0
 11
937.12845852444468
 21
5621.2778485763993
 31
0.0
  0
LINE
  5
7B20
  8
1
 10
937.12845852444468
 20
5215.7472567477089
 30
0.0
 11
937.12845852444468
 21
5457.9942967081297
 31
0.0
  0
LINE
  5
7B21
  8
1
 10
937.12845852444468
 20
5621.2778485763993
 30
0.0
 11
937.12845852444468
 21
5147.1561287579789
 31
0.0
  0
LINE
  5
7B22
  8
1
 10
989.12845852444468
 20
4996.1524204127227
 30
0.0
 11
989.12845852444377
 21
5081.1524204127236
 31
0.0
  0
LINE
  5
7B23
  8
1
 10
1259.1284585244441
 20
5147.1561287579789
 30
0.0
 11
1259.1284585244441
 21
5621.2778485763993
 31
0.0
  0
LINE
  5
7B25
  8
1
 10
1157.345907507043
 20
5136.2778485764002
 30
0.0
 11
1040.9110095418459
 21
5136.2778485764002
 31
0.0
  0
LINE
  5
7B26
  8
1
 10
1120.128458524443
 20
5018.2778485754079
 30
0.0
 11
1120.128458524443
 21
5128.2778485715371
 31
0.0
  0
LINE
  5
7B27
  8
1
 10
1078.1284585244441
 20
5018.2778485754079
 30
0.0
 11
1078.128458524443
 21
5128.2778485715371
 31
0.0
  0
LINE
  5
7B28
  8
1
 10
1078.1284585244441
 20
5018.2778485754079
 30
0.0
 11
1120.1284585244441
 21
5018.2778485754079
 31
0.0
  0
LINE
  5
7B29
  8
1
 10
1129.549767470291
 20
5128.2778485715371
 30
0.0
 11
1070.7071495785981
 21
5128.2778485715371
 31
0.0
  0
LINE
  5
7B2A
  8
1
 10
1070.7071495785981
 20
5128.2778485715371
 30
0.0
 11
1070.7071495785981
 21
5136.2778485764002
 31
0.0
  0
LINE
  5
7B2B
  8
1
 10
1040.9110095418459
 20
5147.1561287579789
 30
0.0
 11
1040.9110095418459
 21
5136.2778485764002
 31
0.0
  0
LINE
  5
7B2C
  8
1
 10
1129.549767470291
 20
5128.2778485715371
 30
0.0
 11
1129.5497674702899
 21
5136.2778485764002
 31
0.0
  0
LINE
  5
7B2D
  8
1
 10
1209.1284585244441
 20
4996.1524204127227
 30
0.0
 11
1209.1284585244441
 21
5081.1524204127236
 31
0.0
  0
LINE
  5
7B2E
  8
1
 10
1157.345907507043
 20
5147.1561287579789
 30
0.0
 11
1157.345907507043
 21
5136.2778485764002
 31
0.0
  0
LINE
  5
7B2F
  8
1
 10
1919.128458524443
 20
4956.1524204127236
 30
0.0
 11
1919.128458524443
 21
5116.1524204127236
 31
0.0
  0
LINE
  5
7B32
  8
1
 10
1869.1284585244441
 20
5136.1524204127218
 30
0.0
 11
1726.6284585244441
 21
5136.1524204127227
 31
0.0
  0
LINE
  5
7B33
  8
1
 10
1671.628458524445
 20
5136.1524204127227
 30
0.0
 11
1529.1284585244441
 21
5136.1524204127227
 31
0.0
  0
LINE
  5
7B34
  8
1
 10
1572.128458524443
 20
4996.1524204127236
 30
0.0
 11
1572.128458524443
 21
5081.1524204127236
 31
0.0
  0
LINE
  5
7B35
  8
1
 10
1726.6284585244441
 20
5101.1524204127236
 30
0.0
 11
1671.628458524445
 21
5101.1524204127236
 31
0.0
  0
LINE
  5
7B36
  8
1
 10
1675.128458524443
 20
5081.1524204127236
 30
0.0
 11
1675.128458524443
 21
5101.1524204127236
 31
0.0
  0
LINE
  5
7B37
  8
1
 10
1723.1284585244441
 20
5081.1524204127236
 30
0.0
 11
1723.1284585244441
 21
5101.1524204127236
 31
0.0
  0
LINE
  5
7B38
  8
1
 10
1826.128458524443
 20
4996.1524204127236
 30
0.0
 11
1826.128458524443
 21
5081.1524204127236
 31
0.0
  0
LINE
  5
7B39
  8
1
 10
1919.1284585244441
 20
5116.1524204127236
 30
0.0
 11
1899.1284585244441
 21
5116.1524204127236
 31
0.0
  0
LINE
  5
7B3A
  8
1
 10
2267.1284585244439
 20
5844.1524204127227
 30
0.0
 11
1716.128458524445
 21
5844.1524204127218
 31
0.0
  0
LINE
  5
7B3B
  8
1
 10
2267.1284585244439
 20
6444.1524204127263
 30
0.0
 11
1716.128458524445
 21
6444.1524204127236
 31
0.0
  0
LINE
  5
7B3C
  8
1
 10
2199.1284585244439
 20
6499.1524204127236
 30
0.0
 11
1199.1284585244441
 21
6499.1524204127263
 31
0.0
  0
LINE
  5
7B3D
  8
1
 10
1199.1284585244441
 20
6499.1524204127236
 30
0.0
 11
1199.128458524445
 21
6484.152420412719
 31
0.0
  0
LINE
  5
7B3E
  8
1
 10
1199.1284585244441
 20
5839.1524204127263
 30
0.0
 11
909.1284585244448
 21
5839.1524204127263
 31
0.0
  0
LINE
  5
7B40
  8
1
 10
1199.1284585244441
 20
5844.152420412719
 30
0.0
 11
1199.1284585244441
 21
5839.1524204127236
 31
0.0
  0
LINE
  5
7B41
  8
1
 10
2199.1284585244448
 20
6499.1524204127236
 30
0.0
 11
2199.1284585244448
 21
6446.4524204127229
 31
0.0
  0
LINE
  5
7B42
  8
1
 10
2199.1284585244439
 20
6444.1524204127236
 30
0.0
 11
2199.1284585244439
 21
6486.1524204127218
 31
0.0
  0
LINE
  5
7B45
  8
1
 10
1869.1284585244441
 20
5758.1524204127218
 30
0.0
 11
1726.6284585244441
 21
5758.1524204127218
 31
0.0
  0
LINE
  5
7B46
  8
1
 10
1671.6284585244489
 20
5758.1524204127218
 30
0.0
 11
1529.1284585244441
 21
5758.1524204127227
 31
0.0
  0
LINE
  5
7B47
  8
1
 10
2199.1284585244439
 20
5789.1524204127236
 30
0.0
 11
1979.128458524445
 21
5789.1524204127236
 31
0.0
  0
LINE
  5
7B48
  8
1
 10
2199.1284585244421
 20
5802.1524204127236
 30
0.0
 11
2199.1284585244421
 21
5841.8524204127243
 31
0.0
  0
LINE
  5
7B49
  8
1
 10
2199.1284585244439
 20
5841.8524204127243
 30
0.0
 11
2199.1284585244439
 21
5789.1524204127227
 31
0.0
  0
LINE
  5
7B84
  8
4
 10
5550.0
 20
1500.0
 30
0.0
 11
5550.0
 21
900.0
 31
0.0
  0
LINE
  5
7B85
  8
4
 10
3450.0
 20
1500.0
 30
0.0
 11
3450.0
 21
900.0
 31
0.0
  0
LINE
  5
7B86
  8
4
 10
1950.0
 20
1500.0
 30
0.0
 11
1950.0
 21
900.0
 31
0.0
  0
LINE
  5
7B89
  8
4
 10
1950.0
 20
900.0
 30
0.0
 11
5550.0
 21
900.0
 31
0.0
  0
LINE
  5
7B8A
  8
4
 10
1950.0
 20
1200.0
 30
0.0
 11
5550.0
 21
1200.0
 31
0.0
  0
TEXT
  5
7B8B
  8
4
 10
2065.5062425407041
 20
1294.629077599838
 30
0.0
 40
150.0
  1
機器名称
  0
TEXT
  5
7B8C
  8
4
 10
2058.7743180743919
 20
964.93547019603284
 30
0.0
 40
150.0
  1
機器型番
  0
TEXT
  5
7B8D
  8
4
 10
3538.974217018409
 20
1270.006233746099
 30
0.0
 40
127.5
  1
ミツヤリミットロードファン
  0
TEXT
  5
7B8E
  8
4
 10
3559.9634867564419
 20
951.47875283983012
 30
0.0
 40
150.0
  1
LL#5-1
  0
TEXT
  5
7B90
  8
4
 10
2347.4864908824379
 20
7150.2865239975472
 30
0.0
 40
161.99999999999989
  1
床置防振ベット
  0
TEXT
  5
7B91
  8
4
 10
948.50277998833917
 20
7601.6429285978938
 30
0.0
 40
216.0
  1
遠心式片吸込片持リミットロードファン
  0
LINE
  5
7B92
  8
4
 10
750.0
 20
7408.2262627944137
 30
0.0
 11
5550.0
 21
7408.2262627944137
 31
0.0
  0
LINE
  5
7B93
  8
4
 10
750.0
 20
8008.2262627944137
 30
0.0
 11
5550.0
 21
8008.2262627944137
 31
0.0
  0
LINE
  5
7B94
  8
4
 10
1950.0
 20
1500.0
 30
0.0
 11
5550.0
 21
1500.0
 31
0.0
  0
LINE
  5
7B95
  8
4
 10
750.0
 20
8008.2262627944137
 30
0.0
 11
750.0
 21
7408.2262627944137
 31
0.0
  0
TEXT
  5
7B96
  8
4
 10
1039.9099941543309
 20
7146.9584326390304
 30
0.0
 40
161.99999999999989
  1
右回転上向
  0
TEXT
  5
7B97
  8
4
 10
4406.9086777478688
 20
8118.1832444859256
 30
0.0
 40
168.0
  1
No.
  0
TEXT
  5
7B98
  8
4
 10
3933.8881878000388
 20
7150.2865239975472
 30
0.0
 40
161.99999999999989
  1
縮尺：1/30
  0
LINE
  5
7B99
  8
4
 10
5550.0
 20
8008.2262627944137
 30
0.0
 11
5550.0
 21
7408.2262627944137
 31
0.0
  0
LINE
  5
7B9A
  8
4
 10
6300.0
 20
8850.0
 30
0.0
 11
6300.0
 21
8850.0
 31
0.0
  0
LINE
  5
7B9B
  8
4
 10
4321.8522670795937
 20
8043.790749376205
 30
0.0
 11
4321.8522670795937
 21
8359.9567846492573
 31
0.0
  0
LINE
  5
7B9C
  8
4
 10
4321.8522670795937
 20
8359.9567846492573
 30
0.0
 11
5550.0
 21
8359.9567846492573
 31
0.0
  0
LINE
  5
7B9D
  8
4
 10
5550.0
 20
8359.9567846492573
 30
0.0
 11
5550.0
 21
8043.790749376205
 31
0.0
  0
LINE
  5
7B9E
  8
4
 10
5550.0
 20
8043.790749376205
 30
0.0
 11
4321.8522670795937
 21
8043.790749376205
 31
0.0
  0
LINE
  5
7B9F
  8
4
 10
0.0
 20
0.0
 30
0.0
 11
0.0
 21
8850.0
 31
0.0
  0
LINE
  5
7BA0
  8
4
 10
0.0
 20
8850.0
 30
0.0
 11
6300.0
 21
8850.0
 31
0.0
  0
LINE
  5
7BA1
  8
4
 10
6300.0
 20
8850.0
 30
0.0
 11
6300.0
 21
0.0
 31
0.0
  0
LINE
  5
7BA2
  8
4
 10
6300.0
 20
0.0
 30
0.0
 11
0.0
 21
0.0
 31
0.0
  0
DIMENSION
  5
7BC1
  8
3
  2
*D1
 10
1199.1284585244441
 20
6668.0473459470586
 30
0.0
 11
1700.4170259507259
 21
6668.0473459470586
 31
0.0
 70
   128
 13
2199.1284585244448
 23
6499.1524204127236
 33
0.0
 14
1199.1284585244441
 24
6499.1524204127263
 34
0.0
1001
ACAD
1000
DSTYLE
1002
{
1070
   287
1070
     3
1070
    40
1040
30.0
1070
   143
1040
0.039
1070
   172
1070
     1
1070
   271
1070
     0
1070
   279
1070
     0
1070
   288
1070
     1
1002
}
  0
DIMENSION
  5
7BCF
  8
3
  2
*D2
 10
909.1284585244448
 20
6668.0473459470586
 30
0.0
 11
1054.1284585244441
 21
6749.5069104125878
 31
0.0
 12
-314.46068538071262
 22
0.0
 32
0.0
 70
   128
 13
1199.1284585244441
 23
6499.1524204127263
 33
0.0
 14
909.1284585244448
 24
5839.1524204127263
 34
0.0
1001
ACAD
1000
DSTYLE
1002
{
1070
   288
1070
     1
1070
   172
1070
     1
1070
    75
1070
     1
1070
    40
1040
30.0
1070
   271
1070
     0
1070
   143
1040
0.039
1002
}
  0
DIMENSION
  5
7BF0
  8
3
  2
*D3
 10
727.91824033684031
 20
5089.1524204127236
 30
0.0
 11
727.91824033683952
 21
5422.8796853082104
 31
0.0
 70
   128
 13
909.1284585244448
 23
5839.1524204127263
 33
0.0
 14
909.1284585244448
 24
5089.1524204127236
 34
0.0
 50
90.0
1001
ACAD
1000
DSTYLE
1002
{
1070
   287
1070
     3
1070
    40
1040
30.0
1070
   143
1040
0.039
1070
   172
1070
     1
1070
   271
1070
     0
1070
   279
1070
     0
1070
   288
1070
     1
1002
}
  0
DIMENSION
  5
7BFD
  8
3
  2
*D4
 10
1979.1284585244441
 20
4695.5621277755708
 30
0.0
 11
1397.603018187343
 21
4695.5621277755708
 31
0.0
 70
   128
 13
909.1284585244448
 23
5089.1524204127236
 33
0.0
 14
1979.1284585244441
 24
5089.1524204127263
 34
0.0
1001
ACAD
1000
DSTYLE
1002
{
1070
   287
1070
     3
1070
    40
1040
30.0
1070
   143
1040
0.039
1070
   172
1070
     1
1070
   271
1070
     0
1070
   279
1070
     0
1070
   288
1070
     1
1002
}
  0
DIMENSION
  5
7C0B
  8
3
  2
*D5
 10
2199.1284585244439
 20
4695.5621277755708
 30
0.0
 11
2404.8427442387301
 21
4770.5621277755708
 31
0.0
 70
     0
 13
1979.1284585244441
 23
5089.1524204127263
 33
0.0
 14
2199.1284585244439
 24
5789.1524204127236
 34
0.0
1001
ACAD
1000
DSTYLE
1002
{
1070
   287
1070
     3
1070
    40
1040
30.0
1070
   143
1040
0.039
1070
   172
1070
     1
1070
   271
1070
     0
1070
   279
1070
     0
1070
   288
1070
     1
1002
}
  0
DIMENSION
  5
7C24
  8
3
  2
*D6
 10
2533.1555030144668
 20
5789.1524204127236
 30
0.0
 11
2533.1555030144659
 21
5422.8796853082104
 31
0.0
 70
   128
 13
1979.1284585244441
 23
5089.1524204127263
 33
0.0
 14
2199.1284585244439
 24
5789.1524204127236
 34
0.0
 50
90.0
1001
ACAD
1000
DSTYLE
1002
{
1070
   287
1070
     3
1070
    40
1040
30.0
1070
   143
1040
0.039
1070
   172
1070
     1
1070
   271
1070
     0
1070
   279
1070
     0
1070
   288
1070
     1
1002
}
  0
DIMENSION
  5
7C3C
  8
3
  2
*D7
 10
2533.1555030144659
 20
6499.1524204127236
 30
0.0
 11
2458.155503014465
 21
6144.1524204127263
 31
0.0
 70
     0
 13
2199.1284585244439
 23
5789.1524204127236
 33
0.0
 14
2199.1284585244448
 24
6499.1524204127236
 34
0.0
 50
90.0
1001
ACAD
1000
DSTYLE
1002
{
1070
   287
1070
     4
1070
    40
1040
30.0
1070
    75
1070
     1
1070
   143
1040
0.039
1070
   172
1070
     1
1070
   271
1070
     0
1070
   279
1070
     1
1070
   288
1070
     1
1002
}
  0
INSERT
  5
7F01
  8
0
  2
YA_N
 10
7177.4506212370316
 20
2719.3491153156788
 30
0.0
  0
LINE
  5
7F03
  8
2
 10
1699.1284585244441
 20
3801.0867197851758
 30
0.0
 11
1699.1284585244441
 21
2318.77052121509
 31
0.0
  0
ARC
  5
7F05
  8
1
 10
1640.1284585244441
 20
3252.7157784495462
 30
0.0
 40
745.0
 50
184.54227460542421
 51
205.17163323199861
  0
ARC
  5
7F06
  8
1
 10
1640.1284585244441
 20
3134.7157784495462
 30
0.0
 40
627.0
 50
302.45548699500938
 51
5.3994573071069398
  0
ARC
  5
7F07
  8
1
 10
1746.6284585244441
 20
3146.2157784495462
 30
0.0
 40
520.5
 50
5.2360063571883053
 51
95.236006357188302
  0
ARC
  5
7F08
  8
1
 10
1746.6284585244441
 20
3241.2157784495471
 30
0.0
 40
425.49999999999989
 50
96.409480908245584
 51
99.537170793217783
  0
LINE
  5
7F09
  8
1
 10
808.62845852444468
 20
3738.7157784495462
 30
0.0
 11
1718.6284585244441
 21
3738.7157784495462
 31
0.0
  0
LINE
  5
7F0A
  8
1
 10
851.1284585244448
 20
3738.7157784495462
 30
0.0
 11
897.46837477145345
 21
3193.7157784495471
 31
0.0
  0
LINE
  5
7F0B
  8
1
 10
1676.1284585244441
 20
3738.7157784495462
 30
0.0
 11
1676.1284585244441
 21
3660.8346531441912
 31
0.0
  0
LINE
  5
7F0C
  8
1
 10
808.62845852444468
 20
3738.7157784495462
 30
0.0
 11
808.62845852444468
 21
3698.7157784495462
 31
0.0
  0
LINE
  5
7F0D
  8
1
 10
1718.6284585244441
 20
3738.7157784495462
 30
0.0
 11
1718.6284585244441
 21
3698.7157784495462
 31
0.0
  0
LINE
  5
7F0E
  8
1
 10
808.62845852444468
 20
3698.7157784495462
 30
0.0
 11
1718.6284585244441
 21
3698.7157784495462
 31
0.0
  0
LINE
  5
7F0F
  8
1
 10
808.62845852444468
 20
3735.7157784495471
 30
0.0
 11
1718.6284585244441
 21
3735.7157784495448
 31
0.0
  0
LINE
  5
7F10
  8
1
 10
909.1284585244448
 20
2493.7157784495462
 30
0.0
 11
2199.1284585244439
 21
2493.7157784495462
 31
0.0
1001
ACAD
1000
ASC_BOUNDS
1002
{
1070
    19
1002
}
  0
LINE
  5
7F11
  8
1
 10
899.1284585244448
 20
2593.7157784495471
 30
0.0
 11
2199.1284585244439
 21
2593.7157784495471
 31
0.0
  0
LINE
  5
7F12
  8
1
 10
909.1284585244448
 20
2593.7157784495471
 30
0.0
 11
909.1284585244448
 21
2493.7157784495462
 31
0.0
  0
LINE
  5
7F13
  8
1
 10
897.12845852444286
 20
2633.7157784495471
 30
0.0
 11
1301.1284585244441
 21
2633.7157784495471
 31
0.0
  0
LINE
  5
7F14
  8
1
 10
1299.1284585244441
 20
2633.7157784495471
 30
0.0
 11
1299.1284585244441
 21
2593.7157784495471
 31
0.0
  0
LINE
  5
7F15
  8
1
 10
2199.1284585244439
 20
2593.7157784495471
 30
0.0
 11
2199.1284585244439
 21
2493.7157784495462
 31
0.0
  0
LINE
  5
7F16
  8
1
 10
3669.9730063743241
 20
2493.7157784495448
 30
0.0
 11
5079.9730063743236
 21
2493.7157784495462
 31
0.0
1001
ACAD
1000
ASC_BOUNDS
1002
{
1070
    19
1002
}
  0
LINE
  5
7F17
  8
1
 10
3669.9730063743241
 20
2593.7157784495462
 30
0.0
 11
5079.9730063743236
 21
2593.7157784495448
 31
0.0
  0
LINE
  5
7F18
  8
1
 10
5079.9730063743236
 20
2499.3061022141719
 30
0.0
 11
5079.9730063743236
 21
2493.7157784495462
 31
0.0
  0
LINE
  5
7F19
  8
1
 10
5079.9730063743236
 20
2593.7157784495462
 30
0.0
 11
5079.9730063743264
 21
2588.1896632929561
 31
0.0
  0
LINE
  5
7F1A
  8
2
 10
3495.846343994991
 20
3193.7157784495448
 30
0.0
 11
5113.5407166157638
 21
3193.7157784495462
 31
0.0
  0
LINE
  5
7F1B
  8
2
 10
4724.9730063743236
 20
3844.626416738261
 30
0.0
 11
4724.9730063743264
 21
2325.6885745970908
 31
0.0
  0
INSERT
  5
7F1C
  8
0
  2
YA_N
 10
6437.8057640702827
 20
2443.3188486133149
 30
0.0
 41
20.0
 42
20.0
 43
20.0
  0
LINE
  5
7F1E
  8
1
 10
964.66955852444505
 20
2753.4037784495472
 30
0.0
 11
945.12845852444468
 21
2699.7157784495462
 31
0.0
  0
LINE
  5
7F1F
  8
1
 10
1233.5752585244441
 20
2753.4367784495462
 30
0.0
 11
1253.1284585244441
 21
2699.7157784495462
 31
0.0
  0
ARC
  5
7F20
  8
1
 10
1099.1284585244441
 20
2843.7157784495471
 30
0.0
 40
162.0
 50
180.0
 51
254.35809999999989
  0
ARC
  5
7F21
  8
1
 10
1099.1284585244441
 20
2843.7157784495471
 30
0.0
 40
162.0
 50
285.63990000000001
 51
180.0
  0
LINE
  5
7F22
  8
2
 10
1099.1284585244441
 20
3072.1644648923411
 30
0.0
 11
1099.1284585244441
 21
2548.9190301691051
 31
0.0
  0
LINE
  5
7F23
  8
1
 10
1142.809058524444
 20
2687.7157784495462
 30
0.0
 11
1055.4477585244431
 21
2687.7157784495462
 31
0.0
  0
LINE
  5
7F24
  8
1
 10
1184.072358524445
 20
2705.7717784495462
 30
0.0
 11
1192.249758524445
 21
2697.5937784495459
 31
0.0
  0
ARC
  5
7F25
  8
1
 10
1251.1284585244441
 20
2699.7157784495462
 30
0.0
 40
2.0
 50
0.0
 51
90.0
  0
LINE
  5
7F26
  8
1
 10
1253.1284585244441
 20
2683.7157784495462
 30
0.0
 11
1253.1284585244441
 21
2699.7157784495462
 31
0.0
  0
ARC
  5
7F27
  8
1
 10
1190.1284585244441
 20
2695.4727784495458
 30
0.0
 40
3.0
 50
0.0
 51
45.0
  0
LINE
  5
7F28
  8
1
 10
1193.1284585244441
 20
2683.7157784495462
 30
0.0
 11
1193.1284585244441
 21
2695.4727784495458
 31
0.0
  0
LINE
  5
7F29
  8
1
 10
1014.184558524444
 20
2705.7717784495462
 30
0.0
 11
1006.007058524444
 21
2697.5937784495459
 31
0.0
  0
ARC
  5
7F2A
  8
1
 10
1008.128458524444
 20
2695.4727784495458
 30
0.0
 40
3.0
 50
135.0
 51
180.0
  0
LINE
  5
7F2B
  8
1
 10
1005.128458524444
 20
2683.7157784495462
 30
0.0
 11
1005.128458524444
 21
2695.4727784495458
 31
0.0
  0
LINE
  5
7F2C
  8
1
 10
945.12845852444468
 20
2683.7157784495462
 30
0.0
 11
945.12845852444468
 21
2699.7157784495462
 31
0.0
  0
LINE
  5
7F2D
  8
2
 10
1287.2389025871159
 20
2843.7157784495471
 30
0.0
 11
797.8219936597452
 21
2843.7157784495462
 31
0.0
  0
LINE
  5
7F2E
  8
1
 10
910.61381525840443
 20
2683.7157784495462
 30
0.0
 11
1039.1284585244421
 21
2683.7157784495462
 31
0.0
  0
LINE
  5
7F2F
  8
1
 10
1301.128458524443
 20
2633.7157784495471
 30
0.0
 11
1287.8833261392549
 21
2683.7157784495462
 31
0.0
  0
LINE
  5
7F30
  8
1
 10
897.12845852444286
 20
2633.7157784495471
 30
0.0
 11
910.61381525840443
 21
2683.7157784495462
 31
0.0
  0
LINE
  5
7F31
  8
1
 10
1039.1284585244421
 20
2673.7157784495462
 30
0.0
 11
1159.1284585244441
 21
2673.7157784495462
 31
0.0
  0
LINE
  5
7F32
  8
1
 10
1039.1284585244421
 20
2643.7157784495462
 30
0.0
 11
1159.1284585244441
 21
2643.7157784495462
 31
0.0
  0
LINE
  5
7F33
  8
1
 10
1039.1284585244421
 20
2683.7157784495462
 30
0.0
 11
1039.1284585244421
 21
2673.7157784495462
 31
0.0
  0
LINE
  5
7F34
  8
1
 10
1159.128458524443
 20
2683.7157784495462
 30
0.0
 11
1159.128458524443
 21
2673.7157784495462
 31
0.0
  0
LINE
  5
7F35
  8
1
 10
1159.1284585244441
 20
2683.7157784495462
 30
0.0
 11
1287.8833261392549
 21
2683.7157784495462
 31
0.0
  0
LINE
  5
7F36
  8
1
 10
1159.128458524443
 20
2643.7157784495462
 30
0.0
 11
1159.128458524443
 21
2633.7157784495471
 31
0.0
  0
LINE
  5
7F37
  8
1
 10
1039.1284585244421
 20
2643.7157784495462
 30
0.0
 11
1039.1284585244421
 21
2633.7157784495471
 31
0.0
  0
INSERT
  5
7F38
  8
0
  2
YA_N
 10
7134.7159925290107
 20
3016.0028029189998
 30
0.0
 41
20.0
 42
20.0
 43
20.0
  0
INSERT
  5
7F3A
  8
0
  2
YA_N
 10
7248.935517883172
 20
2939.6610930797542
 30
0.0
 41
20.0
 42
20.0
 43
20.0
  0
LINE
  5
7F3C
  8
1
 10
5066.9730063743227
 20
3738.7157784495462
 30
0.0
 11
5066.9730063743227
 21
3698.7157784495462
 31
0.0
  0
LINE
  5
7F3D
  8
1
 10
4382.9730063743264
 20
3738.7157784495448
 30
0.0
 11
4382.9730063743264
 21
3698.7157784495448
 31
0.0
  0
LINE
  5
7F3E
  8
1
 10
4422.6730063743216
 20
3738.7157784495462
 30
0.0
 11
4422.6730063743253
 21
2593.7157784495462
 31
0.0
  0
LINE
  5
7F3F
  8
1
 10
4424.9730063743218
 20
3738.7157784495462
 30
0.0
 11
4424.9730063743264
 21
2593.7157784495462
 31
0.0
  0
LINE
  5
7F40
  8
1
 10
5027.2730063743238
 20
3738.7157784495462
 30
0.0
 11
5027.2730063743238
 21
2593.7157784495448
 31
0.0
  0
LINE
  5
7F41
  8
1
 10
5024.9730063743227
 20
3738.7157784495462
 30
0.0
 11
5024.9730063743264
 21
2593.7157784495448
 31
0.0
  0
LINE
  5
7F42
  8
1
 10
899.1284585244448
 20
2633.7157784495471
 30
0.0
 11
899.1284585244448
 21
2593.7157784495471
 31
0.0
  0
LINE
  5
7F43
  8
1
 10
2199.1284585244439
 20
2473.7157784495462
 30
0.0
 11
2199.1284585244439
 21
2373.7157784495448
 31
0.0
  0
LINE
  5
7F44
  8
1
 10
909.1284585244448
 20
2373.7157784495448
 30
0.0
 11
2199.1284585244439
 21
2373.7157784495448
 31
0.0
1001
ACAD
1000
ASC_BOUNDS
1002
{
1070
    19
1002
}
  0
LINE
  5
7F45
  8
1
 10
909.1284585244448
 20
2473.7157784495462
 30
0.0
 11
2199.1284585244439
 21
2473.7157784495462
 31
0.0
  0
LINE
  5
7F46
  8
1
 10
909.1284585244448
 20
2473.7157784495462
 30
0.0
 11
909.1284585244448
 21
2373.7157784495448
 31
0.0
  0
CIRCLE
  5
7F47
  8
1
 10
1699.1284585244441
 20
3193.7157784495471
 30
0.0
 40
127.0
  0
CIRCLE
  5
7F48
  8
1
 10
1099.1284585244421
 20
2843.7157784495471
 30
0.0
 40
110.0
  0
LINE
  5
7F49
  8
1
 10
1979.1284585244441
 20
2593.7157784495471
 30
0.0
 11
1979.1284585244441
 21
2493.7157784495462
 31
0.0
  0
LINE
  5
7F4A
  8
1
 10
1979.1284585244441
 20
2473.7157784495448
 30
0.0
 11
1979.1284585244441
 21
2373.7157784495448
 31
0.0
  0
LINE
  5
7F52
  8
1
 10
3669.9730063743241
 20
2473.7157784495471
 30
0.0
 11
5079.9730063743264
 21
2473.7157784495462
 31
0.0
  0
LINE
  5
7F53
  8
1
 10
3669.9730063743241
 20
2373.7157784495462
 30
0.0
 11
5079.9730063743264
 21
2373.7157784495471
 31
0.0
1001
ACAD
1000
ASC_BOUNDS
1002
{
1070
    19
1002
}
  0
LINE
  5
7F54
  8
1
 10
3716.9730063743241
 20
3113.7157784495462
 30
0.0
 11
3716.9730063743259
 21
2593.7157784495462
 31
0.0
  0
LINE
  5
7F55
  8
1
 10
4338.9730063743236
 20
3113.7157784495462
 30
0.0
 11
4338.9730063743273
 21
2593.7157784495462
 31
0.0
  0
LINE
  5
7F56
  8
1
 10
3576.9730063743241
 20
3320.7157784495448
 30
0.0
 11
3576.9730063743241
 21
2733.7157784495462
 31
0.0
  0
LINE
  5
7F57
  8
1
 10
3661.9730063743241
 20
3320.7157784495448
 30
0.0
 11
3661.9730063743241
 21
2733.7157784495448
 31
0.0
  0
LINE
  5
7F58
  8
1
 10
3576.9730063743268
 20
3320.7157784495448
 30
0.0
 11
3661.9730063743241
 21
3320.7157784495448
 31
0.0
  0
LINE
  5
7F59
  8
1
 10
3576.9730063743268
 20
3066.7157784495448
 30
0.0
 11
3661.9730063743241
 21
3066.7157784495448
 31
0.0
  0
LINE
  5
7F5A
  8
2
 10
3816.3763833373878
 20
2843.7157784495462
 30
0.0
 11
3495.403169520745
 21
2843.7157784495462
 31
0.0
  0
LINE
  5
7F5B
  8
1
 10
3576.9730063743241
 20
2953.7157784495462
 30
0.0
 11
3661.9730063743259
 21
2953.7157784495462
 31
0.0
  0
LINE
  5
7F5C
  8
1
 10
3576.9730063743241
 20
2733.7157784495462
 30
0.0
 11
3661.9730063743241
 21
2733.7157784495448
 31
0.0
  0
LINE
  5
7F5D
  8
1
 10
3696.9730063743241
 20
3413.7157784495462
 30
0.0
 11
3696.9730063743241
 21
3393.7157784495448
 31
0.0
  0
LINE
  5
7F5E
  8
1
 10
3536.9730063743241
 20
3413.7157784495462
 30
0.0
 11
3536.9730063743259
 21
2623.7157784495448
 31
0.0
  0
LINE
  5
7F5F
  8
1
 10
3536.9730063743241
 20
3413.7157784495448
 30
0.0
 11
3696.9730063743241
 21
3413.7157784495448
 31
0.0
  0
LINE
  5
7F60
  8
1
 10
3536.9730063743259
 20
2623.7157784495448
 30
0.0
 11
3696.9730063743259
 21
2623.7157784495462
 31
0.0
  0
LINE
  5
7F61
  8
1
 10
3696.9730063743241
 20
2643.7157784495462
 30
0.0
 11
3696.9730063743241
 21
2623.7157784495462
 31
0.0
  0
LINE
  5
7F62
  8
1
 10
4419.9730063743236
 20
2593.7157784495462
 30
0.0
 11
4419.97300637434
 21
2493.7157784495462
 31
0.0
  0
LINE
  5
7F63
  8
1
 10
5028.9730063743264
 20
3738.7157784495462
 30
0.0
 11
5028.9730063743264
 21
2753.7157784495462
 31
0.0
  0
LINE
  5
7F64
  8
1
 10
3716.9730063743259
 20
3113.7157784495462
 30
0.0
 11
4338.9730063743236
 21
3113.7157784495462
 31
0.0
  0
LINE
  5
7F65
  8
1
 10
3661.9730063743241
 20
3226.2157784495448
 30
0.0
 11
4422.6730063743234
 21
3226.2157784495448
 31
0.0
  0
LINE
  5
7F66
  8
1
 10
3661.9730063743241
 20
3161.2157784495448
 30
0.0
 11
4422.6730063743234
 21
3161.2157784495448
 31
0.0
  0
ARC
  5
7F67
  8
1
 10
1699.1284585244441
 20
3193.7157784495471
 30
0.0
 40
220.0
 50
300.25643716352931
 51
120.2564371635292
  0
ARC
  5
7F68
  8
1
 10
1099.1284585244441
 20
2843.7157784495462
 30
0.0
 40
220.0
 50
120.2564371635292
 51
300.25643716352931
  0
LINE
  5
7F69
  8
1
 10
1588.2768329091441
 20
3383.7471366472009
 30
0.0
 11
988.2768329091449
 21
3033.7471366472009
 31
0.0
  0
LINE
  5
7F6A
  8
1
 10
1632.4712386438439
 20
3301.8167268162888
 30
0.0
 11
1041.39385862786
 21
2937.3465211294028
 31
0.0
  0
LINE
  5
7F6B
  8
1
 10
1809.9800841397421
 20
3003.684420251891
 30
0.0
 11
1209.9800841397439
 21
2653.684420251891
 31
0.0
  0
LINE
  5
7F6C
  8
1
 10
1760.4161447262879
 20
3082.4826021035278
 30
0.0
 11
1152.212281218953
 21
2747.3720824018151
 31
0.0
  0
POINT
  5
7F6D
  8
1
 10
2199.1284585244439
 20
2373.7157784495448
 30
0.0
  0
LINE
  5
7F6E
  8
1
 10
4382.9730063743264
 20
3738.7157784495462
 30
0.0
 11
5066.9730063743227
 21
3738.7157784495462
 31
0.0
  0
LINE
  5
7F6F
  8
1
 10
4382.9730063743264
 20
3698.7157784495448
 30
0.0
 11
5066.9730063743227
 21
3698.7157784495462
 31
0.0
  0
LINE
  5
7F70
  8
1
 10
4382.9730063743264
 20
3735.7157784495462
 30
0.0
 11
5066.9730063743227
 21
3735.7157784495462
 31
0.0
  0
POINT
  5
7F71
  8
1
 10
3536.9730063743241
 20
3413.7157784495462
 30
0.0
  0
POINT
  5
7F72
  8
1
 10
5028.9730063743264
 20
3738.7157784495462
 30
0.0
  0
LINE
  5
7F73
  8
1
 10
5079.9730063743236
 20
2593.7157784495448
 30
0.0
 11
5079.9730063743236
 21
2493.7157784495462
 31
0.0
  0
LINE
  5
7F74
  8
1
 10
3669.9730063743241
 20
2593.7157784495462
 30
0.0
 11
3669.9730063743241
 21
2493.7157784495448
 31
0.0
  0
LINE
  5
7F75
  8
1
 10
3669.9730063743259
 20
2473.7157784495471
 30
0.0
 11
3669.9730063743259
 21
2373.7157784495448
 31
0.0
  0
LINE
  5
7F76
  8
1
 10
5079.9730063743264
 20
2473.7157784495462
 30
0.0
 11
5079.9730063743264
 21
2373.7157784495462
 31
0.0
  0
DIMENSION
  5
7F84
  8
3
  2
*D9
 10
1676.1284585244441
 20
3863.5452851429982
 30
0.0
 11
1254.569262621251
 21
3863.5452851429982
 31
0.0
 70
   128
 13
851.1284585244448
 23
3738.7157784495462
 33
0.0
 14
1676.1284585244441
 24
3738.7157784495462
 34
0.0
1001
ACAD
1000
DSTYLE
1002
{
1070
   287
1070
     3
1070
    40
1040
30.0
1070
   143
1040
0.039
1070
   172
1070
     1
1070
   271
1070
     0
1070
   279
1070
     0
1070
   288
1070
     1
1002
}
  0
DIMENSION
  5
7F91
  8
3
  2
*D10
 10
1699.1284585244441
 20
4071.4978635394941
 30
0.0
 11
1249.366134248768
 21
4071.4978635394941
 31
0.0
 70
   128
 13
851.1284585244448
 23
3738.7157784495462
 33
0.0
 14
1699.1284585244441
 24
3801.0867197851758
 34
0.0
1001
ACAD
1000
DSTYLE
1002
{
1070
   287
1070
     3
1070
    40
1040
30.0
1070
   143
1040
0.039
1070
   172
1070
     1
1070
   271
1070
     0
1070
   279
1070
     0
1070
   288
1070
     1
1002
}
  0
DIMENSION
  5
7F9D
  8
3
  2
*D11
 10
2267.1284585244439
 20
4071.4978635394941
 30
0.0
 11
1983.1284585244441
 21
4146.4978635394946
 31
0.0
 70
     0
 13
1699.1284585244441
 23
3801.0867197851758
 33
0.0
 14
2267.1284585244439
 24
3134.7157784495462
 34
0.0
1001
ACAD
1000
DSTYLE
1002
{
1070
   287
1070
     4
1070
    40
1040
30.0
1070
    75
1070
     1
1070
   143
1040
0.039
1070
   172
1070
     1
1070
   271
1070
     0
1070
   279
1070
     1
1070
   288
1070
     1
1002
}
  0
DIMENSION
  5
7FAB
  8
3
  2
*D12
 10
2608.7728518233571
 20
3193.7157784495471
 30
0.0
 11
2608.7728518233562
 21
3473.9612796683432
 31
0.0
 70
   128
 13
1718.6284585244441
 23
3738.7157784495462
 33
0.0
 14
2365.6002503748341
 24
3193.7157784495471
 34
0.0
 50
90.0
1001
ACAD
1000
DSTYLE
1002
{
1070
   287
1070
     3
1070
    40
1040
30.0
1070
   143
1040
0.039
1070
   172
1070
     1
1070
   271
1070
     0
1070
   279
1070
     0
1070
   288
1070
     1
1002
}
  0
DIMENSION
  5
7FC2
  8
3
  2
*D13
 10
2608.7728518233562
 20
2493.7157784495462
 30
0.0
 11
2533.7728518233548
 21
2843.7157784495471
 31
0.0
 70
     0
 13
2365.6002503748341
 23
3193.7157784495471
 33
0.0
 14
2199.1284585244439
 24
2493.7157784495462
 34
0.0
 50
90.0
1001
ACAD
1000
DSTYLE
1002
{
1070
   287
1070
     4
1070
    40
1040
30.0
1070
    75
1070
     1
1070
   143
1040
0.039
1070
   172
1070
     1
1070
   271
1070
     0
1070
   279
1070
     1
1070
   288
1070
     1
1002
}
  0
DIMENSION
  5
7FD2
  8
3
  2
*D14
 10
2608.7728518233562
 20
2473.7157784495462
 30
0.0
 11
2752.3442803947851
 21
2548.8914491249088
 31
0.0
 70
   128
  1
(<>)
 13
2199.1284585244439
 23
2493.7157784495462
 33
0.0
 14
2199.1284585244439
 24
2473.7157784495462
 34
0.0
 50
90.0
1001
ACAD
1000
DSTYLE
1002
{
1070
   288
1070
     1
1070
   172
1070
     1
1070
    75
1070
     1
1070
    40
1040
30.0
1070
   271
1070
     0
1070
     7
1000
_DOT
1070
   143
1040
0.039
1002
}
  0
DIMENSION
  5
7FE2
  8
3
  2
*D15
 10
2608.7728518233562
 20
2373.7157784495448
 30
0.0
 11
2533.7728518233548
 21
2116.5729213066879
 31
0.0
 70
     0
 13
2199.1284585244439
 23
2473.7157784495462
 33
0.0
 14
2199.1284585244439
 24
2373.7157784495448
 34
0.0
 50
90.0
1001
ACAD
1000
DSTYLE
1002
{
1070
   287
1070
     3
1070
    40
1040
30.0
1070
   143
1040
0.039
1070
   172
1070
     1
1070
   271
1070
     0
1070
   279
1070
     0
1070
   288
1070
     1
1070
     6
1000
DOT
1002
}
  0
DIMENSION
  5
8049
  8
3
  2
*D17
 10
1699.1284585244441
 20
2156.5536378687648
 30
0.0
 11
1303.5335763335529
 21
2156.5536378687648
 31
0.0
 70
   128
 13
909.1284585244448
 23
2373.7157784495448
 33
0.0
 14
1699.1284585244441
 24
2318.77052121509
 34
0.0
1001
ACAD
1000
DSTYLE
1002
{
1070
   287
1070
     3
1070
    40
1040
30.0
1070
   143
1040
0.039
1070
   172
1070
     1
1070
   271
1070
     0
1070
   279
1070
     0
1070
   288
1070
     1
1002
}
  0
DIMENSION
  5
8055
  8
3
  2
*D18
 10
2199.1284585244439
 20
2156.5536378687648
 30
0.0
 11
1949.1284585244441
 21
2231.5536378687648
 31
0.0
 70
     0
 13
1699.1284585244441
 23
2318.77052121509
 33
0.0
 14
2199.1284585244439
 24
2373.7157784495448
 34
0.0
1001
ACAD
1000
DSTYLE
1002
{
1070
   287
1070
     4
1070
    40
1040
30.0
1070
    75
1070
     1
1070
   143
1040
0.039
1070
   172
1070
     1
1070
   271
1070
     0
1070
   279
1070
     1
1070
   288
1070
     1
1002
}
  0
DIMENSION
  5
8062
  8
3
  2
*D19
 10
808.62845852444468
 20
4267.2280558428974
 30
0.0
 11
1540.0509997701331
 21
4267.2280558428974
 31
0.0
 70
   128
 13
2267.1284585244439
 23
3134.7157784495462
 33
0.0
 14
808.62845852444468
 24
3738.7157784495462
 34
0.0
1001
ACAD
1000
DSTYLE
1002
{
1070
   287
1070
     3
1070
    40
1040
30.0
1070
   143
1040
0.039
1070
   172
1070
     1
1070
   271
1070
     0
1070
   279
1070
     0
1070
   288
1070
     1
1002
}
  0
DIMENSION
  5
806F
  8
3
  2
*D20
 10
2934.5184194955441
 20
2373.7157784495448
 30
0.0
 11
2934.5184194955432
 21
2967.4556236061721
 31
0.0
 70
   128
 13
1718.6284585244441
 23
3738.7157784495462
 33
0.0
 14
2199.1284585244439
 24
2373.7157784495448
 34
0.0
 50
90.0
1001
ACAD
1000
DSTYLE
1002
{
1070
   287
1070
     3
1070
    40
1040
30.0
1070
   143
1040
0.039
1070
   172
1070
     1
1070
   271
1070
     0
1070
   279
1070
     0
1070
   288
1070
     1
1002
}
  0
DIMENSION
  5
807C
  8
3
  2
*D21
 10
5024.9730063743227
 20
3828.3777548148059
 30
0.0
 11
4724.681231214061
 21
3828.3777548148059
 31
0.0
 70
   128
 13
4424.9730063743218
 23
3738.7157784495462
 33
0.0
 14
5024.9730063743227
 24
3738.7157784495462
 34
0.0
1001
ACAD
1000
DSTYLE
1002
{
1070
   287
1070
     3
1070
    40
1040
30.0
1070
   143
1040
0.039
1070
   172
1070
     1
1070
   271
1070
     0
1070
   279
1070
     0
1070
   288
1070
     1
1002
}
  0
DIMENSION
  5
808D
  8
3
  2
*D22
 10
5028.9730063743264
 20
4040.9763404200571
 30
0.0
 11
4876.9730063743255
 21
4109.8692212927781
 31
0.0
 70
   128
 13
4724.9730063743236
 23
3967.173348623699
 33
0.0
 14
5028.9730063743264
 24
3738.7157784495462
 34
0.0
1001
ACAD
1000
DSTYLE
1002
{
1070
   288
1070
     1
1070
   172
1070
     1
1070
    40
1040
30.0
1070
   271
1070
     0
1070
   143
1040
0.039
1002
}
  0
DIMENSION
  5
80B0
  8
3
  2
*D23
 10
4724.9730063743264
 20
2142.0589171252682
 30
0.0
 11
4188.9843337869088
 21
2142.0589171252682
 31
0.0
 70
   128
 13
3669.9730063743259
 23
2373.7157784495462
 33
0.0
 14
4724.9730063743264
 24
2325.6885745970908
 34
0.0
1001
ACAD
1000
DSTYLE
1002
{
1070
   287
1070
     3
1070
    40
1040
30.0
1070
   143
1040
0.039
1070
   172
1070
     1
1070
   271
1070
     0
1070
   279
1070
     0
1070
   288
1070
     1
1002
}
  0
DIMENSION
  5
80BE
  8
3
  2
*D24
 10
5079.9730063743264
 20
2142.0589171252682
 30
0.0
 11
4902.4730063743264
 21
2213.6334405384259
 31
0.0
 12
0.0
 22
95.0
 32
0.0
 70
   128
 13
4724.9730063743264
 23
2325.6885745970908
 33
0.0
 14
5079.9730063743264
 24
2373.7157784495471
 34
0.0
1001
ACAD
1000
DSTYLE
1002
{
1070
   288
1070
     1
1070
   172
1070
     1
1070
    75
1070
     1
1070
    40
1040
30.0
1070
   271
1070
     0
1070
   143
1040
0.039
1002
}
  0
DIMENSION
  5
80E2
  8
3
  2
*D25
 10
5301.2434279509334
 20
2793.7157784495448
 30
0.0
 11
5301.2434279509316
 21
3180.159420955606
 31
0.0
 70
   128
 13
5027.2730063743238
 23
3593.7157784495462
 33
0.0
 14
5027.2730063743238
 24
2793.7157784495462
 34
0.0
 50
90.0
1001
ACAD
1000
DSTYLE
1002
{
1070
   287
1070
     3
1070
     3
1000
φ<>
1070
    40
1040
30.0
1070
   143
1040
0.039
1070
   172
1070
     1
1070
   271
1070
     0
1070
   279
1070
     0
1070
   288
1070
     1
1002
}
  0
DIMENSION
  5
8118
  8
3
  2
*D26
 10
3536.9730063743241
 20
4040.9763404200571
 30
0.0
 11
4130.9730063743255
 21
4190.9763404200557
 31
0.0
 70
     0
  1
MAX\P1240
 13
4724.9730063743236
 23
3967.173348623699
 33
0.0
 14
3536.9730063743241
 24
3413.7157784495448
 34
0.0
1001
ACAD
1000
DSTYLE
1002
{
1070
   287
1070
     4
1070
    40
1040
30.0
1070
    75
1070
     1
1070
   143
1040
0.039
1070
   172
1070
     1
1070
   271
1070
     0
1070
   279
1070
     1
1070
   288
1070
     1
1002
}
  0
LINE
  5
816A
  8
1
 10
851.12845852444457
 20
6444.1524204127199
 30
0.0
 11
851.1284585244448
 21
5844.152420412719
 31
0.0
  0
LINE
  5
816B
  8
1
 10
2267.1284585244439
 20
6444.1524204127236
 30
0.0
 11
2267.1284585244439
 21
5844.1524204127227
 31
0.0
  0
LINE
  5
816C
  8
1
 10
1676.1284585244441
 20
6444.1524204127199
 30
0.0
 11
1676.1284585244441
 21
5844.152420412719
 31
0.0
  0
LINE
  5
816D
  8
1
 10
1716.128458524445
 20
6484.1524204127227
 30
0.0
 11
811.12845852444457
 21
6484.1524204127181
 31
0.0
  0
LINE
  5
816E
  8
1
 10
811.12845852444457
 20
6484.1524204127181
 30
0.0
 11
811.12845852444457
 21
5804.152420412719
 31
0.0
  0
LINE
  5
816F
  8
1
 10
1716.128458524445
 20
5804.1524204127218
 30
0.0
 11
811.12845852444457
 21
5804.152420412719
 31
0.0
  0
LINE
  5
8170
  8
1
 10
1716.128458524445
 20
6484.1524204127227
 30
0.0
 11
1716.1284585244441
 21
5804.1524204127218
 31
0.0
  0
LINE
  5
8172
  8
1
 10
1676.1284585244441
 20
6444.1524204127236
 30
0.0
 11
851.1284585244448
 21
6444.152420412719
 31
0.0
  0
LINE
  5
8173
  8
1
 10
1676.1284585244441
 20
5844.1524204127218
 30
0.0
 11
851.1284585244448
 21
5844.152420412719
 31
0.0
  0
LINE
  5
8174
  8
1
 10
1676.1284585244441
 20
6444.1524204127236
 30
0.0
 11
851.12845852444457
 21
5844.152420412719
 31
0.0
  0
LINE
  5
8175
  8
1
 10
851.12845852444457
 20
6444.152420412719
 30
0.0
 11
1676.1284585244441
 21
5844.1524204127218
 31
0.0
  0
LINE
  5
81DB
  8
1
 10
1529.128458524445
 20
3113.7157784495462
 30
0.0
 11
1869.1284585244441
 21
3113.7157784495462
 31
0.0
  0
LINE
  5
81DD
  8
1
 10
1869.1284585244441
 20
3113.7157784495462
 30
0.0
 11
1979.1284585244441
 21
2593.7157784495471
 31
0.0
  0
LINE
  5
81DE
  8
1
 10
1529.1284585244441
 20
3113.7157784495462
 30
0.0
 11
1419.1284585244441
 21
2593.7157784495471
 31
0.0
  0
LINE
  5
81DF
  8
1
 10
1529.1284585244441
 20
5758.1524204127218
 30
0.0
 11
1529.1284585244441
 21
5136.1524204127227
 31
0.0
  0
LINE
  5
81E0
  8
1
 10
1869.1284585244441
 20
5758.1524204127218
 30
0.0
 11
1869.1284585244441
 21
5136.1524204127199
 31
0.0
  0
LINE
  5
81E1
  8
1
 10
879.12845852444468
 20
5116.1524204127236
 30
0.0
 11
899.1284585244448
 21
5116.1524204127236
 31
0.0
  0
ENDSEC
  0
EOF
