  0
SECTION
  2
HEADER
  9
$ACADVER
  1
AC1027
  9
$ACADMAINTVER
 70
   125
  9
$DWGCODEPAGE
  3
ANSI_932
  9
$LASTSAVEDBY
  1
yasukiyo.ogawa
  9
$REQUIREDVERSIONS
160
                 0
  9
$INSBASE
 10
0.0
 20
0.0
 30
0.0
  9
$EXTMIN
 10
0.0
 20
0.0
 30
0.0
  9
$EXTMAX
 10
5250.0
 20
7375.0
 30
0.0
  9
$LIMMIN
 10
0.0
 20
0.0
  9
$LIMMAX
 10
297.0
 20
210.0
  9
$ORTHOMODE
 70
     1
  9
$REGENMODE
 70
     1
  9
$FILLMODE
 70
     0
  9
$QTEXTMODE
 70
     0
  9
$MIRRTEXT
 70
     1
  9
$LTSCALE
 40
100.0
  9
$ATTMODE
 70
     1
  9
$TEXTSIZE
 40
180.0
  9
$TRACEWID
 40
0.05
  9
$TEXTSTYLE
  7
STANDARD
  9
$CLAYER
  8
3
  9
$CELTYPE
  6
BYLAYER
  9
$CECOLOR
 62
   256
  9
$CELTSCALE
 40
1.0
  9
$DISPSILH
 70
     0
  9
$DIMSCALE
 40
25.0
  9
$DIMASZ
 40
2.0
  9
$DIMEXO
 40
0.5
  9
$DIMDLI
 40
10.0
  9
$DIMRND
 40
0.0
  9
$DIMDLE
 40
0.0
  9
$DIMEXE
 40
1.0
  9
$DIMTP
 40
1.0
  9
$DIMTM
 40
1.0
  9
$DIMTXT
 40
3.0
  9
$DIMCEN
 40
0.0
  9
$DIMTSZ
 40
0.0
  9
$DIMTOL
 70
     0
  9
$DIMLIM
 70
     0
  9
$DIMTIH
 70
     0
  9
$DIMTOH
 70
     0
  9
$DIMSE1
 70
     0
  9
$DIMSE2
 70
     0
  9
$DIMTAD
 70
     1
  9
$DIMZIN
 70
     8
  9
$DIMBLK
  1

  9
$DIMASO
 70
     1
  9
$DIMSHO
 70
     1
  9
$DIMPOST
  1
(<>)
  9
$DIMAPOST
  1

  9
$DIMALT
 70
     0
  9
$DIMALTD
 70
     2
  9
$DIMALTF
 40
0.039
  9
$DIMLFAC
 40
1.0
  9
$DIMTOFL
 70
     1
  9
$DIMTVP
 40
0.0
  9
$DIMTIX
 70
     0
  9
$DIMSOXD
 70
     0
  9
$DIMSAH
 70
     1
  9
$DIMBLK1
  1
OPEN
  9
$DIMBLK2
  1
OPEN
  9
$DIMSTYLE
  2
IGA
  9
$DIMCLRD
 70
     0
  9
$DIMCLRE
 70
     0
  9
$DIMCLRT
 70
     0
  9
$DIMTFAC
 40
10.0
  9
$DIMGAP
 40
1.0
  9
$DIMJUST
 70
     0
  9
$DIMSD1
 70
     0
  9
$DIMSD2
 70
     0
  9
$DIMTOLJ
 70
     1
  9
$DIMTZIN
 70
     8
  9
$DIMALTZ
 70
     0
  9
$DIMALTTZ
 70
     0
  9
$DIMUPT
 70
     0
  9
$DIMDEC
 70
     0
  9
$DIMTDEC
 70
     0
  9
$DIMALTU
 70
     2
  9
$DIMALTTD
 70
     2
  9
$DIMTXSTY
  7
STANDARD
  9
$DIMAUNIT
 70
     0
  9
$DIMADEC
 70
     0
  9
$DIMALTRND
 40
0.0
  9
$DIMAZIN
 70
     0
  9
$DIMDSEP
 70
    46
  9
$DIMATFIT
 70
     3
  9
$DIMFRAC
 70
     0
  9
$DIMLDRBLK
  1
OPEN
  9
$DIMLUNIT
 70
     2
  9
$DIMLWD
 70
    -2
  9
$DIMLWE
 70
    -2
  9
$DIMTMOVE
 70
     2
  9
$DIMFXL
 40
1.0
  9
$DIMFXLON
 70
     0
  9
$DIMJOGANG
 40
0.7853981633974483
  9
$DIMTFILL
 70
     0
  9
$DIMTFILLCLR
 70
     0
  9
$DIMARCSYM
 70
     0
  9
$DIMLTYPE
  6

  9
$DIMLTEX1
  6

  9
$DIMLTEX2
  6

  9
$DIMTXTDIRECTION
 70
     0
  9
$LUNITS
 70
     2
  9
$LUPREC
 70
     3
  9
$SKETCHINC
 40
0.1
  9
$FILLETRAD
 40
50.0
  9
$AUNITS
 70
     0
  9
$AUPREC
 70
     0
  9
$MENU
  1
acad
  9
$ELEVATION
 40
0.0
  9
$PELEVATION
 40
0.0
  9
$THICKNESS
 40
0.0
  9
$LIMCHECK
 70
     0
  9
$CHAMFERA
 40
0.5
  9
$CHAMFERB
 40
0.5
  9
$CHAMFERC
 40
20.0
  9
$CHAMFERD
 40
0.0
  9
$SKPOLY
 70
     0
  9
$TDCREATE
 40
2451381.623483797
  9
$TDUCREATE
 40
2451381.248490741
  9
$TDUPDATE
 40
2460234.680532408
  9
$TDUUPDATE
 40
2460234.305536065
  9
$TDINDWG
 40
0.0317982523
  9
$TDUSRTIMER
 40
0.0317982523
  9
$USRTIMER
 70
     1
  9
$ANGBASE
 50
0.0
  9
$ANGDIR
 70
     0
  9
$PDMODE
 70
     0
  9
$PDSIZE
 40
0.0
  9
$PLINEWID
 40
0.0
  9
$SPLFRAME
 70
     0
  9
$SPLINETYPE
 70
     6
  9
$SPLINESEGS
 70
     8
  9
$HANDSEED
  5
84DC
  9
$SURFTAB1
 70
     6
  9
$SURFTAB2
 70
     6
  9
$SURFTYPE
 70
     6
  9
$SURFU
 70
     6
  9
$SURFV
 70
     6
  9
$UCSBASE
  2

  9
$UCSNAME
  2

  9
$UCSORG
 10
0.0
 20
0.0
 30
0.0
  9
$UCSXDIR
 10
1.0
 20
0.0
 30
0.0
  9
$UCSYDIR
 10
0.0
 20
1.0
 30
0.0
  9
$UCSORTHOREF
  2

  9
$UCSORTHOVIEW
 70
     0
  9
$UCSORGTOP
 10
0.0
 20
0.0
 30
0.0
  9
$UCSORGBOTTOM
 10
0.0
 20
0.0
 30
0.0
  9
$UCSORGLEFT
 10
0.0
 20
0.0
 30
0.0
  9
$UCSORGRIGHT
 10
0.0
 20
0.0
 30
0.0
  9
$UCSORGFRONT
 10
0.0
 20
0.0
 30
0.0
  9
$UCSORGBACK
 10
0.0
 20
0.0
 30
0.0
  9
$PUCSBASE
  2

  9
$PUCSNAME
  2

  9
$PUCSORG
 10
0.0
 20
0.0
 30
0.0
  9
$PUCSXDIR
 10
1.0
 20
0.0
 30
0.0
  9
$PUCSYDIR
 10
0.0
 20
1.0
 30
0.0
  9
$PUCSORTHOREF
  2

  9
$PUCSORTHOVIEW
 70
     0
  9
$PUCSORGTOP
 10
0.0
 20
0.0
 30
0.0
  9
$PUCSORGBOTTOM
 10
0.0
 20
0.0
 30
0.0
  9
$PUCSORGLEFT
 10
0.0
 20
0.0
 30
0.0
  9
$PUCSORGRIGHT
 10
0.0
 20
0.0
 30
0.0
  9
$PUCSORGFRONT
 10
0.0
 20
0.0
 30
0.0
  9
$PUCSORGBACK
 10
0.0
 20
0.0
 30
0.0
  9
$USERI1
 70
     0
  9
$USERI2
 70
     0
  9
$USERI3
 70
     0
  9
$USERI4
 70
     0
  9
$USERI5
 70
     0
  9
$USERR1
 40
0.0
  9
$USERR2
 40
0.0
  9
$USERR3
 40
0.0
  9
$USERR4
 40
0.0
  9
$USERR5
 40
0.0
  9
$WORLDVIEW
 70
     1
  9
$SHADEDGE
 70
     3
  9
$SHADEDIF
 70
    70
  9
$TILEMODE
 70
     1
  9
$MAXACTVP
 70
    16
  9
$PINSBASE
 10
0.0
 20
0.0
 30
0.0
  9
$PLIMCHECK
 70
     0
  9
$PEXTMIN
 10
1.000000000000000E+20
 20
1.000000000000000E+20
 30
1.000000000000000E+20
  9
$PEXTMAX
 10
-1.000000000000000E+20
 20
-1.000000000000000E+20
 30
-1.000000000000000E+20
  9
$PLIMMIN
 10
0.0
 20
0.0
  9
$PLIMMAX
 10
12.0
 20
9.0
  9
$UNITMODE
 70
     0
  9
$VISRETAIN
 70
     0
  9
$PLINEGEN
 70
     0
  9
$PSLTSCALE
 70
     1
  9
$TREEDEPTH
 70
  3020
  9
$CMLSTYLE
  2
STANDARD
  9
$CMLJUST
 70
     0
  9
$CMLSCALE
 40
20.0
  9
$PROXYGRAPHICS
 70
     1
  9
$MEASUREMENT
 70
     1
  9
$CELWEIGHT
370
    -1
  9
$ENDCAPS
280
     0
  9
$JOINSTYLE
280
     0
  9
$LWDISPLAY
290
     0
  9
$INSUNITS
 70
     0
  9
$HYPERLINKBASE
  1

  9
$STYLESHEET
  1

  9
$XEDIT
290
     1
  9
$CEPSNTYPE
380
     0
  9
$PSTYLEMODE
290
     1
  9
$FINGERPRINTGUID
  2
{6C4207D1-3537-401E-905D-BE2140CF16B4}
  9
$VERSIONGUID
  2
{E6E2D588-2946-49FF-AE9E-EE579A68A242}
  9
$EXTNAMES
290
     1
  9
$PSVPSCALE
 40
0.0
  9
$OLESTARTUP
290
     0
  9
$SORTENTS
280
   127
  9
$INDEXCTL
280
     0
  9
$HIDETEXT
280
     0
  9
$XCLIPFRAME
280
     2
  9
$HALOGAP
280
     0
  9
$OBSCOLOR
 70
   257
  9
$OBSLTYPE
280
     0
  9
$INTERSECTIONDISPLAY
280
     0
  9
$INTERSECTIONCOLOR
 70
   257
  9
$DIMASSOC
280
     1
  9
$PROJECTNAME
  1

  9
$CAMERADISPLAY
290
     0
  9
$LENSLENGTH
 40
50.0
  9
$CAMERAHEIGHT
 40
0.0
  9
$STEPSPERSEC
 40
2.0
  9
$STEPSIZE
 40
6.0
  9
$3DDWFPREC
 40
2.0
  9
$PSOLWIDTH
 40
0.25
  9
$PSOLHEIGHT
 40
4.0
  9
$LOFTANG1
 40
1.570796326794896
  9
$LOFTANG2
 40
1.570796326794896
  9
$LOFTMAG1
 40
0.0
  9
$LOFTMAG2
 40
0.0
  9
$LOFTPARAM
 70
     7
  9
$LOFTNORMALS
280
     1
  9
$LATITUDE
 40
37.795
  9
$LONGITUDE
 40
-122.394
  9
$NORTHDIRECTION
 40
0.0
  9
$TIMEZONE
 70
 -8000
  9
$LIGHTGLYPHDISPLAY
280
     1
  9
$TILEMODELIGHTSYNCH
280
     1
  9
$CMATERIAL
347
80DC
  9
$SOLIDHIST
280
     0
  9
$SHOWHIST
280
     1
  9
$DWFFRAME
280
     2
  9
$DGNFRAME
280
     0
  9
$REALWORLDSCALE
290
     1
  9
$INTERFERECOLOR
 62
     1
  9
$INTERFEREOBJVS
345
80FE
  9
$INTERFEREVPVS
346
80FB
  9
$CSHADOW
280
     0
  9
$SHADOWPLANELOCATION
 40
0.0
  0
ENDSEC
  0
SECTION
  2
CLASSES
  0
CLASS
  1
ACDBDICTIONARYWDFLT
  2
AcDbDictionaryWithDefault
  3
ObjectDBX Classes
 90
        0
 91
        1
280
     0
281
     0
  0
CLASS
  1
MATERIAL
  2
AcDbMaterial
  3
ObjectDBX Classes
 90
     1153
 91
        3
280
     0
281
     0
  0
CLASS
  1
VISUALSTYLE
  2
AcDbVisualStyle
  3
ObjectDBX Classes
 90
     4095
 91
       24
280
     0
281
     0
  0
CLASS
  1
TABLESTYLE
  2
AcDbTableStyle
  3
ObjectDBX Classes
 90
     4095
 91
        1
280
     0
281
     0
  0
CLASS
  1
SCALE
  2
AcDbScale
  3
ObjectDBX Classes
 90
     1153
 91
       17
280
     0
281
     0
  0
CLASS
  1
MLEADERSTYLE
  2
AcDbMLeaderStyle
  3
ACDB_MLEADERSTYLE_CLASS
 90
     4095
 91
        1
280
     0
281
     0
  0
CLASS
  1
ACDBSECTIONVIEWSTYLE
  2
AcDbSectionViewStyle
  3
ObjectDBX Classes
 90
     1025
 91
        1
280
     0
281
     0
  0
CLASS
  1
ACDBDETAILVIEWSTYLE
  2
AcDbDetailViewStyle
  3
ObjectDBX Classes
 90
     1025
 91
        1
280
     0
281
     0
  0
CLASS
  1
DICTIONARYVAR
  2
AcDbDictionaryVar
  3
ObjectDBX Classes
 90
        0
 91
       10
280
     0
281
     0
  0
CLASS
  1
CELLSTYLEMAP
  2
AcDbCellStyleMap
  3
ObjectDBX Classes
 90
     1152
 91
        1
280
     0
281
     0
  0
ENDSEC
  0
SECTION
  2
TABLES
  0
TABLE
  2
VPORT
  5
8
330
0
100
AcDbSymbolTable
 70
     1
1001
ACAD
1000
DbSaveVer
1071
      278
  0
VPORT
  5
80D9
330
8
100
AcDbSymbolTableRecord
100
AcDbViewportTableRecord
  2
*Active
 70
     0
 10
0.0
 20
0.0
 11
1.0
 21
1.0
 12
3367.641899159945
 22
3687.500017171259
 13
0.0
 23
0.0
 14
10.0
 24
10.0
 15
10.0
 25
10.0
 16
0.0
 26
0.0
 36
1.0
 17
0.0
 27
0.0
 37
0.0
 40
7422.678203440799
 41
2.250314465408805
 42
50.0
 43
0.0
 44
0.0
 50
0.0
 51
0.0
 71
     0
 72
   100
 73
     1
 74
     0
 75
     0
 76
     0
 77
     0
 78
     0
281
     0
 65
     1
110
0.0
120
0.0
130
0.0
111
1.0
121
0.0
131
0.0
112
0.0
122
1.0
132
0.0
 79
     0
146
0.0
348
80FA
 60
     3
 61
     5
292
     1
282
     1
141
0.0
142
0.0
 63
   250
421
  3355443
1001
ACAD_NAV_VCDISPLAY
1070
     3
  0
ENDTAB
  0
TABLE
  2
LTYPE
  5
5
330
0
100
AcDbSymbolTable
 70
     2
  0
LTYPE
  5
13
330
5
100
AcDbSymbolTableRecord
100
AcDbLinetypeTableRecord
  2
BYBLOCK
 70
     0
  3

 72
    65
 73
     0
 40
0.0
  0
LTYPE
  5
14
330
5
100
AcDbSymbolTableRecord
100
AcDbLinetypeTableRecord
  2
BYLAYER
 70
     0
  3

 72
    65
 73
     0
 40
0.0
  0
LTYPE
  5
15
330
5
100
AcDbSymbolTableRecord
100
AcDbLinetypeTableRecord
  2
CONTINUOUS
 70
     0
  3
Solid line
 72
    65
 73
     0
 40
0.0
  0
LTYPE
  5
1F
330
5
100
AcDbSymbolTableRecord
100
AcDbLinetypeTableRecord
  2
CENTER
 70
     0
  3
____ _ ____ _ ____ _ ____ _ ____ _ ____ _ ____ 
 72
    65
 73
     4
 40
2.0
 49
1.25
 74
     0
 49
-0.25
 74
     0
 49
0.25
 74
     0
 49
-0.25
 74
     0
  0
ENDTAB
  0
TABLE
  2
LAYER
  5
2
102
{ACAD_XDICTIONARY
360
81B4
102
}
330
0
100
AcDbSymbolTable
 70
     6
  0
LAYER
  5
F
102
{ACAD_XDICTIONARY
360
84A8
102
}
330
2
100
AcDbSymbolTableRecord
100
AcDbLayerTableRecord
  2
0
 70
     0
 62
     7
  6
CONTINUOUS
370
    -3
390
8080
347
80EC
348
0
  0
LAYER
  5
31
102
{ACAD_XDICTIONARY
360
84AA
102
}
330
2
100
AcDbSymbolTableRecord
100
AcDbLayerTableRecord
  2
3
 70
     0
 62
     2
  6
CONTINUOUS
370
    -3
390
8080
347
80EC
348
0
  0
LAYER
  5
76D0
102
{ACAD_XDICTIONARY
360
84AC
102
}
330
2
100
AcDbSymbolTableRecord
100
AcDbLayerTableRecord
  2
2
 70
     0
 62
     3
  6
CENTER
370
    -3
390
8080
347
80EC
348
0
  0
LAYER
  5
76D1
102
{ACAD_XDICTIONARY
360
84AE
102
}
330
2
100
AcDbSymbolTableRecord
100
AcDbLayerTableRecord
  2
1
 70
     0
 62
     4
  6
CONTINUOUS
370
    -3
390
8080
347
80EC
348
0
  0
LAYER
  5
76D2
102
{ACAD_XDICTIONARY
360
84B0
102
}
330
2
100
AcDbSymbolTableRecord
100
AcDbLayerTableRecord
  2
4
 70
     0
 62
     7
  6
CONTINUOUS
370
    -3
390
8080
347
80EC
348
0
  0
LAYER
  5
7B46
330
2
100
AcDbSymbolTableRecord
100
AcDbLayerTableRecord
  2
DEFPOINTS
 70
     0
 62
     7
  6
CONTINUOUS
290
     0
370
    -3
390
8080
347
80EC
348
0
  0
ENDTAB
  0
TABLE
  2
STYLE
  5
3
330
0
100
AcDbSymbolTable
 70
     1
  0
STYLE
  5
10
330
3
100
AcDbSymbolTableRecord
100
AcDbTextStyleTableRecord
  2
STANDARD
 70
     0
 40
0.0
 41
1.0
 50
0.0
 71
     0
 42
180.0
  3
simplex.shx
  4
extfont.shx
  0
ENDTAB
  0
TABLE
  2
VIEW
  5
6
330
0
100
AcDbSymbolTable
 70
     0
  0
ENDTAB
  0
TABLE
  2
UCS
  5
7
330
0
100
AcDbSymbolTable
 70
     0
  0
ENDTAB
  0
TABLE
  2
APPID
  5
9
330
0
100
AcDbSymbolTable
 70
     2
  0
APPID
  5
11
330
9
100
AcDbSymbolTableRecord
100
AcDbRegAppTableRecord
  2
ACAD
 70
     0
  0
APPID
  5
81B3
330
9
100
AcDbSymbolTableRecord
100
AcDbRegAppTableRecord
  2
ACAD_NAV_VCDISPLAY
 70
     0
  0
ENDTAB
  0
TABLE
  2
DIMSTYLE
  5
A
330
0
100
AcDbSymbolTable
 70
     2
100
AcDbDimStyleTable
 71
     1
340
1D
  0
DIMSTYLE
105
1D
102
{ACAD_REACTORS
330
7CF8
330
806B
330
8362
330
836F
330
837C
330
83D3
330
83E9
330
83F6
330
8403
330
8410
330
841D
102
}
330
A
100
AcDbSymbolTableRecord
100
AcDbDimStyleTableRecord
  2
IGA
 70
     0
 40
2.0
 41
2.0
 42
0.5
 43
10.0
 44
1.0
 47
1.0
 48
1.0
 73
     0
 74
     0
 77
     1
 78
     8
140
3.0
141
0.0
143
0.03937
146
10.0
147
1.0
173
     1
271
     1
272
     0
279
     2
284
     8
340
10
341
79FC
343
79FC
344
79FC
  0
DIMSTYLE
105
7B48
102
{ACAD_REACTORS
330
7CB3
330
7CB4
330
7CDF
330
7CE1
330
7CE8
330
7CE9
330
7CEA
330
7CEB
330
7CEC
330
7CED
330
7CF9
330
7D2A
102
}
330
A
100
AcDbSymbolTableRecord
100
AcDbDimStyleTableRecord
  2
MATSU
 70
     0
 41
2.0
 42
1.0
 43
10.0
 44
1.0
 73
     0
 74
     0
 77
     1
 78
     8
140
3.0
141
0.0
143
0.03937
147
0.5
172
     1
173
     1
176
   256
177
   256
178
   256
284
     8
289
     0
340
10
341
79FC
343
79FC
344
79FC
  0
ENDTAB
  0
TABLE
  2
BLOCK_RECORD
  5
1
330
0
100
AcDbSymbolTable
 70
    58
  0
BLOCK_RECORD
  5
19
102
{ACAD_XDICTIONARY
360
80AE
102
}
330
1
100
AcDbSymbolTableRecord
100
AcDbBlockTableRecord
  2
*MODEL_SPACE
340
8083
 70
     0
280
     1
281
     0
  0
BLOCK_RECORD
  5
16
102
{ACAD_XDICTIONARY
360
80AC
102
}
330
1
100
AcDbSymbolTableRecord
100
AcDbBlockTableRecord
  2
*PAPER_SPACE
340
8084
 70
     0
280
     1
281
     0
  0
BLOCK_RECORD
  5
79FC
330
1
100
AcDbSymbolTableRecord
100
AcDbBlockTableRecord
  2
_OPEN
340
0
102
{BLKREFS
331
8499
331
849A
331
84A2
331
84A3
331
83E3
331
83E4
331
8424
331
8425
331
846C
331
846D
331
8475
331
8476
331
847E
331
847F
331
8487
331
8488
331
8490
331
8491
331
83B8
331
7E76
331
7E77
331
7E81
331
7E82
331
7ECE
331
7ECF
331
7ED9
331
7EDA
331
7EEF
331
7EF0
331
7EFA
331
7EFB
331
7F05
331
7F06
331
7F1B
331
7F1C
331
7F40
331
7F41
331
7F75
331
7F76
331
8000
331
8001
331
800B
331
800C
102
}
 70
     0
280
     1
281
     0
  0
BLOCK_RECORD
  5
7A0A
330
1
100
AcDbSymbolTableRecord
100
AcDbBlockTableRecord
  2
YA_N
340
0
102
{BLKREFS
331
7C6F
331
7CB9
331
7C43
102
}
 70
     0
280
     1
281
     0
  0
BLOCK_RECORD
  5
7D45
330
1
100
AcDbSymbolTableRecord
100
AcDbBlockTableRecord
  2
*D3
340
0
 70
     0
280
     1
281
     0
  0
BLOCK_RECORD
  5
7D51
330
1
100
AcDbSymbolTableRecord
100
AcDbBlockTableRecord
  2
*D4
340
0
 70
     0
280
     1
281
     0
  0
BLOCK_RECORD
  5
7DA5
330
1
100
AcDbSymbolTableRecord
100
AcDbBlockTableRecord
  2
*D9
340
0
 70
     0
280
     1
281
     0
  0
BLOCK_RECORD
  5
7DB1
330
1
100
AcDbSymbolTableRecord
100
AcDbBlockTableRecord
  2
*D10
340
0
 70
     0
280
     1
281
     0
  0
BLOCK_RECORD
  5
7DBD
330
1
100
AcDbSymbolTableRecord
100
AcDbBlockTableRecord
  2
*D11
340
0
 70
     0
280
     1
281
     0
  0
BLOCK_RECORD
  5
7DC9
330
1
100
AcDbSymbolTableRecord
100
AcDbBlockTableRecord
  2
*D12
340
0
 70
     0
280
     1
281
     0
  0
BLOCK_RECORD
  5
7DD5
330
1
100
AcDbSymbolTableRecord
100
AcDbBlockTableRecord
  2
*D13
340
0
 70
     0
280
     1
281
     0
  0
BLOCK_RECORD
  5
7DE1
330
1
100
AcDbSymbolTableRecord
100
AcDbBlockTableRecord
  2
*D14
340
0
 70
     0
280
     1
281
     0
  0
BLOCK_RECORD
  5
7DED
330
1
100
AcDbSymbolTableRecord
100
AcDbBlockTableRecord
  2
*D15
340
0
 70
     0
280
     1
281
     0
  0
BLOCK_RECORD
  5
7DF9
330
1
100
AcDbSymbolTableRecord
100
AcDbBlockTableRecord
  2
*D16
340
0
 70
     0
280
     1
281
     0
  0
BLOCK_RECORD
  5
7E13
330
1
100
AcDbSymbolTableRecord
100
AcDbBlockTableRecord
  2
*D17
340
0
 70
     0
280
     1
281
     0
  0
BLOCK_RECORD
  5
7E21
330
1
100
AcDbSymbolTableRecord
100
AcDbBlockTableRecord
  2
*D18
340
0
 70
     0
280
     1
281
     0
  0
BLOCK_RECORD
  5
7E5B
330
1
100
AcDbSymbolTableRecord
100
AcDbBlockTableRecord
  2
*D22
340
0
 70
     0
280
     1
281
     0
  0
BLOCK_RECORD
  5
7FD1
330
1
100
AcDbSymbolTableRecord
100
AcDbBlockTableRecord
  2
_DOT
340
0
102
{BLKREFS
331
83B7
102
}
 70
     0
280
     1
281
     0
  0
BLOCK_RECORD
  5
805F
330
1
100
AcDbSymbolTableRecord
100
AcDbBlockTableRecord
  2
_NONE
340
0
 70
     0
280
     1
281
     0
  0
BLOCK_RECORD
  5
8063
330
1
100
AcDbSymbolTableRecord
100
AcDbBlockTableRecord
  2
*D25
340
0
 70
     0
280
     1
281
     0
  0
BLOCK_RECORD
  5
8363
330
1
100
AcDbSymbolTableRecord
100
AcDbBlockTableRecord
  2
*D49
340
0
 70
     0
280
     1
281
     0
  0
BLOCK_RECORD
  5
8370
330
1
100
AcDbSymbolTableRecord
100
AcDbBlockTableRecord
  2
*D50
340
0
 70
     0
280
     1
281
     0
  0
BLOCK_RECORD
  5
837D
330
1
100
AcDbSymbolTableRecord
100
AcDbBlockTableRecord
  2
*D51
340
0
 70
     0
280
     1
281
     0
  0
BLOCK_RECORD
  5
83D4
330
1
100
AcDbSymbolTableRecord
100
AcDbBlockTableRecord
  2
*D52
340
0
 70
     0
280
     1
281
     0
  0
BLOCK_RECORD
  5
83EA
330
1
100
AcDbSymbolTableRecord
100
AcDbBlockTableRecord
  2
*D53
340
0
 70
     0
280
     1
281
     0
  0
BLOCK_RECORD
  5
83F7
330
1
100
AcDbSymbolTableRecord
100
AcDbBlockTableRecord
  2
*D54
340
0
 70
     0
280
     1
281
     0
  0
BLOCK_RECORD
  5
8404
330
1
100
AcDbSymbolTableRecord
100
AcDbBlockTableRecord
  2
*D55
340
0
 70
     0
280
     1
281
     0
  0
BLOCK_RECORD
  5
8411
330
1
100
AcDbSymbolTableRecord
100
AcDbBlockTableRecord
  2
*D56
340
0
 70
     0
280
     1
281
     0
  0
BLOCK_RECORD
  5
841E
330
1
100
AcDbSymbolTableRecord
100
AcDbBlockTableRecord
  2
*D57
340
0
 70
     0
280
     1
281
     0
  0
ENDTAB
  0
ENDSEC
  0
SECTION
  2
BLOCKS
  0
BLOCK
  5
1A
330
19
100
AcDbEntity
  8
0
100
AcDbBlockBegin
  2
*MODEL_SPACE
 70
     0
 10
0.0
 20
0.0
 30
0.0
  3
*MODEL_SPACE
  1

  0
ENDBLK
  5
1B
330
19
100
AcDbEntity
  8
0
100
AcDbBlockEnd
  0
BLOCK
  5
17
330
16
100
AcDbEntity
 67
     1
  8
0
100
AcDbBlockBegin
  2
*PAPER_SPACE
 70
     0
 10
0.0
 20
0.0
 30
0.0
  3
*PAPER_SPACE
  1

  0
ENDBLK
  5
18
330
16
100
AcDbEntity
 67
     1
  8
0
100
AcDbBlockEnd
  0
BLOCK
  5
7A00
330
79FC
100
AcDbEntity
  8
0
100
AcDbBlockBegin
  2
_OPEN
 70
     0
 10
0.0
 20
0.0
 30
0.0
  3
_OPEN
  1

  0
LINE
  5
79FD
330
79FC
100
AcDbEntity
  8
0
  6
ByBlock
 62
     0
100
AcDbLine
 10
-1.0
 20
0.1666666666666666
 30
0.0
 11
0.0
 21
0.0
 31
0.0
  0
LINE
  5
79FE
330
79FC
100
AcDbEntity
  8
0
  6
ByBlock
 62
     0
100
AcDbLine
 10
0.0
 20
0.0
 30
0.0
 11
-1.0
 21
-0.1666666666666666
 31
0.0
  0
LINE
  5
79FF
330
79FC
100
AcDbEntity
  8
0
  6
ByBlock
 62
     0
100
AcDbLine
 10
0.0
 20
0.0
 30
0.0
 11
-1.0
 21
0.0
 31
0.0
  0
ENDBLK
  5
7A01
330
79FC
100
AcDbEntity
  8
0
100
AcDbBlockEnd
  0
BLOCK
  5
7A0B
330
7A0A
100
AcDbEntity
  8
0
100
AcDbBlockBegin
  2
YA_N
 70
     0
 10
0.0
 20
0.0
 30
0.0
  3
YA_N
  1

  0
ENDBLK
  5
7A0C
330
7A0A
100
AcDbEntity
  8
0
100
AcDbBlockEnd
  0
BLOCK
  5
7E72
330
7D45
100
AcDbEntity
  8
0
100
AcDbBlockBegin
  2
*D3
 70
     1
 10
0.0
 20
0.0
 30
0.0
  3
*D3
  1

  0
LINE
  5
7E73
330
7D45
100
AcDbEntity
  8
0
  6
ByBlock
440
 16777216
100
AcDbLine
 10
197.3633524681954
 20
-250.406521778601
 30
0.0
 11
48.35596868896937
 21
-250.406521778601
 31
0.0
  0
LINE
  5
7E74
330
7D45
100
AcDbEntity
  8
0
  6
ByBlock
440
 16777216
100
AcDbLine
 10
197.3633524681945
 20
479.5934782213989
 30
0.0
 11
48.35596868896937
 21
479.5934782213989
 31
0.0
  0
LINE
  5
7E75
330
7D45
100
AcDbEntity
  8
0
  6
ByBlock
440
 16777216
100
AcDbLine
 10
73.35596868896937
 20
-200.406521778601
 30
0.0
 11
73.35596868896937
 21
429.5934782213989
 31
0.0
  0
INSERT
  5
7E76
330
7D45
100
AcDbEntity
  8
0
  6
ByBlock
440
 16777216
100
AcDbBlockReference
  2
_OPEN
 10
73.35596868896937
 20
-250.406521778601
 30
0.0
 41
50.0
 42
50.0
 43
50.0
 50
270.0
  0
INSERT
  5
7E77
330
7D45
100
AcDbEntity
  8
0
  6
ByBlock
440
 16777216
100
AcDbBlockReference
  2
_OPEN
 10
73.35596868896937
 20
479.5934782213989
 30
0.0
 41
50.0
 42
50.0
 43
50.0
 50
90.0
  0
MTEXT
  5
7E78
330
7D45
100
AcDbEntity
  8
0
  6
ByBlock
440
 16777216
100
AcDbMText
 10
23.35596868896937
 20
114.593478221399
 30
0.0
 40
75.0
 41
0.0
 46
0.0
 71
     5
 72
     5
  1
\A1;730
 11
0.0
 21
1.0
 31
0.0
 73
     1
 44
1.0
  0
POINT
  5
7E79
330
7D45
100
AcDbEntity
  8
DEFPOINTS
  6
ByBlock
 62
     0
440
 16777216
100
AcDbPoint
 10
222.3633524681954
 20
-250.406521778601
 30
0.0
  0
POINT
  5
7E7A
330
7D45
100
AcDbEntity
  8
DEFPOINTS
  6
ByBlock
 62
     0
440
 16777216
100
AcDbPoint
 10
222.3633524681945
 20
479.5934782213989
 30
0.0
  0
POINT
  5
7E7B
330
7D45
100
AcDbEntity
  8
DEFPOINTS
  6
ByBlock
 62
     0
440
 16777216
100
AcDbPoint
 10
73.35596868896937
 20
479.5934782213989
 30
0.0
  0
ENDBLK
  5
7E7C
330
7D45
100
AcDbEntity
  8
0
100
AcDbBlockEnd
  0
BLOCK
  5
7E7D
330
7D51
100
AcDbEntity
  8
0
100
AcDbBlockBegin
  2
*D4
 70
     1
 10
0.0
 20
0.0
 30
0.0
  3
*D4
  1

  0
LINE
  5
7E7E
330
7D51
100
AcDbEntity
  8
0
  6
ByBlock
440
 16777216
100
AcDbLine
 10
197.3633524681954
 20
-250.406521778601
 30
0.0
 11
-104.4528047846961
 21
-250.406521778601
 31
0.0
  0
LINE
  5
7E7F
330
7D51
100
AcDbEntity
  8
0
  6
ByBlock
440
 16777216
100
AcDbLine
 10
75.09751366276578
 20
508.5934782213989
 30
0.0
 11
-104.4528047846961
 21
508.5934782213989
 31
0.0
  0
LINE
  5
7E80
330
7D51
100
AcDbEntity
  8
0
  6
ByBlock
440
 16777216
100
AcDbLine
 10
-79.45280478469612
 20
-200.406521778601
 30
0.0
 11
-79.45280478469612
 21
458.5934782213989
 31
0.0
  0
INSERT
  5
7E81
330
7D51
100
AcDbEntity
  8
0
  6
ByBlock
440
 16777216
100
AcDbBlockReference
  2
_OPEN
 10
-79.45280478469612
 20
-250.406521778601
 30
0.0
 41
50.0
 42
50.0
 43
50.0
 50
270.0
  0
INSERT
  5
7E82
330
7D51
100
AcDbEntity
  8
0
  6
ByBlock
440
 16777216
100
AcDbBlockReference
  2
_OPEN
 10
-79.45280478469612
 20
508.5934782213989
 30
0.0
 41
50.0
 42
50.0
 43
50.0
 50
90.0
  0
MTEXT
  5
7E83
330
7D51
100
AcDbEntity
  8
0
  6
ByBlock
440
 16777216
100
AcDbMText
 10
-129.4528047846961
 20
129.093478221399
 30
0.0
 40
75.0
 41
0.0
 46
0.0
 71
     5
 72
     5
  1
\A1;759
 11
0.0
 21
1.0
 31
0.0
 73
     1
 44
1.0
  0
POINT
  5
7E84
330
7D51
100
AcDbEntity
  8
DEFPOINTS
  6
ByBlock
 62
     0
440
 16777216
100
AcDbPoint
 10
222.3633524681954
 20
-250.406521778601
 30
0.0
  0
POINT
  5
7E85
330
7D51
100
AcDbEntity
  8
DEFPOINTS
  6
ByBlock
 62
     0
440
 16777216
100
AcDbPoint
 10
100.0975136627658
 20
508.5934782213989
 30
0.0
  0
POINT
  5
7E86
330
7D51
100
AcDbEntity
  8
DEFPOINTS
  6
ByBlock
 62
     0
440
 16777216
100
AcDbPoint
 10
-79.45280478469612
 20
508.5934782213989
 30
0.0
  0
ENDBLK
  5
7E87
330
7D51
100
AcDbEntity
  8
0
100
AcDbBlockEnd
  0
BLOCK
  5
7ECA
330
7DA5
100
AcDbEntity
  8
0
100
AcDbBlockBegin
  2
*D9
 70
     1
 10
0.0
 20
0.0
 30
0.0
  3
*D9
  1

  0
LINE
  5
7ECB
330
7DA5
100
AcDbEntity
  8
0
  6
ByBlock
440
 16777216
100
AcDbLine
 10
3369.27207393047
 20
1023.74638791924
 30
0.0
 11
3369.27207393047
 21
1166.374949274428
 31
0.0
  0
LINE
  5
7ECC
330
7DA5
100
AcDbEntity
  8
0
  6
ByBlock
440
 16777216
100
AcDbLine
 10
4319.272073930469
 20
1023.74638791924
 30
0.0
 11
4319.272073930469
 21
1166.374949274428
 31
0.0
  0
LINE
  5
7ECD
330
7DA5
100
AcDbEntity
  8
0
  6
ByBlock
440
 16777216
100
AcDbLine
 10
3419.27207393047
 20
1141.374949274428
 30
0.0
 11
4269.272073930469
 21
1141.374949274428
 31
0.0
  0
INSERT
  5
7ECE
330
7DA5
100
AcDbEntity
  8
0
  6
ByBlock
440
 16777216
100
AcDbBlockReference
  2
_OPEN
 10
3369.27207393047
 20
1141.374949274428
 30
0.0
 41
50.0
 42
50.0
 43
50.0
 50
180.0
  0
INSERT
  5
7ECF
330
7DA5
100
AcDbEntity
  8
0
  6
ByBlock
440
 16777216
100
AcDbBlockReference
  2
_OPEN
 10
4319.272073930469
 20
1141.374949274428
 30
0.0
 41
50.0
 42
50.0
 43
50.0
  0
MTEXT
  5
7ED0
330
7DA5
100
AcDbEntity
  8
0
  6
ByBlock
440
 16777216
100
AcDbMText
 10
3844.27207393047
 20
1191.374949274428
 30
0.0
 40
75.0
 41
0.0
 46
0.0
 71
     5
 72
     5
  1
\A1;950
 73
     1
 44
1.0
  0
POINT
  5
7ED1
330
7DA5
100
AcDbEntity
  8
DEFPOINTS
  6
ByBlock
 62
     0
440
 16777216
100
AcDbPoint
 10
3369.27207393047
 20
998.74638791924
 30
0.0
  0
POINT
  5
7ED2
330
7DA5
100
AcDbEntity
  8
DEFPOINTS
  6
ByBlock
 62
     0
440
 16777216
100
AcDbPoint
 10
4319.272073930469
 20
998.74638791924
 30
0.0
  0
POINT
  5
7ED3
330
7DA5
100
AcDbEntity
  8
DEFPOINTS
  6
ByBlock
 62
     0
440
 16777216
100
AcDbPoint
 10
4319.272073930469
 20
1141.374949274428
 30
0.0
  0
ENDBLK
  5
7ED4
330
7DA5
100
AcDbEntity
  8
0
100
AcDbBlockEnd
  0
BLOCK
  5
7ED5
330
7DB1
100
AcDbEntity
  8
0
100
AcDbBlockBegin
  2
*D10
 70
     1
 10
0.0
 20
0.0
 30
0.0
  3
*D10
  1

  0
LINE
  5
7ED6
330
7DB1
100
AcDbEntity
  8
0
  6
ByBlock
440
 16777216
100
AcDbLine
 10
4349.772073930469
 20
153.593478221399
 30
0.0
 11
4596.274084275781
 21
153.593478221399
 31
0.0
  0
LINE
  5
7ED7
330
7DB1
100
AcDbEntity
  8
0
  6
ByBlock
440
 16777216
100
AcDbLine
 10
4349.772073930469
 20
863.593478221399
 30
0.0
 11
4596.274084275781
 21
863.593478221399
 31
0.0
  0
LINE
  5
7ED8
330
7DB1
100
AcDbEntity
  8
0
  6
ByBlock
440
 16777216
100
AcDbLine
 10
4571.27408427578
 20
203.593478221399
 30
0.0
 11
4571.27408427578
 21
813.593478221399
 31
0.0
  0
INSERT
  5
7ED9
330
7DB1
100
AcDbEntity
  8
0
  6
ByBlock
440
 16777216
100
AcDbBlockReference
  2
_OPEN
 10
4571.27408427578
 20
153.593478221399
 30
0.0
 41
50.0
 42
50.0
 43
50.0
 50
270.0
  0
INSERT
  5
7EDA
330
7DB1
100
AcDbEntity
  8
0
  6
ByBlock
440
 16777216
100
AcDbBlockReference
  2
_OPEN
 10
4571.27408427578
 20
863.593478221399
 30
0.0
 41
50.0
 42
50.0
 43
50.0
 50
90.0
  0
MTEXT
  5
7EDB
330
7DB1
100
AcDbEntity
  8
0
  6
ByBlock
440
 16777216
100
AcDbMText
 10
4521.274084275781
 20
508.5934782213989
 30
0.0
 40
75.0
 41
0.0
 46
0.0
 71
     5
 72
     5
  1
\A1;φ710
 11
0.0
 21
1.0
 31
0.0
 73
     1
 44
1.0
  0
POINT
  5
7EDC
330
7DB1
100
AcDbEntity
  8
DEFPOINTS
  6
ByBlock
 62
     0
440
 16777216
100
AcDbPoint
 10
4324.772073930469
 20
153.593478221399
 30
0.0
  0
POINT
  5
7EDD
330
7DB1
100
AcDbEntity
  8
DEFPOINTS
  6
ByBlock
 62
     0
440
 16777216
100
AcDbPoint
 10
4324.772073930469
 20
863.593478221399
 30
0.0
  0
POINT
  5
7EDE
330
7DB1
100
AcDbEntity
  8
DEFPOINTS
  6
ByBlock
 62
     0
440
 16777216
100
AcDbPoint
 10
4571.27408427578
 20
863.593478221399
 30
0.0
  0
ENDBLK
  5
7EDF
330
7DB1
100
AcDbEntity
  8
0
100
AcDbBlockEnd
  0
BLOCK
  5
8007
330
7DBD
100
AcDbEntity
  8
0
100
AcDbBlockBegin
  2
*D11
 70
     1
 10
0.0
 20
0.0
 30
0.0
  3
*D11
  1

  0
LINE
  5
8008
330
7DBD
100
AcDbEntity
  8
0
  6
ByBlock
440
 16777216
100
AcDbLine
 10
1994.935209627607
 20
5523.625962184294
 30
0.0
 11
1994.935209627607
 21
5717.917981193892
 31
0.0
  0
LINE
  5
8009
330
7DBD
100
AcDbEntity
  8
0
  6
ByBlock
440
 16777216
100
AcDbLine
 10
1094.935209627607
 20
5523.625962184294
 30
0.0
 11
1094.935209627607
 21
5717.917981193892
 31
0.0
  0
LINE
  5
800A
330
7DBD
100
AcDbEntity
  8
0
  6
ByBlock
440
 16777216
100
AcDbLine
 10
1944.935209627607
 20
5692.917981193892
 30
0.0
 11
1144.935209627607
 21
5692.917981193892
 31
0.0
  0
INSERT
  5
800B
330
7DBD
100
AcDbEntity
  8
0
  6
ByBlock
440
 16777216
100
AcDbBlockReference
  2
_OPEN
 10
1994.935209627607
 20
5692.917981193892
 30
0.0
 41
50.0
 42
50.0
 43
50.0
  0
INSERT
  5
800C
330
7DBD
100
AcDbEntity
  8
0
  6
ByBlock
440
 16777216
100
AcDbBlockReference
  2
_OPEN
 10
1094.935209627607
 20
5692.917981193892
 30
0.0
 41
50.0
 42
50.0
 43
50.0
 50
180.0
  0
MTEXT
  5
800D
330
7DBD
100
AcDbEntity
  8
0
  6
ByBlock
440
 16777216
100
AcDbMText
 10
1544.935209627607
 20
5742.917981193892
 30
0.0
 40
75.0
 41
0.0
 46
0.0
 71
     5
 72
     5
  1
\A1;900
 73
     1
 44
1.0
  0
POINT
  5
800E
330
7DBD
100
AcDbEntity
  8
DEFPOINTS
  6
ByBlock
 62
     0
440
 16777216
100
AcDbPoint
 10
1994.935209627607
 20
5498.625962184295
 30
0.0
  0
POINT
  5
800F
330
7DBD
100
AcDbEntity
  8
DEFPOINTS
  6
ByBlock
 62
     0
440
 16777216
100
AcDbPoint
 10
1094.935209627607
 20
5498.625962184294
 30
0.0
  0
POINT
  5
8010
330
7DBD
100
AcDbEntity
  8
DEFPOINTS
  6
ByBlock
 62
     0
440
 16777216
100
AcDbPoint
 10
1094.935209627607
 20
5692.917981193892
 30
0.0
  0
ENDBLK
  5
8011
330
7DBD
100
AcDbEntity
  8
0
100
AcDbBlockEnd
  0
BLOCK
  5
7EEB
330
7DC9
100
AcDbEntity
  8
0
100
AcDbBlockBegin
  2
*D12
 70
     1
 10
0.0
 20
0.0
 30
0.0
  3
*D12
  1

  0
LINE
  5
7EEC
330
7DC9
100
AcDbEntity
  8
0
  6
ByBlock
440
 16777216
100
AcDbLine
 10
247.3633524681954
 20
3296.62546324748
 30
0.0
 11
-51.27536418109048
 21
3296.62546324748
 31
0.0
  0
LINE
  5
7EED
330
7DC9
100
AcDbEntity
  8
0
  6
ByBlock
440
 16777216
100
AcDbLine
 10
247.3633524681954
 20
2116.62546324748
 30
0.0
 11
-51.27536418109048
 21
2116.62546324748
 31
0.0
  0
LINE
  5
7EEE
330
7DC9
100
AcDbEntity
  8
0
  6
ByBlock
440
 16777216
100
AcDbLine
 10
-26.27536418109048
 20
3246.62546324748
 30
0.0
 11
-26.27536418109048
 21
2166.625463247481
 31
0.0
  0
INSERT
  5
7EEF
330
7DC9
100
AcDbEntity
  8
0
  6
ByBlock
440
 16777216
100
AcDbBlockReference
  2
_OPEN
 10
-26.27536418109048
 20
3296.62546324748
 30
0.0
 41
50.0
 42
50.0
 43
50.0
 50
90.0
  0
INSERT
  5
7EF0
330
7DC9
100
AcDbEntity
  8
0
  6
ByBlock
440
 16777216
100
AcDbBlockReference
  2
_OPEN
 10
-26.27536418109048
 20
2116.62546324748
 30
0.0
 41
50.0
 42
50.0
 43
50.0
 50
270.0
  0
MTEXT
  5
7EF1
330
7DC9
100
AcDbEntity
  8
0
  6
ByBlock
440
 16777216
100
AcDbMText
 10
-76.27536418109048
 20
2706.62546324748
 30
0.0
 40
75.0
 41
0.0
 46
0.0
 71
     5
 72
     5
  1
\A1;1180
 11
0.0
 21
1.0
 31
0.0
 73
     1
 44
1.0
  0
POINT
  5
7EF2
330
7DC9
100
AcDbEntity
  8
DEFPOINTS
  6
ByBlock
 62
     0
440
 16777216
100
AcDbPoint
 10
272.3633524681954
 20
3296.62546324748
 30
0.0
  0
POINT
  5
7EF3
330
7DC9
100
AcDbEntity
  8
DEFPOINTS
  6
ByBlock
 62
     0
440
 16777216
100
AcDbPoint
 10
272.3633524681954
 20
2116.62546324748
 30
0.0
  0
POINT
  5
7EF4
330
7DC9
100
AcDbEntity
  8
DEFPOINTS
  6
ByBlock
 62
     0
440
 16777216
100
AcDbPoint
 10
-26.27536418109048
 20
2116.62546324748
 30
0.0
  0
ENDBLK
  5
7EF5
330
7DC9
100
AcDbEntity
  8
0
100
AcDbBlockEnd
  0
BLOCK
  5
7EF6
330
7DD5
100
AcDbEntity
  8
0
100
AcDbBlockBegin
  2
*D13
 70
     1
 10
0.0
 20
0.0
 30
0.0
  3
*D13
  1

  0
LINE
  5
7EF7
330
7DD5
100
AcDbEntity
  8
0
  6
ByBlock
440
 16777216
100
AcDbLine
 10
1997.363352468195
 20
2866.625463247482
 30
0.0
 11
2295.969103575093
 21
2866.625463247482
 31
0.0
  0
LINE
  5
7EF8
330
7DD5
100
AcDbEntity
  8
0
  6
ByBlock
440
 16777216
100
AcDbLine
 10
1997.363352468195
 20
2116.625463247482
 30
0.0
 11
2295.969103575093
 21
2116.625463247482
 31
0.0
  0
LINE
  5
7EF9
330
7DD5
100
AcDbEntity
  8
0
  6
ByBlock
440
 16777216
100
AcDbLine
 10
2270.969103575093
 20
2816.625463247482
 30
0.0
 11
2270.969103575093
 21
2166.625463247482
 31
0.0
  0
INSERT
  5
7EFA
330
7DD5
100
AcDbEntity
  8
0
  6
ByBlock
440
 16777216
100
AcDbBlockReference
  2
_OPEN
 10
2270.969103575093
 20
2866.625463247482
 30
0.0
 41
50.0
 42
50.0
 43
50.0
 50
90.0
  0
INSERT
  5
7EFB
330
7DD5
100
AcDbEntity
  8
0
  6
ByBlock
440
 16777216
100
AcDbBlockReference
  2
_OPEN
 10
2270.969103575093
 20
2116.625463247482
 30
0.0
 41
50.0
 42
50.0
 43
50.0
 50
270.0
  0
MTEXT
  5
7EFC
330
7DD5
100
AcDbEntity
  8
0
  6
ByBlock
440
 16777216
100
AcDbMText
 10
2220.969103575093
 20
2491.625463247482
 30
0.0
 40
75.0
 41
0.0
 46
0.0
 71
     5
 72
     5
  1
\A1;750
 11
0.0
 21
1.0
 31
0.0
 73
     1
 44
1.0
  0
POINT
  5
7EFD
330
7DD5
100
AcDbEntity
  8
DEFPOINTS
  6
ByBlock
 62
     0
440
 16777216
100
AcDbPoint
 10
1972.363352468194
 20
2866.625463247482
 30
0.0
  0
POINT
  5
7EFE
330
7DD5
100
AcDbEntity
  8
DEFPOINTS
  6
ByBlock
 62
     0
440
 16777216
100
AcDbPoint
 10
1972.363352468195
 20
2116.625463247482
 30
0.0
  0
POINT
  5
7EFF
330
7DD5
100
AcDbEntity
  8
DEFPOINTS
  6
ByBlock
 62
     0
440
 16777216
100
AcDbPoint
 10
2270.969103575093
 20
2116.625463247482
 30
0.0
  0
ENDBLK
  5
7F00
330
7DD5
100
AcDbEntity
  8
0
100
AcDbBlockEnd
  0
BLOCK
  5
7F01
330
7DE1
100
AcDbEntity
  8
0
100
AcDbBlockBegin
  2
*D14
 70
     1
 10
0.0
 20
0.0
 30
0.0
  3
*D14
  1

  0
LINE
  5
7F02
330
7DE1
100
AcDbEntity
  8
0
  6
ByBlock
440
 16777216
100
AcDbLine
 10
1972.363352468195
 20
2091.625463247482
 30
0.0
 11
1972.363352468195
 21
1669.704875526498
 31
0.0
  0
LINE
  5
7F03
330
7DE1
100
AcDbEntity
  8
0
  6
ByBlock
440
 16777216
100
AcDbLine
 10
272.3633524681954
 20
2091.62546324748
 30
0.0
 11
272.3633524681954
 21
1669.704875526498
 31
0.0
  0
LINE
  5
7F04
330
7DE1
100
AcDbEntity
  8
0
  6
ByBlock
440
 16777216
100
AcDbLine
 10
1922.363352468195
 20
1694.704875526499
 30
0.0
 11
322.3633524681954
 21
1694.704875526499
 31
0.0
  0
INSERT
  5
7F05
330
7DE1
100
AcDbEntity
  8
0
  6
ByBlock
440
 16777216
100
AcDbBlockReference
  2
_OPEN
 10
1972.363352468195
 20
1694.704875526499
 30
0.0
 41
50.0
 42
50.0
 43
50.0
  0
INSERT
  5
7F06
330
7DE1
100
AcDbEntity
  8
0
  6
ByBlock
440
 16777216
100
AcDbBlockReference
  2
_OPEN
 10
272.3633524681954
 20
1694.704875526499
 30
0.0
 41
50.0
 42
50.0
 43
50.0
 50
180.0
  0
MTEXT
  5
7F07
330
7DE1
100
AcDbEntity
  8
0
  6
ByBlock
440
 16777216
100
AcDbMText
 10
1122.363352468195
 20
1744.704875526499
 30
0.0
 40
75.0
 41
0.0
 46
0.0
 71
     5
 72
     5
  1
\A1;1700
 73
     1
 44
1.0
  0
POINT
  5
7F08
330
7DE1
100
AcDbEntity
  8
DEFPOINTS
  6
ByBlock
 62
     0
440
 16777216
100
AcDbPoint
 10
1972.363352468195
 20
2116.625463247482
 30
0.0
  0
POINT
  5
7F09
330
7DE1
100
AcDbEntity
  8
DEFPOINTS
  6
ByBlock
 62
     0
440
 16777216
100
AcDbPoint
 10
272.3633524681954
 20
2116.62546324748
 30
0.0
  0
POINT
  5
7F0A
330
7DE1
100
AcDbEntity
  8
DEFPOINTS
  6
ByBlock
 62
     0
440
 16777216
100
AcDbPoint
 10
272.3633524681954
 20
1694.704875526499
 30
0.0
  0
ENDBLK
  5
7F0B
330
7DE1
100
AcDbEntity
  8
0
100
AcDbBlockEnd
  0
BLOCK
  5
7FFC
330
7DED
100
AcDbEntity
  8
0
100
AcDbBlockBegin
  2
*D15
 70
     1
 10
0.0
 20
0.0
 30
0.0
  3
*D15
  1

  0
LINE
  5
7FFD
330
7DED
100
AcDbEntity
  8
0
  6
ByBlock
440
 16777216
100
AcDbLine
 10
2794.935209627606
 20
5093.625962184296
 30
0.0
 11
2794.935209627606
 21
5717.917981193892
 31
0.0
  0
LINE
  5
7FFE
330
7DED
100
AcDbEntity
  8
0
  6
ByBlock
440
 16777216
100
AcDbLine
 10
1994.935209627607
 20
5523.625962184294
 30
0.0
 11
1994.935209627607
 21
5717.917981193892
 31
0.0
  0
LINE
  5
7FFF
330
7DED
100
AcDbEntity
  8
0
  6
ByBlock
440
 16777216
100
AcDbLine
 10
2744.935209627606
 20
5692.917981193892
 30
0.0
 11
2044.935209627607
 21
5692.917981193892
 31
0.0
  0
INSERT
  5
8000
330
7DED
100
AcDbEntity
  8
0
  6
ByBlock
440
 16777216
100
AcDbBlockReference
  2
_OPEN
 10
2794.935209627606
 20
5692.917981193892
 30
0.0
 41
50.0
 42
50.0
 43
50.0
  0
INSERT
  5
8001
330
7DED
100
AcDbEntity
  8
0
  6
ByBlock
440
 16777216
100
AcDbBlockReference
  2
_OPEN
 10
1994.935209627607
 20
5692.917981193892
 30
0.0
 41
50.0
 42
50.0
 43
50.0
 50
180.0
  0
MTEXT
  5
8002
330
7DED
100
AcDbEntity
  8
0
  6
ByBlock
440
 16777216
100
AcDbMText
 10
2394.935209627607
 20
5742.917981193892
 30
0.0
 40
75.0
 41
0.0
 46
0.0
 71
     5
 72
     5
  1
\A1;800
 73
     1
 44
1.0
  0
POINT
  5
8003
330
7DED
100
AcDbEntity
  8
DEFPOINTS
  6
ByBlock
 62
     0
440
 16777216
100
AcDbPoint
 10
2794.935209627606
 20
5068.625962184295
 30
0.0
  0
POINT
  5
8004
330
7DED
100
AcDbEntity
  8
DEFPOINTS
  6
ByBlock
 62
     0
440
 16777216
100
AcDbPoint
 10
1994.935209627607
 20
5498.625962184295
 30
0.0
  0
POINT
  5
8005
330
7DED
100
AcDbEntity
  8
DEFPOINTS
  6
ByBlock
 62
     0
440
 16777216
100
AcDbPoint
 10
1994.935209627607
 20
5692.917981193892
 30
0.0
  0
ENDBLK
  5
8006
330
7DED
100
AcDbEntity
  8
0
100
AcDbBlockEnd
  0
BLOCK
  5
7F17
330
7DF9
100
AcDbEntity
  8
0
100
AcDbBlockBegin
  2
*D16
 70
     1
 10
0.0
 20
0.0
 30
0.0
  3
*D16
  1

  0
LINE
  5
7F18
330
7DF9
100
AcDbEntity
  8
0
  6
ByBlock
440
 16777216
100
AcDbLine
 10
75.09751366276578
 20
508.5934782213989
 30
0.0
 11
-245.4660135423928
 21
508.5934782213989
 31
0.0
  0
LINE
  5
7F19
330
7DF9
100
AcDbEntity
  8
0
  6
ByBlock
440
 16777216
100
AcDbLine
 10
247.3633524681954
 20
-361.406521778601
 30
0.0
 11
-245.4660135423928
 21
-361.406521778601
 31
0.0
  0
LINE
  5
7F1A
330
7DF9
100
AcDbEntity
  8
0
  6
ByBlock
440
 16777216
100
AcDbLine
 10
-220.4660135423928
 20
458.5934782213989
 30
0.0
 11
-220.4660135423928
 21
-311.406521778601
 31
0.0
  0
INSERT
  5
7F1B
330
7DF9
100
AcDbEntity
  8
0
  6
ByBlock
440
 16777216
100
AcDbBlockReference
  2
_OPEN
 10
-220.4660135423928
 20
508.5934782213989
 30
0.0
 41
50.0
 42
50.0
 43
50.0
 50
90.0
  0
INSERT
  5
7F1C
330
7DF9
100
AcDbEntity
  8
0
  6
ByBlock
440
 16777216
100
AcDbBlockReference
  2
_OPEN
 10
-220.4660135423928
 20
-361.406521778601
 30
0.0
 41
50.0
 42
50.0
 43
50.0
 50
270.0
  0
MTEXT
  5
7F1D
330
7DF9
100
AcDbEntity
  8
0
  6
ByBlock
440
 16777216
100
AcDbMText
 10
-270.4660135423928
 20
73.59347822139898
 30
0.0
 40
75.0
 41
0.0
 46
0.0
 71
     5
 72
     5
  1
\A1;870
 11
0.0
 21
1.0
 31
0.0
 73
     1
 44
1.0
  0
POINT
  5
7F1E
330
7DF9
100
AcDbEntity
  8
DEFPOINTS
  6
ByBlock
 62
     0
440
 16777216
100
AcDbPoint
 10
100.0975136627658
 20
508.5934782213989
 30
0.0
  0
POINT
  5
7F1F
330
7DF9
100
AcDbEntity
  8
DEFPOINTS
  6
ByBlock
 62
     0
440
 16777216
100
AcDbPoint
 10
272.3633524681954
 20
-361.406521778601
 30
0.0
  0
POINT
  5
7F20
330
7DF9
100
AcDbEntity
  8
DEFPOINTS
  6
ByBlock
 62
     0
440
 16777216
100
AcDbPoint
 10
-220.4660135423928
 20
-361.406521778601
 30
0.0
  0
ENDBLK
  5
7F21
330
7DF9
100
AcDbEntity
  8
0
100
AcDbBlockEnd
  0
BLOCK
  5
7FDB
330
7E13
100
AcDbEntity
  8
0
100
AcDbBlockBegin
  2
*D17
 70
     1
 10
0.0
 20
0.0
 30
0.0
  3
*D17
  1

  0
LINE
  5
83B2
330
7E13
100
AcDbEntity
  8
3
 62
     0
440
 16777216
370
    -2
100
AcDbLine
 10
1240.848332522257
 20
1760.593977158212
 30
0.0
 11
735.5189665116686
 21
1760.593977158212
 31
0.0
  0
LINE
  5
83B3
330
7E13
100
AcDbEntity
  8
3
 62
     0
440
 16777216
370
    -2
100
AcDbLine
 10
1240.848332522257
 20
1660.593977158212
 30
0.0
 11
735.5189665116686
 21
1660.593977158212
 31
0.0
  0
LINE
  5
83B4
330
7E13
100
AcDbEntity
  8
3
 62
     0
440
 16777216
370
    -2
100
AcDbLine
 10
760.5189665116687
 20
1810.593977158212
 30
0.0
 11
760.5189665116687
 21
1860.593977158212
 31
0.0
  0
LINE
  5
83B5
330
7E13
100
AcDbEntity
  8
3
 62
     0
440
 16777216
370
    -2
100
AcDbLine
 10
760.5189665116686
 20
1610.593977158212
 30
0.0
 11
760.5189665116686
 21
1332.022548586784
 31
0.0
  0
LINE
  5
83B6
330
7E13
100
AcDbEntity
  8
3
 62
     0
440
 16777216
370
    -2
100
AcDbLine
 10
760.5189665116686
 20
1760.593977158212
 30
0.0
 11
760.5189665116686
 21
1660.593977158212
 31
0.0
  0
INSERT
  5
83B7
330
7E13
100
AcDbEntity
  8
3
 62
     0
440
 16777216
370
    -2
100
AcDbBlockReference
  2
_DOT
 10
760.5189665116686
 20
1760.593977158212
 30
0.0
 41
50.0
 42
50.0
 43
50.0
 50
270.0
  0
INSERT
  5
83B8
330
7E13
100
AcDbEntity
  8
3
 62
     0
440
 16777216
370
    -2
100
AcDbBlockReference
  2
_OPEN
 10
760.5189665116686
 20
1660.593977158212
 30
0.0
 41
50.0
 42
50.0
 43
50.0
 50
90.0
  0
MTEXT
  5
83B9
330
7E13
100
AcDbEntity
  8
3
 62
     0
440
 16777216
100
AcDbMText
 10
698.0189665116683
 20
1446.308262872498
 30
0.0
 40
75.0
 41
0.0
 46
0.0
 71
     5
 72
     1
  1
\A1;100
 11
0.0000000000000001
 21
1.0
 31
0.0
 73
     1
 44
1.0
  0
POINT
  5
83BA
330
7E13
100
AcDbEntity
  8
DEFPOINTS
 62
     0
440
 16777216
100
AcDbPoint
 10
1253.348332522257
 20
1760.593977158212
 30
0.0
  0
POINT
  5
83BB
330
7E13
100
AcDbEntity
  8
DEFPOINTS
 62
     0
440
 16777216
100
AcDbPoint
 10
1253.348332522257
 20
1660.593977158212
 30
0.0
  0
POINT
  5
83BC
330
7E13
100
AcDbEntity
  8
DEFPOINTS
 62
     0
440
 16777216
100
AcDbPoint
 10
760.5189665116686
 20
1660.593977158212
 30
0.0
  0
ENDBLK
  5
7FE7
330
7E13
100
AcDbEntity
  8
0
100
AcDbBlockEnd
  0
BLOCK
  5
7F3C
330
7E21
100
AcDbEntity
  8
0
100
AcDbBlockBegin
  2
*D18
 70
     1
 10
0.0
 20
0.0
 30
0.0
  3
*D18
  1

  0
LINE
  5
7F3D
330
7E21
100
AcDbEntity
  8
0
  6
ByBlock
440
 16777216
100
AcDbLine
 10
4421.77207393047
 20
508.3934782213988
 30
0.0
 11
4421.77207393047
 21
1305.762410359495
 31
0.0
  0
LINE
  5
7F3E
330
7E21
100
AcDbEntity
  8
0
  6
ByBlock
440
 16777216
100
AcDbLine
 10
3844.27207393047
 20
1276.873979394748
 30
0.0
 11
3844.27207393047
 21
1305.762410359495
 31
0.0
  0
LINE
  5
7F3F
330
7E21
100
AcDbEntity
  8
0
  6
ByBlock
440
 16777216
100
AcDbLine
 10
4371.77207393047
 20
1280.762410359495
 30
0.0
 11
3894.27207393047
 21
1280.762410359495
 31
0.0
  0
INSERT
  5
7F40
330
7E21
100
AcDbEntity
  8
0
  6
ByBlock
440
 16777216
100
AcDbBlockReference
  2
_OPEN
 10
4421.77207393047
 20
1280.762410359495
 30
0.0
 41
50.0
 42
50.0
 43
50.0
  0
INSERT
  5
7F41
330
7E21
100
AcDbEntity
  8
0
  6
ByBlock
440
 16777216
100
AcDbBlockReference
  2
_OPEN
 10
3844.27207393047
 20
1280.762410359495
 30
0.0
 41
50.0
 42
50.0
 43
50.0
 50
180.0
  0
MTEXT
  5
7F42
330
7E21
100
AcDbEntity
  8
0
  6
ByBlock
440
 16777216
100
AcDbMText
 10
4133.02207393047
 20
1350.405267502352
 30
0.0
 40
75.0
 41
0.0
 46
0.0
 71
     5
 72
     5
  1
\A1;(620)
 73
     1
 44
1.0
  0
POINT
  5
7F43
330
7E21
100
AcDbEntity
  8
DEFPOINTS
  6
ByBlock
 62
     0
440
 16777216
100
AcDbPoint
 10
4421.77207393047
 20
483.3934782213988
 30
0.0
  0
POINT
  5
7F44
330
7E21
100
AcDbEntity
  8
DEFPOINTS
  6
ByBlock
 62
     0
440
 16777216
100
AcDbPoint
 10
3844.27207393047
 20
1251.873979394748
 30
0.0
  0
POINT
  5
7F45
330
7E21
100
AcDbEntity
  8
DEFPOINTS
  6
ByBlock
 62
     0
440
 16777216
100
AcDbPoint
 10
3844.27207393047
 20
1280.762410359495
 30
0.0
  0
ENDBLK
  5
7F46
330
7E21
100
AcDbEntity
  8
0
100
AcDbBlockEnd
  0
BLOCK
  5
7F71
330
7E5B
100
AcDbEntity
  8
0
100
AcDbBlockBegin
  2
*D22
 70
     1
 10
0.0
 20
0.0
 30
0.0
  3
*D22
  1

  0
LINE
  5
7F72
330
7E5B
100
AcDbEntity
  8
0
  6
ByBlock
440
 16777216
100
AcDbLine
 10
222.3633524681945
 20
546.593478221399
 30
0.0
 11
222.3633524681945
 21
1365.710202214321
 31
0.0
  0
LINE
  5
7F73
330
7E5B
100
AcDbEntity
  8
0
  6
ByBlock
440
 16777216
100
AcDbLine
 10
1972.363352468195
 20
-236.406521778601
 30
0.0
 11
1972.363352468195
 21
1365.710202214321
 31
0.0
  0
LINE
  5
7F74
330
7E5B
100
AcDbEntity
  8
0
  6
ByBlock
440
 16777216
100
AcDbLine
 10
272.3633524681945
 20
1340.710202214321
 30
0.0
 11
1922.363352468195
 21
1340.710202214321
 31
0.0
  0
INSERT
  5
7F75
330
7E5B
100
AcDbEntity
  8
0
  6
ByBlock
440
 16777216
100
AcDbBlockReference
  2
_OPEN
 10
222.3633524681945
 20
1340.710202214321
 30
0.0
 41
50.0
 42
50.0
 43
50.0
 50
180.0
  0
INSERT
  5
7F76
330
7E5B
100
AcDbEntity
  8
0
  6
ByBlock
440
 16777216
100
AcDbBlockReference
  2
_OPEN
 10
1972.363352468195
 20
1340.710202214321
 30
0.0
 41
50.0
 42
50.0
 43
50.0
  0
MTEXT
  5
7F77
330
7E5B
100
AcDbEntity
  8
0
  6
ByBlock
440
 16777216
100
AcDbMText
 10
1097.363352468194
 20
1390.710202214321
 30
0.0
 40
75.0
 41
0.0
 46
0.0
 71
     5
 72
     5
  1
\A1;1750
 73
     1
 44
1.0
  0
POINT
  5
7F78
330
7E5B
100
AcDbEntity
  8
DEFPOINTS
  6
ByBlock
 62
     0
440
 16777216
100
AcDbPoint
 10
222.3633524681945
 20
521.593478221399
 30
0.0
  0
POINT
  5
7F79
330
7E5B
100
AcDbEntity
  8
DEFPOINTS
  6
ByBlock
 62
     0
440
 16777216
100
AcDbPoint
 10
1972.363352468195
 20
-261.406521778601
 30
0.0
  0
POINT
  5
7F7A
330
7E5B
100
AcDbEntity
  8
DEFPOINTS
  6
ByBlock
 62
     0
440
 16777216
100
AcDbPoint
 10
1972.363352468195
 20
1340.710202214321
 30
0.0
  0
ENDBLK
  5
7F7B
330
7E5B
100
AcDbEntity
  8
0
100
AcDbBlockEnd
  0
BLOCK
  5
7FD7
330
7FD1
100
AcDbEntity
  8
0
100
AcDbBlockBegin
  2
_DOT
 70
     0
 10
0.0
 20
0.0
 30
0.0
  3
_DOT
  1

  0
LWPOLYLINE
  5
7FD2
330
7FD1
100
AcDbEntity
  8
0
  6
ByBlock
 62
     0
100
AcDbPolyline
 90
        2
 70
     1
 43
0.25
 10
-0.125
 20
0.0
 42
1.0
 10
0.125
 20
0.0
 42
1.0
  0
LINE
  5
7FD6
330
7FD1
100
AcDbEntity
  8
0
  6
ByBlock
 62
     0
100
AcDbLine
 10
-0.25
 20
0.0
 30
0.0
 11
-1.0
 21
0.0
 31
0.0
  0
ENDBLK
  5
7FD8
330
7FD1
100
AcDbEntity
  8
0
100
AcDbBlockEnd
  0
BLOCK
  5
8060
330
805F
100
AcDbEntity
  8
0
100
AcDbBlockBegin
  2
_NONE
 70
     0
 10
0.0
 20
0.0
 30
0.0
  3
_NONE
  1

  0
CIRCLE
  5
8061
330
805F
100
AcDbEntity
  8
0
  6
ByBlock
 62
     0
100
AcDbCircle
 10
0.0
 20
0.0
 30
0.0
 40
0.25
  0
ENDBLK
  5
8062
330
805F
100
AcDbEntity
  8
0
100
AcDbBlockEnd
  0
BLOCK
  5
8064
330
8063
100
AcDbEntity
  8
0
100
AcDbBlockBegin
  2
*D25
 70
     1
 10
0.0
 20
0.0
 30
0.0
  3
*D25
  1

  0
LINE
  5
83BD
330
8063
100
AcDbEntity
  8
3
 62
     0
440
 16777216
370
    -2
100
AcDbLine
 10
762.1385493061424
 20
1760.593977158212
 30
0.0
 11
762.1385493061425
 21
1840.593977158212
 31
0.0
  0
MTEXT
  5
83BE
330
8063
100
AcDbEntity
  8
3
 62
     0
440
 16777216
100
AcDbMText
 10
642.495692163285
 20
1800.593977158213
 30
0.0
 40
75.0
 41
0.0
 46
0.0
 71
     5
 72
     1
  1
\A1;(80)
 11
0.0000000000000001
 21
1.0
 31
0.0
 73
     1
 44
1.0
  0
POINT
  5
83BF
330
8063
100
AcDbEntity
  8
DEFPOINTS
 62
     0
440
 16777216
100
AcDbPoint
 10
1253.348332522257
 20
1760.593977158212
 30
0.0
  0
POINT
  5
83C0
330
8063
100
AcDbEntity
  8
DEFPOINTS
 62
     0
440
 16777216
100
AcDbPoint
 10
1253.348332522257
 20
1840.593977158212
 30
0.0
  0
POINT
  5
83C1
330
8063
100
AcDbEntity
  8
DEFPOINTS
 62
     0
440
 16777216
100
AcDbPoint
 10
762.1385493061425
 20
1840.593977158212
 30
0.0
  0
ENDBLK
  5
806A
330
8063
100
AcDbEntity
  8
0
100
AcDbBlockEnd
  0
BLOCK
  5
8364
330
8363
100
AcDbEntity
  8
0
100
AcDbBlockBegin
  2
*D49
 70
     1
 10
0.0
 20
0.0
 30
0.0
  3
*D49
  1

  0
LINE
  5
8472
330
8363
100
AcDbEntity
  8
3
 62
     0
440
 16777216
370
    -2
100
AcDbLine
 10
1203.348332522256
 20
2736.093977158212
 30
0.0
 11
1203.348332522256
 21
3370.056823089526
 31
0.0
  0
LINE
  5
8473
330
8363
100
AcDbEntity
  8
3
 62
     0
440
 16777216
370
    -2
100
AcDbLine
 10
1703.348332522257
 20
3275.337511784311
 30
0.0
 11
1703.348332522257
 21
3370.056823089526
 31
0.0
  0
LINE
  5
8474
330
8363
100
AcDbEntity
  8
3
 62
     0
440
 16777216
370
    -2
100
AcDbLine
 10
1253.348332522256
 20
3345.056823089526
 30
0.0
 11
1653.348332522257
 21
3345.056823089526
 31
0.0
  0
INSERT
  5
8475
330
8363
100
AcDbEntity
  8
3
 62
     0
440
 16777216
370
    -2
100
AcDbBlockReference
  2
_OPEN
 10
1203.348332522256
 20
3345.056823089526
 30
0.0
 41
50.0
 42
50.0
 43
50.0
 50
180.0
  0
INSERT
  5
8476
330
8363
100
AcDbEntity
  8
3
 62
     0
440
 16777216
370
    -2
100
AcDbBlockReference
  2
_OPEN
 10
1703.348332522257
 20
3345.056823089526
 30
0.0
 41
50.0
 42
50.0
 43
50.0
  0
MTEXT
  5
8477
330
8363
100
AcDbEntity
  8
3
 62
     0
440
 16777216
100
AcDbMText
 10
1453.348332522256
 20
3407.556823089526
 30
0.0
 40
75.0
 41
0.0
 46
0.0
 71
     5
 72
     1
  1
\A1;500
 73
     1
 44
1.0
  0
POINT
  5
8478
330
8363
100
AcDbEntity
  8
DEFPOINTS
 62
     0
440
 16777216
100
AcDbPoint
 10
1203.348332522256
 20
2723.593977158213
 30
0.0
  0
POINT
  5
8479
330
8363
100
AcDbEntity
  8
DEFPOINTS
 62
     0
440
 16777216
100
AcDbPoint
 10
1703.348332522257
 20
3262.837511784312
 30
0.0
  0
POINT
  5
847A
330
8363
100
AcDbEntity
  8
DEFPOINTS
 62
     0
440
 16777216
100
AcDbPoint
 10
1703.348332522257
 20
3345.056823089526
 30
0.0
  0
ENDBLK
  5
8365
330
8363
100
AcDbEntity
  8
0
100
AcDbBlockEnd
  0
BLOCK
  5
8371
330
8370
100
AcDbEntity
  8
0
100
AcDbBlockBegin
  2
*D50
 70
     1
 10
0.0
 20
0.0
 30
0.0
  3
*D50
  1

  0
LINE
  5
847B
330
8370
100
AcDbEntity
  8
3
 62
     0
440
 16777216
370
    -2
100
AcDbLine
 10
1703.348332522257
 20
3275.337511784311
 30
0.0
 11
1703.348332522257
 21
3370.056823089526
 31
0.0
  0
LINE
  5
847C
330
8370
100
AcDbEntity
  8
3
 62
     0
440
 16777216
370
    -2
100
AcDbLine
 10
2298.348332522256
 20
2670.093977158213
 30
0.0
 11
2298.348332522256
 21
3370.056823089526
 31
0.0
  0
LINE
  5
847D
330
8370
100
AcDbEntity
  8
3
 62
     0
440
 16777216
370
    -2
100
AcDbLine
 10
1753.348332522257
 20
3345.056823089526
 30
0.0
 11
2248.348332522256
 21
3345.056823089526
 31
0.0
  0
INSERT
  5
847E
330
8370
100
AcDbEntity
  8
3
 62
     0
440
 16777216
370
    -2
100
AcDbBlockReference
  2
_OPEN
 10
1703.348332522257
 20
3345.056823089526
 30
0.0
 41
50.0
 42
50.0
 43
50.0
 50
180.0
  0
INSERT
  5
847F
330
8370
100
AcDbEntity
  8
3
 62
     0
440
 16777216
370
    -2
100
AcDbBlockReference
  2
_OPEN
 10
2298.348332522256
 20
3345.056823089526
 30
0.0
 41
50.0
 42
50.0
 43
50.0
  0
MTEXT
  5
8480
330
8370
100
AcDbEntity
  8
3
 62
     0
440
 16777216
100
AcDbMText
 10
2000.848332522256
 20
3407.556823089526
 30
0.0
 40
75.0
 41
0.0
 46
0.0
 71
     5
 72
     1
  1
\A1;595
 73
     1
 44
1.0
  0
POINT
  5
8481
330
8370
100
AcDbEntity
  8
DEFPOINTS
 62
     0
440
 16777216
100
AcDbPoint
 10
1703.348332522257
 20
3262.837511784312
 30
0.0
  0
POINT
  5
8482
330
8370
100
AcDbEntity
  8
DEFPOINTS
 62
     0
440
 16777216
100
AcDbPoint
 10
2298.348332522256
 20
2657.593977158213
 30
0.0
  0
POINT
  5
8483
330
8370
100
AcDbEntity
  8
DEFPOINTS
 62
     0
440
 16777216
100
AcDbPoint
 10
2298.348332522256
 20
3345.056823089526
 30
0.0
  0
ENDBLK
  5
8372
330
8370
100
AcDbEntity
  8
0
100
AcDbBlockEnd
  0
BLOCK
  5
837E
330
837D
100
AcDbEntity
  8
0
100
AcDbBlockBegin
  2
*D51
 70
     1
 10
0.0
 20
0.0
 30
0.0
  3
*D51
  1

  0
LINE
  5
8469
330
837D
100
AcDbEntity
  8
3
 62
     0
440
 16777216
370
    -2
100
AcDbLine
 10
1068.582493716827
 20
2710.593977158213
 30
0.0
 11
735.5189665116685
 21
2710.593977158213
 31
0.0
  0
LINE
  5
846A
330
837D
100
AcDbEntity
  8
3
 62
     0
440
 16777216
370
    -2
100
AcDbLine
 10
1743.848332522256
 20
3199.593977158213
 30
0.0
 11
735.5189665116686
 21
3199.593977158213
 31
0.0
  0
LINE
  5
846B
330
837D
100
AcDbEntity
  8
3
 62
     0
440
 16777216
370
    -2
100
AcDbLine
 10
760.5189665116685
 20
2760.593977158213
 30
0.0
 11
760.5189665116686
 21
3149.593977158213
 31
0.0
  0
INSERT
  5
846C
330
837D
100
AcDbEntity
  8
3
 62
     0
440
 16777216
370
    -2
100
AcDbBlockReference
  2
_OPEN
 10
760.5189665116685
 20
2710.593977158213
 30
0.0
 41
50.0
 42
50.0
 43
50.0
 50
270.0
  0
INSERT
  5
846D
330
837D
100
AcDbEntity
  8
3
 62
     0
440
 16777216
370
    -2
100
AcDbBlockReference
  2
_OPEN
 10
760.5189665116686
 20
3199.593977158213
 30
0.0
 41
50.0
 42
50.0
 43
50.0
 50
90.0
  0
MTEXT
  5
846E
330
837D
100
AcDbEntity
  8
3
 62
     0
440
 16777216
100
AcDbMText
 10
698.0189665116681
 20
2955.093977158213
 30
0.0
 40
75.0
 41
0.0
 46
0.0
 71
     5
 72
     1
  1
\A1;489
 11
0.0000000000000001
 21
1.0
 31
0.0
 73
     1
 44
1.0
  0
POINT
  5
846F
330
837D
100
AcDbEntity
  8
DEFPOINTS
 62
     0
440
 16777216
100
AcDbPoint
 10
1081.082493716827
 20
2710.593977158213
 30
0.0
  0
POINT
  5
8470
330
837D
100
AcDbEntity
  8
DEFPOINTS
 62
     0
440
 16777216
100
AcDbPoint
 10
1756.348332522256
 20
3199.593977158213
 30
0.0
  0
POINT
  5
8471
330
837D
100
AcDbEntity
  8
DEFPOINTS
 62
     0
440
 16777216
100
AcDbPoint
 10
760.5189665116686
 20
3199.593977158213
 30
0.0
  0
ENDBLK
  5
837F
330
837D
100
AcDbEntity
  8
0
100
AcDbBlockEnd
  0
BLOCK
  5
83D5
330
83D4
100
AcDbEntity
  8
0
100
AcDbBlockBegin
  2
*D52
 70
     1
 10
0.0
 20
0.0
 30
0.0
  3
*D52
  1

  0
LINE
  5
83E0
330
83D4
100
AcDbEntity
  8
3
 62
     0
440
 16777216
370
    -2
100
AcDbLine
 10
3364.805674528454
 20
2943.093977158213
 30
0.0
 11
3364.805674528454
 21
3507.762909296309
 31
0.0
  0
LINE
  5
83E1
330
83D4
100
AcDbEntity
  8
3
 62
     0
440
 16777216
370
    -2
100
AcDbLine
 10
4204.805674528453
 20
3466.374478331561
 30
0.0
 11
4204.805674528453
 21
3507.762909296309
 31
0.0
  0
LINE
  5
83E2
330
83D4
100
AcDbEntity
  8
3
 62
     0
440
 16777216
370
    -2
100
AcDbLine
 10
3414.805674528454
 20
3482.762909296309
 30
0.0
 11
4154.805674528454
 21
3482.762909296309
 31
0.0
  0
INSERT
  5
83E3
330
83D4
100
AcDbEntity
  8
3
 62
     0
440
 16777216
370
    -2
100
AcDbBlockReference
  2
_OPEN
 10
3364.805674528454
 20
3482.762909296309
 30
0.0
 41
50.0
 42
50.0
 43
50.0
 50
180.0
  0
INSERT
  5
83E4
330
83D4
100
AcDbEntity
  8
3
 62
     0
440
 16777216
370
    -2
100
AcDbBlockReference
  2
_OPEN
 10
4204.805674528453
 20
3482.762909296309
 30
0.0
 41
50.0
 42
50.0
 43
50.0
  0
MTEXT
  5
83E5
330
83D4
100
AcDbEntity
  8
3
 62
     0
440
 16777216
100
AcDbMText
 10
3784.805674528454
 20
3564.905766439166
 30
0.0
 40
75.0
 41
0.0
 46
0.0
 71
     5
 72
     1
  1
\A1;(840)
 73
     1
 44
1.0
  0
POINT
  5
83E6
330
83D4
100
AcDbEntity
  8
DEFPOINTS
 62
     0
440
 16777216
100
AcDbPoint
 10
3364.805674528454
 20
2930.593977158213
 30
0.0
  0
POINT
  5
83E7
330
83D4
100
AcDbEntity
  8
DEFPOINTS
 62
     0
440
 16777216
100
AcDbPoint
 10
4204.805674528453
 20
3453.874478331562
 30
0.0
  0
POINT
  5
83E8
330
83D4
100
AcDbEntity
  8
DEFPOINTS
 62
     0
440
 16777216
100
AcDbPoint
 10
4204.805674528453
 20
3482.762909296309
 30
0.0
  0
ENDBLK
  5
83D6
330
83D4
100
AcDbEntity
  8
0
100
AcDbBlockEnd
  0
BLOCK
  5
83EB
330
83EA
100
AcDbEntity
  8
0
100
AcDbBlockBegin
  2
*D53
 70
     1
 10
0.0
 20
0.0
 30
0.0
  3
*D53
  1

  0
LINE
  5
849F
330
83EA
100
AcDbEntity
  8
3
 62
     0
440
 16777216
370
    -2
100
AcDbLine
 10
1253.348332522257
 20
1648.093977158212
 30
0.0
 11
1253.348332522257
 21
1454.576063093733
 31
0.0
  0
LINE
  5
84A0
330
83EA
100
AcDbEntity
  8
3
 62
     0
440
 16777216
370
    -2
100
AcDbLine
 10
1703.348332522256
 20
1648.093977158212
 30
0.0
 11
1703.348332522256
 21
1454.576063093733
 31
0.0
  0
LINE
  5
84A1
330
83EA
100
AcDbEntity
  8
3
 62
     0
440
 16777216
370
    -2
100
AcDbLine
 10
1303.348332522257
 20
1479.576063093733
 30
0.0
 11
1653.348332522256
 21
1479.576063093733
 31
0.0
  0
INSERT
  5
84A2
330
83EA
100
AcDbEntity
  8
3
 62
     0
440
 16777216
370
    -2
100
AcDbBlockReference
  2
_OPEN
 10
1253.348332522257
 20
1479.576063093733
 30
0.0
 41
50.0
 42
50.0
 43
50.0
 50
180.0
  0
INSERT
  5
84A3
330
83EA
100
AcDbEntity
  8
3
 62
     0
440
 16777216
370
    -2
100
AcDbBlockReference
  2
_OPEN
 10
1703.348332522256
 20
1479.576063093733
 30
0.0
 41
50.0
 42
50.0
 43
50.0
  0
MTEXT
  5
84A4
330
83EA
100
AcDbEntity
  8
3
 62
     0
440
 16777216
100
AcDbMText
 10
1478.348332522257
 20
1542.076063093733
 30
0.0
 40
75.0
 41
0.0
 46
0.0
 71
     5
 72
     1
  1
\A1;450
 73
     1
 44
1.0
  0
POINT
  5
84A5
330
83EA
100
AcDbEntity
  8
DEFPOINTS
 62
     0
440
 16777216
100
AcDbPoint
 10
1253.348332522257
 20
1660.593977158212
 30
0.0
  0
POINT
  5
84A6
330
83EA
100
AcDbEntity
  8
DEFPOINTS
 62
     0
440
 16777216
100
AcDbPoint
 10
1703.348332522256
 20
1660.593977158212
 30
0.0
  0
POINT
  5
84A7
330
83EA
100
AcDbEntity
  8
DEFPOINTS
 62
     0
440
 16777216
100
AcDbPoint
 10
1703.348332522256
 20
1479.576063093733
 30
0.0
  0
ENDBLK
  5
83EC
330
83EA
100
AcDbEntity
  8
0
100
AcDbBlockEnd
  0
BLOCK
  5
83F8
330
83F7
100
AcDbEntity
  8
0
100
AcDbBlockBegin
  2
*D54
 70
     1
 10
0.0
 20
0.0
 30
0.0
  3
*D54
  1

  0
LINE
  5
8496
330
83F7
100
AcDbEntity
  8
3
 62
     0
440
 16777216
370
    -2
100
AcDbLine
 10
1703.348332522256
 20
1648.093977158212
 30
0.0
 11
1703.348332522256
 21
1454.576063093733
 31
0.0
  0
LINE
  5
8497
330
83F7
100
AcDbEntity
  8
3
 62
     0
440
 16777216
370
    -2
100
AcDbLine
 10
2953.348332522257
 20
1648.093977158212
 30
0.0
 11
2953.348332522257
 21
1454.576063093733
 31
0.0
  0
LINE
  5
8498
330
83F7
100
AcDbEntity
  8
3
 62
     0
440
 16777216
370
    -2
100
AcDbLine
 10
1753.348332522256
 20
1479.576063093733
 30
0.0
 11
2903.348332522257
 21
1479.576063093733
 31
0.0
  0
INSERT
  5
8499
330
83F7
100
AcDbEntity
  8
3
 62
     0
440
 16777216
370
    -2
100
AcDbBlockReference
  2
_OPEN
 10
1703.348332522256
 20
1479.576063093733
 30
0.0
 41
50.0
 42
50.0
 43
50.0
 50
180.0
  0
INSERT
  5
849A
330
83F7
100
AcDbEntity
  8
3
 62
     0
440
 16777216
370
    -2
100
AcDbBlockReference
  2
_OPEN
 10
2953.348332522257
 20
1479.576063093733
 30
0.0
 41
50.0
 42
50.0
 43
50.0
  0
MTEXT
  5
849B
330
83F7
100
AcDbEntity
  8
3
 62
     0
440
 16777216
100
AcDbMText
 10
2328.348332522257
 20
1542.076063093733
 30
0.0
 40
75.0
 41
0.0
 46
0.0
 71
     5
 72
     1
  1
\A1;1250
 73
     1
 44
1.0
  0
POINT
  5
849C
330
83F7
100
AcDbEntity
  8
DEFPOINTS
 62
     0
440
 16777216
100
AcDbPoint
 10
1703.348332522256
 20
1660.593977158212
 30
0.0
  0
POINT
  5
849D
330
83F7
100
AcDbEntity
  8
DEFPOINTS
 62
     0
440
 16777216
100
AcDbPoint
 10
2953.348332522257
 20
1660.593977158212
 30
0.0
  0
POINT
  5
849E
330
83F7
100
AcDbEntity
  8
DEFPOINTS
 62
     0
440
 16777216
100
AcDbPoint
 10
2953.348332522257
 20
1479.576063093733
 30
0.0
  0
ENDBLK
  5
83F9
330
83F7
100
AcDbEntity
  8
0
100
AcDbBlockEnd
  0
BLOCK
  5
8405
330
8404
100
AcDbEntity
  8
0
100
AcDbBlockBegin
  2
*D55
 70
     1
 10
0.0
 20
0.0
 30
0.0
  3
*D55
  1

  0
LINE
  5
848D
330
8404
100
AcDbEntity
  8
3
 62
     0
440
 16777216
370
    -2
100
AcDbLine
 10
3552.805674528454
 20
1648.093977158212
 30
0.0
 11
3552.805674528454
 21
1462.714670482892
 31
0.0
  0
LINE
  5
848E
330
8404
100
AcDbEntity
  8
3
 62
     0
440
 16777216
370
    -2
100
AcDbLine
 10
4204.805674528453
 20
1648.093977158212
 30
0.0
 11
4204.805674528453
 21
1462.714670482892
 31
0.0
  0
LINE
  5
848F
330
8404
100
AcDbEntity
  8
3
 62
     0
440
 16777216
370
    -2
100
AcDbLine
 10
3602.805674528454
 20
1487.714670482892
 30
0.0
 11
4154.805674528453
 21
1487.714670482892
 31
0.0
  0
INSERT
  5
8490
330
8404
100
AcDbEntity
  8
3
 62
     0
440
 16777216
370
    -2
100
AcDbBlockReference
  2
_OPEN
 10
3552.805674528454
 20
1487.714670482892
 30
0.0
 41
50.0
 42
50.0
 43
50.0
 50
180.0
  0
INSERT
  5
8491
330
8404
100
AcDbEntity
  8
3
 62
     0
440
 16777216
370
    -2
100
AcDbBlockReference
  2
_OPEN
 10
4204.805674528453
 20
1487.714670482892
 30
0.0
 41
50.0
 42
50.0
 43
50.0
  0
MTEXT
  5
8492
330
8404
100
AcDbEntity
  8
3
 62
     0
440
 16777216
100
AcDbMText
 10
3878.805674528454
 20
1550.214670482892
 30
0.0
 40
75.0
 41
0.0
 46
0.0
 71
     5
 72
     1
  1
\A1;652
 73
     1
 44
1.0
  0
POINT
  5
8493
330
8404
100
AcDbEntity
  8
DEFPOINTS
 62
     0
440
 16777216
100
AcDbPoint
 10
3552.805674528454
 20
1660.593977158212
 30
0.0
  0
POINT
  5
8494
330
8404
100
AcDbEntity
  8
DEFPOINTS
 62
     0
440
 16777216
100
AcDbPoint
 10
4204.805674528453
 20
1660.593977158212
 30
0.0
  0
POINT
  5
8495
330
8404
100
AcDbEntity
  8
DEFPOINTS
 62
     0
440
 16777216
100
AcDbPoint
 10
4204.805674528453
 20
1487.714670482892
 30
0.0
  0
ENDBLK
  5
8406
330
8404
100
AcDbEntity
  8
0
100
AcDbBlockEnd
  0
BLOCK
  5
8412
330
8411
100
AcDbEntity
  8
0
100
AcDbBlockBegin
  2
*D56
 70
     1
 10
0.0
 20
0.0
 30
0.0
  3
*D56
  1

  0
LINE
  5
8484
330
8411
100
AcDbEntity
  8
3
 62
     0
440
 16777216
370
    -2
100
AcDbLine
 10
4204.805674528453
 20
1648.093977158212
 30
0.0
 11
4204.805674528453
 21
1462.714670482892
 31
0.0
  0
LINE
  5
8485
330
8411
100
AcDbEntity
  8
3
 62
     0
440
 16777216
370
    -2
100
AcDbLine
 10
4732.805674528454
 20
1648.093977158212
 30
0.0
 11
4732.805674528454
 21
1462.714670482892
 31
0.0
  0
LINE
  5
8486
330
8411
100
AcDbEntity
  8
3
 62
     0
440
 16777216
370
    -2
100
AcDbLine
 10
4254.805674528453
 20
1487.714670482892
 30
0.0
 11
4682.805674528454
 21
1487.714670482892
 31
0.0
  0
INSERT
  5
8487
330
8411
100
AcDbEntity
  8
3
 62
     0
440
 16777216
370
    -2
100
AcDbBlockReference
  2
_OPEN
 10
4204.805674528453
 20
1487.714670482892
 30
0.0
 41
50.0
 42
50.0
 43
50.0
 50
180.0
  0
INSERT
  5
8488
330
8411
100
AcDbEntity
  8
3
 62
     0
440
 16777216
370
    -2
100
AcDbBlockReference
  2
_OPEN
 10
4732.805674528454
 20
1487.714670482892
 30
0.0
 41
50.0
 42
50.0
 43
50.0
  0
MTEXT
  5
8489
330
8411
100
AcDbEntity
  8
3
 62
     0
440
 16777216
100
AcDbMText
 10
4468.805674528454
 20
1550.214670482892
 30
0.0
 40
75.0
 41
0.0
 46
0.0
 71
     5
 72
     1
  1
\A1;528
 73
     1
 44
1.0
  0
POINT
  5
848A
330
8411
100
AcDbEntity
  8
DEFPOINTS
 62
     0
440
 16777216
100
AcDbPoint
 10
4204.805674528453
 20
1660.593977158212
 30
0.0
  0
POINT
  5
848B
330
8411
100
AcDbEntity
  8
DEFPOINTS
 62
     0
440
 16777216
100
AcDbPoint
 10
4732.805674528454
 20
1660.593977158212
 30
0.0
  0
POINT
  5
848C
330
8411
100
AcDbEntity
  8
DEFPOINTS
 62
     0
440
 16777216
100
AcDbPoint
 10
4732.805674528454
 20
1487.714670482892
 30
0.0
  0
ENDBLK
  5
8413
330
8411
100
AcDbEntity
  8
0
100
AcDbBlockEnd
  0
BLOCK
  5
841F
330
841E
100
AcDbEntity
  8
0
100
AcDbBlockBegin
  2
*D57
 70
     1
 10
0.0
 20
0.0
 30
0.0
  3
*D57
  1

  0
LINE
  5
8421
330
841E
100
AcDbEntity
  8
3
 62
     0
440
 16777216
370
    -2
100
AcDbLine
 10
1240.848332522257
 20
1660.593977158212
 30
0.0
 11
477.9739001037958
 21
1660.593977158213
 31
0.0
  0
LINE
  5
8422
330
841E
100
AcDbEntity
  8
3
 62
     0
440
 16777216
370
    -2
100
AcDbLine
 10
1743.848332522256
 20
3199.593977158213
 30
0.0
 11
477.973900103796
 21
3199.593977158213
 31
0.0
  0
LINE
  5
8423
330
841E
100
AcDbEntity
  8
3
 62
     0
440
 16777216
370
    -2
100
AcDbLine
 10
502.9739001037959
 20
1710.593977158213
 30
0.0
 11
502.9739001037961
 21
3149.593977158213
 31
0.0
  0
INSERT
  5
8424
330
841E
100
AcDbEntity
  8
3
 62
     0
440
 16777216
370
    -2
100
AcDbBlockReference
  2
_OPEN
 10
502.9739001037958
 20
1660.593977158213
 30
0.0
 41
50.0
 42
50.0
 43
50.0
 50
270.0
  0
INSERT
  5
8425
330
841E
100
AcDbEntity
  8
3
 62
     0
440
 16777216
370
    -2
100
AcDbBlockReference
  2
_OPEN
 10
502.9739001037961
 20
3199.593977158213
 30
0.0
 41
50.0
 42
50.0
 43
50.0
 50
90.0
  0
MTEXT
  5
8426
330
841E
100
AcDbEntity
  8
3
 62
     0
440
 16777216
100
AcDbMText
 10
420.8310429609384
 20
2430.093977158213
 30
0.0
 40
75.0
 41
0.0
 46
0.0
 71
     5
 72
     1
  1
\A1;(1539)
 11
0.0000000000000001
 21
1.0
 31
0.0
 73
     1
 44
1.0
  0
POINT
  5
8427
330
841E
100
AcDbEntity
  8
DEFPOINTS
 62
     0
440
 16777216
100
AcDbPoint
 10
1253.348332522257
 20
1660.593977158212
 30
0.0
  0
POINT
  5
8428
330
841E
100
AcDbEntity
  8
DEFPOINTS
 62
     0
440
 16777216
100
AcDbPoint
 10
1756.348332522256
 20
3199.593977158213
 30
0.0
  0
POINT
  5
8429
330
841E
100
AcDbEntity
  8
DEFPOINTS
 62
     0
440
 16777216
100
AcDbPoint
 10
502.9739001037961
 20
3199.593977158213
 30
0.0
  0
ENDBLK
  5
8420
330
841E
100
AcDbEntity
  8
0
100
AcDbBlockEnd
  0
ENDSEC
  0
SECTION
  2
ENTITIES
  0
INSERT
  5
7C43
330
19
100
AcDbEntity
  8
0
100
AcDbBlockReference
  2
YA_N
 10
6.0
 20
5.0
 30
0.0
  0
LINE
  5
7C50
330
19
100
AcDbEntity
  8
1
100
AcDbLine
 10
1253.348332522257
 20
1940.593977158212
 30
0.0
 11
1253.348332522257
 21
1840.593977158212
 31
0.0
  0
LINE
  5
7C51
330
19
100
AcDbEntity
  8
1
100
AcDbLine
 10
1253.348332522257
 20
1940.593977158212
 30
0.0
 11
2953.348332522257
 21
1940.593977158212
 31
0.0
  0
LINE
  5
7C52
330
19
100
AcDbEntity
  8
1
100
AcDbLine
 10
2953.348332522257
 20
1940.593977158212
 30
0.0
 11
2953.348332522257
 21
1840.593977158212
 31
0.0
  0
LINE
  5
7C53
330
19
100
AcDbEntity
  8
2
100
AcDbLine
 10
1703.348332522256
 20
1660.593977158212
 30
0.0
 11
1703.348332522257
 21
3262.837511784312
 31
0.0
  0
LINE
  5
7C54
330
19
100
AcDbEntity
  8
2
100
AcDbLine
 10
1081.082493716827
 20
2710.593977158213
 30
0.0
 11
2378.374810024861
 21
2710.593977158213
 31
0.0
  0
LINE
  5
7C55
330
19
100
AcDbEntity
  8
1
100
AcDbLine
 10
2500.348332522257
 20
1980.593977158212
 30
0.0
 11
2906.348332522257
 21
1980.593977158212
 31
0.0
  0
LINE
  5
7C56
330
19
100
AcDbEntity
  8
1
100
AcDbLine
 10
2503.348332522257
 20
1940.593977158212
 30
0.0
 11
2503.348332522257
 21
1980.593977158212
 31
0.0
  0
LINE
  5
7C57
330
19
100
AcDbEntity
  8
1
100
AcDbLine
 10
1253.348332522257
 20
1660.593977158212
 30
0.0
 11
2953.348332522257
 21
1660.593977158212
 31
0.0
  0
LINE
  5
7C58
330
19
100
AcDbEntity
  8
1
100
AcDbLine
 10
1253.348332522257
 20
1760.593977158212
 30
0.0
 11
1253.348332522257
 21
1660.593977158212
 31
0.0
  0
LINE
  5
7C59
330
19
100
AcDbEntity
  8
1
100
AcDbLine
 10
2953.348332522257
 20
1760.593977158212
 30
0.0
 11
2953.348332522257
 21
1660.593977158212
 31
0.0
  0
LINE
  5
7C5A
330
19
100
AcDbEntity
  8
1
100
AcDbLine
 10
1253.348332522257
 20
1840.593977158212
 30
0.0
 11
2953.348332522257
 21
1840.593977158212
 31
0.0
1001
ACAD
1000
ASC_BOUNDS
1002
{
1070
    19
1002
}
  0
LINE
  5
7C5B
330
19
100
AcDbEntity
  8
1
100
AcDbLine
 10
1253.348332522257
 20
1760.593977158212
 30
0.0
 11
2953.348332522257
 21
1760.593977158212
 31
0.0
1001
ACAD
1000
ASC_BOUNDS
1002
{
1070
    19
1002
}
  0
LINE
  5
7C5C
330
19
100
AcDbEntity
  8
2
100
AcDbLine
 10
4204.805674528453
 20
1660.593977158212
 30
0.0
 11
4204.805674528453
 21
3312.020010289415
 31
0.0
  0
LINE
  5
7C5D
330
19
100
AcDbEntity
  8
2
100
AcDbLine
 10
3437.395221165651
 20
2710.593977158213
 30
0.0
 11
4791.088032923767
 21
2710.593977158213
 31
0.0
  0
LINE
  5
7C5E
330
19
100
AcDbEntity
  8
1
100
AcDbLine
 10
3552.805674528454
 20
1940.593977158212
 30
0.0
 11
4732.805674528454
 21
1940.593977158212
 31
0.0
  0
LINE
  5
7C5F
330
19
100
AcDbEntity
  8
1
100
AcDbLine
 10
3552.805674528454
 20
1840.593977158212
 30
0.0
 11
4732.805674528454
 21
1840.593977158212
 31
0.0
1001
ACAD
1000
ASC_BOUNDS
1002
{
1070
    19
1002
}
  0
LINE
  5
7C60
330
19
100
AcDbEntity
  8
1
100
AcDbLine
 10
3552.805674528454
 20
1840.593977158212
 30
0.0
 11
3552.805674528454
 21
1940.593977158212
 31
0.0
  0
LINE
  5
7C61
330
19
100
AcDbEntity
  8
1
100
AcDbLine
 10
3552.805674528454
 20
1760.593977158212
 30
0.0
 11
4732.805674528454
 21
1760.593977158212
 31
0.0
1001
ACAD
1000
ASC_BOUNDS
1002
{
1070
    19
1002
}
  0
LINE
  5
7C62
330
19
100
AcDbEntity
  8
1
100
AcDbLine
 10
4732.805674528454
 20
1660.593977158212
 30
0.0
 11
4732.805674528454
 21
1760.593977158212
 31
0.0
  0
LINE
  5
7C63
330
19
100
AcDbEntity
  8
1
100
AcDbLine
 10
4732.805674528454
 20
1840.593977158212
 30
0.0
 11
4732.805674528454
 21
1940.593977158212
 31
0.0
  0
LINE
  5
7C64
330
19
100
AcDbEntity
  8
2
100
AcDbLine
 10
1703.348332522257
 20
5580.541691815555
 30
0.0
 11
1703.348332522257
 21
4053.584534634168
 31
0.0
  0
LINE
  5
7C65
330
19
100
AcDbEntity
  8
2
100
AcDbLine
 10
2703.348332522257
 20
4941.536894183531
 30
0.0
 11
2703.348332522256
 21
4053.584534634168
 31
0.0
  0
LINE
  5
7C66
330
19
100
AcDbEntity
  8
2
100
AcDbLine
 10
1100.019586344815
 20
4970.625962184293
 30
0.0
 11
2315.348332522257
 21
4970.625962184294
 31
0.0
  0
LINE
  5
7C67
330
19
100
AcDbEntity
  8
2
100
AcDbLine
 10
3436.805674528456
 20
2190.593977158213
 30
0.0
 11
4059.805674528455
 21
2190.593977158213
 31
0.0
  0
LINE
  5
7C68
330
19
100
AcDbEntity
  8
1
100
AcDbLine
 10
3456.805674528456
 20
2083.593977158213
 30
0.0
 11
3456.805674528454
 21
2837.593977158213
 31
0.0
  0
LINE
  5
7C69
330
19
100
AcDbEntity
  8
1
100
AcDbLine
 10
3541.805674528457
 20
2083.593977158213
 30
0.0
 11
3541.805674528454
 21
2837.593977158213
 31
0.0
  0
LINE
  5
7C6A
330
19
100
AcDbEntity
  8
1
100
AcDbLine
 10
3364.805674528456
 20
1970.593977158213
 30
0.0
 11
3364.805674528454
 21
2930.593977158213
 31
0.0
  0
LINE
  5
7C6B
330
19
100
AcDbEntity
  8
1
100
AcDbLine
 10
3586.805674528455
 20
1970.593977158213
 30
0.0
 11
3586.805674528455
 21
2003.911143051624
 31
0.0
  0
LINE
  5
7C6C
330
19
100
AcDbEntity
  8
1
100
AcDbLine
 10
4679.805674528454
 20
1951.593977158212
 30
0.0
 11
4679.805674528454
 21
2710.593977158213
 31
0.0
  0
POINT
  5
7C6D
330
19
100
AcDbEntity
  8
1
100
AcDbPoint
 10
1253.348332522257
 20
1660.593977158212
 30
0.0
  0
INSERT
  5
7C6F
330
19
100
AcDbEntity
  8
0
100
AcDbBlockReference
  2
YA_N
 10
-1092.024831295133
 20
-1095.319682135705
 30
0.0
 41
20.0
 42
20.0
 43
20.0
  0
LINE
  5
7C71
330
19
100
AcDbEntity
  8
1
100
AcDbLine
 10
2857.348332522257
 20
2046.593977158213
 30
0.0
 11
2837.915832522257
 21
2099.983977158213
 31
0.0
  0
LINE
  5
7C72
330
19
100
AcDbEntity
  8
1
100
AcDbLine
 10
2549.348332522257
 20
2046.593977158213
 30
0.0
 11
2568.780932522257
 21
2099.983977158213
 31
0.0
  0
ARC
  5
7C73
330
19
100
AcDbEntity
  8
1
100
AcDbCircle
 10
2703.348332522257
 20
2190.593977158213
 30
0.0
 40
162.0
100
AcDbArc
 50
285.6481
 51
0.0
  0
ARC
  5
7C74
330
19
100
AcDbEntity
  8
1
100
AcDbCircle
 10
2703.348332522257
 20
2190.593977158213
 30
0.0
 40
162.0
100
AcDbArc
 50
0.0
 51
254.5427
  0
LINE
  5
7C75
330
19
100
AcDbEntity
  8
2
100
AcDbLine
 10
2703.348332522257
 20
2439.829977158213
 30
0.0
 11
2703.348332522257
 21
1660.593977158213
 31
0.0
  0
LINE
  5
7C76
330
19
100
AcDbEntity
  8
1
100
AcDbLine
 10
2659.667732522257
 20
2034.593977158213
 30
0.0
 11
2747.029032522257
 21
2034.593977158213
 31
0.0
  0
LINE
  5
7C77
330
19
100
AcDbEntity
  8
1
100
AcDbLine
 10
2618.404432522257
 20
2052.649977158213
 30
0.0
 11
2610.227032522257
 21
2044.471977158212
 31
0.0
  0
LINE
  5
7C78
330
19
100
AcDbEntity
  8
1
100
AcDbLine
 10
2596.135132522257
 20
2048.593977158212
 30
0.0
 11
2551.348332522257
 21
2048.593977158212
 31
0.0
  0
ARC
  5
7C7A
330
19
100
AcDbEntity
  8
1
100
AcDbCircle
 10
2551.348332522257
 20
2046.593977158213
 30
0.0
 40
2.0
100
AcDbArc
 50
90.0
 51
180.0
  0
LINE
  5
7C7C
330
19
100
AcDbEntity
  8
1
100
AcDbLine
 10
2549.348332522257
 20
2030.593977158213
 30
0.0
 11
2549.348332522257
 21
2046.593977158213
 31
0.0
  0
ARC
  5
7C7E
330
19
100
AcDbEntity
  8
1
100
AcDbCircle
 10
2612.348332522257
 20
2042.350977158212
 30
0.0
 40
3.0
100
AcDbArc
 50
135.0
 51
180.0
  0
LINE
  5
7C7F
330
19
100
AcDbEntity
  8
1
100
AcDbLine
 10
2609.348332522257
 20
2030.593977158213
 30
0.0
 11
2609.348332522257
 21
2042.350977158212
 31
0.0
  0
ARC
  5
7C84
330
19
100
AcDbEntity
  8
1
100
AcDbCircle
 10
2596.135132522257
 20
2051.593977158213
 30
0.0
 40
3.0
100
AcDbArc
 50
270.0
 51
315.0
  0
LINE
  5
7C85
330
19
100
AcDbEntity
  8
1
100
AcDbLine
 10
2608.237132522257
 20
2059.452977158212
 30
0.0
 11
2598.256532522257
 21
2049.471977158212
 31
0.0
  0
LINE
  5
7C87
330
19
100
AcDbEntity
  8
1
100
AcDbLine
 10
2810.561532522257
 20
2048.593977158212
 30
0.0
 11
2855.348332522257
 21
2048.593977158212
 31
0.0
  0
LINE
  5
7C88
330
19
100
AcDbEntity
  8
1
100
AcDbLine
 10
2788.292232522258
 20
2052.649977158213
 30
0.0
 11
2796.469732522257
 21
2044.471977158212
 31
0.0
  0
ARC
  5
7C89
330
19
100
AcDbEntity
  8
1
100
AcDbCircle
 10
2794.348332522257
 20
2042.350977158212
 30
0.0
 40
3.0
100
AcDbArc
 50
0.0
 51
45.0
  0
LINE
  5
7C8A
330
19
100
AcDbEntity
  8
1
100
AcDbLine
 10
2797.348332522257
 20
2030.593977158213
 30
0.0
 11
2797.348332522257
 21
2042.350977158212
 31
0.0
  0
ARC
  5
7C8B
330
19
100
AcDbEntity
  8
1
100
AcDbCircle
 10
2810.561532522257
 20
2051.593977158213
 30
0.0
 40
3.0
100
AcDbArc
 50
225.0
 51
270.0
  0
LINE
  5
7C8C
330
19
100
AcDbEntity
  8
1
100
AcDbLine
 10
2808.550532522257
 20
2049.361977158213
 30
0.0
 11
2798.459532522257
 21
2059.452977158212
 31
0.0
  0
ARC
  5
7C93
330
19
100
AcDbEntity
  8
1
100
AcDbCircle
 10
2855.348332522257
 20
2046.593977158213
 30
0.0
 40
2.0
100
AcDbArc
 50
0.0
 51
90.0
  0
LINE
  5
7C94
330
19
100
AcDbEntity
  8
1
100
AcDbLine
 10
2857.348332522257
 20
2030.593977158213
 30
0.0
 11
2857.348332522257
 21
2046.593977158213
 31
0.0
  0
LINE
  5
7C95
330
19
100
AcDbEntity
  8
2
100
AcDbLine
 10
2510.491457622733
 20
2190.593977158213
 30
0.0
 11
2968.453574599966
 21
2190.593977158213
 31
0.0
  0
LINE
  5
7C96
330
19
100
AcDbEntity
  8
1
100
AcDbLine
 10
2813.909732522258
 20
2313.371977158213
 30
0.0
 11
2811.756532522257
 21
2310.825977158213
 31
0.0
  0
LINE
  5
7C97
330
19
100
AcDbEntity
  8
1
100
AcDbLine
 10
2513.388865151998
 20
2030.593977158213
 30
0.0
 11
2643.348332522257
 21
2030.593977158213
 31
0.0
  0
LINE
  5
7C98
330
19
100
AcDbEntity
  8
1
100
AcDbLine
 10
2500.348332522257
 20
1980.593977158212
 30
0.0
 11
2513.388865151998
 21
2030.593977158213
 31
0.0
  0
LINE
  5
7C99
330
19
100
AcDbEntity
  8
1
100
AcDbLine
 10
2906.348332522257
 20
1980.593977158212
 30
0.0
 11
2892.966891613323
 21
2030.593977158213
 31
0.0
  0
LINE
  5
7C9A
330
19
100
AcDbEntity
  8
1
100
AcDbLine
 10
2763.348332522257
 20
2030.593977158213
 30
0.0
 11
2763.348332522257
 21
2025.593977158212
 31
0.0
  0
LINE
  5
7C9B
330
19
100
AcDbEntity
  8
1
100
AcDbLine
 10
2643.348332522257
 20
2030.593977158213
 30
0.0
 11
2643.348332522257
 21
2025.593977158212
 31
0.0
  0
LINE
  5
7C9C
330
19
100
AcDbEntity
  8
1
100
AcDbLine
 10
2643.348332522257
 20
2025.593977158212
 30
0.0
 11
2763.348332522257
 21
2025.593977158212
 31
0.0
  0
LINE
  5
7C9E
330
19
100
AcDbEntity
  8
1
100
AcDbLine
 10
2763.348332522257
 20
2030.593977158213
 30
0.0
 11
2892.966891613323
 21
2030.593977158213
 31
0.0
  0
CIRCLE
  5
7CA4
330
19
100
AcDbEntity
  8
1
100
AcDbCircle
 10
1703.348332522257
 20
2710.593977158213
 30
0.0
 40
127.0
  0
CIRCLE
  5
7CA5
330
19
100
AcDbEntity
  8
1
100
AcDbCircle
 10
2703.348332522257
 20
2190.593977158213
 30
0.0
 40
107.0
  0
LINE
  5
7CA6
330
19
100
AcDbEntity
  8
1
100
AcDbLine
 10
3456.805674528456
 20
2083.593977158213
 30
0.0
 11
3541.805674528456
 21
2083.593977158213
 31
0.0
  0
LINE
  5
7CA7
330
19
100
AcDbEntity
  8
1
100
AcDbLine
 10
3456.805674528454
 20
2837.593977158213
 30
0.0
 11
3541.805674528454
 21
2837.593977158213
 31
0.0
  0
LINE
  5
7CA8
330
19
100
AcDbEntity
  8
1
100
AcDbLine
 10
3364.805674528454
 20
2930.593977158213
 30
0.0
 11
3586.805674528454
 21
2930.593977158213
 31
0.0
  0
LINE
  5
7CA9
330
19
100
AcDbEntity
  8
1
100
AcDbLine
 10
3364.805674528456
 20
1970.593977158213
 30
0.0
 11
3586.805674528455
 21
1970.593977158213
 31
0.0
  0
LINE
  5
7CAA
330
19
100
AcDbEntity
  8
1
100
AcDbLine
 10
3586.805674528454
 20
2900.593977158213
 30
0.0
 11
3586.805674528454
 21
2930.593977158213
 31
0.0
  0
LINE
  5
7CAB
330
19
100
AcDbEntity
  8
1
100
AcDbLine
 10
3456.805674528455
 20
2297.593977158213
 30
0.0
 11
3541.805674528455
 21
2297.593977158213
 31
0.0
  0
LINE
  5
7CAC
330
19
100
AcDbEntity
  8
1
100
AcDbLine
 10
3456.805674528454
 20
2583.593977158213
 30
0.0
 11
3541.805674528454
 21
2583.593977158213
 31
0.0
  0
POINT
  5
7CAE
330
19
100
AcDbEntity
  8
1
100
AcDbPoint
 10
1253.348332522257
 20
1665.593977158212
 30
0.0
  0
POINT
  5
7CAF
330
19
100
AcDbEntity
  8
1
100
AcDbPoint
 10
1253.348332522257
 20
1660.593977158212
 30
0.0
  0
POINT
  5
7CB0
330
19
100
AcDbEntity
  8
1
100
AcDbPoint
 10
1253.348332522257
 20
1665.593977158212
 30
0.0
  0
POINT
  5
7CB1
330
19
100
AcDbEntity
  8
1
100
AcDbPoint
 10
1253.348332522257
 20
1700.593977158212
 30
0.0
  0
DIMENSION
  5
7CB3
330
19
100
AcDbEntity
  8
3
100
AcDbDimension
280
     0
  2
*D3
 10
1054.340948743031
 20
2681.593977158213
 30
0.0
 11
1004.340948743031
 21
2316.593977158213
 31
0.0
 12
980.9849800540614
 22
2202.000498936814
 32
0.0
 70
    32
 71
     5
 42
-1.0
 73
     0
 74
     0
 75
     0
  3
MATSU
100
AcDbAlignedDimension
 13
1203.348332522257
 23
1951.593977158212
 33
0.0
 14
1203.348332522256
 24
2681.593977158213
 34
0.0
 50
90.0
100
AcDbRotatedDimension
1001
ACAD
1000
DSTYLE
1002
{
1070
   282
1070
     1
1070
    40
1040
25.0
1002
}
  0
DIMENSION
  5
7CB4
330
19
100
AcDbEntity
  8
3
100
AcDbDimension
280
     0
  2
*D4
 10
901.5321752693653
 20
2710.593977158213
 30
0.0
 11
851.5321752693653
 21
2331.093977158213
 31
0.0
 12
980.9849800540614
 22
2202.000498936814
 32
0.0
 70
    32
 71
     5
 42
-1.0
 73
     0
 74
     0
 75
     0
  3
MATSU
100
AcDbAlignedDimension
 13
1203.348332522257
 23
1951.593977158212
 33
0.0
 14
1081.082493716827
 24
2710.593977158213
 34
0.0
 50
90.0
100
AcDbRotatedDimension
1001
ACAD
1000
DSTYLE
1002
{
1070
   282
1070
     1
1070
    40
1040
25.0
1002
}
  0
POINT
  5
7CB5
330
19
100
AcDbEntity
  8
1
100
AcDbPoint
 10
1253.348332522257
 20
1665.593977158212
 30
0.0
  0
POINT
  5
7CB6
330
19
100
AcDbEntity
  8
1
100
AcDbPoint
 10
1253.348332522257
 20
1660.593977158212
 30
0.0
  0
POINT
  5
7CB7
330
19
100
AcDbEntity
  8
1
100
AcDbPoint
 10
1253.348332522257
 20
1665.593977158212
 30
0.0
  0
POINT
  5
7CB8
330
19
100
AcDbEntity
  8
1
100
AcDbPoint
 10
1253.348332522257
 20
1700.593977158212
 30
0.0
  0
INSERT
  5
7CB9
330
19
100
AcDbEntity
  8
0
100
AcDbBlockReference
  2
YA_N
 10
-1018.773193578214
 20
-860.9217325598892
 30
0.0
 41
20.0
 42
20.0
 43
20.0
  0
POINT
  5
7CBB
330
19
100
AcDbEntity
  8
1
100
AcDbPoint
 10
1253.348332522257
 20
1760.593977158212
 30
0.0
  0
POINT
  5
7CBC
330
19
100
AcDbEntity
  8
1
100
AcDbPoint
 10
1253.348332522257
 20
1660.593977158212
 30
0.0
  0
POINT
  5
7CBD
330
19
100
AcDbEntity
  8
1
100
AcDbPoint
 10
1253.348332522257
 20
1760.593977158212
 30
0.0
  0
POINT
  5
7CBE
330
19
100
AcDbEntity
  8
1
100
AcDbPoint
 10
1253.348332522257
 20
1840.593977158212
 30
0.0
  0
LINE
  5
7CBF
330
19
100
AcDbEntity
  8
1
100
AcDbLine
 10
4679.805674528455
 20
2710.593977158213
 30
0.0
 11
4679.805674528453
 21
3216.593977158213
 31
0.0
  0
LINE
  5
7CC1
330
19
100
AcDbEntity
  8
1
100
AcDbLine
 10
3729.805674528454
 20
2710.593977158213
 30
0.0
 11
3729.805674528454
 21
3216.593977158213
 31
0.0
  0
LINE
  5
7CC5
330
19
100
AcDbEntity
  8
1
100
AcDbLine
 10
3716.805674528454
 20
2674.593977158213
 30
0.0
 11
3716.805674528453
 21
2524.593977158213
 31
0.0
  0
LINE
  5
7CC6
330
19
100
AcDbEntity
  8
1
100
AcDbLine
 10
3591.805674528454
 20
2534.593977158213
 30
0.0
 11
3591.805674528454
 21
2664.593977158213
 31
0.0
  0
LINE
  5
7CC7
330
19
100
AcDbEntity
  8
1
100
AcDbLine
 10
3601.805674528453
 20
2674.593977158213
 30
0.0
 11
3677.505674528453
 21
2674.593977158213
 31
0.0
  0
LINE
  5
7CC8
330
19
100
AcDbEntity
  8
1
100
AcDbLine
 10
3601.805674528454
 20
2524.593977158213
 30
0.0
 11
3677.505674528453
 21
2524.593977158213
 31
0.0
  0
ARC
  5
7CC9
330
19
100
AcDbEntity
  8
1
100
AcDbCircle
 10
3601.805674528453
 20
2664.593977158213
 30
0.0
 40
10.0
100
AcDbArc
 50
90.0
 51
180.0
  0
ARC
  5
7CCA
330
19
100
AcDbEntity
  8
1
100
AcDbCircle
 10
3601.805674528454
 20
2534.593977158213
 30
0.0
 40
10.0
100
AcDbArc
 50
180.0
 51
270.0
  0
LINE
  5
7CCB
330
19
100
AcDbEntity
  8
1
100
AcDbLine
 10
3677.505674528453
 20
2524.593977158213
 30
0.0
 11
3716.805674528453
 21
2524.593977158213
 31
0.0
  0
LINE
  5
7CCC
330
19
100
AcDbEntity
  8
1
100
AcDbLine
 10
3677.505674528453
 20
2674.593977158213
 30
0.0
 11
3716.805674528454
 21
2674.593977158213
 31
0.0
  0
LINE
  5
7CCD
330
19
100
AcDbEntity
  8
1
100
AcDbLine
 10
4692.305674528453
 20
2575.393977158213
 30
0.0
 11
4692.305674528455
 21
2695.393977158213
 31
0.0
  0
LINE
  5
7CCE
330
19
100
AcDbEntity
  8
1
100
AcDbLine
 10
4782.305674528452
 20
2585.393977158212
 30
0.0
 11
4782.305674528454
 21
2685.393977158212
 31
0.0
  0
LINE
  5
7CCF
330
19
100
AcDbEntity
  8
1
100
AcDbLine
 10
4692.305674528455
 20
2695.393977158213
 30
0.0
 11
4732.105674528455
 21
2695.393977158213
 31
0.0
  0
LINE
  5
7CD0
330
19
100
AcDbEntity
  8
1
100
AcDbLine
 10
4692.305674528453
 20
2575.393977158213
 30
0.0
 11
4732.105674528455
 21
2575.393977158213
 31
0.0
  0
ARC
  5
7CD1
330
19
100
AcDbEntity
  8
1
100
AcDbCircle
 10
4772.305674528455
 20
2685.393977158213
 30
0.0
 40
10.0
100
AcDbArc
 50
359.9999999999984
 51
90.0
  0
ARC
  5
7CD2
330
19
100
AcDbEntity
  8
1
100
AcDbCircle
 10
4772.305674528452
 20
2585.393977158213
 30
0.0
 40
10.0
100
AcDbArc
 50
270.0
 51
359.9999999999984
  0
LINE
  5
7CD3
330
19
100
AcDbEntity
  8
1
100
AcDbLine
 10
4732.105674528455
 20
2575.393977158213
 30
0.0
 11
4772.305674528452
 21
2575.393977158213
 31
0.0
  0
LINE
  5
7CD4
330
19
100
AcDbEntity
  8
1
100
AcDbLine
 10
4732.105674528455
 20
2695.393977158213
 30
0.0
 11
4772.305674528455
 21
2695.393977158213
 31
0.0
  0
LINE
  5
7CD5
330
19
100
AcDbEntity
  8
1
100
AcDbLine
 10
3571.805674528454
 20
2738.093977158213
 30
0.0
 11
3729.805674528454
 21
2738.093977158213
 31
0.0
  0
LINE
  5
7CD6
330
19
100
AcDbEntity
  8
1
100
AcDbLine
 10
3571.805674528454
 20
2683.093977158213
 30
0.0
 11
3729.805674528454
 21
2683.093977158213
 31
0.0
  0
LINE
  5
7CD7
330
19
100
AcDbEntity
  8
1
100
AcDbLine
 10
3571.805674528454
 20
2683.093977158213
 30
0.0
 11
3571.805674528454
 21
2738.093977158213
 31
0.0
  0
LINE
  5
7CD8
330
19
100
AcDbEntity
  8
1
100
AcDbLine
 10
3541.805674528454
 20
2734.593977158212
 30
0.0
 11
3571.805674528454
 21
2734.593977158212
 31
0.0
  0
LINE
  5
7CD9
330
19
100
AcDbEntity
  8
1
100
AcDbLine
 10
3541.805674528454
 20
2686.593977158213
 30
0.0
 11
3571.805674528454
 21
2686.593977158213
 31
0.0
  0
LINE
  5
7CDA
330
19
100
AcDbEntity
  8
1
100
AcDbLine
 10
2903.348332522257
 20
1940.593977158212
 30
0.0
 11
2903.348332522257
 21
1980.593977158212
 31
0.0
  0
ARC
  5
7CDD
330
19
100
AcDbEntity
  8
1
100
AcDbCircle
 10
1703.348332522257
 20
2710.593977158213
 30
0.0
 40
220.0
100
AcDbArc
 50
54.97085650179122
 51
242.5255683737229
  0
ARC
  5
7CDE
330
19
100
AcDbEntity
  8
1
100
AcDbCircle
 10
2703.348332522257
 20
2190.593977158213
 30
0.0
 40
220.0
100
AcDbArc
 50
242.5255683737229
 51
62.52556837372289
  0
DIMENSION
  5
7CDF
330
19
100
AcDbEntity
  8
3
100
AcDbDimension
280
     0
  2
*D9
 10
4679.805674528454
 20
3343.375448211242
 30
0.0
 11
4204.805674528453
 21
3393.375448211242
 31
0.0
 12
360.5336005979844
 22
2202.000498936814
 32
0.0
 70
    32
 71
     5
 42
-1.0
 73
     0
 74
     0
 75
     0
  3
MATSU
100
AcDbAlignedDimension
 13
3729.805674528454
 23
3200.746886856054
 33
0.0
 14
4679.805674528454
 24
3200.746886856054
 34
0.0
100
AcDbRotatedDimension
1001
ACAD
1000
DSTYLE
1002
{
1070
   282
1070
     1
1070
    40
1040
25.0
1002
}
  0
POINT
  5
7CE0
330
19
100
AcDbEntity
  8
1
100
AcDbPoint
 10
4782.305674528454
 20
2685.393977158212
 30
0.0
  0
DIMENSION
  5
7CE1
330
19
100
AcDbEntity
  8
3
100
AcDbDimension
280
     0
  2
*D10
 10
4931.807684873765
 20
3065.593977158213
 30
0.0
 11
4881.807684873765
 21
2710.593977158213
 31
0.0
 12
360.5336005979844
 22
2202.000498936814
 32
0.0
 70
    32
  1
φ<>
 71
     5
 42
-1.0
 73
     0
 74
     0
 75
     0
  3
MATSU
100
AcDbAlignedDimension
 13
4685.305674528453
 23
2355.593977158212
 33
0.0
 14
4685.305674528453
 24
3065.593977158213
 34
0.0
 50
90.0
100
AcDbRotatedDimension
1001
ACAD
1000
DSTYLE
1002
{
1070
   282
1070
     1
1070
    40
1040
25.0
1002
}
  0
LINE
  5
7CE2
330
19
100
AcDbEntity
  8
1
100
AcDbLine
 10
1253.348332522257
 20
5498.625962184294
 30
0.0
 11
2153.348332522257
 21
5498.625962184295
 31
0.0
  0
LINE
  5
7CE3
330
19
100
AcDbEntity
  8
1
100
AcDbLine
 10
1253.348332522257
 20
4318.625962184293
 30
0.0
 11
2953.348332522257
 21
4318.625962184295
 31
0.0
  0
LINE
  5
7CE4
330
19
100
AcDbEntity
  8
1
100
AcDbLine
 10
1253.348332522257
 20
5498.625962184294
 30
0.0
 11
1253.348332522257
 21
5445.625962184294
 31
0.0
  0
LINE
  5
7CE5
330
19
100
AcDbEntity
  8
1
100
AcDbLine
 10
2153.348332522257
 20
5498.625962184295
 30
0.0
 11
2153.348332522257
 21
5445.625962184295
 31
0.0
  0
LINE
  5
7CE6
330
19
100
AcDbEntity
  8
1
100
AcDbLine
 10
2953.348332522257
 20
5068.625962184295
 30
0.0
 11
2953.348332522257
 21
4318.625962184295
 31
0.0
  0
LINE
  5
7CE7
330
19
100
AcDbEntity
  8
1
100
AcDbLine
 10
2315.348332522257
 20
5068.625962184295
 30
0.0
 11
2953.348332522256
 21
5068.625962184295
 31
0.0
  0
DIMENSION
  5
7CE8
330
19
100
AcDbEntity
  8
3
100
AcDbDimension
280
     0
  2
*D11
 10
1253.348332522257
 20
5692.917981193892
 30
0.0
 11
1703.348332522257
 21
5742.917981193892
 31
0.0
 12
158.4131228946498
 22
0.0
 32
0.0
 70
    32
 71
     5
 42
-1.0
 73
     0
 74
     0
 75
     0
  3
MATSU
100
AcDbAlignedDimension
 13
2153.348332522257
 23
5498.625962184295
 33
0.0
 14
1253.348332522257
 24
5498.625962184294
 34
0.0
100
AcDbRotatedDimension
1001
ACAD
1000
DSTYLE
1002
{
1070
   282
1070
     1
1070
    40
1040
25.0
1002
}
  0
DIMENSION
  5
7CE9
330
19
100
AcDbEntity
  8
3
100
AcDbDimension
280
     0
  2
*D12
 10
954.709615872971
 20
4318.625962184293
 30
0.0
 11
904.709615872971
 21
4908.625962184294
 31
0.0
 12
980.9849800540614
 22
2202.000498936814
 32
0.0
 70
    32
 71
     5
 42
-1.0
 73
     0
 74
     0
 75
     0
  3
MATSU
100
AcDbAlignedDimension
 13
1253.348332522257
 23
5498.625962184294
 33
0.0
 14
1253.348332522257
 24
4318.625962184293
 34
0.0
 50
270.0
100
AcDbRotatedDimension
1001
ACAD
1000
DSTYLE
1002
{
1070
   282
1070
     1
1070
    40
1040
25.0
1002
}
  0
DIMENSION
  5
7CEA
330
19
100
AcDbEntity
  8
3
100
AcDbDimension
280
     0
  2
*D13
 10
3251.954083629155
 20
4318.625962184295
 30
0.0
 11
3201.954083629155
 21
4693.625962184295
 31
0.0
 12
980.9849800540614
 22
2202.000498936814
 32
0.0
 70
    32
 71
     5
 42
-1.0
 73
     0
 74
     0
 75
     0
  3
MATSU
100
AcDbAlignedDimension
 13
2953.348332522256
 23
5068.625962184295
 33
0.0
 14
2953.348332522257
 24
4318.625962184295
 34
0.0
 50
270.0
100
AcDbRotatedDimension
1001
ACAD
1000
DSTYLE
1002
{
1070
   282
1070
     1
1070
    40
1040
25.0
1002
}
  0
DIMENSION
  5
7CEB
330
19
100
AcDbEntity
  8
3
100
AcDbDimension
280
     0
  2
*D14
 10
1253.348332522257
 20
3896.705374463312
 30
0.0
 11
2103.348332522257
 21
3896.705374463312
 31
0.0
 12
980.9849800540614
 22
2202.000498936814
 32
0.0
 70
   160
 71
     5
 42
-1.0
 73
     0
 74
     0
 75
     0
  3
MATSU
100
AcDbAlignedDimension
 13
2953.348332522257
 23
4318.625962184295
 33
0.0
 14
1253.348332522257
 24
4318.625962184293
 34
0.0
100
AcDbRotatedDimension
1001
ACAD
1000
DSTYLE
1002
{
1070
   282
1070
     1
1070
    40
1040
25.0
1002
}
  0
DIMENSION
  5
7CEC
330
19
100
AcDbEntity
  8
3
100
AcDbDimension
280
     0
  2
*D15
 10
2153.348332522257
 20
5692.917981193892
 30
0.0
 11
2553.348332522257
 21
5742.917981193892
 31
0.0
 12
158.4131228946498
 22
0.0
 32
0.0
 70
    32
 71
     5
 42
-1.0
 73
     0
 74
     0
 75
     0
  3
MATSU
100
AcDbAlignedDimension
 13
2953.348332522256
 23
5068.625962184295
 33
0.0
 14
2153.348332522257
 24
5498.625962184295
 34
0.0
100
AcDbRotatedDimension
1001
ACAD
1000
DSTYLE
1002
{
1070
   282
1070
     1
1070
    40
1040
25.0
1002
}
  0
DIMENSION
  5
7CED
330
19
100
AcDbEntity
  8
3
100
AcDbDimension
280
     0
  2
*D16
 10
760.5189665116686
 20
1840.593977158212
 30
0.0
 11
710.5189665116686
 21
2275.593977158212
 31
0.0
 12
980.9849800540614
 22
2202.000498936814
 32
0.0
 70
    32
 71
     5
 42
-1.0
 73
     0
 74
     0
 75
     0
  3
MATSU
100
AcDbAlignedDimension
 13
1081.082493716827
 23
2710.593977158213
 33
0.0
 14
1253.348332522257
 24
1840.593977158212
 34
0.0
 50
270.0
100
AcDbRotatedDimension
1001
ACAD
1000
DSTYLE
1002
{
1070
   282
1070
     1
1070
    40
1040
25.0
1002
}
  0
POINT
  5
7CEE
330
19
100
AcDbEntity
  8
1
100
AcDbPoint
 10
1253.348332522257
 20
1760.593977158212
 30
0.0
  0
POINT
  5
7CEF
330
19
100
AcDbEntity
  8
1
100
AcDbPoint
 10
1253.348332522257
 20
1660.593977158212
 30
0.0
  0
POINT
  5
7CF2
330
19
100
AcDbEntity
  8
1
100
AcDbPoint
 10
1253.348332522257
 20
1760.593977158212
 30
0.0
  0
POINT
  5
7CF3
330
19
100
AcDbEntity
  8
1
100
AcDbPoint
 10
1253.348332522257
 20
1840.593977158212
 30
0.0
  0
CIRCLE
  5
7CF4
330
19
100
AcDbEntity
  8
1
100
AcDbCircle
 10
1703.348332522257
 20
2710.593977158213
 30
0.0
 40
355.0
  0
CIRCLE
  5
7CF5
330
19
100
AcDbEntity
  8
1
100
AcDbCircle
 10
1703.348332522257
 20
2710.593977158213
 30
0.0
 40
395.0
  0
LINE
  5
7CF6
330
19
100
AcDbEntity
  8
1
100
AcDbLine
 10
3729.805674528453
 20
3216.593977158213
 30
0.0
 11
4679.805674528453
 21
3216.593977158213
 31
0.0
  0
DIMENSION
  5
7CF8
330
19
100
AcDbEntity
  8
3
100
AcDbDimension
280
     0
  2
*D17
 10
760.5189665116686
 20
1660.593977158212
 30
0.0
 11
698.0189665116683
 21
1446.308262872498
 31
0.0
 70
    32
 71
     5
 42
100.0
 73
     0
 74
     0
 75
     0
  3
IGA
100
AcDbAlignedDimension
 13
1253.348332522257
 23
1760.593977158212
 33
0.0
 14
1253.348332522257
 24
1660.593977158212
 34
0.0
 50
270.0
100
AcDbRotatedDimension
1001
ACAD
1000
DSTYLE
1002
{
1070
   287
1070
     3
1070
    40
1040
25.0
1070
   143
1040
0.039
1070
   172
1070
     1
1070
   271
1070
     0
1070
   279
1070
     0
1070
   288
1070
     1
1070
     6
1000
DOT
1002
}
  0
DIMENSION
  5
7CF9
330
19
100
AcDbEntity
  8
3
100
AcDbDimension
280
     0
  2
*D18
 10
4204.805674528453
 20
3482.762909296309
 30
0.0
 11
4493.555674528454
 21
3552.405766439166
 31
0.0
 12
360.5336005979844
 22
2202.000498936814
 32
0.0
 70
    32
  1
(620)
 71
     5
 42
-1.0
 73
     0
 74
     0
 75
     0
  3
MATSU
100
AcDbAlignedDimension
 13
4782.305674528454
 23
2685.393977158212
 33
0.0
 14
4204.805674528453
 24
3453.874478331562
 34
0.0
100
AcDbRotatedDimension
1001
ACAD
1000
DSTYLE
1002
{
1070
   282
1070
     1
1070
    40
1040
25.0
1002
}
  0
LINE
  5
7CFB
330
19
100
AcDbEntity
  8
1
100
AcDbLine
 10
4204.805674528453
 20
3447.738717957758
 30
0.0
 11
4204.805674528453
 21
3453.874478331562
 31
0.0
  0
LINE
  5
7CFC
330
19
100
AcDbEntity
  8
1
100
AcDbLine
 10
3552.805674528454
 20
1660.593977158212
 30
0.0
 11
4732.805674528454
 21
1660.593977158212
 31
0.0
1001
ACAD
1000
ASC_BOUNDS
1002
{
1070
    19
1002
}
  0
LINE
  5
7CFD
330
19
100
AcDbEntity
  8
1
100
AcDbLine
 10
3552.805674528454
 20
1760.593977158212
 30
0.0
 11
3552.805674528454
 21
1660.593977158212
 31
0.0
  0
LINE
  5
7CFE
330
19
100
AcDbEntity
  8
1
100
AcDbLine
 10
1203.348332522257
 20
5485.625962184294
 30
0.0
 11
1203.348332522257
 21
4455.625962184292
 31
0.0
  0
LINE
  5
7CFF
330
19
100
AcDbEntity
  8
1
100
AcDbLine
 10
1203.348332522257
 20
5445.625962184294
 30
0.0
 11
2315.348332522257
 21
5445.625962184294
 31
0.0
  0
LINE
  5
7D00
330
19
100
AcDbEntity
  8
1
100
AcDbLine
 10
1203.348332522257
 20
4495.625962184294
 30
0.0
 11
2315.348332522257
 21
4495.625962184294
 31
0.0
  0
LINE
  5
7D01
330
19
100
AcDbEntity
  8
1
100
AcDbLine
 10
2315.348332522257
 20
5445.625962184294
 30
0.0
 11
2315.348332522257
 21
4495.625962184294
 31
0.0
  0
LINE
  5
7D02
330
19
100
AcDbEntity
  8
1
100
AcDbLine
 10
1203.348332522257
 20
5485.625962184293
 30
0.0
 11
1206.348332522257
 21
5485.625962184294
 31
0.0
  0
LINE
  5
7D03
330
19
100
AcDbEntity
  8
1
100
AcDbLine
 10
1203.348332522257
 20
4455.625962184294
 30
0.0
 11
1206.348332522257
 21
4455.625962184292
 31
0.0
  0
LINE
  5
7D04
330
19
100
AcDbEntity
  8
1
100
AcDbLine
 10
1206.348332522257
 20
5485.625962184294
 30
0.0
 11
1206.348332522257
 21
5445.625962184294
 31
0.0
  0
LINE
  5
7D05
330
19
100
AcDbEntity
  8
1
100
AcDbLine
 10
2541.348332522257
 20
4753.625962184294
 30
0.0
 11
2541.348332522257
 21
4268.625962184295
 31
0.0
  0
LINE
  5
7D06
330
19
100
AcDbEntity
  8
1
100
AcDbLine
 10
2865.348332522257
 20
4753.625962184296
 30
0.0
 11
2865.348332522257
 21
4268.625962184295
 31
0.0
  0
LINE
  5
7D07
330
19
100
AcDbEntity
  8
1
100
AcDbLine
 10
1483.348332522257
 20
4130.625962184294
 30
0.0
 11
2923.348332522257
 21
4130.625962184295
 31
0.0
  0
LINE
  5
7D08
330
19
100
AcDbEntity
  8
1
100
AcDbLine
 10
1483.348332522257
 20
4130.625962184294
 30
0.0
 11
1483.348332522257
 21
4280.625962184294
 31
0.0
  0
LINE
  5
7D09
330
19
100
AcDbEntity
  8
1
100
AcDbLine
 10
2923.348332522257
 20
4130.625962184295
 30
0.0
 11
2923.348332522257
 21
4280.625962184296
 31
0.0
  0
LINE
  5
7D0A
330
19
100
AcDbEntity
  8
1
100
AcDbLine
 10
1483.348332522257
 20
4280.625962184294
 30
0.0
 11
2923.348332522257
 21
4280.625962184295
 31
0.0
  0
LINE
  5
7D0B
330
19
100
AcDbEntity
  8
1
100
AcDbLine
 10
1576.348332522257
 20
4150.625962184293
 30
0.0
 11
1830.348332522257
 21
4150.625962184295
 31
0.0
  0
LINE
  5
7D0C
330
19
100
AcDbEntity
  8
1
100
AcDbLine
 10
1576.348332522257
 20
4235.625962184293
 30
0.0
 11
1830.348332522257
 21
4235.625962184294
 31
0.0
  0
LINE
  5
7D0D
330
19
100
AcDbEntity
  8
1
100
AcDbLine
 10
1830.348332522257
 20
4235.625962184293
 30
0.0
 11
1830.348332522257
 21
4150.625962184293
 31
0.0
  0
LINE
  5
7D0E
330
19
100
AcDbEntity
  8
1
100
AcDbLine
 10
1576.348332522257
 20
4235.625962184293
 30
0.0
 11
1576.348332522257
 21
4150.625962184293
 31
0.0
  0
LINE
  5
7D0F
330
19
100
AcDbEntity
  8
1
100
AcDbLine
 10
2596.348332522256
 20
4235.625962184294
 30
0.0
 11
2596.348332522256
 21
4150.625962184295
 31
0.0
  0
LINE
  5
7D10
330
19
100
AcDbEntity
  8
1
100
AcDbLine
 10
2810.348332522257
 20
4235.625962184294
 30
0.0
 11
2810.348332522256
 21
4150.625962184295
 31
0.0
  0
LINE
  5
7D11
330
19
100
AcDbEntity
  8
1
100
AcDbLine
 10
2596.348332522256
 20
4150.625962184295
 30
0.0
 11
2810.348332522256
 21
4150.625962184295
 31
0.0
  0
LINE
  5
7D12
330
19
100
AcDbEntity
  8
1
100
AcDbLine
 10
2596.348332522256
 20
4235.625962184294
 30
0.0
 11
2810.348332522257
 21
4235.625962184294
 31
0.0
  0
LINE
  5
7D13
330
19
100
AcDbEntity
  8
1
100
AcDbLine
 10
2541.348332522257
 20
4753.625962184294
 30
0.0
 11
2865.348332522257
 21
4753.625962184294
 31
0.0
  0
LINE
  5
7D14
330
19
100
AcDbEntity
  8
1
100
AcDbLine
 10
2541.348332522259
 20
4268.625962184295
 30
0.0
 11
2865.348332522259
 21
4268.625962184295
 31
0.0
  0
LINE
  5
7D15
330
19
100
AcDbEntity
  8
1
100
AcDbLine
 10
2682.348332522257
 20
4268.625962184295
 30
0.0
 11
2682.348332522257
 21
4235.625962184294
 31
0.0
  0
LINE
  5
7D16
330
19
100
AcDbEntity
  8
1
100
AcDbLine
 10
2724.348332522257
 20
4268.625962184295
 30
0.0
 11
2724.348332522257
 21
4235.625962184294
 31
0.0
  0
LINE
  5
7D17
330
19
100
AcDbEntity
  8
1
100
AcDbLine
 10
1675.848332522257
 20
4495.625962184294
 30
0.0
 11
1675.848332522257
 21
4235.625962184293
 31
0.0
  0
LINE
  5
7D18
330
19
100
AcDbEntity
  8
1
100
AcDbLine
 10
1730.848332522256
 20
4495.625962184294
 30
0.0
 11
1730.848332522256
 21
4235.625962184293
 31
0.0
  0
LINE
  5
7D19
330
19
100
AcDbEntity
  8
1
100
AcDbLine
 10
4059.805674528454
 20
2028.593977158214
 30
0.0
 11
3574.805674528454
 21
2028.593977158214
 31
0.0
  0
LINE
  5
7D1A
330
19
100
AcDbEntity
  8
1
100
AcDbLine
 10
4059.805674528456
 20
2352.593977158214
 30
0.0
 11
3574.805674528456
 21
2352.593977158214
 31
0.0
  0
LINE
  5
7D1B
330
19
100
AcDbEntity
  8
1
100
AcDbLine
 10
3574.805674528454
 20
2028.593977158215
 30
0.0
 11
3574.805674528456
 21
2352.593977158215
 31
0.0
  0
LINE
  5
7D1C
330
19
100
AcDbEntity
  8
1
100
AcDbLine
 10
3574.805674528455
 20
2211.593977158214
 30
0.0
 11
3541.805674528456
 21
2211.593977158214
 31
0.0
  0
LINE
  5
7D1D
330
19
100
AcDbEntity
  8
1
100
AcDbLine
 10
3574.805674528455
 20
2169.593977158214
 30
0.0
 11
3541.805674528456
 21
2169.593977158214
 31
0.0
  0
LINE
  5
7D24
330
19
100
AcDbEntity
  8
1
100
AcDbLine
 10
1206.348332522257
 20
4495.625962184293
 30
0.0
 11
1206.348332522257
 21
4455.625962184292
 31
0.0
  0
LINE
  5
7D25
330
19
100
AcDbEntity
  8
1
100
AcDbLine
 10
1253.348332522257
 20
4495.625962184293
 30
0.0
 11
1253.348332522257
 21
4318.625962184294
 31
0.0
  0
DIMENSION
  5
7D2A
330
19
100
AcDbEntity
  8
3
100
AcDbDimension
280
     0
  2
*D22
 10
2953.348332522257
 20
3542.710701151135
 30
0.0
 11
2078.348332522256
 21
3592.710701151135
 31
0.0
 12
980.9849800540614
 22
2202.000498936814
 32
0.0
 70
    32
 71
     5
 42
-1.0
 73
     0
 74
     0
 75
     0
  3
MATSU
100
AcDbAlignedDimension
 13
1203.348332522256
 23
2723.593977158213
 33
0.0
 14
2953.348332522257
 24
1940.593977158212
 34
0.0
100
AcDbRotatedDimension
1001
ACAD
1000
DSTYLE
1002
{
1070
   282
1070
     1
1070
    40
1040
25.0
1002
}
  0
LINE
  5
7D2B
330
19
100
AcDbEntity
  8
1
100
AcDbLine
 10
4013.091250380261
 20
1951.593977158212
 30
0.0
 11
4679.805674528454
 21
1951.593977158212
 31
0.0
  0
LINE
  5
7D2F
330
19
100
AcDbEntity
  8
1
100
AcDbLine
 10
4059.805674528454
 20
2028.593977158214
 30
0.0
 11
4059.805674528456
 21
2352.593977158214
 31
0.0
  0
LINE
  5
7D30
330
19
100
AcDbEntity
  8
1
100
AcDbLine
 10
3729.805674528454
 20
2352.593977158214
 30
0.0
 11
3729.805674528454
 21
2710.593977158213
 31
0.0
  0
LINE
  5
7D31
330
19
100
AcDbEntity
  8
1
100
AcDbLine
 10
3658.228953696457
 20
1980.593977158212
 30
0.0
 11
4013.091250380261
 21
1980.593977158212
 31
0.0
  0
LINE
  5
7D32
330
19
100
AcDbEntity
  8
1
100
AcDbLine
 10
4013.091250380261
 20
2028.593977158214
 30
0.0
 11
4013.09125038026
 21
1940.593977158212
 31
0.0
  0
LINE
  5
7D33
330
19
100
AcDbEntity
  8
1
100
AcDbLine
 10
3658.228953696458
 20
1940.593977158212
 30
0.0
 11
3658.228953696457
 21
2028.593977158214
 31
0.0
  0
LINE
  5
7D34
330
19
100
AcDbEntity
  8
1
100
AcDbLine
 10
1804.845934583494
 20
2905.781673429824
 30
0.0
 11
2804.845934583495
 21
2385.781673429824
 31
0.0
  0
LINE
  5
7D35
330
19
100
AcDbEntity
  8
1
100
AcDbLine
 10
1763.930275477181
 20
2822.213098225377
 30
0.0
 11
2754.389812019714
 21
2284.635283884091
 31
0.0
  0
LINE
  5
7D36
330
19
100
AcDbEntity
  8
1
100
AcDbLine
 10
1646.765130121488
 20
2596.895511002887
 30
0.0
 11
2655.675870657042
 21
2094.800781263569
 31
0.0
  0
LINE
  5
7D37
330
19
100
AcDbEntity
  8
1
100
AcDbLine
 10
1601.850730461019
 20
2515.406280886602
 30
0.0
 11
2601.850730461019
 21
1995.406280886601
 31
0.0
  0
ARC
  5
7D38
330
19
100
AcDbEntity
  8
1
100
AcDbCircle
 10
2703.348332522257
 20
2190.593977158213
 30
0.0
 40
220.0
100
AcDbArc
 50
122.4069866090509
 51
123.5744157922294
  0
LINE
  5
7F7C
330
19
100
AcDbEntity
  8
4
100
AcDbLine
 10
4625.0
 20
1008.429666174044
 30
0.0
 11
4625.0
 21
508.4296661740444
 31
0.0
  0
LINE
  5
7F7D
330
19
100
AcDbEntity
  8
4
100
AcDbLine
 10
2875.0
 20
1008.429666174044
 30
0.0
 11
2875.0
 21
508.4296661740444
 31
0.0
  0
LINE
  5
7F7E
330
19
100
AcDbEntity
  8
4
100
AcDbLine
 10
1625.0
 20
1008.429666174044
 30
0.0
 11
1625.0
 21
508.4296661740444
 31
0.0
  0
LINE
  5
7F81
330
19
100
AcDbEntity
  8
4
100
AcDbLine
 10
1625.0
 20
508.4296661740445
 30
0.0
 11
4625.0
 21
508.4296661740445
 31
0.0
  0
LINE
  5
7F82
330
19
100
AcDbEntity
  8
4
100
AcDbLine
 10
1625.0
 20
758.4296661740445
 30
0.0
 11
4625.0
 21
758.4296661740445
 31
0.0
  0
TEXT
  5
7F83
330
19
100
AcDbEntity
  8
4
100
AcDbText
 10
1721.255202117254
 20
837.2872308405767
 30
0.0
 40
125.0
  1
機器名称
100
AcDbText
  0
TEXT
  5
7F84
330
19
100
AcDbEntity
  8
4
100
AcDbText
 10
1715.645265061994
 20
562.5425580040719
 30
0.0
 40
125.0
  1
機器型番
100
AcDbText
  0
TEXT
  5
7F85
330
19
100
AcDbEntity
  8
4
100
AcDbText
 10
2948.086556194606
 20
813.3451190234131
 30
0.0
 40
100.0
  1
ミツヤリミットロードファン
100
AcDbText
  0
TEXT
  5
7F86
330
19
100
AcDbEntity
  8
4
100
AcDbText
 10
2966.636238963701
 20
551.328626873903
 30
0.0
 40
125.0
  1
LL#4 1/2-5
100
AcDbText
  0
TEXT
  5
7F88
330
19
100
AcDbEntity
  8
4
100
AcDbText
 10
1997.942548673654
 20
5958.572103331289
 30
0.0
 40
135.0
  1
床置防振ベット
100
AcDbText
  0
TEXT
  5
7F89
330
19
100
AcDbEntity
  8
4
100
AcDbText
 10
790.4189833236159
 20
6334.702440498245
 30
0.0
 40
180.0
  1
遠心式両吸込両持リミットロードファン
100
AcDbText
  0
LINE
  5
7F8A
330
19
100
AcDbEntity
  8
4
100
AcDbLine
 10
625.0
 20
6173.521885662012
 30
0.0
 11
4625.0
 21
6173.521885662012
 31
0.0
  0
LINE
  5
7F8B
330
19
100
AcDbEntity
  8
4
100
AcDbLine
 10
625.0
 20
6673.521885662012
 30
0.0
 11
4625.0
 21
6673.521885662012
 31
0.0
  0
LINE
  5
7F8C
330
19
100
AcDbEntity
  8
4
100
AcDbLine
 10
1625.0
 20
1008.429666174044
 30
0.0
 11
4625.0
 21
1008.429666174044
 31
0.0
  0
LINE
  5
7F8D
330
19
100
AcDbEntity
  8
4
100
AcDbLine
 10
625.0
 20
6673.521885662012
 30
0.0
 11
625.0
 21
6173.521885662012
 31
0.0
  0
TEXT
  5
7F8E
330
19
100
AcDbEntity
  8
4
100
AcDbText
 10
908.295468066899
 20
5955.798693865858
 30
0.0
 40
135.0
  1
右回転左横向
100
AcDbText
  0
TEXT
  5
7F8F
330
19
100
AcDbEntity
  8
4
100
AcDbText
 10
3672.423898123225
 20
6765.152703738272
 30
0.0
 40
140.0
  1
No.
100
AcDbText
  0
TEXT
  5
7F90
330
19
100
AcDbEntity
  8
4
100
AcDbText
 10
3278.240156500033
 20
5958.572103331289
 30
0.0
 40
135.0
  1
縮尺：1/25
100
AcDbText
  0
LINE
  5
7F91
330
19
100
AcDbEntity
  8
4
100
AcDbLine
 10
4625.0
 20
6673.521885662012
 30
0.0
 11
4625.0
 21
6173.521885662012
 31
0.0
  0
LINE
  5
7F92
330
19
100
AcDbEntity
  8
4
100
AcDbLine
 10
5250.0
 20
7375.0
 30
0.0
 11
5250.0
 21
7375.0
 31
0.0
  0
LINE
  5
7F93
330
19
100
AcDbEntity
  8
4
100
AcDbLine
 10
3601.543555899662
 20
6703.158957813503
 30
0.0
 11
3601.543555899662
 21
6966.630653874381
 31
0.0
  0
LINE
  5
7F94
330
19
100
AcDbEntity
  8
4
100
AcDbLine
 10
3601.543555899662
 20
6966.630653874381
 30
0.0
 11
4625.0
 21
6966.630653874381
 31
0.0
  0
LINE
  5
7F95
330
19
100
AcDbEntity
  8
4
100
AcDbLine
 10
4625.0
 20
6966.630653874381
 30
0.0
 11
4625.0
 21
6703.158957813503
 31
0.0
  0
LINE
  5
7F96
330
19
100
AcDbEntity
  8
4
100
AcDbLine
 10
4625.0
 20
6703.158957813503
 30
0.0
 11
3601.543555899662
 21
6703.158957813503
 31
0.0
  0
LINE
  5
7F97
330
19
100
AcDbEntity
  8
4
100
AcDbLine
 10
0.0
 20
0.0
 30
0.0
 11
0.0
 21
7375.0
 31
0.0
  0
LINE
  5
7F98
330
19
100
AcDbEntity
  8
4
100
AcDbLine
 10
0.0
 20
7375.0
 30
0.0
 11
5250.0
 21
7375.0
 31
0.0
  0
LINE
  5
7F99
330
19
100
AcDbEntity
  8
4
100
AcDbLine
 10
5250.0
 20
7375.0
 30
0.0
 11
5250.0
 21
0.0
 31
0.0
  0
LINE
  5
7F9A
330
19
100
AcDbEntity
  8
4
100
AcDbLine
 10
5250.0
 20
0.0
 30
0.0
 11
0.0
 21
0.0
 31
0.0
  0
DIMENSION
  5
806B
330
19
100
AcDbEntity
  8
3
100
AcDbDimension
280
     0
  2
*D25
 10
762.1385493061425
 20
1840.593977158212
 30
0.0
 11
642.495692163285
 21
1800.593977158213
 31
0.0
 70
    32
 71
     5
 42
80.0
 73
     0
 74
     0
 75
     0
  3
IGA
100
AcDbAlignedDimension
 13
1253.348332522257
 23
1760.593977158212
 33
0.0
 14
1253.348332522257
 24
1840.593977158212
 34
0.0
 50
90.0
100
AcDbRotatedDimension
1001
ACAD
1000
DSTYLE
1002
{
1070
   172
1070
     1
1070
    76
1070
     1
1070
    75
1070
     1
1070
    40
1040
25.0
1070
     3
1000
(<>)
1070
   271
1070
     0
1070
     7
1000
_NONE
1070
     6
1000
_NONE
1070
   143
1040
0.039
1002
}
  0
LINE
  5
826E
330
19
100
AcDbEntity
  8
1
100
AcDbLine
 10
1206.348332522258
 20
1951.952486781393
 30
0.0
 11
1733.257569678199
 21
2014.919830802364
 31
0.0
  0
ARC
  5
826F
330
19
100
AcDbEntity
  8
1
100
AcDbCircle
 10
1650.348332522256
 20
2657.593977158213
 30
0.0
 40
648.0
100
AcDbArc
 50
277.3509360175298
 51
0.0
  0
ARC
  5
8270
330
19
100
AcDbEntity
  8
1
100
AcDbCircle
 10
1756.348332522256
 20
2657.593977158213
 30
0.0
 40
541.9999999999998
100
AcDbArc
 50
0.0
 51
90.0
  0
ARC
  5
8271
330
19
100
AcDbEntity
  8
1
100
AcDbCircle
 10
1744.348332522256
 20
2751.593977158213
 30
0.0
 40
448.0
100
AcDbArc
 50
90.0
 51
180.0
  0
ARC
  5
8272
330
19
100
AcDbEntity
  8
1
100
AcDbCircle
 10
1662.348332522256
 20
2751.593977158213
 30
0.0
 40
366.0
100
AcDbArc
 50
180.0
 51
191.0261404812716
  0
LINE
  5
8273
330
19
100
AcDbEntity
  8
1
100
AcDbLine
 10
1203.348332522256
 20
2681.593977158213
 30
0.0
 11
1303.104682613172
 21
2681.593977158213
 31
0.0
  0
LINE
  5
8274
330
19
100
AcDbEntity
  8
1
100
AcDbLine
 10
1203.348332522257
 20
1909.593977158213
 30
0.0
 11
1203.348332522256
 21
2723.593977158213
 31
0.0
  0
LINE
  5
8275
330
19
100
AcDbEntity
  8
1
100
AcDbLine
 10
1203.348332522257
 20
1909.593977158213
 30
0.0
 11
1206.348332522257
 21
1909.593977158212
 31
0.0
  0
LINE
  5
8276
330
19
100
AcDbEntity
  8
1
100
AcDbLine
 10
1203.348332522256
 20
2723.593977158213
 30
0.0
 11
1206.348332522257
 21
2723.593977158213
 31
0.0
  0
LINE
  5
8277
330
19
100
AcDbEntity
  8
1
100
AcDbLine
 10
1243.348332522257
 20
1955.043208730817
 30
0.0
 11
1243.348332522257
 21
2681.593977158213
 31
0.0
  0
LINE
  5
8278
330
19
100
AcDbEntity
  8
1
100
AcDbLine
 10
1206.348332522257
 20
1909.593977158212
 30
0.0
 11
1206.348332522257
 21
2723.593977158213
 31
0.0
  0
POINT
  5
8279
330
19
100
AcDbEntity
  8
1
100
AcDbPoint
 10
1243.165760057805
 20
2710.593977158213
 30
0.0
 50
0.000000000000007
  0
LINE
  5
827A
330
19
100
AcDbEntity
  8
1
100
AcDbLine
 10
1199.866526889764
 20
2710.593977158213
 30
0.0
 11
1184.193221473448
 21
2710.593977158213
 31
0.0
  0
LINE
  5
827B
330
19
100
AcDbEntity
  8
1
100
AcDbLine
 10
1744.348332522256
 20
3199.593977158213
 30
0.0
 11
1756.348332522256
 21
3199.593977158213
 31
0.0
  0
DIMENSION
  5
8362
330
19
100
AcDbEntity
  8
3
100
AcDbDimension
280
     0
  2
*D49
 10
1703.348332522257
 20
3345.056823089526
 30
0.0
 11
1453.348332522256
 21
3407.556823089526
 31
0.0
 70
    32
 71
     5
 42
500.0000000000008
 73
     0
 74
     0
 75
     0
  3
IGA
100
AcDbAlignedDimension
 13
1203.348332522256
 23
2723.593977158213
 33
0.0
 14
1703.348332522257
 24
3262.837511784312
 34
0.0
100
AcDbRotatedDimension
1001
ACAD
1000
DSTYLE
1002
{
1070
     3
1000
<>
1070
    40
1040
25.0
1070
   143
1040
0.039
1070
   172
1070
     1
1070
   271
1070
     0
1002
}
  0
DIMENSION
  5
836F
330
19
100
AcDbEntity
  8
3
100
AcDbDimension
280
     0
  2
*D50
 10
2298.348332522256
 20
3345.056823089526
 30
0.0
 11
2000.848332522256
 21
3407.556823089526
 31
0.0
 70
    32
 71
     5
 42
594.9999999999991
 73
     0
 74
     0
 75
     0
  3
IGA
100
AcDbAlignedDimension
 13
1703.348332522257
 23
3262.837511784312
 33
0.0
 14
2298.348332522256
 24
2657.593977158213
 34
0.0
100
AcDbRotatedDimension
1001
ACAD
1000
DSTYLE
1002
{
1070
     3
1000
<>
1070
    40
1040
25.0
1070
   143
1040
0.039
1070
   172
1070
     1
1070
   271
1070
     0
1002
}
  0
DIMENSION
  5
837C
330
19
100
AcDbEntity
  8
3
100
AcDbDimension
280
     0
  2
*D51
 10
760.5189665116686
 20
3199.593977158213
 30
0.0
 11
698.0189665116681
 21
2955.093977158213
 31
0.0
 70
    32
 71
     5
 42
489.0
 73
     0
 74
     0
 75
     0
  3
IGA
100
AcDbAlignedDimension
 13
1081.082493716827
 23
2710.593977158213
 33
0.0
 14
1756.348332522256
 24
3199.593977158213
 34
0.0
 50
90.0
100
AcDbRotatedDimension
1001
ACAD
1000
DSTYLE
1002
{
1070
     3
1000
<>
1070
    40
1040
25.0
1070
   143
1040
0.039
1070
   172
1070
     1
1070
   271
1070
     0
1002
}
  0
DIMENSION
  5
83D3
330
19
100
AcDbEntity
  8
3
100
AcDbDimension
280
     0
  2
*D52
 10
4204.805674528453
 20
3482.762909296309
 30
0.0
 11
3784.805674528454
 21
3564.905766439166
 31
0.0
 70
    32
 71
     5
 42
840.0
 73
     0
 74
     0
 75
     0
  3
IGA
100
AcDbAlignedDimension
 13
3364.805674528454
 23
2930.593977158213
 33
0.0
 14
4204.805674528453
 24
3453.874478331562
 34
0.0
100
AcDbRotatedDimension
1001
ACAD
1000
DSTYLE
1002
{
1070
     3
1000
(<>)
1070
    40
1040
25.0
1070
   143
1040
0.039
1070
   172
1070
     1
1070
   271
1070
     0
1002
}
  0
DIMENSION
  5
83E9
330
19
100
AcDbEntity
  8
3
100
AcDbDimension
280
     0
  2
*D53
 10
1703.348332522256
 20
1479.576063093733
 30
0.0
 11
1478.348332522257
 21
1542.076063093733
 31
0.0
 70
    32
 71
     5
 42
449.9999999999998
 73
     0
 74
     0
 75
     0
  3
IGA
100
AcDbAlignedDimension
 13
1253.348332522257
 23
1660.593977158212
 33
0.0
 14
1703.348332522256
 24
1660.593977158212
 34
0.0
100
AcDbRotatedDimension
1001
ACAD
1000
DSTYLE
1002
{
1070
     3
1000
<>
1070
    40
1040
25.0
1070
   143
1040
0.039
1070
   172
1070
     1
1070
   271
1070
     0
1002
}
  0
DIMENSION
  5
83F6
330
19
100
AcDbEntity
  8
3
100
AcDbDimension
280
     0
  2
*D54
 10
2953.348332522257
 20
1479.576063093733
 30
0.0
 11
2328.348332522257
 21
1542.076063093733
 31
0.0
 70
    32
 71
     5
 42
1250.0
 73
     0
 74
     0
 75
     0
  3
IGA
100
AcDbAlignedDimension
 13
1703.348332522256
 23
1660.593977158212
 33
0.0
 14
2953.348332522257
 24
1660.593977158212
 34
0.0
100
AcDbRotatedDimension
1001
ACAD
1000
DSTYLE
1002
{
1070
     3
1000
<>
1070
    40
1040
25.0
1070
   143
1040
0.039
1070
   172
1070
     1
1070
   271
1070
     0
1002
}
  0
DIMENSION
  5
8403
330
19
100
AcDbEntity
  8
3
100
AcDbDimension
280
     0
  2
*D55
 10
4204.805674528453
 20
1487.714670482892
 30
0.0
 11
3878.805674528454
 21
1550.214670482892
 31
0.0
 70
    32
 71
     5
 42
651.999999999999
 73
     0
 74
     0
 75
     0
  3
IGA
100
AcDbAlignedDimension
 13
3552.805674528454
 23
1660.593977158212
 33
0.0
 14
4204.805674528453
 24
1660.593977158212
 34
0.0
100
AcDbRotatedDimension
1001
ACAD
1000
DSTYLE
1002
{
1070
     3
1000
<>
1070
    40
1040
25.0
1070
   143
1040
0.039
1070
   172
1070
     1
1070
   271
1070
     0
1002
}
  0
DIMENSION
  5
8410
330
19
100
AcDbEntity
  8
3
100
AcDbDimension
280
     0
  2
*D56
 10
4732.805674528454
 20
1487.714670482892
 30
0.0
 11
4468.805674528454
 21
1550.214670482892
 31
0.0
 70
    32
 71
     5
 42
528.0000000000009
 73
     0
 74
     0
 75
     0
  3
IGA
100
AcDbAlignedDimension
 13
4204.805674528453
 23
1660.593977158212
 33
0.0
 14
4732.805674528454
 24
1660.593977158212
 34
0.0
100
AcDbRotatedDimension
1001
ACAD
1000
DSTYLE
1002
{
1070
     3
1000
<>
1070
    40
1040
25.0
1070
   143
1040
0.039
1070
   172
1070
     1
1070
   271
1070
     0
1002
}
  0
DIMENSION
  5
841D
330
19
100
AcDbEntity
  8
3
100
AcDbDimension
280
     0
  2
*D57
 10
502.9739001037961
 20
3199.593977158213
 30
0.0
 11
420.8310429609384
 21
2430.093977158213
 31
0.0
 70
    32
 71
     5
 42
1539.0
 73
     0
 74
     0
 75
     0
  3
IGA
100
AcDbAlignedDimension
 13
1253.348332522257
 23
1660.593977158212
 33
0.0
 14
1756.348332522256
 24
3199.593977158213
 34
0.0
 50
90.0
100
AcDbRotatedDimension
1001
ACAD
1000
DSTYLE
1002
{
1070
     3
1000
(<>)
1070
    40
1040
25.0
1070
   143
1040
0.039
1070
   172
1070
     1
1070
   271
1070
     0
1002
}
  0
ENDSEC
  0
SECTION
  2
OBJECTS
  0
DICTIONARY
  5
C
330
0
100
AcDbDictionary
281
     1
  3
ACAD_CIP_PREVIOUS_PRODUCT_INFO
350
812A
  3
ACAD_COLOR
350
810D
  3
ACAD_DETAILVIEWSTYLE
350
8126
  3
ACAD_GROUP
350
D
  3
ACAD_LAYOUT
350
8081
  3
ACAD_MATERIAL
350
80DB
  3
ACAD_MLEADERSTYLE
350
8122
  3
ACAD_MLINESTYLE
350
E
  3
ACAD_PLOTSETTINGS
350
8082
  3
ACAD_PLOTSTYLENAME
350
807F
  3
ACAD_SCALELIST
350
8110
  3
ACAD_SECTIONVIEWSTYLE
350
8124
  3
ACAD_TABLESTYLE
350
810E
  3
ACAD_VISUALSTYLE
350
80F4
  3
ACDB_RECOMPOSE_DATA
350
84CF
  3
AcDbVariableDictionary
350
84BE
  3
AcDsDecomposeData
350
84D5
  0
DICTIONARY
  5
81B4
330
2
100
AcDbDictionary
280
     1
281
     1
  3
ACAD_LAYERSTATES
360
81B5
  0
DICTIONARY
  5
84A8
330
F
100
AcDbDictionary
280
     1
281
     1
  3
ADSK_XREC_LAYER_RECONCILED
360
84A9
  0
DICTIONARY
  5
84AA
330
31
100
AcDbDictionary
280
     1
281
     1
  3
ADSK_XREC_LAYER_RECONCILED
360
84AB
  0
DICTIONARY
  5
84AC
330
76D0
100
AcDbDictionary
280
     1
281
     1
  3
ADSK_XREC_LAYER_RECONCILED
360
84AD
  0
DICTIONARY
  5
84AE
330
76D1
100
AcDbDictionary
280
     1
281
     1
  3
ADSK_XREC_LAYER_RECONCILED
360
84AF
  0
DICTIONARY
  5
84B0
330
76D2
100
AcDbDictionary
280
     1
281
     1
  3
ADSK_XREC_LAYER_RECONCILED
360
84B1
  0
DICTIONARY
  5
80AE
330
19
100
AcDbDictionary
280
     1
281
     1
  3
ACAD_LAYOUTSELFREF
360
80AF
  0
DICTIONARY
  5
80AC
330
16
100
AcDbDictionary
280
     1
281
     1
  3
ACAD_LAYOUTSELFREF
360
80AD
  0
XRECORD
  5
812A
102
{ACAD_REACTORS
330
C
102
}
330
C
100
AcDbXrecord
280
     1
300
ACDLT
300
2023
300

  0
DICTIONARY
  5
810D
102
{ACAD_REACTORS
330
C
102
}
330
C
100
AcDbDictionary
281
     1
  0
DICTIONARY
  5
8126
102
{ACAD_REACTORS
330
C
102
}
330
C
100
AcDbDictionary
281
     1
  3
Metric50
350
8127
  0
DICTIONARY
  5
D
102
{ACAD_REACTORS
330
C
102
}
330
C
100
AcDbDictionary
281
     1
  0
DICTIONARY
  5
8081
102
{ACAD_REACTORS
330
C
102
}
330
C
100
AcDbDictionary
281
     1
  3
Model
350
8083
  3
ﾚｲｱｳﾄ1
350
8084
  0
DICTIONARY
  5
80DB
102
{ACAD_REACTORS
330
C
102
}
330
C
100
AcDbDictionary
281
     1
  3
ByBlock
350
80E4
  3
ByLayer
350
80DC
  3
Global
350
80EC
  0
DICTIONARY
  5
8122
102
{ACAD_REACTORS
330
C
102
}
330
C
100
AcDbDictionary
281
     1
  3
Standard
350
8123
  0
DICTIONARY
  5
E
102
{ACAD_REACTORS
330
C
102
}
330
C
100
AcDbDictionary
281
     1
  3
STANDARD
350
1C
  0
DICTIONARY
  5
8082
102
{ACAD_REACTORS
330
C
102
}
330
C
100
AcDbDictionary
281
     1
  0
ACDBDICTIONARYWDFLT
  5
807F
102
{ACAD_REACTORS
330
C
102
}
330
C
100
AcDbDictionary
281
     1
  3
Normal
350
8080
100
AcDbDictionaryWithDefault
340
8080
  0
DICTIONARY
  5
8110
102
{ACAD_REACTORS
330
C
102
}
330
C
100
AcDbDictionary
281
     1
  3
A0
350
8111
  3
A1
350
8112
  3
A2
350
8113
  3
A3
350
8114
  3
A4
350
8115
  3
A5
350
8116
  3
A6
350
8117
  3
A7
350
8118
  3
A8
350
8119
  3
A9
350
811A
  3
B0
350
811B
  3
B1
350
811C
  3
B2
350
811D
  3
B3
350
811E
  3
B4
350
811F
  3
B5
350
8120
  3
B6
350
8121
  0
DICTIONARY
  5
8124
102
{ACAD_REACTORS
330
C
102
}
330
C
100
AcDbDictionary
281
     1
  3
Metric50
350
8125
  0
DICTIONARY
  5
810E
102
{ACAD_REACTORS
330
C
102
}
330
C
100
AcDbDictionary
281
     1
  3
Standard
350
810F
  0
DICTIONARY
  5
80F4
102
{ACAD_REACTORS
330
C
102
}
330
C
100
AcDbDictionary
281
     1
  3
2dWireframe
350
80FA
  3
Basic
350
80F9
  3
Brighten
350
8100
  3
ColorChange
350
8104
  3
Conceptual
350
80FD
  3
Dim
350
80FF
  3
EdgeColorOff
350
810C
  3
Facepattern
350
8103
  3
Flat
350
80F5
  3
FlatWithEdges
350
80F6
  3
Gouraud
350
80F7
  3
GouraudWithEdges
350
80F8
  3
Hidden
350
80FC
  3
JitterOff
350
810A
  3
Linepattern
350
8102
  3
OverhangOff
350
810B
  3
Realistic
350
80FE
  3
Shaded
350
8109
  3
Shaded with edges
350
8108
  3
Shades of Gray
350
8105
  3
Sketchy
350
8106
  3
Thicken
350
8101
  3
Wireframe
350
80FB
  3
X-Ray
350
8107
  0
XRECORD
  5
84CF
102
{ACAD_REACTORS
330
C
102
}
330
C
100
AcDbXrecord
280
     1
 90
        1
330
810F
  0
DICTIONARY
  5
84BE
102
{ACAD_REACTORS
330
C
102
}
330
C
100
AcDbDictionary
281
     1
  3
CANNOSCALE
350
84C4
  3
CMLEADERSTYLE
350
84C0
  3
CTABLESTYLE
350
84BF
  3
CVIEWDETAILSTYLE
350
84C1
  3
CVIEWSECTIONSTYLE
350
84C2
  3
LAYEREVAL
350
84C6
  3
LAYERNOTIFY
350
84C7
  3
LIGHTINGUNITS
350
84C5
  3
MARKUPASSISTMODE
350
84CC
  3
MSLTSCALE
350
84C3
  0
DICTIONARY
  5
84D5
102
{ACAD_REACTORS
330
C
102
}
330
C
100
AcDbDictionary
281
     1
  3
AcDsRecords
350
84D7
  3
AcDsSchemas
350
84D6
1001
ACAD
1070
     2
  0
DICTIONARY
  5
81B5
102
{ACAD_REACTORS
330
81B4
102
}
330
81B4
100
AcDbDictionary
281
     1
  0
XRECORD
  5
84A9
102
{ACAD_REACTORS
330
84A8
102
}
330
84A8
100
AcDbXrecord
280
     1
290
     1
  0
XRECORD
  5
84AB
102
{ACAD_REACTORS
330
84AA
102
}
330
84AA
100
AcDbXrecord
280
     1
290
     1
  0
XRECORD
  5
84AD
102
{ACAD_REACTORS
330
84AC
102
}
330
84AC
100
AcDbXrecord
280
     1
290
     1
  0
XRECORD
  5
84AF
102
{ACAD_REACTORS
330
84AE
102
}
330
84AE
100
AcDbXrecord
280
     1
290
     1
  0
XRECORD
  5
84B1
102
{ACAD_REACTORS
330
84B0
102
}
330
84B0
100
AcDbXrecord
280
     1
290
     1
  0
XRECORD
  5
80AF
102
{ACAD_REACTORS
330
80AE
102
}
330
80AE
100
AcDbXrecord
280
     1
340
19
  0
XRECORD
  5
80AD
102
{ACAD_REACTORS
330
80AC
102
}
330
80AC
100
AcDbXrecord
280
     1
340
16
  0
ACDBDETAILVIEWSTYLE
  5
8127
102
{ACAD_XDICTIONARY
360
84DA
102
}
102
{ACAD_REACTORS
330
8126
102
}
330
8126
100
AcDbModelDocViewStyle
 70
     0
  3
Metric50
290
     0
100
AcDbDetailViewStyle
 70
     0
 71
     0
 90
        3
 71
     1
340
10
 62
   256
 40
5.0
340
0
 62
   256
 40
5.0
300

 40
0.0
280
     1
 71
     2
340
15
 90
       25
 62
   256
 71
     3
340
10
 62
   256
 40
5.0
 90
        0
 40
15.0
 90
        1
300
%<\AcVar ViewDetailId>% (%<\AcVar ViewScale \f "%sn">%)
 71
     4
340
15
 90
       25
 62
   256
340
15
 90
       25
 62
   256
280
     0
  0
LAYOUT
  5
8083
102
{ACAD_REACTORS
330
8081
102
}
330
8081
100
AcDbPlotSettings
  1

  2
EPSON LP-9300
  4

  6

 40
0.0
 41
0.0
 42
0.0
 43
0.0
 44
0.0
 45
0.0
 46
0.0
 47
0.0
 48
0.0
 49
0.0
140
0.0
141
0.0
142
1.0
143
1.0
 70
  1712
 72
     0
 73
     0
 74
     0
  7

 75
     0
147
1.0
 76
     0
 77
     2
 78
   300
148
0.0
149
0.0
100
AcDbLayout
  1
Model
 70
     1
 71
     0
 10
0.0
 20
0.0
 11
12.0
 21
9.0
 12
0.0
 22
0.0
 32
0.0
 14
0.0
 24
0.0
 34
0.0
 15
0.0
 25
0.0
 35
0.0
146
0.0
 13
0.0
 23
0.0
 33
0.0
 16
1.0
 26
0.0
 36
0.0
 17
0.0
 27
1.0
 37
0.0
 76
     0
330
19
331
80D9
  0
LAYOUT
  5
8084
102
{ACAD_REACTORS
330
8081
102
}
330
8081
100
AcDbPlotSettings
  1

  2
EPSON LP-9300
  4

  6

 40
0.0
 41
0.0
 42
0.0
 43
0.0
 44
0.0
 45
0.0
 46
0.0
 47
0.0
 48
0.0
 49
0.0
140
0.0
141
0.0
142
1.0
143
1.0
 70
   688
 72
     0
 73
     0
 74
     5
  7

 75
    16
147
1.0
 76
     0
 77
     2
 78
   300
148
0.0
149
0.0
100
AcDbLayout
  1
ﾚｲｱｳﾄ1
 70
     1
 71
     1
 10
0.0
 20
0.0
 11
12.0
 21
9.0
 12
0.0
 22
0.0
 32
0.0
 14
1.000000000000000E+20
 24
1.000000000000000E+20
 34
1.000000000000000E+20
 15
-1.000000000000000E+20
 25
-1.000000000000000E+20
 35
-1.000000000000000E+20
146
0.0
 13
0.0
 23
0.0
 33
0.0
 16
1.0
 26
0.0
 36
0.0
 17
0.0
 27
1.0
 37
0.0
 76
     0
330
16
  0
MATERIAL
  5
80E4
102
{ACAD_XDICTIONARY
360
80E5
102
}
102
{ACAD_REACTORS
330
80DB
102
}
330
80DB
100
AcDbMaterial
  1
ByBlock
 72
     0
 43
0.0208333333333333
 43
0.0
 43
0.0
 43
0.0
 43
0.0
 43
0.0208333333333333
 43
0.0
 43
0.0
 43
0.0
 43
0.0
 43
1.0
 43
0.0
 43
0.0
 43
0.0
 43
0.0
 43
1.0
 77
     0
 47
0.0208333333333333
 47
0.0
 47
0.0
 47
0.0
 47
0.0
 47
0.0208333333333333
 47
0.0
 47
0.0
 47
0.0
 47
0.0
 47
1.0
 47
0.0
 47
0.0
 47
0.0
 47
0.0
 47
1.0
171
     0
 49
0.0208333333333333
 49
0.0
 49
0.0
 49
0.0
 49
0.0
 49
0.0208333333333333
 49
0.0
 49
0.0
 49
0.0
 49
0.0
 49
1.0
 49
0.0
 49
0.0
 49
0.0
 49
0.0
 49
1.0
175
     0
142
0.0208333333333333
142
0.0
142
0.0
142
0.0
142
0.0
142
0.0208333333333333
142
0.0
142
0.0
142
0.0
142
0.0
142
1.0
142
0.0
142
0.0
142
0.0
142
0.0
142
1.0
179
     0
144
0.0208333333333333
144
0.0
144
0.0
144
0.0
144
0.0
144
0.0208333333333333
144
0.0
144
0.0
144
0.0
144
0.0
144
1.0
144
0.0
144
0.0
144
0.0
144
0.0
144
1.0
147
0.0208333333333333
147
0.0
147
0.0
147
0.0
147
0.0
147
0.0208333333333333
147
0.0
147
0.0
147
0.0
147
0.0
147
1.0
147
0.0
147
0.0
147
0.0
147
0.0
147
1.0
  0
MATERIAL
  5
80DC
102
{ACAD_XDICTIONARY
360
80DD
102
}
102
{ACAD_REACTORS
330
80DB
102
}
330
80DB
100
AcDbMaterial
  1
ByLayer
 72
     0
 43
0.0208333333333333
 43
0.0
 43
0.0
 43
0.0
 43
0.0
 43
0.0208333333333333
 43
0.0
 43
0.0
 43
0.0
 43
0.0
 43
1.0
 43
0.0
 43
0.0
 43
0.0
 43
0.0
 43
1.0
 77
     0
 47
0.0208333333333333
 47
0.0
 47
0.0
 47
0.0
 47
0.0
 47
0.0208333333333333
 47
0.0
 47
0.0
 47
0.0
 47
0.0
 47
1.0
 47
0.0
 47
0.0
 47
0.0
 47
0.0
 47
1.0
171
     0
 49
0.0208333333333333
 49
0.0
 49
0.0
 49
0.0
 49
0.0
 49
0.0208333333333333
 49
0.0
 49
0.0
 49
0.0
 49
0.0
 49
1.0
 49
0.0
 49
0.0
 49
0.0
 49
0.0
 49
1.0
175
     0
142
0.0208333333333333
142
0.0
142
0.0
142
0.0
142
0.0
142
0.0208333333333333
142
0.0
142
0.0
142
0.0
142
0.0
142
1.0
142
0.0
142
0.0
142
0.0
142
0.0
142
1.0
179
     0
144
0.0208333333333333
144
0.0
144
0.0
144
0.0
144
0.0
144
0.0208333333333333
144
0.0
144
0.0
144
0.0
144
0.0
144
1.0
144
0.0
144
0.0
144
0.0
144
0.0
144
1.0
147
0.0208333333333333
147
0.0
147
0.0
147
0.0
147
0.0
147
0.0208333333333333
147
0.0
147
0.0
147
0.0
147
0.0
147
1.0
147
0.0
147
0.0
147
0.0
147
0.0
147
1.0
  0
MATERIAL
  5
80EC
102
{ACAD_XDICTIONARY
360
80ED
102
}
102
{ACAD_REACTORS
330
80DB
102
}
330
80DB
100
AcDbMaterial
  1
Global
 72
     0
 43
0.0208333333333333
 43
0.0
 43
0.0
 43
0.0
 43
0.0
 43
0.0208333333333333
 43
0.0
 43
0.0
 43
0.0
 43
0.0
 43
1.0
 43
0.0
 43
0.0
 43
0.0
 43
0.0
 43
1.0
 77
     0
 47
0.0208333333333333
 47
0.0
 47
0.0
 47
0.0
 47
0.0
 47
0.0208333333333333
 47
0.0
 47
0.0
 47
0.0
 47
0.0
 47
1.0
 47
0.0
 47
0.0
 47
0.0
 47
0.0
 47
1.0
171
     0
 49
0.0208333333333333
 49
0.0
 49
0.0
 49
0.0
 49
0.0
 49
0.0208333333333333
 49
0.0
 49
0.0
 49
0.0
 49
0.0
 49
1.0
 49
0.0
 49
0.0
 49
0.0
 49
0.0
 49
1.0
175
     0
142
0.0208333333333333
142
0.0
142
0.0
142
0.0
142
0.0
142
0.0208333333333333
142
0.0
142
0.0
142
0.0
142
0.0
142
1.0
142
0.0
142
0.0
142
0.0
142
0.0
142
1.0
179
     0
144
0.0208333333333333
144
0.0
144
0.0
144
0.0
144
0.0
144
0.0208333333333333
144
0.0
144
0.0
144
0.0
144
0.0
144
1.0
144
0.0
144
0.0
144
0.0
144
0.0
144
1.0
147
0.0208333333333333
147
0.0
147
0.0
147
0.0
147
0.0
147
0.0208333333333333
147
0.0
147
0.0
147
0.0
147
0.0
147
1.0
147
0.0
147
0.0
147
0.0
147
0.0
147
1.0
  0
MLEADERSTYLE
  5
8123
102
{ACAD_REACTORS
330
8122
102
}
330
8122
100
AcDbMLeaderStyle
179
     2
170
     2
171
     1
172
     0
 90
        2
 40
0.0
 41
0.0
173
     1
 91
-1056964608
340
13
 92
       -2
290
     1
 42
2.0
291
     1
 43
0.36
  3
Standard
 44
4.0
300

342
10
174
     1
178
     6
175
     1
176
     0
 93
-1056964608
 45
4.0
292
     0
297
     0
 46
4.0
 94
-1056964608
 47
1.0
 49
1.0
140
1.0
293
     1
141
0.0
294
     1
177
     0
142
1.0
295
     0
296
     0
143
0.125
271
     0
272
     9
273
     9
298
     1
  0
MLINESTYLE
  5
1C
102
{ACAD_REACTORS
330
E
102
}
330
E
100
AcDbMlineStyle
  2
STANDARD
 70
     0
  3

 62
     0
 51
90.0
 52
90.0
 71
     2
 49
0.5
 62
   256
  6
BYLAYER
 49
-0.5
 62
   256
  6
BYLAYER
  0
ACDBPLACEHOLDER
  5
8080
102
{ACAD_REACTORS
330
807F
102
}
330
807F
  0
SCALE
  5
8111
102
{ACAD_REACTORS
330
8110
102
}
330
8110
100
AcDbScale
 70
     0
300
1:1
140
1.0
141
1.0
290
     1
  0
SCALE
  5
8112
102
{ACAD_REACTORS
330
8110
102
}
330
8110
100
AcDbScale
 70
     0
300
1:2
140
1.0
141
2.0
290
     0
  0
SCALE
  5
8113
102
{ACAD_REACTORS
330
8110
102
}
330
8110
100
AcDbScale
 70
     0
300
1:4
140
1.0
141
4.0
290
     0
  0
SCALE
  5
8114
102
{ACAD_REACTORS
330
8110
102
}
330
8110
100
AcDbScale
 70
     0
300
1:5
140
1.0
141
5.0
290
     0
  0
SCALE
  5
8115
102
{ACAD_REACTORS
330
8110
102
}
330
8110
100
AcDbScale
 70
     0
300
1:8
140
1.0
141
8.0
290
     0
  0
SCALE
  5
8116
102
{ACAD_REACTORS
330
8110
102
}
330
8110
100
AcDbScale
 70
     0
300
1:10
140
1.0
141
10.0
290
     0
  0
SCALE
  5
8117
102
{ACAD_REACTORS
330
8110
102
}
330
8110
100
AcDbScale
 70
     0
300
1:16
140
1.0
141
16.0
290
     0
  0
SCALE
  5
8118
102
{ACAD_REACTORS
330
8110
102
}
330
8110
100
AcDbScale
 70
     0
300
1:20
140
1.0
141
20.0
290
     0
  0
SCALE
  5
8119
102
{ACAD_REACTORS
330
8110
102
}
330
8110
100
AcDbScale
 70
     0
300
1:30
140
1.0
141
30.0
290
     0
  0
SCALE
  5
811A
102
{ACAD_REACTORS
330
8110
102
}
330
8110
100
AcDbScale
 70
     0
300
1:40
140
1.0
141
40.0
290
     0
  0
SCALE
  5
811B
102
{ACAD_REACTORS
330
8110
102
}
330
8110
100
AcDbScale
 70
     0
300
1:50
140
1.0
141
50.0
290
     0
  0
SCALE
  5
811C
102
{ACAD_REACTORS
330
8110
102
}
330
8110
100
AcDbScale
 70
     0
300
1:100
140
1.0
141
100.0
290
     0
  0
SCALE
  5
811D
102
{ACAD_REACTORS
330
8110
102
}
330
8110
100
AcDbScale
 70
     0
300
2:1
140
2.0
141
1.0
290
     0
  0
SCALE
  5
811E
102
{ACAD_REACTORS
330
8110
102
}
330
8110
100
AcDbScale
 70
     0
300
4:1
140
4.0
141
1.0
290
     0
  0
SCALE
  5
811F
102
{ACAD_REACTORS
330
8110
102
}
330
8110
100
AcDbScale
 70
     0
300
8:1
140
8.0
141
1.0
290
     0
  0
SCALE
  5
8120
102
{ACAD_REACTORS
330
8110
102
}
330
8110
100
AcDbScale
 70
     0
300
10:1
140
10.0
141
1.0
290
     0
  0
SCALE
  5
8121
102
{ACAD_REACTORS
330
8110
102
}
330
8110
100
AcDbScale
 70
     0
300
100:1
140
100.0
141
1.0
290
     0
  0
ACDBSECTIONVIEWSTYLE
  5
8125
102
{ACAD_XDICTIONARY
360
84D8
102
}
102
{ACAD_REACTORS
330
8124
102
}
330
8124
100
AcDbModelDocViewStyle
 70
     0
  3
Metric50
290
     0
100
AcDbSectionViewStyle
 70
     0
 71
     0
 90
      102
 71
     1
340
10
 62
   256
 40
5.0
340
0
340
0
 62
   256
 40
5.0
300
I, O, Q, S, X, Z
 40
10.0
 90
        0
 40
2.5
 90
        0
 71
     2
340
15
 90
       25
 62
   256
340
15
 90
       50
 62
   256
 40
5.0
 40
2.5
 40
5.0
 71
     3
340
10
 62
   256
 40
5.0
 90
        0
 40
15.0
 90
        1
300
%<\AcVar ViewSectionStartId>%-%<\AcVar ViewSectionEndId>% (%<\AcVar ViewScale \f "%sn">%)
 71
     4
 62
   256
 62
   257
300
ANSI31
 40
1.0
 90
        0
290
     0
290
     0
 90
        6
 40
0.0
 40
1.570796326794896
 40
0.2617993877991494
 40
1.308996938995747
 40
-0.2617993877991494
 40
1.832595714594046
  0
TABLESTYLE
  5
810F
102
{ACAD_XDICTIONARY
360
84CD
102
}
102
{ACAD_REACTORS
330
810E
102
}
330
810E
100
AcDbTableStyle
280
     0
  3
Standard
 70
     0
 71
     0
 40
1.5
 41
1.5
280
     0
281
     0
  7
STANDARD
140
4.5
170
     2
 62
     0
 63
     7
283
     0
 90
      512
 91
        0
  1

274
    -2
284
     1
 64
     0
275
    -2
285
     1
 65
     0
276
    -2
286
     1
 66
     0
277
    -2
287
     1
 67
     0
278
    -2
288
     1
 68
     0
279
    -2
289
     1
 69
     0
  7
STANDARD
140
6.0
170
     5
 62
     0
 63
     7
283
     0
 90
      512
 91
        0
  1

274
    -2
284
     1
 64
     0
275
    -2
285
     1
 65
     0
276
    -2
286
     1
 66
     0
277
    -2
287
     1
 67
     0
278
    -2
288
     1
 68
     0
279
    -2
289
     1
 69
     0
  7
STANDARD
140
4.5
170
     5
 62
     0
 63
     7
283
     0
 90
      512
 91
        0
  1

274
    -2
284
     1
 64
     0
275
    -2
285
     1
 65
     0
276
    -2
286
     1
 66
     0
277
    -2
287
     1
 67
     0
278
    -2
288
     1
 68
     0
279
    -2
289
     1
 69
     0
  0
VISUALSTYLE
  5
80FA
102
{ACAD_REACTORS
330
80F4
102
}
330
80F4
100
AcDbVisualStyle
  2
2dWireframe
 70
     4
177
     3
291
     0
 70
    58
 90
        0
176
     1
 90
        2
176
     1
 90
        0
176
     1
 90
        0
176
     1
 40
0.6
176
     1
 40
30.0
176
     1
 62
     7
420
 16777215
176
     1
 90
        1
176
     1
 90
        4
176
     1
 62
     7
176
     1
 62
   257
176
     1
 90
        1
176
     1
 90
        1
176
     1
 40
1.0
176
     1
 90
        0
176
     1
 62
   257
176
     1
 40
1.0
176
     1
 90
        1
176
     1
 90
        6
176
     1
 90
        2
176
     1
 62
     7
176
     1
 90
        5
176
     1
 90
        0
176
     1
 90
        0
176
     1
290
     0
176
     1
 90
        1
176
     1
 40
0.0
176
     1
 90
        0
176
     1
290
     1
176
     1
290
     1
176
     1
290
     0
176
     1
290
     0
176
     1
290
     0
176
     1
290
     0
176
     1
290
     0
176
     1
290
     0
176
     1
290
     0
176
     1
 90
       50
176
     1
 40
0.0
176
     1
 40
1.0
176
     1
 90
        0
176
     1
 62
    18
420
        0
176
     1
 90
       50
176
     1
 90
        3
176
     1
 62
     5
420
      255
176
     1
290
     0
176
     1
 90
       50
176
     1
 90
       50
176
     1
 90
       50
176
     1
290
     0
176
     1
 90
       50
176
     1
 62
   256
176
     0
 40
1.0
176
     0
 90
        2
176
     1
  1
strokes_ogs.tif
176
     1
290
     0
176
     1
 40
1.0
176
     1
 40
1.0
176
     1
1001
ACAD
1000
AcDbSavedByObjectVersion
1070
     0
  0
VISUALSTYLE
  5
80F9
102
{ACAD_REACTORS
330
80F4
102
}
330
80F4
100
AcDbVisualStyle
  2
Basic
 70
     7
177
     3
291
     1
 70
    58
 90
        1
176
     1
 90
        0
176
     1
 90
        1
176
     1
 90
        0
176
     1
 40
0.6
176
     1
 40
30.0
176
     1
 62
     7
420
 16777215
176
     1
 90
        0
176
     1
 90
        4
176
     1
 62
     7
176
     1
 62
   257
176
     1
 90
        1
176
     1
 90
        1
176
     1
 40
1.0
176
     1
 90
        8
176
     1
 62
     7
176
     1
 40
1.0
176
     1
 90
        1
176
     1
 90
        6
176
     1
 90
        2
176
     1
 62
     7
176
     1
 90
        5
176
     1
 90
        0
176
     1
 90
        0
176
     1
290
     0
176
     1
 90
        1
176
     1
 40
0.0
176
     1
 90
        0
176
     1
290
     0
176
     1
290
     1
176
     1
290
     1
176
     1
290
     0
176
     1
290
     0
176
     1
290
     0
176
     1
290
     0
176
     1
290
     0
176
     1
290
     0
176
     1
 90
       50
176
     1
 40
0.0
176
     1
 40
1.0
176
     1
 90
        0
176
     1
 62
    18
420
        0
176
     1
 90
       50
176
     1
 90
        3
176
     1
 62
     5
420
      255
176
     1
290
     0
176
     1
 90
       50
176
     1
 90
       50
176
     1
 90
       50
176
     1
290
     0
176
     1
 90
       50
176
     1
 62
   256
176
     0
 40
1.0
176
     0
 90
        2
176
     1
  1
strokes_ogs.tif
176
     1
290
     0
176
     1
 40
1.0
176
     1
 40
1.0
176
     1
1001
ACAD
1000
AcDbSavedByObjectVersion
1070
     0
  0
VISUALSTYLE
  5
8100
102
{ACAD_REACTORS
330
80F4
102
}
330
80F4
100
AcDbVisualStyle
  2
Brighten
 70
    12
177
     3
291
     1
 70
    58
 90
        2
176
     1
 90
        2
176
     1
 90
        0
176
     1
 90
        0
176
     1
 40
0.6
176
     1
 40
30.0
176
     1
 62
     7
420
 16777215
176
     1
 90
        1
176
     1
 90
        4
176
     1
 62
     7
176
     1
 62
   257
176
     1
 90
        1
176
     1
 90
        1
176
     1
 40
1.0
176
     1
 90
        8
176
     1
 62
     7
176
     1
 40
1.0
176
     1
 90
        1
176
     1
 90
        6
176
     1
 90
        2
176
     1
 62
     7
176
     1
 90
        5
176
     1
 90
        0
176
     1
 90
        0
176
     1
290
     0
176
     1
 90
        1
176
     1
 40
50.0
176
     1
 90
        0
176
     1
290
     0
176
     1
290
     1
176
     1
290
     1
176
     1
290
     0
176
     1
290
     0
176
     1
290
     0
176
     1
290
     0
176
     1
290
     0
176
     1
290
     0
176
     1
 90
       50
176
     1
 40
0.0
176
     1
 40
1.0
176
     1
 90
        0
176
     1
 62
    18
420
        0
176
     1
 90
       50
176
     1
 90
        3
176
     1
 62
     5
420
      255
176
     1
290
     0
176
     1
 90
       50
176
     1
 90
       50
176
     1
 90
       50
176
     1
290
     0
176
     1
 90
       50
176
     1
 62
   256
176
     0
 40
1.0
176
     0
 90
        2
176
     1
  1
strokes_ogs.tif
176
     1
290
     0
176
     1
 40
1.0
176
     1
 40
1.0
176
     1
1001
ACAD
1000
AcDbSavedByObjectVersion
1070
     0
  0
VISUALSTYLE
  5
8104
102
{ACAD_REACTORS
330
80F4
102
}
330
80F4
100
AcDbVisualStyle
  2
ColorChange
 70
    16
177
     3
291
     1
 70
    58
 90
        2
176
     1
 90
        2
176
     1
 90
        3
176
     1
 90
        0
176
     1
 40
0.6
176
     1
 40
30.0
176
     1
 62
     8
420
  8421504
176
     1
 90
        1
176
     1
 90
        4
176
     1
 62
     7
176
     1
 62
   257
176
     1
 90
        1
176
     1
 90
        1
176
     1
 40
1.0
176
     1
 90
        8
176
     1
 62
     8
420
  8421504
176
     1
 40
1.0
176
     1
 90
        1
176
     1
 90
        6
176
     1
 90
        2
176
     1
 62
     7
176
     1
 90
        5
176
     1
 90
        0
176
     1
 90
        0
176
     1
290
     0
176
     1
 90
        1
176
     1
 40
0.0
176
     1
 90
        0
176
     1
290
     0
176
     1
290
     1
176
     1
290
     1
176
     1
290
     0
176
     1
290
     0
176
     1
290
     0
176
     1
290
     0
176
     1
290
     0
176
     1
290
     0
176
     1
 90
       50
176
     1
 40
0.0
176
     1
 40
1.0
176
     1
 90
        0
176
     1
 62
    18
420
        0
176
     1
 90
       50
176
     1
 90
        3
176
     1
 62
     5
420
      255
176
     1
290
     0
176
     1
 90
       50
176
     1
 90
       50
176
     1
 90
       50
176
     1
290
     0
176
     1
 90
       50
176
     1
 62
   256
176
     0
 40
1.0
176
     0
 90
        2
176
     1
  1
strokes_ogs.tif
176
     1
290
     0
176
     1
 40
1.0
176
     1
 40
1.0
176
     1
1001
ACAD
1000
AcDbSavedByObjectVersion
1070
     0
  0
VISUALSTYLE
  5
80FD
102
{ACAD_REACTORS
330
80F4
102
}
330
80F4
100
AcDbVisualStyle
  2
Conceptual
 70
     9
177
     3
291
     0
 70
    58
 90
        3
176
     1
 90
        2
176
     1
 90
        0
176
     1
 90
        0
176
     1
 40
0.6
176
     1
 40
30.0
176
     1
 62
     7
420
 16777215
176
     1
 90
        2
176
     1
 90
        2
176
     1
 62
     7
176
     1
 62
   257
176
     1
 90
        1
176
     1
 90
        1
176
     1
 40
179.0
176
     1
 90
        8
176
     1
 62
     7
176
     1
 40
1.0
176
     1
 90
        1
176
     1
 90
        6
176
     1
 90
        2
176
     1
 62
     7
176
     1
 90
        3
176
     1
 90
        0
176
     1
 90
        0
176
     1
290
     0
176
     1
 90
        1
176
     1
 40
0.0
176
     1
 90
        0
176
     1
290
     0
176
     1
290
     1
176
     1
290
     1
176
     1
290
     0
176
     1
290
     0
176
     1
290
     0
176
     1
290
     0
176
     1
290
     0
176
     1
290
     0
176
     1
 90
       50
176
     1
 40
0.0
176
     1
 40
1.0
176
     1
 90
        0
176
     1
 62
    18
420
        0
176
     1
 90
       50
176
     1
 90
        3
176
     1
 62
     5
420
      255
176
     1
290
     0
176
     1
 90
       50
176
     1
 90
       50
176
     1
 90
       50
176
     1
290
     0
176
     1
 90
       50
176
     1
 62
   256
176
     0
 40
1.0
176
     0
 90
        2
176
     1
  1
strokes_ogs.tif
176
     1
290
     0
176
     1
 40
1.0
176
     1
 40
1.0
176
     1
1001
ACAD
1000
AcDbSavedByObjectVersion
1070
     0
  0
VISUALSTYLE
  5
80FF
102
{ACAD_REACTORS
330
80F4
102
}
330
80F4
100
AcDbVisualStyle
  2
Dim
 70
    11
177
     3
291
     1
 70
    58
 90
        2
176
     1
 90
        2
176
     1
 90
        0
176
     1
 90
        0
176
     1
 40
0.6
176
     1
 40
30.0
176
     1
 62
     7
420
 16777215
176
     1
 90
        1
176
     1
 90
        4
176
     1
 62
     7
176
     1
 62
   257
176
     1
 90
        1
176
     1
 90
        1
176
     1
 40
1.0
176
     1
 90
        8
176
     1
 62
     7
176
     1
 40
1.0
176
     1
 90
        1
176
     1
 90
        6
176
     1
 90
        2
176
     1
 62
     7
176
     1
 90
        5
176
     1
 90
        0
176
     1
 90
        0
176
     1
290
     0
176
     1
 90
        1
176
     1
 40
-50.0
176
     1
 90
        0
176
     1
290
     0
176
     1
290
     1
176
     1
290
     1
176
     1
290
     0
176
     1
290
     0
176
     1
290
     0
176
     1
290
     0
176
     1
290
     0
176
     1
290
     0
176
     1
 90
       50
176
     1
 40
0.0
176
     1
 40
1.0
176
     1
 90
        0
176
     1
 62
    18
420
        0
176
     1
 90
       50
176
     1
 90
        3
176
     1
 62
     5
420
      255
176
     1
290
     0
176
     1
 90
       50
176
     1
 90
       50
176
     1
 90
       50
176
     1
290
     0
176
     1
 90
       50
176
     1
 62
   256
176
     0
 40
1.0
176
     0
 90
        2
176
     1
  1
strokes_ogs.tif
176
     1
290
     0
176
     1
 40
1.0
176
     1
 40
1.0
176
     1
1001
ACAD
1000
AcDbSavedByObjectVersion
1070
     0
  0
VISUALSTYLE
  5
810C
102
{ACAD_REACTORS
330
80F4
102
}
330
80F4
100
AcDbVisualStyle
  2
EdgeColorOff
 70
    22
177
     3
291
     1
 70
    58
 90
        2
176
     0
 90
        2
176
     0
 90
        0
176
     0
 90
        0
176
     0
 40
0.6
176
     0
 40
30.0
176
     0
 62
     7
420
 16777215
176
     0
 90
        1
176
     0
 90
        4
176
     0
 62
     7
176
     0
 62
   257
176
     0
 90
        1
176
     0
 90
        1
176
     0
 40
1.0
176
     0
 90
        8
176
     2
 62
     7
176
     0
 40
1.0
176
     0
 90
        1
176
     0
 90
        6
176
     0
 90
        2
176
     0
 62
     7
176
     0
 90
        5
176
     0
 90
        0
176
     0
 90
        0
176
     0
290
     0
176
     0
 90
        1
176
     0
 40
0.0
176
     0
 90
        0
176
     0
290
     0
176
     0
290
     1
176
     0
290
     1
176
     0
290
     0
176
     0
290
     0
176
     0
290
     0
176
     0
290
     0
176
     0
290
     0
176
     0
290
     0
176
     0
 90
       50
176
     0
 40
0.0
176
     0
 40
1.0
176
     0
 90
        0
176
     0
 62
    18
420
        0
176
     0
 90
       50
176
     0
 90
        3
176
     0
 62
     5
420
      255
176
     0
290
     0
176
     0
 90
       50
176
     0
 90
       50
176
     0
 90
       50
176
     0
290
     0
176
     0
 90
       50
176
     0
 62
   256
176
     0
 40
1.0
176
     0
 90
        2
176
     0
  1
strokes_ogs.tif
176
     0
290
     0
176
     0
 40
1.0
176
     0
 40
1.0
176
     0
1001
ACAD
1000
AcDbSavedByObjectVersion
1070
     0
  0
VISUALSTYLE
  5
8103
102
{ACAD_REACTORS
330
80F4
102
}
330
80F4
100
AcDbVisualStyle
  2
Facepattern
 70
    15
177
     3
291
     1
 70
    58
 90
        2
176
     1
 90
        2
176
     1
 90
        0
176
     1
 90
        0
176
     1
 40
0.6
176
     1
 40
30.0
176
     1
 62
     7
420
 16777215
176
     1
 90
        1
176
     1
 90
        4
176
     1
 62
     7
176
     1
 62
   257
176
     1
 90
        1
176
     1
 90
        1
176
     1
 40
1.0
176
     1
 90
        8
176
     1
 62
     7
176
     1
 40
1.0
176
     1
 90
        1
176
     1
 90
        6
176
     1
 90
        2
176
     1
 62
     7
176
     1
 90
        5
176
     1
 90
        0
176
     1
 90
        0
176
     1
290
     0
176
     1
 90
        1
176
     1
 40
0.0
176
     1
 90
        0
176
     1
290
     0
176
     1
290
     1
176
     1
290
     1
176
     1
290
     0
176
     1
290
     0
176
     1
290
     0
176
     1
290
     0
176
     1
290
     0
176
     1
290
     0
176
     1
 90
       50
176
     1
 40
0.0
176
     1
 40
1.0
176
     1
 90
        0
176
     1
 62
    18
420
        0
176
     1
 90
       50
176
     1
 90
        3
176
     1
 62
     5
420
      255
176
     1
290
     0
176
     1
 90
       50
176
     1
 90
       50
176
     1
 90
       50
176
     1
290
     0
176
     1
 90
       50
176
     1
 62
   256
176
     0
 40
1.0
176
     0
 90
        2
176
     1
  1
strokes_ogs.tif
176
     1
290
     0
176
     1
 40
1.0
176
     1
 40
1.0
176
     1
1001
ACAD
1000
AcDbSavedByObjectVersion
1070
     0
  0
VISUALSTYLE
  5
80F5
102
{ACAD_REACTORS
330
80F4
102
}
330
80F4
100
AcDbVisualStyle
  2
Flat
 70
     0
177
     3
291
     1
 70
    58
 90
        2
176
     1
 90
        1
176
     1
 90
        1
176
     1
 90
        2
176
     1
 40
0.6
176
     1
 40
30.0
176
     1
 62
     7
420
 16777215
176
     1
 90
        0
176
     1
 90
        0
176
     1
 62
     7
176
     1
 62
   257
176
     1
 90
        1
176
     1
 90
        1
176
     1
 40
1.0
176
     1
 90
        8
176
     1
 62
     7
176
     1
 40
1.0
176
     1
 90
        1
176
     1
 90
        6
176
     1
 90
        2
176
     1
 62
     7
176
     1
 90
        5
176
     1
 90
        0
176
     1
 90
        0
176
     1
290
     0
176
     1
 90
       13
176
     1
 40
0.0
176
     1
 90
        0
176
     1
290
     0
176
     1
290
     1
176
     1
290
     1
176
     1
290
     0
176
     1
290
     0
176
     1
290
     0
176
     1
290
     0
176
     1
290
     0
176
     1
290
     0
176
     1
 90
       50
176
     1
 40
0.0
176
     1
 40
1.0
176
     1
 90
        0
176
     1
 62
    18
420
        0
176
     1
 90
       50
176
     1
 90
        3
176
     1
 62
     5
420
      255
176
     1
290
     0
176
     1
 90
       50
176
     1
 90
       50
176
     1
 90
       50
176
     1
290
     0
176
     1
 90
       50
176
     1
 62
   256
176
     0
 40
1.0
176
     0
 90
        2
176
     1
  1
strokes_ogs.tif
176
     1
290
     0
176
     1
 40
1.0
176
     1
 40
1.0
176
     1
1001
ACAD
1000
AcDbSavedByObjectVersion
1070
     0
  0
VISUALSTYLE
  5
80F6
102
{ACAD_REACTORS
330
80F4
102
}
330
80F4
100
AcDbVisualStyle
  2
FlatWithEdges
 70
     1
177
     3
291
     1
 70
    58
 90
        2
176
     1
 90
        1
176
     1
 90
        1
176
     1
 90
        2
176
     1
 40
0.6
176
     1
 40
30.0
176
     1
 62
     7
420
 16777215
176
     1
 90
        1
176
     1
 90
        0
176
     1
 62
     7
176
     1
 62
   257
176
     1
 90
        1
176
     1
 90
        1
176
     1
 40
1.0
176
     1
 90
        0
176
     1
 62
   257
176
     1
 40
1.0
176
     1
 90
        1
176
     1
 90
        6
176
     1
 90
        2
176
     1
 62
     7
176
     1
 90
        5
176
     1
 90
        0
176
     1
 90
        0
176
     1
290
     0
176
     1
 90
       13
176
     1
 40
0.0
176
     1
 90
        0
176
     1
290
     0
176
     1
290
     1
176
     1
290
     1
176
     1
290
     0
176
     1
290
     0
176
     1
290
     0
176
     1
290
     0
176
     1
290
     0
176
     1
290
     0
176
     1
 90
       50
176
     1
 40
0.0
176
     1
 40
1.0
176
     1
 90
        0
176
     1
 62
    18
420
        0
176
     1
 90
       50
176
     1
 90
        3
176
     1
 62
     5
420
      255
176
     1
290
     0
176
     1
 90
       50
176
     1
 90
       50
176
     1
 90
       50
176
     1
290
     0
176
     1
 90
       50
176
     1
 62
   256
176
     0
 40
1.0
176
     0
 90
        2
176
     1
  1
strokes_ogs.tif
176
     1
290
     0
176
     1
 40
1.0
176
     1
 40
1.0
176
     1
1001
ACAD
1000
AcDbSavedByObjectVersion
1070
     0
  0
VISUALSTYLE
  5
80F7
102
{ACAD_REACTORS
330
80F4
102
}
330
80F4
100
AcDbVisualStyle
  2
Gouraud
 70
     2
177
     3
291
     1
 70
    58
 90
        2
176
     1
 90
        2
176
     1
 90
        1
176
     1
 90
        2
176
     1
 40
0.6
176
     1
 40
30.0
176
     1
 62
     7
420
 16777215
176
     1
 90
        0
176
     1
 90
        0
176
     1
 62
     7
176
     1
 62
   257
176
     1
 90
        1
176
     1
 90
        1
176
     1
 40
1.0
176
     1
 90
        0
176
     1
 62
     7
176
     1
 40
1.0
176
     1
 90
        1
176
     1
 90
        6
176
     1
 90
        2
176
     1
 62
     7
176
     1
 90
        5
176
     1
 90
        0
176
     1
 90
        0
176
     1
290
     0
176
     1
 90
       13
176
     1
 40
0.0
176
     1
 90
        0
176
     1
290
     0
176
     1
290
     1
176
     1
290
     1
176
     1
290
     0
176
     1
290
     0
176
     1
290
     0
176
     1
290
     0
176
     1
290
     0
176
     1
290
     0
176
     1
 90
       50
176
     1
 40
0.0
176
     1
 40
1.0
176
     1
 90
        0
176
     1
 62
    18
420
        0
176
     1
 90
       50
176
     1
 90
        3
176
     1
 62
     5
420
      255
176
     1
290
     0
176
     1
 90
       50
176
     1
 90
       50
176
     1
 90
       50
176
     1
290
     0
176
     1
 90
       50
176
     1
 62
   256
176
     0
 40
1.0
176
     0
 90
        2
176
     1
  1
strokes_ogs.tif
176
     1
290
     0
176
     1
 40
1.0
176
     1
 40
1.0
176
     1
1001
ACAD
1000
AcDbSavedByObjectVersion
1070
     0
  0
VISUALSTYLE
  5
80F8
102
{ACAD_REACTORS
330
80F4
102
}
330
80F4
100
AcDbVisualStyle
  2
GouraudWithEdges
 70
     3
177
     3
291
     1
 70
    58
 90
        2
176
     1
 90
        2
176
     1
 90
        1
176
     1
 90
        2
176
     1
 40
0.6
176
     1
 40
30.0
176
     1
 62
     7
420
 16777215
176
     1
 90
        1
176
     1
 90
        0
176
     1
 62
     7
176
     1
 62
   257
176
     1
 90
        1
176
     1
 90
        1
176
     1
 40
1.0
176
     1
 90
        0
176
     1
 62
   257
176
     1
 40
1.0
176
     1
 90
        1
176
     1
 90
        6
176
     1
 90
        2
176
     1
 62
     7
176
     1
 90
        5
176
     1
 90
        0
176
     1
 90
        0
176
     1
290
     0
176
     1
 90
       13
176
     1
 40
0.0
176
     1
 90
        0
176
     1
290
     0
176
     1
290
     1
176
     1
290
     1
176
     1
290
     0
176
     1
290
     0
176
     1
290
     0
176
     1
290
     0
176
     1
290
     0
176
     1
290
     0
176
     1
 90
       50
176
     1
 40
0.0
176
     1
 40
1.0
176
     1
 90
        0
176
     1
 62
    18
420
        0
176
     1
 90
       50
176
     1
 90
        3
176
     1
 62
     5
420
      255
176
     1
290
     0
176
     1
 90
       50
176
     1
 90
       50
176
     1
 90
       50
176
     1
290
     0
176
     1
 90
       50
176
     1
 62
   256
176
     0
 40
1.0
176
     0
 90
        2
176
     1
  1
strokes_ogs.tif
176
     1
290
     0
176
     1
 40
1.0
176
     1
 40
1.0
176
     1
1001
ACAD
1000
AcDbSavedByObjectVersion
1070
     0
  0
VISUALSTYLE
  5
80FC
102
{ACAD_REACTORS
330
80F4
102
}
330
80F4
100
AcDbVisualStyle
  2
Hidden
 70
     6
177
     3
291
     0
 70
    58
 90
        1
176
     1
 90
        2
176
     1
 90
        2
176
     1
 90
        0
176
     1
 40
0.6
176
     1
 40
30.0
176
     1
 62
     7
420
 16777215
176
     1
 90
        2
176
     1
 90
        2
176
     1
 62
     7
176
     1
 62
   257
176
     1
 90
        2
176
     1
 90
        1
176
     1
 40
40.0
176
     1
 90
        0
176
     1
 62
   257
176
     1
 40
1.0
176
     1
 90
        1
176
     1
 90
        6
176
     1
 90
        2
176
     1
 62
     7
176
     1
 90
        3
176
     1
 90
        0
176
     1
 90
        0
176
     1
290
     0
176
     1
 90
        1
176
     1
 40
0.0
176
     1
 90
        0
176
     1
290
     0
176
     1
290
     1
176
     1
290
     1
176
     1
290
     0
176
     1
290
     0
176
     1
290
     0
176
     1
290
     0
176
     1
290
     0
176
     1
290
     0
176
     1
 90
       50
176
     1
 40
0.0
176
     1
 40
1.0
176
     1
 90
        0
176
     1
 62
    18
420
        0
176
     1
 90
       50
176
     1
 90
        3
176
     1
 62
     5
420
      255
176
     1
290
     0
176
     1
 90
       50
176
     1
 90
       50
176
     1
 90
       50
176
     1
290
     0
176
     1
 90
       50
176
     1
 62
   256
176
     0
 40
1.0
176
     0
 90
        2
176
     1
  1
strokes_ogs.tif
176
     1
290
     0
176
     1
 40
1.0
176
     1
 40
1.0
176
     1
1001
ACAD
1000
AcDbSavedByObjectVersion
1070
     0
  0
VISUALSTYLE
  5
810A
102
{ACAD_REACTORS
330
80F4
102
}
330
80F4
100
AcDbVisualStyle
  2
JitterOff
 70
    20
177
     3
291
     1
 70
    58
 90
        2
176
     0
 90
        2
176
     0
 90
        0
176
     0
 90
        0
176
     0
 40
0.6
176
     0
 40
30.0
176
     0
 62
     7
420
 16777215
176
     0
 90
        1
176
     0
 90
        4
176
     0
 62
     7
176
     0
 62
   257
176
     0
 90
        1
176
     0
 90
        1
176
     0
 40
1.0
176
     0
 90
       10
176
     2
 62
     7
176
     0
 40
1.0
176
     0
 90
        1
176
     0
 90
        6
176
     0
 90
        2
176
     0
 62
     7
176
     0
 90
        5
176
     0
 90
        0
176
     0
 90
        0
176
     0
290
     0
176
     0
 90
        1
176
     0
 40
0.0
176
     0
 90
        0
176
     0
290
     0
176
     0
290
     1
176
     0
290
     1
176
     0
290
     0
176
     0
290
     0
176
     0
290
     0
176
     0
290
     0
176
     0
290
     0
176
     0
290
     0
176
     0
 90
       50
176
     0
 40
0.0
176
     0
 40
1.0
176
     0
 90
        0
176
     0
 62
    18
420
        0
176
     0
 90
       50
176
     0
 90
        3
176
     0
 62
     5
420
      255
176
     0
290
     0
176
     0
 90
       50
176
     0
 90
       50
176
     0
 90
       50
176
     0
290
     0
176
     0
 90
       50
176
     0
 62
   256
176
     0
 40
1.0
176
     0
 90
        2
176
     0
  1
strokes_ogs.tif
176
     0
290
     0
176
     0
 40
1.0
176
     0
 40
1.0
176
     0
1001
ACAD
1000
AcDbSavedByObjectVersion
1070
     0
  0
VISUALSTYLE
  5
8102
102
{ACAD_REACTORS
330
80F4
102
}
330
80F4
100
AcDbVisualStyle
  2
Linepattern
 70
    14
177
     3
291
     1
 70
    58
 90
        2
176
     1
 90
        2
176
     1
 90
        0
176
     1
 90
        0
176
     1
 40
0.6
176
     1
 40
30.0
176
     1
 62
     7
420
 16777215
176
     1
 90
        1
176
     1
 90
        4
176
     1
 62
     7
176
     1
 62
   257
176
     1
 90
        7
176
     1
 90
        7
176
     1
 40
1.0
176
     1
 90
        8
176
     1
 62
     7
176
     1
 40
1.0
176
     1
 90
        1
176
     1
 90
        6
176
     1
 90
        2
176
     1
 62
     7
176
     1
 90
        5
176
     1
 90
        0
176
     1
 90
        0
176
     1
290
     0
176
     1
 90
        1
176
     1
 40
0.0
176
     1
 90
        0
176
     1
290
     0
176
     1
290
     1
176
     1
290
     1
176
     1
290
     0
176
     1
290
     0
176
     1
290
     0
176
     1
290
     0
176
     1
290
     0
176
     1
290
     0
176
     1
 90
       50
176
     1
 40
0.0
176
     1
 40
1.0
176
     1
 90
        0
176
     1
 62
    18
420
        0
176
     1
 90
       50
176
     1
 90
        3
176
     1
 62
     5
420
      255
176
     1
290
     0
176
     1
 90
       50
176
     1
 90
       50
176
     1
 90
       50
176
     1
290
     0
176
     1
 90
       50
176
     1
 62
   256
176
     0
 40
1.0
176
     0
 90
        2
176
     1
  1
strokes_ogs.tif
176
     1
290
     0
176
     1
 40
1.0
176
     1
 40
1.0
176
     1
1001
ACAD
1000
AcDbSavedByObjectVersion
1070
     0
  0
VISUALSTYLE
  5
810B
102
{ACAD_REACTORS
330
80F4
102
}
330
80F4
100
AcDbVisualStyle
  2
OverhangOff
 70
    21
177
     3
291
     1
 70
    58
 90
        2
176
     0
 90
        2
176
     0
 90
        0
176
     0
 90
        0
176
     0
 40
0.6
176
     0
 40
30.0
176
     0
 62
     7
420
 16777215
176
     0
 90
        1
176
     0
 90
        4
176
     0
 62
     7
176
     0
 62
   257
176
     0
 90
        1
176
     0
 90
        1
176
     0
 40
1.0
176
     0
 90
        9
176
     2
 62
     7
176
     0
 40
1.0
176
     0
 90
        1
176
     0
 90
        6
176
     0
 90
        2
176
     0
 62
     7
176
     0
 90
        5
176
     0
 90
        0
176
     0
 90
        0
176
     0
290
     0
176
     0
 90
        1
176
     0
 40
0.0
176
     0
 90
        0
176
     0
290
     0
176
     0
290
     1
176
     0
290
     1
176
     0
290
     0
176
     0
290
     0
176
     0
290
     0
176
     0
290
     0
176
     0
290
     0
176
     0
290
     0
176
     0
 90
       50
176
     0
 40
0.0
176
     0
 40
1.0
176
     0
 90
        0
176
     0
 62
    18
420
        0
176
     0
 90
       50
176
     0
 90
        3
176
     0
 62
     5
420
      255
176
     0
290
     0
176
     0
 90
       50
176
     0
 90
       50
176
     0
 90
       50
176
     0
290
     0
176
     0
 90
       50
176
     0
 62
   256
176
     0
 40
1.0
176
     0
 90
        2
176
     0
  1
strokes_ogs.tif
176
     0
290
     0
176
     0
 40
1.0
176
     0
 40
1.0
176
     0
1001
ACAD
1000
AcDbSavedByObjectVersion
1070
     0
  0
VISUALSTYLE
  5
80FE
102
{ACAD_REACTORS
330
80F4
102
}
330
80F4
100
AcDbVisualStyle
  2
Realistic
 70
     8
177
     3
291
     0
 70
    58
 90
        2
176
     1
 90
        3
176
     1
 90
        0
176
     1
 90
        2
176
     1
 40
0.6
176
     1
 40
30.0
176
     1
 62
     7
420
 16777215
176
     1
 90
        0
176
     1
 90
        0
176
     1
 62
     7
176
     1
 62
   257
176
     1
 90
        1
176
     1
 90
        1
176
     1
 40
1.0
176
     1
 90
        8
176
     1
 62
   257
176
     1
 40
1.0
176
     1
 90
        1
176
     1
 90
        6
176
     1
 90
        2
176
     1
 62
     7
176
     1
 90
        3
176
     1
 90
        0
176
     1
 90
        0
176
     1
290
     0
176
     1
 90
       13
176
     1
 40
0.0
176
     1
 90
        0
176
     1
290
     0
176
     1
290
     1
176
     1
290
     1
176
     1
290
     0
176
     1
290
     0
176
     1
290
     0
176
     1
290
     0
176
     1
290
     0
176
     1
290
     0
176
     1
 90
       50
176
     1
 40
0.0
176
     1
 40
1.0
176
     1
 90
        0
176
     1
 62
    18
420
        0
176
     1
 90
       50
176
     1
 90
        3
176
     1
 62
     5
420
      255
176
     1
290
     0
176
     1
 90
       50
176
     1
 90
       50
176
     1
 90
       50
176
     1
290
     0
176
     1
 90
       50
176
     1
 62
   256
176
     0
 40
1.0
176
     0
 90
        2
176
     1
  1
strokes_ogs.tif
176
     1
290
     0
176
     1
 40
1.0
176
     1
 40
1.0
176
     1
1001
ACAD
1000
AcDbSavedByObjectVersion
1070
     0
  0
VISUALSTYLE
  5
8109
102
{ACAD_REACTORS
330
80F4
102
}
330
80F4
100
AcDbVisualStyle
  2
Shaded
 70
    27
177
     3
291
     0
 70
    58
 90
        2
176
     1
 90
        2
176
     1
 90
        1
176
     1
 90
        2
176
     1
 40
0.6
176
     1
 40
30.0
176
     1
 62
     7
420
 16777215
176
     1
 90
        0
176
     1
 90
        4
176
     1
 62
     7
176
     1
 62
   257
176
     1
 90
        1
176
     1
 90
        1
176
     1
 40
1.0
176
     1
 90
        8
176
     1
 62
   257
176
     1
 40
1.0
176
     1
 90
        1
176
     1
 90
        6
176
     1
 90
        2
176
     1
 62
     8
420
  7895160
176
     1
 90
        3
176
     1
 90
        0
176
     1
 90
        0
176
     1
290
     0
176
     1
 90
        5
176
     1
 40
0.0
176
     1
 90
        0
176
     1
290
     0
176
     1
290
     1
176
     1
290
     1
176
     1
290
     0
176
     1
290
     0
176
     1
290
     0
176
     1
290
     0
176
     1
290
     0
176
     1
290
     0
176
     1
 90
       50
176
     1
 40
0.0
176
     1
 40
1.0
176
     1
 90
        0
176
     1
 62
    18
420
        0
176
     1
 90
       50
176
     1
 90
        3
176
     1
 62
     5
420
      255
176
     1
290
     0
176
     1
 90
       50
176
     1
 90
       50
176
     1
 90
       50
176
     1
290
     0
176
     1
 90
       50
176
     1
 62
   256
176
     0
 40
1.0
176
     0
 90
        2
176
     1
  1
strokes_ogs.tif
176
     1
290
     0
176
     1
 40
1.0
176
     1
 40
1.0
176
     1
1001
ACAD
1000
AcDbSavedByObjectVersion
1070
     0
  0
VISUALSTYLE
  5
8108
102
{ACAD_REACTORS
330
80F4
102
}
330
80F4
100
AcDbVisualStyle
  2
Shaded with edges
 70
    26
177
     3
291
     0
 70
    58
 90
        2
176
     1
 90
        2
176
     1
 90
        1
176
     1
 90
        2
176
     1
 40
0.6
176
     1
 40
30.0
176
     1
 62
     7
420
 16777215
176
     1
 90
        1
176
     1
 90
        2
176
     1
 62
     7
176
     1
 62
   257
176
     1
 90
        2
176
     1
 90
        1
176
     1
 40
1.0
176
     1
 90
        8
176
     1
 62
   257
176
     1
 40
1.0
176
     1
 90
        1
176
     1
 90
        6
176
     1
 90
        2
176
     1
 62
     7
176
     1
 90
        3
176
     1
 90
        0
176
     1
 90
        0
176
     1
290
     0
176
     1
 90
        5
176
     1
 40
0.0
176
     1
 90
        0
176
     1
290
     0
176
     1
290
     1
176
     1
290
     1
176
     1
290
     0
176
     1
290
     0
176
     1
290
     0
176
     1
290
     0
176
     1
290
     0
176
     1
290
     0
176
     1
 90
       50
176
     1
 40
0.0
176
     1
 40
1.0
176
     1
 90
        0
176
     1
 62
    18
420
        0
176
     1
 90
       50
176
     1
 90
        3
176
     1
 62
     5
420
      255
176
     1
290
     0
176
     1
 90
       50
176
     1
 90
       50
176
     1
 90
       50
176
     1
290
     0
176
     1
 90
       50
176
     1
 62
   256
176
     0
 40
1.0
176
     0
 90
        2
176
     1
  1
strokes_ogs.tif
176
     1
290
     0
176
     1
 40
1.0
176
     1
 40
1.0
176
     1
1001
ACAD
1000
AcDbSavedByObjectVersion
1070
     0
  0
VISUALSTYLE
  5
8105
102
{ACAD_REACTORS
330
80F4
102
}
330
80F4
100
AcDbVisualStyle
  2
Shades of Gray
 70
    23
177
     3
291
     0
 70
    58
 90
        2
176
     1
 90
        2
176
     1
 90
        3
176
     1
 90
        0
176
     1
 40
0.6
176
     1
 40
30.0
176
     1
 62
     7
420
 16777215
176
     1
 90
        2
176
     1
 90
        2
176
     1
 62
     7
176
     1
 62
     7
176
     1
 90
        1
176
     1
 90
        1
176
     1
 40
40.0
176
     1
 90
        8
176
     1
 62
     7
176
     1
 40
1.0
176
     1
 90
        1
176
     1
 90
        6
176
     1
 90
        2
176
     1
 62
     7
176
     1
 90
        3
176
     1
 90
        0
176
     1
 90
        0
176
     1
290
     0
176
     1
 90
        1
176
     1
 40
0.0
176
     1
 90
        0
176
     1
290
     0
176
     1
290
     1
176
     1
290
     1
176
     1
290
     0
176
     1
290
     0
176
     1
290
     0
176
     1
290
     0
176
     1
290
     0
176
     1
290
     0
176
     1
 90
       50
176
     1
 40
0.0
176
     1
 40
1.0
176
     1
 90
        0
176
     1
 62
    18
420
        0
176
     1
 90
       50
176
     1
 90
        3
176
     1
 62
     5
420
      255
176
     1
290
     0
176
     1
 90
       50
176
     1
 90
       50
176
     1
 90
       50
176
     1
290
     0
176
     1
 90
       50
176
     1
 62
   256
176
     0
 40
1.0
176
     0
 90
        2
176
     1
  1
strokes_ogs.tif
176
     1
290
     0
176
     1
 40
1.0
176
     1
 40
1.0
176
     1
1001
ACAD
1000
AcDbSavedByObjectVersion
1070
     0
  0
VISUALSTYLE
  5
8106
102
{ACAD_REACTORS
330
80F4
102
}
330
80F4
100
AcDbVisualStyle
  2
Sketchy
 70
    24
177
     3
291
     0
 70
    58
 90
        1
176
     1
 90
        2
176
     1
 90
        2
176
     1
 90
        0
176
     1
 40
0.6
176
     1
 40
30.0
176
     1
 62
     7
420
 16777215
176
     1
 90
        2
176
     1
 90
        2
176
     1
 62
     7
176
     1
 62
     7
176
     1
 90
        1
176
     1
 90
        1
176
     1
 40
40.0
176
     1
 90
       11
176
     1
 62
     7
176
     1
 40
1.0
176
     1
 90
        1
176
     1
 90
        6
176
     1
 90
        2
176
     1
 62
     7
176
     1
 90
        6
176
     1
 90
        0
176
     1
 90
        0
176
     1
290
     0
176
     1
 90
        1
176
     1
 40
0.0
176
     1
 90
        0
176
     1
290
     0
176
     1
290
     1
176
     1
290
     1
176
     1
290
     0
176
     1
290
     0
176
     1
290
     0
176
     1
290
     0
176
     1
290
     0
176
     1
290
     0
176
     1
 90
       50
176
     1
 40
0.0
176
     1
 40
1.0
176
     1
 90
        0
176
     1
 62
    18
420
        0
176
     1
 90
       50
176
     1
 90
        3
176
     1
 62
     5
420
      255
176
     1
290
     0
176
     1
 90
       50
176
     1
 90
       50
176
     1
 90
       50
176
     1
290
     0
176
     1
 90
       50
176
     1
 62
   256
176
     0
 40
1.0
176
     0
 90
        2
176
     1
  1
strokes_ogs.tif
176
     1
290
     0
176
     1
 40
1.0
176
     1
 40
1.0
176
     1
1001
ACAD
1000
AcDbSavedByObjectVersion
1070
     0
  0
VISUALSTYLE
  5
8101
102
{ACAD_REACTORS
330
80F4
102
}
330
80F4
100
AcDbVisualStyle
  2
Thicken
 70
    13
177
     3
291
     1
 70
    58
 90
        2
176
     1
 90
        2
176
     1
 90
        0
176
     1
 90
        0
176
     1
 40
0.6
176
     1
 40
30.0
176
     1
 62
     7
420
 16777215
176
     1
 90
        1
176
     1
 90
        4
176
     1
 62
     7
176
     1
 62
   257
176
     1
 90
        1
176
     1
 90
        1
176
     1
 40
1.0
176
     1
 90
       12
176
     1
 62
     7
176
     1
 40
1.0
176
     1
 90
        1
176
     1
 90
        6
176
     1
 90
        2
176
     1
 62
     7
176
     1
 90
        5
176
     1
 90
        0
176
     1
 90
        0
176
     1
290
     0
176
     1
 90
        1
176
     1
 40
0.0
176
     1
 90
        0
176
     1
290
     0
176
     1
290
     1
176
     1
290
     1
176
     1
290
     0
176
     1
290
     0
176
     1
290
     0
176
     1
290
     0
176
     1
290
     0
176
     1
290
     0
176
     1
 90
       50
176
     1
 40
0.0
176
     1
 40
1.0
176
     1
 90
        0
176
     1
 62
    18
420
        0
176
     1
 90
       50
176
     1
 90
        3
176
     1
 62
     5
420
      255
176
     1
290
     0
176
     1
 90
       50
176
     1
 90
       50
176
     1
 90
       50
176
     1
290
     0
176
     1
 90
       50
176
     1
 62
   256
176
     0
 40
1.0
176
     0
 90
        2
176
     1
  1
strokes_ogs.tif
176
     1
290
     0
176
     1
 40
1.0
176
     1
 40
1.0
176
     1
1001
ACAD
1000
AcDbSavedByObjectVersion
1070
     0
  0
VISUALSTYLE
  5
80FB
102
{ACAD_REACTORS
330
80F4
102
}
330
80F4
100
AcDbVisualStyle
  2
Wireframe
 70
     5
177
     3
291
     0
 70
    58
 90
        0
176
     1
 90
        2
176
     1
 90
        0
176
     1
 90
        0
176
     1
 40
0.6
176
     1
 40
30.0
176
     1
 62
     7
420
 16777215
176
     1
 90
        1
176
     1
 90
        4
176
     1
 62
     7
176
     1
 62
   257
176
     1
 90
        1
176
     1
 90
        1
176
     1
 40
1.0
176
     1
 90
        0
176
     1
 62
   257
176
     1
 40
1.0
176
     1
 90
        1
176
     1
 90
        6
176
     1
 90
        2
176
     1
 62
     7
176
     1
 90
        3
176
     1
 90
        0
176
     1
 90
        0
176
     1
290
     0
176
     1
 90
        1
176
     1
 40
0.0
176
     1
 90
        0
176
     1
290
     0
176
     1
290
     1
176
     1
290
     1
176
     1
290
     0
176
     1
290
     0
176
     1
290
     0
176
     1
290
     0
176
     1
290
     0
176
     1
290
     0
176
     1
 90
       50
176
     1
 40
0.0
176
     1
 40
1.0
176
     1
 90
        0
176
     1
 62
    18
420
        0
176
     1
 90
       50
176
     1
 90
        3
176
     1
 62
     5
420
      255
176
     1
290
     0
176
     1
 90
       50
176
     1
 90
       50
176
     1
 90
       50
176
     1
290
     0
176
     1
 90
       50
176
     1
 62
   256
176
     0
 40
1.0
176
     0
 90
        2
176
     1
  1
strokes_ogs.tif
176
     1
290
     0
176
     1
 40
1.0
176
     1
 40
1.0
176
     1
1001
ACAD
1000
AcDbSavedByObjectVersion
1070
     0
  0
VISUALSTYLE
  5
8107
102
{ACAD_REACTORS
330
80F4
102
}
330
80F4
100
AcDbVisualStyle
  2
X-Ray
 70
    25
177
     3
291
     0
 70
    58
 90
        2
176
     1
 90
        2
176
     1
 90
        1
176
     1
 90
        1
176
     1
 40
0.5
176
     1
 40
30.0
176
     1
 62
     7
420
 16777215
176
     1
 90
        1
176
     1
 90
        0
176
     1
 62
     7
176
     1
 62
   257
176
     1
 90
        1
176
     1
 90
        1
176
     1
 40
1.0
176
     1
 90
        8
176
     1
 62
     7
176
     1
 40
1.0
176
     1
 90
        1
176
     1
 90
        6
176
     1
 90
        2
176
     1
 62
     7
176
     1
 90
        3
176
     1
 90
        0
176
     1
 90
        0
176
     1
290
     0
176
     1
 90
       13
176
     1
 40
0.0
176
     1
 90
        0
176
     1
290
     0
176
     1
290
     1
176
     1
290
     1
176
     1
290
     0
176
     1
290
     0
176
     1
290
     0
176
     1
290
     0
176
     1
290
     0
176
     1
290
     0
176
     1
 90
       50
176
     1
 40
0.0
176
     1
 40
1.0
176
     1
 90
        0
176
     1
 62
    18
420
        0
176
     1
 90
       50
176
     1
 90
        3
176
     1
 62
     5
420
      255
176
     1
290
     0
176
     1
 90
       50
176
     1
 90
       50
176
     1
 90
       50
176
     1
290
     0
176
     1
 90
       50
176
     1
 62
   256
176
     0
 40
1.0
176
     0
 90
        2
176
     1
  1
strokes_ogs.tif
176
     1
290
     0
176
     1
 40
1.0
176
     1
 40
1.0
176
     1
1001
ACAD
1000
AcDbSavedByObjectVersion
1070
     0
  0
DICTIONARYVAR
  5
84C4
102
{ACAD_REACTORS
330
84BE
102
}
330
84BE
100
DictionaryVariables
280
     0
  1
1:1
  0
DICTIONARYVAR
  5
84C0
102
{ACAD_REACTORS
330
84BE
102
}
330
84BE
100
DictionaryVariables
280
     0
  1
STANDARD
  0
DICTIONARYVAR
  5
84BF
102
{ACAD_REACTORS
330
84BE
102
}
330
84BE
100
DictionaryVariables
280
     0
  1
STANDARD
  0
DICTIONARYVAR
  5
84C1
102
{ACAD_REACTORS
330
84BE
102
}
330
84BE
100
DictionaryVariables
280
     0
  1
Metric50
  0
DICTIONARYVAR
  5
84C2
102
{ACAD_REACTORS
330
84BE
102
}
330
84BE
100
DictionaryVariables
280
     0
  1
Metric50
  0
DICTIONARYVAR
  5
84C6
102
{ACAD_REACTORS
330
84BE
102
}
330
84BE
100
DictionaryVariables
280
     0
  1
1
  0
DICTIONARYVAR
  5
84C7
102
{ACAD_REACTORS
330
84BE
102
}
330
84BE
100
DictionaryVariables
280
     0
  1
15
  0
DICTIONARYVAR
  5
84C5
102
{ACAD_REACTORS
330
84BE
102
}
330
84BE
100
DictionaryVariables
280
     0
  1
0
  0
DICTIONARYVAR
  5
84CC
102
{ACAD_REACTORS
330
84BE
102
}
330
84BE
100
DictionaryVariables
280
     0
  1
0
  0
DICTIONARYVAR
  5
84C3
102
{ACAD_REACTORS
330
84BE
102
}
330
84BE
100
DictionaryVariables
280
     0
  1
0
  0
DICTIONARY
  5
84D7
102
{ACAD_REACTORS
330
84D5
102
}
330
84D5
100
AcDbDictionary
281
     1
  0
DICTIONARY
  5
84D6
102
{ACAD_REACTORS
330
84D5
102
}
330
84D5
100
AcDbDictionary
281
     1
  3
2043188663168
350
84D0
  3
2043188663184
350
84D1
  3
2043188663200
350
84D2
  3
2043188663216
350
84D3
  3
2043188663232
350
84D4
  0
DICTIONARY
  5
84DA
330
8127
100
AcDbDictionary
280
     1
281
     1
  3
ACAD_XREC_ROUNDTRIP
360
84DB
  0
DICTIONARY
  5
80E5
330
80E4
100
AcDbDictionary
280
     1
281
     1
  3
BUMPTILE
360
80E7
  3
DIFFUSETILE
360
80E6
  3
OPACITYTILE
360
80EA
  3
REFLECTIONTILE
360
80E9
  3
REFRACTIONTILE
360
80EB
  3
SPECULARTILE
360
80E8
  0
DICTIONARY
  5
80DD
330
80DC
100
AcDbDictionary
280
     1
281
     1
  3
BUMPTILE
360
80DF
  3
DIFFUSETILE
360
80DE
  3
OPACITYTILE
360
80E2
  3
REFLECTIONTILE
360
80E1
  3
REFRACTIONTILE
360
80E3
  3
SPECULARTILE
360
80E0
  0
DICTIONARY
  5
80ED
330
80EC
100
AcDbDictionary
280
     1
281
     1
  3
BUMPTILE
360
80EF
  3
DIFFUSETILE
360
80EE
  3
OPACITYTILE
360
80F2
  3
REFLECTIONTILE
360
80F1
  3
REFRACTIONTILE
360
80F3
  3
SPECULARTILE
360
80F0
  0
DICTIONARY
  5
84D8
330
8125
100
AcDbDictionary
280
     1
281
     1
  3
ACAD_XREC_ROUNDTRIP
360
84D9
  0
DICTIONARY
  5
84CD
330
810F
100
AcDbDictionary
280
     1
281
     1
  3
ACAD_ROUNDTRIP_2008_TABLESTYLE_CELLSTYLEMAP
360
84CE
  0
XRECORD
  5
84D0
102
{ACAD_REACTORS
330
84D6
102
}
330
84D6
100
AcDbXrecord
280
     1
  1
AcDb_Thumbnail_Schema
102
{ATTRRECORD
341
84D1
  2
AcDbDs::TreatedAsObjectData
280
     1
291
     1
102
ATTRRECORD}
102
{ATTRRECORD
341
84D2
  2
AcDbDs::Legacy
280
     1
291
     1
102
ATTRRECORD}
  2
AcDbDs::ID
280
    10
 91
        8
102
{ATTRRECORD
341
84D3
  2
AcDs:Indexable
280
     1
291
     1
102
ATTRRECORD}
102
{ATTRRECORD
341
84D4
  2
AcDbDs::HandleAttribute
280
     7
282
     1
102
ATTRRECORD}
  2
Thumbnail_Data
280
    15
 91
        0
  0
XRECORD
  5
84D1
102
{ACAD_REACTORS
330
84D6
102
}
330
84D6
100
AcDbXrecord
280
     1
  1
AcDbDs::TreatedAsObjectDataSchema
  2
AcDbDs::TreatedAsObjectData
280
     1
 91
        0
  0
XRECORD
  5
84D2
102
{ACAD_REACTORS
330
84D6
102
}
330
84D6
100
AcDbXrecord
280
     1
  1
AcDbDs::LegacySchema
  2
AcDbDs::Legacy
280
     1
 91
        0
  0
XRECORD
  5
84D3
102
{ACAD_REACTORS
330
84D6
102
}
330
84D6
100
AcDbXrecord
280
     1
  1
AcDbDs::IndexedPropertySchema
  2
AcDs:Indexable
280
     1
 91
        0
  0
XRECORD
  5
84D4
102
{ACAD_REACTORS
330
84D6
102
}
330
84D6
100
AcDbXrecord
280
     1
  1
AcDbDs::HandleAttributeSchema
  2
AcDbDs::HandleAttribute
280
     7
 91
        1
284
     1
  0
XRECORD
  5
84DB
102
{ACAD_REACTORS
330
84DA
102
}
330
84DA
100
AcDbXrecord
280
     1
102
DISPLAYNAME
  1
Metric50
102
FLAGS
 90
        0
  0
XRECORD
  5
80E7
102
{ACAD_REACTORS
330
80E5
102
}
330
80E5
100
AcDbXrecord
280
     1
270
     1
271
     1
  0
XRECORD
  5
80E6
102
{ACAD_REACTORS
330
80E5
102
}
330
80E5
100
AcDbXrecord
280
     1
270
     1
271
     1
  0
XRECORD
  5
80EA
102
{ACAD_REACTORS
330
80E5
102
}
330
80E5
100
AcDbXrecord
280
     1
270
     1
271
     1
  0
XRECORD
  5
80E9
102
{ACAD_REACTORS
330
80E5
102
}
330
80E5
100
AcDbXrecord
280
     1
270
     1
271
     1
  0
XRECORD
  5
80EB
102
{ACAD_REACTORS
330
80E5
102
}
330
80E5
100
AcDbXrecord
280
     1
270
     1
271
     1
  0
XRECORD
  5
80E8
102
{ACAD_REACTORS
330
80E5
102
}
330
80E5
100
AcDbXrecord
280
     1
270
     1
271
     1
  0
XRECORD
  5
80DF
102
{ACAD_REACTORS
330
80DD
102
}
330
80DD
100
AcDbXrecord
280
     1
270
     1
271
     1
  0
XRECORD
  5
80DE
102
{ACAD_REACTORS
330
80DD
102
}
330
80DD
100
AcDbXrecord
280
     1
270
     1
271
     1
  0
XRECORD
  5
80E2
102
{ACAD_REACTORS
330
80DD
102
}
330
80DD
100
AcDbXrecord
280
     1
270
     1
271
     1
  0
XRECORD
  5
80E1
102
{ACAD_REACTORS
330
80DD
102
}
330
80DD
100
AcDbXrecord
280
     1
270
     1
271
     1
  0
XRECORD
  5
80E3
102
{ACAD_REACTORS
330
80DD
102
}
330
80DD
100
AcDbXrecord
280
     1
270
     1
271
     1
  0
XRECORD
  5
80E0
102
{ACAD_REACTORS
330
80DD
102
}
330
80DD
100
AcDbXrecord
280
     1
270
     1
271
     1
  0
XRECORD
  5
80EF
102
{ACAD_REACTORS
330
80ED
102
}
330
80ED
100
AcDbXrecord
280
     1
270
     1
271
     1
  0
XRECORD
  5
80EE
102
{ACAD_REACTORS
330
80ED
102
}
330
80ED
100
AcDbXrecord
280
     1
270
     1
271
     1
  0
XRECORD
  5
80F2
102
{ACAD_REACTORS
330
80ED
102
}
330
80ED
100
AcDbXrecord
280
     1
270
     1
271
     1
  0
XRECORD
  5
80F1
102
{ACAD_REACTORS
330
80ED
102
}
330
80ED
100
AcDbXrecord
280
     1
270
     1
271
     1
  0
XRECORD
  5
80F3
102
{ACAD_REACTORS
330
80ED
102
}
330
80ED
100
AcDbXrecord
280
     1
270
     1
271
     1
  0
XRECORD
  5
80F0
102
{ACAD_REACTORS
330
80ED
102
}
330
80ED
100
AcDbXrecord
280
     1
270
     1
271
     1
  0
XRECORD
  5
84D9
102
{ACAD_REACTORS
330
84D8
102
}
330
84D8
100
AcDbXrecord
280
     1
102
DISPLAYNAME
  1
Metric50
102
FLAGS
 90
        0
  0
CELLSTYLEMAP
  5
84CE
102
{ACAD_REACTORS
330
84CD
102
}
330
84CD
100
AcDbCellStyleMap
 90
        3
300
CELLSTYLE
  1
TABLEFORMAT_BEGIN
 90
        5
170
     1
 91
        0
 92
    32768
 62
   257
 93
        1
300
CONTENTFORMAT
  1
CONTENTFORMAT_BEGIN
 90
        0
 91
        0
 92
      512
 93
        0
300

 40
0.0
140
1.0
 94
        5
 62
     0
340
10
144
6.0
309
CONTENTFORMAT_END
171
     1
301
MARGIN
  1
CELLMARGIN_BEGIN
 40
1.5
 40
1.5
 40
1.5
 40
1.5
 40
4.5
 40
4.5
309
CELLMARGIN_END
 94
        6
 95
        1
302
GRIDFORMAT
  1
GRIDFORMAT_BEGIN
 90
        0
 91
        1
 62
     0
 92
       -2
340
0
 93
        0
 40
1.125
309
GRIDFORMAT_END
 95
        2
302
GRIDFORMAT
  1
GRIDFORMAT_BEGIN
 90
        0
 91
        1
 62
     0
 92
       -2
340
0
 93
        0
 40
1.125
309
GRIDFORMAT_END
 95
        4
302
GRIDFORMAT
  1
GRIDFORMAT_BEGIN
 90
        0
 91
        1
 62
     0
 92
       -2
340
0
 93
        0
 40
1.125
309
GRIDFORMAT_END
 95
        8
302
GRIDFORMAT
  1
GRIDFORMAT_BEGIN
 90
        0
 91
        1
 62
     0
 92
       -2
340
0
 93
        0
 40
1.125
309
GRIDFORMAT_END
 95
       16
302
GRIDFORMAT
  1
GRIDFORMAT_BEGIN
 90
        0
 91
        1
 62
     0
 92
       -2
340
0
 93
        0
 40
1.125
309
GRIDFORMAT_END
 95
       32
302
GRIDFORMAT
  1
GRIDFORMAT_BEGIN
 90
        0
 91
        1
 62
     0
 92
       -2
340
0
 93
        0
 40
1.125
309
GRIDFORMAT_END
309
TABLEFORMAT_END
  1
CELLSTYLE_BEGIN
 90
        1
 91
        1
300
_TITLE
309
CELLSTYLE_END
300
CELLSTYLE
  1
TABLEFORMAT_BEGIN
 90
        5
170
     1
 91
        0
 92
        0
 62
   257
 93
        1
300
CONTENTFORMAT
  1
CONTENTFORMAT_BEGIN
 90
        0
 91
        0
 92
      512
 93
        0
300

 40
0.0
140
1.0
 94
        5
 62
     0
340
10
144
4.5
309
CONTENTFORMAT_END
171
     1
301
MARGIN
  1
CELLMARGIN_BEGIN
 40
1.5
 40
1.5
 40
1.5
 40
1.5
 40
4.5
 40
4.5
309
CELLMARGIN_END
 94
        6
 95
        1
302
GRIDFORMAT
  1
GRIDFORMAT_BEGIN
 90
        0
 91
        1
 62
     0
 92
       -2
340
0
 93
        0
 40
1.125
309
GRIDFORMAT_END
 95
        2
302
GRIDFORMAT
  1
GRIDFORMAT_BEGIN
 90
        0
 91
        1
 62
     0
 92
       -2
340
0
 93
        0
 40
1.125
309
GRIDFORMAT_END
 95
        4
302
GRIDFORMAT
  1
GRIDFORMAT_BEGIN
 90
        0
 91
        1
 62
     0
 92
       -2
340
0
 93
        0
 40
1.125
309
GRIDFORMAT_END
 95
        8
302
GRIDFORMAT
  1
GRIDFORMAT_BEGIN
 90
        0
 91
        1
 62
     0
 92
       -2
340
0
 93
        0
 40
1.125
309
GRIDFORMAT_END
 95
       16
302
GRIDFORMAT
  1
GRIDFORMAT_BEGIN
 90
        0
 91
        1
 62
     0
 92
       -2
340
0
 93
        0
 40
1.125
309
GRIDFORMAT_END
 95
       32
302
GRIDFORMAT
  1
GRIDFORMAT_BEGIN
 90
        0
 91
        1
 62
     0
 92
       -2
340
0
 93
        0
 40
1.125
309
GRIDFORMAT_END
309
TABLEFORMAT_END
  1
CELLSTYLE_BEGIN
 90
        2
 91
        1
300
_HEADER
309
CELLSTYLE_END
300
CELLSTYLE
  1
TABLEFORMAT_BEGIN
 90
        5
170
     1
 91
        0
 92
        0
 62
   257
 93
        1
300
CONTENTFORMAT
  1
CONTENTFORMAT_BEGIN
 90
        0
 91
        0
 92
      512
 93
        0
300

 40
0.0
140
1.0
 94
        2
 62
     0
340
10
144
4.5
309
CONTENTFORMAT_END
171
     1
301
MARGIN
  1
CELLMARGIN_BEGIN
 40
1.5
 40
1.5
 40
1.5
 40
1.5
 40
4.5
 40
4.5
309
CELLMARGIN_END
 94
        6
 95
        1
302
GRIDFORMAT
  1
GRIDFORMAT_BEGIN
 90
        0
 91
        1
 62
     0
 92
       -2
340
0
 93
        0
 40
1.125
309
GRIDFORMAT_END
 95
        2
302
GRIDFORMAT
  1
GRIDFORMAT_BEGIN
 90
        0
 91
        1
 62
     0
 92
       -2
340
0
 93
        0
 40
1.125
309
GRIDFORMAT_END
 95
        4
302
GRIDFORMAT
  1
GRIDFORMAT_BEGIN
 90
        0
 91
        1
 62
     0
 92
       -2
340
0
 93
        0
 40
1.125
309
GRIDFORMAT_END
 95
        8
302
GRIDFORMAT
  1
GRIDFORMAT_BEGIN
 90
        0
 91
        1
 62
     0
 92
       -2
340
0
 93
        0
 40
1.125
309
GRIDFORMAT_END
 95
       16
302
GRIDFORMAT
  1
GRIDFORMAT_BEGIN
 90
        0
 91
        1
 62
     0
 92
       -2
340
0
 93
        0
 40
1.125
309
GRIDFORMAT_END
 95
       32
302
GRIDFORMAT
  1
GRIDFORMAT_BEGIN
 90
        0
 91
        1
 62
     0
 92
       -2
340
0
 93
        0
 40
1.125
309
GRIDFORMAT_END
309
TABLEFORMAT_END
  1
CELLSTYLE_BEGIN
 90
        3
 91
        2
300
_DATA
309
CELLSTYLE_END
  0
ENDSEC
  0
SECTION
  2
ACDSDATA
 70
     2
 71
     8
  0
ACDSSCHEMA
 90
        0
  1
AcDb_Thumbnail_Schema
  2
AcDbDs::ID
280
    10
 91
        8
  2
Thumbnail_Data
280
    15
 91
        0
101
ACDSRECORD
 95
        0
 90
        1
  2
AcDbDs::TreatedAsObjectData
280
     1
291
     1
101
ACDSRECORD
 95
        0
 90
        2
  2
AcDbDs::Legacy
280
     1
291
     1
101
ACDSRECORD
  1
AcDbDs::ID
 90
        3
  2
AcDs:Indexable
280
     1
291
     1
101
ACDSRECORD
  1
AcDbDs::ID
 90
        4
  2
AcDbDs::HandleAttribute
280
     7
282
     1
  0
ACDSSCHEMA
 90
        1
  1
AcDbDs::TreatedAsObjectDataSchema
  2
AcDbDs::TreatedAsObjectData
280
     1
 91
        0
  0
ACDSSCHEMA
 90
        2
  1
AcDbDs::LegacySchema
  2
AcDbDs::Legacy
280
     1
 91
        0
  0
ACDSSCHEMA
 90
        3
  1
AcDbDs::IndexedPropertySchema
  2
AcDs:Indexable
280
     1
 91
        0
  0
ACDSSCHEMA
 90
        4
  1
AcDbDs::HandleAttributeSchema
  2
AcDbDs::HandleAttribute
280
     7
 91
        1
284
     1
  0
ACDSRECORD
 90
        0
  2
AcDbDs::ID
280
    10
320
8083
  2
Thumbnail_Data
280
    15
 94
     1770
310
89504E470D0A1A0A0000000D49484452000001000000007C0803000000B13B9E5A00000300504C5445000000000000C8C8C80000000000000000000000000000000000000000000000000000330000660000990000CC0000FF0033000033330033660033990033CC0033FF0066000066330066660066990066CC0066FF0099
310
000099330099660099990099CC0099FF00CC0000CC3300CC6600CC9900CCCC00CCFF00FF0000FF3300FF6600FF9900FFCC00FFFF3300003300333300663300993300CC3300FF3333003333333333663333993333CC3333FF3366003366333366663366993366CC3366FF3399003399333399663399993399CC3399FF33CC00
310
33CC3333CC6633CC9933CCCC33CCFF33FF0033FF3333FF6633FF9933FFCC33FFFF6600006600336600666600996600CC6600FF6633006633336633666633996633CC6633FF6666006666336666666666996666CC6666FF6699006699336699666699996699CC6699FF66CC0066CC3366CC6666CC9966CCCC66CCFF66FF0066
310
FF3366FF6666FF9966FFCC66FFFF9900009900339900669900999900CC9900FF9933009933339933669933999933CC9933FF9966009966339966669966999966CC9966FF9999009999339999669999999999CC9999FF99CC0099CC3399CC6699CC9999CCCC99CCFF99FF0099FF3399FF6699FF9999FFCC99FFFFCC0000CC00
310
33CC0066CC0099CC00CCCC00FFCC3300CC3333CC3366CC3399CC33CCCC33FFCC6600CC6633CC6666CC6699CC66CCCC66FFCC9900CC9933CC9966CC9999CC99CCCC99FFCCCC00CCCC33CCCC66CCCC99CCCCCCCCCCFFCCFF00CCFF33CCFF66CCFF99CCFFCCCCFFFFFF0000FF0033FF0066FF0099FF00CCFF00FFFF3300FF3333
310
FF3366FF3399FF33CCFF33FFFF6600FF6633FF6666FF6699FF66CCFF66FFFF9900FF9933FF9966FF9999FF99CCFF99FFFFCC00FFCC33FFCC66FFCC99FFCCCCFFCCFFFFFF00FFFF33FFFF66FFFF99FFFFCCFFFFFF0000000D0D0D1A1A1A2828283535354343435050505D5D5D6B6B6B787878868686939393A1A1A1AEAEAEBB
310
BBBBC9C9C9D6D6D6E4E4E4F1F1F1FFFFFF00000000000000000000000000000000000000000000000000000000000008F1915C000003A54944415478DAED9D5B92E3200C45B51C7EB4FFCD681BFC4FC73C24B0EC78AAD233D183AE4ED9C649858374118872007EA1D45F2A60A554531F9B00124002480009E07BBEE9CDE017
310
05C0F6F61AD202C203A891016C5E601BC047670026017CD9872580FF00A0DBB130E9BA1CC330F2762F7B4EBFE80100B44603371BFAE9D0BC5A7B0450C721D4F1EAC202E04ADFBA05B4B6B205880A2F2E3082BC2A7DE2BE6D354530E3808093A1B72E611080267D5B17571EFC2A2B6714002CF803C026FFBE00C00AA00F15FD
310
36987F9E007CEAFDB926E80000BDCA7A1A0600DD9510006E4E23012801017433C7A5C402F0F382E712C7050E00B0BA005F4900092001248004E019408B741500222878140F5B06500A96BD080BC04766E0CE02F8420248003D600E370A8869415000C7850490005C8B6007A0AE07840230E23F59130340F3EED000CE4B82DB
310
02A1EBB900FBC13500E7D3E109E0E7AFC0E6033F17E200886E016B1C20028388A9B1C7752E01ECA21F0340F4ECF0D77E6C024800FFFE9BDEB93D5D8AA26D007783C055E52690C6013C1805680140130079B380ABCA377CAC03982D398FFC74EF26E4D4052E009CEF73E502A439C50A00D669533800E7C553B30074451BFBC3
310
0258006D3D3FBBB46542AE2C600380A60148253F5ADE3302F81CC0544CEB005AC71FC96014FDFAC802C88305E04807F7AC9802A0F98767006D11F868A402A025CB7C0160116CEDEF29415D04D93C3600E40440CF0BE0D1541500884DD45E007062AC94D77FC1729C2095338056B5ED2643A300DAD77E4D824656E8D5C50586
310
0F10E749A505282E802601D000000240D780713010080D500020DAB68001A0F56E990DE797771A00601900D104D063A1B93964221000B451C0328039F51F515011C1F01485280040CC05505E585DA0DF637D2E401A80DEAFC811D10A8007065C2CC0F26C90E00CA0CF875E92D8067A8E03782FB90F007214582C60CA6141C0
310
45037C59800A00A51538770111094A0D045896FF7836A888A0030072975CB9D92374B585C82E00B1FA8FB88EEEB314D9C9720B59D9AF595F15BEE8DEA23A85230B080F6033E4F02E409A0588749150C67D1BA5CDD418F1814C74AEBB44D67C99584990DB036C02A02B00A4E4BF9D0378B44FF0AED6BC056C9DADF9C963CF32
310
08E0B3D2625004A302800490001240021055D19F2AFBF72D0B01403E777D7D16B73F00A0FC749A78E2FA78D2BA5F00E13540B700A850E50385D5667BD60006C08FDB770F00341184BAFFD04E6A4046820920012480049000124002B004C0D04F6FFF01924A85C48819DB240000000049454E44AE426082
  0
ENDSEC
  0
EOF
