  0
SECTION
  2
HEADER
  9
$ACADVER
  1
AC1027
  9
$ACADMAINTVER
 70
   125
  9
$DWGCODEPAGE
  3
ANSI_932
  9
$LASTSAVEDBY
  1
yasukiyo.ogawa
  9
$REQUIREDVERSIONS
160
                 0
  9
$INSBASE
 10
0.0
 20
0.0
 30
0.0
  9
$EXTMIN
 10
0.0
 20
0.0
 30
0.0
  9
$EXTMAX
 10
5250.0
 20
7375.0
 30
0.0
  9
$LIMMIN
 10
0.0
 20
0.0
  9
$LIMMAX
 10
297.0
 20
210.0
  9
$ORTHOMODE
 70
     1
  9
$REGENMODE
 70
     1
  9
$FILLMODE
 70
     0
  9
$QTEXTMODE
 70
     0
  9
$MIRRTEXT
 70
     1
  9
$LTSCALE
 40
100.0
  9
$ATTMODE
 70
     1
  9
$TEXTSIZE
 40
180.0
  9
$TRACEWID
 40
0.05
  9
$TEXTSTYLE
  7
STANDARD
  9
$CLAYER
  8
3
  9
$CELTYPE
  6
BYLAYER
  9
$CECOLOR
 62
   256
  9
$CELTSCALE
 40
1.0
  9
$DISPSILH
 70
     0
  9
$DIMSCALE
 40
25.0
  9
$DIMASZ
 40
2.0
  9
$DIMEXO
 40
0.5
  9
$DIMDLI
 40
10.0
  9
$DIMRND
 40
0.0
  9
$DIMDLE
 40
0.0
  9
$DIMEXE
 40
1.0
  9
$DIMTP
 40
1.0
  9
$DIMTM
 40
1.0
  9
$DIMTXT
 40
3.0
  9
$DIMCEN
 40
0.0
  9
$DIMTSZ
 40
0.0
  9
$DIMTOL
 70
     0
  9
$DIMLIM
 70
     0
  9
$DIMTIH
 70
     0
  9
$DIMTOH
 70
     0
  9
$DIMSE1
 70
     0
  9
$DIMSE2
 70
     0
  9
$DIMTAD
 70
     1
  9
$DIMZIN
 70
     8
  9
$DIMBLK
  1

  9
$DIMASO
 70
     1
  9
$DIMSHO
 70
     1
  9
$DIMPOST
  1
(<>)
  9
$DIMAPOST
  1

  9
$DIMALT
 70
     0
  9
$DIMALTD
 70
     2
  9
$DIMALTF
 40
0.039
  9
$DIMLFAC
 40
1.0
  9
$DIMTOFL
 70
     1
  9
$DIMTVP
 40
0.0
  9
$DIMTIX
 70
     0
  9
$DIMSOXD
 70
     0
  9
$DIMSAH
 70
     1
  9
$DIMBLK1
  1
OPEN
  9
$DIMBLK2
  1
OPEN
  9
$DIMSTYLE
  2
IGA
  9
$DIMCLRD
 70
     0
  9
$DIMCLRE
 70
     0
  9
$DIMCLRT
 70
     0
  9
$DIMTFAC
 40
10.0
  9
$DIMGAP
 40
1.0
  9
$DIMJUST
 70
     0
  9
$DIMSD1
 70
     0
  9
$DIMSD2
 70
     0
  9
$DIMTOLJ
 70
     1
  9
$DIMTZIN
 70
     8
  9
$DIMALTZ
 70
     0
  9
$DIMALTTZ
 70
     0
  9
$DIMUPT
 70
     0
  9
$DIMDEC
 70
     0
  9
$DIMTDEC
 70
     0
  9
$DIMALTU
 70
     2
  9
$DIMALTTD
 70
     2
  9
$DIMTXSTY
  7
STANDARD
  9
$DIMAUNIT
 70
     0
  9
$DIMADEC
 70
     0
  9
$DIMALTRND
 40
0.0
  9
$DIMAZIN
 70
     0
  9
$DIMDSEP
 70
    46
  9
$DIMATFIT
 70
     3
  9
$DIMFRAC
 70
     0
  9
$DIMLDRBLK
  1
OPEN
  9
$DIMLUNIT
 70
     2
  9
$DIMLWD
 70
    -2
  9
$DIMLWE
 70
    -2
  9
$DIMTMOVE
 70
     2
  9
$DIMFXL
 40
1.0
  9
$DIMFXLON
 70
     0
  9
$DIMJOGANG
 40
0.7853981633974483
  9
$DIMTFILL
 70
     0
  9
$DIMTFILLCLR
 70
     0
  9
$DIMARCSYM
 70
     0
  9
$DIMLTYPE
  6

  9
$DIMLTEX1
  6

  9
$DIMLTEX2
  6

  9
$DIMTXTDIRECTION
 70
     0
  9
$LUNITS
 70
     2
  9
$LUPREC
 70
     3
  9
$SKETCHINC
 40
0.1
  9
$FILLETRAD
 40
50.0
  9
$AUNITS
 70
     0
  9
$AUPREC
 70
     0
  9
$MENU
  1
acad
  9
$ELEVATION
 40
0.0
  9
$PELEVATION
 40
0.0
  9
$THICKNESS
 40
0.0
  9
$LIMCHECK
 70
     0
  9
$CHAMFERA
 40
0.5
  9
$CHAMFERB
 40
0.5
  9
$CHAMFERC
 40
20.0
  9
$CHAMFERD
 40
0.0
  9
$SKPOLY
 70
     0
  9
$TDCREATE
 40
2451381.602129630
  9
$TDUCREATE
 40
2451381.227132755
  9
$TDUPDATE
 40
2460234.677777778
  9
$TDUUPDATE
 40
2460234.302786945
  9
$TDINDWG
 40
0.0337573727
  9
$TDUSRTIMER
 40
0.0337573727
  9
$USRTIMER
 70
     1
  9
$ANGBASE
 50
0.0
  9
$ANGDIR
 70
     0
  9
$PDMODE
 70
     0
  9
$PDSIZE
 40
0.0
  9
$PLINEWID
 40
0.0
  9
$SPLFRAME
 70
     0
  9
$SPLINETYPE
 70
     6
  9
$SPLINESEGS
 70
     8
  9
$HANDSEED
  5
8493
  9
$SURFTAB1
 70
     6
  9
$SURFTAB2
 70
     6
  9
$SURFTYPE
 70
     6
  9
$SURFU
 70
     6
  9
$SURFV
 70
     6
  9
$UCSBASE
  2

  9
$UCSNAME
  2

  9
$UCSORG
 10
0.0
 20
0.0
 30
0.0
  9
$UCSXDIR
 10
1.0
 20
0.0
 30
0.0
  9
$UCSYDIR
 10
0.0
 20
1.0
 30
0.0
  9
$UCSORTHOREF
  2

  9
$UCSORTHOVIEW
 70
     0
  9
$UCSORGTOP
 10
0.0
 20
0.0
 30
0.0
  9
$UCSORGBOTTOM
 10
0.0
 20
0.0
 30
0.0
  9
$UCSORGLEFT
 10
0.0
 20
0.0
 30
0.0
  9
$UCSORGRIGHT
 10
0.0
 20
0.0
 30
0.0
  9
$UCSORGFRONT
 10
0.0
 20
0.0
 30
0.0
  9
$UCSORGBACK
 10
0.0
 20
0.0
 30
0.0
  9
$PUCSBASE
  2

  9
$PUCSNAME
  2

  9
$PUCSORG
 10
0.0
 20
0.0
 30
0.0
  9
$PUCSXDIR
 10
1.0
 20
0.0
 30
0.0
  9
$PUCSYDIR
 10
0.0
 20
1.0
 30
0.0
  9
$PUCSORTHOREF
  2

  9
$PUCSORTHOVIEW
 70
     0
  9
$PUCSORGTOP
 10
0.0
 20
0.0
 30
0.0
  9
$PUCSORGBOTTOM
 10
0.0
 20
0.0
 30
0.0
  9
$PUCSORGLEFT
 10
0.0
 20
0.0
 30
0.0
  9
$PUCSORGRIGHT
 10
0.0
 20
0.0
 30
0.0
  9
$PUCSORGFRONT
 10
0.0
 20
0.0
 30
0.0
  9
$PUCSORGBACK
 10
0.0
 20
0.0
 30
0.0
  9
$USERI1
 70
     0
  9
$USERI2
 70
     0
  9
$USERI3
 70
     0
  9
$USERI4
 70
     0
  9
$USERI5
 70
     0
  9
$USERR1
 40
0.0
  9
$USERR2
 40
0.0
  9
$USERR3
 40
0.0
  9
$USERR4
 40
0.0
  9
$USERR5
 40
0.0
  9
$WORLDVIEW
 70
     1
  9
$SHADEDGE
 70
     3
  9
$SHADEDIF
 70
    70
  9
$TILEMODE
 70
     1
  9
$MAXACTVP
 70
    16
  9
$PINSBASE
 10
0.0
 20
0.0
 30
0.0
  9
$PLIMCHECK
 70
     0
  9
$PEXTMIN
 10
1.000000000000000E+20
 20
1.000000000000000E+20
 30
1.000000000000000E+20
  9
$PEXTMAX
 10
-1.000000000000000E+20
 20
-1.000000000000000E+20
 30
-1.000000000000000E+20
  9
$PLIMMIN
 10
0.0
 20
0.0
  9
$PLIMMAX
 10
12.0
 20
9.0
  9
$UNITMODE
 70
     0
  9
$VISRETAIN
 70
     0
  9
$PLINEGEN
 70
     0
  9
$PSLTSCALE
 70
     1
  9
$TREEDEPTH
 70
  3020
  9
$CMLSTYLE
  2
STANDARD
  9
$CMLJUST
 70
     0
  9
$CMLSCALE
 40
20.0
  9
$PROXYGRAPHICS
 70
     1
  9
$MEASUREMENT
 70
     1
  9
$CELWEIGHT
370
    -1
  9
$ENDCAPS
280
     0
  9
$JOINSTYLE
280
     0
  9
$LWDISPLAY
290
     0
  9
$INSUNITS
 70
     0
  9
$HYPERLINKBASE
  1

  9
$STYLESHEET
  1

  9
$XEDIT
290
     1
  9
$CEPSNTYPE
380
     0
  9
$PSTYLEMODE
290
     1
  9
$FINGERPRINTGUID
  2
{D9601845-A0D1-45E1-8F5B-1E51BF88D478}
  9
$VERSIONGUID
  2
{A513708A-752B-49D5-9B9B-0E37B8E05145}
  9
$EXTNAMES
290
     1
  9
$PSVPSCALE
 40
0.0
  9
$OLESTARTUP
290
     0
  9
$SORTENTS
280
   127
  9
$INDEXCTL
280
     0
  9
$HIDETEXT
280
     0
  9
$XCLIPFRAME
280
     2
  9
$HALOGAP
280
     0
  9
$OBSCOLOR
 70
   257
  9
$OBSLTYPE
280
     0
  9
$INTERSECTIONDISPLAY
280
     0
  9
$INTERSECTIONCOLOR
 70
   257
  9
$DIMASSOC
280
     1
  9
$PROJECTNAME
  1

  9
$CAMERADISPLAY
290
     0
  9
$LENSLENGTH
 40
50.0
  9
$CAMERAHEIGHT
 40
0.0
  9
$STEPSPERSEC
 40
2.0
  9
$STEPSIZE
 40
6.0
  9
$3DDWFPREC
 40
2.0
  9
$PSOLWIDTH
 40
0.25
  9
$PSOLHEIGHT
 40
4.0
  9
$LOFTANG1
 40
1.570796326794896
  9
$LOFTANG2
 40
1.570796326794896
  9
$LOFTMAG1
 40
0.0
  9
$LOFTMAG2
 40
0.0
  9
$LOFTPARAM
 70
     7
  9
$LOFTNORMALS
280
     1
  9
$LATITUDE
 40
37.795
  9
$LONGITUDE
 40
-122.394
  9
$NORTHDIRECTION
 40
0.0
  9
$TIMEZONE
 70
 -8000
  9
$LIGHTGLYPHDISPLAY
280
     1
  9
$TILEMODELIGHTSYNCH
280
     1
  9
$CMATERIAL
347
80A6
  9
$SOLIDHIST
280
     0
  9
$SHOWHIST
280
     1
  9
$DWFFRAME
280
     2
  9
$DGNFRAME
280
     0
  9
$REALWORLDSCALE
290
     1
  9
$INTERFERECOLOR
 62
     1
  9
$INTERFEREOBJVS
345
80C8
  9
$INTERFEREVPVS
346
80C5
  9
$CSHADOW
280
     0
  9
$SHADOWPLANELOCATION
 40
0.0
  0
ENDSEC
  0
SECTION
  2
CLASSES
  0
CLASS
  1
ACDBDICTIONARYWDFLT
  2
AcDbDictionaryWithDefault
  3
ObjectDBX Classes
 90
        0
 91
        1
280
     0
281
     0
  0
CLASS
  1
MATERIAL
  2
AcDbMaterial
  3
ObjectDBX Classes
 90
     1153
 91
        3
280
     0
281
     0
  0
CLASS
  1
VISUALSTYLE
  2
AcDbVisualStyle
  3
ObjectDBX Classes
 90
     4095
 91
       24
280
     0
281
     0
  0
CLASS
  1
TABLESTYLE
  2
AcDbTableStyle
  3
ObjectDBX Classes
 90
     4095
 91
        1
280
     0
281
     0
  0
CLASS
  1
SCALE
  2
AcDbScale
  3
ObjectDBX Classes
 90
     1153
 91
       17
280
     0
281
     0
  0
CLASS
  1
MLEADERSTYLE
  2
AcDbMLeaderStyle
  3
ACDB_MLEADERSTYLE_CLASS
 90
     4095
 91
        1
280
     0
281
     0
  0
CLASS
  1
ACDBSECTIONVIEWSTYLE
  2
AcDbSectionViewStyle
  3
ObjectDBX Classes
 90
     1025
 91
        1
280
     0
281
     0
  0
CLASS
  1
ACDBDETAILVIEWSTYLE
  2
AcDbDetailViewStyle
  3
ObjectDBX Classes
 90
     1025
 91
        1
280
     0
281
     0
  0
CLASS
  1
DICTIONARYVAR
  2
AcDbDictionaryVar
  3
ObjectDBX Classes
 90
        0
 91
       10
280
     0
281
     0
  0
CLASS
  1
CELLSTYLEMAP
  2
AcDbCellStyleMap
  3
ObjectDBX Classes
 90
     1152
 91
        1
280
     0
281
     0
  0
ENDSEC
  0
SECTION
  2
TABLES
  0
TABLE
  2
VPORT
  5
8
330
0
100
AcDbSymbolTable
 70
     1
1001
ACAD
1000
DbSaveVer
1071
      278
  0
VPORT
  5
80A3
330
8
100
AcDbSymbolTableRecord
100
AcDbViewportTableRecord
  2
*Active
 70
     0
 10
0.0
 20
0.0
 11
1.0
 21
1.0
 12
1751.617832415899
 22
2773.348015091855
 13
0.0
 23
0.0
 14
10.0
 24
10.0
 15
10.0
 25
10.0
 16
0.0
 26
0.0
 36
1.0
 17
0.0
 27
0.0
 37
0.0
 40
6551.900287624987
 41
2.250314465408805
 42
50.0
 43
0.0
 44
0.0
 50
0.0
 51
0.0
 71
     0
 72
   100
 73
     1
 74
     0
 75
     0
 76
     0
 77
     0
 78
     0
281
     0
 65
     1
110
0.0
120
0.0
130
0.0
111
1.0
121
0.0
131
0.0
112
0.0
122
1.0
132
0.0
 79
     0
146
0.0
348
80C4
 60
     3
 61
     5
292
     1
282
     1
141
0.0
142
0.0
 63
   250
421
  3355443
1001
ACAD_NAV_VCDISPLAY
1070
     3
  0
ENDTAB
  0
TABLE
  2
LTYPE
  5
5
330
0
100
AcDbSymbolTable
 70
     2
  0
LTYPE
  5
13
330
5
100
AcDbSymbolTableRecord
100
AcDbLinetypeTableRecord
  2
BYBLOCK
 70
     0
  3

 72
    65
 73
     0
 40
0.0
  0
LTYPE
  5
14
330
5
100
AcDbSymbolTableRecord
100
AcDbLinetypeTableRecord
  2
BYLAYER
 70
     0
  3

 72
    65
 73
     0
 40
0.0
  0
LTYPE
  5
15
330
5
100
AcDbSymbolTableRecord
100
AcDbLinetypeTableRecord
  2
CONTINUOUS
 70
     0
  3
Solid line
 72
    65
 73
     0
 40
0.0
  0
LTYPE
  5
1F
330
5
100
AcDbSymbolTableRecord
100
AcDbLinetypeTableRecord
  2
CENTER
 70
     0
  3
____ _ ____ _ ____ _ ____ _ ____ _ ____ _ ____ 
 72
    65
 73
     4
 40
2.0
 49
1.25
 74
     0
 49
-0.25
 74
     0
 49
0.25
 74
     0
 49
-0.25
 74
     0
  0
ENDTAB
  0
TABLE
  2
LAYER
  5
2
102
{ACAD_XDICTIONARY
360
817E
102
}
330
0
100
AcDbSymbolTable
 70
     6
  0
LAYER
  5
F
102
{ACAD_XDICTIONARY
360
845F
102
}
330
2
100
AcDbSymbolTableRecord
100
AcDbLayerTableRecord
  2
0
 70
     0
 62
     7
  6
CONTINUOUS
370
    -3
390
804A
347
80B6
348
0
  0
LAYER
  5
31
102
{ACAD_XDICTIONARY
360
8461
102
}
330
2
100
AcDbSymbolTableRecord
100
AcDbLayerTableRecord
  2
3
 70
     0
 62
     2
  6
CONTINUOUS
370
    -3
390
804A
347
80B6
348
0
  0
LAYER
  5
76D0
102
{ACAD_XDICTIONARY
360
8463
102
}
330
2
100
AcDbSymbolTableRecord
100
AcDbLayerTableRecord
  2
2
 70
     0
 62
     3
  6
CENTER
370
    -3
390
804A
347
80B6
348
0
  0
LAYER
  5
76D1
102
{ACAD_XDICTIONARY
360
8465
102
}
330
2
100
AcDbSymbolTableRecord
100
AcDbLayerTableRecord
  2
1
 70
     0
 62
     4
  6
CONTINUOUS
370
    -3
390
804A
347
80B6
348
0
  0
LAYER
  5
76D2
102
{ACAD_XDICTIONARY
360
8467
102
}
330
2
100
AcDbSymbolTableRecord
100
AcDbLayerTableRecord
  2
4
 70
     0
 62
     7
  6
CONTINUOUS
370
    -3
390
804A
347
80B6
348
0
  0
LAYER
  5
7B3A
330
2
100
AcDbSymbolTableRecord
100
AcDbLayerTableRecord
  2
DEFPOINTS
 70
     0
 62
     7
  6
CONTINUOUS
290
     0
370
    -3
390
804A
347
80B6
348
0
  0
ENDTAB
  0
TABLE
  2
STYLE
  5
3
330
0
100
AcDbSymbolTable
 70
     1
  0
STYLE
  5
10
330
3
100
AcDbSymbolTableRecord
100
AcDbTextStyleTableRecord
  2
STANDARD
 70
     0
 40
0.0
 41
1.0
 50
0.0
 71
     0
 42
180.0
  3
simplex.shx
  4
extfont.shx
  0
ENDTAB
  0
TABLE
  2
VIEW
  5
6
330
0
100
AcDbSymbolTable
 70
     0
  0
ENDTAB
  0
TABLE
  2
UCS
  5
7
330
0
100
AcDbSymbolTable
 70
     0
  0
ENDTAB
  0
TABLE
  2
APPID
  5
9
330
0
100
AcDbSymbolTable
 70
     2
  0
APPID
  5
11
330
9
100
AcDbSymbolTableRecord
100
AcDbRegAppTableRecord
  2
ACAD
 70
     0
  0
APPID
  5
817D
330
9
100
AcDbSymbolTableRecord
100
AcDbRegAppTableRecord
  2
ACAD_NAV_VCDISPLAY
 70
     0
  0
ENDTAB
  0
TABLE
  2
DIMSTYLE
  5
A
330
0
100
AcDbSymbolTable
 70
     2
100
AcDbDimStyleTable
 71
     1
340
1D
  0
DIMSTYLE
105
1D
102
{ACAD_REACTORS
330
7CE9
330
8033
330
8040
330
8370
330
8386
330
839C
330
83A9
330
83B6
330
83C3
330
83D0
330
83DD
102
}
330
A
100
AcDbSymbolTableRecord
100
AcDbDimStyleTableRecord
  2
IGA
 70
     0
 40
2.0
 41
2.0
 42
0.5
 43
10.0
 44
1.0
 47
1.0
 48
1.0
 73
     0
 74
     0
 77
     1
 78
     8
140
3.0
141
0.0
143
0.03937
146
10.0
147
1.0
173
     1
271
     1
272
     0
279
     2
284
     8
340
10
341
79FC
343
79FC
344
79FC
  0
DIMSTYLE
105
7B3C
102
{ACAD_REACTORS
330
7CA0
330
7CA1
330
7CD0
330
7CD2
330
7CD9
330
7CDA
330
7CDB
330
7CDC
330
7CDD
330
7CDE
330
7CEA
102
}
330
A
100
AcDbSymbolTableRecord
100
AcDbDimStyleTableRecord
  2
MATSU
 70
     0
 41
2.0
 42
1.0
 43
10.0
 44
1.0
 73
     0
 74
     0
 77
     1
 78
     8
140
3.0
141
0.0
143
0.03937
147
0.5
172
     1
173
     1
176
   256
177
   256
178
   256
284
     8
289
     0
340
10
341
79FC
343
79FC
344
79FC
  0
ENDTAB
  0
TABLE
  2
BLOCK_RECORD
  5
1
330
0
100
AcDbSymbolTable
 70
    56
  0
BLOCK_RECORD
  5
19
102
{ACAD_XDICTIONARY
360
8078
102
}
330
1
100
AcDbSymbolTableRecord
100
AcDbBlockTableRecord
  2
*MODEL_SPACE
340
804D
 70
     0
280
     1
281
     0
  0
BLOCK_RECORD
  5
16
102
{ACAD_XDICTIONARY
360
8076
102
}
330
1
100
AcDbSymbolTableRecord
100
AcDbBlockTableRecord
  2
*PAPER_SPACE
340
804E
 70
     0
280
     1
281
     0
  0
BLOCK_RECORD
  5
79FC
330
1
100
AcDbSymbolTableRecord
100
AcDbBlockTableRecord
  2
_OPEN
340
0
102
{BLKREFS
331
7E50
331
7E51
331
7E5B
331
7E5C
331
7E9D
331
7E9E
331
7EA8
331
7EA9
331
7EBE
331
7EBF
331
7ED4
331
7ED5
331
7FCD
331
7FCE
331
7FD8
331
7FD9
331
7FEC
331
7FED
331
7EEA
331
7EEB
331
7F0F
331
7F10
331
8350
331
835D
331
835E
331
83A3
331
83A4
331
83ED
331
83EE
331
842C
331
842D
331
8435
331
8436
331
843E
331
843F
331
8447
331
8448
331
8450
331
8451
331
8459
331
845A
102
}
 70
     0
280
     1
281
     0
  0
BLOCK_RECORD
  5
7A0A
330
1
100
AcDbSymbolTableRecord
100
AcDbBlockTableRecord
  2
YA_N
340
0
102
{BLKREFS
331
7C30
331
7C5C
331
7CA6
102
}
 70
     0
280
     1
281
     0
  0
BLOCK_RECORD
  5
7D2B
330
1
100
AcDbSymbolTableRecord
100
AcDbBlockTableRecord
  2
*D3
340
0
 70
     0
280
     1
281
     0
  0
BLOCK_RECORD
  5
7D37
330
1
100
AcDbSymbolTableRecord
100
AcDbBlockTableRecord
  2
*D4
340
0
 70
     0
280
     1
281
     0
  0
BLOCK_RECORD
  5
7D7F
330
1
100
AcDbSymbolTableRecord
100
AcDbBlockTableRecord
  2
*D8
340
0
 70
     0
280
     1
281
     0
  0
BLOCK_RECORD
  5
7D8B
330
1
100
AcDbSymbolTableRecord
100
AcDbBlockTableRecord
  2
*D9
340
0
 70
     0
280
     1
281
     0
  0
BLOCK_RECORD
  5
7D97
330
1
100
AcDbSymbolTableRecord
100
AcDbBlockTableRecord
  2
*D10
340
0
 70
     0
280
     1
281
     0
  0
BLOCK_RECORD
  5
7DA3
330
1
100
AcDbSymbolTableRecord
100
AcDbBlockTableRecord
  2
*D11
340
0
 70
     0
280
     1
281
     0
  0
BLOCK_RECORD
  5
7DAF
330
1
100
AcDbSymbolTableRecord
100
AcDbBlockTableRecord
  2
*D12
340
0
 70
     0
280
     1
281
     0
  0
BLOCK_RECORD
  5
7DBB
330
1
100
AcDbSymbolTableRecord
100
AcDbBlockTableRecord
  2
*D13
340
0
 70
     0
280
     1
281
     0
  0
BLOCK_RECORD
  5
7DC7
330
1
100
AcDbSymbolTableRecord
100
AcDbBlockTableRecord
  2
*D14
340
0
 70
     0
280
     1
281
     0
  0
BLOCK_RECORD
  5
7DD3
330
1
100
AcDbSymbolTableRecord
100
AcDbBlockTableRecord
  2
*D15
340
0
 70
     0
280
     1
281
     0
  0
BLOCK_RECORD
  5
7DED
330
1
100
AcDbSymbolTableRecord
100
AcDbBlockTableRecord
  2
*D16
340
0
 70
     0
280
     1
281
     0
  0
BLOCK_RECORD
  5
7DFB
330
1
100
AcDbSymbolTableRecord
100
AcDbBlockTableRecord
  2
*D17
340
0
 70
     0
280
     1
281
     0
  0
BLOCK_RECORD
  5
7F9E
330
1
100
AcDbSymbolTableRecord
100
AcDbBlockTableRecord
  2
_DOT
340
0
102
{BLKREFS
331
834F
102
}
 70
     0
280
     1
281
     0
  0
BLOCK_RECORD
  5
8027
330
1
100
AcDbSymbolTableRecord
100
AcDbBlockTableRecord
  2
_NONE
340
0
 70
     0
280
     1
281
     0
  0
BLOCK_RECORD
  5
802B
330
1
100
AcDbSymbolTableRecord
100
AcDbBlockTableRecord
  2
*D24
340
0
 70
     0
280
     1
281
     0
  0
BLOCK_RECORD
  5
8034
330
1
100
AcDbSymbolTableRecord
100
AcDbBlockTableRecord
  2
*D25
340
0
 70
     0
280
     1
281
     0
  0
BLOCK_RECORD
  5
8371
330
1
100
AcDbSymbolTableRecord
100
AcDbBlockTableRecord
  2
*D48
340
0
 70
     0
280
     1
281
     0
  0
BLOCK_RECORD
  5
8387
330
1
100
AcDbSymbolTableRecord
100
AcDbBlockTableRecord
  2
*D49
340
0
 70
     0
280
     1
281
     0
  0
BLOCK_RECORD
  5
839D
330
1
100
AcDbSymbolTableRecord
100
AcDbBlockTableRecord
  2
*D50
340
0
 70
     0
280
     1
281
     0
  0
BLOCK_RECORD
  5
83AA
330
1
100
AcDbSymbolTableRecord
100
AcDbBlockTableRecord
  2
*D51
340
0
 70
     0
280
     1
281
     0
  0
BLOCK_RECORD
  5
83B7
330
1
100
AcDbSymbolTableRecord
100
AcDbBlockTableRecord
  2
*D52
340
0
 70
     0
280
     1
281
     0
  0
BLOCK_RECORD
  5
83C4
330
1
100
AcDbSymbolTableRecord
100
AcDbBlockTableRecord
  2
*D53
340
0
 70
     0
280
     1
281
     0
  0
BLOCK_RECORD
  5
83D1
330
1
100
AcDbSymbolTableRecord
100
AcDbBlockTableRecord
  2
*D54
340
0
 70
     0
280
     1
281
     0
  0
BLOCK_RECORD
  5
83DE
330
1
100
AcDbSymbolTableRecord
100
AcDbBlockTableRecord
  2
*D55
340
0
 70
     0
280
     1
281
     0
  0
ENDTAB
  0
ENDSEC
  0
SECTION
  2
BLOCKS
  0
BLOCK
  5
1A
330
19
100
AcDbEntity
  8
0
100
AcDbBlockBegin
  2
*MODEL_SPACE
 70
     0
 10
0.0
 20
0.0
 30
0.0
  3
*MODEL_SPACE
  1

  0
ENDBLK
  5
1B
330
19
100
AcDbEntity
  8
0
100
AcDbBlockEnd
  0
BLOCK
  5
17
330
16
100
AcDbEntity
 67
     1
  8
0
100
AcDbBlockBegin
  2
*PAPER_SPACE
 70
     0
 10
0.0
 20
0.0
 30
0.0
  3
*PAPER_SPACE
  1

  0
ENDBLK
  5
18
330
16
100
AcDbEntity
 67
     1
  8
0
100
AcDbBlockEnd
  0
BLOCK
  5
7A00
330
79FC
100
AcDbEntity
  8
0
100
AcDbBlockBegin
  2
_OPEN
 70
     0
 10
0.0
 20
0.0
 30
0.0
  3
_OPEN
  1

  0
LINE
  5
79FD
330
79FC
100
AcDbEntity
  8
0
  6
ByBlock
 62
     0
100
AcDbLine
 10
-1.0
 20
0.1666666666666666
 30
0.0
 11
0.0
 21
0.0
 31
0.0
  0
LINE
  5
79FE
330
79FC
100
AcDbEntity
  8
0
  6
ByBlock
 62
     0
100
AcDbLine
 10
0.0
 20
0.0
 30
0.0
 11
-1.0
 21
-0.1666666666666666
 31
0.0
  0
LINE
  5
79FF
330
79FC
100
AcDbEntity
  8
0
  6
ByBlock
 62
     0
100
AcDbLine
 10
0.0
 20
0.0
 30
0.0
 11
-1.0
 21
0.0
 31
0.0
  0
ENDBLK
  5
7A01
330
79FC
100
AcDbEntity
  8
0
100
AcDbBlockEnd
  0
BLOCK
  5
7A0B
330
7A0A
100
AcDbEntity
  8
0
100
AcDbBlockBegin
  2
YA_N
 70
     0
 10
0.0
 20
0.0
 30
0.0
  3
YA_N
  1

  0
ENDBLK
  5
7A0C
330
7A0A
100
AcDbEntity
  8
0
100
AcDbBlockEnd
  0
BLOCK
  5
7E4C
330
7D2B
100
AcDbEntity
  8
0
100
AcDbBlockBegin
  2
*D3
 70
     1
 10
0.0
 20
0.0
 30
0.0
  3
*D3
  1

  0
LINE
  5
7E4D
330
7D2B
100
AcDbEntity
  8
0
  6
ByBlock
440
 16777216
100
AcDbLine
 10
466.5721472157604
 20
1033.593478221399
 30
0.0
 11
466.5721472157604
 21
1182.600862000625
 31
0.0
  0
LINE
  5
7E4E
330
7D2B
100
AcDbEntity
  8
0
  6
ByBlock
440
 16777216
100
AcDbLine
 10
1196.57214721576
 20
1033.5934782214
 30
0.0
 11
1196.57214721576
 21
1182.600862000625
 31
0.0
  0
LINE
  5
7E4F
330
7D2B
100
AcDbEntity
  8
0
  6
ByBlock
440
 16777216
100
AcDbLine
 10
516.5721472157604
 20
1157.600862000625
 30
0.0
 11
1146.57214721576
 21
1157.600862000625
 31
0.0
  0
INSERT
  5
7E50
330
7D2B
100
AcDbEntity
  8
0
  6
ByBlock
440
 16777216
100
AcDbBlockReference
  2
_OPEN
 10
466.5721472157604
 20
1157.600862000625
 30
0.0
 41
50.0
 42
50.0
 43
50.0
 50
180.0
  0
INSERT
  5
7E51
330
7D2B
100
AcDbEntity
  8
0
  6
ByBlock
440
 16777216
100
AcDbBlockReference
  2
_OPEN
 10
1196.57214721576
 20
1157.600862000625
 30
0.0
 41
50.0
 42
50.0
 43
50.0
  0
MTEXT
  5
7E52
330
7D2B
100
AcDbEntity
  8
0
  6
ByBlock
440
 16777216
100
AcDbMText
 10
831.5721472157603
 20
1207.600862000625
 30
0.0
 40
75.0
 41
0.0
 46
0.0
 71
     5
 72
     5
  1
\A1;730
 73
     1
 44
1.0
  0
POINT
  5
7E53
330
7D2B
100
AcDbEntity
  8
DEFPOINTS
  6
ByBlock
 62
     0
440
 16777216
100
AcDbPoint
 10
466.5721472157604
 20
1008.593478221398
 30
0.0
  0
POINT
  5
7E54
330
7D2B
100
AcDbEntity
  8
DEFPOINTS
  6
ByBlock
 62
     0
440
 16777216
100
AcDbPoint
 10
1196.57214721576
 20
1008.593478221399
 30
0.0
  0
POINT
  5
7E55
330
7D2B
100
AcDbEntity
  8
DEFPOINTS
  6
ByBlock
 62
     0
440
 16777216
100
AcDbPoint
 10
1196.57214721576
 20
1157.600862000625
 30
0.0
  0
ENDBLK
  5
7E56
330
7D2B
100
AcDbEntity
  8
0
100
AcDbBlockEnd
  0
BLOCK
  5
7E57
330
7D37
100
AcDbEntity
  8
0
100
AcDbBlockBegin
  2
*D4
 70
     1
 10
0.0
 20
0.0
 30
0.0
  3
*D4
  1

  0
LINE
  5
7E58
330
7D37
100
AcDbEntity
  8
0
  6
ByBlock
440
 16777216
100
AcDbLine
 10
466.5721472157604
 20
1033.593478221399
 30
0.0
 11
466.5721472157604
 21
1335.40963547429
 31
0.0
  0
LINE
  5
7E59
330
7D37
100
AcDbEntity
  8
0
  6
ByBlock
440
 16777216
100
AcDbLine
 10
1225.57214721576
 20
1155.859317026828
 30
0.0
 11
1225.57214721576
 21
1335.40963547429
 31
0.0
  0
LINE
  5
7E5A
330
7D37
100
AcDbEntity
  8
0
  6
ByBlock
440
 16777216
100
AcDbLine
 10
516.5721472157604
 20
1310.40963547429
 30
0.0
 11
1175.57214721576
 21
1310.40963547429
 31
0.0
  0
INSERT
  5
7E5B
330
7D37
100
AcDbEntity
  8
0
  6
ByBlock
440
 16777216
100
AcDbBlockReference
  2
_OPEN
 10
466.5721472157604
 20
1310.40963547429
 30
0.0
 41
50.0
 42
50.0
 43
50.0
 50
180.0
  0
INSERT
  5
7E5C
330
7D37
100
AcDbEntity
  8
0
  6
ByBlock
440
 16777216
100
AcDbBlockReference
  2
_OPEN
 10
1225.57214721576
 20
1310.40963547429
 30
0.0
 41
50.0
 42
50.0
 43
50.0
  0
MTEXT
  5
7E5D
330
7D37
100
AcDbEntity
  8
0
  6
ByBlock
440
 16777216
100
AcDbMText
 10
846.0721472157604
 20
1360.40963547429
 30
0.0
 40
75.0
 41
0.0
 46
0.0
 71
     5
 72
     5
  1
\A1;759
 73
     1
 44
1.0
  0
POINT
  5
7E5E
330
7D37
100
AcDbEntity
  8
DEFPOINTS
  6
ByBlock
 62
     0
440
 16777216
100
AcDbPoint
 10
466.5721472157604
 20
1008.593478221398
 30
0.0
  0
POINT
  5
7E5F
330
7D37
100
AcDbEntity
  8
DEFPOINTS
  6
ByBlock
 62
     0
440
 16777216
100
AcDbPoint
 10
1225.57214721576
 20
1130.859317026828
 30
0.0
  0
POINT
  5
7E60
330
7D37
100
AcDbEntity
  8
DEFPOINTS
  6
ByBlock
 62
     0
440
 16777216
100
AcDbPoint
 10
1225.57214721576
 20
1310.40963547429
 30
0.0
  0
ENDBLK
  5
7E61
330
7D37
100
AcDbEntity
  8
0
100
AcDbBlockEnd
  0
BLOCK
  5
7E99
330
7D7F
100
AcDbEntity
  8
0
100
AcDbBlockBegin
  2
*D8
 70
     1
 10
0.0
 20
0.0
 30
0.0
  3
*D8
  1

  0
LINE
  5
7E9A
330
7D7F
100
AcDbEntity
  8
0
  6
ByBlock
440
 16777216
100
AcDbLine
 10
3369.27207393047
 20
1019.575546406742
 30
0.0
 11
3369.27207393047
 21
1153.911921693763
 31
0.0
  0
LINE
  5
7E9B
330
7D7F
100
AcDbEntity
  8
0
  6
ByBlock
440
 16777216
100
AcDbLine
 10
4319.272073930469
 20
1019.575546406742
 30
0.0
 11
4319.272073930469
 21
1153.911921693763
 31
0.0
  0
LINE
  5
7E9C
330
7D7F
100
AcDbEntity
  8
0
  6
ByBlock
440
 16777216
100
AcDbLine
 10
3419.27207393047
 20
1128.911921693763
 30
0.0
 11
4269.272073930469
 21
1128.911921693763
 31
0.0
  0
INSERT
  5
7E9D
330
7D7F
100
AcDbEntity
  8
0
  6
ByBlock
440
 16777216
100
AcDbBlockReference
  2
_OPEN
 10
3369.27207393047
 20
1128.911921693763
 30
0.0
 41
50.0
 42
50.0
 43
50.0
 50
180.0
  0
INSERT
  5
7E9E
330
7D7F
100
AcDbEntity
  8
0
  6
ByBlock
440
 16777216
100
AcDbBlockReference
  2
_OPEN
 10
4319.272073930469
 20
1128.911921693763
 30
0.0
 41
50.0
 42
50.0
 43
50.0
  0
MTEXT
  5
7E9F
330
7D7F
100
AcDbEntity
  8
0
  6
ByBlock
440
 16777216
100
AcDbMText
 10
3844.27207393047
 20
1178.911921693763
 30
0.0
 40
75.0
 41
0.0
 46
0.0
 71
     5
 72
     5
  1
\A1;950
 73
     1
 44
1.0
  0
POINT
  5
7EA0
330
7D7F
100
AcDbEntity
  8
DEFPOINTS
  6
ByBlock
 62
     0
440
 16777216
100
AcDbPoint
 10
3369.27207393047
 20
994.5755464067424
 30
0.0
  0
POINT
  5
7EA1
330
7D7F
100
AcDbEntity
  8
DEFPOINTS
  6
ByBlock
 62
     0
440
 16777216
100
AcDbPoint
 10
4319.272073930469
 20
994.5755464067424
 30
0.0
  0
POINT
  5
7EA2
330
7D7F
100
AcDbEntity
  8
DEFPOINTS
  6
ByBlock
 62
     0
440
 16777216
100
AcDbPoint
 10
4319.272073930469
 20
1128.911921693763
 30
0.0
  0
ENDBLK
  5
7EA3
330
7D7F
100
AcDbEntity
  8
0
100
AcDbBlockEnd
  0
BLOCK
  5
7EA4
330
7D8B
100
AcDbEntity
  8
0
100
AcDbBlockBegin
  2
*D9
 70
     1
 10
0.0
 20
0.0
 30
0.0
  3
*D9
  1

  0
LINE
  5
7EA5
330
7D8B
100
AcDbEntity
  8
0
  6
ByBlock
440
 16777216
100
AcDbLine
 10
4349.772073930469
 20
153.593478221399
 30
0.0
 11
4596.274084275781
 21
153.593478221399
 31
0.0
  0
LINE
  5
7EA6
330
7D8B
100
AcDbEntity
  8
0
  6
ByBlock
440
 16777216
100
AcDbLine
 10
4349.772073930469
 20
863.593478221399
 30
0.0
 11
4596.274084275781
 21
863.593478221399
 31
0.0
  0
LINE
  5
7EA7
330
7D8B
100
AcDbEntity
  8
0
  6
ByBlock
440
 16777216
100
AcDbLine
 10
4571.27408427578
 20
203.593478221399
 30
0.0
 11
4571.27408427578
 21
813.593478221399
 31
0.0
  0
INSERT
  5
7EA8
330
7D8B
100
AcDbEntity
  8
0
  6
ByBlock
440
 16777216
100
AcDbBlockReference
  2
_OPEN
 10
4571.27408427578
 20
153.593478221399
 30
0.0
 41
50.0
 42
50.0
 43
50.0
 50
270.0
  0
INSERT
  5
7EA9
330
7D8B
100
AcDbEntity
  8
0
  6
ByBlock
440
 16777216
100
AcDbBlockReference
  2
_OPEN
 10
4571.27408427578
 20
863.593478221399
 30
0.0
 41
50.0
 42
50.0
 43
50.0
 50
90.0
  0
MTEXT
  5
7EAA
330
7D8B
100
AcDbEntity
  8
0
  6
ByBlock
440
 16777216
100
AcDbMText
 10
4521.274084275781
 20
508.5934782213989
 30
0.0
 40
75.0
 41
0.0
 46
0.0
 71
     5
 72
     5
  1
\A1;φ710
 11
0.0
 21
1.0
 31
0.0
 73
     1
 44
1.0
  0
POINT
  5
7EAB
330
7D8B
100
AcDbEntity
  8
DEFPOINTS
  6
ByBlock
 62
     0
440
 16777216
100
AcDbPoint
 10
4324.772073930469
 20
153.593478221399
 30
0.0
  0
POINT
  5
7EAC
330
7D8B
100
AcDbEntity
  8
DEFPOINTS
  6
ByBlock
 62
     0
440
 16777216
100
AcDbPoint
 10
4324.772073930469
 20
863.593478221399
 30
0.0
  0
POINT
  5
7EAD
330
7D8B
100
AcDbEntity
  8
DEFPOINTS
  6
ByBlock
 62
     0
440
 16777216
100
AcDbPoint
 10
4571.27408427578
 20
863.593478221399
 30
0.0
  0
ENDBLK
  5
7EAE
330
7D8B
100
AcDbEntity
  8
0
100
AcDbBlockEnd
  0
BLOCK
  5
7FD4
330
7D97
100
AcDbEntity
  8
0
100
AcDbBlockBegin
  2
*D10
 70
     1
 10
0.0
 20
0.0
 30
0.0
  3
*D10
  1

  0
LINE
  5
7FD5
330
7D97
100
AcDbEntity
  8
0
  6
ByBlock
440
 16777216
100
AcDbLine
 10
1476.196614501463
 20
5417.845000546146
 30
0.0
 11
1476.196614501463
 21
5585.750596843958
 31
0.0
  0
LINE
  5
7FD6
330
7D97
100
AcDbEntity
  8
0
  6
ByBlock
440
 16777216
100
AcDbLine
 10
2376.196614501463
 20
5417.845000546145
 30
0.0
 11
2376.196614501463
 21
5585.750596843958
 31
0.0
  0
LINE
  5
7FD7
330
7D97
100
AcDbEntity
  8
0
  6
ByBlock
440
 16777216
100
AcDbLine
 10
1526.196614501463
 20
5560.750596843958
 30
0.0
 11
2326.196614501463
 21
5560.750596843958
 31
0.0
  0
INSERT
  5
7FD8
330
7D97
100
AcDbEntity
  8
0
  6
ByBlock
440
 16777216
100
AcDbBlockReference
  2
_OPEN
 10
1476.196614501463
 20
5560.750596843958
 30
0.0
 41
50.0
 42
50.0
 43
50.0
 50
180.0
  0
INSERT
  5
7FD9
330
7D97
100
AcDbEntity
  8
0
  6
ByBlock
440
 16777216
100
AcDbBlockReference
  2
_OPEN
 10
2376.196614501463
 20
5560.750596843958
 30
0.0
 41
50.0
 42
50.0
 43
50.0
  0
MTEXT
  5
7FDA
330
7D97
100
AcDbEntity
  8
0
  6
ByBlock
440
 16777216
100
AcDbMText
 10
1926.196614501463
 20
5610.750596843958
 30
0.0
 40
75.0
 41
0.0
 46
0.0
 71
     5
 72
     5
  1
\A1;900
 73
     1
 44
1.0
  0
POINT
  5
7FDB
330
7D97
100
AcDbEntity
  8
DEFPOINTS
  6
ByBlock
 62
     0
440
 16777216
100
AcDbPoint
 10
1476.196614501463
 20
5392.845000546145
 30
0.0
  0
POINT
  5
7FDC
330
7D97
100
AcDbEntity
  8
DEFPOINTS
  6
ByBlock
 62
     0
440
 16777216
100
AcDbPoint
 10
2376.196614501463
 20
5392.845000546145
 30
0.0
  0
POINT
  5
7FDD
330
7D97
100
AcDbEntity
  8
DEFPOINTS
  6
ByBlock
 62
     0
440
 16777216
100
AcDbPoint
 10
2376.196614501463
 20
5560.750596843958
 30
0.0
  0
ENDBLK
  5
7FDE
330
7D97
100
AcDbEntity
  8
0
100
AcDbBlockEnd
  0
BLOCK
  5
7EBA
330
7DA3
100
AcDbEntity
  8
0
100
AcDbBlockBegin
  2
*D11
 70
     1
 10
0.0
 20
0.0
 30
0.0
  3
*D11
  1

  0
LINE
  5
7EBB
330
7DA3
100
AcDbEntity
  8
0
  6
ByBlock
440
 16777216
100
AcDbLine
 10
1700.57214721576
 20
3953.533310535338
 30
0.0
 11
1999.210863865046
 21
3953.533310535338
 31
0.0
  0
LINE
  5
7EBC
330
7DA3
100
AcDbEntity
  8
0
  6
ByBlock
440
 16777216
100
AcDbLine
 10
1700.57214721576
 20
2773.533310535338
 30
0.0
 11
1999.210863865046
 21
2773.533310535338
 31
0.0
  0
LINE
  5
7EBD
330
7DA3
100
AcDbEntity
  8
0
  6
ByBlock
440
 16777216
100
AcDbLine
 10
1974.210863865046
 20
3903.533310535337
 30
0.0
 11
1974.210863865046
 21
2823.533310535338
 31
0.0
  0
INSERT
  5
7EBE
330
7DA3
100
AcDbEntity
  8
0
  6
ByBlock
440
 16777216
100
AcDbBlockReference
  2
_OPEN
 10
1974.210863865046
 20
3953.533310535338
 30
0.0
 41
50.0
 42
50.0
 43
50.0
 50
90.0
  0
INSERT
  5
7EBF
330
7DA3
100
AcDbEntity
  8
0
  6
ByBlock
440
 16777216
100
AcDbBlockReference
  2
_OPEN
 10
1974.210863865046
 20
2773.533310535338
 30
0.0
 41
50.0
 42
50.0
 43
50.0
 50
270.0
  0
MTEXT
  5
7EC0
330
7DA3
100
AcDbEntity
  8
0
  6
ByBlock
440
 16777216
100
AcDbMText
 10
1924.210863865046
 20
3363.533310535338
 30
0.0
 40
75.0
 41
0.0
 46
0.0
 71
     5
 72
     5
  1
\A1;1180
 11
0.0
 21
1.0
 31
0.0
 73
     1
 44
1.0
  0
POINT
  5
7EC1
330
7DA3
100
AcDbEntity
  8
DEFPOINTS
  6
ByBlock
 62
     0
440
 16777216
100
AcDbPoint
 10
1675.57214721576
 20
3953.533310535338
 30
0.0
  0
POINT
  5
7EC2
330
7DA3
100
AcDbEntity
  8
DEFPOINTS
  6
ByBlock
 62
     0
440
 16777216
100
AcDbPoint
 10
1675.57214721576
 20
2773.533310535338
 30
0.0
  0
POINT
  5
7EC3
330
7DA3
100
AcDbEntity
  8
DEFPOINTS
  6
ByBlock
 62
     0
440
 16777216
100
AcDbPoint
 10
1974.210863865046
 20
2773.533310535338
 30
0.0
  0
ENDBLK
  5
7EC4
330
7DA3
100
AcDbEntity
  8
0
100
AcDbBlockEnd
  0
BLOCK
  5
7FE8
330
7DAF
100
AcDbEntity
  8
0
100
AcDbBlockBegin
  2
*D12
 70
     1
 10
0.0
 20
0.0
 30
0.0
  3
*D12
  1

  0
LINE
  5
7FE9
330
7DAF
100
AcDbEntity
  8
0
  6
ByBlock
440
 16777216
100
AcDbLine
 10
651.196614501463
 20
4962.845000546146
 30
0.0
 11
458.1996205868891
 21
4962.845000546146
 31
0.0
  0
LINE
  5
7FEA
330
7DAF
100
AcDbEntity
  8
0
  6
ByBlock
440
 16777216
100
AcDbLine
 10
651.196614501463
 20
4212.845000546146
 30
0.0
 11
458.1996205868891
 21
4212.845000546146
 31
0.0
  0
LINE
  5
7FEB
330
7DAF
100
AcDbEntity
  8
0
  6
ByBlock
440
 16777216
100
AcDbLine
 10
483.1996205868891
 20
4912.845000546147
 30
0.0
 11
483.1996205868891
 21
4262.845000546146
 31
0.0
  0
INSERT
  5
7FEC
330
7DAF
100
AcDbEntity
  8
0
  6
ByBlock
440
 16777216
100
AcDbBlockReference
  2
_OPEN
 10
483.1996205868891
 20
4962.845000546146
 30
0.0
 41
50.0
 42
50.0
 43
50.0
 50
90.0
  0
INSERT
  5
7FED
330
7DAF
100
AcDbEntity
  8
0
  6
ByBlock
440
 16777216
100
AcDbBlockReference
  2
_OPEN
 10
483.1996205868891
 20
4212.845000546146
 30
0.0
 41
50.0
 42
50.0
 43
50.0
 50
270.0
  0
MTEXT
  5
7FEE
330
7DAF
100
AcDbEntity
  8
0
  6
ByBlock
440
 16777216
100
AcDbMText
 10
433.1996205868891
 20
4587.845000546146
 30
0.0
 40
75.0
 41
0.0
 46
0.0
 71
     5
 72
     5
  1
\A1;750
 11
0.0
 21
1.0
 31
0.0
 73
     1
 44
1.0
  0
POINT
  5
7FEF
330
7DAF
100
AcDbEntity
  8
DEFPOINTS
  6
ByBlock
 62
     0
440
 16777216
100
AcDbPoint
 10
676.196614501463
 20
4962.845000546146
 30
0.0
  0
POINT
  5
7FF0
330
7DAF
100
AcDbEntity
  8
DEFPOINTS
  6
ByBlock
 62
     0
440
 16777216
100
AcDbPoint
 10
676.196614501463
 20
4212.845000546146
 30
0.0
  0
POINT
  5
7FF1
330
7DAF
100
AcDbEntity
  8
DEFPOINTS
  6
ByBlock
 62
     0
440
 16777216
100
AcDbPoint
 10
483.1996205868891
 20
4212.845000546146
 30
0.0
  0
ENDBLK
  5
7FF2
330
7DAF
100
AcDbEntity
  8
0
100
AcDbBlockEnd
  0
BLOCK
  5
7ED0
330
7DBB
100
AcDbEntity
  8
0
100
AcDbBlockBegin
  2
*D13
 70
     1
 10
0.0
 20
0.0
 30
0.0
  3
*D13
  1

  0
LINE
  5
7ED1
330
7DBB
100
AcDbEntity
  8
0
  6
ByBlock
440
 16777216
100
AcDbLine
 10
-24.4278527842398
 20
2748.53331053534
 30
0.0
 11
-24.4278527842398
 21
2326.612722814356
 31
0.0
  0
LINE
  5
7ED2
330
7DBB
100
AcDbEntity
  8
0
  6
ByBlock
440
 16777216
100
AcDbLine
 10
1675.57214721576
 20
2748.533310535338
 30
0.0
 11
1675.57214721576
 21
2326.612722814356
 31
0.0
  0
LINE
  5
7ED3
330
7DBB
100
AcDbEntity
  8
0
  6
ByBlock
440
 16777216
100
AcDbLine
 10
25.5721472157602
 20
2351.612722814356
 30
0.0
 11
1625.57214721576
 21
2351.612722814356
 31
0.0
  0
INSERT
  5
7ED4
330
7DBB
100
AcDbEntity
  8
0
  6
ByBlock
440
 16777216
100
AcDbBlockReference
  2
_OPEN
 10
-24.4278527842398
 20
2351.612722814356
 30
0.0
 41
50.0
 42
50.0
 43
50.0
 50
180.0
  0
INSERT
  5
7ED5
330
7DBB
100
AcDbEntity
  8
0
  6
ByBlock
440
 16777216
100
AcDbBlockReference
  2
_OPEN
 10
1675.57214721576
 20
2351.612722814356
 30
0.0
 41
50.0
 42
50.0
 43
50.0
  0
MTEXT
  5
7ED6
330
7DBB
100
AcDbEntity
  8
0
  6
ByBlock
440
 16777216
100
AcDbMText
 10
825.5721472157601
 20
2401.612722814356
 30
0.0
 40
75.0
 41
0.0
 46
0.0
 71
     5
 72
     5
  1
\A1;1700
 73
     1
 44
1.0
  0
POINT
  5
7ED7
330
7DBB
100
AcDbEntity
  8
DEFPOINTS
  6
ByBlock
 62
     0
440
 16777216
100
AcDbPoint
 10
-24.4278527842398
 20
2773.53331053534
 30
0.0
  0
POINT
  5
7ED8
330
7DBB
100
AcDbEntity
  8
DEFPOINTS
  6
ByBlock
 62
     0
440
 16777216
100
AcDbPoint
 10
1675.57214721576
 20
2773.533310535338
 30
0.0
  0
POINT
  5
7ED9
330
7DBB
100
AcDbEntity
  8
DEFPOINTS
  6
ByBlock
 62
     0
440
 16777216
100
AcDbPoint
 10
1675.57214721576
 20
2351.612722814356
 30
0.0
  0
ENDBLK
  5
7EDA
330
7DBB
100
AcDbEntity
  8
0
100
AcDbBlockEnd
  0
BLOCK
  5
7FC9
330
7DC7
100
AcDbEntity
  8
0
100
AcDbBlockBegin
  2
*D14
 70
     1
 10
0.0
 20
0.0
 30
0.0
  3
*D14
  1

  0
LINE
  5
7FCA
330
7DC7
100
AcDbEntity
  8
0
  6
ByBlock
440
 16777216
100
AcDbLine
 10
676.196614501463
 20
4987.845000546147
 30
0.0
 11
676.196614501463
 21
5585.750596843958
 31
0.0
  0
LINE
  5
7FCB
330
7DC7
100
AcDbEntity
  8
0
  6
ByBlock
440
 16777216
100
AcDbLine
 10
1476.196614501463
 20
5417.845000546146
 30
0.0
 11
1476.196614501463
 21
5585.750596843958
 31
0.0
  0
LINE
  5
7FCC
330
7DC7
100
AcDbEntity
  8
0
  6
ByBlock
440
 16777216
100
AcDbLine
 10
726.196614501463
 20
5560.750596843958
 30
0.0
 11
1426.196614501463
 21
5560.750596843958
 31
0.0
  0
INSERT
  5
7FCD
330
7DC7
100
AcDbEntity
  8
0
  6
ByBlock
440
 16777216
100
AcDbBlockReference
  2
_OPEN
 10
676.196614501463
 20
5560.750596843958
 30
0.0
 41
50.0
 42
50.0
 43
50.0
 50
180.0
  0
INSERT
  5
7FCE
330
7DC7
100
AcDbEntity
  8
0
  6
ByBlock
440
 16777216
100
AcDbBlockReference
  2
_OPEN
 10
1476.196614501463
 20
5560.750596843958
 30
0.0
 41
50.0
 42
50.0
 43
50.0
  0
MTEXT
  5
7FCF
330
7DC7
100
AcDbEntity
  8
0
  6
ByBlock
440
 16777216
100
AcDbMText
 10
1076.196614501463
 20
5610.750596843958
 30
0.0
 40
75.0
 41
0.0
 46
0.0
 71
     5
 72
     5
  1
\A1;800
 73
     1
 44
1.0
  0
POINT
  5
7FD0
330
7DC7
100
AcDbEntity
  8
DEFPOINTS
  6
ByBlock
 62
     0
440
 16777216
100
AcDbPoint
 10
676.196614501463
 20
4962.845000546146
 30
0.0
  0
POINT
  5
7FD1
330
7DC7
100
AcDbEntity
  8
DEFPOINTS
  6
ByBlock
 62
     0
440
 16777216
100
AcDbPoint
 10
1476.196614501463
 20
5392.845000546145
 30
0.0
  0
POINT
  5
7FD2
330
7DC7
100
AcDbEntity
  8
DEFPOINTS
  6
ByBlock
 62
     0
440
 16777216
100
AcDbPoint
 10
1476.196614501463
 20
5560.750596843958
 30
0.0
  0
ENDBLK
  5
7FD3
330
7DC7
100
AcDbEntity
  8
0
100
AcDbBlockEnd
  0
BLOCK
  5
7EE6
330
7DD3
100
AcDbEntity
  8
0
100
AcDbBlockBegin
  2
*D15
 70
     1
 10
0.0
 20
0.0
 30
0.0
  3
*D15
  1

  0
LINE
  5
7EE7
330
7DD3
100
AcDbEntity
  8
0
  6
ByBlock
440
 16777216
100
AcDbLine
 10
1872.83798602119
 20
508.5934782213989
 30
0.0
 11
2051.325961501076
 21
508.5934782213989
 31
0.0
  0
LINE
  5
7EE8
330
7DD3
100
AcDbEntity
  8
0
  6
ByBlock
440
 16777216
100
AcDbLine
 10
1700.57214721576
 20
-131.406521778601
 30
0.0
 11
2051.325961501076
 21
-131.406521778601
 31
0.0
  0
LINE
  5
7EE9
330
7DD3
100
AcDbEntity
  8
0
  6
ByBlock
440
 16777216
100
AcDbLine
 10
2026.325961501076
 20
458.5934782213989
 30
0.0
 11
2026.325961501076
 21
-81.40652177860102
 31
0.0
  0
INSERT
  5
7EEA
330
7DD3
100
AcDbEntity
  8
0
  6
ByBlock
440
 16777216
100
AcDbBlockReference
  2
_OPEN
 10
2026.325961501076
 20
508.5934782213989
 30
0.0
 41
50.0
 42
50.0
 43
50.0
 50
90.0
  0
INSERT
  5
7EEB
330
7DD3
100
AcDbEntity
  8
0
  6
ByBlock
440
 16777216
100
AcDbBlockReference
  2
_OPEN
 10
2026.325961501076
 20
-131.406521778601
 30
0.0
 41
50.0
 42
50.0
 43
50.0
 50
270.0
  0
MTEXT
  5
7EEC
330
7DD3
100
AcDbEntity
  8
0
  6
ByBlock
440
 16777216
100
AcDbMText
 10
1976.325961501076
 20
188.593478221399
 30
0.0
 40
75.0
 41
0.0
 46
0.0
 71
     5
 72
     5
  1
\A1;640
 11
0.0
 21
1.0
 31
0.0
 73
     1
 44
1.0
  0
POINT
  5
7EED
330
7DD3
100
AcDbEntity
  8
DEFPOINTS
  6
ByBlock
 62
     0
440
 16777216
100
AcDbPoint
 10
1847.83798602119
 20
508.5934782213989
 30
0.0
  0
POINT
  5
7EEE
330
7DD3
100
AcDbEntity
  8
DEFPOINTS
  6
ByBlock
 62
     0
440
 16777216
100
AcDbPoint
 10
1675.57214721576
 20
-131.406521778601
 30
0.0
  0
POINT
  5
7EEF
330
7DD3
100
AcDbEntity
  8
DEFPOINTS
  6
ByBlock
 62
     0
440
 16777216
100
AcDbPoint
 10
2026.325961501076
 20
-131.406521778601
 30
0.0
  0
ENDBLK
  5
7EF0
330
7DD3
100
AcDbEntity
  8
0
100
AcDbBlockEnd
  0
BLOCK
  5
7FA8
330
7DED
100
AcDbEntity
  8
0
100
AcDbBlockBegin
  2
*D16
 70
     1
 10
0.0
 20
0.0
 30
0.0
  3
*D16
  1

  0
LINE
  5
834A
330
7DED
100
AcDbEntity
  8
3
 62
     0
440
 16777216
370
    -2
100
AcDbLine
 10
2388.696614501463
 20
1753.059442791847
 30
0.0
 11
2751.950428786779
 21
1753.059442791847
 31
0.0
  0
LINE
  5
834B
330
7DED
100
AcDbEntity
  8
3
 62
     0
440
 16777216
370
    -2
100
AcDbLine
 10
2388.696614501463
 20
1653.059442791847
 30
0.0
 11
2751.950428786779
 21
1653.059442791847
 31
0.0
  0
LINE
  5
834C
330
7DED
100
AcDbEntity
  8
3
 62
     0
440
 16777216
370
    -2
100
AcDbLine
 10
2726.950428786779
 20
1803.059442791847
 30
0.0
 11
2726.950428786779
 21
1853.059442791847
 31
0.0
  0
LINE
  5
834D
330
7DED
100
AcDbEntity
  8
3
 62
     0
440
 16777216
370
    -2
100
AcDbLine
 10
2726.950428786779
 20
1603.059442791847
 30
0.0
 11
2726.950428786779
 21
1324.488014220419
 31
0.0
  0
LINE
  5
834E
330
7DED
100
AcDbEntity
  8
3
 62
     0
440
 16777216
370
    -2
100
AcDbLine
 10
2726.950428786779
 20
1753.059442791847
 30
0.0
 11
2726.950428786779
 21
1653.059442791847
 31
0.0
  0
INSERT
  5
834F
330
7DED
100
AcDbEntity
  8
3
 62
     0
440
 16777216
370
    -2
100
AcDbBlockReference
  2
_DOT
 10
2726.950428786779
 20
1753.059442791847
 30
0.0
 41
50.0
 42
50.0
 43
50.0
 50
270.0
  0
INSERT
  5
8350
330
7DED
100
AcDbEntity
  8
3
 62
     0
440
 16777216
370
    -2
100
AcDbBlockReference
  2
_OPEN
 10
2726.950428786779
 20
1653.059442791847
 30
0.0
 41
50.0
 42
50.0
 43
50.0
 50
90.0
  0
MTEXT
  5
8351
330
7DED
100
AcDbEntity
  8
3
 62
     0
440
 16777216
100
AcDbMText
 10
2664.450428786778
 20
1438.773728506134
 30
0.0
 40
75.0
 41
0.0
 46
0.0
 71
     5
 72
     1
  1
\A1;100
 11
0.0000000000000001
 21
1.0
 31
0.0
 73
     1
 44
1.0
  0
POINT
  5
8352
330
7DED
100
AcDbEntity
  8
DEFPOINTS
 62
     0
440
 16777216
100
AcDbPoint
 10
2376.196614501463
 20
1753.059442791847
 30
0.0
  0
POINT
  5
8353
330
7DED
100
AcDbEntity
  8
DEFPOINTS
 62
     0
440
 16777216
100
AcDbPoint
 10
2376.196614501463
 20
1653.059442791847
 30
0.0
  0
POINT
  5
8354
330
7DED
100
AcDbEntity
  8
DEFPOINTS
 62
     0
440
 16777216
100
AcDbPoint
 10
2726.950428786779
 20
1653.059442791847
 30
0.0
  0
ENDBLK
  5
7FB4
330
7DED
100
AcDbEntity
  8
0
100
AcDbBlockEnd
  0
BLOCK
  5
7F0B
330
7DFB
100
AcDbEntity
  8
0
100
AcDbBlockBegin
  2
*D17
 70
     1
 10
0.0
 20
0.0
 30
0.0
  3
*D17
  1

  0
LINE
  5
7F0C
330
7DFB
100
AcDbEntity
  8
0
  6
ByBlock
440
 16777216
100
AcDbLine
 10
4421.77207393047
 20
508.3934782213988
 30
0.0
 11
4421.77207393047
 21
1293.29938277883
 31
0.0
  0
LINE
  5
7F0D
330
7DFB
100
AcDbEntity
  8
0
  6
ByBlock
440
 16777216
100
AcDbLine
 10
3844.27207393047
 20
1264.410951814083
 30
0.0
 11
3844.27207393047
 21
1293.29938277883
 31
0.0
  0
LINE
  5
7F0E
330
7DFB
100
AcDbEntity
  8
0
  6
ByBlock
440
 16777216
100
AcDbLine
 10
4371.77207393047
 20
1268.29938277883
 30
0.0
 11
3894.27207393047
 21
1268.29938277883
 31
0.0
  0
INSERT
  5
7F0F
330
7DFB
100
AcDbEntity
  8
0
  6
ByBlock
440
 16777216
100
AcDbBlockReference
  2
_OPEN
 10
4421.77207393047
 20
1268.29938277883
 30
0.0
 41
50.0
 42
50.0
 43
50.0
  0
INSERT
  5
7F10
330
7DFB
100
AcDbEntity
  8
0
  6
ByBlock
440
 16777216
100
AcDbBlockReference
  2
_OPEN
 10
3844.27207393047
 20
1268.29938277883
 30
0.0
 41
50.0
 42
50.0
 43
50.0
 50
180.0
  0
MTEXT
  5
7F11
330
7DFB
100
AcDbEntity
  8
0
  6
ByBlock
440
 16777216
100
AcDbMText
 10
4133.02207393047
 20
1337.942239921688
 30
0.0
 40
75.0
 41
0.0
 46
0.0
 71
     5
 72
     5
  1
\A1;(620)
 73
     1
 44
1.0
  0
POINT
  5
7F12
330
7DFB
100
AcDbEntity
  8
DEFPOINTS
  6
ByBlock
 62
     0
440
 16777216
100
AcDbPoint
 10
4421.77207393047
 20
483.3934782213988
 30
0.0
  0
POINT
  5
7F13
330
7DFB
100
AcDbEntity
  8
DEFPOINTS
  6
ByBlock
 62
     0
440
 16777216
100
AcDbPoint
 10
3844.27207393047
 20
1239.410951814083
 30
0.0
  0
POINT
  5
7F14
330
7DFB
100
AcDbEntity
  8
DEFPOINTS
  6
ByBlock
 62
     0
440
 16777216
100
AcDbPoint
 10
3844.27207393047
 20
1268.29938277883
 30
0.0
  0
ENDBLK
  5
7F15
330
7DFB
100
AcDbEntity
  8
0
100
AcDbBlockEnd
  0
BLOCK
  5
7FA4
330
7F9E
100
AcDbEntity
  8
0
100
AcDbBlockBegin
  2
_DOT
 70
     0
 10
0.0
 20
0.0
 30
0.0
  3
_DOT
  1

  0
LWPOLYLINE
  5
7F9F
330
7F9E
100
AcDbEntity
  8
0
  6
ByBlock
 62
     0
100
AcDbPolyline
 90
        2
 70
     1
 43
0.25
 10
-0.125
 20
0.0
 42
1.0
 10
0.125
 20
0.0
 42
1.0
  0
LINE
  5
7FA3
330
7F9E
100
AcDbEntity
  8
0
  6
ByBlock
 62
     0
100
AcDbLine
 10
-0.25
 20
0.0
 30
0.0
 11
-1.0
 21
0.0
 31
0.0
  0
ENDBLK
  5
7FA5
330
7F9E
100
AcDbEntity
  8
0
100
AcDbBlockEnd
  0
BLOCK
  5
8028
330
8027
100
AcDbEntity
  8
0
100
AcDbBlockBegin
  2
_NONE
 70
     0
 10
0.0
 20
0.0
 30
0.0
  3
_NONE
  1

  0
CIRCLE
  5
8029
330
8027
100
AcDbEntity
  8
0
  6
ByBlock
 62
     0
100
AcDbCircle
 10
0.0
 20
0.0
 30
0.0
 40
0.25
  0
ENDBLK
  5
802A
330
8027
100
AcDbEntity
  8
0
100
AcDbBlockEnd
  0
BLOCK
  5
802C
330
802B
100
AcDbEntity
  8
0
100
AcDbBlockBegin
  2
*D24
 70
     1
 10
0.0
 20
0.0
 30
0.0
  3
*D24
  1

  0
LINE
  5
836B
330
802B
100
AcDbEntity
  8
3
 62
     0
440
 16777216
370
    -2
100
AcDbLine
 10
2726.885144106866
 20
1753.059442791847
 30
0.0
 11
2726.885144106866
 21
1833.059442791847
 31
0.0
  0
MTEXT
  5
836C
330
802B
100
AcDbEntity
  8
3
 62
     0
440
 16777216
100
AcDbMText
 10
2824.242849865506
 20
1793.059442791848
 30
0.0
 40
75.0
 41
0.0
 46
0.0
 71
     5
 72
     1
  1
\A1;(80)
 11
0.0000000000000001
 21
1.0
 31
0.0
 73
     1
 44
1.0
  0
POINT
  5
836D
330
802B
100
AcDbEntity
  8
DEFPOINTS
 62
     0
440
 16777216
100
AcDbPoint
 10
2376.196614501463
 20
1753.059442791847
 30
0.0
  0
POINT
  5
836E
330
802B
100
AcDbEntity
  8
DEFPOINTS
 62
     0
440
 16777216
100
AcDbPoint
 10
2376.196614501463
 20
1833.059442791848
 30
0.0
  0
POINT
  5
836F
330
802B
100
AcDbEntity
  8
DEFPOINTS
 62
     0
440
 16777216
100
AcDbPoint
 10
2726.885144106866
 20
1833.059442791847
 30
0.0
  0
ENDBLK
  5
8032
330
802B
100
AcDbEntity
  8
0
100
AcDbBlockEnd
  0
BLOCK
  5
8035
330
8034
100
AcDbEntity
  8
0
100
AcDbBlockBegin
  2
*D25
 70
     1
 10
0.0
 20
0.0
 30
0.0
  3
*D25
  1

  0
LINE
  5
835A
330
8034
100
AcDbEntity
  8
3
 62
     0
440
 16777216
370
    -2
100
AcDbLine
 10
1951.696614501463
 20
2973.059442791848
 30
0.0
 11
2951.726097120431
 21
2973.059442791848
 31
0.0
  0
LINE
  5
835B
330
8034
100
AcDbEntity
  8
3
 62
     0
440
 16777216
370
    -2
100
AcDbLine
 10
2388.696614501463
 20
1653.059442791847
 30
0.0
 11
2951.726097120431
 21
1653.059442791847
 31
0.0
  0
LINE
  5
835C
330
8034
100
AcDbEntity
  8
3
 62
     0
440
 16777216
370
    -2
100
AcDbLine
 10
2926.726097120431
 20
2923.059442791849
 30
0.0
 11
2926.726097120431
 21
1703.059442791847
 31
0.0
  0
INSERT
  5
835D
330
8034
100
AcDbEntity
  8
3
 62
     0
440
 16777216
370
    -2
100
AcDbBlockReference
  2
_OPEN
 10
2926.726097120431
 20
2973.059442791848
 30
0.0
 41
50.0
 42
50.0
 43
50.0
 50
90.0
  0
INSERT
  5
835E
330
8034
100
AcDbEntity
  8
3
 62
     0
440
 16777216
370
    -2
100
AcDbBlockReference
  2
_OPEN
 10
2926.726097120431
 20
1653.059442791847
 30
0.0
 41
50.0
 42
50.0
 43
50.0
 50
270.0
  0
MTEXT
  5
835F
330
8034
100
AcDbEntity
  8
3
 62
     0
440
 16777216
100
AcDbMText
 10
2844.583239977573
 20
2313.059442791848
 30
0.0
 40
75.0
 41
0.0
 46
0.0
 71
     5
 72
     1
  1
\A1;(1320)
 11
0.0000000000000001
 21
1.0
 31
0.0
 73
     1
 44
1.0
  0
POINT
  5
8360
330
8034
100
AcDbEntity
  8
DEFPOINTS
 62
     0
440
 16777216
100
AcDbPoint
 10
1939.196614501463
 20
2973.059442791848
 30
0.0
  0
POINT
  5
8361
330
8034
100
AcDbEntity
  8
DEFPOINTS
 62
     0
440
 16777216
100
AcDbPoint
 10
2376.196614501463
 20
1653.059442791847
 30
0.0
  0
POINT
  5
8362
330
8034
100
AcDbEntity
  8
DEFPOINTS
 62
     0
440
 16777216
100
AcDbPoint
 10
2926.726097120431
 20
1653.059442791847
 30
0.0
  0
ENDBLK
  5
803F
330
8034
100
AcDbEntity
  8
0
100
AcDbBlockEnd
  0
BLOCK
  5
8372
330
8371
100
AcDbEntity
  8
0
100
AcDbBlockBegin
  2
*D48
 70
     1
 10
0.0
 20
0.0
 30
0.0
  3
*D48
  1

  0
LINE
  5
8432
330
8371
100
AcDbEntity
  8
3
 62
     0
440
 16777216
370
    -2
100
AcDbLine
 10
2560.962453306893
 20
2473.059442791848
 30
0.0
 11
2751.950428786779
 21
2473.059442791848
 31
0.0
  0
LINE
  5
8433
330
8371
100
AcDbEntity
  8
3
 62
     0
440
 16777216
370
    -2
100
AcDbLine
 10
1951.696614501463
 20
2973.059442791849
 30
0.0
 11
2751.950428786779
 21
2973.059442791849
 31
0.0
  0
LINE
  5
8434
330
8371
100
AcDbEntity
  8
3
 62
     0
440
 16777216
370
    -2
100
AcDbLine
 10
2726.950428786779
 20
2523.059442791848
 30
0.0
 11
2726.950428786779
 21
2923.059442791849
 31
0.0
  0
INSERT
  5
8435
330
8371
100
AcDbEntity
  8
3
 62
     0
440
 16777216
370
    -2
100
AcDbBlockReference
  2
_OPEN
 10
2726.950428786779
 20
2473.059442791848
 30
0.0
 41
50.0
 42
50.0
 43
50.0
 50
270.0
  0
INSERT
  5
8436
330
8371
100
AcDbEntity
  8
3
 62
     0
440
 16777216
370
    -2
100
AcDbBlockReference
  2
_OPEN
 10
2726.950428786779
 20
2973.059442791849
 30
0.0
 41
50.0
 42
50.0
 43
50.0
 50
90.0
  0
MTEXT
  5
8437
330
8371
100
AcDbEntity
  8
3
 62
     0
440
 16777216
100
AcDbMText
 10
2664.450428786778
 20
2723.059442791849
 30
0.0
 40
75.0
 41
0.0
 46
0.0
 71
     5
 72
     1
  1
\A1;500
 11
0.0000000000000001
 21
1.0
 31
0.0
 73
     1
 44
1.0
  0
POINT
  5
8438
330
8371
100
AcDbEntity
  8
DEFPOINTS
 62
     0
440
 16777216
100
AcDbPoint
 10
2548.462453306893
 20
2473.059442791848
 30
0.0
  0
POINT
  5
8439
330
8371
100
AcDbEntity
  8
DEFPOINTS
 62
     0
440
 16777216
100
AcDbPoint
 10
1939.196614501463
 20
2973.059442791849
 30
0.0
  0
POINT
  5
843A
330
8371
100
AcDbEntity
  8
DEFPOINTS
 62
     0
440
 16777216
100
AcDbPoint
 10
2726.950428786779
 20
2973.059442791849
 30
0.0
  0
ENDBLK
  5
8373
330
8371
100
AcDbEntity
  8
0
100
AcDbBlockEnd
  0
BLOCK
  5
8388
330
8387
100
AcDbEntity
  8
0
100
AcDbBlockBegin
  2
*D49
 70
     1
 10
0.0
 20
0.0
 30
0.0
  3
*D49
  1

  0
LINE
  5
8429
330
8387
100
AcDbEntity
  8
3
 62
     0
440
 16777216
370
    -2
100
AcDbLine
 10
1926.196614501463
 20
3290.61072724899
 30
0.0
 11
1926.196614501463
 21
3249.875600044739
 31
0.0
  0
LINE
  5
842A
330
8387
100
AcDbEntity
  8
3
 62
     0
440
 16777216
370
    -2
100
AcDbLine
 10
2415.196614501464
 20
2432.559442791849
 30
0.0
 11
2415.196614501464
 21
3299.875600044739
 31
0.0
  0
LINE
  5
842B
330
8387
100
AcDbEntity
  8
3
 62
     0
440
 16777216
370
    -2
100
AcDbLine
 10
1976.196614501463
 20
3274.875600044739
 30
0.0
 11
2365.196614501464
 21
3274.875600044739
 31
0.0
  0
INSERT
  5
842C
330
8387
100
AcDbEntity
  8
3
 62
     0
440
 16777216
370
    -2
100
AcDbBlockReference
  2
_OPEN
 10
1926.196614501463
 20
3274.875600044739
 30
0.0
 41
50.0
 42
50.0
 43
50.0
 50
180.0
  0
INSERT
  5
842D
330
8387
100
AcDbEntity
  8
3
 62
     0
440
 16777216
370
    -2
100
AcDbBlockReference
  2
_OPEN
 10
2415.196614501464
 20
3274.875600044739
 30
0.0
 41
50.0
 42
50.0
 43
50.0
  0
MTEXT
  5
842E
330
8387
100
AcDbEntity
  8
3
 62
     0
440
 16777216
100
AcDbMText
 10
2170.696614501464
 20
3337.375600044739
 30
0.0
 40
75.0
 41
0.0
 46
0.0
 71
     5
 72
     1
  1
\A1;489
 73
     1
 44
1.0
  0
POINT
  5
842F
330
8387
100
AcDbEntity
  8
DEFPOINTS
 62
     0
440
 16777216
100
AcDbPoint
 10
1926.196614501463
 20
3303.11072724899
 30
0.0
  0
POINT
  5
8430
330
8387
100
AcDbEntity
  8
DEFPOINTS
 62
     0
440
 16777216
100
AcDbPoint
 10
2415.196614501464
 20
2420.05944279185
 30
0.0
  0
POINT
  5
8431
330
8387
100
AcDbEntity
  8
DEFPOINTS
 62
     0
440
 16777216
100
AcDbPoint
 10
2415.196614501464
 20
3274.875600044739
 30
0.0
  0
ENDBLK
  5
8389
330
8387
100
AcDbEntity
  8
0
100
AcDbBlockEnd
  0
BLOCK
  5
839E
330
839D
100
AcDbEntity
  8
0
100
AcDbBlockBegin
  2
*D50
 70
     1
 10
0.0
 20
0.0
 30
0.0
  3
*D50
  1

  0
LINE
  5
83A0
330
839D
100
AcDbEntity
  8
3
 62
     0
440
 16777216
370
    -2
100
AcDbLine
 10
676.196614501463
 20
1945.559442791848
 30
0.0
 11
676.1966145014631
 21
3477.144219292576
 31
0.0
  0
LINE
  5
83A1
330
839D
100
AcDbEntity
  8
3
 62
     0
440
 16777216
370
    -2
100
AcDbLine
 10
2415.196614501464
 20
2432.559442791849
 30
0.0
 11
2415.196614501464
 21
3477.144219292576
 31
0.0
  0
LINE
  5
83A2
330
839D
100
AcDbEntity
  8
3
 62
     0
440
 16777216
370
    -2
100
AcDbLine
 10
726.1966145014631
 20
3452.144219292576
 30
0.0
 11
2365.196614501464
 21
3452.144219292576
 31
0.0
  0
INSERT
  5
83A3
330
839D
100
AcDbEntity
  8
3
 62
     0
440
 16777216
370
    -2
100
AcDbBlockReference
  2
_OPEN
 10
676.1966145014631
 20
3452.144219292576
 30
0.0
 41
50.0
 42
50.0
 43
50.0
 50
180.0
  0
INSERT
  5
83A4
330
839D
100
AcDbEntity
  8
3
 62
     0
440
 16777216
370
    -2
100
AcDbBlockReference
  2
_OPEN
 10
2415.196614501464
 20
3452.144219292576
 30
0.0
 41
50.0
 42
50.0
 43
50.0
  0
MTEXT
  5
83A5
330
839D
100
AcDbEntity
  8
3
 62
     0
440
 16777216
100
AcDbMText
 10
1545.696614501463
 20
3534.287076435433
 30
0.0
 40
75.0
 41
0.0
 46
0.0
 71
     5
 72
     1
  1
\A1;(1739)
 73
     1
 44
1.0
  0
POINT
  5
83A6
330
839D
100
AcDbEntity
  8
DEFPOINTS
 62
     0
440
 16777216
100
AcDbPoint
 10
676.196614501463
 20
1933.059442791847
 30
0.0
  0
POINT
  5
83A7
330
839D
100
AcDbEntity
  8
DEFPOINTS
 62
     0
440
 16777216
100
AcDbPoint
 10
2415.196614501464
 20
2420.05944279185
 30
0.0
  0
POINT
  5
83A8
330
839D
100
AcDbEntity
  8
DEFPOINTS
 62
     0
440
 16777216
100
AcDbPoint
 10
2415.196614501464
 20
3452.144219292576
 30
0.0
  0
ENDBLK
  5
839F
330
839D
100
AcDbEntity
  8
0
100
AcDbBlockEnd
  0
BLOCK
  5
83AB
330
83AA
100
AcDbEntity
  8
0
100
AcDbBlockBegin
  2
*D51
 70
     1
 10
0.0
 20
0.0
 30
0.0
  3
*D51
  1

  0
LINE
  5
8444
330
83AA
100
AcDbEntity
  8
3
 62
     0
440
 16777216
370
    -2
100
AcDbLine
 10
676.196614501463
 20
1640.559442791847
 30
0.0
 11
676.196614501463
 21
1451.398285640098
 31
0.0
  0
LINE
  5
8445
330
83AA
100
AcDbEntity
  8
3
 62
     0
440
 16777216
370
    -2
100
AcDbLine
 10
1926.196614501463
 20
1640.559442791847
 30
0.0
 11
1926.196614501463
 21
1451.398285640098
 31
0.0
  0
LINE
  5
8446
330
83AA
100
AcDbEntity
  8
3
 62
     0
440
 16777216
370
    -2
100
AcDbLine
 10
726.196614501463
 20
1476.398285640098
 30
0.0
 11
1876.196614501463
 21
1476.398285640098
 31
0.0
  0
INSERT
  5
8447
330
83AA
100
AcDbEntity
  8
3
 62
     0
440
 16777216
370
    -2
100
AcDbBlockReference
  2
_OPEN
 10
676.196614501463
 20
1476.398285640098
 30
0.0
 41
50.0
 42
50.0
 43
50.0
 50
180.0
  0
INSERT
  5
8448
330
83AA
100
AcDbEntity
  8
3
 62
     0
440
 16777216
370
    -2
100
AcDbBlockReference
  2
_OPEN
 10
1926.196614501463
 20
1476.398285640098
 30
0.0
 41
50.0
 42
50.0
 43
50.0
  0
MTEXT
  5
8449
330
83AA
100
AcDbEntity
  8
3
 62
     0
440
 16777216
100
AcDbMText
 10
1301.196614501463
 20
1538.898285640098
 30
0.0
 40
75.0
 41
0.0
 46
0.0
 71
     5
 72
     1
  1
\A1;1250
 73
     1
 44
1.0
  0
POINT
  5
844A
330
83AA
100
AcDbEntity
  8
DEFPOINTS
 62
     0
440
 16777216
100
AcDbPoint
 10
676.196614501463
 20
1653.059442791847
 30
0.0
  0
POINT
  5
844B
330
83AA
100
AcDbEntity
  8
DEFPOINTS
 62
     0
440
 16777216
100
AcDbPoint
 10
1926.196614501463
 20
1653.059442791847
 30
0.0
  0
POINT
  5
844C
330
83AA
100
AcDbEntity
  8
DEFPOINTS
 62
     0
440
 16777216
100
AcDbPoint
 10
1926.196614501463
 20
1476.398285640098
 30
0.0
  0
ENDBLK
  5
83AC
330
83AA
100
AcDbEntity
  8
0
100
AcDbBlockEnd
  0
BLOCK
  5
83B8
330
83B7
100
AcDbEntity
  8
0
100
AcDbBlockBegin
  2
*D52
 70
     1
 10
0.0
 20
0.0
 30
0.0
  3
*D52
  1

  0
LINE
  5
843B
330
83B7
100
AcDbEntity
  8
3
 62
     0
440
 16777216
370
    -2
100
AcDbLine
 10
1926.196614501463
 20
1640.559442791847
 30
0.0
 11
1926.196614501463
 21
1451.398285640098
 31
0.0
  0
LINE
  5
843C
330
83B7
100
AcDbEntity
  8
3
 62
     0
440
 16777216
370
    -2
100
AcDbLine
 10
2376.196614501463
 20
1640.559442791847
 30
0.0
 11
2376.196614501463
 21
1451.398285640098
 31
0.0
  0
LINE
  5
843D
330
83B7
100
AcDbEntity
  8
3
 62
     0
440
 16777216
370
    -2
100
AcDbLine
 10
1976.196614501463
 20
1476.398285640098
 30
0.0
 11
2326.196614501463
 21
1476.398285640098
 31
0.0
  0
INSERT
  5
843E
330
83B7
100
AcDbEntity
  8
3
 62
     0
440
 16777216
370
    -2
100
AcDbBlockReference
  2
_OPEN
 10
1926.196614501463
 20
1476.398285640098
 30
0.0
 41
50.0
 42
50.0
 43
50.0
 50
180.0
  0
INSERT
  5
843F
330
83B7
100
AcDbEntity
  8
3
 62
     0
440
 16777216
370
    -2
100
AcDbBlockReference
  2
_OPEN
 10
2376.196614501463
 20
1476.398285640098
 30
0.0
 41
50.0
 42
50.0
 43
50.0
  0
MTEXT
  5
8440
330
83B7
100
AcDbEntity
  8
3
 62
     0
440
 16777216
100
AcDbMText
 10
2151.196614501463
 20
1538.898285640098
 30
0.0
 40
75.0
 41
0.0
 46
0.0
 71
     5
 72
     1
  1
\A1;450
 73
     1
 44
1.0
  0
POINT
  5
8441
330
83B7
100
AcDbEntity
  8
DEFPOINTS
 62
     0
440
 16777216
100
AcDbPoint
 10
1926.196614501463
 20
1653.059442791847
 30
0.0
  0
POINT
  5
8442
330
83B7
100
AcDbEntity
  8
DEFPOINTS
 62
     0
440
 16777216
100
AcDbPoint
 10
2376.196614501463
 20
1653.059442791847
 30
0.0
  0
POINT
  5
8443
330
83B7
100
AcDbEntity
  8
DEFPOINTS
 62
     0
440
 16777216
100
AcDbPoint
 10
2376.196614501463
 20
1476.398285640098
 30
0.0
  0
ENDBLK
  5
83B9
330
83B7
100
AcDbEntity
  8
0
100
AcDbBlockEnd
  0
BLOCK
  5
83C5
330
83C4
100
AcDbEntity
  8
0
100
AcDbBlockBegin
  2
*D53
 70
     1
 10
0.0
 20
0.0
 30
0.0
  3
*D53
  1

  0
LINE
  5
8456
330
83C4
100
AcDbEntity
  8
3
 62
     0
440
 16777216
370
    -2
100
AcDbLine
 10
3484.198926002997
 20
1640.559442791847
 30
0.0
 11
3484.198926002997
 21
1464.416919769857
 31
0.0
  0
LINE
  5
8457
330
83C4
100
AcDbEntity
  8
3
 62
     0
440
 16777216
370
    -2
100
AcDbLine
 10
4136.198926002996
 20
1640.559442791847
 30
0.0
 11
4136.198926002996
 21
1464.416919769857
 31
0.0
  0
LINE
  5
8458
330
83C4
100
AcDbEntity
  8
3
 62
     0
440
 16777216
370
    -2
100
AcDbLine
 10
3534.198926002997
 20
1489.416919769857
 30
0.0
 11
4086.198926002995
 21
1489.416919769857
 31
0.0
  0
INSERT
  5
8459
330
83C4
100
AcDbEntity
  8
3
 62
     0
440
 16777216
370
    -2
100
AcDbBlockReference
  2
_OPEN
 10
3484.198926002997
 20
1489.416919769857
 30
0.0
 41
50.0
 42
50.0
 43
50.0
 50
180.0
  0
INSERT
  5
845A
330
83C4
100
AcDbEntity
  8
3
 62
     0
440
 16777216
370
    -2
100
AcDbBlockReference
  2
_OPEN
 10
4136.198926002996
 20
1489.416919769857
 30
0.0
 41
50.0
 42
50.0
 43
50.0
  0
MTEXT
  5
845B
330
83C4
100
AcDbEntity
  8
3
 62
     0
440
 16777216
100
AcDbMText
 10
3810.198926002997
 20
1551.916919769857
 30
0.0
 40
75.0
 41
0.0
 46
0.0
 71
     5
 72
     1
  1
\A1;652
 73
     1
 44
1.0
  0
POINT
  5
845C
330
83C4
100
AcDbEntity
  8
DEFPOINTS
 62
     0
440
 16777216
100
AcDbPoint
 10
3484.198926002997
 20
1653.059442791847
 30
0.0
  0
POINT
  5
845D
330
83C4
100
AcDbEntity
  8
DEFPOINTS
 62
     0
440
 16777216
100
AcDbPoint
 10
4136.198926002996
 20
1653.059442791847
 30
0.0
  0
POINT
  5
845E
330
83C4
100
AcDbEntity
  8
DEFPOINTS
 62
     0
440
 16777216
100
AcDbPoint
 10
4136.198926002996
 20
1489.416919769857
 30
0.0
  0
ENDBLK
  5
83C6
330
83C4
100
AcDbEntity
  8
0
100
AcDbBlockEnd
  0
BLOCK
  5
83D2
330
83D1
100
AcDbEntity
  8
0
100
AcDbBlockBegin
  2
*D54
 70
     1
 10
0.0
 20
0.0
 30
0.0
  3
*D54
  1

  0
LINE
  5
844D
330
83D1
100
AcDbEntity
  8
3
 62
     0
440
 16777216
370
    -2
100
AcDbLine
 10
4136.198926002996
 20
1640.559442791847
 30
0.0
 11
4136.198926002996
 21
1464.416919769857
 31
0.0
  0
LINE
  5
844E
330
83D1
100
AcDbEntity
  8
3
 62
     0
440
 16777216
370
    -2
100
AcDbLine
 10
4664.198926002996
 20
1640.559442791847
 30
0.0
 11
4664.198926002996
 21
1464.416919769857
 31
0.0
  0
LINE
  5
844F
330
83D1
100
AcDbEntity
  8
3
 62
     0
440
 16777216
370
    -2
100
AcDbLine
 10
4186.198926002996
 20
1489.416919769857
 30
0.0
 11
4614.198926002996
 21
1489.416919769857
 31
0.0
  0
INSERT
  5
8450
330
83D1
100
AcDbEntity
  8
3
 62
     0
440
 16777216
370
    -2
100
AcDbBlockReference
  2
_OPEN
 10
4136.198926002996
 20
1489.416919769857
 30
0.0
 41
50.0
 42
50.0
 43
50.0
 50
180.0
  0
INSERT
  5
8451
330
83D1
100
AcDbEntity
  8
3
 62
     0
440
 16777216
370
    -2
100
AcDbBlockReference
  2
_OPEN
 10
4664.198926002996
 20
1489.416919769857
 30
0.0
 41
50.0
 42
50.0
 43
50.0
  0
MTEXT
  5
8452
330
83D1
100
AcDbEntity
  8
3
 62
     0
440
 16777216
100
AcDbMText
 10
4400.198926002996
 20
1551.916919769857
 30
0.0
 40
75.0
 41
0.0
 46
0.0
 71
     5
 72
     1
  1
\A1;528
 73
     1
 44
1.0
  0
POINT
  5
8453
330
83D1
100
AcDbEntity
  8
DEFPOINTS
 62
     0
440
 16777216
100
AcDbPoint
 10
4136.198926002996
 20
1653.059442791847
 30
0.0
  0
POINT
  5
8454
330
83D1
100
AcDbEntity
  8
DEFPOINTS
 62
     0
440
 16777216
100
AcDbPoint
 10
4664.198926002996
 20
1653.059442791847
 30
0.0
  0
POINT
  5
8455
330
83D1
100
AcDbEntity
  8
DEFPOINTS
 62
     0
440
 16777216
100
AcDbPoint
 10
4664.198926002996
 20
1489.416919769857
 30
0.0
  0
ENDBLK
  5
83D3
330
83D1
100
AcDbEntity
  8
0
100
AcDbBlockEnd
  0
BLOCK
  5
83DF
330
83DE
100
AcDbEntity
  8
0
100
AcDbBlockBegin
  2
*D55
 70
     1
 10
0.0
 20
0.0
 30
0.0
  3
*D55
  1

  0
LINE
  5
83EA
330
83DE
100
AcDbEntity
  8
3
 62
     0
440
 16777216
370
    -2
100
AcDbLine
 10
3296.198926002997
 20
2705.559442791848
 30
0.0
 11
3296.198926002997
 21
3257.76534734928
 31
0.0
  0
LINE
  5
83EB
330
83DE
100
AcDbEntity
  8
3
 62
     0
440
 16777216
370
    -2
100
AcDbLine
 10
4136.198926002997
 20
3245.26534734928
 30
0.0
 11
4136.198926002997
 21
3257.76534734928
 31
0.0
  0
LINE
  5
83EC
330
83DE
100
AcDbEntity
  8
3
 62
     0
440
 16777216
370
    -2
100
AcDbLine
 10
3346.198926002997
 20
3232.76534734928
 30
0.0
 11
4086.198926002997
 21
3232.76534734928
 31
0.0
  0
INSERT
  5
83ED
330
83DE
100
AcDbEntity
  8
3
 62
     0
440
 16777216
370
    -2
100
AcDbBlockReference
  2
_OPEN
 10
3296.198926002997
 20
3232.76534734928
 30
0.0
 41
50.0
 42
50.0
 43
50.0
 50
180.0
  0
INSERT
  5
83EE
330
83DE
100
AcDbEntity
  8
3
 62
     0
440
 16777216
370
    -2
100
AcDbBlockReference
  2
_OPEN
 10
4136.198926002997
 20
3232.76534734928
 30
0.0
 41
50.0
 42
50.0
 43
50.0
  0
MTEXT
  5
83EF
330
83DE
100
AcDbEntity
  8
3
 62
     0
440
 16777216
100
AcDbMText
 10
3716.198926002997
 20
3314.908204492136
 30
0.0
 40
75.0
 41
0.0
 46
0.0
 71
     5
 72
     1
  1
\A1;(840)
 73
     1
 44
1.0
  0
POINT
  5
83F0
330
83DE
100
AcDbEntity
  8
DEFPOINTS
 62
     0
440
 16777216
100
AcDbPoint
 10
3296.198926002997
 20
2693.059442791848
 30
0.0
  0
POINT
  5
83F1
330
83DE
100
AcDbEntity
  8
DEFPOINTS
 62
     0
440
 16777216
100
AcDbPoint
 10
4136.198926002997
 20
3232.76534734928
 30
0.0
  0
POINT
  5
83F2
330
83DE
100
AcDbEntity
  8
DEFPOINTS
 62
     0
440
 16777216
100
AcDbPoint
 10
4136.198926002997
 20
3232.76534734928
 30
0.0
  0
ENDBLK
  5
83E0
330
83DE
100
AcDbEntity
  8
0
100
AcDbBlockEnd
  0
ENDSEC
  0
SECTION
  2
ENTITIES
  0
INSERT
  5
7C30
330
19
100
AcDbEntity
  8
0
100
AcDbBlockReference
  2
YA_N
 10
6.0
 20
5.0
 30
0.0
  0
LINE
  5
7C3D
330
19
100
AcDbEntity
  8
1
100
AcDbLine
 10
2376.196614501463
 20
1933.059442791847
 30
0.0
 11
2376.196614501463
 21
1833.059442791848
 31
0.0
  0
LINE
  5
7C3E
330
19
100
AcDbEntity
  8
1
100
AcDbLine
 10
2376.196614501463
 20
1933.059442791847
 30
0.0
 11
676.196614501463
 21
1933.059442791847
 31
0.0
  0
LINE
  5
7C3F
330
19
100
AcDbEntity
  8
1
100
AcDbLine
 10
676.196614501463
 20
1933.059442791847
 30
0.0
 11
676.196614501463
 21
1833.059442791848
 31
0.0
  0
LINE
  5
7C40
330
19
100
AcDbEntity
  8
2
100
AcDbLine
 10
1926.196614501463
 20
1653.059442791847
 30
0.0
 11
1926.196614501463
 21
3303.11072724899
 31
0.0
  0
LINE
  5
7C41
330
19
100
AcDbEntity
  8
2
100
AcDbLine
 10
2548.462453306893
 20
2473.059442791848
 30
0.0
 11
1146.681016972859
 21
2473.059442791848
 31
0.0
  0
LINE
  5
7C42
330
19
100
AcDbEntity
  8
1
100
AcDbLine
 10
1129.196614501463
 20
1973.059442791847
 30
0.0
 11
723.196614501463
 21
1973.059442791847
 31
0.0
  0
LINE
  5
7C43
330
19
100
AcDbEntity
  8
1
100
AcDbLine
 10
1126.196614501463
 20
1933.059442791847
 30
0.0
 11
1126.196614501463
 21
1973.059442791847
 31
0.0
  0
LINE
  5
7C44
330
19
100
AcDbEntity
  8
1
100
AcDbLine
 10
2376.196614501463
 20
1653.059442791847
 30
0.0
 11
676.196614501463
 21
1653.059442791847
 31
0.0
  0
LINE
  5
7C45
330
19
100
AcDbEntity
  8
1
100
AcDbLine
 10
2376.196614501463
 20
1753.059442791847
 30
0.0
 11
2376.196614501463
 21
1653.059442791847
 31
0.0
  0
LINE
  5
7C46
330
19
100
AcDbEntity
  8
1
100
AcDbLine
 10
676.196614501463
 20
1753.059442791847
 30
0.0
 11
676.196614501463
 21
1653.059442791847
 31
0.0
  0
LINE
  5
7C47
330
19
100
AcDbEntity
  8
1
100
AcDbLine
 10
2376.196614501463
 20
1833.059442791848
 30
0.0
 11
676.196614501463
 21
1833.059442791848
 31
0.0
1001
ACAD
1000
ASC_BOUNDS
1002
{
1070
    19
1002
}
  0
LINE
  5
7C48
330
19
100
AcDbEntity
  8
1
100
AcDbLine
 10
2376.196614501463
 20
1753.059442791847
 30
0.0
 11
676.196614501463
 21
1753.059442791847
 31
0.0
1001
ACAD
1000
ASC_BOUNDS
1002
{
1070
    19
1002
}
  0
LINE
  5
7C49
330
19
100
AcDbEntity
  8
2
100
AcDbLine
 10
4136.198926002996
 20
1653.059442791847
 30
0.0
 11
4136.198926002997
 21
3062.022448342384
 31
0.0
  0
LINE
  5
7C4A
330
19
100
AcDbEntity
  8
2
100
AcDbLine
 10
3306.788472640194
 20
2473.059442791848
 30
0.0
 11
4722.481284398311
 21
2473.059442791848
 31
0.0
  0
LINE
  5
7C4B
330
19
100
AcDbEntity
  8
1
100
AcDbLine
 10
3484.198926002997
 20
1933.059442791847
 30
0.0
 11
4664.198926002996
 21
1933.059442791847
 31
0.0
  0
LINE
  5
7C4C
330
19
100
AcDbEntity
  8
1
100
AcDbLine
 10
3484.198926002997
 20
1833.059442791848
 30
0.0
 11
4664.198926002996
 21
1833.059442791848
 31
0.0
1001
ACAD
1000
ASC_BOUNDS
1002
{
1070
    19
1002
}
  0
LINE
  5
7C4D
330
19
100
AcDbEntity
  8
1
100
AcDbLine
 10
3484.198926002997
 20
1833.059442791848
 30
0.0
 11
3484.198926002997
 21
1933.059442791847
 31
0.0
  0
LINE
  5
7C4E
330
19
100
AcDbEntity
  8
1
100
AcDbLine
 10
3484.198926002997
 20
1753.059442791847
 30
0.0
 11
4664.198926002996
 21
1753.059442791847
 31
0.0
1001
ACAD
1000
ASC_BOUNDS
1002
{
1070
    19
1002
}
  0
LINE
  5
7C4F
330
19
100
AcDbEntity
  8
1
100
AcDbLine
 10
4664.198926002996
 20
1653.059442791847
 30
0.0
 11
4664.198926002996
 21
1753.059442791847
 31
0.0
  0
LINE
  5
7C50
330
19
100
AcDbEntity
  8
1
100
AcDbLine
 10
4664.198926002996
 20
1833.059442791848
 30
0.0
 11
4664.198926002996
 21
1933.059442791847
 31
0.0
  0
LINE
  5
7C51
330
19
100
AcDbEntity
  8
2
100
AcDbLine
 10
1926.196614501463
 20
5474.760730177406
 30
0.0
 11
1926.196614501463
 21
3957.803572996019
 31
0.0
  0
LINE
  5
7C52
330
19
100
AcDbEntity
  8
2
100
AcDbLine
 10
926.196614501463
 20
4835.755932545382
 30
0.0
 11
926.196614501463
 21
3957.803572996019
 31
0.0
  0
LINE
  5
7C53
330
19
100
AcDbEntity
  8
2
100
AcDbLine
 10
2529.525360678905
 20
4864.845000546143
 30
0.0
 11
1167.196614501463
 21
4864.845000546146
 31
0.0
  0
LINE
  5
7C54
330
19
100
AcDbEntity
  8
2
100
AcDbLine
 10
3306.198926002999
 20
2183.059442791848
 30
0.0
 11
3661.198926002998
 21
2183.059442791848
 31
0.0
  0
LINE
  5
7C55
330
19
100
AcDbEntity
  8
1
100
AcDbLine
 10
3388.198926002998
 20
2076.059442791848
 30
0.0
 11
3388.198926002997
 21
2600.059442791848
 31
0.0
  0
LINE
  5
7C56
330
19
100
AcDbEntity
  8
1
100
AcDbLine
 10
3473.198926002999
 20
2076.059442791848
 30
0.0
 11
3473.198926002997
 21
2600.059442791848
 31
0.0
  0
LINE
  5
7C57
330
19
100
AcDbEntity
  8
1
100
AcDbLine
 10
3296.198926002999
 20
1963.059442791848
 30
0.0
 11
3296.198926002997
 21
2693.059442791848
 31
0.0
  0
LINE
  5
7C58
330
19
100
AcDbEntity
  8
1
100
AcDbLine
 10
3518.198926002998
 20
1963.059442791848
 30
0.0
 11
3518.198926002998
 21
2088.059442791848
 31
0.0
  0
POINT
  5
7C5A
330
19
100
AcDbEntity
  8
1
100
AcDbPoint
 10
2376.196614501463
 20
1653.059442791847
 30
0.0
  0
INSERT
  5
7C5C
330
19
100
AcDbEntity
  8
0
100
AcDbBlockReference
  2
YA_N
 10
-1092.024831295133
 20
-1095.319682135705
 30
0.0
 41
20.0
 42
20.0
 43
20.0
  0
LINE
  5
7C5E
330
19
100
AcDbEntity
  8
1
100
AcDbLine
 10
772.196614501463
 20
2039.059442791848
 30
0.0
 11
791.629114501462
 21
2092.449442791848
 31
0.0
  0
LINE
  5
7C5F
330
19
100
AcDbEntity
  8
1
100
AcDbLine
 10
1080.196614501463
 20
2039.059442791848
 30
0.0
 11
1060.764014501463
 21
2092.449442791848
 31
0.0
  0
ARC
  5
7C60
330
19
100
AcDbEntity
  8
1
100
AcDbCircle
 10
926.196614501463
 20
2183.059442791848
 30
0.0
 40
162.0
100
AcDbArc
 50
180.0
 51
254.3519
  0
ARC
  5
7C61
330
19
100
AcDbEntity
  8
1
100
AcDbCircle
 10
926.196614501463
 20
2183.059442791848
 30
0.0
 40
162.0
100
AcDbArc
 50
285.4573
 51
180.0
  0
LINE
  5
7C62
330
19
100
AcDbEntity
  8
2
100
AcDbLine
 10
926.196614501463
 20
2432.295442791847
 30
0.0
 11
926.1966145014632
 21
1653.059442791847
 31
0.0
  0
LINE
  5
7C63
330
19
100
AcDbEntity
  8
1
100
AcDbLine
 10
969.8772145014627
 20
2027.059442791848
 30
0.0
 11
882.5159145014621
 21
2027.059442791848
 31
0.0
  0
LINE
  5
7C64
330
19
100
AcDbEntity
  8
1
100
AcDbLine
 10
1011.140514501463
 20
2045.115442791848
 30
0.0
 11
1019.317914501462
 21
2036.937442791847
 31
0.0
  0
LINE
  5
7C65
330
19
100
AcDbEntity
  8
1
100
AcDbLine
 10
1033.409814501463
 20
2041.059442791848
 30
0.0
 11
1078.196614501463
 21
2041.059442791848
 31
0.0
  0
ARC
  5
7C67
330
19
100
AcDbEntity
  8
1
100
AcDbCircle
 10
1078.196614501463
 20
2039.059442791848
 30
0.0
 40
2.0
100
AcDbArc
 50
0.0
 51
90.0
  0
LINE
  5
7C69
330
19
100
AcDbEntity
  8
1
100
AcDbLine
 10
1080.196614501463
 20
2023.059442791848
 30
0.0
 11
1080.196614501463
 21
2039.059442791848
 31
0.0
  0
ARC
  5
7C6B
330
19
100
AcDbEntity
  8
1
100
AcDbCircle
 10
1017.196614501463
 20
2034.816442791848
 30
0.0
 40
3.0
100
AcDbArc
 50
0.0
 51
45.0
  0
LINE
  5
7C6C
330
19
100
AcDbEntity
  8
1
100
AcDbLine
 10
1020.196614501463
 20
2023.059442791848
 30
0.0
 11
1020.196614501463
 21
2034.816442791848
 31
0.0
  0
ARC
  5
7C71
330
19
100
AcDbEntity
  8
1
100
AcDbCircle
 10
1033.409814501463
 20
2044.059442791848
 30
0.0
 40
3.0
100
AcDbArc
 50
225.0
 51
270.0
  0
LINE
  5
7C72
330
19
100
AcDbEntity
  8
1
100
AcDbLine
 10
1021.307814501462
 20
2051.918442791848
 30
0.0
 11
1031.288414501463
 21
2041.937442791847
 31
0.0
  0
LINE
  5
7C74
330
19
100
AcDbEntity
  8
1
100
AcDbLine
 10
818.9834145014629
 20
2041.059442791848
 30
0.0
 11
774.196614501463
 21
2041.059442791848
 31
0.0
  0
LINE
  5
7C75
330
19
100
AcDbEntity
  8
1
100
AcDbLine
 10
841.2527145014628
 20
2045.115442791848
 30
0.0
 11
833.075214501463
 21
2036.937442791847
 31
0.0
  0
ARC
  5
7C76
330
19
100
AcDbEntity
  8
1
100
AcDbCircle
 10
835.196614501463
 20
2034.816442791848
 30
0.0
 40
3.0
100
AcDbArc
 50
135.0
 51
180.0
  0
LINE
  5
7C77
330
19
100
AcDbEntity
  8
1
100
AcDbLine
 10
832.1966145014631
 20
2023.059442791848
 30
0.0
 11
832.1966145014631
 21
2034.816442791848
 31
0.0
  0
ARC
  5
7C78
330
19
100
AcDbEntity
  8
1
100
AcDbCircle
 10
818.9834145014629
 20
2044.059442791848
 30
0.0
 40
3.0
100
AcDbArc
 50
270.0
 51
315.0
  0
LINE
  5
7C79
330
19
100
AcDbEntity
  8
1
100
AcDbLine
 10
820.9944145014633
 20
2041.827442791848
 30
0.0
 11
831.0854145014637
 21
2051.918442791848
 31
0.0
  0
ARC
  5
7C80
330
19
100
AcDbEntity
  8
1
100
AcDbCircle
 10
774.196614501463
 20
2039.059442791848
 30
0.0
 40
2.0
100
AcDbArc
 50
90.0
 51
180.0
  0
LINE
  5
7C81
330
19
100
AcDbEntity
  8
1
100
AcDbLine
 10
772.196614501463
 20
2023.059442791848
 30
0.0
 11
772.196614501463
 21
2039.059442791848
 31
0.0
  0
LINE
  5
7C82
330
19
100
AcDbEntity
  8
2
100
AcDbLine
 10
1119.053489400987
 20
2183.059442791848
 30
0.0
 11
661.0913724237543
 21
2183.059442791848
 31
0.0
  0
LINE
  5
7C83
330
19
100
AcDbEntity
  8
1
100
AcDbLine
 10
815.6352145014626
 20
2305.837442791848
 30
0.0
 11
817.7884145014632
 21
2303.291442791848
 31
0.0
  0
LINE
  5
7C84
330
19
100
AcDbEntity
  8
1
100
AcDbLine
 10
1116.156081871721
 20
2023.059442791848
 30
0.0
 11
986.196614501463
 21
2023.059442791848
 31
0.0
  0
LINE
  5
7C85
330
19
100
AcDbEntity
  8
1
100
AcDbLine
 10
1129.196614501463
 20
1973.059442791847
 30
0.0
 11
1116.156081871721
 21
2023.059442791848
 31
0.0
  0
LINE
  5
7C86
330
19
100
AcDbEntity
  8
1
100
AcDbLine
 10
723.196614501463
 20
1973.059442791847
 30
0.0
 11
736.5780554103967
 21
2023.059442791848
 31
0.0
  0
LINE
  5
7C87
330
19
100
AcDbEntity
  8
1
100
AcDbLine
 10
866.1966145014631
 20
2023.059442791848
 30
0.0
 11
866.1966145014631
 21
2018.059442791848
 31
0.0
  0
LINE
  5
7C88
330
19
100
AcDbEntity
  8
1
100
AcDbLine
 10
986.196614501463
 20
2023.059442791848
 30
0.0
 11
986.196614501463
 21
2018.059442791848
 31
0.0
  0
LINE
  5
7C89
330
19
100
AcDbEntity
  8
1
100
AcDbLine
 10
986.196614501463
 20
2018.059442791848
 30
0.0
 11
866.1966145014631
 21
2018.059442791848
 31
0.0
  0
LINE
  5
7C8B
330
19
100
AcDbEntity
  8
1
100
AcDbLine
 10
866.1966145014631
 20
2023.059442791848
 30
0.0
 11
736.5780554103967
 21
2023.059442791848
 31
0.0
  0
CIRCLE
  5
7C91
330
19
100
AcDbEntity
  8
1
100
AcDbCircle
 10
1926.196614501463
 20
2473.059442791848
 30
0.0
 40
127.0
  0
CIRCLE
  5
7C92
330
19
100
AcDbEntity
  8
1
100
AcDbCircle
 10
926.196614501463
 20
2183.059442791848
 30
0.0
 40
107.0
  0
LINE
  5
7C93
330
19
100
AcDbEntity
  8
1
100
AcDbLine
 10
3388.198926002999
 20
2076.059442791848
 30
0.0
 11
3473.198926002999
 21
2076.059442791848
 31
0.0
  0
LINE
  5
7C94
330
19
100
AcDbEntity
  8
1
100
AcDbLine
 10
3388.198926002997
 20
2600.059442791848
 30
0.0
 11
3473.198926002997
 21
2600.059442791848
 31
0.0
  0
LINE
  5
7C95
330
19
100
AcDbEntity
  8
1
100
AcDbLine
 10
3296.198926002997
 20
2693.059442791848
 30
0.0
 11
3518.198926002997
 21
2693.059442791848
 31
0.0
  0
LINE
  5
7C96
330
19
100
AcDbEntity
  8
1
100
AcDbLine
 10
3296.198926002999
 20
1963.059442791848
 30
0.0
 11
3518.198926002998
 21
1963.059442791848
 31
0.0
  0
LINE
  5
7C97
330
19
100
AcDbEntity
  8
1
100
AcDbLine
 10
3518.198926002997
 20
2663.059442791848
 30
0.0
 11
3518.198926002997
 21
2693.059442791848
 31
0.0
  0
LINE
  5
7C98
330
19
100
AcDbEntity
  8
1
100
AcDbLine
 10
3388.198926002998
 20
2290.059442791848
 30
0.0
 11
3473.198926002998
 21
2290.059442791848
 31
0.0
  0
LINE
  5
7C99
330
19
100
AcDbEntity
  8
1
100
AcDbLine
 10
3388.198926002997
 20
2346.059442791847
 30
0.0
 11
3473.198926002997
 21
2346.059442791847
 31
0.0
  0
POINT
  5
7C9B
330
19
100
AcDbEntity
  8
1
100
AcDbPoint
 10
2376.196614501463
 20
1658.059442791848
 30
0.0
  0
POINT
  5
7C9C
330
19
100
AcDbEntity
  8
1
100
AcDbPoint
 10
2376.196614501463
 20
1653.059442791847
 30
0.0
  0
POINT
  5
7C9D
330
19
100
AcDbEntity
  8
1
100
AcDbPoint
 10
2376.196614501463
 20
1658.059442791848
 30
0.0
  0
POINT
  5
7C9E
330
19
100
AcDbEntity
  8
1
100
AcDbPoint
 10
2376.196614501463
 20
1693.059442791848
 30
0.0
  0
DIMENSION
  5
7CA0
330
19
100
AcDbEntity
  8
3
100
AcDbDimension
280
     0
  2
*D3
 10
1897.196614501463
 20
3122.066826571074
 30
0.0
 11
1532.196614501463
 21
3172.066826571074
 31
0.0
 12
700.6244672857028
 22
1964.465964570448
 32
0.0
 70
    32
 71
     5
 42
-1.0
 73
     0
 74
     0
 75
     0
  3
MATSU
100
AcDbAlignedDimension
 13
1167.196614501463
 23
2973.059442791848
 33
0.0
 14
1897.196614501463
 24
2973.059442791848
 34
0.0
100
AcDbRotatedDimension
1001
ACAD
1000
DSTYLE
1002
{
1070
   282
1070
     1
1070
    40
1040
25.0
1002
}
  0
DIMENSION
  5
7CA1
330
19
100
AcDbEntity
  8
3
100
AcDbDimension
280
     0
  2
*D4
 10
1926.196614501463
 20
3274.875600044739
 30
0.0
 11
1546.696614501463
 21
3324.87560004474
 31
0.0
 12
700.6244672857028
 22
1964.465964570448
 32
0.0
 70
    32
 71
     5
 42
-1.0
 73
     0
 74
     0
 75
     0
  3
MATSU
100
AcDbAlignedDimension
 13
1167.196614501463
 23
2973.059442791848
 33
0.0
 14
1926.196614501463
 24
3095.325281597278
 34
0.0
100
AcDbRotatedDimension
1001
ACAD
1000
DSTYLE
1002
{
1070
   282
1070
     1
1070
    40
1040
25.0
1002
}
  0
POINT
  5
7CA2
330
19
100
AcDbEntity
  8
1
100
AcDbPoint
 10
2376.196614501463
 20
1658.059442791848
 30
0.0
  0
POINT
  5
7CA3
330
19
100
AcDbEntity
  8
1
100
AcDbPoint
 10
2376.196614501463
 20
1653.059442791847
 30
0.0
  0
POINT
  5
7CA4
330
19
100
AcDbEntity
  8
1
100
AcDbPoint
 10
2376.196614501463
 20
1658.059442791848
 30
0.0
  0
POINT
  5
7CA5
330
19
100
AcDbEntity
  8
1
100
AcDbPoint
 10
2376.196614501463
 20
1693.059442791848
 30
0.0
  0
INSERT
  5
7CA6
330
19
100
AcDbEntity
  8
0
100
AcDbBlockReference
  2
YA_N
 10
-1018.773193578214
 20
-860.9217325598892
 30
0.0
 41
20.0
 42
20.0
 43
20.0
  0
POINT
  5
7CA8
330
19
100
AcDbEntity
  8
1
100
AcDbPoint
 10
2376.196614501463
 20
1753.059442791847
 30
0.0
  0
POINT
  5
7CA9
330
19
100
AcDbEntity
  8
1
100
AcDbPoint
 10
2376.196614501463
 20
1653.059442791847
 30
0.0
  0
POINT
  5
7CAA
330
19
100
AcDbEntity
  8
1
100
AcDbPoint
 10
2376.196614501463
 20
1753.059442791847
 30
0.0
  0
POINT
  5
7CAB
330
19
100
AcDbEntity
  8
1
100
AcDbPoint
 10
2376.196614501463
 20
1833.059442791848
 30
0.0
  0
LINE
  5
7CAC
330
19
100
AcDbEntity
  8
1
100
AcDbLine
 10
4611.198926003001
 20
1933.059442791848
 30
0.0
 11
4611.198926002995
 21
2973.059442791848
 31
0.0
  0
LINE
  5
7CAD
330
19
100
AcDbEntity
  8
1
100
AcDbLine
 10
3661.198926002998
 20
1933.059442791848
 30
0.0
 11
3661.198926002998
 21
2973.059442791848
 31
0.0
  0
LINE
  5
7CB2
330
19
100
AcDbEntity
  8
1
100
AcDbLine
 10
3648.198926002997
 20
2437.059442791848
 30
0.0
 11
3648.198926002995
 21
2287.059442791848
 31
0.0
  0
LINE
  5
7CB3
330
19
100
AcDbEntity
  8
1
100
AcDbLine
 10
3523.198926002997
 20
2297.059442791848
 30
0.0
 11
3523.198926002997
 21
2427.059442791848
 31
0.0
  0
LINE
  5
7CB4
330
19
100
AcDbEntity
  8
1
100
AcDbLine
 10
3533.198926002996
 20
2437.059442791848
 30
0.0
 11
3608.898926002995
 21
2437.059442791848
 31
0.0
  0
LINE
  5
7CB5
330
19
100
AcDbEntity
  8
1
100
AcDbLine
 10
3533.198926002997
 20
2287.059442791848
 30
0.0
 11
3608.898926002995
 21
2287.059442791848
 31
0.0
  0
ARC
  5
7CB6
330
19
100
AcDbEntity
  8
1
100
AcDbCircle
 10
3533.198926002996
 20
2427.059442791848
 30
0.0
 40
10.0
100
AcDbArc
 50
90.0
 51
180.0
  0
ARC
  5
7CB7
330
19
100
AcDbEntity
  8
1
100
AcDbCircle
 10
3533.198926002997
 20
2297.059442791848
 30
0.0
 40
10.0
100
AcDbArc
 50
180.0
 51
270.0
  0
LINE
  5
7CB8
330
19
100
AcDbEntity
  8
1
100
AcDbLine
 10
3608.898926002995
 20
2287.059442791848
 30
0.0
 11
3648.198926002996
 21
2287.059442791848
 31
0.0
  0
LINE
  5
7CB9
330
19
100
AcDbEntity
  8
1
100
AcDbLine
 10
3608.898926002995
 20
2437.059442791848
 30
0.0
 11
3648.198926002997
 21
2437.059442791848
 31
0.0
  0
LINE
  5
7CBA
330
19
100
AcDbEntity
  8
1
100
AcDbLine
 10
4623.698926002996
 20
2337.859442791848
 30
0.0
 11
4623.698926002998
 21
2457.859442791848
 31
0.0
  0
LINE
  5
7CBB
330
19
100
AcDbEntity
  8
1
100
AcDbLine
 10
4713.698926002995
 20
2347.859442791847
 30
0.0
 11
4713.698926002997
 21
2447.859442791847
 31
0.0
  0
LINE
  5
7CBC
330
19
100
AcDbEntity
  8
1
100
AcDbLine
 10
4623.698926002998
 20
2457.859442791848
 30
0.0
 11
4663.498926002998
 21
2457.859442791848
 31
0.0
  0
LINE
  5
7CBD
330
19
100
AcDbEntity
  8
1
100
AcDbLine
 10
4623.698926002996
 20
2337.859442791848
 30
0.0
 11
4663.498926002998
 21
2337.859442791848
 31
0.0
  0
ARC
  5
7CBE
330
19
100
AcDbEntity
  8
1
100
AcDbCircle
 10
4703.698926002997
 20
2447.859442791848
 30
0.0
 40
10.0
100
AcDbArc
 50
359.9999999999984
 51
90.0
  0
ARC
  5
7CBF
330
19
100
AcDbEntity
  8
1
100
AcDbCircle
 10
4703.698926002996
 20
2347.859442791848
 30
0.0
 40
10.0
100
AcDbArc
 50
270.0
 51
359.9999999999984
  0
LINE
  5
7CC0
330
19
100
AcDbEntity
  8
1
100
AcDbLine
 10
4663.498926002998
 20
2337.859442791848
 30
0.0
 11
4703.698926002996
 21
2337.859442791848
 31
0.0
  0
LINE
  5
7CC1
330
19
100
AcDbEntity
  8
1
100
AcDbLine
 10
4663.498926002998
 20
2457.859442791848
 30
0.0
 11
4703.698926002997
 21
2457.859442791848
 31
0.0
  0
LINE
  5
7CC2
330
19
100
AcDbEntity
  8
1
100
AcDbLine
 10
3503.198926002997
 20
2500.559442791848
 30
0.0
 11
3661.198926002998
 21
2500.559442791848
 31
0.0
  0
LINE
  5
7CC3
330
19
100
AcDbEntity
  8
1
100
AcDbLine
 10
3503.198926002997
 20
2445.559442791848
 30
0.0
 11
3661.198926002998
 21
2445.559442791848
 31
0.0
  0
LINE
  5
7CC4
330
19
100
AcDbEntity
  8
1
100
AcDbLine
 10
3503.198926002997
 20
2445.559442791848
 30
0.0
 11
3503.198926002997
 21
2500.559442791848
 31
0.0
  0
LINE
  5
7CC5
330
19
100
AcDbEntity
  8
1
100
AcDbLine
 10
3473.198926002997
 20
2497.059442791848
 30
0.0
 11
3503.198926002997
 21
2497.059442791848
 31
0.0
  0
LINE
  5
7CC6
330
19
100
AcDbEntity
  8
1
100
AcDbLine
 10
3473.198926002997
 20
2449.059442791848
 30
0.0
 11
3503.198926002997
 21
2449.059442791848
 31
0.0
  0
LINE
  5
7CC7
330
19
100
AcDbEntity
  8
1
100
AcDbLine
 10
726.196614501463
 20
1933.059442791847
 30
0.0
 11
726.196614501463
 21
1973.059442791847
 31
0.0
  0
ARC
  5
7CCA
330
19
100
AcDbEntity
  8
1
100
AcDbCircle
 10
1926.196614501463
 20
2473.059442791848
 30
0.0
 40
220.0
100
AcDbArc
 50
281.0342090032503
 51
101.0342090032502
  0
ARC
  5
7CCB
330
19
100
AcDbEntity
  8
1
100
AcDbCircle
 10
926.196614501463
 20
2183.059442791848
 30
0.0
 40
220.0
100
AcDbArc
 50
101.0342090032502
 51
281.0342090032503
  0
LINE
  5
7CCC
330
19
100
AcDbEntity
  8
1
100
AcDbLine
 10
884.0897031927251
 20
2398.992321298198
 30
0.0
 11
1884.089703192725
 21
2688.992321298198
 31
0.0
  0
LINE
  5
7CCD
330
19
100
AcDbEntity
  8
1
100
AcDbLine
 10
903.6596828166093
 20
2287.659092457763
 30
0.0
 11
1899.447172221309
 21
2597.210428843915
 31
0.0
  0
LINE
  5
7CCE
330
19
100
AcDbEntity
  8
1
100
AcDbLine
 10
944.6103314275205
 20
2077.655766247967
 30
0.0
 11
1948.052147675381
 21
2347.954144464064
 31
0.0
  0
LINE
  5
7CCF
330
19
100
AcDbEntity
  8
1
100
AcDbLine
 10
968.3035258102009
 20
1967.126564285498
 30
0.0
 11
1968.303525810201
 21
2257.126564285498
 31
0.0
  0
DIMENSION
  5
7CD0
330
19
100
AcDbEntity
  8
3
100
AcDbDimension
280
     0
  2
*D8
 10
4611.198926002997
 20
3093.377886264212
 30
0.0
 11
4136.198926002997
 21
3143.377886264212
 31
0.0
 12
291.9268520725272
 22
1964.465964570448
 32
0.0
 70
    32
 71
     5
 42
-1.0
 73
     0
 74
     0
 75
     0
  3
MATSU
100
AcDbAlignedDimension
 13
3661.198926002998
 23
2959.041510977191
 33
0.0
 14
4611.198926002997
 24
2959.041510977191
 34
0.0
100
AcDbRotatedDimension
1001
ACAD
1000
DSTYLE
1002
{
1070
   282
1070
     1
1070
    40
1040
25.0
1002
}
  0
POINT
  5
7CD1
330
19
100
AcDbEntity
  8
1
100
AcDbPoint
 10
4713.698926002997
 20
2447.859442791847
 30
0.0
  0
DIMENSION
  5
7CD2
330
19
100
AcDbEntity
  8
3
100
AcDbDimension
280
     0
  2
*D9
 10
4863.200936348309
 20
2828.059442791848
 30
0.0
 11
4813.200936348309
 21
2473.059442791848
 31
0.0
 12
291.9268520725272
 22
1964.465964570448
 32
0.0
 70
    32
  1
φ<>
 71
     5
 42
-1.0
 73
     0
 74
     0
 75
     0
  3
MATSU
100
AcDbAlignedDimension
 13
4616.698926002995
 23
2118.059442791848
 33
0.0
 14
4616.698926002995
 24
2828.059442791848
 34
0.0
 50
90.0
100
AcDbRotatedDimension
1001
ACAD
1000
DSTYLE
1002
{
1070
   282
1070
     1
1070
    40
1040
25.0
1002
}
  0
LINE
  5
7CD3
330
19
100
AcDbEntity
  8
1
100
AcDbLine
 10
2376.196614501463
 20
5392.845000546145
 30
0.0
 11
1476.196614501463
 21
5392.845000546145
 31
0.0
  0
LINE
  5
7CD4
330
19
100
AcDbEntity
  8
1
100
AcDbLine
 10
2376.196614501463
 20
4212.845000546145
 30
0.0
 11
676.196614501463
 21
4212.845000546146
 31
0.0
  0
LINE
  5
7CD5
330
19
100
AcDbEntity
  8
1
100
AcDbLine
 10
2376.196614501463
 20
5392.845000546145
 30
0.0
 11
2376.196614501463
 21
5339.845000546145
 31
0.0
  0
LINE
  5
7CD6
330
19
100
AcDbEntity
  8
1
100
AcDbLine
 10
1476.196614501463
 20
5392.845000546145
 30
0.0
 11
1476.196614501463
 21
5339.845000546146
 31
0.0
  0
LINE
  5
7CD7
330
19
100
AcDbEntity
  8
1
100
AcDbLine
 10
676.196614501463
 20
4962.845000546145
 30
0.0
 11
676.196614501463
 21
4212.845000546146
 31
0.0
  0
LINE
  5
7CD8
330
19
100
AcDbEntity
  8
1
100
AcDbLine
 10
1167.196614501463
 20
4962.845000546145
 30
0.0
 11
676.196614501463
 21
4962.845000546146
 31
0.0
  0
DIMENSION
  5
7CD9
330
19
100
AcDbEntity
  8
3
100
AcDbDimension
280
     0
  2
*D10
 10
2376.196614501463
 20
5560.750596843958
 30
0.0
 11
1926.196614501463
 21
5610.750596843958
 31
0.0
 70
    32
 71
     5
 42
-1.0
 73
     0
 74
     0
 75
     0
  3
MATSU
100
AcDbAlignedDimension
 13
1476.196614501463
 23
5392.845000546145
 33
0.0
 14
2376.196614501463
 24
5392.845000546145
 34
0.0
100
AcDbRotatedDimension
1001
ACAD
1000
DSTYLE
1002
{
1070
   282
1070
     1
1070
    40
1040
25.0
1002
}
  0
DIMENSION
  5
7CDA
330
19
100
AcDbEntity
  8
3
100
AcDbDimension
280
     0
  2
*D11
 10
2674.835331150749
 20
4212.845000546145
 30
0.0
 11
2624.835331150749
 21
4802.845000546144
 31
0.0
 12
700.6244672857028
 22
1439.311690010807
 32
0.0
 70
    32
 71
     5
 42
-1.0
 73
     0
 74
     0
 75
     0
  3
MATSU
100
AcDbAlignedDimension
 13
2376.196614501463
 23
5392.845000546145
 33
0.0
 14
2376.196614501463
 24
4212.845000546145
 34
0.0
 50
90.0
100
AcDbRotatedDimension
1001
ACAD
1000
DSTYLE
1002
{
1070
   282
1070
     1
1070
    40
1040
25.0
1002
}
  0
DIMENSION
  5
7CDB
330
19
100
AcDbEntity
  8
3
100
AcDbDimension
280
     0
  2
*D12
 10
483.1996205868891
 20
4212.845000546146
 30
0.0
 11
433.1996205868891
 21
4587.845000546146
 31
0.0
 70
    32
 71
     5
 42
-1.0
 73
     0
 74
     0
 75
     0
  3
MATSU
100
AcDbAlignedDimension
 13
676.196614501463
 23
4962.845000546146
 33
0.0
 14
676.196614501463
 24
4212.845000546146
 34
0.0
 50
90.0
100
AcDbRotatedDimension
1001
ACAD
1000
DSTYLE
1002
{
1070
   282
1070
     1
1070
    40
1040
25.0
1002
}
  0
DIMENSION
  5
7CDC
330
19
100
AcDbEntity
  8
3
100
AcDbDimension
280
     0
  2
*D13
 10
2376.196614501463
 20
3790.924412825163
 30
0.0
 11
1526.196614501463
 21
3790.924412825163
 31
0.0
 12
700.6244672857028
 22
1439.311690010807
 32
0.0
 70
   160
 71
     5
 42
-1.0
 73
     0
 74
     0
 75
     0
  3
MATSU
100
AcDbAlignedDimension
 13
676.196614501463
 23
4212.845000546146
 33
0.0
 14
2376.196614501463
 24
4212.845000546145
 34
0.0
100
AcDbRotatedDimension
1001
ACAD
1000
DSTYLE
1002
{
1070
   282
1070
     1
1070
    40
1040
25.0
1002
}
  0
DIMENSION
  5
7CDD
330
19
100
AcDbEntity
  8
3
100
AcDbDimension
280
     0
  2
*D14
 10
1476.196614501463
 20
5560.750596843958
 30
0.0
 11
1076.196614501463
 21
5610.750596843958
 31
0.0
 70
    32
 71
     5
 42
-1.0
 73
     0
 74
     0
 75
     0
  3
MATSU
100
AcDbAlignedDimension
 13
676.196614501463
 23
4962.845000546146
 33
0.0
 14
1476.196614501463
 24
5392.845000546145
 34
0.0
100
AcDbRotatedDimension
1001
ACAD
1000
DSTYLE
1002
{
1070
   282
1070
     1
1070
    40
1040
25.0
1002
}
  0
DIMENSION
  5
7CDE
330
19
100
AcDbEntity
  8
3
100
AcDbDimension
280
     0
  2
*D15
 10
2726.950428786779
 20
1833.059442791848
 30
0.0
 11
2676.950428786779
 21
2153.059442791848
 31
0.0
 12
700.6244672857028
 22
1964.465964570448
 32
0.0
 70
    32
 71
     5
 42
-1.0
 73
     0
 74
     0
 75
     0
  3
MATSU
100
AcDbAlignedDimension
 13
2548.462453306893
 23
2473.059442791848
 33
0.0
 14
2376.196614501463
 24
1833.059442791848
 34
0.0
 50
90.0
100
AcDbRotatedDimension
1001
ACAD
1000
DSTYLE
1002
{
1070
   282
1070
     1
1070
    40
1040
25.0
1002
}
  0
POINT
  5
7CDF
330
19
100
AcDbEntity
  8
1
100
AcDbPoint
 10
2376.196614501463
 20
1753.059442791847
 30
0.0
  0
POINT
  5
7CE0
330
19
100
AcDbEntity
  8
1
100
AcDbPoint
 10
2376.196614501463
 20
1653.059442791847
 30
0.0
  0
POINT
  5
7CE3
330
19
100
AcDbEntity
  8
1
100
AcDbPoint
 10
2376.196614501463
 20
1753.059442791847
 30
0.0
  0
POINT
  5
7CE4
330
19
100
AcDbEntity
  8
1
100
AcDbPoint
 10
2376.196614501463
 20
1833.059442791848
 30
0.0
  0
CIRCLE
  5
7CE5
330
19
100
AcDbEntity
  8
1
100
AcDbCircle
 10
1926.196614501463
 20
2473.059442791848
 30
0.0
 40
355.0
  0
CIRCLE
  5
7CE6
330
19
100
AcDbEntity
  8
1
100
AcDbCircle
 10
1926.196614501463
 20
2473.059442791848
 30
0.0
 40
395.0
  0
LINE
  5
7CE7
330
19
100
AcDbEntity
  8
1
100
AcDbLine
 10
3621.198926002997
 20
2973.059442791848
 30
0.0
 11
4651.198926002996
 21
2973.059442791848
 31
0.0
  0
DIMENSION
  5
7CE9
330
19
100
AcDbEntity
  8
3
100
AcDbDimension
280
     0
  2
*D16
 10
2726.950428786779
 20
1653.059442791847
 30
0.0
 11
2664.450428786778
 21
1438.773728506134
 31
0.0
 70
    32
 71
     5
 42
100.0
 73
     0
 74
     0
 75
     0
  3
IGA
100
AcDbAlignedDimension
 13
2376.196614501463
 23
1753.059442791847
 33
0.0
 14
2376.196614501463
 24
1653.059442791847
 34
0.0
 50
90.0
100
AcDbRotatedDimension
1001
ACAD
1000
DSTYLE
1002
{
1070
   287
1070
     3
1070
    40
1040
25.0
1070
   143
1040
0.039
1070
   172
1070
     1
1070
   271
1070
     0
1070
   279
1070
     0
1070
   288
1070
     1
1070
     6
1000
DOT
1002
}
  0
DIMENSION
  5
7CEA
330
19
100
AcDbEntity
  8
3
100
AcDbDimension
280
     0
  2
*D17
 10
4136.198926002997
 20
3232.76534734928
 30
0.0
 11
4424.948926002996
 21
3302.408204492137
 31
0.0
 12
291.9268520725272
 22
1964.465964570448
 32
0.0
 70
    32
  1
(620)
 71
     5
 42
-1.0
 73
     0
 74
     0
 75
     0
  3
MATSU
100
AcDbAlignedDimension
 13
4713.698926002997
 23
2447.859442791847
 33
0.0
 14
4136.198926002997
 24
3203.876916384532
 34
0.0
100
AcDbRotatedDimension
1001
ACAD
1000
DSTYLE
1002
{
1070
   282
1070
     1
1070
    40
1040
25.0
1002
}
  0
LINE
  5
7CEC
330
19
100
AcDbEntity
  8
1
100
AcDbLine
 10
4136.198926002997
 20
3197.741156010728
 30
0.0
 11
4136.198926002997
 21
3203.876916384532
 31
0.0
  0
LINE
  5
7CED
330
19
100
AcDbEntity
  8
1
100
AcDbLine
 10
3484.198926002997
 20
1653.059442791847
 30
0.0
 11
4664.198926002996
 21
1653.059442791847
 31
0.0
1001
ACAD
1000
ASC_BOUNDS
1002
{
1070
    19
1002
}
  0
LINE
  5
7CEE
330
19
100
AcDbEntity
  8
1
100
AcDbLine
 10
3484.198926002997
 20
1753.059442791847
 30
0.0
 11
3484.198926002997
 21
1653.059442791847
 31
0.0
  0
LINE
  5
7CEF
330
19
100
AcDbEntity
  8
1
100
AcDbLine
 10
2432.196614501463
 20
5339.845000546145
 30
0.0
 11
1167.196614501463
 21
5339.845000546145
 31
0.0
  0
LINE
  5
7CF0
330
19
100
AcDbEntity
  8
1
100
AcDbLine
 10
2432.196614501463
 20
4389.845000546144
 30
0.0
 11
1167.196614501463
 21
4389.845000546146
 31
0.0
  0
LINE
  5
7CF1
330
19
100
AcDbEntity
  8
1
100
AcDbLine
 10
1088.196614501463
 20
4647.845000546145
 30
0.0
 11
1088.196614501464
 21
4162.845000546145
 31
0.0
  0
LINE
  5
7CF2
330
19
100
AcDbEntity
  8
1
100
AcDbLine
 10
764.196614501463
 20
4647.845000546146
 30
0.0
 11
764.196614501463
 21
4162.845000546145
 31
0.0
  0
LINE
  5
7CF3
330
19
100
AcDbEntity
  8
1
100
AcDbLine
 10
2146.196614501463
 20
4024.845000546144
 30
0.0
 11
706.196614501463
 21
4024.845000546146
 31
0.0
  0
LINE
  5
7CF4
330
19
100
AcDbEntity
  8
1
100
AcDbLine
 10
2146.196614501463
 20
4024.845000546144
 30
0.0
 11
2146.196614501463
 21
4174.845000546144
 31
0.0
  0
LINE
  5
7CF5
330
19
100
AcDbEntity
  8
1
100
AcDbLine
 10
706.196614501463
 20
4024.845000546146
 30
0.0
 11
706.196614501463
 21
4174.845000546147
 31
0.0
  0
LINE
  5
7CF6
330
19
100
AcDbEntity
  8
1
100
AcDbLine
 10
2146.196614501463
 20
4174.845000546144
 30
0.0
 11
706.196614501463
 21
4174.845000546146
 31
0.0
  0
LINE
  5
7CF7
330
19
100
AcDbEntity
  8
1
100
AcDbLine
 10
2053.196614501463
 20
4044.845000546144
 30
0.0
 11
1799.196614501463
 21
4044.845000546145
 31
0.0
  0
LINE
  5
7CF8
330
19
100
AcDbEntity
  8
1
100
AcDbLine
 10
2053.196614501463
 20
4129.845000546144
 30
0.0
 11
1799.196614501463
 21
4129.845000546145
 31
0.0
  0
LINE
  5
7CF9
330
19
100
AcDbEntity
  8
1
100
AcDbLine
 10
1799.196614501463
 20
4129.845000546144
 30
0.0
 11
1799.196614501463
 21
4044.845000546144
 31
0.0
  0
LINE
  5
7CFA
330
19
100
AcDbEntity
  8
1
100
AcDbLine
 10
2053.196614501463
 20
4129.845000546144
 30
0.0
 11
2053.196614501463
 21
4044.845000546144
 31
0.0
  0
LINE
  5
7CFB
330
19
100
AcDbEntity
  8
1
100
AcDbLine
 10
1033.196614501463
 20
4129.845000546145
 30
0.0
 11
1033.196614501463
 21
4044.845000546145
 31
0.0
  0
LINE
  5
7CFC
330
19
100
AcDbEntity
  8
1
100
AcDbLine
 10
819.196614501463
 20
4129.845000546145
 30
0.0
 11
819.196614501463
 21
4044.845000546145
 31
0.0
  0
LINE
  5
7CFD
330
19
100
AcDbEntity
  8
1
100
AcDbLine
 10
1033.196614501463
 20
4044.845000546145
 30
0.0
 11
819.196614501463
 21
4044.845000546145
 31
0.0
  0
LINE
  5
7CFE
330
19
100
AcDbEntity
  8
1
100
AcDbLine
 10
1033.196614501463
 20
4129.845000546145
 30
0.0
 11
819.196614501463
 21
4129.845000546145
 31
0.0
  0
LINE
  5
7CFF
330
19
100
AcDbEntity
  8
1
100
AcDbLine
 10
1088.196614501463
 20
4647.845000546145
 30
0.0
 11
764.196614501463
 21
4647.845000546145
 31
0.0
  0
LINE
  5
7D00
330
19
100
AcDbEntity
  8
1
100
AcDbLine
 10
1088.196614501462
 20
4162.845000546145
 30
0.0
 11
764.1966145014612
 21
4162.845000546145
 31
0.0
  0
LINE
  5
7D01
330
19
100
AcDbEntity
  8
1
100
AcDbLine
 10
947.1966145014631
 20
4162.845000546145
 30
0.0
 11
947.1966145014631
 21
4129.845000546145
 31
0.0
  0
LINE
  5
7D02
330
19
100
AcDbEntity
  8
1
100
AcDbLine
 10
905.1966145014629
 20
4162.845000546145
 30
0.0
 11
905.1966145014629
 21
4129.845000546145
 31
0.0
  0
LINE
  5
7D03
330
19
100
AcDbEntity
  8
1
100
AcDbLine
 10
1953.696614501463
 20
4389.845000546145
 30
0.0
 11
1953.696614501463
 21
4129.845000546144
 31
0.0
  0
LINE
  5
7D04
330
19
100
AcDbEntity
  8
1
100
AcDbLine
 10
1898.696614501463
 20
4389.845000546145
 30
0.0
 11
1898.696614501463
 21
4129.845000546144
 31
0.0
  0
LINE
  5
7D05
330
19
100
AcDbEntity
  8
1
100
AcDbLine
 10
3661.198926002998
 20
2021.059442791849
 30
0.0
 11
3506.198926002997
 21
2021.059442791849
 31
0.0
  0
LINE
  5
7D06
330
19
100
AcDbEntity
  8
1
100
AcDbLine
 10
3661.198926002998
 20
2345.059442791848
 30
0.0
 11
3648.198926002996
 21
2345.059442791848
 31
0.0
  0
LINE
  5
7D07
330
19
100
AcDbEntity
  8
1
100
AcDbLine
 10
3506.198926002997
 20
2021.05944279185
 30
0.0
 11
3506.198926002999
 21
2345.05944279185
 31
0.0
  0
LINE
  5
7D08
330
19
100
AcDbEntity
  8
1
100
AcDbLine
 10
3506.198926002998
 20
2204.059442791848
 30
0.0
 11
3473.198926002999
 21
2204.059442791848
 31
0.0
  0
LINE
  5
7D09
330
19
100
AcDbEntity
  8
1
100
AcDbLine
 10
3506.198926002998
 20
2162.059442791849
 30
0.0
 11
3473.198926002999
 21
2162.059442791849
 31
0.0
  0
LINE
  5
7D10
330
19
100
AcDbEntity
  8
1
100
AcDbLine
 10
2376.196614501463
 20
4389.845000546143
 30
0.0
 11
2376.196614501463
 21
4212.845000546145
 31
0.0
  0
LINE
  5
7D14
330
19
100
AcDbEntity
  8
1
100
AcDbLine
 10
3621.198926002997
 20
2970.059442791848
 30
0.0
 11
3621.198926002997
 21
2973.059442791848
 31
0.0
  0
LINE
  5
7D15
330
19
100
AcDbEntity
  8
1
100
AcDbLine
 10
4651.198926002996
 20
2970.059442791848
 30
0.0
 11
4651.198926002996
 21
2973.059442791848
 31
0.0
  0
LINE
  5
7D16
330
19
100
AcDbEntity
  8
1
100
AcDbLine
 10
3621.198926002997
 20
2970.059442791848
 30
0.0
 11
4651.198926002996
 21
2970.059442791848
 31
0.0
  0
LINE
  5
7D17
330
19
100
AcDbEntity
  8
1
100
AcDbLine
 10
3523.198926002997
 20
2345.059442791848
 30
0.0
 11
3506.198926002999
 21
2345.059442791848
 31
0.0
  0
LINE
  5
7D18
330
19
100
AcDbEntity
  8
1
100
AcDbLine
 10
1167.196614501463
 20
5339.845000546145
 30
0.0
 11
1167.196614501463
 21
4389.845000546148
 31
0.0
  0
LINE
  5
7D19
330
19
100
AcDbEntity
  8
1
100
AcDbLine
 10
2432.196614501463
 20
5339.845000546145
 30
0.0
 11
2432.196614501463
 21
4389.845000546144
 31
0.0
  0
LINE
  5
7D1A
330
19
100
AcDbEntity
  8
1
100
AcDbLine
 10
1897.196614501463
 20
5339.845000546145
 30
0.0
 11
1897.196614501463
 21
4389.845000546148
 31
0.0
  0
LINE
  5
7D1B
330
19
100
AcDbEntity
  8
1
100
AcDbLine
 10
1897.196614501463
 20
5339.845000546145
 30
0.0
 11
1167.196614501463
 21
4389.845000546146
 31
0.0
  0
LINE
  5
7D1C
330
19
100
AcDbEntity
  8
1
100
AcDbLine
 10
1167.196614501463
 20
5339.845000546145
 30
0.0
 11
1897.196614501463
 21
4389.845000546145
 31
0.0
  0
LINE
  5
7F4C
330
19
100
AcDbEntity
  8
4
100
AcDbLine
 10
4625.0
 20
1008.429666174041
 30
0.0
 11
4625.0
 21
508.4296661740409
 31
0.0
  0
LINE
  5
7F4D
330
19
100
AcDbEntity
  8
4
100
AcDbLine
 10
2875.0
 20
1008.429666174041
 30
0.0
 11
2875.0
 21
508.4296661740409
 31
0.0
  0
LINE
  5
7F4E
330
19
100
AcDbEntity
  8
4
100
AcDbLine
 10
1625.0
 20
1008.429666174041
 30
0.0
 11
1625.0
 21
508.4296661740409
 31
0.0
  0
LINE
  5
7F51
330
19
100
AcDbEntity
  8
4
100
AcDbLine
 10
1625.0
 20
508.4296661740409
 30
0.0
 11
4625.0
 21
508.4296661740409
 31
0.0
  0
LINE
  5
7F52
330
19
100
AcDbEntity
  8
4
100
AcDbLine
 10
1625.0
 20
758.4296661740409
 30
0.0
 11
4625.0
 21
758.4296661740409
 31
0.0
  0
TEXT
  5
7F53
330
19
100
AcDbEntity
  8
4
100
AcDbText
 10
1721.255202117254
 20
837.287230840573
 30
0.0
 40
125.0
  1
機器名称
100
AcDbText
  0
TEXT
  5
7F54
330
19
100
AcDbEntity
  8
4
100
AcDbText
 10
1715.645265061994
 20
562.5425580040682
 30
0.0
 40
125.0
  1
機器型番
100
AcDbText
  0
TEXT
  5
7F55
330
19
100
AcDbEntity
  8
4
100
AcDbText
 10
2945.446339244289
 20
813.3451171717343
 30
0.0
 40
100.0
  1
ミツヤリミットロードファン
100
AcDbText
  0
TEXT
  5
7F56
330
19
100
AcDbEntity
  8
4
100
AcDbText
 10
2966.636238963701
 20
551.3286268738993
 30
0.0
 40
125.0
  1
LL#4 1/2-5
100
AcDbText
  0
TEXT
  5
7F58
330
19
100
AcDbEntity
  8
4
100
AcDbText
 10
1839.529449340356
 20
5958.572103331289
 30
0.0
 40
135.0
  1
床置防振ベット
100
AcDbText
  0
TEXT
  5
7F59
330
19
100
AcDbEntity
  8
4
100
AcDbText
 10
790.4189833236159
 20
6334.702440498245
 30
0.0
 40
180.0
  1
遠心式両吸込両持リミットロードファン
100
AcDbText
  0
LINE
  5
7F5A
330
19
100
AcDbEntity
  8
4
100
AcDbLine
 10
625.0
 20
6173.521885662012
 30
0.0
 11
4625.0
 21
6173.521885662012
 31
0.0
  0
LINE
  5
7F5B
330
19
100
AcDbEntity
  8
4
100
AcDbLine
 10
625.0
 20
6673.521885662012
 30
0.0
 11
4625.0
 21
6673.521885662012
 31
0.0
  0
LINE
  5
7F5C
330
19
100
AcDbEntity
  8
4
100
AcDbLine
 10
1625.0
 20
1008.429666174041
 30
0.0
 11
4625.0
 21
1008.429666174041
 31
0.0
  0
LINE
  5
7F5D
330
19
100
AcDbEntity
  8
4
100
AcDbLine
 10
625.0
 20
6673.521885662012
 30
0.0
 11
625.0
 21
6173.521885662012
 31
0.0
  0
TEXT
  5
7F5E
330
19
100
AcDbEntity
  8
4
100
AcDbText
 10
749.8823687336007
 20
5955.798693865858
 30
0.0
 40
135.0
  1
右回転上向
100
AcDbText
  0
TEXT
  5
7F5F
330
19
100
AcDbEntity
  8
4
100
AcDbText
 10
3672.423898123225
 20
6765.152703738272
 30
0.0
 40
140.0
  1
No.
100
AcDbText
  0
TEXT
  5
7F60
330
19
100
AcDbEntity
  8
4
100
AcDbText
 10
3278.240156500033
 20
5958.572103331289
 30
0.0
 40
135.0
  1
縮尺：1/25
100
AcDbText
  0
LINE
  5
7F61
330
19
100
AcDbEntity
  8
4
100
AcDbLine
 10
4625.0
 20
6673.521885662012
 30
0.0
 11
4625.0
 21
6173.521885662012
 31
0.0
  0
LINE
  5
7F62
330
19
100
AcDbEntity
  8
4
100
AcDbLine
 10
5250.0
 20
7375.0
 30
0.0
 11
5250.0
 21
7375.0
 31
0.0
  0
LINE
  5
7F63
330
19
100
AcDbEntity
  8
4
100
AcDbLine
 10
3601.543555899662
 20
6703.158957813503
 30
0.0
 11
3601.543555899662
 21
6966.630653874381
 31
0.0
  0
LINE
  5
7F64
330
19
100
AcDbEntity
  8
4
100
AcDbLine
 10
3601.543555899662
 20
6966.630653874381
 30
0.0
 11
4625.0
 21
6966.630653874381
 31
0.0
  0
LINE
  5
7F65
330
19
100
AcDbEntity
  8
4
100
AcDbLine
 10
4625.0
 20
6966.630653874381
 30
0.0
 11
4625.0
 21
6703.158957813503
 31
0.0
  0
LINE
  5
7F66
330
19
100
AcDbEntity
  8
4
100
AcDbLine
 10
4625.0
 20
6703.158957813503
 30
0.0
 11
3601.543555899662
 21
6703.158957813503
 31
0.0
  0
LINE
  5
7F67
330
19
100
AcDbEntity
  8
4
100
AcDbLine
 10
0.0
 20
0.0
 30
0.0
 11
0.0
 21
7375.0
 31
0.0
  0
LINE
  5
7F68
330
19
100
AcDbEntity
  8
4
100
AcDbLine
 10
0.0
 20
7375.0
 30
0.0
 11
5250.0
 21
7375.0
 31
0.0
  0
LINE
  5
7F69
330
19
100
AcDbEntity
  8
4
100
AcDbLine
 10
5250.0
 20
7375.0
 30
0.0
 11
5250.0
 21
0.0
 31
0.0
  0
LINE
  5
7F6A
330
19
100
AcDbEntity
  8
4
100
AcDbLine
 10
5250.0
 20
0.0
 30
0.0
 11
0.0
 21
0.0
 31
0.0
  0
DIMENSION
  5
8033
330
19
100
AcDbEntity
  8
3
100
AcDbDimension
280
     0
  2
*D24
 10
2726.885144106866
 20
1833.059442791847
 30
0.0
 11
2824.242849865506
 21
1793.059442791848
 31
0.0
 70
   160
 71
     5
 42
80.0
 73
     0
 74
     0
 75
     0
  3
IGA
100
AcDbAlignedDimension
 13
2376.196614501463
 23
1753.059442791847
 33
0.0
 14
2376.196614501463
 24
1833.059442791848
 34
0.0
 50
90.0
100
AcDbRotatedDimension
1001
ACAD
1000
DSTYLE
1002
{
1070
     3
1000
(<>)
1070
    40
1040
25.0
1070
    75
1070
     1
1070
    76
1070
     1
1070
   143
1040
0.039
1070
   172
1070
     1
1070
   271
1070
     0
1070
   343
1005
8027
1070
   344
1005
8027
1002
}
  0
DIMENSION
  5
8040
330
19
100
AcDbEntity
  8
3
100
AcDbDimension
280
     0
  2
*D25
 10
2926.726097120431
 20
1653.059442791847
 30
0.0
 11
2844.583239977573
 21
2313.059442791848
 31
0.0
 70
    32
 71
     5
 42
1320.000000000001
 73
     0
 74
     0
 75
     0
  3
IGA
100
AcDbAlignedDimension
 13
1939.196614501463
 23
2973.059442791848
 33
0.0
 14
2376.196614501463
 24
1653.059442791847
 34
0.0
 50
90.0
100
AcDbRotatedDimension
1001
ACAD
1000
DSTYLE
1002
{
1070
   172
1070
     1
1070
    40
1040
25.0
1070
     3
1000
(<>)
1070
   271
1070
     0
1070
   143
1040
0.039
1002
}
  0
LINE
  5
8234
330
19
100
AcDbEntity
  8
1
100
AcDbLine
 10
1167.555124124643
 20
2970.059442791847
 30
0.0
 11
1230.522468145615
 21
2443.150205635905
 31
0.0
  0
ARC
  5
8235
330
19
100
AcDbEntity
  8
1
100
AcDbCircle
 10
1873.196614501463
 20
2526.059442791849
 30
0.0
 40
648.0
100
AcDbArc
 50
187.3509360175289
 51
246.2232656341179
  0
ARC
  5
8236
330
19
100
AcDbEntity
  8
1
100
AcDbCircle
 10
1873.196614501464
 20
2420.05944279185
 30
0.0
 40
541.9999999999998
100
AcDbArc
 50
296.0352751318427
 51
0.0
  0
ARC
  5
8237
330
19
100
AcDbEntity
  8
1
100
AcDbCircle
 10
1967.196614501464
 20
2432.059442791849
 30
0.0
 40
448.0
100
AcDbArc
 50
0.0
 51
90.0
  0
ARC
  5
8238
330
19
100
AcDbEntity
  8
1
100
AcDbCircle
 10
1967.196614501463
 20
2514.059442791849
 30
0.0
 40
366.0
100
AcDbArc
 50
90.0
 51
101.0261404812876
  0
LINE
  5
8239
330
19
100
AcDbEntity
  8
1
100
AcDbLine
 10
1897.196614501463
 20
2973.059442791849
 30
0.0
 11
1897.196614501463
 21
2873.303092700933
 31
0.0
  0
LINE
  5
823A
330
19
100
AcDbEntity
  8
1
100
AcDbLine
 10
1125.196614501463
 20
2973.059442791848
 30
0.0
 11
1939.196614501463
 21
2973.059442791849
 31
0.0
  0
LINE
  5
823B
330
19
100
AcDbEntity
  8
1
100
AcDbLine
 10
1125.196614501463
 20
2973.059442791848
 30
0.0
 11
1125.196614501463
 21
2970.059442791848
 31
0.0
  0
LINE
  5
823C
330
19
100
AcDbEntity
  8
1
100
AcDbLine
 10
1939.196614501463
 20
2973.059442791849
 30
0.0
 11
1939.196614501463
 21
2970.059442791848
 31
0.0
  0
LINE
  5
823D
330
19
100
AcDbEntity
  8
1
100
AcDbLine
 10
1170.645846074068
 20
2933.059442791848
 30
0.0
 11
1897.196614501463
 21
2933.059442791848
 31
0.0
  0
LINE
  5
823E
330
19
100
AcDbEntity
  8
1
100
AcDbLine
 10
1125.196614501463
 20
2970.059442791848
 30
0.0
 11
1939.196614501463
 21
2970.059442791848
 31
0.0
  0
POINT
  5
823F
330
19
100
AcDbEntity
  8
1
100
AcDbPoint
 10
1926.196614501463
 20
2933.2420152563
 30
0.0
 50
270.0
  0
LINE
  5
8240
330
19
100
AcDbEntity
  8
1
100
AcDbLine
 10
1926.196614501463
 20
2976.541248424342
 30
0.0
 11
1926.196614501463
 21
2992.214553840657
 31
0.0
  0
LINE
  5
8241
330
19
100
AcDbEntity
  8
1
100
AcDbLine
 10
2415.196614501464
 20
2432.059442791849
 30
0.0
 11
2415.196614501464
 21
2420.05944279185
 31
0.0
  0
DIMENSION
  5
8370
330
19
100
AcDbEntity
  8
3
100
AcDbDimension
280
     0
  2
*D48
 10
2726.950428786779
 20
2973.059442791849
 30
0.0
 11
2664.450428786778
 21
2723.059442791849
 31
0.0
 70
    32
 71
     5
 42
500.0000000000013
 73
     0
 74
     0
 75
     0
  3
IGA
100
AcDbAlignedDimension
 13
2548.462453306893
 23
2473.059442791848
 33
0.0
 14
1939.196614501463
 24
2973.059442791849
 34
0.0
 50
90.0
100
AcDbRotatedDimension
1001
ACAD
1000
DSTYLE
1002
{
1070
     3
1000
<>
1070
    40
1040
25.0
1070
   143
1040
0.039
1070
   172
1070
     1
1070
   271
1070
     0
1002
}
  0
DIMENSION
  5
8386
330
19
100
AcDbEntity
  8
3
100
AcDbDimension
280
     0
  2
*D49
 10
2415.196614501464
 20
3274.875600044739
 30
0.0
 11
2170.696614501464
 21
3337.375600044739
 31
0.0
 70
    32
 71
     5
 42
489.0000000000009
 73
     0
 74
     0
 75
     0
  3
IGA
100
AcDbAlignedDimension
 13
1926.196614501463
 23
3303.11072724899
 33
0.0
 14
2415.196614501464
 24
2420.05944279185
 34
0.0
100
AcDbRotatedDimension
1001
ACAD
1000
DSTYLE
1002
{
1070
     3
1000
<>
1070
    40
1040
25.0
1070
   143
1040
0.039
1070
   172
1070
     1
1070
   271
1070
     0
1002
}
  0
DIMENSION
  5
839C
330
19
100
AcDbEntity
  8
3
100
AcDbDimension
280
     0
  2
*D50
 10
2415.196614501464
 20
3452.144219292576
 30
0.0
 11
1545.696614501463
 21
3534.287076435433
 31
0.0
 70
    32
 71
     5
 42
1739.000000000001
 73
     0
 74
     0
 75
     0
  3
IGA
100
AcDbAlignedDimension
 13
676.196614501463
 23
1933.059442791847
 33
0.0
 14
2415.196614501464
 24
2420.05944279185
 34
0.0
100
AcDbRotatedDimension
1001
ACAD
1000
DSTYLE
1002
{
1070
     3
1000
(<>)
1070
    40
1040
25.0
1070
   143
1040
0.039
1070
   172
1070
     1
1070
   271
1070
     0
1002
}
  0
DIMENSION
  5
83A9
330
19
100
AcDbEntity
  8
3
100
AcDbDimension
280
     0
  2
*D51
 10
1926.196614501463
 20
1476.398285640098
 30
0.0
 11
1301.196614501463
 21
1538.898285640098
 31
0.0
 70
    32
 71
     5
 42
1250.0
 73
     0
 74
     0
 75
     0
  3
IGA
100
AcDbAlignedDimension
 13
676.196614501463
 23
1653.059442791847
 33
0.0
 14
1926.196614501463
 24
1653.059442791847
 34
0.0
100
AcDbRotatedDimension
1001
ACAD
1000
DSTYLE
1002
{
1070
     3
1000
<>
1070
    40
1040
25.0
1070
   143
1040
0.039
1070
   172
1070
     1
1070
   271
1070
     0
1002
}
  0
DIMENSION
  5
83B6
330
19
100
AcDbEntity
  8
3
100
AcDbDimension
280
     0
  2
*D52
 10
2376.196614501463
 20
1476.398285640098
 30
0.0
 11
2151.196614501463
 21
1538.898285640098
 31
0.0
 70
    32
 71
     5
 42
449.9999999999998
 73
     0
 74
     0
 75
     0
  3
IGA
100
AcDbAlignedDimension
 13
1926.196614501463
 23
1653.059442791847
 33
0.0
 14
2376.196614501463
 24
1653.059442791847
 34
0.0
100
AcDbRotatedDimension
1001
ACAD
1000
DSTYLE
1002
{
1070
     3
1000
<>
1070
    40
1040
25.0
1070
   143
1040
0.039
1070
   172
1070
     1
1070
   271
1070
     0
1002
}
  0
DIMENSION
  5
83C3
330
19
100
AcDbEntity
  8
3
100
AcDbDimension
280
     0
  2
*D53
 10
4136.198926002996
 20
1489.416919769857
 30
0.0
 11
3810.198926002997
 21
1551.916919769857
 31
0.0
 70
    32
 71
     5
 42
651.999999999999
 73
     0
 74
     0
 75
     0
  3
IGA
100
AcDbAlignedDimension
 13
3484.198926002997
 23
1653.059442791847
 33
0.0
 14
4136.198926002996
 24
1653.059442791847
 34
0.0
100
AcDbRotatedDimension
1001
ACAD
1000
DSTYLE
1002
{
1070
     3
1000
<>
1070
    40
1040
25.0
1070
   143
1040
0.039
1070
   172
1070
     1
1070
   271
1070
     0
1002
}
  0
DIMENSION
  5
83D0
330
19
100
AcDbEntity
  8
3
100
AcDbDimension
280
     0
  2
*D54
 10
4664.198926002996
 20
1489.416919769857
 30
0.0
 11
4400.198926002996
 21
1551.916919769857
 31
0.0
 70
    32
 71
     5
 42
528.0000000000009
 73
     0
 74
     0
 75
     0
  3
IGA
100
AcDbAlignedDimension
 13
4136.198926002996
 23
1653.059442791847
 33
0.0
 14
4664.198926002996
 24
1653.059442791847
 34
0.0
100
AcDbRotatedDimension
1001
ACAD
1000
DSTYLE
1002
{
1070
     3
1000
<>
1070
    40
1040
25.0
1070
   143
1040
0.039
1070
   172
1070
     1
1070
   271
1070
     0
1002
}
  0
DIMENSION
  5
83DD
330
19
100
AcDbEntity
  8
3
100
AcDbDimension
280
     0
  2
*D55
 10
4136.198926002997
 20
3232.76534734928
 30
0.0
 11
3716.198926002997
 21
3314.908204492136
 31
0.0
 70
    32
 71
     5
 42
840.0
 73
     0
 74
     0
 75
     0
  3
IGA
100
AcDbAlignedDimension
 13
3296.198926002997
 23
2693.059442791848
 33
0.0
 14
4136.198926002997
 24
3232.76534734928
 34
0.0
100
AcDbRotatedDimension
1001
ACAD
1000
DSTYLE
1002
{
1070
     3
1000
(<>)
1070
    40
1040
25.0
1070
   143
1040
0.039
1070
   172
1070
     1
1070
   271
1070
     0
1002
}
  0
ENDSEC
  0
SECTION
  2
OBJECTS
  0
DICTIONARY
  5
C
330
0
100
AcDbDictionary
281
     1
  3
ACAD_CIP_PREVIOUS_PRODUCT_INFO
350
80F4
  3
ACAD_COLOR
350
80D7
  3
ACAD_DETAILVIEWSTYLE
350
80F0
  3
ACAD_GROUP
350
D
  3
ACAD_LAYOUT
350
804B
  3
ACAD_MATERIAL
350
80A5
  3
ACAD_MLEADERSTYLE
350
80EC
  3
ACAD_MLINESTYLE
350
E
  3
ACAD_PLOTSETTINGS
350
804C
  3
ACAD_PLOTSTYLENAME
350
8049
  3
ACAD_SCALELIST
350
80DA
  3
ACAD_SECTIONVIEWSTYLE
350
80EE
  3
ACAD_TABLESTYLE
350
80D8
  3
ACAD_VISUALSTYLE
350
80BE
  3
ACDB_RECOMPOSE_DATA
350
8486
  3
AcDbVariableDictionary
350
8475
  3
AcDsDecomposeData
350
848C
  0
DICTIONARY
  5
817E
330
2
100
AcDbDictionary
280
     1
281
     1
  3
ACAD_LAYERSTATES
360
817F
  0
DICTIONARY
  5
845F
330
F
100
AcDbDictionary
280
     1
281
     1
  3
ADSK_XREC_LAYER_RECONCILED
360
8460
  0
DICTIONARY
  5
8461
330
31
100
AcDbDictionary
280
     1
281
     1
  3
ADSK_XREC_LAYER_RECONCILED
360
8462
  0
DICTIONARY
  5
8463
330
76D0
100
AcDbDictionary
280
     1
281
     1
  3
ADSK_XREC_LAYER_RECONCILED
360
8464
  0
DICTIONARY
  5
8465
330
76D1
100
AcDbDictionary
280
     1
281
     1
  3
ADSK_XREC_LAYER_RECONCILED
360
8466
  0
DICTIONARY
  5
8467
330
76D2
100
AcDbDictionary
280
     1
281
     1
  3
ADSK_XREC_LAYER_RECONCILED
360
8468
  0
DICTIONARY
  5
8078
330
19
100
AcDbDictionary
280
     1
281
     1
  3
ACAD_LAYOUTSELFREF
360
8079
  0
DICTIONARY
  5
8076
330
16
100
AcDbDictionary
280
     1
281
     1
  3
ACAD_LAYOUTSELFREF
360
8077
  0
XRECORD
  5
80F4
102
{ACAD_REACTORS
330
C
102
}
330
C
100
AcDbXrecord
280
     1
300
ACDLT
300
2023
300

  0
DICTIONARY
  5
80D7
102
{ACAD_REACTORS
330
C
102
}
330
C
100
AcDbDictionary
281
     1
  0
DICTIONARY
  5
80F0
102
{ACAD_REACTORS
330
C
102
}
330
C
100
AcDbDictionary
281
     1
  3
Metric50
350
80F1
  0
DICTIONARY
  5
D
102
{ACAD_REACTORS
330
C
102
}
330
C
100
AcDbDictionary
281
     1
  0
DICTIONARY
  5
804B
102
{ACAD_REACTORS
330
C
102
}
330
C
100
AcDbDictionary
281
     1
  3
Model
350
804D
  3
ﾚｲｱｳﾄ1
350
804E
  0
DICTIONARY
  5
80A5
102
{ACAD_REACTORS
330
C
102
}
330
C
100
AcDbDictionary
281
     1
  3
ByBlock
350
80AE
  3
ByLayer
350
80A6
  3
Global
350
80B6
  0
DICTIONARY
  5
80EC
102
{ACAD_REACTORS
330
C
102
}
330
C
100
AcDbDictionary
281
     1
  3
Standard
350
80ED
  0
DICTIONARY
  5
E
102
{ACAD_REACTORS
330
C
102
}
330
C
100
AcDbDictionary
281
     1
  3
STANDARD
350
1C
  0
DICTIONARY
  5
804C
102
{ACAD_REACTORS
330
C
102
}
330
C
100
AcDbDictionary
281
     1
  0
ACDBDICTIONARYWDFLT
  5
8049
102
{ACAD_REACTORS
330
C
102
}
330
C
100
AcDbDictionary
281
     1
  3
Normal
350
804A
100
AcDbDictionaryWithDefault
340
804A
  0
DICTIONARY
  5
80DA
102
{ACAD_REACTORS
330
C
102
}
330
C
100
AcDbDictionary
281
     1
  3
A0
350
80DB
  3
A1
350
80DC
  3
A2
350
80DD
  3
A3
350
80DE
  3
A4
350
80DF
  3
A5
350
80E0
  3
A6
350
80E1
  3
A7
350
80E2
  3
A8
350
80E3
  3
A9
350
80E4
  3
B0
350
80E5
  3
B1
350
80E6
  3
B2
350
80E7
  3
B3
350
80E8
  3
B4
350
80E9
  3
B5
350
80EA
  3
B6
350
80EB
  0
DICTIONARY
  5
80EE
102
{ACAD_REACTORS
330
C
102
}
330
C
100
AcDbDictionary
281
     1
  3
Metric50
350
80EF
  0
DICTIONARY
  5
80D8
102
{ACAD_REACTORS
330
C
102
}
330
C
100
AcDbDictionary
281
     1
  3
Standard
350
80D9
  0
DICTIONARY
  5
80BE
102
{ACAD_REACTORS
330
C
102
}
330
C
100
AcDbDictionary
281
     1
  3
2dWireframe
350
80C4
  3
Basic
350
80C3
  3
Brighten
350
80CA
  3
ColorChange
350
80CE
  3
Conceptual
350
80C7
  3
Dim
350
80C9
  3
EdgeColorOff
350
80D6
  3
Facepattern
350
80CD
  3
Flat
350
80BF
  3
FlatWithEdges
350
80C0
  3
Gouraud
350
80C1
  3
GouraudWithEdges
350
80C2
  3
Hidden
350
80C6
  3
JitterOff
350
80D4
  3
Linepattern
350
80CC
  3
OverhangOff
350
80D5
  3
Realistic
350
80C8
  3
Shaded
350
80D3
  3
Shaded with edges
350
80D2
  3
Shades of Gray
350
80CF
  3
Sketchy
350
80D0
  3
Thicken
350
80CB
  3
Wireframe
350
80C5
  3
X-Ray
350
80D1
  0
XRECORD
  5
8486
102
{ACAD_REACTORS
330
C
102
}
330
C
100
AcDbXrecord
280
     1
 90
        1
330
80D9
  0
DICTIONARY
  5
8475
102
{ACAD_REACTORS
330
C
102
}
330
C
100
AcDbDictionary
281
     1
  3
CANNOSCALE
350
847B
  3
CMLEADERSTYLE
350
8477
  3
CTABLESTYLE
350
8476
  3
CVIEWDETAILSTYLE
350
8478
  3
CVIEWSECTIONSTYLE
350
8479
  3
LAYEREVAL
350
847D
  3
LAYERNOTIFY
350
847E
  3
LIGHTINGUNITS
350
847C
  3
MARKUPASSISTMODE
350
8483
  3
MSLTSCALE
350
847A
  0
DICTIONARY
  5
848C
102
{ACAD_REACTORS
330
C
102
}
330
C
100
AcDbDictionary
281
     1
  3
AcDsRecords
350
848E
  3
AcDsSchemas
350
848D
1001
ACAD
1070
     2
  0
DICTIONARY
  5
817F
102
{ACAD_REACTORS
330
817E
102
}
330
817E
100
AcDbDictionary
281
     1
  0
XRECORD
  5
8460
102
{ACAD_REACTORS
330
845F
102
}
330
845F
100
AcDbXrecord
280
     1
290
     1
  0
XRECORD
  5
8462
102
{ACAD_REACTORS
330
8461
102
}
330
8461
100
AcDbXrecord
280
     1
290
     1
  0
XRECORD
  5
8464
102
{ACAD_REACTORS
330
8463
102
}
330
8463
100
AcDbXrecord
280
     1
290
     1
  0
XRECORD
  5
8466
102
{ACAD_REACTORS
330
8465
102
}
330
8465
100
AcDbXrecord
280
     1
290
     1
  0
XRECORD
  5
8468
102
{ACAD_REACTORS
330
8467
102
}
330
8467
100
AcDbXrecord
280
     1
290
     1
  0
XRECORD
  5
8079
102
{ACAD_REACTORS
330
8078
102
}
330
8078
100
AcDbXrecord
280
     1
340
19
  0
XRECORD
  5
8077
102
{ACAD_REACTORS
330
8076
102
}
330
8076
100
AcDbXrecord
280
     1
340
16
  0
ACDBDETAILVIEWSTYLE
  5
80F1
102
{ACAD_XDICTIONARY
360
8491
102
}
102
{ACAD_REACTORS
330
80F0
102
}
330
80F0
100
AcDbModelDocViewStyle
 70
     0
  3
Metric50
290
     0
100
AcDbDetailViewStyle
 70
     0
 71
     0
 90
        3
 71
     1
340
10
 62
   256
 40
5.0
340
0
 62
   256
 40
5.0
300

 40
0.0
280
     1
 71
     2
340
15
 90
       25
 62
   256
 71
     3
340
10
 62
   256
 40
5.0
 90
        0
 40
15.0
 90
        1
300
%<\AcVar ViewDetailId>% (%<\AcVar ViewScale \f "%sn">%)
 71
     4
340
15
 90
       25
 62
   256
340
15
 90
       25
 62
   256
280
     0
  0
LAYOUT
  5
804D
102
{ACAD_REACTORS
330
804B
102
}
330
804B
100
AcDbPlotSettings
  1

  2
EPSON LP-9300
  4

  6

 40
0.0
 41
0.0
 42
0.0
 43
0.0
 44
0.0
 45
0.0
 46
0.0
 47
0.0
 48
0.0
 49
0.0
140
0.0
141
0.0
142
1.0
143
1.0
 70
  1712
 72
     0
 73
     0
 74
     0
  7

 75
     0
147
1.0
 76
     0
 77
     2
 78
   300
148
0.0
149
0.0
100
AcDbLayout
  1
Model
 70
     1
 71
     0
 10
0.0
 20
0.0
 11
12.0
 21
9.0
 12
0.0
 22
0.0
 32
0.0
 14
0.0
 24
0.0
 34
0.0
 15
0.0
 25
0.0
 35
0.0
146
0.0
 13
0.0
 23
0.0
 33
0.0
 16
1.0
 26
0.0
 36
0.0
 17
0.0
 27
1.0
 37
0.0
 76
     0
330
19
331
80A3
  0
LAYOUT
  5
804E
102
{ACAD_REACTORS
330
804B
102
}
330
804B
100
AcDbPlotSettings
  1

  2
EPSON LP-9300
  4

  6

 40
0.0
 41
0.0
 42
0.0
 43
0.0
 44
0.0
 45
0.0
 46
0.0
 47
0.0
 48
0.0
 49
0.0
140
0.0
141
0.0
142
1.0
143
1.0
 70
   688
 72
     0
 73
     0
 74
     5
  7

 75
    16
147
1.0
 76
     0
 77
     2
 78
   300
148
0.0
149
0.0
100
AcDbLayout
  1
ﾚｲｱｳﾄ1
 70
     1
 71
     1
 10
0.0
 20
0.0
 11
12.0
 21
9.0
 12
0.0
 22
0.0
 32
0.0
 14
1.000000000000000E+20
 24
1.000000000000000E+20
 34
1.000000000000000E+20
 15
-1.000000000000000E+20
 25
-1.000000000000000E+20
 35
-1.000000000000000E+20
146
0.0
 13
0.0
 23
0.0
 33
0.0
 16
1.0
 26
0.0
 36
0.0
 17
0.0
 27
1.0
 37
0.0
 76
     0
330
16
  0
MATERIAL
  5
80AE
102
{ACAD_XDICTIONARY
360
80AF
102
}
102
{ACAD_REACTORS
330
80A5
102
}
330
80A5
100
AcDbMaterial
  1
ByBlock
 72
     0
 43
0.0208333333333333
 43
0.0
 43
0.0
 43
0.0
 43
0.0
 43
0.0208333333333333
 43
0.0
 43
0.0
 43
0.0
 43
0.0
 43
1.0
 43
0.0
 43
0.0
 43
0.0
 43
0.0
 43
1.0
 77
     0
 47
0.0208333333333333
 47
0.0
 47
0.0
 47
0.0
 47
0.0
 47
0.0208333333333333
 47
0.0
 47
0.0
 47
0.0
 47
0.0
 47
1.0
 47
0.0
 47
0.0
 47
0.0
 47
0.0
 47
1.0
171
     0
 49
0.0208333333333333
 49
0.0
 49
0.0
 49
0.0
 49
0.0
 49
0.0208333333333333
 49
0.0
 49
0.0
 49
0.0
 49
0.0
 49
1.0
 49
0.0
 49
0.0
 49
0.0
 49
0.0
 49
1.0
175
     0
142
0.0208333333333333
142
0.0
142
0.0
142
0.0
142
0.0
142
0.0208333333333333
142
0.0
142
0.0
142
0.0
142
0.0
142
1.0
142
0.0
142
0.0
142
0.0
142
0.0
142
1.0
179
     0
144
0.0208333333333333
144
0.0
144
0.0
144
0.0
144
0.0
144
0.0208333333333333
144
0.0
144
0.0
144
0.0
144
0.0
144
1.0
144
0.0
144
0.0
144
0.0
144
0.0
144
1.0
147
0.0208333333333333
147
0.0
147
0.0
147
0.0
147
0.0
147
0.0208333333333333
147
0.0
147
0.0
147
0.0
147
0.0
147
1.0
147
0.0
147
0.0
147
0.0
147
0.0
147
1.0
  0
MATERIAL
  5
80A6
102
{ACAD_XDICTIONARY
360
80A7
102
}
102
{ACAD_REACTORS
330
80A5
102
}
330
80A5
100
AcDbMaterial
  1
ByLayer
 72
     0
 43
0.0208333333333333
 43
0.0
 43
0.0
 43
0.0
 43
0.0
 43
0.0208333333333333
 43
0.0
 43
0.0
 43
0.0
 43
0.0
 43
1.0
 43
0.0
 43
0.0
 43
0.0
 43
0.0
 43
1.0
 77
     0
 47
0.0208333333333333
 47
0.0
 47
0.0
 47
0.0
 47
0.0
 47
0.0208333333333333
 47
0.0
 47
0.0
 47
0.0
 47
0.0
 47
1.0
 47
0.0
 47
0.0
 47
0.0
 47
0.0
 47
1.0
171
     0
 49
0.0208333333333333
 49
0.0
 49
0.0
 49
0.0
 49
0.0
 49
0.0208333333333333
 49
0.0
 49
0.0
 49
0.0
 49
0.0
 49
1.0
 49
0.0
 49
0.0
 49
0.0
 49
0.0
 49
1.0
175
     0
142
0.0208333333333333
142
0.0
142
0.0
142
0.0
142
0.0
142
0.0208333333333333
142
0.0
142
0.0
142
0.0
142
0.0
142
1.0
142
0.0
142
0.0
142
0.0
142
0.0
142
1.0
179
     0
144
0.0208333333333333
144
0.0
144
0.0
144
0.0
144
0.0
144
0.0208333333333333
144
0.0
144
0.0
144
0.0
144
0.0
144
1.0
144
0.0
144
0.0
144
0.0
144
0.0
144
1.0
147
0.0208333333333333
147
0.0
147
0.0
147
0.0
147
0.0
147
0.0208333333333333
147
0.0
147
0.0
147
0.0
147
0.0
147
1.0
147
0.0
147
0.0
147
0.0
147
0.0
147
1.0
  0
MATERIAL
  5
80B6
102
{ACAD_XDICTIONARY
360
80B7
102
}
102
{ACAD_REACTORS
330
80A5
102
}
330
80A5
100
AcDbMaterial
  1
Global
 72
     0
 43
0.0208333333333333
 43
0.0
 43
0.0
 43
0.0
 43
0.0
 43
0.0208333333333333
 43
0.0
 43
0.0
 43
0.0
 43
0.0
 43
1.0
 43
0.0
 43
0.0
 43
0.0
 43
0.0
 43
1.0
 77
     0
 47
0.0208333333333333
 47
0.0
 47
0.0
 47
0.0
 47
0.0
 47
0.0208333333333333
 47
0.0
 47
0.0
 47
0.0
 47
0.0
 47
1.0
 47
0.0
 47
0.0
 47
0.0
 47
0.0
 47
1.0
171
     0
 49
0.0208333333333333
 49
0.0
 49
0.0
 49
0.0
 49
0.0
 49
0.0208333333333333
 49
0.0
 49
0.0
 49
0.0
 49
0.0
 49
1.0
 49
0.0
 49
0.0
 49
0.0
 49
0.0
 49
1.0
175
     0
142
0.0208333333333333
142
0.0
142
0.0
142
0.0
142
0.0
142
0.0208333333333333
142
0.0
142
0.0
142
0.0
142
0.0
142
1.0
142
0.0
142
0.0
142
0.0
142
0.0
142
1.0
179
     0
144
0.0208333333333333
144
0.0
144
0.0
144
0.0
144
0.0
144
0.0208333333333333
144
0.0
144
0.0
144
0.0
144
0.0
144
1.0
144
0.0
144
0.0
144
0.0
144
0.0
144
1.0
147
0.0208333333333333
147
0.0
147
0.0
147
0.0
147
0.0
147
0.0208333333333333
147
0.0
147
0.0
147
0.0
147
0.0
147
1.0
147
0.0
147
0.0
147
0.0
147
0.0
147
1.0
  0
MLEADERSTYLE
  5
80ED
102
{ACAD_REACTORS
330
80EC
102
}
330
80EC
100
AcDbMLeaderStyle
179
     2
170
     2
171
     1
172
     0
 90
        2
 40
0.0
 41
0.0
173
     1
 91
-1056964608
340
13
 92
       -2
290
     1
 42
2.0
291
     1
 43
0.36
  3
Standard
 44
4.0
300

342
10
174
     1
178
     6
175
     1
176
     0
 93
-1056964608
 45
4.0
292
     0
297
     0
 46
4.0
 94
-1056964608
 47
1.0
 49
1.0
140
1.0
293
     1
141
0.0
294
     1
177
     0
142
1.0
295
     0
296
     0
143
0.125
271
     0
272
     9
273
     9
298
     1
  0
MLINESTYLE
  5
1C
102
{ACAD_REACTORS
330
E
102
}
330
E
100
AcDbMlineStyle
  2
STANDARD
 70
     0
  3

 62
     0
 51
90.0
 52
90.0
 71
     2
 49
0.5
 62
   256
  6
BYLAYER
 49
-0.5
 62
   256
  6
BYLAYER
  0
ACDBPLACEHOLDER
  5
804A
102
{ACAD_REACTORS
330
8049
102
}
330
8049
  0
SCALE
  5
80DB
102
{ACAD_REACTORS
330
80DA
102
}
330
80DA
100
AcDbScale
 70
     0
300
1:1
140
1.0
141
1.0
290
     1
  0
SCALE
  5
80DC
102
{ACAD_REACTORS
330
80DA
102
}
330
80DA
100
AcDbScale
 70
     0
300
1:2
140
1.0
141
2.0
290
     0
  0
SCALE
  5
80DD
102
{ACAD_REACTORS
330
80DA
102
}
330
80DA
100
AcDbScale
 70
     0
300
1:4
140
1.0
141
4.0
290
     0
  0
SCALE
  5
80DE
102
{ACAD_REACTORS
330
80DA
102
}
330
80DA
100
AcDbScale
 70
     0
300
1:5
140
1.0
141
5.0
290
     0
  0
SCALE
  5
80DF
102
{ACAD_REACTORS
330
80DA
102
}
330
80DA
100
AcDbScale
 70
     0
300
1:8
140
1.0
141
8.0
290
     0
  0
SCALE
  5
80E0
102
{ACAD_REACTORS
330
80DA
102
}
330
80DA
100
AcDbScale
 70
     0
300
1:10
140
1.0
141
10.0
290
     0
  0
SCALE
  5
80E1
102
{ACAD_REACTORS
330
80DA
102
}
330
80DA
100
AcDbScale
 70
     0
300
1:16
140
1.0
141
16.0
290
     0
  0
SCALE
  5
80E2
102
{ACAD_REACTORS
330
80DA
102
}
330
80DA
100
AcDbScale
 70
     0
300
1:20
140
1.0
141
20.0
290
     0
  0
SCALE
  5
80E3
102
{ACAD_REACTORS
330
80DA
102
}
330
80DA
100
AcDbScale
 70
     0
300
1:30
140
1.0
141
30.0
290
     0
  0
SCALE
  5
80E4
102
{ACAD_REACTORS
330
80DA
102
}
330
80DA
100
AcDbScale
 70
     0
300
1:40
140
1.0
141
40.0
290
     0
  0
SCALE
  5
80E5
102
{ACAD_REACTORS
330
80DA
102
}
330
80DA
100
AcDbScale
 70
     0
300
1:50
140
1.0
141
50.0
290
     0
  0
SCALE
  5
80E6
102
{ACAD_REACTORS
330
80DA
102
}
330
80DA
100
AcDbScale
 70
     0
300
1:100
140
1.0
141
100.0
290
     0
  0
SCALE
  5
80E7
102
{ACAD_REACTORS
330
80DA
102
}
330
80DA
100
AcDbScale
 70
     0
300
2:1
140
2.0
141
1.0
290
     0
  0
SCALE
  5
80E8
102
{ACAD_REACTORS
330
80DA
102
}
330
80DA
100
AcDbScale
 70
     0
300
4:1
140
4.0
141
1.0
290
     0
  0
SCALE
  5
80E9
102
{ACAD_REACTORS
330
80DA
102
}
330
80DA
100
AcDbScale
 70
     0
300
8:1
140
8.0
141
1.0
290
     0
  0
SCALE
  5
80EA
102
{ACAD_REACTORS
330
80DA
102
}
330
80DA
100
AcDbScale
 70
     0
300
10:1
140
10.0
141
1.0
290
     0
  0
SCALE
  5
80EB
102
{ACAD_REACTORS
330
80DA
102
}
330
80DA
100
AcDbScale
 70
     0
300
100:1
140
100.0
141
1.0
290
     0
  0
ACDBSECTIONVIEWSTYLE
  5
80EF
102
{ACAD_XDICTIONARY
360
848F
102
}
102
{ACAD_REACTORS
330
80EE
102
}
330
80EE
100
AcDbModelDocViewStyle
 70
     0
  3
Metric50
290
     0
100
AcDbSectionViewStyle
 70
     0
 71
     0
 90
      102
 71
     1
340
10
 62
   256
 40
5.0
340
0
340
0
 62
   256
 40
5.0
300
I, O, Q, S, X, Z
 40
10.0
 90
        0
 40
2.5
 90
        0
 71
     2
340
15
 90
       25
 62
   256
340
15
 90
       50
 62
   256
 40
5.0
 40
2.5
 40
5.0
 71
     3
340
10
 62
   256
 40
5.0
 90
        0
 40
15.0
 90
        1
300
%<\AcVar ViewSectionStartId>%-%<\AcVar ViewSectionEndId>% (%<\AcVar ViewScale \f "%sn">%)
 71
     4
 62
   256
 62
   257
300
ANSI31
 40
1.0
 90
        0
290
     0
290
     0
 90
        6
 40
0.0
 40
1.570796326794896
 40
0.2617993877991494
 40
1.308996938995747
 40
-0.2617993877991494
 40
1.832595714594046
  0
TABLESTYLE
  5
80D9
102
{ACAD_XDICTIONARY
360
8484
102
}
102
{ACAD_REACTORS
330
80D8
102
}
330
80D8
100
AcDbTableStyle
280
     0
  3
Standard
 70
     0
 71
     0
 40
1.5
 41
1.5
280
     0
281
     0
  7
STANDARD
140
4.5
170
     2
 62
     0
 63
     7
283
     0
 90
      512
 91
        0
  1

274
    -2
284
     1
 64
     0
275
    -2
285
     1
 65
     0
276
    -2
286
     1
 66
     0
277
    -2
287
     1
 67
     0
278
    -2
288
     1
 68
     0
279
    -2
289
     1
 69
     0
  7
STANDARD
140
6.0
170
     5
 62
     0
 63
     7
283
     0
 90
      512
 91
        0
  1

274
    -2
284
     1
 64
     0
275
    -2
285
     1
 65
     0
276
    -2
286
     1
 66
     0
277
    -2
287
     1
 67
     0
278
    -2
288
     1
 68
     0
279
    -2
289
     1
 69
     0
  7
STANDARD
140
4.5
170
     5
 62
     0
 63
     7
283
     0
 90
      512
 91
        0
  1

274
    -2
284
     1
 64
     0
275
    -2
285
     1
 65
     0
276
    -2
286
     1
 66
     0
277
    -2
287
     1
 67
     0
278
    -2
288
     1
 68
     0
279
    -2
289
     1
 69
     0
  0
VISUALSTYLE
  5
80C4
102
{ACAD_REACTORS
330
80BE
102
}
330
80BE
100
AcDbVisualStyle
  2
2dWireframe
 70
     4
177
     3
291
     0
 70
    58
 90
        0
176
     1
 90
        2
176
     1
 90
        0
176
     1
 90
        0
176
     1
 40
0.6
176
     1
 40
30.0
176
     1
 62
     7
420
 16777215
176
     1
 90
        1
176
     1
 90
        4
176
     1
 62
     7
176
     1
 62
   257
176
     1
 90
        1
176
     1
 90
        1
176
     1
 40
1.0
176
     1
 90
        0
176
     1
 62
   257
176
     1
 40
1.0
176
     1
 90
        1
176
     1
 90
        6
176
     1
 90
        2
176
     1
 62
     7
176
     1
 90
        5
176
     1
 90
        0
176
     1
 90
        0
176
     1
290
     0
176
     1
 90
        1
176
     1
 40
0.0
176
     1
 90
        0
176
     1
290
     1
176
     1
290
     1
176
     1
290
     0
176
     1
290
     0
176
     1
290
     0
176
     1
290
     0
176
     1
290
     0
176
     1
290
     0
176
     1
290
     0
176
     1
 90
       50
176
     1
 40
0.0
176
     1
 40
1.0
176
     1
 90
        0
176
     1
 62
    18
420
        0
176
     1
 90
       50
176
     1
 90
        3
176
     1
 62
     5
420
      255
176
     1
290
     0
176
     1
 90
       50
176
     1
 90
       50
176
     1
 90
       50
176
     1
290
     0
176
     1
 90
       50
176
     1
 62
   256
176
     0
 40
1.0
176
     0
 90
        2
176
     1
  1
strokes_ogs.tif
176
     1
290
     0
176
     1
 40
1.0
176
     1
 40
1.0
176
     1
1001
ACAD
1000
AcDbSavedByObjectVersion
1070
     0
  0
VISUALSTYLE
  5
80C3
102
{ACAD_REACTORS
330
80BE
102
}
330
80BE
100
AcDbVisualStyle
  2
Basic
 70
     7
177
     3
291
     1
 70
    58
 90
        1
176
     1
 90
        0
176
     1
 90
        1
176
     1
 90
        0
176
     1
 40
0.6
176
     1
 40
30.0
176
     1
 62
     7
420
 16777215
176
     1
 90
        0
176
     1
 90
        4
176
     1
 62
     7
176
     1
 62
   257
176
     1
 90
        1
176
     1
 90
        1
176
     1
 40
1.0
176
     1
 90
        8
176
     1
 62
     7
176
     1
 40
1.0
176
     1
 90
        1
176
     1
 90
        6
176
     1
 90
        2
176
     1
 62
     7
176
     1
 90
        5
176
     1
 90
        0
176
     1
 90
        0
176
     1
290
     0
176
     1
 90
        1
176
     1
 40
0.0
176
     1
 90
        0
176
     1
290
     0
176
     1
290
     1
176
     1
290
     1
176
     1
290
     0
176
     1
290
     0
176
     1
290
     0
176
     1
290
     0
176
     1
290
     0
176
     1
290
     0
176
     1
 90
       50
176
     1
 40
0.0
176
     1
 40
1.0
176
     1
 90
        0
176
     1
 62
    18
420
        0
176
     1
 90
       50
176
     1
 90
        3
176
     1
 62
     5
420
      255
176
     1
290
     0
176
     1
 90
       50
176
     1
 90
       50
176
     1
 90
       50
176
     1
290
     0
176
     1
 90
       50
176
     1
 62
   256
176
     0
 40
1.0
176
     0
 90
        2
176
     1
  1
strokes_ogs.tif
176
     1
290
     0
176
     1
 40
1.0
176
     1
 40
1.0
176
     1
1001
ACAD
1000
AcDbSavedByObjectVersion
1070
     0
  0
VISUALSTYLE
  5
80CA
102
{ACAD_REACTORS
330
80BE
102
}
330
80BE
100
AcDbVisualStyle
  2
Brighten
 70
    12
177
     3
291
     1
 70
    58
 90
        2
176
     1
 90
        2
176
     1
 90
        0
176
     1
 90
        0
176
     1
 40
0.6
176
     1
 40
30.0
176
     1
 62
     7
420
 16777215
176
     1
 90
        1
176
     1
 90
        4
176
     1
 62
     7
176
     1
 62
   257
176
     1
 90
        1
176
     1
 90
        1
176
     1
 40
1.0
176
     1
 90
        8
176
     1
 62
     7
176
     1
 40
1.0
176
     1
 90
        1
176
     1
 90
        6
176
     1
 90
        2
176
     1
 62
     7
176
     1
 90
        5
176
     1
 90
        0
176
     1
 90
        0
176
     1
290
     0
176
     1
 90
        1
176
     1
 40
50.0
176
     1
 90
        0
176
     1
290
     0
176
     1
290
     1
176
     1
290
     1
176
     1
290
     0
176
     1
290
     0
176
     1
290
     0
176
     1
290
     0
176
     1
290
     0
176
     1
290
     0
176
     1
 90
       50
176
     1
 40
0.0
176
     1
 40
1.0
176
     1
 90
        0
176
     1
 62
    18
420
        0
176
     1
 90
       50
176
     1
 90
        3
176
     1
 62
     5
420
      255
176
     1
290
     0
176
     1
 90
       50
176
     1
 90
       50
176
     1
 90
       50
176
     1
290
     0
176
     1
 90
       50
176
     1
 62
   256
176
     0
 40
1.0
176
     0
 90
        2
176
     1
  1
strokes_ogs.tif
176
     1
290
     0
176
     1
 40
1.0
176
     1
 40
1.0
176
     1
1001
ACAD
1000
AcDbSavedByObjectVersion
1070
     0
  0
VISUALSTYLE
  5
80CE
102
{ACAD_REACTORS
330
80BE
102
}
330
80BE
100
AcDbVisualStyle
  2
ColorChange
 70
    16
177
     3
291
     1
 70
    58
 90
        2
176
     1
 90
        2
176
     1
 90
        3
176
     1
 90
        0
176
     1
 40
0.6
176
     1
 40
30.0
176
     1
 62
     8
420
  8421504
176
     1
 90
        1
176
     1
 90
        4
176
     1
 62
     7
176
     1
 62
   257
176
     1
 90
        1
176
     1
 90
        1
176
     1
 40
1.0
176
     1
 90
        8
176
     1
 62
     8
420
  8421504
176
     1
 40
1.0
176
     1
 90
        1
176
     1
 90
        6
176
     1
 90
        2
176
     1
 62
     7
176
     1
 90
        5
176
     1
 90
        0
176
     1
 90
        0
176
     1
290
     0
176
     1
 90
        1
176
     1
 40
0.0
176
     1
 90
        0
176
     1
290
     0
176
     1
290
     1
176
     1
290
     1
176
     1
290
     0
176
     1
290
     0
176
     1
290
     0
176
     1
290
     0
176
     1
290
     0
176
     1
290
     0
176
     1
 90
       50
176
     1
 40
0.0
176
     1
 40
1.0
176
     1
 90
        0
176
     1
 62
    18
420
        0
176
     1
 90
       50
176
     1
 90
        3
176
     1
 62
     5
420
      255
176
     1
290
     0
176
     1
 90
       50
176
     1
 90
       50
176
     1
 90
       50
176
     1
290
     0
176
     1
 90
       50
176
     1
 62
   256
176
     0
 40
1.0
176
     0
 90
        2
176
     1
  1
strokes_ogs.tif
176
     1
290
     0
176
     1
 40
1.0
176
     1
 40
1.0
176
     1
1001
ACAD
1000
AcDbSavedByObjectVersion
1070
     0
  0
VISUALSTYLE
  5
80C7
102
{ACAD_REACTORS
330
80BE
102
}
330
80BE
100
AcDbVisualStyle
  2
Conceptual
 70
     9
177
     3
291
     0
 70
    58
 90
        3
176
     1
 90
        2
176
     1
 90
        0
176
     1
 90
        0
176
     1
 40
0.6
176
     1
 40
30.0
176
     1
 62
     7
420
 16777215
176
     1
 90
        2
176
     1
 90
        2
176
     1
 62
     7
176
     1
 62
   257
176
     1
 90
        1
176
     1
 90
        1
176
     1
 40
179.0
176
     1
 90
        8
176
     1
 62
     7
176
     1
 40
1.0
176
     1
 90
        1
176
     1
 90
        6
176
     1
 90
        2
176
     1
 62
     7
176
     1
 90
        3
176
     1
 90
        0
176
     1
 90
        0
176
     1
290
     0
176
     1
 90
        1
176
     1
 40
0.0
176
     1
 90
        0
176
     1
290
     0
176
     1
290
     1
176
     1
290
     1
176
     1
290
     0
176
     1
290
     0
176
     1
290
     0
176
     1
290
     0
176
     1
290
     0
176
     1
290
     0
176
     1
 90
       50
176
     1
 40
0.0
176
     1
 40
1.0
176
     1
 90
        0
176
     1
 62
    18
420
        0
176
     1
 90
       50
176
     1
 90
        3
176
     1
 62
     5
420
      255
176
     1
290
     0
176
     1
 90
       50
176
     1
 90
       50
176
     1
 90
       50
176
     1
290
     0
176
     1
 90
       50
176
     1
 62
   256
176
     0
 40
1.0
176
     0
 90
        2
176
     1
  1
strokes_ogs.tif
176
     1
290
     0
176
     1
 40
1.0
176
     1
 40
1.0
176
     1
1001
ACAD
1000
AcDbSavedByObjectVersion
1070
     0
  0
VISUALSTYLE
  5
80C9
102
{ACAD_REACTORS
330
80BE
102
}
330
80BE
100
AcDbVisualStyle
  2
Dim
 70
    11
177
     3
291
     1
 70
    58
 90
        2
176
     1
 90
        2
176
     1
 90
        0
176
     1
 90
        0
176
     1
 40
0.6
176
     1
 40
30.0
176
     1
 62
     7
420
 16777215
176
     1
 90
        1
176
     1
 90
        4
176
     1
 62
     7
176
     1
 62
   257
176
     1
 90
        1
176
     1
 90
        1
176
     1
 40
1.0
176
     1
 90
        8
176
     1
 62
     7
176
     1
 40
1.0
176
     1
 90
        1
176
     1
 90
        6
176
     1
 90
        2
176
     1
 62
     7
176
     1
 90
        5
176
     1
 90
        0
176
     1
 90
        0
176
     1
290
     0
176
     1
 90
        1
176
     1
 40
-50.0
176
     1
 90
        0
176
     1
290
     0
176
     1
290
     1
176
     1
290
     1
176
     1
290
     0
176
     1
290
     0
176
     1
290
     0
176
     1
290
     0
176
     1
290
     0
176
     1
290
     0
176
     1
 90
       50
176
     1
 40
0.0
176
     1
 40
1.0
176
     1
 90
        0
176
     1
 62
    18
420
        0
176
     1
 90
       50
176
     1
 90
        3
176
     1
 62
     5
420
      255
176
     1
290
     0
176
     1
 90
       50
176
     1
 90
       50
176
     1
 90
       50
176
     1
290
     0
176
     1
 90
       50
176
     1
 62
   256
176
     0
 40
1.0
176
     0
 90
        2
176
     1
  1
strokes_ogs.tif
176
     1
290
     0
176
     1
 40
1.0
176
     1
 40
1.0
176
     1
1001
ACAD
1000
AcDbSavedByObjectVersion
1070
     0
  0
VISUALSTYLE
  5
80D6
102
{ACAD_REACTORS
330
80BE
102
}
330
80BE
100
AcDbVisualStyle
  2
EdgeColorOff
 70
    22
177
     3
291
     1
 70
    58
 90
        2
176
     0
 90
        2
176
     0
 90
        0
176
     0
 90
        0
176
     0
 40
0.6
176
     0
 40
30.0
176
     0
 62
     7
420
 16777215
176
     0
 90
        1
176
     0
 90
        4
176
     0
 62
     7
176
     0
 62
   257
176
     0
 90
        1
176
     0
 90
        1
176
     0
 40
1.0
176
     0
 90
        8
176
     2
 62
     7
176
     0
 40
1.0
176
     0
 90
        1
176
     0
 90
        6
176
     0
 90
        2
176
     0
 62
     7
176
     0
 90
        5
176
     0
 90
        0
176
     0
 90
        0
176
     0
290
     0
176
     0
 90
        1
176
     0
 40
0.0
176
     0
 90
        0
176
     0
290
     0
176
     0
290
     1
176
     0
290
     1
176
     0
290
     0
176
     0
290
     0
176
     0
290
     0
176
     0
290
     0
176
     0
290
     0
176
     0
290
     0
176
     0
 90
       50
176
     0
 40
0.0
176
     0
 40
1.0
176
     0
 90
        0
176
     0
 62
    18
420
        0
176
     0
 90
       50
176
     0
 90
        3
176
     0
 62
     5
420
      255
176
     0
290
     0
176
     0
 90
       50
176
     0
 90
       50
176
     0
 90
       50
176
     0
290
     0
176
     0
 90
       50
176
     0
 62
   256
176
     0
 40
1.0
176
     0
 90
        2
176
     0
  1
strokes_ogs.tif
176
     0
290
     0
176
     0
 40
1.0
176
     0
 40
1.0
176
     0
1001
ACAD
1000
AcDbSavedByObjectVersion
1070
     0
  0
VISUALSTYLE
  5
80CD
102
{ACAD_REACTORS
330
80BE
102
}
330
80BE
100
AcDbVisualStyle
  2
Facepattern
 70
    15
177
     3
291
     1
 70
    58
 90
        2
176
     1
 90
        2
176
     1
 90
        0
176
     1
 90
        0
176
     1
 40
0.6
176
     1
 40
30.0
176
     1
 62
     7
420
 16777215
176
     1
 90
        1
176
     1
 90
        4
176
     1
 62
     7
176
     1
 62
   257
176
     1
 90
        1
176
     1
 90
        1
176
     1
 40
1.0
176
     1
 90
        8
176
     1
 62
     7
176
     1
 40
1.0
176
     1
 90
        1
176
     1
 90
        6
176
     1
 90
        2
176
     1
 62
     7
176
     1
 90
        5
176
     1
 90
        0
176
     1
 90
        0
176
     1
290
     0
176
     1
 90
        1
176
     1
 40
0.0
176
     1
 90
        0
176
     1
290
     0
176
     1
290
     1
176
     1
290
     1
176
     1
290
     0
176
     1
290
     0
176
     1
290
     0
176
     1
290
     0
176
     1
290
     0
176
     1
290
     0
176
     1
 90
       50
176
     1
 40
0.0
176
     1
 40
1.0
176
     1
 90
        0
176
     1
 62
    18
420
        0
176
     1
 90
       50
176
     1
 90
        3
176
     1
 62
     5
420
      255
176
     1
290
     0
176
     1
 90
       50
176
     1
 90
       50
176
     1
 90
       50
176
     1
290
     0
176
     1
 90
       50
176
     1
 62
   256
176
     0
 40
1.0
176
     0
 90
        2
176
     1
  1
strokes_ogs.tif
176
     1
290
     0
176
     1
 40
1.0
176
     1
 40
1.0
176
     1
1001
ACAD
1000
AcDbSavedByObjectVersion
1070
     0
  0
VISUALSTYLE
  5
80BF
102
{ACAD_REACTORS
330
80BE
102
}
330
80BE
100
AcDbVisualStyle
  2
Flat
 70
     0
177
     3
291
     1
 70
    58
 90
        2
176
     1
 90
        1
176
     1
 90
        1
176
     1
 90
        2
176
     1
 40
0.6
176
     1
 40
30.0
176
     1
 62
     7
420
 16777215
176
     1
 90
        0
176
     1
 90
        0
176
     1
 62
     7
176
     1
 62
   257
176
     1
 90
        1
176
     1
 90
        1
176
     1
 40
1.0
176
     1
 90
        8
176
     1
 62
     7
176
     1
 40
1.0
176
     1
 90
        1
176
     1
 90
        6
176
     1
 90
        2
176
     1
 62
     7
176
     1
 90
        5
176
     1
 90
        0
176
     1
 90
        0
176
     1
290
     0
176
     1
 90
       13
176
     1
 40
0.0
176
     1
 90
        0
176
     1
290
     0
176
     1
290
     1
176
     1
290
     1
176
     1
290
     0
176
     1
290
     0
176
     1
290
     0
176
     1
290
     0
176
     1
290
     0
176
     1
290
     0
176
     1
 90
       50
176
     1
 40
0.0
176
     1
 40
1.0
176
     1
 90
        0
176
     1
 62
    18
420
        0
176
     1
 90
       50
176
     1
 90
        3
176
     1
 62
     5
420
      255
176
     1
290
     0
176
     1
 90
       50
176
     1
 90
       50
176
     1
 90
       50
176
     1
290
     0
176
     1
 90
       50
176
     1
 62
   256
176
     0
 40
1.0
176
     0
 90
        2
176
     1
  1
strokes_ogs.tif
176
     1
290
     0
176
     1
 40
1.0
176
     1
 40
1.0
176
     1
1001
ACAD
1000
AcDbSavedByObjectVersion
1070
     0
  0
VISUALSTYLE
  5
80C0
102
{ACAD_REACTORS
330
80BE
102
}
330
80BE
100
AcDbVisualStyle
  2
FlatWithEdges
 70
     1
177
     3
291
     1
 70
    58
 90
        2
176
     1
 90
        1
176
     1
 90
        1
176
     1
 90
        2
176
     1
 40
0.6
176
     1
 40
30.0
176
     1
 62
     7
420
 16777215
176
     1
 90
        1
176
     1
 90
        0
176
     1
 62
     7
176
     1
 62
   257
176
     1
 90
        1
176
     1
 90
        1
176
     1
 40
1.0
176
     1
 90
        0
176
     1
 62
   257
176
     1
 40
1.0
176
     1
 90
        1
176
     1
 90
        6
176
     1
 90
        2
176
     1
 62
     7
176
     1
 90
        5
176
     1
 90
        0
176
     1
 90
        0
176
     1
290
     0
176
     1
 90
       13
176
     1
 40
0.0
176
     1
 90
        0
176
     1
290
     0
176
     1
290
     1
176
     1
290
     1
176
     1
290
     0
176
     1
290
     0
176
     1
290
     0
176
     1
290
     0
176
     1
290
     0
176
     1
290
     0
176
     1
 90
       50
176
     1
 40
0.0
176
     1
 40
1.0
176
     1
 90
        0
176
     1
 62
    18
420
        0
176
     1
 90
       50
176
     1
 90
        3
176
     1
 62
     5
420
      255
176
     1
290
     0
176
     1
 90
       50
176
     1
 90
       50
176
     1
 90
       50
176
     1
290
     0
176
     1
 90
       50
176
     1
 62
   256
176
     0
 40
1.0
176
     0
 90
        2
176
     1
  1
strokes_ogs.tif
176
     1
290
     0
176
     1
 40
1.0
176
     1
 40
1.0
176
     1
1001
ACAD
1000
AcDbSavedByObjectVersion
1070
     0
  0
VISUALSTYLE
  5
80C1
102
{ACAD_REACTORS
330
80BE
102
}
330
80BE
100
AcDbVisualStyle
  2
Gouraud
 70
     2
177
     3
291
     1
 70
    58
 90
        2
176
     1
 90
        2
176
     1
 90
        1
176
     1
 90
        2
176
     1
 40
0.6
176
     1
 40
30.0
176
     1
 62
     7
420
 16777215
176
     1
 90
        0
176
     1
 90
        0
176
     1
 62
     7
176
     1
 62
   257
176
     1
 90
        1
176
     1
 90
        1
176
     1
 40
1.0
176
     1
 90
        0
176
     1
 62
     7
176
     1
 40
1.0
176
     1
 90
        1
176
     1
 90
        6
176
     1
 90
        2
176
     1
 62
     7
176
     1
 90
        5
176
     1
 90
        0
176
     1
 90
        0
176
     1
290
     0
176
     1
 90
       13
176
     1
 40
0.0
176
     1
 90
        0
176
     1
290
     0
176
     1
290
     1
176
     1
290
     1
176
     1
290
     0
176
     1
290
     0
176
     1
290
     0
176
     1
290
     0
176
     1
290
     0
176
     1
290
     0
176
     1
 90
       50
176
     1
 40
0.0
176
     1
 40
1.0
176
     1
 90
        0
176
     1
 62
    18
420
        0
176
     1
 90
       50
176
     1
 90
        3
176
     1
 62
     5
420
      255
176
     1
290
     0
176
     1
 90
       50
176
     1
 90
       50
176
     1
 90
       50
176
     1
290
     0
176
     1
 90
       50
176
     1
 62
   256
176
     0
 40
1.0
176
     0
 90
        2
176
     1
  1
strokes_ogs.tif
176
     1
290
     0
176
     1
 40
1.0
176
     1
 40
1.0
176
     1
1001
ACAD
1000
AcDbSavedByObjectVersion
1070
     0
  0
VISUALSTYLE
  5
80C2
102
{ACAD_REACTORS
330
80BE
102
}
330
80BE
100
AcDbVisualStyle
  2
GouraudWithEdges
 70
     3
177
     3
291
     1
 70
    58
 90
        2
176
     1
 90
        2
176
     1
 90
        1
176
     1
 90
        2
176
     1
 40
0.6
176
     1
 40
30.0
176
     1
 62
     7
420
 16777215
176
     1
 90
        1
176
     1
 90
        0
176
     1
 62
     7
176
     1
 62
   257
176
     1
 90
        1
176
     1
 90
        1
176
     1
 40
1.0
176
     1
 90
        0
176
     1
 62
   257
176
     1
 40
1.0
176
     1
 90
        1
176
     1
 90
        6
176
     1
 90
        2
176
     1
 62
     7
176
     1
 90
        5
176
     1
 90
        0
176
     1
 90
        0
176
     1
290
     0
176
     1
 90
       13
176
     1
 40
0.0
176
     1
 90
        0
176
     1
290
     0
176
     1
290
     1
176
     1
290
     1
176
     1
290
     0
176
     1
290
     0
176
     1
290
     0
176
     1
290
     0
176
     1
290
     0
176
     1
290
     0
176
     1
 90
       50
176
     1
 40
0.0
176
     1
 40
1.0
176
     1
 90
        0
176
     1
 62
    18
420
        0
176
     1
 90
       50
176
     1
 90
        3
176
     1
 62
     5
420
      255
176
     1
290
     0
176
     1
 90
       50
176
     1
 90
       50
176
     1
 90
       50
176
     1
290
     0
176
     1
 90
       50
176
     1
 62
   256
176
     0
 40
1.0
176
     0
 90
        2
176
     1
  1
strokes_ogs.tif
176
     1
290
     0
176
     1
 40
1.0
176
     1
 40
1.0
176
     1
1001
ACAD
1000
AcDbSavedByObjectVersion
1070
     0
  0
VISUALSTYLE
  5
80C6
102
{ACAD_REACTORS
330
80BE
102
}
330
80BE
100
AcDbVisualStyle
  2
Hidden
 70
     6
177
     3
291
     0
 70
    58
 90
        1
176
     1
 90
        2
176
     1
 90
        2
176
     1
 90
        0
176
     1
 40
0.6
176
     1
 40
30.0
176
     1
 62
     7
420
 16777215
176
     1
 90
        2
176
     1
 90
        2
176
     1
 62
     7
176
     1
 62
   257
176
     1
 90
        2
176
     1
 90
        1
176
     1
 40
40.0
176
     1
 90
        0
176
     1
 62
   257
176
     1
 40
1.0
176
     1
 90
        1
176
     1
 90
        6
176
     1
 90
        2
176
     1
 62
     7
176
     1
 90
        3
176
     1
 90
        0
176
     1
 90
        0
176
     1
290
     0
176
     1
 90
        1
176
     1
 40
0.0
176
     1
 90
        0
176
     1
290
     0
176
     1
290
     1
176
     1
290
     1
176
     1
290
     0
176
     1
290
     0
176
     1
290
     0
176
     1
290
     0
176
     1
290
     0
176
     1
290
     0
176
     1
 90
       50
176
     1
 40
0.0
176
     1
 40
1.0
176
     1
 90
        0
176
     1
 62
    18
420
        0
176
     1
 90
       50
176
     1
 90
        3
176
     1
 62
     5
420
      255
176
     1
290
     0
176
     1
 90
       50
176
     1
 90
       50
176
     1
 90
       50
176
     1
290
     0
176
     1
 90
       50
176
     1
 62
   256
176
     0
 40
1.0
176
     0
 90
        2
176
     1
  1
strokes_ogs.tif
176
     1
290
     0
176
     1
 40
1.0
176
     1
 40
1.0
176
     1
1001
ACAD
1000
AcDbSavedByObjectVersion
1070
     0
  0
VISUALSTYLE
  5
80D4
102
{ACAD_REACTORS
330
80BE
102
}
330
80BE
100
AcDbVisualStyle
  2
JitterOff
 70
    20
177
     3
291
     1
 70
    58
 90
        2
176
     0
 90
        2
176
     0
 90
        0
176
     0
 90
        0
176
     0
 40
0.6
176
     0
 40
30.0
176
     0
 62
     7
420
 16777215
176
     0
 90
        1
176
     0
 90
        4
176
     0
 62
     7
176
     0
 62
   257
176
     0
 90
        1
176
     0
 90
        1
176
     0
 40
1.0
176
     0
 90
       10
176
     2
 62
     7
176
     0
 40
1.0
176
     0
 90
        1
176
     0
 90
        6
176
     0
 90
        2
176
     0
 62
     7
176
     0
 90
        5
176
     0
 90
        0
176
     0
 90
        0
176
     0
290
     0
176
     0
 90
        1
176
     0
 40
0.0
176
     0
 90
        0
176
     0
290
     0
176
     0
290
     1
176
     0
290
     1
176
     0
290
     0
176
     0
290
     0
176
     0
290
     0
176
     0
290
     0
176
     0
290
     0
176
     0
290
     0
176
     0
 90
       50
176
     0
 40
0.0
176
     0
 40
1.0
176
     0
 90
        0
176
     0
 62
    18
420
        0
176
     0
 90
       50
176
     0
 90
        3
176
     0
 62
     5
420
      255
176
     0
290
     0
176
     0
 90
       50
176
     0
 90
       50
176
     0
 90
       50
176
     0
290
     0
176
     0
 90
       50
176
     0
 62
   256
176
     0
 40
1.0
176
     0
 90
        2
176
     0
  1
strokes_ogs.tif
176
     0
290
     0
176
     0
 40
1.0
176
     0
 40
1.0
176
     0
1001
ACAD
1000
AcDbSavedByObjectVersion
1070
     0
  0
VISUALSTYLE
  5
80CC
102
{ACAD_REACTORS
330
80BE
102
}
330
80BE
100
AcDbVisualStyle
  2
Linepattern
 70
    14
177
     3
291
     1
 70
    58
 90
        2
176
     1
 90
        2
176
     1
 90
        0
176
     1
 90
        0
176
     1
 40
0.6
176
     1
 40
30.0
176
     1
 62
     7
420
 16777215
176
     1
 90
        1
176
     1
 90
        4
176
     1
 62
     7
176
     1
 62
   257
176
     1
 90
        7
176
     1
 90
        7
176
     1
 40
1.0
176
     1
 90
        8
176
     1
 62
     7
176
     1
 40
1.0
176
     1
 90
        1
176
     1
 90
        6
176
     1
 90
        2
176
     1
 62
     7
176
     1
 90
        5
176
     1
 90
        0
176
     1
 90
        0
176
     1
290
     0
176
     1
 90
        1
176
     1
 40
0.0
176
     1
 90
        0
176
     1
290
     0
176
     1
290
     1
176
     1
290
     1
176
     1
290
     0
176
     1
290
     0
176
     1
290
     0
176
     1
290
     0
176
     1
290
     0
176
     1
290
     0
176
     1
 90
       50
176
     1
 40
0.0
176
     1
 40
1.0
176
     1
 90
        0
176
     1
 62
    18
420
        0
176
     1
 90
       50
176
     1
 90
        3
176
     1
 62
     5
420
      255
176
     1
290
     0
176
     1
 90
       50
176
     1
 90
       50
176
     1
 90
       50
176
     1
290
     0
176
     1
 90
       50
176
     1
 62
   256
176
     0
 40
1.0
176
     0
 90
        2
176
     1
  1
strokes_ogs.tif
176
     1
290
     0
176
     1
 40
1.0
176
     1
 40
1.0
176
     1
1001
ACAD
1000
AcDbSavedByObjectVersion
1070
     0
  0
VISUALSTYLE
  5
80D5
102
{ACAD_REACTORS
330
80BE
102
}
330
80BE
100
AcDbVisualStyle
  2
OverhangOff
 70
    21
177
     3
291
     1
 70
    58
 90
        2
176
     0
 90
        2
176
     0
 90
        0
176
     0
 90
        0
176
     0
 40
0.6
176
     0
 40
30.0
176
     0
 62
     7
420
 16777215
176
     0
 90
        1
176
     0
 90
        4
176
     0
 62
     7
176
     0
 62
   257
176
     0
 90
        1
176
     0
 90
        1
176
     0
 40
1.0
176
     0
 90
        9
176
     2
 62
     7
176
     0
 40
1.0
176
     0
 90
        1
176
     0
 90
        6
176
     0
 90
        2
176
     0
 62
     7
176
     0
 90
        5
176
     0
 90
        0
176
     0
 90
        0
176
     0
290
     0
176
     0
 90
        1
176
     0
 40
0.0
176
     0
 90
        0
176
     0
290
     0
176
     0
290
     1
176
     0
290
     1
176
     0
290
     0
176
     0
290
     0
176
     0
290
     0
176
     0
290
     0
176
     0
290
     0
176
     0
290
     0
176
     0
 90
       50
176
     0
 40
0.0
176
     0
 40
1.0
176
     0
 90
        0
176
     0
 62
    18
420
        0
176
     0
 90
       50
176
     0
 90
        3
176
     0
 62
     5
420
      255
176
     0
290
     0
176
     0
 90
       50
176
     0
 90
       50
176
     0
 90
       50
176
     0
290
     0
176
     0
 90
       50
176
     0
 62
   256
176
     0
 40
1.0
176
     0
 90
        2
176
     0
  1
strokes_ogs.tif
176
     0
290
     0
176
     0
 40
1.0
176
     0
 40
1.0
176
     0
1001
ACAD
1000
AcDbSavedByObjectVersion
1070
     0
  0
VISUALSTYLE
  5
80C8
102
{ACAD_REACTORS
330
80BE
102
}
330
80BE
100
AcDbVisualStyle
  2
Realistic
 70
     8
177
     3
291
     0
 70
    58
 90
        2
176
     1
 90
        3
176
     1
 90
        0
176
     1
 90
        2
176
     1
 40
0.6
176
     1
 40
30.0
176
     1
 62
     7
420
 16777215
176
     1
 90
        0
176
     1
 90
        0
176
     1
 62
     7
176
     1
 62
   257
176
     1
 90
        1
176
     1
 90
        1
176
     1
 40
1.0
176
     1
 90
        8
176
     1
 62
   257
176
     1
 40
1.0
176
     1
 90
        1
176
     1
 90
        6
176
     1
 90
        2
176
     1
 62
     7
176
     1
 90
        3
176
     1
 90
        0
176
     1
 90
        0
176
     1
290
     0
176
     1
 90
       13
176
     1
 40
0.0
176
     1
 90
        0
176
     1
290
     0
176
     1
290
     1
176
     1
290
     1
176
     1
290
     0
176
     1
290
     0
176
     1
290
     0
176
     1
290
     0
176
     1
290
     0
176
     1
290
     0
176
     1
 90
       50
176
     1
 40
0.0
176
     1
 40
1.0
176
     1
 90
        0
176
     1
 62
    18
420
        0
176
     1
 90
       50
176
     1
 90
        3
176
     1
 62
     5
420
      255
176
     1
290
     0
176
     1
 90
       50
176
     1
 90
       50
176
     1
 90
       50
176
     1
290
     0
176
     1
 90
       50
176
     1
 62
   256
176
     0
 40
1.0
176
     0
 90
        2
176
     1
  1
strokes_ogs.tif
176
     1
290
     0
176
     1
 40
1.0
176
     1
 40
1.0
176
     1
1001
ACAD
1000
AcDbSavedByObjectVersion
1070
     0
  0
VISUALSTYLE
  5
80D3
102
{ACAD_REACTORS
330
80BE
102
}
330
80BE
100
AcDbVisualStyle
  2
Shaded
 70
    27
177
     3
291
     0
 70
    58
 90
        2
176
     1
 90
        2
176
     1
 90
        1
176
     1
 90
        2
176
     1
 40
0.6
176
     1
 40
30.0
176
     1
 62
     7
420
 16777215
176
     1
 90
        0
176
     1
 90
        4
176
     1
 62
     7
176
     1
 62
   257
176
     1
 90
        1
176
     1
 90
        1
176
     1
 40
1.0
176
     1
 90
        8
176
     1
 62
   257
176
     1
 40
1.0
176
     1
 90
        1
176
     1
 90
        6
176
     1
 90
        2
176
     1
 62
     8
420
  7895160
176
     1
 90
        3
176
     1
 90
        0
176
     1
 90
        0
176
     1
290
     0
176
     1
 90
        5
176
     1
 40
0.0
176
     1
 90
        0
176
     1
290
     0
176
     1
290
     1
176
     1
290
     1
176
     1
290
     0
176
     1
290
     0
176
     1
290
     0
176
     1
290
     0
176
     1
290
     0
176
     1
290
     0
176
     1
 90
       50
176
     1
 40
0.0
176
     1
 40
1.0
176
     1
 90
        0
176
     1
 62
    18
420
        0
176
     1
 90
       50
176
     1
 90
        3
176
     1
 62
     5
420
      255
176
     1
290
     0
176
     1
 90
       50
176
     1
 90
       50
176
     1
 90
       50
176
     1
290
     0
176
     1
 90
       50
176
     1
 62
   256
176
     0
 40
1.0
176
     0
 90
        2
176
     1
  1
strokes_ogs.tif
176
     1
290
     0
176
     1
 40
1.0
176
     1
 40
1.0
176
     1
1001
ACAD
1000
AcDbSavedByObjectVersion
1070
     0
  0
VISUALSTYLE
  5
80D2
102
{ACAD_REACTORS
330
80BE
102
}
330
80BE
100
AcDbVisualStyle
  2
Shaded with edges
 70
    26
177
     3
291
     0
 70
    58
 90
        2
176
     1
 90
        2
176
     1
 90
        1
176
     1
 90
        2
176
     1
 40
0.6
176
     1
 40
30.0
176
     1
 62
     7
420
 16777215
176
     1
 90
        1
176
     1
 90
        2
176
     1
 62
     7
176
     1
 62
   257
176
     1
 90
        2
176
     1
 90
        1
176
     1
 40
1.0
176
     1
 90
        8
176
     1
 62
   257
176
     1
 40
1.0
176
     1
 90
        1
176
     1
 90
        6
176
     1
 90
        2
176
     1
 62
     7
176
     1
 90
        3
176
     1
 90
        0
176
     1
 90
        0
176
     1
290
     0
176
     1
 90
        5
176
     1
 40
0.0
176
     1
 90
        0
176
     1
290
     0
176
     1
290
     1
176
     1
290
     1
176
     1
290
     0
176
     1
290
     0
176
     1
290
     0
176
     1
290
     0
176
     1
290
     0
176
     1
290
     0
176
     1
 90
       50
176
     1
 40
0.0
176
     1
 40
1.0
176
     1
 90
        0
176
     1
 62
    18
420
        0
176
     1
 90
       50
176
     1
 90
        3
176
     1
 62
     5
420
      255
176
     1
290
     0
176
     1
 90
       50
176
     1
 90
       50
176
     1
 90
       50
176
     1
290
     0
176
     1
 90
       50
176
     1
 62
   256
176
     0
 40
1.0
176
     0
 90
        2
176
     1
  1
strokes_ogs.tif
176
     1
290
     0
176
     1
 40
1.0
176
     1
 40
1.0
176
     1
1001
ACAD
1000
AcDbSavedByObjectVersion
1070
     0
  0
VISUALSTYLE
  5
80CF
102
{ACAD_REACTORS
330
80BE
102
}
330
80BE
100
AcDbVisualStyle
  2
Shades of Gray
 70
    23
177
     3
291
     0
 70
    58
 90
        2
176
     1
 90
        2
176
     1
 90
        3
176
     1
 90
        0
176
     1
 40
0.6
176
     1
 40
30.0
176
     1
 62
     7
420
 16777215
176
     1
 90
        2
176
     1
 90
        2
176
     1
 62
     7
176
     1
 62
     7
176
     1
 90
        1
176
     1
 90
        1
176
     1
 40
40.0
176
     1
 90
        8
176
     1
 62
     7
176
     1
 40
1.0
176
     1
 90
        1
176
     1
 90
        6
176
     1
 90
        2
176
     1
 62
     7
176
     1
 90
        3
176
     1
 90
        0
176
     1
 90
        0
176
     1
290
     0
176
     1
 90
        1
176
     1
 40
0.0
176
     1
 90
        0
176
     1
290
     0
176
     1
290
     1
176
     1
290
     1
176
     1
290
     0
176
     1
290
     0
176
     1
290
     0
176
     1
290
     0
176
     1
290
     0
176
     1
290
     0
176
     1
 90
       50
176
     1
 40
0.0
176
     1
 40
1.0
176
     1
 90
        0
176
     1
 62
    18
420
        0
176
     1
 90
       50
176
     1
 90
        3
176
     1
 62
     5
420
      255
176
     1
290
     0
176
     1
 90
       50
176
     1
 90
       50
176
     1
 90
       50
176
     1
290
     0
176
     1
 90
       50
176
     1
 62
   256
176
     0
 40
1.0
176
     0
 90
        2
176
     1
  1
strokes_ogs.tif
176
     1
290
     0
176
     1
 40
1.0
176
     1
 40
1.0
176
     1
1001
ACAD
1000
AcDbSavedByObjectVersion
1070
     0
  0
VISUALSTYLE
  5
80D0
102
{ACAD_REACTORS
330
80BE
102
}
330
80BE
100
AcDbVisualStyle
  2
Sketchy
 70
    24
177
     3
291
     0
 70
    58
 90
        1
176
     1
 90
        2
176
     1
 90
        2
176
     1
 90
        0
176
     1
 40
0.6
176
     1
 40
30.0
176
     1
 62
     7
420
 16777215
176
     1
 90
        2
176
     1
 90
        2
176
     1
 62
     7
176
     1
 62
     7
176
     1
 90
        1
176
     1
 90
        1
176
     1
 40
40.0
176
     1
 90
       11
176
     1
 62
     7
176
     1
 40
1.0
176
     1
 90
        1
176
     1
 90
        6
176
     1
 90
        2
176
     1
 62
     7
176
     1
 90
        6
176
     1
 90
        0
176
     1
 90
        0
176
     1
290
     0
176
     1
 90
        1
176
     1
 40
0.0
176
     1
 90
        0
176
     1
290
     0
176
     1
290
     1
176
     1
290
     1
176
     1
290
     0
176
     1
290
     0
176
     1
290
     0
176
     1
290
     0
176
     1
290
     0
176
     1
290
     0
176
     1
 90
       50
176
     1
 40
0.0
176
     1
 40
1.0
176
     1
 90
        0
176
     1
 62
    18
420
        0
176
     1
 90
       50
176
     1
 90
        3
176
     1
 62
     5
420
      255
176
     1
290
     0
176
     1
 90
       50
176
     1
 90
       50
176
     1
 90
       50
176
     1
290
     0
176
     1
 90
       50
176
     1
 62
   256
176
     0
 40
1.0
176
     0
 90
        2
176
     1
  1
strokes_ogs.tif
176
     1
290
     0
176
     1
 40
1.0
176
     1
 40
1.0
176
     1
1001
ACAD
1000
AcDbSavedByObjectVersion
1070
     0
  0
VISUALSTYLE
  5
80CB
102
{ACAD_REACTORS
330
80BE
102
}
330
80BE
100
AcDbVisualStyle
  2
Thicken
 70
    13
177
     3
291
     1
 70
    58
 90
        2
176
     1
 90
        2
176
     1
 90
        0
176
     1
 90
        0
176
     1
 40
0.6
176
     1
 40
30.0
176
     1
 62
     7
420
 16777215
176
     1
 90
        1
176
     1
 90
        4
176
     1
 62
     7
176
     1
 62
   257
176
     1
 90
        1
176
     1
 90
        1
176
     1
 40
1.0
176
     1
 90
       12
176
     1
 62
     7
176
     1
 40
1.0
176
     1
 90
        1
176
     1
 90
        6
176
     1
 90
        2
176
     1
 62
     7
176
     1
 90
        5
176
     1
 90
        0
176
     1
 90
        0
176
     1
290
     0
176
     1
 90
        1
176
     1
 40
0.0
176
     1
 90
        0
176
     1
290
     0
176
     1
290
     1
176
     1
290
     1
176
     1
290
     0
176
     1
290
     0
176
     1
290
     0
176
     1
290
     0
176
     1
290
     0
176
     1
290
     0
176
     1
 90
       50
176
     1
 40
0.0
176
     1
 40
1.0
176
     1
 90
        0
176
     1
 62
    18
420
        0
176
     1
 90
       50
176
     1
 90
        3
176
     1
 62
     5
420
      255
176
     1
290
     0
176
     1
 90
       50
176
     1
 90
       50
176
     1
 90
       50
176
     1
290
     0
176
     1
 90
       50
176
     1
 62
   256
176
     0
 40
1.0
176
     0
 90
        2
176
     1
  1
strokes_ogs.tif
176
     1
290
     0
176
     1
 40
1.0
176
     1
 40
1.0
176
     1
1001
ACAD
1000
AcDbSavedByObjectVersion
1070
     0
  0
VISUALSTYLE
  5
80C5
102
{ACAD_REACTORS
330
80BE
102
}
330
80BE
100
AcDbVisualStyle
  2
Wireframe
 70
     5
177
     3
291
     0
 70
    58
 90
        0
176
     1
 90
        2
176
     1
 90
        0
176
     1
 90
        0
176
     1
 40
0.6
176
     1
 40
30.0
176
     1
 62
     7
420
 16777215
176
     1
 90
        1
176
     1
 90
        4
176
     1
 62
     7
176
     1
 62
   257
176
     1
 90
        1
176
     1
 90
        1
176
     1
 40
1.0
176
     1
 90
        0
176
     1
 62
   257
176
     1
 40
1.0
176
     1
 90
        1
176
     1
 90
        6
176
     1
 90
        2
176
     1
 62
     7
176
     1
 90
        3
176
     1
 90
        0
176
     1
 90
        0
176
     1
290
     0
176
     1
 90
        1
176
     1
 40
0.0
176
     1
 90
        0
176
     1
290
     0
176
     1
290
     1
176
     1
290
     1
176
     1
290
     0
176
     1
290
     0
176
     1
290
     0
176
     1
290
     0
176
     1
290
     0
176
     1
290
     0
176
     1
 90
       50
176
     1
 40
0.0
176
     1
 40
1.0
176
     1
 90
        0
176
     1
 62
    18
420
        0
176
     1
 90
       50
176
     1
 90
        3
176
     1
 62
     5
420
      255
176
     1
290
     0
176
     1
 90
       50
176
     1
 90
       50
176
     1
 90
       50
176
     1
290
     0
176
     1
 90
       50
176
     1
 62
   256
176
     0
 40
1.0
176
     0
 90
        2
176
     1
  1
strokes_ogs.tif
176
     1
290
     0
176
     1
 40
1.0
176
     1
 40
1.0
176
     1
1001
ACAD
1000
AcDbSavedByObjectVersion
1070
     0
  0
VISUALSTYLE
  5
80D1
102
{ACAD_REACTORS
330
80BE
102
}
330
80BE
100
AcDbVisualStyle
  2
X-Ray
 70
    25
177
     3
291
     0
 70
    58
 90
        2
176
     1
 90
        2
176
     1
 90
        1
176
     1
 90
        1
176
     1
 40
0.5
176
     1
 40
30.0
176
     1
 62
     7
420
 16777215
176
     1
 90
        1
176
     1
 90
        0
176
     1
 62
     7
176
     1
 62
   257
176
     1
 90
        1
176
     1
 90
        1
176
     1
 40
1.0
176
     1
 90
        8
176
     1
 62
     7
176
     1
 40
1.0
176
     1
 90
        1
176
     1
 90
        6
176
     1
 90
        2
176
     1
 62
     7
176
     1
 90
        3
176
     1
 90
        0
176
     1
 90
        0
176
     1
290
     0
176
     1
 90
       13
176
     1
 40
0.0
176
     1
 90
        0
176
     1
290
     0
176
     1
290
     1
176
     1
290
     1
176
     1
290
     0
176
     1
290
     0
176
     1
290
     0
176
     1
290
     0
176
     1
290
     0
176
     1
290
     0
176
     1
 90
       50
176
     1
 40
0.0
176
     1
 40
1.0
176
     1
 90
        0
176
     1
 62
    18
420
        0
176
     1
 90
       50
176
     1
 90
        3
176
     1
 62
     5
420
      255
176
     1
290
     0
176
     1
 90
       50
176
     1
 90
       50
176
     1
 90
       50
176
     1
290
     0
176
     1
 90
       50
176
     1
 62
   256
176
     0
 40
1.0
176
     0
 90
        2
176
     1
  1
strokes_ogs.tif
176
     1
290
     0
176
     1
 40
1.0
176
     1
 40
1.0
176
     1
1001
ACAD
1000
AcDbSavedByObjectVersion
1070
     0
  0
DICTIONARYVAR
  5
847B
102
{ACAD_REACTORS
330
8475
102
}
330
8475
100
DictionaryVariables
280
     0
  1
1:1
  0
DICTIONARYVAR
  5
8477
102
{ACAD_REACTORS
330
8475
102
}
330
8475
100
DictionaryVariables
280
     0
  1
STANDARD
  0
DICTIONARYVAR
  5
8476
102
{ACAD_REACTORS
330
8475
102
}
330
8475
100
DictionaryVariables
280
     0
  1
STANDARD
  0
DICTIONARYVAR
  5
8478
102
{ACAD_REACTORS
330
8475
102
}
330
8475
100
DictionaryVariables
280
     0
  1
Metric50
  0
DICTIONARYVAR
  5
8479
102
{ACAD_REACTORS
330
8475
102
}
330
8475
100
DictionaryVariables
280
     0
  1
Metric50
  0
DICTIONARYVAR
  5
847D
102
{ACAD_REACTORS
330
8475
102
}
330
8475
100
DictionaryVariables
280
     0
  1
1
  0
DICTIONARYVAR
  5
847E
102
{ACAD_REACTORS
330
8475
102
}
330
8475
100
DictionaryVariables
280
     0
  1
15
  0
DICTIONARYVAR
  5
847C
102
{ACAD_REACTORS
330
8475
102
}
330
8475
100
DictionaryVariables
280
     0
  1
0
  0
DICTIONARYVAR
  5
8483
102
{ACAD_REACTORS
330
8475
102
}
330
8475
100
DictionaryVariables
280
     0
  1
0
  0
DICTIONARYVAR
  5
847A
102
{ACAD_REACTORS
330
8475
102
}
330
8475
100
DictionaryVariables
280
     0
  1
0
  0
DICTIONARY
  5
848E
102
{ACAD_REACTORS
330
848C
102
}
330
848C
100
AcDbDictionary
281
     1
  0
DICTIONARY
  5
848D
102
{ACAD_REACTORS
330
848C
102
}
330
848C
100
AcDbDictionary
281
     1
  3
2043714081264
350
8487
  3
2043714081280
350
8488
  3
2043714081296
350
8489
  3
2043714081312
350
848A
  3
2043714081328
350
848B
  0
DICTIONARY
  5
8491
330
80F1
100
AcDbDictionary
280
     1
281
     1
  3
ACAD_XREC_ROUNDTRIP
360
8492
  0
DICTIONARY
  5
80AF
330
80AE
100
AcDbDictionary
280
     1
281
     1
  3
BUMPTILE
360
80B1
  3
DIFFUSETILE
360
80B0
  3
OPACITYTILE
360
80B4
  3
REFLECTIONTILE
360
80B3
  3
REFRACTIONTILE
360
80B5
  3
SPECULARTILE
360
80B2
  0
DICTIONARY
  5
80A7
330
80A6
100
AcDbDictionary
280
     1
281
     1
  3
BUMPTILE
360
80A9
  3
DIFFUSETILE
360
80A8
  3
OPACITYTILE
360
80AC
  3
REFLECTIONTILE
360
80AB
  3
REFRACTIONTILE
360
80AD
  3
SPECULARTILE
360
80AA
  0
DICTIONARY
  5
80B7
330
80B6
100
AcDbDictionary
280
     1
281
     1
  3
BUMPTILE
360
80B9
  3
DIFFUSETILE
360
80B8
  3
OPACITYTILE
360
80BC
  3
REFLECTIONTILE
360
80BB
  3
REFRACTIONTILE
360
80BD
  3
SPECULARTILE
360
80BA
  0
DICTIONARY
  5
848F
330
80EF
100
AcDbDictionary
280
     1
281
     1
  3
ACAD_XREC_ROUNDTRIP
360
8490
  0
DICTIONARY
  5
8484
330
80D9
100
AcDbDictionary
280
     1
281
     1
  3
ACAD_ROUNDTRIP_2008_TABLESTYLE_CELLSTYLEMAP
360
8485
  0
XRECORD
  5
8487
102
{ACAD_REACTORS
330
848D
102
}
330
848D
100
AcDbXrecord
280
     1
  1
AcDb_Thumbnail_Schema
102
{ATTRRECORD
341
8488
  2
AcDbDs::TreatedAsObjectData
280
     1
291
     1
102
ATTRRECORD}
102
{ATTRRECORD
341
8489
  2
AcDbDs::Legacy
280
     1
291
     1
102
ATTRRECORD}
  2
AcDbDs::ID
280
    10
 91
        8
102
{ATTRRECORD
341
848A
  2
AcDs:Indexable
280
     1
291
     1
102
ATTRRECORD}
102
{ATTRRECORD
341
848B
  2
AcDbDs::HandleAttribute
280
     7
282
     1
102
ATTRRECORD}
  2
Thumbnail_Data
280
    15
 91
        0
  0
XRECORD
  5
8488
102
{ACAD_REACTORS
330
848D
102
}
330
848D
100
AcDbXrecord
280
     1
  1
AcDbDs::TreatedAsObjectDataSchema
  2
AcDbDs::TreatedAsObjectData
280
     1
 91
        0
  0
XRECORD
  5
8489
102
{ACAD_REACTORS
330
848D
102
}
330
848D
100
AcDbXrecord
280
     1
  1
AcDbDs::LegacySchema
  2
AcDbDs::Legacy
280
     1
 91
        0
  0
XRECORD
  5
848A
102
{ACAD_REACTORS
330
848D
102
}
330
848D
100
AcDbXrecord
280
     1
  1
AcDbDs::IndexedPropertySchema
  2
AcDs:Indexable
280
     1
 91
        0
  0
XRECORD
  5
848B
102
{ACAD_REACTORS
330
848D
102
}
330
848D
100
AcDbXrecord
280
     1
  1
AcDbDs::HandleAttributeSchema
  2
AcDbDs::HandleAttribute
280
     7
 91
        1
284
     1
  0
XRECORD
  5
8492
102
{ACAD_REACTORS
330
8491
102
}
330
8491
100
AcDbXrecord
280
     1
102
DISPLAYNAME
  1
Metric50
102
FLAGS
 90
        0
  0
XRECORD
  5
80B1
102
{ACAD_REACTORS
330
80AF
102
}
330
80AF
100
AcDbXrecord
280
     1
270
     1
271
     1
  0
XRECORD
  5
80B0
102
{ACAD_REACTORS
330
80AF
102
}
330
80AF
100
AcDbXrecord
280
     1
270
     1
271
     1
  0
XRECORD
  5
80B4
102
{ACAD_REACTORS
330
80AF
102
}
330
80AF
100
AcDbXrecord
280
     1
270
     1
271
     1
  0
XRECORD
  5
80B3
102
{ACAD_REACTORS
330
80AF
102
}
330
80AF
100
AcDbXrecord
280
     1
270
     1
271
     1
  0
XRECORD
  5
80B5
102
{ACAD_REACTORS
330
80AF
102
}
330
80AF
100
AcDbXrecord
280
     1
270
     1
271
     1
  0
XRECORD
  5
80B2
102
{ACAD_REACTORS
330
80AF
102
}
330
80AF
100
AcDbXrecord
280
     1
270
     1
271
     1
  0
XRECORD
  5
80A9
102
{ACAD_REACTORS
330
80A7
102
}
330
80A7
100
AcDbXrecord
280
     1
270
     1
271
     1
  0
XRECORD
  5
80A8
102
{ACAD_REACTORS
330
80A7
102
}
330
80A7
100
AcDbXrecord
280
     1
270
     1
271
     1
  0
XRECORD
  5
80AC
102
{ACAD_REACTORS
330
80A7
102
}
330
80A7
100
AcDbXrecord
280
     1
270
     1
271
     1
  0
XRECORD
  5
80AB
102
{ACAD_REACTORS
330
80A7
102
}
330
80A7
100
AcDbXrecord
280
     1
270
     1
271
     1
  0
XRECORD
  5
80AD
102
{ACAD_REACTORS
330
80A7
102
}
330
80A7
100
AcDbXrecord
280
     1
270
     1
271
     1
  0
XRECORD
  5
80AA
102
{ACAD_REACTORS
330
80A7
102
}
330
80A7
100
AcDbXrecord
280
     1
270
     1
271
     1
  0
XRECORD
  5
80B9
102
{ACAD_REACTORS
330
80B7
102
}
330
80B7
100
AcDbXrecord
280
     1
270
     1
271
     1
  0
XRECORD
  5
80B8
102
{ACAD_REACTORS
330
80B7
102
}
330
80B7
100
AcDbXrecord
280
     1
270
     1
271
     1
  0
XRECORD
  5
80BC
102
{ACAD_REACTORS
330
80B7
102
}
330
80B7
100
AcDbXrecord
280
     1
270
     1
271
     1
  0
XRECORD
  5
80BB
102
{ACAD_REACTORS
330
80B7
102
}
330
80B7
100
AcDbXrecord
280
     1
270
     1
271
     1
  0
XRECORD
  5
80BD
102
{ACAD_REACTORS
330
80B7
102
}
330
80B7
100
AcDbXrecord
280
     1
270
     1
271
     1
  0
XRECORD
  5
80BA
102
{ACAD_REACTORS
330
80B7
102
}
330
80B7
100
AcDbXrecord
280
     1
270
     1
271
     1
  0
XRECORD
  5
8490
102
{ACAD_REACTORS
330
848F
102
}
330
848F
100
AcDbXrecord
280
     1
102
DISPLAYNAME
  1
Metric50
102
FLAGS
 90
        0
  0
CELLSTYLEMAP
  5
8485
102
{ACAD_REACTORS
330
8484
102
}
330
8484
100
AcDbCellStyleMap
 90
        3
300
CELLSTYLE
  1
TABLEFORMAT_BEGIN
 90
        5
170
     1
 91
        0
 92
    32768
 62
   257
 93
        1
300
CONTENTFORMAT
  1
CONTENTFORMAT_BEGIN
 90
        0
 91
        0
 92
      512
 93
        0
300

 40
0.0
140
1.0
 94
        5
 62
     0
340
10
144
6.0
309
CONTENTFORMAT_END
171
     1
301
MARGIN
  1
CELLMARGIN_BEGIN
 40
1.5
 40
1.5
 40
1.5
 40
1.5
 40
4.5
 40
4.5
309
CELLMARGIN_END
 94
        6
 95
        1
302
GRIDFORMAT
  1
GRIDFORMAT_BEGIN
 90
        0
 91
        1
 62
     0
 92
       -2
340
0
 93
        0
 40
1.125
309
GRIDFORMAT_END
 95
        2
302
GRIDFORMAT
  1
GRIDFORMAT_BEGIN
 90
        0
 91
        1
 62
     0
 92
       -2
340
0
 93
        0
 40
1.125
309
GRIDFORMAT_END
 95
        4
302
GRIDFORMAT
  1
GRIDFORMAT_BEGIN
 90
        0
 91
        1
 62
     0
 92
       -2
340
0
 93
        0
 40
1.125
309
GRIDFORMAT_END
 95
        8
302
GRIDFORMAT
  1
GRIDFORMAT_BEGIN
 90
        0
 91
        1
 62
     0
 92
       -2
340
0
 93
        0
 40
1.125
309
GRIDFORMAT_END
 95
       16
302
GRIDFORMAT
  1
GRIDFORMAT_BEGIN
 90
        0
 91
        1
 62
     0
 92
       -2
340
0
 93
        0
 40
1.125
309
GRIDFORMAT_END
 95
       32
302
GRIDFORMAT
  1
GRIDFORMAT_BEGIN
 90
        0
 91
        1
 62
     0
 92
       -2
340
0
 93
        0
 40
1.125
309
GRIDFORMAT_END
309
TABLEFORMAT_END
  1
CELLSTYLE_BEGIN
 90
        1
 91
        1
300
_TITLE
309
CELLSTYLE_END
300
CELLSTYLE
  1
TABLEFORMAT_BEGIN
 90
        5
170
     1
 91
        0
 92
        0
 62
   257
 93
        1
300
CONTENTFORMAT
  1
CONTENTFORMAT_BEGIN
 90
        0
 91
        0
 92
      512
 93
        0
300

 40
0.0
140
1.0
 94
        5
 62
     0
340
10
144
4.5
309
CONTENTFORMAT_END
171
     1
301
MARGIN
  1
CELLMARGIN_BEGIN
 40
1.5
 40
1.5
 40
1.5
 40
1.5
 40
4.5
 40
4.5
309
CELLMARGIN_END
 94
        6
 95
        1
302
GRIDFORMAT
  1
GRIDFORMAT_BEGIN
 90
        0
 91
        1
 62
     0
 92
       -2
340
0
 93
        0
 40
1.125
309
GRIDFORMAT_END
 95
        2
302
GRIDFORMAT
  1
GRIDFORMAT_BEGIN
 90
        0
 91
        1
 62
     0
 92
       -2
340
0
 93
        0
 40
1.125
309
GRIDFORMAT_END
 95
        4
302
GRIDFORMAT
  1
GRIDFORMAT_BEGIN
 90
        0
 91
        1
 62
     0
 92
       -2
340
0
 93
        0
 40
1.125
309
GRIDFORMAT_END
 95
        8
302
GRIDFORMAT
  1
GRIDFORMAT_BEGIN
 90
        0
 91
        1
 62
     0
 92
       -2
340
0
 93
        0
 40
1.125
309
GRIDFORMAT_END
 95
       16
302
GRIDFORMAT
  1
GRIDFORMAT_BEGIN
 90
        0
 91
        1
 62
     0
 92
       -2
340
0
 93
        0
 40
1.125
309
GRIDFORMAT_END
 95
       32
302
GRIDFORMAT
  1
GRIDFORMAT_BEGIN
 90
        0
 91
        1
 62
     0
 92
       -2
340
0
 93
        0
 40
1.125
309
GRIDFORMAT_END
309
TABLEFORMAT_END
  1
CELLSTYLE_BEGIN
 90
        2
 91
        1
300
_HEADER
309
CELLSTYLE_END
300
CELLSTYLE
  1
TABLEFORMAT_BEGIN
 90
        5
170
     1
 91
        0
 92
        0
 62
   257
 93
        1
300
CONTENTFORMAT
  1
CONTENTFORMAT_BEGIN
 90
        0
 91
        0
 92
      512
 93
        0
300

 40
0.0
140
1.0
 94
        2
 62
     0
340
10
144
4.5
309
CONTENTFORMAT_END
171
     1
301
MARGIN
  1
CELLMARGIN_BEGIN
 40
1.5
 40
1.5
 40
1.5
 40
1.5
 40
4.5
 40
4.5
309
CELLMARGIN_END
 94
        6
 95
        1
302
GRIDFORMAT
  1
GRIDFORMAT_BEGIN
 90
        0
 91
        1
 62
     0
 92
       -2
340
0
 93
        0
 40
1.125
309
GRIDFORMAT_END
 95
        2
302
GRIDFORMAT
  1
GRIDFORMAT_BEGIN
 90
        0
 91
        1
 62
     0
 92
       -2
340
0
 93
        0
 40
1.125
309
GRIDFORMAT_END
 95
        4
302
GRIDFORMAT
  1
GRIDFORMAT_BEGIN
 90
        0
 91
        1
 62
     0
 92
       -2
340
0
 93
        0
 40
1.125
309
GRIDFORMAT_END
 95
        8
302
GRIDFORMAT
  1
GRIDFORMAT_BEGIN
 90
        0
 91
        1
 62
     0
 92
       -2
340
0
 93
        0
 40
1.125
309
GRIDFORMAT_END
 95
       16
302
GRIDFORMAT
  1
GRIDFORMAT_BEGIN
 90
        0
 91
        1
 62
     0
 92
       -2
340
0
 93
        0
 40
1.125
309
GRIDFORMAT_END
 95
       32
302
GRIDFORMAT
  1
GRIDFORMAT_BEGIN
 90
        0
 91
        1
 62
     0
 92
       -2
340
0
 93
        0
 40
1.125
309
GRIDFORMAT_END
309
TABLEFORMAT_END
  1
CELLSTYLE_BEGIN
 90
        3
 91
        2
300
_DATA
309
CELLSTYLE_END
  0
ENDSEC
  0
SECTION
  2
ACDSDATA
 70
     2
 71
     8
  0
ACDSSCHEMA
 90
        0
  1
AcDb_Thumbnail_Schema
  2
AcDbDs::ID
280
    10
 91
        8
  2
Thumbnail_Data
280
    15
 91
        0
101
ACDSRECORD
 95
        0
 90
        1
  2
AcDbDs::TreatedAsObjectData
280
     1
291
     1
101
ACDSRECORD
 95
        0
 90
        2
  2
AcDbDs::Legacy
280
     1
291
     1
101
ACDSRECORD
  1
AcDbDs::ID
 90
        3
  2
AcDs:Indexable
280
     1
291
     1
101
ACDSRECORD
  1
AcDbDs::ID
 90
        4
  2
AcDbDs::HandleAttribute
280
     7
282
     1
  0
ACDSSCHEMA
 90
        1
  1
AcDbDs::TreatedAsObjectDataSchema
  2
AcDbDs::TreatedAsObjectData
280
     1
 91
        0
  0
ACDSSCHEMA
 90
        2
  1
AcDbDs::LegacySchema
  2
AcDbDs::Legacy
280
     1
 91
        0
  0
ACDSSCHEMA
 90
        3
  1
AcDbDs::IndexedPropertySchema
  2
AcDs:Indexable
280
     1
 91
        0
  0
ACDSSCHEMA
 90
        4
  1
AcDbDs::HandleAttributeSchema
  2
AcDbDs::HandleAttribute
280
     7
 91
        1
284
     1
  0
ACDSRECORD
 90
        0
  2
AcDbDs::ID
280
    10
320
804D
  2
Thumbnail_Data
280
    15
 94
     1776
310
89504E470D0A1A0A0000000D49484452000001000000007C0803000000B13B9E5A00000300504C5445000000000000C8C8C80000000000000000000000000000000000000000000000000000330000660000990000CC0000FF0033000033330033660033990033CC0033FF0066000066330066660066990066CC0066FF0099
310
000099330099660099990099CC0099FF00CC0000CC3300CC6600CC9900CCCC00CCFF00FF0000FF3300FF6600FF9900FFCC00FFFF3300003300333300663300993300CC3300FF3333003333333333663333993333CC3333FF3366003366333366663366993366CC3366FF3399003399333399663399993399CC3399FF33CC00
310
33CC3333CC6633CC9933CCCC33CCFF33FF0033FF3333FF6633FF9933FFCC33FFFF6600006600336600666600996600CC6600FF6633006633336633666633996633CC6633FF6666006666336666666666996666CC6666FF6699006699336699666699996699CC6699FF66CC0066CC3366CC6666CC9966CCCC66CCFF66FF0066
310
FF3366FF6666FF9966FFCC66FFFF9900009900339900669900999900CC9900FF9933009933339933669933999933CC9933FF9966009966339966669966999966CC9966FF9999009999339999669999999999CC9999FF99CC0099CC3399CC6699CC9999CCCC99CCFF99FF0099FF3399FF6699FF9999FFCC99FFFFCC0000CC00
310
33CC0066CC0099CC00CCCC00FFCC3300CC3333CC3366CC3399CC33CCCC33FFCC6600CC6633CC6666CC6699CC66CCCC66FFCC9900CC9933CC9966CC9999CC99CCCC99FFCCCC00CCCC33CCCC66CCCC99CCCCCCCCCCFFCCFF00CCFF33CCFF66CCFF99CCFFCCCCFFFFFF0000FF0033FF0066FF0099FF00CCFF00FFFF3300FF3333
310
FF3366FF3399FF33CCFF33FFFF6600FF6633FF6666FF6699FF66CCFF66FFFF9900FF9933FF9966FF9999FF99CCFF99FFFFCC00FFCC33FFCC66FFCC99FFCCCCFFCCFFFFFF00FFFF33FFFF66FFFF99FFFFCCFFFFFF0000000D0D0D1A1A1A2828283535354343435050505D5D5D6B6B6B787878868686939393A1A1A1AEAEAEBB
310
BBBBC9C9C9D6D6D6E4E4E4F1F1F1FFFFFF00000000000000000000000000000000000000000000000000000000000008F1915C000003AB4944415478DAED9D596EE3300C86791CBDF0FE97E135FC3EB1B5915A6C4F062D860B81A2DE92949F7E52B2C4D400BF6787DCAB96B78683FDF8D1AF876BF7BCF660AFD97FC4FF665B
310
00B004709D0010A7AE37A987950300D6CCCD9976A02039802BA05C56906957C08FBC9113001000024000B001804EBBD9B70C809ECC3C80410B93389C02486E01E060DF05824600B8B32B51B800C08EB21DFC260E540200EE7400F008A079CD367D01286EF72D7700BAEF2E00E41E9E7777CE005C7EA150404B7F0200F90090
310
2E93BFF2967900C9BB02D243120C003601E47BBCD607DC8C038C03B814800E478213006FF70204CE01C000C0E17CC000E06646C8030069887C841C005CDC0D6ECCFAACF09DEF5F35BE3A00D07C9DA87801F0C90123802B2D3801E03D0408D8426037B76B8393F902B0E8F2EC03880289FB08300F40ED4704809FF8EBFE25EC
310
8D00007700E84901641DC08FF4836ABB41E170DEA19B6CC1DF836C8C03B85B3700A43866A56804F0360468F099FA0EE906200440DB24F82A5DA80500AC5D7700061C48349F3210024F0056ED6F4101F3DE16C03075620C003E028001002807B0A9129FC3829697E7D7A856C06A4694F50E63D3E3A400541E026C667C9E1626
310
7806C093A76E00A7E7E95C16682BC3F406C0A5000B00B0D64D650DB803703A5DF58F25B005807CCE1E80EA52F62FD562311C01941A32AB006AD17469E402000480BD025427C1A27BC49A0421C7C2D80DA22CA93303E0E36AAE8D3E7F63DEBA7E28C9DB03FC9CC57A35B73C785209201551634F7E4D01FD36992B800D948402
310
54E6001EF6B52AA0E7805A243400588600AA54C0A9E61AFD8540D341AB989400700D0011940290A5D2D979A681BA5EC0012C4300406908A42EFCD2FE98DA98680160D70B6804F049F298BF17C372418D8AE6E7D40B7C5E614601CCDB96DD7B4AC03EFDF3A400AD7783EDCE5744368AAF0ED1BB9120A89C0F9033201541E23B
310
C35018609F043503109624170EE0BEAC4E1D0084FB3239960501568D9D564795154AA6C75AE911802105C0830260A580871787022207A81C08C9865F2D902CBB0E5AAC8B285E1C6587F99AFFE2DF2DD5CB69554A610D004D7524DDEB525946E2226BB5C2B428A4B9AD25B156296AF94B5301E01D01EF0020000480001000BC
310
0038BE359300FEC2273B006003607AE8C0C1FE0BBF2500F303273A00E84F22C867FBE61139C04C08BC3A7CD8CD01BB2478F4078B00F400F005A03D89A4A53F4F00B8F7B9F1ED03F09804E35E2000048000100002400008008601FC82415858585858585858D84BFB03C3F54DB78D60AD6E0000000049454E44AE426082
  0
ENDSEC
  0
EOF
