  0
SECTION
  2
HEADER
  9
$ACADVER
  1
AC1027
  9
$ACADMAINTVER
 70
   125
  9
$DWGCODEPAGE
  3
ANSI_932
  9
$LASTSAVEDBY
  1
yasukiyo.ogawa
  9
$REQUIREDVERSIONS
160
                 0
  9
$INSBASE
 10
0.0
 20
0.0
 30
0.0
  9
$EXTMIN
 10
0.0
 20
0.0
 30
0.0
  9
$EXTMAX
 10
5250.0
 20
7375.0
 30
0.0
  9
$LIMMIN
 10
0.0
 20
0.0
  9
$LIMMAX
 10
297.0
 20
210.0
  9
$ORTHOMODE
 70
     1
  9
$REGENMODE
 70
     1
  9
$FILLMODE
 70
     0
  9
$QTEXTMODE
 70
     0
  9
$MIRRTEXT
 70
     1
  9
$LTSCALE
 40
100.0
  9
$ATTMODE
 70
     1
  9
$TEXTSIZE
 40
180.0
  9
$TRACEWID
 40
0.05
  9
$TEXTSTYLE
  7
STANDARD
  9
$CLAYER
  8
3
  9
$CELTYPE
  6
BYLAYER
  9
$CECOLOR
 62
   256
  9
$CELTSCALE
 40
1.0
  9
$DISPSILH
 70
     0
  9
$DIMSCALE
 40
25.0
  9
$DIMASZ
 40
2.0
  9
$DIMEXO
 40
0.5
  9
$DIMDLI
 40
10.0
  9
$DIMRND
 40
0.0
  9
$DIMDLE
 40
0.0
  9
$DIMEXE
 40
1.0
  9
$DIMTP
 40
1.0
  9
$DIMTM
 40
1.0
  9
$DIMTXT
 40
3.0
  9
$DIMCEN
 40
0.0
  9
$DIMTSZ
 40
0.0
  9
$DIMTOL
 70
     0
  9
$DIMLIM
 70
     0
  9
$DIMTIH
 70
     0
  9
$DIMTOH
 70
     0
  9
$DIMSE1
 70
     0
  9
$DIMSE2
 70
     0
  9
$DIMTAD
 70
     1
  9
$DIMZIN
 70
     8
  9
$DIMBLK
  1

  9
$DIMASO
 70
     1
  9
$DIMSHO
 70
     1
  9
$DIMPOST
  1
(<>)
  9
$DIMAPOST
  1

  9
$DIMALT
 70
     0
  9
$DIMALTD
 70
     2
  9
$DIMALTF
 40
0.039
  9
$DIMLFAC
 40
1.0
  9
$DIMTOFL
 70
     1
  9
$DIMTVP
 40
0.0
  9
$DIMTIX
 70
     0
  9
$DIMSOXD
 70
     0
  9
$DIMSAH
 70
     1
  9
$DIMBLK1
  1
OPEN
  9
$DIMBLK2
  1
OPEN
  9
$DIMSTYLE
  2
IGA
  9
$DIMCLRD
 70
     0
  9
$DIMCLRE
 70
     0
  9
$DIMCLRT
 70
     0
  9
$DIMTFAC
 40
10.0
  9
$DIMGAP
 40
1.0
  9
$DIMJUST
 70
     0
  9
$DIMSD1
 70
     0
  9
$DIMSD2
 70
     0
  9
$DIMTOLJ
 70
     1
  9
$DIMTZIN
 70
     8
  9
$DIMALTZ
 70
     0
  9
$DIMALTTZ
 70
     0
  9
$DIMUPT
 70
     0
  9
$DIMDEC
 70
     0
  9
$DIMTDEC
 70
     0
  9
$DIMALTU
 70
     2
  9
$DIMALTTD
 70
     2
  9
$DIMTXSTY
  7
STANDARD
  9
$DIMAUNIT
 70
     0
  9
$DIMADEC
 70
     0
  9
$DIMALTRND
 40
0.0
  9
$DIMAZIN
 70
     0
  9
$DIMDSEP
 70
    46
  9
$DIMATFIT
 70
     3
  9
$DIMFRAC
 70
     0
  9
$DIMLDRBLK
  1
OPEN
  9
$DIMLUNIT
 70
     2
  9
$DIMLWD
 70
    -2
  9
$DIMLWE
 70
    -2
  9
$DIMTMOVE
 70
     2
  9
$DIMFXL
 40
1.0
  9
$DIMFXLON
 70
     0
  9
$DIMJOGANG
 40
0.7853981633974483
  9
$DIMTFILL
 70
     0
  9
$DIMTFILLCLR
 70
     0
  9
$DIMARCSYM
 70
     0
  9
$DIMLTYPE
  6

  9
$DIMLTEX1
  6

  9
$DIMLTEX2
  6

  9
$DIMTXTDIRECTION
 70
     0
  9
$LUNITS
 70
     2
  9
$LUPREC
 70
     3
  9
$SKETCHINC
 40
0.1
  9
$FILLETRAD
 40
50.0
  9
$AUNITS
 70
     0
  9
$AUPREC
 70
     0
  9
$MENU
  1
acad
  9
$ELEVATION
 40
0.0
  9
$PELEVATION
 40
0.0
  9
$THICKNESS
 40
0.0
  9
$LIMCHECK
 70
     0
  9
$CHAMFERA
 40
0.5
  9
$CHAMFERB
 40
0.5
  9
$CHAMFERC
 40
20.0
  9
$CHAMFERD
 40
0.0
  9
$SKPOLY
 70
     0
  9
$TDCREATE
 40
2451381.652951389
  9
$TDUCREATE
 40
2451381.277962385
  9
$TDUPDATE
 40
2460234.648182870
  9
$TDUUPDATE
 40
2460234.273192338
  9
$TDINDWG
 40
0.0155206366
  9
$TDUSRTIMER
 40
0.0155206366
  9
$USRTIMER
 70
     1
  9
$ANGBASE
 50
0.0
  9
$ANGDIR
 70
     0
  9
$PDMODE
 70
     0
  9
$PDSIZE
 40
0.0
  9
$PLINEWID
 40
0.0
  9
$SPLFRAME
 70
     0
  9
$SPLINETYPE
 70
     6
  9
$SPLINESEGS
 70
     8
  9
$HANDSEED
  5
8341
  9
$SURFTAB1
 70
     6
  9
$SURFTAB2
 70
     6
  9
$SURFTYPE
 70
     6
  9
$SURFU
 70
     6
  9
$SURFV
 70
     6
  9
$UCSBASE
  2

  9
$UCSNAME
  2

  9
$UCSORG
 10
0.0
 20
0.0
 30
0.0
  9
$UCSXDIR
 10
1.0
 20
0.0
 30
0.0
  9
$UCSYDIR
 10
0.0
 20
1.0
 30
0.0
  9
$UCSORTHOREF
  2

  9
$UCSORTHOVIEW
 70
     0
  9
$UCSORGTOP
 10
0.0
 20
0.0
 30
0.0
  9
$UCSORGBOTTOM
 10
0.0
 20
0.0
 30
0.0
  9
$UCSORGLEFT
 10
0.0
 20
0.0
 30
0.0
  9
$UCSORGRIGHT
 10
0.0
 20
0.0
 30
0.0
  9
$UCSORGFRONT
 10
0.0
 20
0.0
 30
0.0
  9
$UCSORGBACK
 10
0.0
 20
0.0
 30
0.0
  9
$PUCSBASE
  2

  9
$PUCSNAME
  2

  9
$PUCSORG
 10
0.0
 20
0.0
 30
0.0
  9
$PUCSXDIR
 10
1.0
 20
0.0
 30
0.0
  9
$PUCSYDIR
 10
0.0
 20
1.0
 30
0.0
  9
$PUCSORTHOREF
  2

  9
$PUCSORTHOVIEW
 70
     0
  9
$PUCSORGTOP
 10
0.0
 20
0.0
 30
0.0
  9
$PUCSORGBOTTOM
 10
0.0
 20
0.0
 30
0.0
  9
$PUCSORGLEFT
 10
0.0
 20
0.0
 30
0.0
  9
$PUCSORGRIGHT
 10
0.0
 20
0.0
 30
0.0
  9
$PUCSORGFRONT
 10
0.0
 20
0.0
 30
0.0
  9
$PUCSORGBACK
 10
0.0
 20
0.0
 30
0.0
  9
$USERI1
 70
     0
  9
$USERI2
 70
     0
  9
$USERI3
 70
     0
  9
$USERI4
 70
     0
  9
$USERI5
 70
     0
  9
$USERR1
 40
0.0
  9
$USERR2
 40
0.0
  9
$USERR3
 40
0.0
  9
$USERR4
 40
0.0
  9
$USERR5
 40
0.0
  9
$WORLDVIEW
 70
     1
  9
$SHADEDGE
 70
     3
  9
$SHADEDIF
 70
    70
  9
$TILEMODE
 70
     1
  9
$MAXACTVP
 70
    16
  9
$PINSBASE
 10
0.0
 20
0.0
 30
0.0
  9
$PLIMCHECK
 70
     0
  9
$PEXTMIN
 10
1.000000000000000E+20
 20
1.000000000000000E+20
 30
1.000000000000000E+20
  9
$PEXTMAX
 10
-1.000000000000000E+20
 20
-1.000000000000000E+20
 30
-1.000000000000000E+20
  9
$PLIMMIN
 10
0.0
 20
0.0
  9
$PLIMMAX
 10
12.0
 20
9.0
  9
$UNITMODE
 70
     0
  9
$VISRETAIN
 70
     0
  9
$PLINEGEN
 70
     0
  9
$PSLTSCALE
 70
     1
  9
$TREEDEPTH
 70
  3020
  9
$CMLSTYLE
  2
STANDARD
  9
$CMLJUST
 70
     0
  9
$CMLSCALE
 40
20.0
  9
$PROXYGRAPHICS
 70
     1
  9
$MEASUREMENT
 70
     1
  9
$CELWEIGHT
370
    -1
  9
$ENDCAPS
280
     0
  9
$JOINSTYLE
280
     0
  9
$LWDISPLAY
290
     0
  9
$INSUNITS
 70
     0
  9
$HYPERLINKBASE
  1

  9
$STYLESHEET
  1

  9
$XEDIT
290
     1
  9
$CEPSNTYPE
380
     0
  9
$PSTYLEMODE
290
     1
  9
$FINGERPRINTGUID
  2
{2549EFB8-EB62-4F6E-9B6D-2F76491C6799}
  9
$VERSIONGUID
  2
{605CD33B-F0A2-4BBA-A37A-E2D29AF74171}
  9
$EXTNAMES
290
     1
  9
$PSVPSCALE
 40
0.0
  9
$OLESTARTUP
290
     0
  9
$SORTENTS
280
   127
  9
$INDEXCTL
280
     0
  9
$HIDETEXT
280
     0
  9
$XCLIPFRAME
280
     2
  9
$HALOGAP
280
     0
  9
$OBSCOLOR
 70
   257
  9
$OBSLTYPE
280
     0
  9
$INTERSECTIONDISPLAY
280
     0
  9
$INTERSECTIONCOLOR
 70
   257
  9
$DIMASSOC
280
     1
  9
$PROJECTNAME
  1

  9
$CAMERADISPLAY
290
     0
  9
$LENSLENGTH
 40
50.0
  9
$CAMERAHEIGHT
 40
0.0
  9
$STEPSPERSEC
 40
2.0
  9
$STEPSIZE
 40
6.0
  9
$3DDWFPREC
 40
2.0
  9
$PSOLWIDTH
 40
0.25
  9
$PSOLHEIGHT
 40
4.0
  9
$LOFTANG1
 40
1.570796326794896
  9
$LOFTANG2
 40
1.570796326794896
  9
$LOFTMAG1
 40
0.0
  9
$LOFTMAG2
 40
0.0
  9
$LOFTPARAM
 70
     7
  9
$LOFTNORMALS
280
     1
  9
$LATITUDE
 40
37.795
  9
$LONGITUDE
 40
-122.394
  9
$NORTHDIRECTION
 40
0.0
  9
$TIMEZONE
 70
 -8000
  9
$LIGHTGLYPHDISPLAY
280
     1
  9
$TILEMODELIGHTSYNCH
280
     1
  9
$CMATERIAL
347
808C
  9
$SOLIDHIST
280
     0
  9
$SHOWHIST
280
     1
  9
$DWFFRAME
280
     2
  9
$DGNFRAME
280
     0
  9
$REALWORLDSCALE
290
     1
  9
$INTERFERECOLOR
 62
     1
  9
$INTERFEREOBJVS
345
80AE
  9
$INTERFEREVPVS
346
80AB
  9
$CSHADOW
280
     0
  9
$SHADOWPLANELOCATION
 40
0.0
  0
ENDSEC
  0
SECTION
  2
CLASSES
  0
CLASS
  1
ACDBDICTIONARYWDFLT
  2
AcDbDictionaryWithDefault
  3
ObjectDBX Classes
 90
        0
 91
        1
280
     0
281
     0
  0
CLASS
  1
MATERIAL
  2
AcDbMaterial
  3
ObjectDBX Classes
 90
     1153
 91
        3
280
     0
281
     0
  0
CLASS
  1
VISUALSTYLE
  2
AcDbVisualStyle
  3
ObjectDBX Classes
 90
     4095
 91
       24
280
     0
281
     0
  0
CLASS
  1
TABLESTYLE
  2
AcDbTableStyle
  3
ObjectDBX Classes
 90
     4095
 91
        1
280
     0
281
     0
  0
CLASS
  1
SCALE
  2
AcDbScale
  3
ObjectDBX Classes
 90
     1153
 91
       17
280
     0
281
     0
  0
CLASS
  1
MLEADERSTYLE
  2
AcDbMLeaderStyle
  3
ACDB_MLEADERSTYLE_CLASS
 90
     4095
 91
        1
280
     0
281
     0
  0
CLASS
  1
ACDBSECTIONVIEWSTYLE
  2
AcDbSectionViewStyle
  3
ObjectDBX Classes
 90
     1025
 91
        1
280
     0
281
     0
  0
CLASS
  1
ACDBDETAILVIEWSTYLE
  2
AcDbDetailViewStyle
  3
ObjectDBX Classes
 90
     1025
 91
        1
280
     0
281
     0
  0
CLASS
  1
DICTIONARYVAR
  2
AcDbDictionaryVar
  3
ObjectDBX Classes
 90
        0
 91
       10
280
     0
281
     0
  0
CLASS
  1
CELLSTYLEMAP
  2
AcDbCellStyleMap
  3
ObjectDBX Classes
 90
     1152
 91
        1
280
     0
281
     0
  0
ENDSEC
  0
SECTION
  2
TABLES
  0
TABLE
  2
VPORT
  5
8
330
0
100
AcDbSymbolTable
 70
     1
1001
ACAD
1000
DbSaveVer
1071
      278
  0
VPORT
  5
8089
330
8
100
AcDbSymbolTableRecord
100
AcDbViewportTableRecord
  2
*Active
 70
     0
 10
0.0
 20
0.0
 11
1.0
 21
1.0
 12
3367.641899159945
 22
3687.500017171259
 13
0.0
 23
0.0
 14
10.0
 24
10.0
 15
10.0
 25
10.0
 16
0.0
 26
0.0
 36
1.0
 17
0.0
 27
0.0
 37
0.0
 40
7422.678203440799
 41
2.250314465408805
 42
50.0
 43
0.0
 44
0.0
 50
0.0
 51
0.0
 71
     0
 72
   100
 73
     1
 74
     0
 75
     0
 76
     0
 77
     0
 78
     0
281
     0
 65
     1
110
0.0
120
0.0
130
0.0
111
1.0
121
0.0
131
0.0
112
0.0
122
1.0
132
0.0
 79
     0
146
0.0
348
80AA
 60
     3
 61
     5
292
     1
282
     1
141
0.0
142
0.0
 63
   250
421
  3355443
1001
ACAD_NAV_VCDISPLAY
1070
     3
  0
ENDTAB
  0
TABLE
  2
LTYPE
  5
5
330
0
100
AcDbSymbolTable
 70
     2
  0
LTYPE
  5
13
330
5
100
AcDbSymbolTableRecord
100
AcDbLinetypeTableRecord
  2
BYBLOCK
 70
     0
  3

 72
    65
 73
     0
 40
0.0
  0
LTYPE
  5
14
330
5
100
AcDbSymbolTableRecord
100
AcDbLinetypeTableRecord
  2
BYLAYER
 70
     0
  3

 72
    65
 73
     0
 40
0.0
  0
LTYPE
  5
15
330
5
100
AcDbSymbolTableRecord
100
AcDbLinetypeTableRecord
  2
CONTINUOUS
 70
     0
  3
Solid line
 72
    65
 73
     0
 40
0.0
  0
LTYPE
  5
1F
330
5
100
AcDbSymbolTableRecord
100
AcDbLinetypeTableRecord
  2
CENTER
 70
     0
  3
____ _ ____ _ ____ _ ____ _ ____ _ ____ _ ____ 
 72
    65
 73
     4
 40
2.0
 49
1.25
 74
     0
 49
-0.25
 74
     0
 49
0.25
 74
     0
 49
-0.25
 74
     0
  0
ENDTAB
  0
TABLE
  2
LAYER
  5
2
102
{ACAD_XDICTIONARY
360
813C
102
}
330
0
100
AcDbSymbolTable
 70
     6
  0
LAYER
  5
F
102
{ACAD_XDICTIONARY
360
830D
102
}
330
2
100
AcDbSymbolTableRecord
100
AcDbLayerTableRecord
  2
0
 70
     0
 62
     7
  6
CONTINUOUS
370
    -3
390
8030
347
809C
348
0
  0
LAYER
  5
31
102
{ACAD_XDICTIONARY
360
830F
102
}
330
2
100
AcDbSymbolTableRecord
100
AcDbLayerTableRecord
  2
3
 70
     0
 62
     2
  6
CONTINUOUS
370
    -3
390
8030
347
809C
348
0
  0
LAYER
  5
76D0
102
{ACAD_XDICTIONARY
360
8311
102
}
330
2
100
AcDbSymbolTableRecord
100
AcDbLayerTableRecord
  2
2
 70
     0
 62
     3
  6
CENTER
370
    -3
390
8030
347
809C
348
0
  0
LAYER
  5
76D1
102
{ACAD_XDICTIONARY
360
8313
102
}
330
2
100
AcDbSymbolTableRecord
100
AcDbLayerTableRecord
  2
1
 70
     0
 62
     4
  6
CONTINUOUS
370
    -3
390
8030
347
809C
348
0
  0
LAYER
  5
76D2
102
{ACAD_XDICTIONARY
360
8315
102
}
330
2
100
AcDbSymbolTableRecord
100
AcDbLayerTableRecord
  2
4
 70
     0
 62
     7
  6
CONTINUOUS
370
    -3
390
8030
347
809C
348
0
  0
LAYER
  5
7B3A
330
2
100
AcDbSymbolTableRecord
100
AcDbLayerTableRecord
  2
DEFPOINTS
 70
     0
 62
     7
  6
CONTINUOUS
290
     0
370
    -3
390
8030
347
809C
348
0
  0
ENDTAB
  0
TABLE
  2
STYLE
  5
3
330
0
100
AcDbSymbolTable
 70
     1
  0
STYLE
  5
10
330
3
100
AcDbSymbolTableRecord
100
AcDbTextStyleTableRecord
  2
STANDARD
 70
     0
 40
0.0
 41
1.0
 50
0.0
 71
     0
 42
180.0
  3
simplex.shx
  4
extfont.shx
  0
ENDTAB
  0
TABLE
  2
VIEW
  5
6
330
0
100
AcDbSymbolTable
 70
     0
  0
ENDTAB
  0
TABLE
  2
UCS
  5
7
330
0
100
AcDbSymbolTable
 70
     0
  0
ENDTAB
  0
TABLE
  2
APPID
  5
9
330
0
100
AcDbSymbolTable
 70
     2
  0
APPID
  5
11
330
9
100
AcDbSymbolTableRecord
100
AcDbRegAppTableRecord
  2
ACAD
 70
     0
  0
APPID
  5
813B
330
9
100
AcDbSymbolTableRecord
100
AcDbRegAppTableRecord
  2
ACAD_NAV_VCDISPLAY
 70
     0
  0
ENDTAB
  0
TABLE
  2
DIMSTYLE
  5
A
330
0
100
AcDbSymbolTable
 70
     2
100
AcDbDimStyleTable
 71
     1
340
1D
  0
DIMSTYLE
105
1D
102
{ACAD_REACTORS
330
7CE5
330
7CE6
330
800A
330
8277
330
8284
330
82C6
330
82E5
102
}
330
A
100
AcDbSymbolTableRecord
100
AcDbDimStyleTableRecord
  2
IGA
 70
     0
 40
2.0
 41
2.0
 42
0.5
 43
10.0
 44
1.0
 47
1.0
 48
1.0
 73
     0
 74
     0
 77
     1
 78
     8
140
3.0
141
0.0
143
0.03937
146
10.0
147
1.0
173
     1
271
     1
272
     0
279
     2
284
     8
340
10
341
79FC
343
79FC
344
79FC
  0
DIMSTYLE
105
7B3C
102
{ACAD_REACTORS
330
7CA0
330
7CA1
330
7CA2
330
7CAF
330
7CB0
330
7CC5
330
7CCD
330
7CCF
330
7CD6
330
7CD7
330
7CD8
330
7CD9
330
7CDA
330
7CDB
330
7CE7
102
}
330
A
100
AcDbSymbolTableRecord
100
AcDbDimStyleTableRecord
  2
MATSU
 70
     0
 41
2.0
 42
1.0
 43
10.0
 44
1.0
 73
     0
 74
     0
 77
     1
 78
     8
140
3.0
141
0.0
143
0.03937
147
0.5
172
     1
173
     1
176
   256
177
   256
178
   256
284
     8
289
     0
340
10
341
79FC
343
79FC
344
79FC
  0
ENDTAB
  0
TABLE
  2
BLOCK_RECORD
  5
1
330
0
100
AcDbSymbolTable
 70
    45
  0
BLOCK_RECORD
  5
19
102
{ACAD_XDICTIONARY
360
805E
102
}
330
1
100
AcDbSymbolTableRecord
100
AcDbBlockTableRecord
  2
*MODEL_SPACE
340
8033
 70
     0
280
     1
281
     0
  0
BLOCK_RECORD
  5
16
102
{ACAD_XDICTIONARY
360
805C
102
}
330
1
100
AcDbSymbolTableRecord
100
AcDbBlockTableRecord
  2
*PAPER_SPACE
340
8034
 70
     0
280
     1
281
     0
  0
BLOCK_RECORD
  5
79FC
330
1
100
AcDbSymbolTableRecord
100
AcDbBlockTableRecord
  2
_OPEN
340
0
102
{BLKREFS
331
7EC0
331
7EC1
331
7ECB
331
7ECC
331
7ED6
331
7ED7
331
7EE1
331
7EE2
331
7EEC
331
7EED
331
7F11
331
7F12
331
7E47
331
7E48
331
7E52
331
7E53
331
7E5D
331
7E5E
331
7E68
331
7E69
331
7E73
331
7E74
331
7E89
331
7E8A
331
7E9F
331
7EA0
331
7EAA
331
7EAB
331
7EB5
331
7EB6
331
7FC7
331
8003
331
8004
331
806C
331
82A6
331
82A7
331
82B8
331
82B9
331
82DF
331
82E0
331
8307
331
8308
102
}
 70
     0
280
     1
281
     0
  0
BLOCK_RECORD
  5
7A0A
330
1
100
AcDbSymbolTableRecord
100
AcDbBlockTableRecord
  2
YA_N
340
0
102
{BLKREFS
331
7C5D
331
7CA7
331
7C31
102
}
 70
     0
280
     1
281
     0
  0
BLOCK_RECORD
  5
7D21
330
1
100
AcDbSymbolTableRecord
100
AcDbBlockTableRecord
  2
*D2
340
0
 70
     0
280
     1
281
     0
  0
BLOCK_RECORD
  5
7D2D
330
1
100
AcDbSymbolTableRecord
100
AcDbBlockTableRecord
  2
*D3
340
0
 70
     0
280
     1
281
     0
  0
BLOCK_RECORD
  5
7D39
330
1
100
AcDbSymbolTableRecord
100
AcDbBlockTableRecord
  2
*D4
340
0
 70
     0
280
     1
281
     0
  0
BLOCK_RECORD
  5
7D45
330
1
100
AcDbSymbolTableRecord
100
AcDbBlockTableRecord
  2
*D5
340
0
 70
     0
280
     1
281
     0
  0
BLOCK_RECORD
  5
7D51
330
1
100
AcDbSymbolTableRecord
100
AcDbBlockTableRecord
  2
*D6
340
0
 70
     0
280
     1
281
     0
  0
BLOCK_RECORD
  5
7D69
330
1
100
AcDbSymbolTableRecord
100
AcDbBlockTableRecord
  2
*D7
340
0
 70
     0
280
     1
281
     0
  0
BLOCK_RECORD
  5
7D81
330
1
100
AcDbSymbolTableRecord
100
AcDbBlockTableRecord
  2
*D8
340
0
 70
     0
280
     1
281
     0
  0
BLOCK_RECORD
  5
7D8D
330
1
100
AcDbSymbolTableRecord
100
AcDbBlockTableRecord
  2
*D9
340
0
 70
     0
280
     1
281
     0
  0
BLOCK_RECORD
  5
7D99
330
1
100
AcDbSymbolTableRecord
100
AcDbBlockTableRecord
  2
*D10
340
0
 70
     0
280
     1
281
     0
  0
BLOCK_RECORD
  5
7DA5
330
1
100
AcDbSymbolTableRecord
100
AcDbBlockTableRecord
  2
*D11
340
0
 70
     0
280
     1
281
     0
  0
BLOCK_RECORD
  5
7DB1
330
1
100
AcDbSymbolTableRecord
100
AcDbBlockTableRecord
  2
*D12
340
0
 70
     0
280
     1
281
     0
  0
BLOCK_RECORD
  5
7DBD
330
1
100
AcDbSymbolTableRecord
100
AcDbBlockTableRecord
  2
*D13
340
0
 70
     0
280
     1
281
     0
  0
BLOCK_RECORD
  5
7DC9
330
1
100
AcDbSymbolTableRecord
100
AcDbBlockTableRecord
  2
*D14
340
0
 70
     0
280
     1
281
     0
  0
BLOCK_RECORD
  5
7DD5
330
1
100
AcDbSymbolTableRecord
100
AcDbBlockTableRecord
  2
*D15
340
0
 70
     0
280
     1
281
     0
  0
BLOCK_RECORD
  5
7DE1
330
1
100
AcDbSymbolTableRecord
100
AcDbBlockTableRecord
  2
*D16
340
0
 70
     0
280
     1
281
     0
  0
BLOCK_RECORD
  5
7DEF
330
1
100
AcDbSymbolTableRecord
100
AcDbBlockTableRecord
  2
*D17
340
0
 70
     0
280
     1
281
     0
  0
BLOCK_RECORD
  5
7DFD
330
1
100
AcDbSymbolTableRecord
100
AcDbBlockTableRecord
  2
*D18
340
0
 70
     0
280
     1
281
     0
  0
BLOCK_RECORD
  5
7FB6
330
1
100
AcDbSymbolTableRecord
100
AcDbBlockTableRecord
  2
_DOT
340
0
102
{BLKREFS
331
7FC8
331
806B
102
}
 70
     0
280
     1
281
     0
  0
BLOCK_RECORD
  5
7FFE
330
1
100
AcDbSymbolTableRecord
100
AcDbBlockTableRecord
  2
*D24
340
0
 70
     0
280
     1
281
     0
  0
BLOCK_RECORD
  5
8278
330
1
100
AcDbSymbolTableRecord
100
AcDbBlockTableRecord
  2
*D41
340
0
 70
     0
280
     1
281
     0
  0
BLOCK_RECORD
  5
8285
330
1
100
AcDbSymbolTableRecord
100
AcDbBlockTableRecord
  2
*D42
340
0
 70
     0
280
     1
281
     0
  0
BLOCK_RECORD
  5
82C7
330
1
100
AcDbSymbolTableRecord
100
AcDbBlockTableRecord
  2
*D43
340
0
 70
     0
280
     1
281
     0
  0
BLOCK_RECORD
  5
82E6
330
1
100
AcDbSymbolTableRecord
100
AcDbBlockTableRecord
  2
*D44
340
0
 70
     0
280
     1
281
     0
  0
ENDTAB
  0
ENDSEC
  0
SECTION
  2
BLOCKS
  0
BLOCK
  5
1A
330
19
100
AcDbEntity
  8
0
100
AcDbBlockBegin
  2
*MODEL_SPACE
 70
     0
 10
0.0
 20
0.0
 30
0.0
  3
*MODEL_SPACE
  1

  0
ENDBLK
  5
1B
330
19
100
AcDbEntity
  8
0
100
AcDbBlockEnd
  0
BLOCK
  5
17
330
16
100
AcDbEntity
 67
     1
  8
0
100
AcDbBlockBegin
  2
*PAPER_SPACE
 70
     0
 10
0.0
 20
0.0
 30
0.0
  3
*PAPER_SPACE
  1

  0
ENDBLK
  5
18
330
16
100
AcDbEntity
 67
     1
  8
0
100
AcDbBlockEnd
  0
BLOCK
  5
7A00
330
79FC
100
AcDbEntity
  8
0
100
AcDbBlockBegin
  2
_OPEN
 70
     0
 10
0.0
 20
0.0
 30
0.0
  3
_OPEN
  1

  0
LINE
  5
79FD
330
79FC
100
AcDbEntity
  8
0
  6
ByBlock
 62
     0
100
AcDbLine
 10
-1.0
 20
0.1666666666666666
 30
0.0
 11
0.0
 21
0.0
 31
0.0
  0
LINE
  5
79FE
330
79FC
100
AcDbEntity
  8
0
  6
ByBlock
 62
     0
100
AcDbLine
 10
0.0
 20
0.0
 30
0.0
 11
-1.0
 21
-0.1666666666666666
 31
0.0
  0
LINE
  5
79FF
330
79FC
100
AcDbEntity
  8
0
  6
ByBlock
 62
     0
100
AcDbLine
 10
0.0
 20
0.0
 30
0.0
 11
-1.0
 21
0.0
 31
0.0
  0
ENDBLK
  5
7A01
330
79FC
100
AcDbEntity
  8
0
100
AcDbBlockEnd
  0
BLOCK
  5
7A0B
330
7A0A
100
AcDbEntity
  8
0
100
AcDbBlockBegin
  2
YA_N
 70
     0
 10
0.0
 20
0.0
 30
0.0
  3
YA_N
  1

  0
ENDBLK
  5
7A0C
330
7A0A
100
AcDbEntity
  8
0
100
AcDbBlockEnd
  0
BLOCK
  5
7E43
330
7D21
100
AcDbEntity
  8
0
100
AcDbBlockBegin
  2
*D2
 70
     1
 10
0.0
 20
0.0
 30
0.0
  3
*D2
  1

  0
LINE
  5
7E44
330
7D21
100
AcDbEntity
  8
0
  6
ByBlock
440
 16777216
100
AcDbLine
 10
191.7320836794588
 20
-301.406521778601
 30
0.0
 11
191.7320836794588
 21
-450.1620404276182
 31
0.0
  0
LINE
  5
7E45
330
7D21
100
AcDbEntity
  8
0
  6
ByBlock
440
 16777216
100
AcDbLine
 10
641.7320836794588
 20
-301.406521778601
 30
0.0
 11
641.7320836794588
 21
-450.1620404276182
 31
0.0
  0
LINE
  5
7E46
330
7D21
100
AcDbEntity
  8
0
  6
ByBlock
440
 16777216
100
AcDbLine
 10
241.7320836794588
 20
-425.1620404276182
 30
0.0
 11
591.7320836794588
 21
-425.1620404276182
 31
0.0
  0
INSERT
  5
7E47
330
7D21
100
AcDbEntity
  8
0
  6
ByBlock
440
 16777216
100
AcDbBlockReference
  2
_OPEN
 10
191.7320836794588
 20
-425.1620404276182
 30
0.0
 41
50.0
 42
50.0
 43
50.0
 50
180.0
  0
INSERT
  5
7E48
330
7D21
100
AcDbEntity
  8
0
  6
ByBlock
440
 16777216
100
AcDbBlockReference
  2
_OPEN
 10
641.7320836794588
 20
-425.1620404276182
 30
0.0
 41
50.0
 42
50.0
 43
50.0
  0
MTEXT
  5
7E49
330
7D21
100
AcDbEntity
  8
0
  6
ByBlock
440
 16777216
100
AcDbMText
 10
416.7320836794588
 20
-375.1620404276182
 30
0.0
 40
75.0
 41
0.0
 46
0.0
 71
     5
 72
     5
  1
\A1;450
 73
     1
 44
1.0
  0
POINT
  5
7E4A
330
7D21
100
AcDbEntity
  8
DEFPOINTS
  6
ByBlock
 62
     0
440
 16777216
100
AcDbPoint
 10
191.7320836794588
 20
-276.406521778601
 30
0.0
  0
POINT
  5
7E4B
330
7D21
100
AcDbEntity
  8
DEFPOINTS
  6
ByBlock
 62
     0
440
 16777216
100
AcDbPoint
 10
641.7320836794588
 20
-276.406521778601
 30
0.0
  0
POINT
  5
7E4C
330
7D21
100
AcDbEntity
  8
DEFPOINTS
  6
ByBlock
 62
     0
440
 16777216
100
AcDbPoint
 10
641.7320836794588
 20
-425.1620404276182
 30
0.0
  0
ENDBLK
  5
7E4D
330
7D21
100
AcDbEntity
  8
0
100
AcDbBlockEnd
  0
BLOCK
  5
7E4E
330
7D2D
100
AcDbEntity
  8
0
100
AcDbBlockBegin
  2
*D3
 70
     1
 10
0.0
 20
0.0
 30
0.0
  3
*D3
  1

  0
LINE
  5
7E4F
330
7D2D
100
AcDbEntity
  8
0
  6
ByBlock
440
 16777216
100
AcDbLine
 10
1400.732083679459
 20
1033.593478221399
 30
0.0
 11
1400.732083679459
 21
1182.600862000625
 31
0.0
  0
LINE
  5
7E50
330
7D2D
100
AcDbEntity
  8
0
  6
ByBlock
440
 16777216
100
AcDbLine
 10
670.7320836794588
 20
1033.5934782214
 30
0.0
 11
670.7320836794588
 21
1182.600862000625
 31
0.0
  0
LINE
  5
7E51
330
7D2D
100
AcDbEntity
  8
0
  6
ByBlock
440
 16777216
100
AcDbLine
 10
1350.732083679459
 20
1157.600862000625
 30
0.0
 11
720.7320836794588
 21
1157.600862000625
 31
0.0
  0
INSERT
  5
7E52
330
7D2D
100
AcDbEntity
  8
0
  6
ByBlock
440
 16777216
100
AcDbBlockReference
  2
_OPEN
 10
1400.732083679459
 20
1157.600862000625
 30
0.0
 41
50.0
 42
50.0
 43
50.0
  0
INSERT
  5
7E53
330
7D2D
100
AcDbEntity
  8
0
  6
ByBlock
440
 16777216
100
AcDbBlockReference
  2
_OPEN
 10
670.7320836794588
 20
1157.600862000625
 30
0.0
 41
50.0
 42
50.0
 43
50.0
 50
180.0
  0
MTEXT
  5
7E54
330
7D2D
100
AcDbEntity
  8
0
  6
ByBlock
440
 16777216
100
AcDbMText
 10
1035.732083679459
 20
1207.600862000625
 30
0.0
 40
75.0
 41
0.0
 46
0.0
 71
     5
 72
     5
  1
\A1;730
 73
     1
 44
1.0
  0
POINT
  5
7E55
330
7D2D
100
AcDbEntity
  8
DEFPOINTS
  6
ByBlock
 62
     0
440
 16777216
100
AcDbPoint
 10
1400.732083679459
 20
1008.593478221399
 30
0.0
  0
POINT
  5
7E56
330
7D2D
100
AcDbEntity
  8
DEFPOINTS
  6
ByBlock
 62
     0
440
 16777216
100
AcDbPoint
 10
670.7320836794588
 20
1008.5934782214
 30
0.0
  0
POINT
  5
7E57
330
7D2D
100
AcDbEntity
  8
DEFPOINTS
  6
ByBlock
 62
     0
440
 16777216
100
AcDbPoint
 10
670.7320836794588
 20
1157.600862000625
 30
0.0
  0
ENDBLK
  5
7E58
330
7D2D
100
AcDbEntity
  8
0
100
AcDbBlockEnd
  0
BLOCK
  5
7E59
330
7D39
100
AcDbEntity
  8
0
100
AcDbBlockBegin
  2
*D4
 70
     1
 10
0.0
 20
0.0
 30
0.0
  3
*D4
  1

  0
LINE
  5
7E5A
330
7D39
100
AcDbEntity
  8
0
  6
ByBlock
440
 16777216
100
AcDbLine
 10
1400.732083679459
 20
1033.593478221399
 30
0.0
 11
1400.732083679459
 21
1335.40963547429
 31
0.0
  0
LINE
  5
7E5B
330
7D39
100
AcDbEntity
  8
0
  6
ByBlock
440
 16777216
100
AcDbLine
 10
641.7320836794585
 20
1155.859317026828
 30
0.0
 11
641.7320836794585
 21
1335.40963547429
 31
0.0
  0
LINE
  5
7E5C
330
7D39
100
AcDbEntity
  8
0
  6
ByBlock
440
 16777216
100
AcDbLine
 10
1350.732083679459
 20
1310.40963547429
 30
0.0
 11
691.7320836794585
 21
1310.40963547429
 31
0.0
  0
INSERT
  5
7E5D
330
7D39
100
AcDbEntity
  8
0
  6
ByBlock
440
 16777216
100
AcDbBlockReference
  2
_OPEN
 10
1400.732083679459
 20
1310.40963547429
 30
0.0
 41
50.0
 42
50.0
 43
50.0
  0
INSERT
  5
7E5E
330
7D39
100
AcDbEntity
  8
0
  6
ByBlock
440
 16777216
100
AcDbBlockReference
  2
_OPEN
 10
641.7320836794585
 20
1310.40963547429
 30
0.0
 41
50.0
 42
50.0
 43
50.0
 50
180.0
  0
MTEXT
  5
7E5F
330
7D39
100
AcDbEntity
  8
0
  6
ByBlock
440
 16777216
100
AcDbMText
 10
1021.232083679459
 20
1360.40963547429
 30
0.0
 40
75.0
 41
0.0
 46
0.0
 71
     5
 72
     5
  1
\A1;759
 73
     1
 44
1.0
  0
POINT
  5
7E60
330
7D39
100
AcDbEntity
  8
DEFPOINTS
  6
ByBlock
 62
     0
440
 16777216
100
AcDbPoint
 10
1400.732083679459
 20
1008.593478221399
 30
0.0
  0
POINT
  5
7E61
330
7D39
100
AcDbEntity
  8
DEFPOINTS
  6
ByBlock
 62
     0
440
 16777216
100
AcDbPoint
 10
641.7320836794585
 20
1130.859317026828
 30
0.0
  0
POINT
  5
7E62
330
7D39
100
AcDbEntity
  8
DEFPOINTS
  6
ByBlock
 62
     0
440
 16777216
100
AcDbPoint
 10
641.7320836794585
 20
1310.40963547429
 30
0.0
  0
ENDBLK
  5
7E63
330
7D39
100
AcDbEntity
  8
0
100
AcDbBlockEnd
  0
BLOCK
  5
7E64
330
7D45
100
AcDbEntity
  8
0
100
AcDbBlockBegin
  2
*D5
 70
     1
 10
0.0
 20
0.0
 30
0.0
  3
*D5
  1

  0
LINE
  5
7E65
330
7D45
100
AcDbEntity
  8
0
  6
ByBlock
440
 16777216
100
AcDbLine
 10
3192.27207393047
 20
-301.406521778601
 30
0.0
 11
3192.27207393047
 21
-451.6924953887719
 31
0.0
  0
LINE
  5
7E66
330
7D45
100
AcDbEntity
  8
0
  6
ByBlock
440
 16777216
100
AcDbLine
 10
3844.272073930469
 20
-301.406521778601
 30
0.0
 11
3844.272073930469
 21
-451.6924953887719
 31
0.0
  0
LINE
  5
7E67
330
7D45
100
AcDbEntity
  8
0
  6
ByBlock
440
 16777216
100
AcDbLine
 10
3242.27207393047
 20
-426.6924953887719
 30
0.0
 11
3794.272073930469
 21
-426.6924953887719
 31
0.0
  0
INSERT
  5
7E68
330
7D45
100
AcDbEntity
  8
0
  6
ByBlock
440
 16777216
100
AcDbBlockReference
  2
_OPEN
 10
3192.27207393047
 20
-426.6924953887719
 30
0.0
 41
50.0
 42
50.0
 43
50.0
 50
180.0
  0
INSERT
  5
7E69
330
7D45
100
AcDbEntity
  8
0
  6
ByBlock
440
 16777216
100
AcDbBlockReference
  2
_OPEN
 10
3844.272073930469
 20
-426.6924953887719
 30
0.0
 41
50.0
 42
50.0
 43
50.0
  0
MTEXT
  5
7E6A
330
7D45
100
AcDbEntity
  8
0
  6
ByBlock
440
 16777216
100
AcDbMText
 10
3518.27207393047
 20
-376.6924953887719
 30
0.0
 40
75.0
 41
0.0
 46
0.0
 71
     5
 72
     5
  1
\A1;652
 73
     1
 44
1.0
  0
POINT
  5
7E6B
330
7D45
100
AcDbEntity
  8
DEFPOINTS
  6
ByBlock
 62
     0
440
 16777216
100
AcDbPoint
 10
3192.27207393047
 20
-276.406521778601
 30
0.0
  0
POINT
  5
7E6C
330
7D45
100
AcDbEntity
  8
DEFPOINTS
  6
ByBlock
 62
     0
440
 16777216
100
AcDbPoint
 10
3844.272073930469
 20
-276.406521778601
 30
0.0
  0
POINT
  5
7E6D
330
7D45
100
AcDbEntity
  8
DEFPOINTS
  6
ByBlock
 62
     0
440
 16777216
100
AcDbPoint
 10
3844.272073930469
 20
-426.6924953887719
 30
0.0
  0
ENDBLK
  5
7E6E
330
7D45
100
AcDbEntity
  8
0
100
AcDbBlockEnd
  0
BLOCK
  5
7E6F
330
7D51
100
AcDbEntity
  8
0
100
AcDbBlockBegin
  2
*D6
 70
     1
 10
0.0
 20
0.0
 30
0.0
  3
*D6
  1

  0
LINE
  5
7E70
330
7D51
100
AcDbEntity
  8
0
  6
ByBlock
440
 16777216
100
AcDbLine
 10
3844.272073930469
 20
-301.406521778601
 30
0.0
 11
3844.272073930469
 21
-451.6924953887719
 31
0.0
  0
LINE
  5
7E71
330
7D51
100
AcDbEntity
  8
0
  6
ByBlock
440
 16777216
100
AcDbLine
 10
4372.27207393047
 20
-301.406521778601
 30
0.0
 11
4372.27207393047
 21
-451.6924953887719
 31
0.0
  0
LINE
  5
7E72
330
7D51
100
AcDbEntity
  8
0
  6
ByBlock
440
 16777216
100
AcDbLine
 10
3894.272073930469
 20
-426.6924953887719
 30
0.0
 11
4322.272073930469
 21
-426.6924953887719
 31
0.0
  0
INSERT
  5
7E73
330
7D51
100
AcDbEntity
  8
0
  6
ByBlock
440
 16777216
100
AcDbBlockReference
  2
_OPEN
 10
3844.272073930469
 20
-426.6924953887719
 30
0.0
 41
50.0
 42
50.0
 43
50.0
 50
180.0
  0
INSERT
  5
7E74
330
7D51
100
AcDbEntity
  8
0
  6
ByBlock
440
 16777216
100
AcDbBlockReference
  2
_OPEN
 10
4372.27207393047
 20
-426.6924953887719
 30
0.0
 41
50.0
 42
50.0
 43
50.0
  0
MTEXT
  5
7E75
330
7D51
100
AcDbEntity
  8
0
  6
ByBlock
440
 16777216
100
AcDbMText
 10
4108.27207393047
 20
-376.6924953887719
 30
0.0
 40
75.0
 41
0.0
 46
0.0
 71
     5
 72
     5
  1
\A1;528
 73
     1
 44
1.0
  0
POINT
  5
7E76
330
7D51
100
AcDbEntity
  8
DEFPOINTS
  6
ByBlock
 62
     0
440
 16777216
100
AcDbPoint
 10
3844.272073930469
 20
-276.406521778601
 30
0.0
  0
POINT
  5
7E77
330
7D51
100
AcDbEntity
  8
DEFPOINTS
  6
ByBlock
 62
     0
440
 16777216
100
AcDbPoint
 10
4372.27207393047
 20
-276.406521778601
 30
0.0
  0
POINT
  5
7E78
330
7D51
100
AcDbEntity
  8
DEFPOINTS
  6
ByBlock
 62
     0
440
 16777216
100
AcDbPoint
 10
4372.27207393047
 20
-426.6924953887719
 30
0.0
  0
ENDBLK
  5
7E79
330
7D51
100
AcDbEntity
  8
0
100
AcDbBlockEnd
  0
BLOCK
  5
7E85
330
7D69
100
AcDbEntity
  8
0
100
AcDbBlockBegin
  2
*D7
 70
     1
 10
0.0
 20
0.0
 30
0.0
  3
*D7
  1

  0
LINE
  5
7E86
330
7D69
100
AcDbEntity
  8
0
  6
ByBlock
440
 16777216
100
AcDbLine
 10
1891.732083679459
 20
-301.406521778601
 30
0.0
 11
1891.732083679459
 21
-449.1618637771535
 31
0.0
  0
LINE
  5
7E87
330
7D69
100
AcDbEntity
  8
0
  6
ByBlock
440
 16777216
100
AcDbLine
 10
641.7320836794588
 20
-301.406521778601
 30
0.0
 11
641.7320836794588
 21
-449.1618637771535
 31
0.0
  0
LINE
  5
7E88
330
7D69
100
AcDbEntity
  8
0
  6
ByBlock
440
 16777216
100
AcDbLine
 10
1841.732083679459
 20
-424.1618637771535
 30
0.0
 11
691.7320836794588
 21
-424.1618637771535
 31
0.0
  0
INSERT
  5
7E89
330
7D69
100
AcDbEntity
  8
0
  6
ByBlock
440
 16777216
100
AcDbBlockReference
  2
_OPEN
 10
1891.732083679459
 20
-424.1618637771535
 30
0.0
 41
50.0
 42
50.0
 43
50.0
  0
INSERT
  5
7E8A
330
7D69
100
AcDbEntity
  8
0
  6
ByBlock
440
 16777216
100
AcDbBlockReference
  2
_OPEN
 10
641.7320836794588
 20
-424.1618637771535
 30
0.0
 41
50.0
 42
50.0
 43
50.0
 50
180.0
  0
MTEXT
  5
7E8B
330
7D69
100
AcDbEntity
  8
0
  6
ByBlock
440
 16777216
100
AcDbMText
 10
1266.732083679459
 20
-374.1618637771535
 30
0.0
 40
75.0
 41
0.0
 46
0.0
 71
     5
 72
     5
  1
\A1;1250
 73
     1
 44
1.0
  0
POINT
  5
7E8C
330
7D69
100
AcDbEntity
  8
DEFPOINTS
  6
ByBlock
 62
     0
440
 16777216
100
AcDbPoint
 10
1891.732083679459
 20
-276.406521778601
 30
0.0
  0
POINT
  5
7E8D
330
7D69
100
AcDbEntity
  8
DEFPOINTS
  6
ByBlock
 62
     0
440
 16777216
100
AcDbPoint
 10
641.7320836794588
 20
-276.406521778601
 30
0.0
  0
POINT
  5
7E8E
330
7D69
100
AcDbEntity
  8
DEFPOINTS
  6
ByBlock
 62
     0
440
 16777216
100
AcDbPoint
 10
641.7320836794588
 20
-424.1618637771535
 30
0.0
  0
ENDBLK
  5
7E8F
330
7D69
100
AcDbEntity
  8
0
100
AcDbBlockEnd
  0
BLOCK
  5
7E9B
330
7D81
100
AcDbEntity
  8
0
100
AcDbBlockBegin
  2
*D8
 70
     1
 10
0.0
 20
0.0
 30
0.0
  3
*D8
  1

  0
LINE
  5
7E9C
330
7D81
100
AcDbEntity
  8
0
  6
ByBlock
440
 16777216
100
AcDbLine
 10
3369.27207393047
 20
1019.575546406742
 30
0.0
 11
3369.27207393047
 21
1153.911921693763
 31
0.0
  0
LINE
  5
7E9D
330
7D81
100
AcDbEntity
  8
0
  6
ByBlock
440
 16777216
100
AcDbLine
 10
4319.272073930469
 20
1019.575546406742
 30
0.0
 11
4319.272073930469
 21
1153.911921693763
 31
0.0
  0
LINE
  5
7E9E
330
7D81
100
AcDbEntity
  8
0
  6
ByBlock
440
 16777216
100
AcDbLine
 10
3419.27207393047
 20
1128.911921693763
 30
0.0
 11
4269.272073930469
 21
1128.911921693763
 31
0.0
  0
INSERT
  5
7E9F
330
7D81
100
AcDbEntity
  8
0
  6
ByBlock
440
 16777216
100
AcDbBlockReference
  2
_OPEN
 10
3369.27207393047
 20
1128.911921693763
 30
0.0
 41
50.0
 42
50.0
 43
50.0
 50
180.0
  0
INSERT
  5
7EA0
330
7D81
100
AcDbEntity
  8
0
  6
ByBlock
440
 16777216
100
AcDbBlockReference
  2
_OPEN
 10
4319.272073930469
 20
1128.911921693763
 30
0.0
 41
50.0
 42
50.0
 43
50.0
  0
MTEXT
  5
7EA1
330
7D81
100
AcDbEntity
  8
0
  6
ByBlock
440
 16777216
100
AcDbMText
 10
3844.27207393047
 20
1178.911921693763
 30
0.0
 40
75.0
 41
0.0
 46
0.0
 71
     5
 72
     5
  1
\A1;950
 73
     1
 44
1.0
  0
POINT
  5
7EA2
330
7D81
100
AcDbEntity
  8
DEFPOINTS
  6
ByBlock
 62
     0
440
 16777216
100
AcDbPoint
 10
3369.27207393047
 20
994.5755464067424
 30
0.0
  0
POINT
  5
7EA3
330
7D81
100
AcDbEntity
  8
DEFPOINTS
  6
ByBlock
 62
     0
440
 16777216
100
AcDbPoint
 10
4319.272073930469
 20
994.5755464067424
 30
0.0
  0
POINT
  5
7EA4
330
7D81
100
AcDbEntity
  8
DEFPOINTS
  6
ByBlock
 62
     0
440
 16777216
100
AcDbPoint
 10
4319.272073930469
 20
1128.911921693763
 30
0.0
  0
ENDBLK
  5
7EA5
330
7D81
100
AcDbEntity
  8
0
100
AcDbBlockEnd
  0
BLOCK
  5
7EA6
330
7D8D
100
AcDbEntity
  8
0
100
AcDbBlockBegin
  2
*D9
 70
     1
 10
0.0
 20
0.0
 30
0.0
  3
*D9
  1

  0
LINE
  5
7EA7
330
7D8D
100
AcDbEntity
  8
0
  6
ByBlock
440
 16777216
100
AcDbLine
 10
4349.772073930469
 20
153.593478221399
 30
0.0
 11
4596.274084275781
 21
153.593478221399
 31
0.0
  0
LINE
  5
7EA8
330
7D8D
100
AcDbEntity
  8
0
  6
ByBlock
440
 16777216
100
AcDbLine
 10
4349.772073930469
 20
863.593478221399
 30
0.0
 11
4596.274084275781
 21
863.593478221399
 31
0.0
  0
LINE
  5
7EA9
330
7D8D
100
AcDbEntity
  8
0
  6
ByBlock
440
 16777216
100
AcDbLine
 10
4571.27408427578
 20
203.593478221399
 30
0.0
 11
4571.27408427578
 21
813.593478221399
 31
0.0
  0
INSERT
  5
7EAA
330
7D8D
100
AcDbEntity
  8
0
  6
ByBlock
440
 16777216
100
AcDbBlockReference
  2
_OPEN
 10
4571.27408427578
 20
153.593478221399
 30
0.0
 41
50.0
 42
50.0
 43
50.0
 50
270.0
  0
INSERT
  5
7EAB
330
7D8D
100
AcDbEntity
  8
0
  6
ByBlock
440
 16777216
100
AcDbBlockReference
  2
_OPEN
 10
4571.27408427578
 20
863.593478221399
 30
0.0
 41
50.0
 42
50.0
 43
50.0
 50
90.0
  0
MTEXT
  5
7EAC
330
7D8D
100
AcDbEntity
  8
0
  6
ByBlock
440
 16777216
100
AcDbMText
 10
4521.274084275781
 20
508.5934782213989
 30
0.0
 40
75.0
 41
0.0
 46
0.0
 71
     5
 72
     5
  1
\A1;φ710
 11
0.0
 21
1.0
 31
0.0
 73
     1
 44
1.0
  0
POINT
  5
7EAD
330
7D8D
100
AcDbEntity
  8
DEFPOINTS
  6
ByBlock
 62
     0
440
 16777216
100
AcDbPoint
 10
4324.772073930469
 20
153.593478221399
 30
0.0
  0
POINT
  5
7EAE
330
7D8D
100
AcDbEntity
  8
DEFPOINTS
  6
ByBlock
 62
     0
440
 16777216
100
AcDbPoint
 10
4324.772073930469
 20
863.593478221399
 30
0.0
  0
POINT
  5
7EAF
330
7D8D
100
AcDbEntity
  8
DEFPOINTS
  6
ByBlock
 62
     0
440
 16777216
100
AcDbPoint
 10
4571.27408427578
 20
863.593478221399
 30
0.0
  0
ENDBLK
  5
7EB0
330
7D8D
100
AcDbEntity
  8
0
100
AcDbBlockEnd
  0
BLOCK
  5
7EB1
330
7D99
100
AcDbEntity
  8
0
100
AcDbBlockBegin
  2
*D10
 70
     1
 10
0.0
 20
0.0
 30
0.0
  3
*D10
  1

  0
LINE
  5
7EB2
330
7D99
100
AcDbEntity
  8
0
  6
ByBlock
440
 16777216
100
AcDbLine
 10
1091.732083679459
 20
3978.533310535339
 30
0.0
 11
1091.732083679459
 21
4278.370934535774
 31
0.0
  0
LINE
  5
7EB3
330
7D99
100
AcDbEntity
  8
0
  6
ByBlock
440
 16777216
100
AcDbLine
 10
191.7320836794588
 20
3978.533310535338
 30
0.0
 11
191.7320836794588
 21
4278.370934535774
 31
0.0
  0
LINE
  5
7EB4
330
7D99
100
AcDbEntity
  8
0
  6
ByBlock
440
 16777216
100
AcDbLine
 10
1041.732083679459
 20
4253.370934535775
 30
0.0
 11
241.7320836794588
 21
4253.370934535775
 31
0.0
  0
INSERT
  5
7EB5
330
7D99
100
AcDbEntity
  8
0
  6
ByBlock
440
 16777216
100
AcDbBlockReference
  2
_OPEN
 10
1091.732083679459
 20
4253.370934535775
 30
0.0
 41
50.0
 42
50.0
 43
50.0
  0
INSERT
  5
7EB6
330
7D99
100
AcDbEntity
  8
0
  6
ByBlock
440
 16777216
100
AcDbBlockReference
  2
_OPEN
 10
191.7320836794588
 20
4253.370934535775
 30
0.0
 41
50.0
 42
50.0
 43
50.0
 50
180.0
  0
MTEXT
  5
7EB7
330
7D99
100
AcDbEntity
  8
0
  6
ByBlock
440
 16777216
100
AcDbMText
 10
641.7320836794588
 20
4303.370934535775
 30
0.0
 40
75.0
 41
0.0
 46
0.0
 71
     5
 72
     5
  1
\A1;900
 73
     1
 44
1.0
  0
POINT
  5
7EB8
330
7D99
100
AcDbEntity
  8
DEFPOINTS
  6
ByBlock
 62
     0
440
 16777216
100
AcDbPoint
 10
1091.732083679459
 20
3953.533310535339
 30
0.0
  0
POINT
  5
7EB9
330
7D99
100
AcDbEntity
  8
DEFPOINTS
  6
ByBlock
 62
     0
440
 16777216
100
AcDbPoint
 10
191.7320836794588
 20
3953.533310535338
 30
0.0
  0
POINT
  5
7EBA
330
7D99
100
AcDbEntity
  8
DEFPOINTS
  6
ByBlock
 62
     0
440
 16777216
100
AcDbPoint
 10
191.7320836794588
 20
4253.370934535775
 30
0.0
  0
ENDBLK
  5
7EBB
330
7D99
100
AcDbEntity
  8
0
100
AcDbBlockEnd
  0
BLOCK
  5
7EBC
330
7DA5
100
AcDbEntity
  8
0
100
AcDbBlockBegin
  2
*D11
 70
     1
 10
0.0
 20
0.0
 30
0.0
  3
*D11
  1

  0
LINE
  5
7EBD
330
7DA5
100
AcDbEntity
  8
0
  6
ByBlock
440
 16777216
100
AcDbLine
 10
166.7320836794588
 20
3953.533310535338
 30
0.0
 11
-131.9066329698271
 21
3953.533310535338
 31
0.0
  0
LINE
  5
7EBE
330
7DA5
100
AcDbEntity
  8
0
  6
ByBlock
440
 16777216
100
AcDbLine
 10
166.7320836794588
 20
2773.533310535338
 30
0.0
 11
-131.9066329698271
 21
2773.533310535338
 31
0.0
  0
LINE
  5
7EBF
330
7DA5
100
AcDbEntity
  8
0
  6
ByBlock
440
 16777216
100
AcDbLine
 10
-106.9066329698271
 20
3903.533310535337
 30
0.0
 11
-106.9066329698271
 21
2823.533310535338
 31
0.0
  0
INSERT
  5
7EC0
330
7DA5
100
AcDbEntity
  8
0
  6
ByBlock
440
 16777216
100
AcDbBlockReference
  2
_OPEN
 10
-106.9066329698271
 20
3953.533310535338
 30
0.0
 41
50.0
 42
50.0
 43
50.0
 50
90.0
  0
INSERT
  5
7EC1
330
7DA5
100
AcDbEntity
  8
0
  6
ByBlock
440
 16777216
100
AcDbBlockReference
  2
_OPEN
 10
-106.9066329698271
 20
2773.533310535338
 30
0.0
 41
50.0
 42
50.0
 43
50.0
 50
270.0
  0
MTEXT
  5
7EC2
330
7DA5
100
AcDbEntity
  8
0
  6
ByBlock
440
 16777216
100
AcDbMText
 10
-156.9066329698271
 20
3363.533310535338
 30
0.0
 40
75.0
 41
0.0
 46
0.0
 71
     5
 72
     5
  1
\A1;1180
 11
0.0
 21
1.0
 31
0.0
 73
     1
 44
1.0
  0
POINT
  5
7EC3
330
7DA5
100
AcDbEntity
  8
DEFPOINTS
  6
ByBlock
 62
     0
440
 16777216
100
AcDbPoint
 10
191.7320836794588
 20
3953.533310535338
 30
0.0
  0
POINT
  5
7EC4
330
7DA5
100
AcDbEntity
  8
DEFPOINTS
  6
ByBlock
 62
     0
440
 16777216
100
AcDbPoint
 10
191.7320836794588
 20
2773.533310535338
 30
0.0
  0
POINT
  5
7EC5
330
7DA5
100
AcDbEntity
  8
DEFPOINTS
  6
ByBlock
 62
     0
440
 16777216
100
AcDbPoint
 10
-106.9066329698271
 20
2773.533310535338
 30
0.0
  0
ENDBLK
  5
7EC6
330
7DA5
100
AcDbEntity
  8
0
100
AcDbBlockEnd
  0
BLOCK
  5
7EC7
330
7DB1
100
AcDbEntity
  8
0
100
AcDbBlockBegin
  2
*D12
 70
     1
 10
0.0
 20
0.0
 30
0.0
  3
*D12
  1

  0
LINE
  5
7EC8
330
7DB1
100
AcDbEntity
  8
0
  6
ByBlock
440
 16777216
100
AcDbLine
 10
1916.732083679458
 20
3523.533310535339
 30
0.0
 11
2215.337834786356
 21
3523.533310535339
 31
0.0
  0
LINE
  5
7EC9
330
7DB1
100
AcDbEntity
  8
0
  6
ByBlock
440
 16777216
100
AcDbLine
 10
1916.732083679459
 20
2773.53331053534
 30
0.0
 11
2215.337834786356
 21
2773.53331053534
 31
0.0
  0
LINE
  5
7ECA
330
7DB1
100
AcDbEntity
  8
0
  6
ByBlock
440
 16777216
100
AcDbLine
 10
2190.337834786356
 20
3473.533310535339
 30
0.0
 11
2190.337834786356
 21
2823.533310535339
 31
0.0
  0
INSERT
  5
7ECB
330
7DB1
100
AcDbEntity
  8
0
  6
ByBlock
440
 16777216
100
AcDbBlockReference
  2
_OPEN
 10
2190.337834786356
 20
3523.533310535339
 30
0.0
 41
50.0
 42
50.0
 43
50.0
 50
90.0
  0
INSERT
  5
7ECC
330
7DB1
100
AcDbEntity
  8
0
  6
ByBlock
440
 16777216
100
AcDbBlockReference
  2
_OPEN
 10
2190.337834786356
 20
2773.53331053534
 30
0.0
 41
50.0
 42
50.0
 43
50.0
 50
270.0
  0
MTEXT
  5
7ECD
330
7DB1
100
AcDbEntity
  8
0
  6
ByBlock
440
 16777216
100
AcDbMText
 10
2140.337834786356
 20
3148.53331053534
 30
0.0
 40
75.0
 41
0.0
 46
0.0
 71
     5
 72
     5
  1
\A1;750
 11
0.0
 21
1.0
 31
0.0
 73
     1
 44
1.0
  0
POINT
  5
7ECE
330
7DB1
100
AcDbEntity
  8
DEFPOINTS
  6
ByBlock
 62
     0
440
 16777216
100
AcDbPoint
 10
1891.732083679458
 20
3523.533310535339
 30
0.0
  0
POINT
  5
7ECF
330
7DB1
100
AcDbEntity
  8
DEFPOINTS
  6
ByBlock
 62
     0
440
 16777216
100
AcDbPoint
 10
1891.732083679459
 20
2773.53331053534
 30
0.0
  0
POINT
  5
7ED0
330
7DB1
100
AcDbEntity
  8
DEFPOINTS
  6
ByBlock
 62
     0
440
 16777216
100
AcDbPoint
 10
2190.337834786356
 20
2773.53331053534
 30
0.0
  0
ENDBLK
  5
7ED1
330
7DB1
100
AcDbEntity
  8
0
100
AcDbBlockEnd
  0
BLOCK
  5
7ED2
330
7DBD
100
AcDbEntity
  8
0
100
AcDbBlockBegin
  2
*D13
 70
     1
 10
0.0
 20
0.0
 30
0.0
  3
*D13
  1

  0
LINE
  5
7ED3
330
7DBD
100
AcDbEntity
  8
0
  6
ByBlock
440
 16777216
100
AcDbLine
 10
1891.732083679459
 20
2748.53331053534
 30
0.0
 11
1891.732083679459
 21
2326.612722814356
 31
0.0
  0
LINE
  5
7ED4
330
7DBD
100
AcDbEntity
  8
0
  6
ByBlock
440
 16777216
100
AcDbLine
 10
191.7320836794588
 20
2748.533310535338
 30
0.0
 11
191.7320836794588
 21
2326.612722814356
 31
0.0
  0
LINE
  5
7ED5
330
7DBD
100
AcDbEntity
  8
0
  6
ByBlock
440
 16777216
100
AcDbLine
 10
1841.732083679459
 20
2351.612722814356
 30
0.0
 11
241.7320836794588
 21
2351.612722814356
 31
0.0
  0
INSERT
  5
7ED6
330
7DBD
100
AcDbEntity
  8
0
  6
ByBlock
440
 16777216
100
AcDbBlockReference
  2
_OPEN
 10
1891.732083679459
 20
2351.612722814356
 30
0.0
 41
50.0
 42
50.0
 43
50.0
  0
INSERT
  5
7ED7
330
7DBD
100
AcDbEntity
  8
0
  6
ByBlock
440
 16777216
100
AcDbBlockReference
  2
_OPEN
 10
191.7320836794588
 20
2351.612722814356
 30
0.0
 41
50.0
 42
50.0
 43
50.0
 50
180.0
  0
MTEXT
  5
7ED8
330
7DBD
100
AcDbEntity
  8
0
  6
ByBlock
440
 16777216
100
AcDbMText
 10
1041.732083679459
 20
2401.612722814356
 30
0.0
 40
75.0
 41
0.0
 46
0.0
 71
     5
 72
     5
  1
\A1;1700
 73
     1
 44
1.0
  0
POINT
  5
7ED9
330
7DBD
100
AcDbEntity
  8
DEFPOINTS
  6
ByBlock
 62
     0
440
 16777216
100
AcDbPoint
 10
1891.732083679459
 20
2773.53331053534
 30
0.0
  0
POINT
  5
7EDA
330
7DBD
100
AcDbEntity
  8
DEFPOINTS
  6
ByBlock
 62
     0
440
 16777216
100
AcDbPoint
 10
191.7320836794588
 20
2773.533310535338
 30
0.0
  0
POINT
  5
7EDB
330
7DBD
100
AcDbEntity
  8
DEFPOINTS
  6
ByBlock
 62
     0
440
 16777216
100
AcDbPoint
 10
191.7320836794588
 20
2351.612722814356
 30
0.0
  0
ENDBLK
  5
7EDC
330
7DBD
100
AcDbEntity
  8
0
100
AcDbBlockEnd
  0
BLOCK
  5
7EDD
330
7DC9
100
AcDbEntity
  8
0
100
AcDbBlockBegin
  2
*D14
 70
     1
 10
0.0
 20
0.0
 30
0.0
  3
*D14
  1

  0
LINE
  5
7EDE
330
7DC9
100
AcDbEntity
  8
0
  6
ByBlock
440
 16777216
100
AcDbLine
 10
1891.732083679458
 20
3548.533310535339
 30
0.0
 11
1891.732083679458
 21
4278.370934535774
 31
0.0
  0
LINE
  5
7EDF
330
7DC9
100
AcDbEntity
  8
0
  6
ByBlock
440
 16777216
100
AcDbLine
 10
1091.732083679459
 20
3978.533310535339
 30
0.0
 11
1091.732083679459
 21
4278.370934535774
 31
0.0
  0
LINE
  5
7EE0
330
7DC9
100
AcDbEntity
  8
0
  6
ByBlock
440
 16777216
100
AcDbLine
 10
1841.732083679458
 20
4253.370934535775
 30
0.0
 11
1141.732083679459
 21
4253.370934535775
 31
0.0
  0
INSERT
  5
7EE1
330
7DC9
100
AcDbEntity
  8
0
  6
ByBlock
440
 16777216
100
AcDbBlockReference
  2
_OPEN
 10
1891.732083679458
 20
4253.370934535775
 30
0.0
 41
50.0
 42
50.0
 43
50.0
  0
INSERT
  5
7EE2
330
7DC9
100
AcDbEntity
  8
0
  6
ByBlock
440
 16777216
100
AcDbBlockReference
  2
_OPEN
 10
1091.732083679459
 20
4253.370934535775
 30
0.0
 41
50.0
 42
50.0
 43
50.0
 50
180.0
  0
MTEXT
  5
7EE3
330
7DC9
100
AcDbEntity
  8
0
  6
ByBlock
440
 16777216
100
AcDbMText
 10
1491.732083679458
 20
4303.370934535775
 30
0.0
 40
75.0
 41
0.0
 46
0.0
 71
     5
 72
     5
  1
\A1;800
 73
     1
 44
1.0
  0
POINT
  5
7EE4
330
7DC9
100
AcDbEntity
  8
DEFPOINTS
  6
ByBlock
 62
     0
440
 16777216
100
AcDbPoint
 10
1891.732083679458
 20
3523.533310535339
 30
0.0
  0
POINT
  5
7EE5
330
7DC9
100
AcDbEntity
  8
DEFPOINTS
  6
ByBlock
 62
     0
440
 16777216
100
AcDbPoint
 10
1091.732083679459
 20
3953.533310535339
 30
0.0
  0
POINT
  5
7EE6
330
7DC9
100
AcDbEntity
  8
DEFPOINTS
  6
ByBlock
 62
     0
440
 16777216
100
AcDbPoint
 10
1091.732083679459
 20
4253.370934535775
 30
0.0
  0
ENDBLK
  5
7EE7
330
7DC9
100
AcDbEntity
  8
0
100
AcDbBlockEnd
  0
BLOCK
  5
7EE8
330
7DD5
100
AcDbEntity
  8
0
100
AcDbBlockBegin
  2
*D15
 70
     1
 10
0.0
 20
0.0
 30
0.0
  3
*D15
  1

  0
LINE
  5
7EE9
330
7DD5
100
AcDbEntity
  8
0
  6
ByBlock
440
 16777216
100
AcDbLine
 10
-5.533755125970856
 20
508.5934782213989
 30
0.0
 11
-184.0217306058566
 21
508.5934782213989
 31
0.0
  0
LINE
  5
7EEA
330
7DD5
100
AcDbEntity
  8
0
  6
ByBlock
440
 16777216
100
AcDbLine
 10
166.7320836794588
 20
-131.406521778601
 30
0.0
 11
-184.0217306058566
 21
-131.406521778601
 31
0.0
  0
LINE
  5
7EEB
330
7DD5
100
AcDbEntity
  8
0
  6
ByBlock
440
 16777216
100
AcDbLine
 10
-159.0217306058566
 20
458.5934782213989
 30
0.0
 11
-159.0217306058566
 21
-81.40652177860102
 31
0.0
  0
INSERT
  5
7EEC
330
7DD5
100
AcDbEntity
  8
0
  6
ByBlock
440
 16777216
100
AcDbBlockReference
  2
_OPEN
 10
-159.0217306058566
 20
508.5934782213989
 30
0.0
 41
50.0
 42
50.0
 43
50.0
 50
90.0
  0
INSERT
  5
7EED
330
7DD5
100
AcDbEntity
  8
0
  6
ByBlock
440
 16777216
100
AcDbBlockReference
  2
_OPEN
 10
-159.0217306058566
 20
-131.406521778601
 30
0.0
 41
50.0
 42
50.0
 43
50.0
 50
270.0
  0
MTEXT
  5
7EEE
330
7DD5
100
AcDbEntity
  8
0
  6
ByBlock
440
 16777216
100
AcDbMText
 10
-209.0217306058566
 20
188.593478221399
 30
0.0
 40
75.0
 41
0.0
 46
0.0
 71
     5
 72
     5
  1
\A1;640
 11
0.0
 21
1.0
 31
0.0
 73
     1
 44
1.0
  0
POINT
  5
7EEF
330
7DD5
100
AcDbEntity
  8
DEFPOINTS
  6
ByBlock
 62
     0
440
 16777216
100
AcDbPoint
 10
19.46624487402914
 20
508.5934782213989
 30
0.0
  0
POINT
  5
7EF0
330
7DD5
100
AcDbEntity
  8
DEFPOINTS
  6
ByBlock
 62
     0
440
 16777216
100
AcDbPoint
 10
191.7320836794588
 20
-131.406521778601
 30
0.0
  0
POINT
  5
7EF1
330
7DD5
100
AcDbEntity
  8
DEFPOINTS
  6
ByBlock
 62
     0
440
 16777216
100
AcDbPoint
 10
-159.0217306058566
 20
-131.406521778601
 30
0.0
  0
ENDBLK
  5
7EF2
330
7DD5
100
AcDbEntity
  8
0
100
AcDbBlockEnd
  0
BLOCK
  5
7FC0
330
7DE1
100
AcDbEntity
  8
0
100
AcDbBlockBegin
  2
*D16
 70
     1
 10
0.0
 20
0.0
 30
0.0
  3
*D16
  1

  0
LINE
  5
7FC1
330
7DE1
100
AcDbEntity
  8
0
  6
ByBlock
 62
     0
440
 16777216
100
AcDbLine
 10
950.1948422234763
 20
1837.653965372763
 30
0.0
 11
586.9410279381609
 21
1837.653965372763
 31
0.0
  0
LINE
  5
7FC2
330
7DE1
100
AcDbEntity
  8
0
  6
ByBlock
 62
     0
440
 16777216
100
AcDbLine
 10
950.1948422234763
 20
1792.653965372763
 30
0.0
 11
586.9410279381609
 21
1792.653965372763
 31
0.0
  0
LINE
  5
7FC3
330
7DE1
100
AcDbEntity
  8
0
  6
ByBlock
 62
     0
440
 16777216
100
AcDbLine
 10
611.9410279381609
 20
1887.653965372763
 30
0.0
 11
611.9410279381609
 21
1937.653965372763
 31
0.0
  0
LINE
  5
7FC4
330
7DE1
100
AcDbEntity
  8
0
  6
ByBlock
 62
     0
440
 16777216
100
AcDbLine
 10
611.9410279381609
 20
1742.653965372763
 30
0.0
 11
611.9410279381609
 21
1692.653965372763
 31
0.0
  0
MTEXT
  5
7FC5
330
7DE1
100
AcDbEntity
  8
0
  6
ByBlock
 62
     0
440
 16777216
100
AcDbMText
 10
492.2981707953038
 20
1815.153965372763
 30
0.0
 40
75.0
 41
0.0
 46
0.0
 71
     5
 72
     5
  1
\A1;(45)
 11
0.0
 21
1.0
 31
0.0
 73
     1
 44
1.0
  0
LINE
  5
7FC6
330
7DE1
100
AcDbEntity
  8
0
  6
ByBlock
 62
     0
440
 16777216
100
AcDbLine
 10
611.9410279381609
 20
1837.653965372763
 30
0.0
 11
611.9410279381609
 21
1792.653965372763
 31
0.0
  0
INSERT
  5
7FC7
330
7DE1
100
AcDbEntity
  8
0
  6
ByBlock
 62
     0
440
 16777216
100
AcDbBlockReference
  2
_OPEN
 10
611.9410279381609
 20
1837.653965372763
 30
0.0
 41
50.0
 42
50.0
 43
50.0
 50
270.0
  0
INSERT
  5
7FC8
330
7DE1
100
AcDbEntity
  8
0
  6
ByBlock
 62
     0
440
 16777216
100
AcDbBlockReference
  2
_DOT
 10
611.9410279381609
 20
1792.653965372763
 30
0.0
 41
50.0
 42
50.0
 43
50.0
 50
90.0
  0
POINT
  5
7FC9
330
7DE1
100
AcDbEntity
  8
DEFPOINTS
  6
ByBlock
 62
     0
440
 16777216
100
AcDbPoint
 10
962.6948422234763
 20
1837.653965372763
 30
0.0
  0
POINT
  5
7FCA
330
7DE1
100
AcDbEntity
  8
DEFPOINTS
  6
ByBlock
 62
     0
440
 16777216
100
AcDbPoint
 10
962.6948422234763
 20
1792.653965372763
 30
0.0
  0
POINT
  5
7FCB
330
7DE1
100
AcDbEntity
  8
DEFPOINTS
  6
ByBlock
 62
     0
440
 16777216
100
AcDbPoint
 10
611.9410279381609
 20
1792.653965372763
 30
0.0
  0
ENDBLK
  5
7FCC
330
7DE1
100
AcDbEntity
  8
0
100
AcDbBlockEnd
  0
BLOCK
  5
7FCD
330
7DEF
100
AcDbEntity
  8
0
100
AcDbBlockBegin
  2
*D17
 70
     1
 10
0.0
 20
0.0
 30
0.0
  3
*D17
  1

  0
LINE
  5
8066
330
7DEF
100
AcDbEntity
  8
3
 62
     0
440
 16777216
100
AcDbLine
 10
1253.819970799532
 20
1792.653965372763
 30
0.0
 11
890.5661565142164
 21
1792.653965372763
 31
0.0
  0
LINE
  5
8067
330
7DEF
100
AcDbEntity
  8
3
 62
     0
440
 16777216
100
AcDbLine
 10
1253.819970799532
 20
1692.653965372763
 30
0.0
 11
890.5661565142164
 21
1692.653965372763
 31
0.0
  0
LINE
  5
8068
330
7DEF
100
AcDbEntity
  8
3
 62
     0
440
 16777216
100
AcDbLine
 10
915.5661565142164
 20
1842.653965372763
 30
0.0
 11
915.5661565142164
 21
1892.653965372763
 31
0.0
  0
LINE
  5
8069
330
7DEF
100
AcDbEntity
  8
3
 62
     0
440
 16777216
100
AcDbLine
 10
915.5661565142164
 20
1642.653965372763
 30
0.0
 11
915.5661565142164
 21
1364.082536801334
 31
0.0
  0
LINE
  5
806A
330
7DEF
100
AcDbEntity
  8
3
 62
     0
440
 16777216
100
AcDbLine
 10
915.5661565142164
 20
1792.653965372763
 30
0.0
 11
915.5661565142164
 21
1692.653965372763
 31
0.0
  0
INSERT
  5
806B
330
7DEF
100
AcDbEntity
  8
3
 62
     0
440
 16777216
100
AcDbBlockReference
  2
_DOT
 10
915.5661565142164
 20
1792.653965372763
 30
0.0
 41
50.0
 42
50.0
 43
50.0
 50
270.0
  0
INSERT
  5
806C
330
7DEF
100
AcDbEntity
  8
3
 62
     0
440
 16777216
100
AcDbBlockReference
  2
_OPEN
 10
915.5661565142164
 20
1692.653965372763
 30
0.0
 41
50.0
 42
50.0
 43
50.0
 50
90.0
  0
MTEXT
  5
806D
330
7DEF
100
AcDbEntity
  8
3
 62
     0
440
 16777216
100
AcDbMText
 10
853.066156514216
 20
1478.368251087049
 30
0.0
 40
75.0
 41
0.0
 46
0.0
 71
     5
 72
     5
  1
\A1;100
 11
0.0000000000000001
 21
1.0
 31
0.0
 73
     1
 44
1.0
  0
POINT
  5
806E
330
7DEF
100
AcDbEntity
  8
DEFPOINTS
 62
     0
440
 16777216
100
AcDbPoint
 10
1266.319970799532
 20
1792.653965372763
 30
0.0
  0
POINT
  5
806F
330
7DEF
100
AcDbEntity
  8
DEFPOINTS
 62
     0
440
 16777216
100
AcDbPoint
 10
1266.319970799532
 20
1692.653965372763
 30
0.0
  0
POINT
  5
8070
330
7DEF
100
AcDbEntity
  8
DEFPOINTS
 62
     0
440
 16777216
100
AcDbPoint
 10
915.5661565142164
 20
1692.653965372763
 30
0.0
  0
ENDBLK
  5
7FD9
330
7DEF
100
AcDbEntity
  8
0
100
AcDbBlockEnd
  0
BLOCK
  5
7F0D
330
7DFD
100
AcDbEntity
  8
0
100
AcDbBlockBegin
  2
*D18
 70
     1
 10
0.0
 20
0.0
 30
0.0
  3
*D18
  1

  0
LINE
  5
7F0E
330
7DFD
100
AcDbEntity
  8
0
  6
ByBlock
440
 16777216
100
AcDbLine
 10
4421.77207393047
 20
508.3934782213988
 30
0.0
 11
4421.77207393047
 21
1293.29938277883
 31
0.0
  0
LINE
  5
7F0F
330
7DFD
100
AcDbEntity
  8
0
  6
ByBlock
440
 16777216
100
AcDbLine
 10
3844.27207393047
 20
1264.410951814083
 30
0.0
 11
3844.27207393047
 21
1293.29938277883
 31
0.0
  0
LINE
  5
7F10
330
7DFD
100
AcDbEntity
  8
0
  6
ByBlock
440
 16777216
100
AcDbLine
 10
4371.77207393047
 20
1268.29938277883
 30
0.0
 11
3894.27207393047
 21
1268.29938277883
 31
0.0
  0
INSERT
  5
7F11
330
7DFD
100
AcDbEntity
  8
0
  6
ByBlock
440
 16777216
100
AcDbBlockReference
  2
_OPEN
 10
4421.77207393047
 20
1268.29938277883
 30
0.0
 41
50.0
 42
50.0
 43
50.0
  0
INSERT
  5
7F12
330
7DFD
100
AcDbEntity
  8
0
  6
ByBlock
440
 16777216
100
AcDbBlockReference
  2
_OPEN
 10
3844.27207393047
 20
1268.29938277883
 30
0.0
 41
50.0
 42
50.0
 43
50.0
 50
180.0
  0
MTEXT
  5
7F13
330
7DFD
100
AcDbEntity
  8
0
  6
ByBlock
440
 16777216
100
AcDbMText
 10
4133.02207393047
 20
1337.942239921688
 30
0.0
 40
75.0
 41
0.0
 46
0.0
 71
     5
 72
     5
  1
\A1;(620)
 73
     1
 44
1.0
  0
POINT
  5
7F14
330
7DFD
100
AcDbEntity
  8
DEFPOINTS
  6
ByBlock
 62
     0
440
 16777216
100
AcDbPoint
 10
4421.77207393047
 20
483.3934782213988
 30
0.0
  0
POINT
  5
7F15
330
7DFD
100
AcDbEntity
  8
DEFPOINTS
  6
ByBlock
 62
     0
440
 16777216
100
AcDbPoint
 10
3844.27207393047
 20
1239.410951814083
 30
0.0
  0
POINT
  5
7F16
330
7DFD
100
AcDbEntity
  8
DEFPOINTS
  6
ByBlock
 62
     0
440
 16777216
100
AcDbPoint
 10
3844.27207393047
 20
1268.29938277883
 30
0.0
  0
ENDBLK
  5
7F17
330
7DFD
100
AcDbEntity
  8
0
100
AcDbBlockEnd
  0
BLOCK
  5
7FBC
330
7FB6
100
AcDbEntity
  8
0
100
AcDbBlockBegin
  2
_DOT
 70
     0
 10
0.0
 20
0.0
 30
0.0
  3
_DOT
  1

  0
LWPOLYLINE
  5
7FB7
330
7FB6
100
AcDbEntity
  8
0
  6
ByBlock
 62
     0
100
AcDbPolyline
 90
        2
 70
     1
 43
0.25
 10
-0.125
 20
0.0
 42
1.0
 10
0.125
 20
0.0
 42
1.0
  0
LINE
  5
7FBB
330
7FB6
100
AcDbEntity
  8
0
  6
ByBlock
 62
     0
100
AcDbLine
 10
-0.25
 20
0.0
 30
0.0
 11
-1.0
 21
0.0
 31
0.0
  0
ENDBLK
  5
7FBD
330
7FB6
100
AcDbEntity
  8
0
100
AcDbBlockEnd
  0
BLOCK
  5
7FFF
330
7FFE
100
AcDbEntity
  8
0
100
AcDbBlockBegin
  2
*D24
 70
     1
 10
0.0
 20
0.0
 30
0.0
  3
*D24
  1

  0
LINE
  5
8000
330
7FFE
100
AcDbEntity
  8
0
  6
ByBlock
 62
     0
440
 16777216
100
AcDbLine
 10
1690.819970799532
 20
2977.653965372764
 30
0.0
 11
664.8527379132574
 21
2977.653965372764
 31
0.0
  0
LINE
  5
8001
330
7FFE
100
AcDbEntity
  8
0
  6
ByBlock
 62
     0
440
 16777216
100
AcDbLine
 10
1253.819970799532
 20
1692.653965372763
 30
0.0
 11
664.8527379132574
 21
1692.653965372763
 31
0.0
  0
LINE
  5
8002
330
7FFE
100
AcDbEntity
  8
0
  6
ByBlock
 62
     0
440
 16777216
100
AcDbLine
 10
689.8527379132574
 20
2927.653965372764
 30
0.0
 11
689.8527379132574
 21
1742.653965372763
 31
0.0
  0
INSERT
  5
8003
330
7FFE
100
AcDbEntity
  8
0
  6
ByBlock
 62
     0
440
 16777216
100
AcDbBlockReference
  2
_OPEN
 10
689.8527379132574
 20
2977.653965372764
 30
0.0
 41
50.0
 42
50.0
 43
50.0
 50
90.0
  0
INSERT
  5
8004
330
7FFE
100
AcDbEntity
  8
0
  6
ByBlock
 62
     0
440
 16777216
100
AcDbBlockReference
  2
_OPEN
 10
689.8527379132574
 20
1692.653965372763
 30
0.0
 41
50.0
 42
50.0
 43
50.0
 50
270.0
  0
MTEXT
  5
8005
330
7FFE
100
AcDbEntity
  8
0
  6
ByBlock
 62
     0
440
 16777216
100
AcDbMText
 10
607.7098807704003
 20
2335.153965372764
 30
0.0
 40
75.0
 41
0.0
 46
0.0
 71
     5
 72
     5
  1
\A1;(1285)
 11
0.0
 21
1.0
 31
0.0
 73
     1
 44
1.0
  0
POINT
  5
8006
330
7FFE
100
AcDbEntity
  8
DEFPOINTS
  6
ByBlock
 62
     0
440
 16777216
100
AcDbPoint
 10
1703.319970799532
 20
2977.653965372764
 30
0.0
  0
POINT
  5
8007
330
7FFE
100
AcDbEntity
  8
DEFPOINTS
  6
ByBlock
 62
     0
440
 16777216
100
AcDbPoint
 10
1266.319970799532
 20
1692.653965372763
 30
0.0
  0
POINT
  5
8008
330
7FFE
100
AcDbEntity
  8
DEFPOINTS
  6
ByBlock
 62
     0
440
 16777216
100
AcDbPoint
 10
689.8527379132574
 20
1692.653965372763
 30
0.0
  0
ENDBLK
  5
8009
330
7FFE
100
AcDbEntity
  8
0
100
AcDbBlockEnd
  0
BLOCK
  5
8279
330
8278
100
AcDbEntity
  8
0
100
AcDbBlockBegin
  2
*D41
 70
     1
 10
0.0
 20
0.0
 30
0.0
  3
*D41
  1

  0
LINE
  5
82B5
330
8278
100
AcDbEntity
  8
3
 62
     0
440
 16777216
370
    -2
100
AcDbLine
 10
1716.319970799531
 20
3295.205249829905
 30
0.0
 11
1716.319970799531
 21
3254.470122625655
 31
0.0
  0
LINE
  5
82B6
330
8278
100
AcDbEntity
  8
3
 62
     0
440
 16777216
370
    -2
100
AcDbLine
 10
1227.319970799531
 20
2449.153965372765
 30
0.0
 11
1227.319970799531
 21
3304.470122625655
 31
0.0
  0
LINE
  5
82B7
330
8278
100
AcDbEntity
  8
3
 62
     0
440
 16777216
370
    -2
100
AcDbLine
 10
1666.319970799532
 20
3279.470122625655
 30
0.0
 11
1277.319970799531
 21
3279.470122625655
 31
0.0
  0
INSERT
  5
82B8
330
8278
100
AcDbEntity
  8
3
 62
     0
440
 16777216
370
    -2
100
AcDbBlockReference
  2
_OPEN
 10
1716.319970799531
 20
3279.470122625655
 30
0.0
 41
50.0
 42
50.0
 43
50.0
  0
INSERT
  5
82B9
330
8278
100
AcDbEntity
  8
3
 62
     0
440
 16777216
370
    -2
100
AcDbBlockReference
  2
_OPEN
 10
1227.319970799531
 20
3279.470122625655
 30
0.0
 41
50.0
 42
50.0
 43
50.0
 50
180.0
  0
MTEXT
  5
82BA
330
8278
100
AcDbEntity
  8
3
 62
     0
440
 16777216
100
AcDbMText
 10
1471.819970799531
 20
3341.970122625655
 30
0.0
 40
75.0
 41
0.0
 46
0.0
 71
     5
 72
     1
  1
\A1;489
 73
     1
 44
1.0
  0
POINT
  5
82BB
330
8278
100
AcDbEntity
  8
DEFPOINTS
 62
     0
440
 16777216
100
AcDbPoint
 10
1716.319970799531
 20
3307.705249829905
 30
0.0
  0
POINT
  5
82BC
330
8278
100
AcDbEntity
  8
DEFPOINTS
 62
     0
440
 16777216
100
AcDbPoint
 10
1227.319970799531
 20
2436.653965372765
 30
0.0
  0
POINT
  5
82BD
330
8278
100
AcDbEntity
  8
DEFPOINTS
 62
     0
440
 16777216
100
AcDbPoint
 10
1227.319970799531
 20
3279.470122625655
 30
0.0
  0
ENDBLK
  5
827A
330
8278
100
AcDbEntity
  8
0
100
AcDbBlockEnd
  0
BLOCK
  5
8286
330
8285
100
AcDbEntity
  8
0
100
AcDbBlockBegin
  2
*D42
 70
     1
 10
0.0
 20
0.0
 30
0.0
  3
*D42
  1

  0
LINE
  5
82A3
330
8285
100
AcDbEntity
  8
3
 62
     0
440
 16777216
370
    -2
100
AcDbLine
 10
1227.319970799531
 20
2437.153965372765
 30
0.0
 11
1227.319970799531
 21
3452.792731373811
 31
0.0
  0
LINE
  5
82A4
330
8285
100
AcDbEntity
  8
3
 62
     0
440
 16777216
370
    -2
100
AcDbLine
 10
2966.319970799532
 20
1950.153965372763
 30
0.0
 11
2966.319970799532
 21
3452.792731373811
 31
0.0
  0
LINE
  5
82A5
330
8285
100
AcDbEntity
  8
3
 62
     0
440
 16777216
370
    -2
100
AcDbLine
 10
1277.319970799531
 20
3427.792731373811
 30
0.0
 11
2916.319970799532
 21
3427.792731373811
 31
0.0
  0
INSERT
  5
82A6
330
8285
100
AcDbEntity
  8
3
 62
     0
440
 16777216
370
    -2
100
AcDbBlockReference
  2
_OPEN
 10
1227.319970799531
 20
3427.792731373811
 30
0.0
 41
50.0
 42
50.0
 43
50.0
 50
180.0
  0
INSERT
  5
82A7
330
8285
100
AcDbEntity
  8
3
 62
     0
440
 16777216
370
    -2
100
AcDbBlockReference
  2
_OPEN
 10
2966.319970799532
 20
3427.792731373811
 30
0.0
 41
50.0
 42
50.0
 43
50.0
  0
MTEXT
  5
82A8
330
8285
100
AcDbEntity
  8
3
 62
     0
440
 16777216
100
AcDbMText
 10
2096.819970799531
 20
3490.292731373811
 30
0.0
 40
75.0
 41
0.0
 46
0.0
 71
     5
 72
     1
  1
\A1;1739
 73
     1
 44
1.0
  0
POINT
  5
82A9
330
8285
100
AcDbEntity
  8
DEFPOINTS
 62
     0
440
 16777216
100
AcDbPoint
 10
1227.319970799531
 20
2424.653965372765
 30
0.0
  0
POINT
  5
82AA
330
8285
100
AcDbEntity
  8
DEFPOINTS
 62
     0
440
 16777216
100
AcDbPoint
 10
2966.319970799532
 20
1937.653965372763
 30
0.0
  0
POINT
  5
82AB
330
8285
100
AcDbEntity
  8
DEFPOINTS
 62
     0
440
 16777216
100
AcDbPoint
 10
2966.319970799532
 20
3427.792731373811
 30
0.0
  0
ENDBLK
  5
8287
330
8285
100
AcDbEntity
  8
0
100
AcDbBlockEnd
  0
BLOCK
  5
82C8
330
82C7
100
AcDbEntity
  8
0
100
AcDbBlockBegin
  2
*D43
 70
     1
 10
0.0
 20
0.0
 30
0.0
  3
*D43
  1

  0
LINE
  5
82DC
330
82C7
100
AcDbEntity
  8
3
 62
     0
440
 16777216
370
    -2
100
AcDbLine
 10
3233.990032450291
 20
2710.153965372763
 30
0.0
 11
3233.990032450291
 21
3262.359869930195
 31
0.0
  0
LINE
  5
82DD
330
82C7
100
AcDbEntity
  8
3
 62
     0
440
 16777216
370
    -2
100
AcDbLine
 10
4073.99003245029
 20
3214.835678591644
 30
0.0
 11
4073.99003245029
 21
3262.359869930195
 31
0.0
  0
LINE
  5
82DE
330
82C7
100
AcDbEntity
  8
3
 62
     0
440
 16777216
370
    -2
100
AcDbLine
 10
3283.990032450291
 20
3237.359869930195
 30
0.0
 11
4023.99003245029
 21
3237.359869930195
 31
0.0
  0
INSERT
  5
82DF
330
82C7
100
AcDbEntity
  8
3
 62
     0
440
 16777216
370
    -2
100
AcDbBlockReference
  2
_OPEN
 10
3233.990032450291
 20
3237.359869930195
 30
0.0
 41
50.0
 42
50.0
 43
50.0
 50
180.0
  0
INSERT
  5
82E0
330
82C7
100
AcDbEntity
  8
3
 62
     0
440
 16777216
370
    -2
100
AcDbBlockReference
  2
_OPEN
 10
4073.99003245029
 20
3237.359869930195
 30
0.0
 41
50.0
 42
50.0
 43
50.0
  0
MTEXT
  5
82E1
330
82C7
100
AcDbEntity
  8
3
 62
     0
440
 16777216
100
AcDbMText
 10
3653.990032450291
 20
3319.502727073052
 30
0.0
 40
75.0
 41
0.0
 46
0.0
 71
     5
 72
     1
  1
\A1;(840)
 73
     1
 44
1.0
  0
POINT
  5
82E2
330
82C7
100
AcDbEntity
  8
DEFPOINTS
 62
     0
440
 16777216
100
AcDbPoint
 10
3233.990032450291
 20
2697.653965372763
 30
0.0
  0
POINT
  5
82E3
330
82C7
100
AcDbEntity
  8
DEFPOINTS
 62
     0
440
 16777216
100
AcDbPoint
 10
4073.99003245029
 20
3202.335678591644
 30
0.0
  0
POINT
  5
82E4
330
82C7
100
AcDbEntity
  8
DEFPOINTS
 62
     0
440
 16777216
100
AcDbPoint
 10
4073.99003245029
 20
3237.359869930195
 30
0.0
  0
ENDBLK
  5
82C9
330
82C7
100
AcDbEntity
  8
0
100
AcDbBlockEnd
  0
BLOCK
  5
82E7
330
82E6
100
AcDbEntity
  8
0
100
AcDbBlockBegin
  2
*D44
 70
     1
 10
0.0
 20
0.0
 30
0.0
  3
*D44
  1

  0
LINE
  5
8304
330
82E6
100
AcDbEntity
  8
3
 62
     0
440
 16777216
370
    -2
100
AcDbLine
 10
1081.554131994102
 20
2477.653965372763
 30
0.0
 11
890.5661565142162
 21
2477.653965372764
 31
0.0
  0
LINE
  5
8305
330
82E6
100
AcDbEntity
  8
3
 62
     0
440
 16777216
370
    -2
100
AcDbLine
 10
1690.819970799532
 20
2977.653965372765
 30
0.0
 11
890.5661565142164
 21
2977.653965372765
 31
0.0
  0
LINE
  5
8306
330
82E6
100
AcDbEntity
  8
3
 62
     0
440
 16777216
370
    -2
100
AcDbLine
 10
915.5661565142162
 20
2527.653965372764
 30
0.0
 11
915.5661565142164
 21
2927.653965372765
 31
0.0
  0
INSERT
  5
8307
330
82E6
100
AcDbEntity
  8
3
 62
     0
440
 16777216
370
    -2
100
AcDbBlockReference
  2
_OPEN
 10
915.5661565142162
 20
2477.653965372764
 30
0.0
 41
50.0
 42
50.0
 43
50.0
 50
270.0
  0
INSERT
  5
8308
330
82E6
100
AcDbEntity
  8
3
 62
     0
440
 16777216
370
    -2
100
AcDbBlockReference
  2
_OPEN
 10
915.5661565142164
 20
2977.653965372765
 30
0.0
 41
50.0
 42
50.0
 43
50.0
 50
90.0
  0
MTEXT
  5
8309
330
82E6
100
AcDbEntity
  8
3
 62
     0
440
 16777216
100
AcDbMText
 10
853.0661565142157
 20
2727.653965372764
 30
0.0
 40
75.0
 41
0.0
 46
0.0
 71
     5
 72
     1
  1
\A1;500
 11
0.0000000000000001
 21
1.0
 31
0.0
 73
     1
 44
1.0
  0
POINT
  5
830A
330
82E6
100
AcDbEntity
  8
DEFPOINTS
 62
     0
440
 16777216
100
AcDbPoint
 10
1094.054131994102
 20
2477.653965372763
 30
0.0
  0
POINT
  5
830B
330
82E6
100
AcDbEntity
  8
DEFPOINTS
 62
     0
440
 16777216
100
AcDbPoint
 10
1703.319970799532
 20
2977.653965372765
 30
0.0
  0
POINT
  5
830C
330
82E6
100
AcDbEntity
  8
DEFPOINTS
 62
     0
440
 16777216
100
AcDbPoint
 10
915.5661565142164
 20
2977.653965372765
 30
0.0
  0
ENDBLK
  5
82E8
330
82E6
100
AcDbEntity
  8
0
100
AcDbBlockEnd
  0
ENDSEC
  0
SECTION
  2
ENTITIES
  0
INSERT
  5
7C31
330
19
100
AcDbEntity
  8
0
100
AcDbBlockReference
  2
YA_N
 10
6.0
 20
5.0
 30
0.0
  0
LINE
  5
7C3E
330
19
100
AcDbEntity
  8
1
100
AcDbLine
 10
1266.319970799532
 20
1937.653965372763
 30
0.0
 11
1266.319970799532
 21
1837.653965372763
 31
0.0
  0
LINE
  5
7C3F
330
19
100
AcDbEntity
  8
1
100
AcDbLine
 10
1266.319970799532
 20
1937.653965372763
 30
0.0
 11
2966.319970799532
 21
1937.653965372763
 31
0.0
  0
LINE
  5
7C40
330
19
100
AcDbEntity
  8
1
100
AcDbLine
 10
2966.319970799532
 20
1937.653965372763
 30
0.0
 11
2966.319970799532
 21
1837.653965372763
 31
0.0
  0
LINE
  5
7C41
330
19
100
AcDbEntity
  8
2
100
AcDbLine
 10
1716.319970799531
 20
1692.653965372763
 30
0.0
 11
1716.319970799531
 21
3307.705249829905
 31
0.0
  0
LINE
  5
7C42
330
19
100
AcDbEntity
  8
2
100
AcDbLine
 10
1094.054131994102
 20
2477.653965372763
 30
0.0
 11
2391.346448302136
 21
2477.653965372763
 31
0.0
  0
LINE
  5
7C43
330
19
100
AcDbEntity
  8
1
100
AcDbLine
 10
2513.319970799532
 20
1977.653965372763
 30
0.0
 11
2919.319970799532
 21
1977.653965372763
 31
0.0
  0
LINE
  5
7C44
330
19
100
AcDbEntity
  8
1
100
AcDbLine
 10
2516.319970799532
 20
1937.653965372763
 30
0.0
 11
2516.319970799532
 21
1977.653965372763
 31
0.0
  0
LINE
  5
7C45
330
19
100
AcDbEntity
  8
1
100
AcDbLine
 10
1266.319970799532
 20
1692.653965372763
 30
0.0
 11
2966.319970799532
 21
1692.653965372763
 31
0.0
  0
LINE
  5
7C46
330
19
100
AcDbEntity
  8
1
100
AcDbLine
 10
1266.319970799532
 20
1792.653965372763
 30
0.0
 11
1266.319970799532
 21
1692.653965372763
 31
0.0
  0
LINE
  5
7C47
330
19
100
AcDbEntity
  8
1
100
AcDbLine
 10
2966.319970799532
 20
1792.653965372763
 30
0.0
 11
2966.319970799532
 21
1692.653965372763
 31
0.0
  0
LINE
  5
7C48
330
19
100
AcDbEntity
  8
1
100
AcDbLine
 10
1266.319970799532
 20
1837.653965372763
 30
0.0
 11
2966.319970799532
 21
1837.653965372763
 31
0.0
1001
ACAD
1000
ASC_BOUNDS
1002
{
1070
    19
1002
}
  0
LINE
  5
7C49
330
19
100
AcDbEntity
  8
1
100
AcDbLine
 10
1266.319970799532
 20
1792.653965372763
 30
0.0
 11
2966.319970799532
 21
1792.653965372763
 31
0.0
1001
ACAD
1000
ASC_BOUNDS
1002
{
1070
    19
1002
}
  0
LINE
  5
7C4A
330
19
100
AcDbEntity
  8
2
100
AcDbLine
 10
4073.990032450289
 20
1692.653965372763
 30
0.0
 11
4073.99003245029
 21
3066.6169709233
 31
0.0
  0
LINE
  5
7C4B
330
19
100
AcDbEntity
  8
2
100
AcDbLine
 10
3244.579579087488
 20
2477.653965372763
 30
0.0
 11
4660.272390845604
 21
2477.653965372763
 31
0.0
  0
LINE
  5
7C4C
330
19
100
AcDbEntity
  8
1
100
AcDbLine
 10
3421.990032450291
 20
1937.653965372763
 30
0.0
 11
4601.990032450291
 21
1937.653965372763
 31
0.0
  0
LINE
  5
7C4D
330
19
100
AcDbEntity
  8
1
100
AcDbLine
 10
3421.990032450291
 20
1837.653965372763
 30
0.0
 11
4601.990032450291
 21
1837.653965372763
 31
0.0
1001
ACAD
1000
ASC_BOUNDS
1002
{
1070
    19
1002
}
  0
LINE
  5
7C4E
330
19
100
AcDbEntity
  8
1
100
AcDbLine
 10
3421.990032450291
 20
1837.653965372763
 30
0.0
 11
3421.990032450291
 21
1937.653965372763
 31
0.0
  0
LINE
  5
7C4F
330
19
100
AcDbEntity
  8
1
100
AcDbLine
 10
3421.990032450291
 20
1792.653965372763
 30
0.0
 11
4601.990032450291
 21
1792.653965372763
 31
0.0
1001
ACAD
1000
ASC_BOUNDS
1002
{
1070
    19
1002
}
  0
LINE
  5
7C50
330
19
100
AcDbEntity
  8
1
100
AcDbLine
 10
4601.990032450291
 20
1692.653965372763
 30
0.0
 11
4601.990032450291
 21
1792.653965372763
 31
0.0
  0
LINE
  5
7C51
330
19
100
AcDbEntity
  8
1
100
AcDbLine
 10
4601.990032450291
 20
1837.653965372763
 30
0.0
 11
4601.990032450291
 21
1937.653965372763
 31
0.0
  0
LINE
  5
7C52
330
19
100
AcDbEntity
  8
2
100
AcDbLine
 10
1716.319970799531
 20
5437.201842858673
 30
0.0
 11
1716.319970799531
 21
3910.244685677286
 31
0.0
  0
LINE
  5
7C53
330
19
100
AcDbEntity
  8
2
100
AcDbLine
 10
2716.319970799532
 20
4798.197045226649
 30
0.0
 11
2716.319970799531
 21
3910.244685677286
 31
0.0
  0
LINE
  5
7C54
330
19
100
AcDbEntity
  8
2
100
AcDbLine
 10
1112.99122462209
 20
4827.28611322741
 30
0.0
 11
2475.319970799532
 21
4827.286113227412
 31
0.0
  0
LINE
  5
7C55
330
19
100
AcDbEntity
  8
2
100
AcDbLine
 10
3243.990032450292
 20
2187.653965372764
 30
0.0
 11
3928.990032450291
 21
2187.653965372763
 31
0.0
  0
LINE
  5
7C56
330
19
100
AcDbEntity
  8
1
100
AcDbLine
 10
3325.990032450292
 20
2080.653965372763
 30
0.0
 11
3325.990032450291
 21
2604.653965372763
 31
0.0
  0
LINE
  5
7C57
330
19
100
AcDbEntity
  8
1
100
AcDbLine
 10
3410.990032450293
 20
2080.653965372763
 30
0.0
 11
3410.99003245029
 21
2604.653965372763
 31
0.0
  0
LINE
  5
7C58
330
19
100
AcDbEntity
  8
1
100
AcDbLine
 10
3233.990032450292
 20
1967.653965372763
 30
0.0
 11
3233.990032450291
 21
2697.653965372763
 31
0.0
  0
LINE
  5
7C59
330
19
100
AcDbEntity
  8
1
100
AcDbLine
 10
3455.990032450291
 20
1967.653965372763
 30
0.0
 11
3455.990032450291
 21
2092.653965372763
 31
0.0
  0
POINT
  5
7C5B
330
19
100
AcDbEntity
  8
1
100
AcDbPoint
 10
1266.319970799532
 20
1692.653965372763
 30
0.0
  0
INSERT
  5
7C5D
330
19
100
AcDbEntity
  8
0
100
AcDbBlockReference
  2
YA_N
 10
-1092.024831295133
 20
-1095.319682135705
 30
0.0
 41
20.0
 42
20.0
 43
20.0
  0
LINE
  5
7C5F
330
19
100
AcDbEntity
  8
1
100
AcDbLine
 10
2870.319970799532
 20
2043.653965372763
 30
0.0
 11
2850.887470799532
 21
2097.043965372764
 31
0.0
  0
LINE
  5
7C60
330
19
100
AcDbEntity
  8
1
100
AcDbLine
 10
2562.319970799532
 20
2043.653965372763
 30
0.0
 11
2581.752570799532
 21
2097.043965372764
 31
0.0
  0
ARC
  5
7C61
330
19
100
AcDbEntity
  8
1
100
AcDbCircle
 10
2716.319970799532
 20
2187.653965372764
 30
0.0
 40
162.0
100
AcDbArc
 50
285.6481
 51
0.0
  0
ARC
  5
7C62
330
19
100
AcDbEntity
  8
1
100
AcDbCircle
 10
2716.319970799532
 20
2187.653965372764
 30
0.0
 40
162.0
100
AcDbArc
 50
0.0
 51
254.5427
  0
LINE
  5
7C63
330
19
100
AcDbEntity
  8
2
100
AcDbLine
 10
2716.319970799532
 20
2436.889965372763
 30
0.0
 11
2716.319970799532
 21
1692.653965372763
 31
0.0
  0
LINE
  5
7C64
330
19
100
AcDbEntity
  8
1
100
AcDbLine
 10
2672.639370799532
 20
2031.653965372763
 30
0.0
 11
2760.000670799532
 21
2031.653965372763
 31
0.0
  0
LINE
  5
7C65
330
19
100
AcDbEntity
  8
1
100
AcDbLine
 10
2631.376070799532
 20
2049.709965372764
 30
0.0
 11
2623.198670799532
 21
2041.531965372763
 31
0.0
  0
LINE
  5
7C66
330
19
100
AcDbEntity
  8
1
100
AcDbLine
 10
2609.106770799532
 20
2045.653965372763
 30
0.0
 11
2564.319970799532
 21
2045.653965372763
 31
0.0
  0
ARC
  5
7C68
330
19
100
AcDbEntity
  8
1
100
AcDbCircle
 10
2564.319970799532
 20
2043.653965372763
 30
0.0
 40
2.0
100
AcDbArc
 50
90.0
 51
180.0
  0
LINE
  5
7C6A
330
19
100
AcDbEntity
  8
1
100
AcDbLine
 10
2562.319970799532
 20
2027.653965372763
 30
0.0
 11
2562.319970799532
 21
2043.653965372763
 31
0.0
  0
ARC
  5
7C6C
330
19
100
AcDbEntity
  8
1
100
AcDbCircle
 10
2625.319970799532
 20
2039.410965372763
 30
0.0
 40
3.0
100
AcDbArc
 50
135.0
 51
180.0
  0
LINE
  5
7C6D
330
19
100
AcDbEntity
  8
1
100
AcDbLine
 10
2622.319970799532
 20
2027.653965372763
 30
0.0
 11
2622.319970799532
 21
2039.410965372763
 31
0.0
  0
ARC
  5
7C72
330
19
100
AcDbEntity
  8
1
100
AcDbCircle
 10
2609.106770799532
 20
2048.653965372763
 30
0.0
 40
3.0
100
AcDbArc
 50
270.0
 51
315.0
  0
LINE
  5
7C73
330
19
100
AcDbEntity
  8
1
100
AcDbLine
 10
2621.208770799532
 20
2056.512965372764
 30
0.0
 11
2611.228170799532
 21
2046.531965372763
 31
0.0
  0
LINE
  5
7C75
330
19
100
AcDbEntity
  8
1
100
AcDbLine
 10
2823.533170799532
 20
2045.653965372763
 30
0.0
 11
2868.319970799532
 21
2045.653965372763
 31
0.0
  0
LINE
  5
7C76
330
19
100
AcDbEntity
  8
1
100
AcDbLine
 10
2801.263870799532
 20
2049.709965372764
 30
0.0
 11
2809.441370799532
 21
2041.531965372763
 31
0.0
  0
ARC
  5
7C77
330
19
100
AcDbEntity
  8
1
100
AcDbCircle
 10
2807.319970799532
 20
2039.410965372763
 30
0.0
 40
3.0
100
AcDbArc
 50
0.0
 51
45.0
  0
LINE
  5
7C78
330
19
100
AcDbEntity
  8
1
100
AcDbLine
 10
2810.319970799532
 20
2027.653965372763
 30
0.0
 11
2810.319970799532
 21
2039.410965372763
 31
0.0
  0
ARC
  5
7C79
330
19
100
AcDbEntity
  8
1
100
AcDbCircle
 10
2823.533170799532
 20
2048.653965372763
 30
0.0
 40
3.0
100
AcDbArc
 50
225.0
 51
270.0
  0
LINE
  5
7C7A
330
19
100
AcDbEntity
  8
1
100
AcDbLine
 10
2821.522170799532
 20
2046.421965372763
 30
0.0
 11
2811.431170799531
 21
2056.512965372764
 31
0.0
  0
ARC
  5
7C81
330
19
100
AcDbEntity
  8
1
100
AcDbCircle
 10
2868.319970799532
 20
2043.653965372763
 30
0.0
 40
2.0
100
AcDbArc
 50
0.0
 51
90.0
  0
LINE
  5
7C82
330
19
100
AcDbEntity
  8
1
100
AcDbLine
 10
2870.319970799532
 20
2027.653965372763
 30
0.0
 11
2870.319970799532
 21
2043.653965372763
 31
0.0
  0
LINE
  5
7C83
330
19
100
AcDbEntity
  8
2
100
AcDbLine
 10
2523.463095900008
 20
2187.653965372764
 30
0.0
 11
2981.425212877241
 21
2187.653965372764
 31
0.0
  0
LINE
  5
7C84
330
19
100
AcDbEntity
  8
1
100
AcDbLine
 10
2826.881370799533
 20
2310.431965372764
 30
0.0
 11
2824.728170799532
 21
2307.885965372763
 31
0.0
  0
LINE
  5
7C85
330
19
100
AcDbEntity
  8
1
100
AcDbLine
 10
2526.360503429274
 20
2027.653965372763
 30
0.0
 11
2656.319970799532
 21
2027.653965372763
 31
0.0
  0
LINE
  5
7C86
330
19
100
AcDbEntity
  8
1
100
AcDbLine
 10
2513.319970799532
 20
1977.653965372763
 30
0.0
 11
2526.360503429274
 21
2027.653965372763
 31
0.0
  0
LINE
  5
7C87
330
19
100
AcDbEntity
  8
1
100
AcDbLine
 10
2919.319970799532
 20
1977.653965372763
 30
0.0
 11
2905.938529890598
 21
2027.653965372763
 31
0.0
  0
LINE
  5
7C88
330
19
100
AcDbEntity
  8
1
100
AcDbLine
 10
2776.319970799532
 20
2027.653965372763
 30
0.0
 11
2776.319970799532
 21
2022.653965372763
 31
0.0
  0
LINE
  5
7C89
330
19
100
AcDbEntity
  8
1
100
AcDbLine
 10
2656.319970799532
 20
2027.653965372763
 30
0.0
 11
2656.319970799532
 21
2022.653965372763
 31
0.0
  0
LINE
  5
7C8A
330
19
100
AcDbEntity
  8
1
100
AcDbLine
 10
2656.319970799532
 20
2022.653965372763
 30
0.0
 11
2776.319970799532
 21
2022.653965372763
 31
0.0
  0
LINE
  5
7C8C
330
19
100
AcDbEntity
  8
1
100
AcDbLine
 10
2776.319970799532
 20
2027.653965372763
 30
0.0
 11
2905.938529890598
 21
2027.653965372763
 31
0.0
  0
CIRCLE
  5
7C92
330
19
100
AcDbEntity
  8
1
100
AcDbCircle
 10
1716.319970799531
 20
2477.653965372763
 30
0.0
 40
127.0
  0
CIRCLE
  5
7C93
330
19
100
AcDbEntity
  8
1
100
AcDbCircle
 10
2716.319970799532
 20
2187.653965372764
 30
0.0
 40
107.0
  0
LINE
  5
7C94
330
19
100
AcDbEntity
  8
1
100
AcDbLine
 10
3325.990032450292
 20
2080.653965372763
 30
0.0
 11
3410.990032450293
 21
2080.653965372763
 31
0.0
  0
LINE
  5
7C95
330
19
100
AcDbEntity
  8
1
100
AcDbLine
 10
3325.990032450291
 20
2604.653965372763
 30
0.0
 11
3410.99003245029
 21
2604.653965372763
 31
0.0
  0
LINE
  5
7C96
330
19
100
AcDbEntity
  8
1
100
AcDbLine
 10
3233.990032450291
 20
2697.653965372763
 30
0.0
 11
3455.990032450291
 21
2697.653965372763
 31
0.0
  0
LINE
  5
7C97
330
19
100
AcDbEntity
  8
1
100
AcDbLine
 10
3233.990032450292
 20
1967.653965372763
 30
0.0
 11
3455.990032450291
 21
1967.653965372763
 31
0.0
  0
LINE
  5
7C98
330
19
100
AcDbEntity
  8
1
100
AcDbLine
 10
3455.990032450291
 20
2667.653965372764
 30
0.0
 11
3455.990032450291
 21
2697.653965372763
 31
0.0
  0
LINE
  5
7C99
330
19
100
AcDbEntity
  8
1
100
AcDbLine
 10
3325.990032450292
 20
2294.653965372763
 30
0.0
 11
3410.990032450292
 21
2294.653965372763
 31
0.0
  0
LINE
  5
7C9A
330
19
100
AcDbEntity
  8
1
100
AcDbLine
 10
3325.990032450291
 20
2350.653965372763
 30
0.0
 11
3410.99003245029
 21
2350.653965372763
 31
0.0
  0
POINT
  5
7C9C
330
19
100
AcDbEntity
  8
1
100
AcDbPoint
 10
1266.319970799532
 20
1697.653965372763
 30
0.0
  0
POINT
  5
7C9D
330
19
100
AcDbEntity
  8
1
100
AcDbPoint
 10
1266.319970799532
 20
1692.653965372763
 30
0.0
  0
POINT
  5
7C9E
330
19
100
AcDbEntity
  8
1
100
AcDbPoint
 10
1266.319970799532
 20
1697.653965372763
 30
0.0
  0
POINT
  5
7C9F
330
19
100
AcDbEntity
  8
1
100
AcDbPoint
 10
1266.319970799532
 20
1732.653965372763
 30
0.0
  0
DIMENSION
  5
7CA0
330
19
100
AcDbEntity
  8
3
100
AcDbDimension
280
     0
  2
*D2
 10
1716.319970799531
 20
1543.898446723746
 30
0.0
 11
1491.319970799532
 21
1593.898446723746
 31
0.0
 12
1074.587887120073
 22
1969.060487151364
 32
0.0
 70
    32
 71
     5
 42
-1.0
 73
     0
 74
     0
 75
     0
  3
MATSU
100
AcDbAlignedDimension
 13
1266.319970799532
 23
1692.653965372763
 33
0.0
 14
1716.319970799531
 24
1692.653965372763
 34
0.0
100
AcDbRotatedDimension
1001
ACAD
1000
DSTYLE
1002
{
1070
   282
1070
     1
1070
    40
1040
25.0
1002
}
  0
DIMENSION
  5
7CA1
330
19
100
AcDbEntity
  8
3
100
AcDbDimension
280
     0
  2
*D3
 10
1745.319970799531
 20
3126.661349151989
 30
0.0
 11
2110.319970799532
 21
3176.66134915199
 31
0.0
 12
1074.587887120073
 22
1969.060487151364
 32
0.0
 70
    32
 71
     5
 42
-1.0
 73
     0
 74
     0
 75
     0
  3
MATSU
100
AcDbAlignedDimension
 13
2475.319970799532
 23
2977.653965372763
 33
0.0
 14
1745.319970799531
 24
2977.653965372764
 34
0.0
100
AcDbRotatedDimension
1001
ACAD
1000
DSTYLE
1002
{
1070
   282
1070
     1
1070
    40
1040
25.0
1002
}
  0
DIMENSION
  5
7CA2
330
19
100
AcDbEntity
  8
3
100
AcDbDimension
280
     0
  2
*D4
 10
1716.319970799531
 20
3279.470122625655
 30
0.0
 11
2095.819970799532
 21
3329.470122625655
 31
0.0
 12
1074.587887120073
 22
1969.060487151364
 32
0.0
 70
    32
 71
     5
 42
-1.0
 73
     0
 74
     0
 75
     0
  3
MATSU
100
AcDbAlignedDimension
 13
2475.319970799532
 23
2977.653965372763
 33
0.0
 14
1716.319970799531
 24
3099.919804178193
 34
0.0
100
AcDbRotatedDimension
1001
ACAD
1000
DSTYLE
1002
{
1070
   282
1070
     1
1070
    40
1040
25.0
1002
}
  0
POINT
  5
7CA3
330
19
100
AcDbEntity
  8
1
100
AcDbPoint
 10
1266.319970799532
 20
1697.653965372763
 30
0.0
  0
POINT
  5
7CA4
330
19
100
AcDbEntity
  8
1
100
AcDbPoint
 10
1266.319970799532
 20
1692.653965372763
 30
0.0
  0
POINT
  5
7CA5
330
19
100
AcDbEntity
  8
1
100
AcDbPoint
 10
1266.319970799532
 20
1697.653965372763
 30
0.0
  0
POINT
  5
7CA6
330
19
100
AcDbEntity
  8
1
100
AcDbPoint
 10
1266.319970799532
 20
1732.653965372763
 30
0.0
  0
INSERT
  5
7CA7
330
19
100
AcDbEntity
  8
0
100
AcDbBlockReference
  2
YA_N
 10
-1018.773193578214
 20
-860.9217325598892
 30
0.0
 41
20.0
 42
20.0
 43
20.0
  0
POINT
  5
7CA9
330
19
100
AcDbEntity
  8
1
100
AcDbPoint
 10
1266.319970799532
 20
1792.653965372763
 30
0.0
  0
POINT
  5
7CAA
330
19
100
AcDbEntity
  8
1
100
AcDbPoint
 10
1266.319970799532
 20
1692.653965372763
 30
0.0
  0
POINT
  5
7CAB
330
19
100
AcDbEntity
  8
1
100
AcDbPoint
 10
1266.319970799532
 20
1792.653965372763
 30
0.0
  0
POINT
  5
7CAC
330
19
100
AcDbEntity
  8
1
100
AcDbPoint
 10
1266.319970799532
 20
1837.653965372763
 30
0.0
  0
LINE
  5
7CAD
330
19
100
AcDbEntity
  8
1
100
AcDbLine
 10
4548.990032450293
 20
1937.653965372763
 30
0.0
 11
4548.99003245029
 21
2977.653965372763
 31
0.0
  0
LINE
  5
7CAE
330
19
100
AcDbEntity
  8
1
100
AcDbLine
 10
3598.990032450291
 20
2349.653965372764
 30
0.0
 11
3598.990032450291
 21
2977.653965372763
 31
0.0
  0
DIMENSION
  5
7CAF
330
19
100
AcDbEntity
  8
3
100
AcDbDimension
280
     0
  2
*D5
 10
4073.99003245029
 20
1542.367991762592
 30
0.0
 11
3747.990032450291
 21
1592.367991762592
 31
0.0
 12
229.717958519821
 22
1969.060487151364
 32
0.0
 70
    32
 71
     5
 42
-1.0
 73
     0
 74
     0
 75
     0
  3
MATSU
100
AcDbAlignedDimension
 13
3421.990032450291
 23
1692.653965372763
 33
0.0
 14
4073.99003245029
 24
1692.653965372763
 34
0.0
100
AcDbRotatedDimension
1001
ACAD
1000
DSTYLE
1002
{
1070
   282
1070
     1
1070
    40
1040
25.0
1002
}
  0
DIMENSION
  5
7CB0
330
19
100
AcDbEntity
  8
3
100
AcDbDimension
280
     0
  2
*D6
 10
4601.990032450291
 20
1542.367991762592
 30
0.0
 11
4337.99003245029
 21
1592.367991762592
 31
0.0
 12
229.717958519821
 22
1969.060487151364
 32
0.0
 70
    32
 71
     5
 42
-1.0
 73
     0
 74
     0
 75
     0
  3
MATSU
100
AcDbAlignedDimension
 13
4073.99003245029
 23
1692.653965372763
 33
0.0
 14
4601.990032450291
 24
1692.653965372763
 34
0.0
100
AcDbRotatedDimension
1001
ACAD
1000
DSTYLE
1002
{
1070
   282
1070
     1
1070
    40
1040
25.0
1002
}
  0
LINE
  5
7CB2
330
19
100
AcDbEntity
  8
1
100
AcDbLine
 10
3585.990032450291
 20
2441.653965372764
 30
0.0
 11
3585.990032450291
 21
2349.653965372764
 31
0.0
  0
LINE
  5
7CB3
330
19
100
AcDbEntity
  8
1
100
AcDbLine
 10
3460.99003245029
 20
2349.653965372764
 30
0.0
 11
3460.990032450291
 21
2431.653965372763
 31
0.0
  0
LINE
  5
7CB4
330
19
100
AcDbEntity
  8
1
100
AcDbLine
 10
3470.99003245029
 20
2441.653965372764
 30
0.0
 11
3546.690032450289
 21
2441.653965372764
 31
0.0
  0
ARC
  5
7CB5
330
19
100
AcDbEntity
  8
1
100
AcDbCircle
 10
3470.99003245029
 20
2431.653965372763
 30
0.0
 40
10.0
100
AcDbArc
 50
90.0
 51
180.0
  0
LINE
  5
7CB6
330
19
100
AcDbEntity
  8
1
100
AcDbLine
 10
3546.690032450289
 20
2441.653965372764
 30
0.0
 11
3585.990032450291
 21
2441.653965372764
 31
0.0
  0
LINE
  5
7CB7
330
19
100
AcDbEntity
  8
1
100
AcDbLine
 10
4561.490032450289
 20
2342.453965372763
 30
0.0
 11
4561.490032450293
 21
2462.453965372763
 31
0.0
  0
LINE
  5
7CB8
330
19
100
AcDbEntity
  8
1
100
AcDbLine
 10
4651.490032450289
 20
2352.453965372763
 30
0.0
 11
4651.490032450292
 21
2452.453965372763
 31
0.0
  0
LINE
  5
7CB9
330
19
100
AcDbEntity
  8
1
100
AcDbLine
 10
4561.490032450293
 20
2462.453965372763
 30
0.0
 11
4601.290032450291
 21
2462.453965372763
 31
0.0
  0
LINE
  5
7CBA
330
19
100
AcDbEntity
  8
1
100
AcDbLine
 10
4561.490032450289
 20
2342.453965372763
 30
0.0
 11
4601.290032450291
 21
2342.453965372763
 31
0.0
  0
ARC
  5
7CBB
330
19
100
AcDbEntity
  8
1
100
AcDbCircle
 10
4641.490032450291
 20
2452.453965372763
 30
0.0
 40
10.0
100
AcDbArc
 50
359.9999999999984
 51
90.0
  0
ARC
  5
7CBC
330
19
100
AcDbEntity
  8
1
100
AcDbCircle
 10
4641.490032450289
 20
2352.453965372763
 30
0.0
 40
10.0
100
AcDbArc
 50
270.0
 51
359.9999999999984
  0
LINE
  5
7CBD
330
19
100
AcDbEntity
  8
1
100
AcDbLine
 10
4601.290032450291
 20
2342.453965372763
 30
0.0
 11
4641.490032450289
 21
2342.453965372763
 31
0.0
  0
LINE
  5
7CBE
330
19
100
AcDbEntity
  8
1
100
AcDbLine
 10
4601.290032450291
 20
2462.453965372763
 30
0.0
 11
4641.490032450291
 21
2462.453965372763
 31
0.0
  0
LINE
  5
7CBF
330
19
100
AcDbEntity
  8
1
100
AcDbLine
 10
3440.990032450291
 20
2505.153965372763
 30
0.0
 11
3598.990032450291
 21
2505.153965372763
 31
0.0
  0
LINE
  5
7CC0
330
19
100
AcDbEntity
  8
1
100
AcDbLine
 10
3440.990032450291
 20
2450.153965372763
 30
0.0
 11
3598.990032450291
 21
2450.153965372763
 31
0.0
  0
LINE
  5
7CC1
330
19
100
AcDbEntity
  8
1
100
AcDbLine
 10
3440.990032450291
 20
2450.153965372763
 30
0.0
 11
3440.990032450291
 21
2505.153965372763
 31
0.0
  0
LINE
  5
7CC2
330
19
100
AcDbEntity
  8
1
100
AcDbLine
 10
3410.99003245029
 20
2501.653965372764
 30
0.0
 11
3440.990032450291
 21
2501.653965372764
 31
0.0
  0
LINE
  5
7CC3
330
19
100
AcDbEntity
  8
1
100
AcDbLine
 10
3410.99003245029
 20
2453.653965372764
 30
0.0
 11
3440.990032450291
 21
2453.653965372764
 31
0.0
  0
LINE
  5
7CC4
330
19
100
AcDbEntity
  8
1
100
AcDbLine
 10
2916.319970799532
 20
1937.653965372763
 30
0.0
 11
2916.319970799532
 21
1977.653965372763
 31
0.0
  0
DIMENSION
  5
7CC5
330
19
100
AcDbEntity
  8
3
100
AcDbDimension
280
     0
  2
*D7
 10
1716.319970799531
 20
1544.89862337421
 30
0.0
 11
2341.319970799532
 21
1594.898623374211
 31
0.0
 12
1074.587887120073
 22
1969.060487151364
 32
0.0
 70
    32
 71
     5
 42
-1.0
 73
     0
 74
     0
 75
     0
  3
MATSU
100
AcDbAlignedDimension
 13
2966.319970799532
 23
1692.653965372763
 33
0.0
 14
1716.319970799531
 24
1692.653965372763
 34
0.0
100
AcDbRotatedDimension
1001
ACAD
1000
DSTYLE
1002
{
1070
   282
1070
     1
1070
    40
1040
25.0
1002
}
  0
ARC
  5
7CC7
330
19
100
AcDbEntity
  8
1
100
AcDbCircle
 10
1716.319970799531
 20
2477.653965372763
 30
0.0
 40
220.0
100
AcDbArc
 50
78.96579099674977
 51
258.9657909967497
  0
ARC
  5
7CC8
330
19
100
AcDbEntity
  8
1
100
AcDbCircle
 10
2716.319970799532
 20
2187.653965372764
 30
0.0
 40
220.0
100
AcDbArc
 50
258.9657909967497
 51
78.96579099674974
  0
LINE
  5
7CC9
330
19
100
AcDbEntity
  8
1
100
AcDbLine
 10
2758.42688210827
 20
2403.586843879113
 30
0.0
 11
1758.42688210827
 21
2693.586843879113
 31
0.0
  0
LINE
  5
7CCA
330
19
100
AcDbEntity
  8
1
100
AcDbLine
 10
2738.856902484386
 20
2292.253615038679
 30
0.0
 11
1743.069413079685
 21
2601.80495142483
 31
0.0
  0
LINE
  5
7CCB
330
19
100
AcDbEntity
  8
1
100
AcDbLine
 10
2697.906253873475
 20
2082.250288828882
 30
0.0
 11
1694.464437625614
 21
2352.548667044979
 31
0.0
  0
LINE
  5
7CCC
330
19
100
AcDbEntity
  8
1
100
AcDbLine
 10
2674.213059490794
 20
1971.721086866413
 30
0.0
 11
1674.213059490794
 21
2261.721086866414
 31
0.0
  0
DIMENSION
  5
7CCD
330
19
100
AcDbEntity
  8
3
100
AcDbDimension
280
     0
  2
*D8
 10
4548.99003245029
 20
3097.972408845128
 30
0.0
 11
4073.99003245029
 21
3147.972408845128
 31
0.0
 12
229.717958519821
 22
1969.060487151364
 32
0.0
 70
    32
 71
     5
 42
-1.0
 73
     0
 74
     0
 75
     0
  3
MATSU
100
AcDbAlignedDimension
 13
3598.990032450291
 23
2963.636033558107
 33
0.0
 14
4548.99003245029
 24
2963.636033558107
 34
0.0
100
AcDbRotatedDimension
1001
ACAD
1000
DSTYLE
1002
{
1070
   282
1070
     1
1070
    40
1040
25.0
1002
}
  0
POINT
  5
7CCE
330
19
100
AcDbEntity
  8
1
100
AcDbPoint
 10
4651.490032450292
 20
2452.453965372763
 30
0.0
  0
DIMENSION
  5
7CCF
330
19
100
AcDbEntity
  8
3
100
AcDbDimension
280
     0
  2
*D9
 10
4800.992042795602
 20
2832.653965372763
 30
0.0
 11
4750.992042795602
 21
2477.653965372763
 31
0.0
 12
229.717958519821
 22
1969.060487151364
 32
0.0
 70
    32
  1
φ<>
 71
     5
 42
-1.0
 73
     0
 74
     0
 75
     0
  3
MATSU
100
AcDbAlignedDimension
 13
4554.490032450289
 23
2122.653965372763
 33
0.0
 14
4554.490032450289
 24
2832.653965372763
 34
0.0
 50
90.0
100
AcDbRotatedDimension
1001
ACAD
1000
DSTYLE
1002
{
1070
   282
1070
     1
1070
    40
1040
25.0
1002
}
  0
LINE
  5
7CD0
330
19
100
AcDbEntity
  8
1
100
AcDbLine
 10
1266.319970799532
 20
5355.28611322741
 30
0.0
 11
2166.319970799532
 21
5355.286113227412
 31
0.0
  0
LINE
  5
7CD1
330
19
100
AcDbEntity
  8
1
100
AcDbLine
 10
1266.319970799532
 20
4175.286113227411
 30
0.0
 11
2966.319970799532
 21
4175.286113227413
 31
0.0
  0
LINE
  5
7CD2
330
19
100
AcDbEntity
  8
1
100
AcDbLine
 10
1266.319970799532
 20
5355.28611322741
 30
0.0
 11
1266.319970799532
 21
5302.286113227412
 31
0.0
  0
LINE
  5
7CD3
330
19
100
AcDbEntity
  8
1
100
AcDbLine
 10
2166.319970799532
 20
5355.286113227412
 30
0.0
 11
2166.319970799532
 21
5302.286113227413
 31
0.0
  0
LINE
  5
7CD4
330
19
100
AcDbEntity
  8
1
100
AcDbLine
 10
2966.319970799532
 20
4925.286113227412
 30
0.0
 11
2966.319970799532
 21
4175.286113227413
 31
0.0
  0
LINE
  5
7CD5
330
19
100
AcDbEntity
  8
1
100
AcDbLine
 10
2475.319970799532
 20
4925.286113227412
 30
0.0
 11
2966.319970799531
 21
4925.286113227413
 31
0.0
  0
DIMENSION
  5
7CD6
330
19
100
AcDbEntity
  8
3
100
AcDbDimension
280
     0
  2
*D10
 10
1266.319970799532
 20
5655.123737227849
 30
0.0
 11
1716.319970799531
 21
5705.123737227848
 31
0.0
 12
1074.587887120073
 22
1401.752802692073
 32
0.0
 70
    32
 71
     5
 42
-1.0
 73
     0
 74
     0
 75
     0
  3
MATSU
100
AcDbAlignedDimension
 13
2166.319970799532
 23
5355.286113227412
 33
0.0
 14
1266.319970799532
 24
5355.28611322741
 34
0.0
100
AcDbRotatedDimension
1001
ACAD
1000
DSTYLE
1002
{
1070
   282
1070
     1
1070
    40
1040
25.0
1002
}
  0
DIMENSION
  5
7CD7
330
19
100
AcDbEntity
  8
3
100
AcDbDimension
280
     0
  2
*D11
 10
967.6812541502458
 20
4175.286113227411
 30
0.0
 11
917.6812541502458
 21
4765.286113227411
 31
0.0
 12
1074.587887120073
 22
1401.752802692073
 32
0.0
 70
    32
 71
     5
 42
-1.0
 73
     0
 74
     0
 75
     0
  3
MATSU
100
AcDbAlignedDimension
 13
1266.319970799532
 23
5355.28611322741
 33
0.0
 14
1266.319970799532
 24
4175.286113227411
 34
0.0
 50
270.0
100
AcDbRotatedDimension
1001
ACAD
1000
DSTYLE
1002
{
1070
   282
1070
     1
1070
    40
1040
25.0
1002
}
  0
DIMENSION
  5
7CD8
330
19
100
AcDbEntity
  8
3
100
AcDbDimension
280
     0
  2
*D12
 10
3264.92572190643
 20
4175.286113227413
 30
0.0
 11
3214.92572190643
 21
4550.286113227413
 31
0.0
 12
1074.587887120073
 22
1401.752802692073
 32
0.0
 70
    32
 71
     5
 42
-1.0
 73
     0
 74
     0
 75
     0
  3
MATSU
100
AcDbAlignedDimension
 13
2966.319970799531
 23
4925.286113227413
 33
0.0
 14
2966.319970799532
 24
4175.286113227413
 34
0.0
 50
270.0
100
AcDbRotatedDimension
1001
ACAD
1000
DSTYLE
1002
{
1070
   282
1070
     1
1070
    40
1040
25.0
1002
}
  0
DIMENSION
  5
7CD9
330
19
100
AcDbEntity
  8
3
100
AcDbDimension
280
     0
  2
*D13
 10
1266.319970799532
 20
3753.36552550643
 30
0.0
 11
2116.319970799532
 21
3753.36552550643
 31
0.0
 12
1074.587887120073
 22
1401.752802692073
 32
0.0
 70
   160
 71
     5
 42
-1.0
 73
     0
 74
     0
 75
     0
  3
MATSU
100
AcDbAlignedDimension
 13
2966.319970799532
 23
4175.286113227413
 33
0.0
 14
1266.319970799532
 24
4175.286113227411
 34
0.0
100
AcDbRotatedDimension
1001
ACAD
1000
DSTYLE
1002
{
1070
   282
1070
     1
1070
    40
1040
25.0
1002
}
  0
DIMENSION
  5
7CDA
330
19
100
AcDbEntity
  8
3
100
AcDbDimension
280
     0
  2
*D14
 10
2166.319970799532
 20
5655.123737227849
 30
0.0
 11
2566.319970799532
 21
5705.123737227848
 31
0.0
 12
1074.587887120073
 22
1401.752802692073
 32
0.0
 70
    32
 71
     5
 42
-1.0
 73
     0
 74
     0
 75
     0
  3
MATSU
100
AcDbAlignedDimension
 13
2966.319970799531
 23
4925.286113227413
 33
0.0
 14
2166.319970799532
 24
5355.286113227412
 34
0.0
100
AcDbRotatedDimension
1001
ACAD
1000
DSTYLE
1002
{
1070
   282
1070
     1
1070
    40
1040
25.0
1002
}
  0
DIMENSION
  5
7CDB
330
19
100
AcDbEntity
  8
3
100
AcDbDimension
280
     0
  2
*D15
 10
915.5661565142164
 20
1837.653965372763
 30
0.0
 11
865.5661565142164
 21
2157.653965372763
 31
0.0
 12
1074.587887120073
 22
1969.060487151364
 32
0.0
 70
    32
 71
     5
 42
-1.0
 73
     0
 74
     0
 75
     0
  3
MATSU
100
AcDbAlignedDimension
 13
1094.054131994102
 23
2477.653965372763
 33
0.0
 14
1266.319970799532
 24
1837.653965372763
 34
0.0
 50
270.0
100
AcDbRotatedDimension
1001
ACAD
1000
DSTYLE
1002
{
1070
   282
1070
     1
1070
    40
1040
25.0
1002
}
  0
POINT
  5
7CDC
330
19
100
AcDbEntity
  8
1
100
AcDbPoint
 10
1266.319970799532
 20
1792.653965372763
 30
0.0
  0
POINT
  5
7CDD
330
19
100
AcDbEntity
  8
1
100
AcDbPoint
 10
1266.319970799532
 20
1692.653965372763
 30
0.0
  0
POINT
  5
7CE0
330
19
100
AcDbEntity
  8
1
100
AcDbPoint
 10
1266.319970799532
 20
1792.653965372763
 30
0.0
  0
POINT
  5
7CE1
330
19
100
AcDbEntity
  8
1
100
AcDbPoint
 10
1266.319970799532
 20
1837.653965372763
 30
0.0
  0
CIRCLE
  5
7CE2
330
19
100
AcDbEntity
  8
1
100
AcDbCircle
 10
1716.319970799531
 20
2477.653965372763
 30
0.0
 40
355.0
  0
CIRCLE
  5
7CE3
330
19
100
AcDbEntity
  8
1
100
AcDbCircle
 10
1716.319970799531
 20
2477.653965372763
 30
0.0
 40
395.0
  0
LINE
  5
7CE4
330
19
100
AcDbEntity
  8
1
100
AcDbLine
 10
3558.990032450291
 20
2977.653965372763
 30
0.0
 11
4588.99003245029
 21
2977.653965372763
 31
0.0
  0
DIMENSION
  5
7CE5
330
19
100
AcDbEntity
  8
3
100
AcDbDimension
280
     0
  2
*D16
 10
915.5661565142164
 20
1792.653965372763
 30
0.0
 11
795.9232993713595
 21
1815.153965372763
 31
0.0
 12
303.6251285760554
 22
0.0
 32
0.0
 70
    32
  1
(<>)
 71
     5
 42
-1.0
 73
     0
 74
     0
 75
     0
  3
IGA
100
AcDbAlignedDimension
 13
1266.319970799532
 23
1837.653965372763
 33
0.0
 14
1266.319970799532
 24
1792.653965372763
 34
0.0
 50
270.0
100
AcDbRotatedDimension
1001
ACAD
1000
DSTYLE
1002
{
1070
   288
1070
     1
1070
   172
1070
     1
1070
    40
1040
25.0
1070
   271
1070
     0
1070
     7
1000
_DOT
1070
   143
1040
0.039
1002
}
  0
DIMENSION
  5
7CE6
330
19
100
AcDbEntity
  8
3
100
AcDbDimension
280
     0
  2
*D17
 10
915.5661565142164
 20
1692.653965372763
 30
0.0
 11
853.066156514216
 21
1478.368251087049
 31
0.0
 70
    32
 71
     5
 42
-1.0
 73
     0
 74
     0
 75
     0
  3
IGA
100
AcDbAlignedDimension
 13
1266.319970799532
 23
1792.653965372763
 33
0.0
 14
1266.319970799532
 24
1692.653965372763
 34
0.0
 50
270.0
100
AcDbRotatedDimension
1001
ACAD
1000
DSTYLE
1002
{
1070
   287
1070
     3
1070
    40
1040
25.0
1070
   143
1040
0.039
1070
   172
1070
     1
1070
   271
1070
     0
1070
   279
1070
     0
1070
   288
1070
     1
1070
     6
1000
DOT
1002
}
  0
DIMENSION
  5
7CE7
330
19
100
AcDbEntity
  8
3
100
AcDbDimension
280
     0
  2
*D18
 10
4073.99003245029
 20
3237.359869930195
 30
0.0
 11
4362.74003245029
 21
3307.002727073051
 31
0.0
 12
229.717958519821
 22
1969.060487151364
 32
0.0
 70
    32
  1
(620)
 71
     5
 42
-1.0
 73
     0
 74
     0
 75
     0
  3
MATSU
100
AcDbAlignedDimension
 13
4651.490032450292
 23
2452.453965372763
 33
0.0
 14
4073.99003245029
 24
3208.471438965447
 34
0.0
100
AcDbRotatedDimension
1001
ACAD
1000
DSTYLE
1002
{
1070
   282
1070
     1
1070
    40
1040
25.0
1002
}
  0
LINE
  5
7CE9
330
19
100
AcDbEntity
  8
1
100
AcDbLine
 10
4073.99003245029
 20
3202.335678591644
 30
0.0
 11
4073.99003245029
 21
3208.471438965447
 31
0.0
  0
LINE
  5
7CEA
330
19
100
AcDbEntity
  8
1
100
AcDbLine
 10
3421.990032450291
 20
1692.653965372763
 30
0.0
 11
4601.990032450291
 21
1692.653965372763
 31
0.0
1001
ACAD
1000
ASC_BOUNDS
1002
{
1070
    19
1002
}
  0
LINE
  5
7CEB
330
19
100
AcDbEntity
  8
1
100
AcDbLine
 10
3421.990032450291
 20
1792.653965372763
 30
0.0
 11
3421.990032450291
 21
1692.653965372763
 31
0.0
  0
LINE
  5
7CEC
330
19
100
AcDbEntity
  8
1
100
AcDbLine
 10
1210.319970799532
 20
5302.286113227412
 30
0.0
 11
2475.319970799532
 21
5302.286113227412
 31
0.0
  0
LINE
  5
7CED
330
19
100
AcDbEntity
  8
1
100
AcDbLine
 10
1210.319970799532
 20
4352.28611322741
 30
0.0
 11
2475.319970799532
 21
4352.286113227413
 31
0.0
  0
LINE
  5
7CEE
330
19
100
AcDbEntity
  8
1
100
AcDbLine
 10
2554.319970799532
 20
4610.286113227412
 30
0.0
 11
2554.319970799532
 21
4125.286113227412
 31
0.0
  0
LINE
  5
7CEF
330
19
100
AcDbEntity
  8
1
100
AcDbLine
 10
2878.319970799532
 20
4610.286113227412
 30
0.0
 11
2878.319970799531
 21
4125.286113227412
 31
0.0
  0
LINE
  5
7CF0
330
19
100
AcDbEntity
  8
1
100
AcDbLine
 10
1496.319970799532
 20
3987.286113227411
 30
0.0
 11
2936.319970799532
 21
3987.286113227412
 31
0.0
  0
LINE
  5
7CF1
330
19
100
AcDbEntity
  8
1
100
AcDbLine
 10
1496.319970799532
 20
3987.286113227411
 30
0.0
 11
1496.319970799532
 21
4137.286113227411
 31
0.0
  0
LINE
  5
7CF2
330
19
100
AcDbEntity
  8
1
100
AcDbLine
 10
2936.319970799532
 20
3987.286113227412
 30
0.0
 11
2936.319970799532
 21
4137.286113227413
 31
0.0
  0
LINE
  5
7CF3
330
19
100
AcDbEntity
  8
1
100
AcDbLine
 10
1496.319970799532
 20
4137.286113227411
 30
0.0
 11
2936.319970799532
 21
4137.286113227413
 31
0.0
  0
LINE
  5
7CF4
330
19
100
AcDbEntity
  8
1
100
AcDbLine
 10
1589.319970799532
 20
4007.286113227411
 30
0.0
 11
1843.319970799532
 21
4007.286113227412
 31
0.0
  0
LINE
  5
7CF5
330
19
100
AcDbEntity
  8
1
100
AcDbLine
 10
1589.319970799532
 20
4092.286113227411
 30
0.0
 11
1843.319970799532
 21
4092.286113227411
 31
0.0
  0
LINE
  5
7CF6
330
19
100
AcDbEntity
  8
1
100
AcDbLine
 10
1843.319970799532
 20
4092.286113227411
 30
0.0
 11
1843.319970799532
 21
4007.286113227411
 31
0.0
  0
LINE
  5
7CF7
330
19
100
AcDbEntity
  8
1
100
AcDbLine
 10
1589.319970799532
 20
4092.286113227411
 30
0.0
 11
1589.319970799532
 21
4007.286113227411
 31
0.0
  0
LINE
  5
7CF8
330
19
100
AcDbEntity
  8
1
100
AcDbLine
 10
2609.319970799531
 20
4092.286113227411
 30
0.0
 11
2609.319970799531
 21
4007.286113227412
 31
0.0
  0
LINE
  5
7CF9
330
19
100
AcDbEntity
  8
1
100
AcDbLine
 10
2823.319970799531
 20
4092.286113227411
 30
0.0
 11
2823.319970799531
 21
4007.286113227412
 31
0.0
  0
LINE
  5
7CFA
330
19
100
AcDbEntity
  8
1
100
AcDbLine
 10
2609.319970799531
 20
4007.286113227412
 30
0.0
 11
2823.319970799531
 21
4007.286113227412
 31
0.0
  0
LINE
  5
7CFB
330
19
100
AcDbEntity
  8
1
100
AcDbLine
 10
2609.319970799531
 20
4092.286113227411
 30
0.0
 11
2823.319970799531
 21
4092.286113227411
 31
0.0
  0
LINE
  5
7CFC
330
19
100
AcDbEntity
  8
1
100
AcDbLine
 10
2554.319970799532
 20
4610.286113227412
 30
0.0
 11
2878.319970799532
 21
4610.286113227412
 31
0.0
  0
LINE
  5
7CFD
330
19
100
AcDbEntity
  8
1
100
AcDbLine
 10
2554.319970799533
 20
4125.286113227412
 30
0.0
 11
2878.319970799532
 21
4125.286113227412
 31
0.0
  0
LINE
  5
7CFE
330
19
100
AcDbEntity
  8
1
100
AcDbLine
 10
2695.319970799531
 20
4125.286113227412
 30
0.0
 11
2695.319970799531
 21
4092.286113227411
 31
0.0
  0
LINE
  5
7CFF
330
19
100
AcDbEntity
  8
1
100
AcDbLine
 10
2737.319970799531
 20
4125.286113227412
 30
0.0
 11
2737.319970799531
 21
4092.286113227411
 31
0.0
  0
LINE
  5
7D00
330
19
100
AcDbEntity
  8
1
100
AcDbLine
 10
1688.819970799532
 20
4352.286113227412
 30
0.0
 11
1688.819970799532
 21
4092.286113227411
 31
0.0
  0
LINE
  5
7D01
330
19
100
AcDbEntity
  8
1
100
AcDbLine
 10
1743.819970799532
 20
4352.286113227412
 30
0.0
 11
1743.819970799532
 21
4092.286113227411
 31
0.0
  0
LINE
  5
7D02
330
19
100
AcDbEntity
  8
1
100
AcDbLine
 10
3928.990032450291
 20
2025.653965372764
 30
0.0
 11
3443.990032450291
 21
2025.653965372764
 31
0.0
  0
LINE
  5
7D03
330
19
100
AcDbEntity
  8
1
100
AcDbLine
 10
3598.990032450291
 20
2349.653965372764
 30
0.0
 11
3585.99003245029
 21
2349.653965372764
 31
0.0
  0
LINE
  5
7D04
330
19
100
AcDbEntity
  8
1
100
AcDbLine
 10
3443.990032450291
 20
2025.653965372766
 30
0.0
 11
3443.990032450293
 21
2349.653965372766
 31
0.0
  0
LINE
  5
7D05
330
19
100
AcDbEntity
  8
1
100
AcDbLine
 10
3443.990032450292
 20
2208.653965372764
 30
0.0
 11
3410.990032450293
 21
2208.653965372764
 31
0.0
  0
LINE
  5
7D06
330
19
100
AcDbEntity
  8
1
100
AcDbLine
 10
3443.990032450292
 20
2166.653965372765
 30
0.0
 11
3410.990032450293
 21
2166.653965372765
 31
0.0
  0
LINE
  5
7D0D
330
19
100
AcDbEntity
  8
1
100
AcDbLine
 10
1266.319970799532
 20
4352.286113227409
 30
0.0
 11
1266.319970799532
 21
4175.286113227412
 31
0.0
  0
LINE
  5
7D11
330
19
100
AcDbEntity
  8
1
100
AcDbLine
 10
3558.990032450291
 20
2974.653965372763
 30
0.0
 11
3558.990032450291
 21
2977.653965372763
 31
0.0
  0
LINE
  5
7D12
330
19
100
AcDbEntity
  8
1
100
AcDbLine
 10
4588.990032450289
 20
2974.653965372763
 30
0.0
 11
4588.990032450289
 21
2977.653965372763
 31
0.0
  0
LINE
  5
7D13
330
19
100
AcDbEntity
  8
1
100
AcDbLine
 10
3558.990032450291
 20
2974.653965372763
 30
0.0
 11
4588.99003245029
 21
2974.653965372763
 31
0.0
  0
LINE
  5
7D14
330
19
100
AcDbEntity
  8
1
100
AcDbLine
 10
3928.990032450292
 20
2349.653965372766
 30
0.0
 11
3443.990032450293
 21
2349.653965372764
 31
0.0
  0
LINE
  5
7D15
330
19
100
AcDbEntity
  8
1
100
AcDbLine
 10
2475.319970799532
 20
5302.286113227412
 30
0.0
 11
2475.319970799532
 21
4352.286113227413
 31
0.0
  0
LINE
  5
7D16
330
19
100
AcDbEntity
  8
1
100
AcDbLine
 10
1210.319970799532
 20
5302.286113227412
 30
0.0
 11
1210.319970799532
 21
4352.28611322741
 31
0.0
  0
LINE
  5
7D17
330
19
100
AcDbEntity
  8
1
100
AcDbLine
 10
1745.319970799531
 20
5302.286113227412
 30
0.0
 11
1745.319970799531
 21
4352.286113227413
 31
0.0
  0
LINE
  5
7D18
330
19
100
AcDbEntity
  8
1
100
AcDbLine
 10
1745.319970799531
 20
5302.286113227412
 30
0.0
 11
2475.319970799532
 21
4352.286113227413
 31
0.0
  0
LINE
  5
7D19
330
19
100
AcDbEntity
  8
1
100
AcDbLine
 10
2475.319970799532
 20
5302.286113227412
 30
0.0
 11
1745.319970799531
 21
4352.286113227412
 31
0.0
  0
LINE
  5
7D1A
330
19
100
AcDbEntity
  8
1
100
AcDbLine
 10
3928.990032450291
 20
2025.653965372764
 30
0.0
 11
3928.990032450292
 21
2349.653965372764
 31
0.0
  0
LINE
  5
7D1C
330
19
100
AcDbEntity
  8
1
100
AcDbLine
 10
3506.471238468054
 20
1977.653965372763
 30
0.0
 11
3860.647869800989
 21
1977.653965372763
 31
0.0
  0
LINE
  5
7D1D
330
19
100
AcDbEntity
  8
1
100
AcDbLine
 10
3860.647869800989
 20
2025.653965372764
 30
0.0
 11
3860.64786980099
 21
1937.653965372763
 31
0.0
  0
LINE
  5
7D1E
330
19
100
AcDbEntity
  8
1
100
AcDbLine
 10
3506.471238468054
 20
2025.653965372764
 30
0.0
 11
3506.471238468053
 21
1937.653965372763
 31
0.0
  0
LINE
  5
7F4D
330
19
100
AcDbEntity
  8
4
100
AcDbLine
 10
4625.0
 20
1008.429666174044
 30
0.0
 11
4625.0
 21
508.4296661740444
 31
0.0
  0
LINE
  5
7F4E
330
19
100
AcDbEntity
  8
4
100
AcDbLine
 10
2875.0
 20
1008.429666174044
 30
0.0
 11
2875.0
 21
508.4296661740444
 31
0.0
  0
LINE
  5
7F4F
330
19
100
AcDbEntity
  8
4
100
AcDbLine
 10
1625.0
 20
1008.429666174044
 30
0.0
 11
1625.0
 21
508.4296661740444
 31
0.0
  0
LINE
  5
7F52
330
19
100
AcDbEntity
  8
4
100
AcDbLine
 10
1625.0
 20
508.4296661740445
 30
0.0
 11
4625.0
 21
508.4296661740445
 31
0.0
  0
LINE
  5
7F53
330
19
100
AcDbEntity
  8
4
100
AcDbLine
 10
1625.0
 20
758.4296661740445
 30
0.0
 11
4625.0
 21
758.4296661740445
 31
0.0
  0
TEXT
  5
7F54
330
19
100
AcDbEntity
  8
4
100
AcDbText
 10
1721.255202117254
 20
837.2872308405767
 30
0.0
 40
125.0
  1
機器名称
100
AcDbText
  0
TEXT
  5
7F55
330
19
100
AcDbEntity
  8
4
100
AcDbText
 10
1715.645265061994
 20
562.5425580040719
 30
0.0
 40
125.0
  1
機器型番
100
AcDbText
  0
TEXT
  5
7F56
330
19
100
AcDbEntity
  8
4
100
AcDbText
 10
2948.086555811345
 20
826.5383269572216
 30
0.0
 40
100.0
  1
ミツヤリミットロードファン
100
AcDbText
  0
TEXT
  5
7F57
330
19
100
AcDbEntity
  8
4
100
AcDbText
 10
2966.636238963701
 20
551.328626873903
 30
0.0
 40
125.0
  1
LL#4 1/2-5
100
AcDbText
  0
TEXT
  5
7F59
330
19
100
AcDbEntity
  8
4
100
AcDbText
 10
2024.344742216868
 20
5958.572103331289
 30
0.0
 40
135.0
  1
床置防振ベット
100
AcDbText
  0
TEXT
  5
7F5A
330
19
100
AcDbEntity
  8
4
100
AcDbText
 10
790.4189833236159
 20
6334.702440498245
 30
0.0
 40
180.0
  1
遠心式両吸込両持リミットロードファン
100
AcDbText
  0
LINE
  5
7F5B
330
19
100
AcDbEntity
  8
4
100
AcDbLine
 10
625.0
 20
6173.521885662012
 30
0.0
 11
4625.0
 21
6173.521885662012
 31
0.0
  0
LINE
  5
7F5C
330
19
100
AcDbEntity
  8
4
100
AcDbLine
 10
625.0
 20
6673.521885662012
 30
0.0
 11
4625.0
 21
6673.521885662012
 31
0.0
  0
LINE
  5
7F5D
330
19
100
AcDbEntity
  8
4
100
AcDbLine
 10
1625.0
 20
1008.429666174044
 30
0.0
 11
4625.0
 21
1008.429666174044
 31
0.0
  0
LINE
  5
7F5E
330
19
100
AcDbEntity
  8
4
100
AcDbLine
 10
625.0
 20
6673.521885662012
 30
0.0
 11
625.0
 21
6173.521885662012
 31
0.0
  0
TEXT
  5
7F5F
330
19
100
AcDbEntity
  8
4
100
AcDbText
 10
934.6976616101128
 20
5955.798693865858
 30
0.0
 40
135.0
  1
左回転上向
100
AcDbText
  0
TEXT
  5
7F60
330
19
100
AcDbEntity
  8
4
100
AcDbText
 10
3672.423898123225
 20
6765.152703738272
 30
0.0
 40
140.0
  1
No.
100
AcDbText
  0
TEXT
  5
7F61
330
19
100
AcDbEntity
  8
4
100
AcDbText
 10
3278.240156500033
 20
5958.572103331289
 30
0.0
 40
135.0
  1
縮尺：1/25
100
AcDbText
  0
LINE
  5
7F62
330
19
100
AcDbEntity
  8
4
100
AcDbLine
 10
4625.0
 20
6673.521885662012
 30
0.0
 11
4625.0
 21
6173.521885662012
 31
0.0
  0
LINE
  5
7F63
330
19
100
AcDbEntity
  8
4
100
AcDbLine
 10
5250.0
 20
7375.0
 30
0.0
 11
5250.0
 21
7375.0
 31
0.0
  0
LINE
  5
7F64
330
19
100
AcDbEntity
  8
4
100
AcDbLine
 10
3601.543555899662
 20
6703.158957813503
 30
0.0
 11
3601.543555899662
 21
6966.630653874381
 31
0.0
  0
LINE
  5
7F65
330
19
100
AcDbEntity
  8
4
100
AcDbLine
 10
3601.543555899662
 20
6966.630653874381
 30
0.0
 11
4625.0
 21
6966.630653874381
 31
0.0
  0
LINE
  5
7F66
330
19
100
AcDbEntity
  8
4
100
AcDbLine
 10
4625.0
 20
6966.630653874381
 30
0.0
 11
4625.0
 21
6703.158957813503
 31
0.0
  0
LINE
  5
7F67
330
19
100
AcDbEntity
  8
4
100
AcDbLine
 10
4625.0
 20
6703.158957813503
 30
0.0
 11
3601.543555899662
 21
6703.158957813503
 31
0.0
  0
LINE
  5
7F68
330
19
100
AcDbEntity
  8
4
100
AcDbLine
 10
0.0
 20
0.0
 30
0.0
 11
0.0
 21
7375.0
 31
0.0
  0
LINE
  5
7F69
330
19
100
AcDbEntity
  8
4
100
AcDbLine
 10
0.0
 20
7375.0
 30
0.0
 11
5250.0
 21
7375.0
 31
0.0
  0
LINE
  5
7F6A
330
19
100
AcDbEntity
  8
4
100
AcDbLine
 10
5250.0
 20
7375.0
 30
0.0
 11
5250.0
 21
0.0
 31
0.0
  0
LINE
  5
7F6B
330
19
100
AcDbEntity
  8
4
100
AcDbLine
 10
5250.0
 20
0.0
 30
0.0
 11
0.0
 21
0.0
 31
0.0
  0
DIMENSION
  5
800A
330
19
100
AcDbEntity
  8
3
100
AcDbDimension
280
     0
  2
*D24
 10
689.8527379132574
 20
1692.653965372763
 30
0.0
 11
607.7098807704003
 21
2335.153965372764
 31
0.0
 70
    32
 71
     5
 42
-1.0
 73
     0
 74
     0
 75
     0
  3
IGA
100
AcDbAlignedDimension
 13
1703.319970799532
 23
2977.653965372764
 33
0.0
 14
1266.319970799532
 24
1692.653965372763
 34
0.0
 50
90.0
100
AcDbRotatedDimension
1001
ACAD
1000
DSTYLE
1002
{
1070
   172
1070
     1
1070
    40
1040
25.0
1070
     3
1000
(<>)
1070
   271
1070
     0
1070
   143
1040
0.039
1002
}
  0
LINE
  5
81C5
330
19
100
AcDbEntity
  8
1
100
AcDbLine
 10
2474.961461176352
 20
2974.653965372763
 30
0.0
 11
2411.99411715538
 21
2447.744728216821
 31
0.0
  0
ARC
  5
81C6
330
19
100
AcDbEntity
  8
1
100
AcDbCircle
 10
1769.319970799531
 20
2530.653965372765
 30
0.0
 40
648.0
100
AcDbArc
 50
293.7767343658823
 51
352.6490639824706
  0
ARC
  5
81C7
330
19
100
AcDbEntity
  8
1
100
AcDbCircle
 10
1769.319970799531
 20
2424.653965372765
 30
0.0
 40
541.9999999999998
100
AcDbArc
 50
180.0
 51
243.9647248681571
  0
ARC
  5
81C8
330
19
100
AcDbEntity
  8
1
100
AcDbCircle
 10
1675.319970799531
 20
2436.653965372765
 30
0.0
 40
448.0
100
AcDbArc
 50
90.0
 51
180.0
  0
ARC
  5
81C9
330
19
100
AcDbEntity
  8
1
100
AcDbCircle
 10
1675.319970799532
 20
2518.653965372765
 30
0.0
 40
366.0
100
AcDbArc
 50
78.97385951873899
 51
90.0
  0
LINE
  5
81CA
330
19
100
AcDbEntity
  8
1
100
AcDbLine
 10
1745.319970799531
 20
2977.653965372765
 30
0.0
 11
1745.319970799531
 21
2877.897615281849
 31
0.0
  0
LINE
  5
81CB
330
19
100
AcDbEntity
  8
1
100
AcDbLine
 10
2517.319970799531
 20
2977.653965372763
 30
0.0
 11
1703.319970799532
 21
2977.653965372765
 31
0.0
  0
LINE
  5
81CC
330
19
100
AcDbEntity
  8
1
100
AcDbLine
 10
2517.319970799531
 20
2977.653965372763
 30
0.0
 11
2517.319970799532
 21
2974.653965372763
 31
0.0
  0
LINE
  5
81CD
330
19
100
AcDbEntity
  8
1
100
AcDbLine
 10
1703.319970799532
 20
2977.653965372765
 30
0.0
 11
1703.319970799532
 21
2974.653965372764
 31
0.0
  0
LINE
  5
81CE
330
19
100
AcDbEntity
  8
1
100
AcDbLine
 10
2471.870739226927
 20
2937.653965372764
 30
0.0
 11
1745.319970799531
 21
2937.653965372764
 31
0.0
  0
LINE
  5
81CF
330
19
100
AcDbEntity
  8
1
100
AcDbLine
 10
2517.319970799532
 20
2974.653965372763
 30
0.0
 11
1703.319970799532
 21
2974.653965372764
 31
0.0
  0
POINT
  5
81D0
330
19
100
AcDbEntity
  8
1
100
AcDbPoint
 10
1716.319970799531
 20
2937.836537837215
 30
0.0
 50
270.0
  0
LINE
  5
81D1
330
19
100
AcDbEntity
  8
1
100
AcDbLine
 10
1716.319970799531
 20
2981.135771005257
 30
0.0
 11
1716.319970799531
 21
2996.809076421572
 31
0.0
  0
LINE
  5
81D4
330
19
100
AcDbEntity
  8
1
100
AcDbLine
 10
1227.319970799531
 20
2436.653965372765
 30
0.0
 11
1227.319970799531
 21
2424.653965372765
 31
0.0
  0
DIMENSION
  5
8277
330
19
100
AcDbEntity
  8
3
100
AcDbDimension
280
     0
  2
*D41
 10
1227.319970799531
 20
3279.470122625655
 30
0.0
 11
1471.819970799531
 21
3341.970122625655
 31
0.0
 70
    32
 71
     5
 42
489.0000000000009
 73
     0
 74
     0
 75
     0
  3
IGA
100
AcDbAlignedDimension
 13
1716.319970799531
 23
3307.705249829905
 33
0.0
 14
1227.319970799531
 24
2436.653965372765
 34
0.0
100
AcDbRotatedDimension
1001
ACAD
1000
DSTYLE
1002
{
1070
     3
1000
<>
1070
    40
1040
25.0
1070
   143
1040
0.039
1070
   172
1070
     1
1070
   271
1070
     0
1002
}
  0
DIMENSION
  5
8284
330
19
100
AcDbEntity
  8
3
100
AcDbDimension
280
     0
  2
*D42
 10
2966.319970799532
 20
3427.792731373811
 30
0.0
 11
2096.819970799531
 21
3490.292731373811
 31
0.0
 70
    32
 71
     5
 42
1739.0
 73
     0
 74
     0
 75
     0
  3
IGA
100
AcDbAlignedDimension
 13
1227.319970799531
 23
2424.653965372765
 33
0.0
 14
2966.319970799532
 24
1937.653965372763
 34
0.0
100
AcDbRotatedDimension
1001
ACAD
1000
DSTYLE
1002
{
1070
     3
1000
<>
1070
    40
1040
25.0
1070
   143
1040
0.039
1070
   172
1070
     1
1070
   271
1070
     0
1002
}
  0
DIMENSION
  5
82C6
330
19
100
AcDbEntity
  8
3
100
AcDbDimension
280
     0
  2
*D43
 10
4073.99003245029
 20
3237.359869930195
 30
0.0
 11
3653.990032450291
 21
3319.502727073052
 31
0.0
 70
    32
 71
     5
 42
840.0
 73
     0
 74
     0
 75
     0
  3
IGA
100
AcDbAlignedDimension
 13
3233.990032450291
 23
2697.653965372763
 33
0.0
 14
4073.99003245029
 24
3202.335678591644
 34
0.0
100
AcDbRotatedDimension
1001
ACAD
1000
DSTYLE
1002
{
1070
     3
1000
(<>)
1070
    40
1040
25.0
1070
   143
1040
0.039
1070
   172
1070
     1
1070
   271
1070
     0
1002
}
  0
DIMENSION
  5
82E5
330
19
100
AcDbEntity
  8
3
100
AcDbDimension
280
     0
  2
*D44
 10
915.5661565142164
 20
2977.653965372765
 30
0.0
 11
853.0661565142157
 21
2727.653965372764
 31
0.0
 70
    32
 71
     5
 42
500.0000000000013
 73
     0
 74
     0
 75
     0
  3
IGA
100
AcDbAlignedDimension
 13
1094.054131994102
 23
2477.653965372763
 33
0.0
 14
1703.319970799532
 24
2977.653965372765
 34
0.0
 50
90.0
100
AcDbRotatedDimension
1001
ACAD
1000
DSTYLE
1002
{
1070
     3
1000
<>
1070
    40
1040
25.0
1070
   143
1040
0.039
1070
   172
1070
     1
1070
   271
1070
     0
1002
}
  0
ENDSEC
  0
SECTION
  2
OBJECTS
  0
DICTIONARY
  5
C
330
0
100
AcDbDictionary
281
     1
  3
ACAD_CIP_PREVIOUS_PRODUCT_INFO
350
80DA
  3
ACAD_COLOR
350
80BD
  3
ACAD_DETAILVIEWSTYLE
350
80D6
  3
ACAD_GROUP
350
D
  3
ACAD_LAYOUT
350
8031
  3
ACAD_MATERIAL
350
808B
  3
ACAD_MLEADERSTYLE
350
80D2
  3
ACAD_MLINESTYLE
350
E
  3
ACAD_PLOTSETTINGS
350
8032
  3
ACAD_PLOTSTYLENAME
350
802F
  3
ACAD_SCALELIST
350
80C0
  3
ACAD_SECTIONVIEWSTYLE
350
80D4
  3
ACAD_TABLESTYLE
350
80BE
  3
ACAD_VISUALSTYLE
350
80A4
  3
ACDB_RECOMPOSE_DATA
350
8334
  3
AcDbVariableDictionary
350
8323
  3
AcDsDecomposeData
350
833A
  0
DICTIONARY
  5
813C
330
2
100
AcDbDictionary
280
     1
281
     1
  3
ACAD_LAYERSTATES
360
813D
  0
DICTIONARY
  5
830D
330
F
100
AcDbDictionary
280
     1
281
     1
  3
ADSK_XREC_LAYER_RECONCILED
360
830E
  0
DICTIONARY
  5
830F
330
31
100
AcDbDictionary
280
     1
281
     1
  3
ADSK_XREC_LAYER_RECONCILED
360
8310
  0
DICTIONARY
  5
8311
330
76D0
100
AcDbDictionary
280
     1
281
     1
  3
ADSK_XREC_LAYER_RECONCILED
360
8312
  0
DICTIONARY
  5
8313
330
76D1
100
AcDbDictionary
280
     1
281
     1
  3
ADSK_XREC_LAYER_RECONCILED
360
8314
  0
DICTIONARY
  5
8315
330
76D2
100
AcDbDictionary
280
     1
281
     1
  3
ADSK_XREC_LAYER_RECONCILED
360
8316
  0
DICTIONARY
  5
805E
330
19
100
AcDbDictionary
280
     1
281
     1
  3
ACAD_LAYOUTSELFREF
360
805F
  0
DICTIONARY
  5
805C
330
16
100
AcDbDictionary
280
     1
281
     1
  3
ACAD_LAYOUTSELFREF
360
805D
  0
XRECORD
  5
80DA
102
{ACAD_REACTORS
330
C
102
}
330
C
100
AcDbXrecord
280
     1
300
ACDLT
300
2023
300

  0
DICTIONARY
  5
80BD
102
{ACAD_REACTORS
330
C
102
}
330
C
100
AcDbDictionary
281
     1
  0
DICTIONARY
  5
80D6
102
{ACAD_REACTORS
330
C
102
}
330
C
100
AcDbDictionary
281
     1
  3
Metric50
350
80D7
  0
DICTIONARY
  5
D
102
{ACAD_REACTORS
330
C
102
}
330
C
100
AcDbDictionary
281
     1
  0
DICTIONARY
  5
8031
102
{ACAD_REACTORS
330
C
102
}
330
C
100
AcDbDictionary
281
     1
  3
Model
350
8033
  3
ﾚｲｱｳﾄ1
350
8034
  0
DICTIONARY
  5
808B
102
{ACAD_REACTORS
330
C
102
}
330
C
100
AcDbDictionary
281
     1
  3
ByBlock
350
8094
  3
ByLayer
350
808C
  3
Global
350
809C
  0
DICTIONARY
  5
80D2
102
{ACAD_REACTORS
330
C
102
}
330
C
100
AcDbDictionary
281
     1
  3
Standard
350
80D3
  0
DICTIONARY
  5
E
102
{ACAD_REACTORS
330
C
102
}
330
C
100
AcDbDictionary
281
     1
  3
STANDARD
350
1C
  0
DICTIONARY
  5
8032
102
{ACAD_REACTORS
330
C
102
}
330
C
100
AcDbDictionary
281
     1
  0
ACDBDICTIONARYWDFLT
  5
802F
102
{ACAD_REACTORS
330
C
102
}
330
C
100
AcDbDictionary
281
     1
  3
Normal
350
8030
100
AcDbDictionaryWithDefault
340
8030
  0
DICTIONARY
  5
80C0
102
{ACAD_REACTORS
330
C
102
}
330
C
100
AcDbDictionary
281
     1
  3
A0
350
80C1
  3
A1
350
80C2
  3
A2
350
80C3
  3
A3
350
80C4
  3
A4
350
80C5
  3
A5
350
80C6
  3
A6
350
80C7
  3
A7
350
80C8
  3
A8
350
80C9
  3
A9
350
80CA
  3
B0
350
80CB
  3
B1
350
80CC
  3
B2
350
80CD
  3
B3
350
80CE
  3
B4
350
80CF
  3
B5
350
80D0
  3
B6
350
80D1
  0
DICTIONARY
  5
80D4
102
{ACAD_REACTORS
330
C
102
}
330
C
100
AcDbDictionary
281
     1
  3
Metric50
350
80D5
  0
DICTIONARY
  5
80BE
102
{ACAD_REACTORS
330
C
102
}
330
C
100
AcDbDictionary
281
     1
  3
Standard
350
80BF
  0
DICTIONARY
  5
80A4
102
{ACAD_REACTORS
330
C
102
}
330
C
100
AcDbDictionary
281
     1
  3
2dWireframe
350
80AA
  3
Basic
350
80A9
  3
Brighten
350
80B0
  3
ColorChange
350
80B4
  3
Conceptual
350
80AD
  3
Dim
350
80AF
  3
EdgeColorOff
350
80BC
  3
Facepattern
350
80B3
  3
Flat
350
80A5
  3
FlatWithEdges
350
80A6
  3
Gouraud
350
80A7
  3
GouraudWithEdges
350
80A8
  3
Hidden
350
80AC
  3
JitterOff
350
80BA
  3
Linepattern
350
80B2
  3
OverhangOff
350
80BB
  3
Realistic
350
80AE
  3
Shaded
350
80B9
  3
Shaded with edges
350
80B8
  3
Shades of Gray
350
80B5
  3
Sketchy
350
80B6
  3
Thicken
350
80B1
  3
Wireframe
350
80AB
  3
X-Ray
350
80B7
  0
XRECORD
  5
8334
102
{ACAD_REACTORS
330
C
102
}
330
C
100
AcDbXrecord
280
     1
 90
        1
330
80BF
  0
DICTIONARY
  5
8323
102
{ACAD_REACTORS
330
C
102
}
330
C
100
AcDbDictionary
281
     1
  3
CANNOSCALE
350
8329
  3
CMLEADERSTYLE
350
8325
  3
CTABLESTYLE
350
8324
  3
CVIEWDETAILSTYLE
350
8326
  3
CVIEWSECTIONSTYLE
350
8327
  3
LAYEREVAL
350
832B
  3
LAYERNOTIFY
350
832C
  3
LIGHTINGUNITS
350
832A
  3
MARKUPASSISTMODE
350
8331
  3
MSLTSCALE
350
8328
  0
DICTIONARY
  5
833A
102
{ACAD_REACTORS
330
C
102
}
330
C
100
AcDbDictionary
281
     1
  3
AcDsRecords
350
833C
  3
AcDsSchemas
350
833B
1001
ACAD
1070
     2
  0
DICTIONARY
  5
813D
102
{ACAD_REACTORS
330
813C
102
}
330
813C
100
AcDbDictionary
281
     1
  0
XRECORD
  5
830E
102
{ACAD_REACTORS
330
830D
102
}
330
830D
100
AcDbXrecord
280
     1
290
     1
  0
XRECORD
  5
8310
102
{ACAD_REACTORS
330
830F
102
}
330
830F
100
AcDbXrecord
280
     1
290
     1
  0
XRECORD
  5
8312
102
{ACAD_REACTORS
330
8311
102
}
330
8311
100
AcDbXrecord
280
     1
290
     1
  0
XRECORD
  5
8314
102
{ACAD_REACTORS
330
8313
102
}
330
8313
100
AcDbXrecord
280
     1
290
     1
  0
XRECORD
  5
8316
102
{ACAD_REACTORS
330
8315
102
}
330
8315
100
AcDbXrecord
280
     1
290
     1
  0
XRECORD
  5
805F
102
{ACAD_REACTORS
330
805E
102
}
330
805E
100
AcDbXrecord
280
     1
340
19
  0
XRECORD
  5
805D
102
{ACAD_REACTORS
330
805C
102
}
330
805C
100
AcDbXrecord
280
     1
340
16
  0
ACDBDETAILVIEWSTYLE
  5
80D7
102
{ACAD_XDICTIONARY
360
833F
102
}
102
{ACAD_REACTORS
330
80D6
102
}
330
80D6
100
AcDbModelDocViewStyle
 70
     0
  3
Metric50
290
     0
100
AcDbDetailViewStyle
 70
     0
 71
     0
 90
        3
 71
     1
340
10
 62
   256
 40
5.0
340
0
 62
   256
 40
5.0
300

 40
0.0
280
     1
 71
     2
340
15
 90
       25
 62
   256
 71
     3
340
10
 62
   256
 40
5.0
 90
        0
 40
15.0
 90
        1
300
%<\AcVar ViewDetailId>% (%<\AcVar ViewScale \f "%sn">%)
 71
     4
340
15
 90
       25
 62
   256
340
15
 90
       25
 62
   256
280
     0
  0
LAYOUT
  5
8033
102
{ACAD_REACTORS
330
8031
102
}
330
8031
100
AcDbPlotSettings
  1

  2
EPSON LP-9300
  4

  6

 40
0.0
 41
0.0
 42
0.0
 43
0.0
 44
0.0
 45
0.0
 46
0.0
 47
0.0
 48
0.0
 49
0.0
140
0.0
141
0.0
142
1.0
143
1.0
 70
  1712
 72
     0
 73
     0
 74
     0
  7

 75
     0
147
1.0
 76
     0
 77
     2
 78
   300
148
0.0
149
0.0
100
AcDbLayout
  1
Model
 70
     1
 71
     0
 10
0.0
 20
0.0
 11
12.0
 21
9.0
 12
0.0
 22
0.0
 32
0.0
 14
0.0
 24
0.0
 34
0.0
 15
0.0
 25
0.0
 35
0.0
146
0.0
 13
0.0
 23
0.0
 33
0.0
 16
1.0
 26
0.0
 36
0.0
 17
0.0
 27
1.0
 37
0.0
 76
     0
330
19
331
8089
  0
LAYOUT
  5
8034
102
{ACAD_REACTORS
330
8031
102
}
330
8031
100
AcDbPlotSettings
  1

  2
EPSON LP-9300
  4

  6

 40
0.0
 41
0.0
 42
0.0
 43
0.0
 44
0.0
 45
0.0
 46
0.0
 47
0.0
 48
0.0
 49
0.0
140
0.0
141
0.0
142
1.0
143
1.0
 70
   688
 72
     0
 73
     0
 74
     5
  7

 75
    16
147
1.0
 76
     0
 77
     2
 78
   300
148
0.0
149
0.0
100
AcDbLayout
  1
ﾚｲｱｳﾄ1
 70
     1
 71
     1
 10
0.0
 20
0.0
 11
12.0
 21
9.0
 12
0.0
 22
0.0
 32
0.0
 14
1.000000000000000E+20
 24
1.000000000000000E+20
 34
1.000000000000000E+20
 15
-1.000000000000000E+20
 25
-1.000000000000000E+20
 35
-1.000000000000000E+20
146
0.0
 13
0.0
 23
0.0
 33
0.0
 16
1.0
 26
0.0
 36
0.0
 17
0.0
 27
1.0
 37
0.0
 76
     0
330
16
  0
MATERIAL
  5
8094
102
{ACAD_XDICTIONARY
360
8095
102
}
102
{ACAD_REACTORS
330
808B
102
}
330
808B
100
AcDbMaterial
  1
ByBlock
 72
     0
 43
0.0208333333333333
 43
0.0
 43
0.0
 43
0.0
 43
0.0
 43
0.0208333333333333
 43
0.0
 43
0.0
 43
0.0
 43
0.0
 43
1.0
 43
0.0
 43
0.0
 43
0.0
 43
0.0
 43
1.0
 77
     0
 47
0.0208333333333333
 47
0.0
 47
0.0
 47
0.0
 47
0.0
 47
0.0208333333333333
 47
0.0
 47
0.0
 47
0.0
 47
0.0
 47
1.0
 47
0.0
 47
0.0
 47
0.0
 47
0.0
 47
1.0
171
     0
 49
0.0208333333333333
 49
0.0
 49
0.0
 49
0.0
 49
0.0
 49
0.0208333333333333
 49
0.0
 49
0.0
 49
0.0
 49
0.0
 49
1.0
 49
0.0
 49
0.0
 49
0.0
 49
0.0
 49
1.0
175
     0
142
0.0208333333333333
142
0.0
142
0.0
142
0.0
142
0.0
142
0.0208333333333333
142
0.0
142
0.0
142
0.0
142
0.0
142
1.0
142
0.0
142
0.0
142
0.0
142
0.0
142
1.0
179
     0
144
0.0208333333333333
144
0.0
144
0.0
144
0.0
144
0.0
144
0.0208333333333333
144
0.0
144
0.0
144
0.0
144
0.0
144
1.0
144
0.0
144
0.0
144
0.0
144
0.0
144
1.0
147
0.0208333333333333
147
0.0
147
0.0
147
0.0
147
0.0
147
0.0208333333333333
147
0.0
147
0.0
147
0.0
147
0.0
147
1.0
147
0.0
147
0.0
147
0.0
147
0.0
147
1.0
  0
MATERIAL
  5
808C
102
{ACAD_XDICTIONARY
360
808D
102
}
102
{ACAD_REACTORS
330
808B
102
}
330
808B
100
AcDbMaterial
  1
ByLayer
 72
     0
 43
0.0208333333333333
 43
0.0
 43
0.0
 43
0.0
 43
0.0
 43
0.0208333333333333
 43
0.0
 43
0.0
 43
0.0
 43
0.0
 43
1.0
 43
0.0
 43
0.0
 43
0.0
 43
0.0
 43
1.0
 77
     0
 47
0.0208333333333333
 47
0.0
 47
0.0
 47
0.0
 47
0.0
 47
0.0208333333333333
 47
0.0
 47
0.0
 47
0.0
 47
0.0
 47
1.0
 47
0.0
 47
0.0
 47
0.0
 47
0.0
 47
1.0
171
     0
 49
0.0208333333333333
 49
0.0
 49
0.0
 49
0.0
 49
0.0
 49
0.0208333333333333
 49
0.0
 49
0.0
 49
0.0
 49
0.0
 49
1.0
 49
0.0
 49
0.0
 49
0.0
 49
0.0
 49
1.0
175
     0
142
0.0208333333333333
142
0.0
142
0.0
142
0.0
142
0.0
142
0.0208333333333333
142
0.0
142
0.0
142
0.0
142
0.0
142
1.0
142
0.0
142
0.0
142
0.0
142
0.0
142
1.0
179
     0
144
0.0208333333333333
144
0.0
144
0.0
144
0.0
144
0.0
144
0.0208333333333333
144
0.0
144
0.0
144
0.0
144
0.0
144
1.0
144
0.0
144
0.0
144
0.0
144
0.0
144
1.0
147
0.0208333333333333
147
0.0
147
0.0
147
0.0
147
0.0
147
0.0208333333333333
147
0.0
147
0.0
147
0.0
147
0.0
147
1.0
147
0.0
147
0.0
147
0.0
147
0.0
147
1.0
  0
MATERIAL
  5
809C
102
{ACAD_XDICTIONARY
360
809D
102
}
102
{ACAD_REACTORS
330
808B
102
}
330
808B
100
AcDbMaterial
  1
Global
 72
     0
 43
0.0208333333333333
 43
0.0
 43
0.0
 43
0.0
 43
0.0
 43
0.0208333333333333
 43
0.0
 43
0.0
 43
0.0
 43
0.0
 43
1.0
 43
0.0
 43
0.0
 43
0.0
 43
0.0
 43
1.0
 77
     0
 47
0.0208333333333333
 47
0.0
 47
0.0
 47
0.0
 47
0.0
 47
0.0208333333333333
 47
0.0
 47
0.0
 47
0.0
 47
0.0
 47
1.0
 47
0.0
 47
0.0
 47
0.0
 47
0.0
 47
1.0
171
     0
 49
0.0208333333333333
 49
0.0
 49
0.0
 49
0.0
 49
0.0
 49
0.0208333333333333
 49
0.0
 49
0.0
 49
0.0
 49
0.0
 49
1.0
 49
0.0
 49
0.0
 49
0.0
 49
0.0
 49
1.0
175
     0
142
0.0208333333333333
142
0.0
142
0.0
142
0.0
142
0.0
142
0.0208333333333333
142
0.0
142
0.0
142
0.0
142
0.0
142
1.0
142
0.0
142
0.0
142
0.0
142
0.0
142
1.0
179
     0
144
0.0208333333333333
144
0.0
144
0.0
144
0.0
144
0.0
144
0.0208333333333333
144
0.0
144
0.0
144
0.0
144
0.0
144
1.0
144
0.0
144
0.0
144
0.0
144
0.0
144
1.0
147
0.0208333333333333
147
0.0
147
0.0
147
0.0
147
0.0
147
0.0208333333333333
147
0.0
147
0.0
147
0.0
147
0.0
147
1.0
147
0.0
147
0.0
147
0.0
147
0.0
147
1.0
  0
MLEADERSTYLE
  5
80D3
102
{ACAD_REACTORS
330
80D2
102
}
330
80D2
100
AcDbMLeaderStyle
179
     2
170
     2
171
     1
172
     0
 90
        2
 40
0.0
 41
0.0
173
     1
 91
-1056964608
340
13
 92
       -2
290
     1
 42
2.0
291
     1
 43
0.36
  3
Standard
 44
4.0
300

342
10
174
     1
178
     6
175
     1
176
     0
 93
-1056964608
 45
4.0
292
     0
297
     0
 46
4.0
 94
-1056964608
 47
1.0
 49
1.0
140
1.0
293
     1
141
0.0
294
     1
177
     0
142
1.0
295
     0
296
     0
143
0.125
271
     0
272
     9
273
     9
298
     1
  0
MLINESTYLE
  5
1C
102
{ACAD_REACTORS
330
E
102
}
330
E
100
AcDbMlineStyle
  2
STANDARD
 70
     0
  3

 62
     0
 51
90.0
 52
90.0
 71
     2
 49
0.5
 62
   256
  6
BYLAYER
 49
-0.5
 62
   256
  6
BYLAYER
  0
ACDBPLACEHOLDER
  5
8030
102
{ACAD_REACTORS
330
802F
102
}
330
802F
  0
SCALE
  5
80C1
102
{ACAD_REACTORS
330
80C0
102
}
330
80C0
100
AcDbScale
 70
     0
300
1:1
140
1.0
141
1.0
290
     1
  0
SCALE
  5
80C2
102
{ACAD_REACTORS
330
80C0
102
}
330
80C0
100
AcDbScale
 70
     0
300
1:2
140
1.0
141
2.0
290
     0
  0
SCALE
  5
80C3
102
{ACAD_REACTORS
330
80C0
102
}
330
80C0
100
AcDbScale
 70
     0
300
1:4
140
1.0
141
4.0
290
     0
  0
SCALE
  5
80C4
102
{ACAD_REACTORS
330
80C0
102
}
330
80C0
100
AcDbScale
 70
     0
300
1:5
140
1.0
141
5.0
290
     0
  0
SCALE
  5
80C5
102
{ACAD_REACTORS
330
80C0
102
}
330
80C0
100
AcDbScale
 70
     0
300
1:8
140
1.0
141
8.0
290
     0
  0
SCALE
  5
80C6
102
{ACAD_REACTORS
330
80C0
102
}
330
80C0
100
AcDbScale
 70
     0
300
1:10
140
1.0
141
10.0
290
     0
  0
SCALE
  5
80C7
102
{ACAD_REACTORS
330
80C0
102
}
330
80C0
100
AcDbScale
 70
     0
300
1:16
140
1.0
141
16.0
290
     0
  0
SCALE
  5
80C8
102
{ACAD_REACTORS
330
80C0
102
}
330
80C0
100
AcDbScale
 70
     0
300
1:20
140
1.0
141
20.0
290
     0
  0
SCALE
  5
80C9
102
{ACAD_REACTORS
330
80C0
102
}
330
80C0
100
AcDbScale
 70
     0
300
1:30
140
1.0
141
30.0
290
     0
  0
SCALE
  5
80CA
102
{ACAD_REACTORS
330
80C0
102
}
330
80C0
100
AcDbScale
 70
     0
300
1:40
140
1.0
141
40.0
290
     0
  0
SCALE
  5
80CB
102
{ACAD_REACTORS
330
80C0
102
}
330
80C0
100
AcDbScale
 70
     0
300
1:50
140
1.0
141
50.0
290
     0
  0
SCALE
  5
80CC
102
{ACAD_REACTORS
330
80C0
102
}
330
80C0
100
AcDbScale
 70
     0
300
1:100
140
1.0
141
100.0
290
     0
  0
SCALE
  5
80CD
102
{ACAD_REACTORS
330
80C0
102
}
330
80C0
100
AcDbScale
 70
     0
300
2:1
140
2.0
141
1.0
290
     0
  0
SCALE
  5
80CE
102
{ACAD_REACTORS
330
80C0
102
}
330
80C0
100
AcDbScale
 70
     0
300
4:1
140
4.0
141
1.0
290
     0
  0
SCALE
  5
80CF
102
{ACAD_REACTORS
330
80C0
102
}
330
80C0
100
AcDbScale
 70
     0
300
8:1
140
8.0
141
1.0
290
     0
  0
SCALE
  5
80D0
102
{ACAD_REACTORS
330
80C0
102
}
330
80C0
100
AcDbScale
 70
     0
300
10:1
140
10.0
141
1.0
290
     0
  0
SCALE
  5
80D1
102
{ACAD_REACTORS
330
80C0
102
}
330
80C0
100
AcDbScale
 70
     0
300
100:1
140
100.0
141
1.0
290
     0
  0
ACDBSECTIONVIEWSTYLE
  5
80D5
102
{ACAD_XDICTIONARY
360
833D
102
}
102
{ACAD_REACTORS
330
80D4
102
}
330
80D4
100
AcDbModelDocViewStyle
 70
     0
  3
Metric50
290
     0
100
AcDbSectionViewStyle
 70
     0
 71
     0
 90
      102
 71
     1
340
10
 62
   256
 40
5.0
340
0
340
0
 62
   256
 40
5.0
300
I, O, Q, S, X, Z
 40
10.0
 90
        0
 40
2.5
 90
        0
 71
     2
340
15
 90
       25
 62
   256
340
15
 90
       50
 62
   256
 40
5.0
 40
2.5
 40
5.0
 71
     3
340
10
 62
   256
 40
5.0
 90
        0
 40
15.0
 90
        1
300
%<\AcVar ViewSectionStartId>%-%<\AcVar ViewSectionEndId>% (%<\AcVar ViewScale \f "%sn">%)
 71
     4
 62
   256
 62
   257
300
ANSI31
 40
1.0
 90
        0
290
     0
290
     0
 90
        6
 40
0.0
 40
1.570796326794896
 40
0.2617993877991494
 40
1.308996938995747
 40
-0.2617993877991494
 40
1.832595714594046
  0
TABLESTYLE
  5
80BF
102
{ACAD_XDICTIONARY
360
8332
102
}
102
{ACAD_REACTORS
330
80BE
102
}
330
80BE
100
AcDbTableStyle
280
     0
  3
Standard
 70
     0
 71
     0
 40
1.5
 41
1.5
280
     0
281
     0
  7
STANDARD
140
4.5
170
     2
 62
     0
 63
     7
283
     0
 90
      512
 91
        0
  1

274
    -2
284
     1
 64
     0
275
    -2
285
     1
 65
     0
276
    -2
286
     1
 66
     0
277
    -2
287
     1
 67
     0
278
    -2
288
     1
 68
     0
279
    -2
289
     1
 69
     0
  7
STANDARD
140
6.0
170
     5
 62
     0
 63
     7
283
     0
 90
      512
 91
        0
  1

274
    -2
284
     1
 64
     0
275
    -2
285
     1
 65
     0
276
    -2
286
     1
 66
     0
277
    -2
287
     1
 67
     0
278
    -2
288
     1
 68
     0
279
    -2
289
     1
 69
     0
  7
STANDARD
140
4.5
170
     5
 62
     0
 63
     7
283
     0
 90
      512
 91
        0
  1

274
    -2
284
     1
 64
     0
275
    -2
285
     1
 65
     0
276
    -2
286
     1
 66
     0
277
    -2
287
     1
 67
     0
278
    -2
288
     1
 68
     0
279
    -2
289
     1
 69
     0
  0
VISUALSTYLE
  5
80AA
102
{ACAD_REACTORS
330
80A4
102
}
330
80A4
100
AcDbVisualStyle
  2
2dWireframe
 70
     4
177
     3
291
     0
 70
    58
 90
        0
176
     1
 90
        2
176
     1
 90
        0
176
     1
 90
        0
176
     1
 40
0.6
176
     1
 40
30.0
176
     1
 62
     7
420
 16777215
176
     1
 90
        1
176
     1
 90
        4
176
     1
 62
     7
176
     1
 62
   257
176
     1
 90
        1
176
     1
 90
        1
176
     1
 40
1.0
176
     1
 90
        0
176
     1
 62
   257
176
     1
 40
1.0
176
     1
 90
        1
176
     1
 90
        6
176
     1
 90
        2
176
     1
 62
     7
176
     1
 90
        5
176
     1
 90
        0
176
     1
 90
        0
176
     1
290
     0
176
     1
 90
        1
176
     1
 40
0.0
176
     1
 90
        0
176
     1
290
     1
176
     1
290
     1
176
     1
290
     0
176
     1
290
     0
176
     1
290
     0
176
     1
290
     0
176
     1
290
     0
176
     1
290
     0
176
     1
290
     0
176
     1
 90
       50
176
     1
 40
0.0
176
     1
 40
1.0
176
     1
 90
        0
176
     1
 62
    18
420
        0
176
     1
 90
       50
176
     1
 90
        3
176
     1
 62
     5
420
      255
176
     1
290
     0
176
     1
 90
       50
176
     1
 90
       50
176
     1
 90
       50
176
     1
290
     0
176
     1
 90
       50
176
     1
 62
   256
176
     0
 40
1.0
176
     0
 90
        2
176
     1
  1
strokes_ogs.tif
176
     1
290
     0
176
     1
 40
1.0
176
     1
 40
1.0
176
     1
1001
ACAD
1000
AcDbSavedByObjectVersion
1070
     0
  0
VISUALSTYLE
  5
80A9
102
{ACAD_REACTORS
330
80A4
102
}
330
80A4
100
AcDbVisualStyle
  2
Basic
 70
     7
177
     3
291
     1
 70
    58
 90
        1
176
     1
 90
        0
176
     1
 90
        1
176
     1
 90
        0
176
     1
 40
0.6
176
     1
 40
30.0
176
     1
 62
     7
420
 16777215
176
     1
 90
        0
176
     1
 90
        4
176
     1
 62
     7
176
     1
 62
   257
176
     1
 90
        1
176
     1
 90
        1
176
     1
 40
1.0
176
     1
 90
        8
176
     1
 62
     7
176
     1
 40
1.0
176
     1
 90
        1
176
     1
 90
        6
176
     1
 90
        2
176
     1
 62
     7
176
     1
 90
        5
176
     1
 90
        0
176
     1
 90
        0
176
     1
290
     0
176
     1
 90
        1
176
     1
 40
0.0
176
     1
 90
        0
176
     1
290
     0
176
     1
290
     1
176
     1
290
     1
176
     1
290
     0
176
     1
290
     0
176
     1
290
     0
176
     1
290
     0
176
     1
290
     0
176
     1
290
     0
176
     1
 90
       50
176
     1
 40
0.0
176
     1
 40
1.0
176
     1
 90
        0
176
     1
 62
    18
420
        0
176
     1
 90
       50
176
     1
 90
        3
176
     1
 62
     5
420
      255
176
     1
290
     0
176
     1
 90
       50
176
     1
 90
       50
176
     1
 90
       50
176
     1
290
     0
176
     1
 90
       50
176
     1
 62
   256
176
     0
 40
1.0
176
     0
 90
        2
176
     1
  1
strokes_ogs.tif
176
     1
290
     0
176
     1
 40
1.0
176
     1
 40
1.0
176
     1
1001
ACAD
1000
AcDbSavedByObjectVersion
1070
     0
  0
VISUALSTYLE
  5
80B0
102
{ACAD_REACTORS
330
80A4
102
}
330
80A4
100
AcDbVisualStyle
  2
Brighten
 70
    12
177
     3
291
     1
 70
    58
 90
        2
176
     1
 90
        2
176
     1
 90
        0
176
     1
 90
        0
176
     1
 40
0.6
176
     1
 40
30.0
176
     1
 62
     7
420
 16777215
176
     1
 90
        1
176
     1
 90
        4
176
     1
 62
     7
176
     1
 62
   257
176
     1
 90
        1
176
     1
 90
        1
176
     1
 40
1.0
176
     1
 90
        8
176
     1
 62
     7
176
     1
 40
1.0
176
     1
 90
        1
176
     1
 90
        6
176
     1
 90
        2
176
     1
 62
     7
176
     1
 90
        5
176
     1
 90
        0
176
     1
 90
        0
176
     1
290
     0
176
     1
 90
        1
176
     1
 40
50.0
176
     1
 90
        0
176
     1
290
     0
176
     1
290
     1
176
     1
290
     1
176
     1
290
     0
176
     1
290
     0
176
     1
290
     0
176
     1
290
     0
176
     1
290
     0
176
     1
290
     0
176
     1
 90
       50
176
     1
 40
0.0
176
     1
 40
1.0
176
     1
 90
        0
176
     1
 62
    18
420
        0
176
     1
 90
       50
176
     1
 90
        3
176
     1
 62
     5
420
      255
176
     1
290
     0
176
     1
 90
       50
176
     1
 90
       50
176
     1
 90
       50
176
     1
290
     0
176
     1
 90
       50
176
     1
 62
   256
176
     0
 40
1.0
176
     0
 90
        2
176
     1
  1
strokes_ogs.tif
176
     1
290
     0
176
     1
 40
1.0
176
     1
 40
1.0
176
     1
1001
ACAD
1000
AcDbSavedByObjectVersion
1070
     0
  0
VISUALSTYLE
  5
80B4
102
{ACAD_REACTORS
330
80A4
102
}
330
80A4
100
AcDbVisualStyle
  2
ColorChange
 70
    16
177
     3
291
     1
 70
    58
 90
        2
176
     1
 90
        2
176
     1
 90
        3
176
     1
 90
        0
176
     1
 40
0.6
176
     1
 40
30.0
176
     1
 62
     8
420
  8421504
176
     1
 90
        1
176
     1
 90
        4
176
     1
 62
     7
176
     1
 62
   257
176
     1
 90
        1
176
     1
 90
        1
176
     1
 40
1.0
176
     1
 90
        8
176
     1
 62
     8
420
  8421504
176
     1
 40
1.0
176
     1
 90
        1
176
     1
 90
        6
176
     1
 90
        2
176
     1
 62
     7
176
     1
 90
        5
176
     1
 90
        0
176
     1
 90
        0
176
     1
290
     0
176
     1
 90
        1
176
     1
 40
0.0
176
     1
 90
        0
176
     1
290
     0
176
     1
290
     1
176
     1
290
     1
176
     1
290
     0
176
     1
290
     0
176
     1
290
     0
176
     1
290
     0
176
     1
290
     0
176
     1
290
     0
176
     1
 90
       50
176
     1
 40
0.0
176
     1
 40
1.0
176
     1
 90
        0
176
     1
 62
    18
420
        0
176
     1
 90
       50
176
     1
 90
        3
176
     1
 62
     5
420
      255
176
     1
290
     0
176
     1
 90
       50
176
     1
 90
       50
176
     1
 90
       50
176
     1
290
     0
176
     1
 90
       50
176
     1
 62
   256
176
     0
 40
1.0
176
     0
 90
        2
176
     1
  1
strokes_ogs.tif
176
     1
290
     0
176
     1
 40
1.0
176
     1
 40
1.0
176
     1
1001
ACAD
1000
AcDbSavedByObjectVersion
1070
     0
  0
VISUALSTYLE
  5
80AD
102
{ACAD_REACTORS
330
80A4
102
}
330
80A4
100
AcDbVisualStyle
  2
Conceptual
 70
     9
177
     3
291
     0
 70
    58
 90
        3
176
     1
 90
        2
176
     1
 90
        0
176
     1
 90
        0
176
     1
 40
0.6
176
     1
 40
30.0
176
     1
 62
     7
420
 16777215
176
     1
 90
        2
176
     1
 90
        2
176
     1
 62
     7
176
     1
 62
   257
176
     1
 90
        1
176
     1
 90
        1
176
     1
 40
179.0
176
     1
 90
        8
176
     1
 62
     7
176
     1
 40
1.0
176
     1
 90
        1
176
     1
 90
        6
176
     1
 90
        2
176
     1
 62
     7
176
     1
 90
        3
176
     1
 90
        0
176
     1
 90
        0
176
     1
290
     0
176
     1
 90
        1
176
     1
 40
0.0
176
     1
 90
        0
176
     1
290
     0
176
     1
290
     1
176
     1
290
     1
176
     1
290
     0
176
     1
290
     0
176
     1
290
     0
176
     1
290
     0
176
     1
290
     0
176
     1
290
     0
176
     1
 90
       50
176
     1
 40
0.0
176
     1
 40
1.0
176
     1
 90
        0
176
     1
 62
    18
420
        0
176
     1
 90
       50
176
     1
 90
        3
176
     1
 62
     5
420
      255
176
     1
290
     0
176
     1
 90
       50
176
     1
 90
       50
176
     1
 90
       50
176
     1
290
     0
176
     1
 90
       50
176
     1
 62
   256
176
     0
 40
1.0
176
     0
 90
        2
176
     1
  1
strokes_ogs.tif
176
     1
290
     0
176
     1
 40
1.0
176
     1
 40
1.0
176
     1
1001
ACAD
1000
AcDbSavedByObjectVersion
1070
     0
  0
VISUALSTYLE
  5
80AF
102
{ACAD_REACTORS
330
80A4
102
}
330
80A4
100
AcDbVisualStyle
  2
Dim
 70
    11
177
     3
291
     1
 70
    58
 90
        2
176
     1
 90
        2
176
     1
 90
        0
176
     1
 90
        0
176
     1
 40
0.6
176
     1
 40
30.0
176
     1
 62
     7
420
 16777215
176
     1
 90
        1
176
     1
 90
        4
176
     1
 62
     7
176
     1
 62
   257
176
     1
 90
        1
176
     1
 90
        1
176
     1
 40
1.0
176
     1
 90
        8
176
     1
 62
     7
176
     1
 40
1.0
176
     1
 90
        1
176
     1
 90
        6
176
     1
 90
        2
176
     1
 62
     7
176
     1
 90
        5
176
     1
 90
        0
176
     1
 90
        0
176
     1
290
     0
176
     1
 90
        1
176
     1
 40
-50.0
176
     1
 90
        0
176
     1
290
     0
176
     1
290
     1
176
     1
290
     1
176
     1
290
     0
176
     1
290
     0
176
     1
290
     0
176
     1
290
     0
176
     1
290
     0
176
     1
290
     0
176
     1
 90
       50
176
     1
 40
0.0
176
     1
 40
1.0
176
     1
 90
        0
176
     1
 62
    18
420
        0
176
     1
 90
       50
176
     1
 90
        3
176
     1
 62
     5
420
      255
176
     1
290
     0
176
     1
 90
       50
176
     1
 90
       50
176
     1
 90
       50
176
     1
290
     0
176
     1
 90
       50
176
     1
 62
   256
176
     0
 40
1.0
176
     0
 90
        2
176
     1
  1
strokes_ogs.tif
176
     1
290
     0
176
     1
 40
1.0
176
     1
 40
1.0
176
     1
1001
ACAD
1000
AcDbSavedByObjectVersion
1070
     0
  0
VISUALSTYLE
  5
80BC
102
{ACAD_REACTORS
330
80A4
102
}
330
80A4
100
AcDbVisualStyle
  2
EdgeColorOff
 70
    22
177
     3
291
     1
 70
    58
 90
        2
176
     0
 90
        2
176
     0
 90
        0
176
     0
 90
        0
176
     0
 40
0.6
176
     0
 40
30.0
176
     0
 62
     7
420
 16777215
176
     0
 90
        1
176
     0
 90
        4
176
     0
 62
     7
176
     0
 62
   257
176
     0
 90
        1
176
     0
 90
        1
176
     0
 40
1.0
176
     0
 90
        8
176
     2
 62
     7
176
     0
 40
1.0
176
     0
 90
        1
176
     0
 90
        6
176
     0
 90
        2
176
     0
 62
     7
176
     0
 90
        5
176
     0
 90
        0
176
     0
 90
        0
176
     0
290
     0
176
     0
 90
        1
176
     0
 40
0.0
176
     0
 90
        0
176
     0
290
     0
176
     0
290
     1
176
     0
290
     1
176
     0
290
     0
176
     0
290
     0
176
     0
290
     0
176
     0
290
     0
176
     0
290
     0
176
     0
290
     0
176
     0
 90
       50
176
     0
 40
0.0
176
     0
 40
1.0
176
     0
 90
        0
176
     0
 62
    18
420
        0
176
     0
 90
       50
176
     0
 90
        3
176
     0
 62
     5
420
      255
176
     0
290
     0
176
     0
 90
       50
176
     0
 90
       50
176
     0
 90
       50
176
     0
290
     0
176
     0
 90
       50
176
     0
 62
   256
176
     0
 40
1.0
176
     0
 90
        2
176
     0
  1
strokes_ogs.tif
176
     0
290
     0
176
     0
 40
1.0
176
     0
 40
1.0
176
     0
1001
ACAD
1000
AcDbSavedByObjectVersion
1070
     0
  0
VISUALSTYLE
  5
80B3
102
{ACAD_REACTORS
330
80A4
102
}
330
80A4
100
AcDbVisualStyle
  2
Facepattern
 70
    15
177
     3
291
     1
 70
    58
 90
        2
176
     1
 90
        2
176
     1
 90
        0
176
     1
 90
        0
176
     1
 40
0.6
176
     1
 40
30.0
176
     1
 62
     7
420
 16777215
176
     1
 90
        1
176
     1
 90
        4
176
     1
 62
     7
176
     1
 62
   257
176
     1
 90
        1
176
     1
 90
        1
176
     1
 40
1.0
176
     1
 90
        8
176
     1
 62
     7
176
     1
 40
1.0
176
     1
 90
        1
176
     1
 90
        6
176
     1
 90
        2
176
     1
 62
     7
176
     1
 90
        5
176
     1
 90
        0
176
     1
 90
        0
176
     1
290
     0
176
     1
 90
        1
176
     1
 40
0.0
176
     1
 90
        0
176
     1
290
     0
176
     1
290
     1
176
     1
290
     1
176
     1
290
     0
176
     1
290
     0
176
     1
290
     0
176
     1
290
     0
176
     1
290
     0
176
     1
290
     0
176
     1
 90
       50
176
     1
 40
0.0
176
     1
 40
1.0
176
     1
 90
        0
176
     1
 62
    18
420
        0
176
     1
 90
       50
176
     1
 90
        3
176
     1
 62
     5
420
      255
176
     1
290
     0
176
     1
 90
       50
176
     1
 90
       50
176
     1
 90
       50
176
     1
290
     0
176
     1
 90
       50
176
     1
 62
   256
176
     0
 40
1.0
176
     0
 90
        2
176
     1
  1
strokes_ogs.tif
176
     1
290
     0
176
     1
 40
1.0
176
     1
 40
1.0
176
     1
1001
ACAD
1000
AcDbSavedByObjectVersion
1070
     0
  0
VISUALSTYLE
  5
80A5
102
{ACAD_REACTORS
330
80A4
102
}
330
80A4
100
AcDbVisualStyle
  2
Flat
 70
     0
177
     3
291
     1
 70
    58
 90
        2
176
     1
 90
        1
176
     1
 90
        1
176
     1
 90
        2
176
     1
 40
0.6
176
     1
 40
30.0
176
     1
 62
     7
420
 16777215
176
     1
 90
        0
176
     1
 90
        0
176
     1
 62
     7
176
     1
 62
   257
176
     1
 90
        1
176
     1
 90
        1
176
     1
 40
1.0
176
     1
 90
        8
176
     1
 62
     7
176
     1
 40
1.0
176
     1
 90
        1
176
     1
 90
        6
176
     1
 90
        2
176
     1
 62
     7
176
     1
 90
        5
176
     1
 90
        0
176
     1
 90
        0
176
     1
290
     0
176
     1
 90
       13
176
     1
 40
0.0
176
     1
 90
        0
176
     1
290
     0
176
     1
290
     1
176
     1
290
     1
176
     1
290
     0
176
     1
290
     0
176
     1
290
     0
176
     1
290
     0
176
     1
290
     0
176
     1
290
     0
176
     1
 90
       50
176
     1
 40
0.0
176
     1
 40
1.0
176
     1
 90
        0
176
     1
 62
    18
420
        0
176
     1
 90
       50
176
     1
 90
        3
176
     1
 62
     5
420
      255
176
     1
290
     0
176
     1
 90
       50
176
     1
 90
       50
176
     1
 90
       50
176
     1
290
     0
176
     1
 90
       50
176
     1
 62
   256
176
     0
 40
1.0
176
     0
 90
        2
176
     1
  1
strokes_ogs.tif
176
     1
290
     0
176
     1
 40
1.0
176
     1
 40
1.0
176
     1
1001
ACAD
1000
AcDbSavedByObjectVersion
1070
     0
  0
VISUALSTYLE
  5
80A6
102
{ACAD_REACTORS
330
80A4
102
}
330
80A4
100
AcDbVisualStyle
  2
FlatWithEdges
 70
     1
177
     3
291
     1
 70
    58
 90
        2
176
     1
 90
        1
176
     1
 90
        1
176
     1
 90
        2
176
     1
 40
0.6
176
     1
 40
30.0
176
     1
 62
     7
420
 16777215
176
     1
 90
        1
176
     1
 90
        0
176
     1
 62
     7
176
     1
 62
   257
176
     1
 90
        1
176
     1
 90
        1
176
     1
 40
1.0
176
     1
 90
        0
176
     1
 62
   257
176
     1
 40
1.0
176
     1
 90
        1
176
     1
 90
        6
176
     1
 90
        2
176
     1
 62
     7
176
     1
 90
        5
176
     1
 90
        0
176
     1
 90
        0
176
     1
290
     0
176
     1
 90
       13
176
     1
 40
0.0
176
     1
 90
        0
176
     1
290
     0
176
     1
290
     1
176
     1
290
     1
176
     1
290
     0
176
     1
290
     0
176
     1
290
     0
176
     1
290
     0
176
     1
290
     0
176
     1
290
     0
176
     1
 90
       50
176
     1
 40
0.0
176
     1
 40
1.0
176
     1
 90
        0
176
     1
 62
    18
420
        0
176
     1
 90
       50
176
     1
 90
        3
176
     1
 62
     5
420
      255
176
     1
290
     0
176
     1
 90
       50
176
     1
 90
       50
176
     1
 90
       50
176
     1
290
     0
176
     1
 90
       50
176
     1
 62
   256
176
     0
 40
1.0
176
     0
 90
        2
176
     1
  1
strokes_ogs.tif
176
     1
290
     0
176
     1
 40
1.0
176
     1
 40
1.0
176
     1
1001
ACAD
1000
AcDbSavedByObjectVersion
1070
     0
  0
VISUALSTYLE
  5
80A7
102
{ACAD_REACTORS
330
80A4
102
}
330
80A4
100
AcDbVisualStyle
  2
Gouraud
 70
     2
177
     3
291
     1
 70
    58
 90
        2
176
     1
 90
        2
176
     1
 90
        1
176
     1
 90
        2
176
     1
 40
0.6
176
     1
 40
30.0
176
     1
 62
     7
420
 16777215
176
     1
 90
        0
176
     1
 90
        0
176
     1
 62
     7
176
     1
 62
   257
176
     1
 90
        1
176
     1
 90
        1
176
     1
 40
1.0
176
     1
 90
        0
176
     1
 62
     7
176
     1
 40
1.0
176
     1
 90
        1
176
     1
 90
        6
176
     1
 90
        2
176
     1
 62
     7
176
     1
 90
        5
176
     1
 90
        0
176
     1
 90
        0
176
     1
290
     0
176
     1
 90
       13
176
     1
 40
0.0
176
     1
 90
        0
176
     1
290
     0
176
     1
290
     1
176
     1
290
     1
176
     1
290
     0
176
     1
290
     0
176
     1
290
     0
176
     1
290
     0
176
     1
290
     0
176
     1
290
     0
176
     1
 90
       50
176
     1
 40
0.0
176
     1
 40
1.0
176
     1
 90
        0
176
     1
 62
    18
420
        0
176
     1
 90
       50
176
     1
 90
        3
176
     1
 62
     5
420
      255
176
     1
290
     0
176
     1
 90
       50
176
     1
 90
       50
176
     1
 90
       50
176
     1
290
     0
176
     1
 90
       50
176
     1
 62
   256
176
     0
 40
1.0
176
     0
 90
        2
176
     1
  1
strokes_ogs.tif
176
     1
290
     0
176
     1
 40
1.0
176
     1
 40
1.0
176
     1
1001
ACAD
1000
AcDbSavedByObjectVersion
1070
     0
  0
VISUALSTYLE
  5
80A8
102
{ACAD_REACTORS
330
80A4
102
}
330
80A4
100
AcDbVisualStyle
  2
GouraudWithEdges
 70
     3
177
     3
291
     1
 70
    58
 90
        2
176
     1
 90
        2
176
     1
 90
        1
176
     1
 90
        2
176
     1
 40
0.6
176
     1
 40
30.0
176
     1
 62
     7
420
 16777215
176
     1
 90
        1
176
     1
 90
        0
176
     1
 62
     7
176
     1
 62
   257
176
     1
 90
        1
176
     1
 90
        1
176
     1
 40
1.0
176
     1
 90
        0
176
     1
 62
   257
176
     1
 40
1.0
176
     1
 90
        1
176
     1
 90
        6
176
     1
 90
        2
176
     1
 62
     7
176
     1
 90
        5
176
     1
 90
        0
176
     1
 90
        0
176
     1
290
     0
176
     1
 90
       13
176
     1
 40
0.0
176
     1
 90
        0
176
     1
290
     0
176
     1
290
     1
176
     1
290
     1
176
     1
290
     0
176
     1
290
     0
176
     1
290
     0
176
     1
290
     0
176
     1
290
     0
176
     1
290
     0
176
     1
 90
       50
176
     1
 40
0.0
176
     1
 40
1.0
176
     1
 90
        0
176
     1
 62
    18
420
        0
176
     1
 90
       50
176
     1
 90
        3
176
     1
 62
     5
420
      255
176
     1
290
     0
176
     1
 90
       50
176
     1
 90
       50
176
     1
 90
       50
176
     1
290
     0
176
     1
 90
       50
176
     1
 62
   256
176
     0
 40
1.0
176
     0
 90
        2
176
     1
  1
strokes_ogs.tif
176
     1
290
     0
176
     1
 40
1.0
176
     1
 40
1.0
176
     1
1001
ACAD
1000
AcDbSavedByObjectVersion
1070
     0
  0
VISUALSTYLE
  5
80AC
102
{ACAD_REACTORS
330
80A4
102
}
330
80A4
100
AcDbVisualStyle
  2
Hidden
 70
     6
177
     3
291
     0
 70
    58
 90
        1
176
     1
 90
        2
176
     1
 90
        2
176
     1
 90
        0
176
     1
 40
0.6
176
     1
 40
30.0
176
     1
 62
     7
420
 16777215
176
     1
 90
        2
176
     1
 90
        2
176
     1
 62
     7
176
     1
 62
   257
176
     1
 90
        2
176
     1
 90
        1
176
     1
 40
40.0
176
     1
 90
        0
176
     1
 62
   257
176
     1
 40
1.0
176
     1
 90
        1
176
     1
 90
        6
176
     1
 90
        2
176
     1
 62
     7
176
     1
 90
        3
176
     1
 90
        0
176
     1
 90
        0
176
     1
290
     0
176
     1
 90
        1
176
     1
 40
0.0
176
     1
 90
        0
176
     1
290
     0
176
     1
290
     1
176
     1
290
     1
176
     1
290
     0
176
     1
290
     0
176
     1
290
     0
176
     1
290
     0
176
     1
290
     0
176
     1
290
     0
176
     1
 90
       50
176
     1
 40
0.0
176
     1
 40
1.0
176
     1
 90
        0
176
     1
 62
    18
420
        0
176
     1
 90
       50
176
     1
 90
        3
176
     1
 62
     5
420
      255
176
     1
290
     0
176
     1
 90
       50
176
     1
 90
       50
176
     1
 90
       50
176
     1
290
     0
176
     1
 90
       50
176
     1
 62
   256
176
     0
 40
1.0
176
     0
 90
        2
176
     1
  1
strokes_ogs.tif
176
     1
290
     0
176
     1
 40
1.0
176
     1
 40
1.0
176
     1
1001
ACAD
1000
AcDbSavedByObjectVersion
1070
     0
  0
VISUALSTYLE
  5
80BA
102
{ACAD_REACTORS
330
80A4
102
}
330
80A4
100
AcDbVisualStyle
  2
JitterOff
 70
    20
177
     3
291
     1
 70
    58
 90
        2
176
     0
 90
        2
176
     0
 90
        0
176
     0
 90
        0
176
     0
 40
0.6
176
     0
 40
30.0
176
     0
 62
     7
420
 16777215
176
     0
 90
        1
176
     0
 90
        4
176
     0
 62
     7
176
     0
 62
   257
176
     0
 90
        1
176
     0
 90
        1
176
     0
 40
1.0
176
     0
 90
       10
176
     2
 62
     7
176
     0
 40
1.0
176
     0
 90
        1
176
     0
 90
        6
176
     0
 90
        2
176
     0
 62
     7
176
     0
 90
        5
176
     0
 90
        0
176
     0
 90
        0
176
     0
290
     0
176
     0
 90
        1
176
     0
 40
0.0
176
     0
 90
        0
176
     0
290
     0
176
     0
290
     1
176
     0
290
     1
176
     0
290
     0
176
     0
290
     0
176
     0
290
     0
176
     0
290
     0
176
     0
290
     0
176
     0
290
     0
176
     0
 90
       50
176
     0
 40
0.0
176
     0
 40
1.0
176
     0
 90
        0
176
     0
 62
    18
420
        0
176
     0
 90
       50
176
     0
 90
        3
176
     0
 62
     5
420
      255
176
     0
290
     0
176
     0
 90
       50
176
     0
 90
       50
176
     0
 90
       50
176
     0
290
     0
176
     0
 90
       50
176
     0
 62
   256
176
     0
 40
1.0
176
     0
 90
        2
176
     0
  1
strokes_ogs.tif
176
     0
290
     0
176
     0
 40
1.0
176
     0
 40
1.0
176
     0
1001
ACAD
1000
AcDbSavedByObjectVersion
1070
     0
  0
VISUALSTYLE
  5
80B2
102
{ACAD_REACTORS
330
80A4
102
}
330
80A4
100
AcDbVisualStyle
  2
Linepattern
 70
    14
177
     3
291
     1
 70
    58
 90
        2
176
     1
 90
        2
176
     1
 90
        0
176
     1
 90
        0
176
     1
 40
0.6
176
     1
 40
30.0
176
     1
 62
     7
420
 16777215
176
     1
 90
        1
176
     1
 90
        4
176
     1
 62
     7
176
     1
 62
   257
176
     1
 90
        7
176
     1
 90
        7
176
     1
 40
1.0
176
     1
 90
        8
176
     1
 62
     7
176
     1
 40
1.0
176
     1
 90
        1
176
     1
 90
        6
176
     1
 90
        2
176
     1
 62
     7
176
     1
 90
        5
176
     1
 90
        0
176
     1
 90
        0
176
     1
290
     0
176
     1
 90
        1
176
     1
 40
0.0
176
     1
 90
        0
176
     1
290
     0
176
     1
290
     1
176
     1
290
     1
176
     1
290
     0
176
     1
290
     0
176
     1
290
     0
176
     1
290
     0
176
     1
290
     0
176
     1
290
     0
176
     1
 90
       50
176
     1
 40
0.0
176
     1
 40
1.0
176
     1
 90
        0
176
     1
 62
    18
420
        0
176
     1
 90
       50
176
     1
 90
        3
176
     1
 62
     5
420
      255
176
     1
290
     0
176
     1
 90
       50
176
     1
 90
       50
176
     1
 90
       50
176
     1
290
     0
176
     1
 90
       50
176
     1
 62
   256
176
     0
 40
1.0
176
     0
 90
        2
176
     1
  1
strokes_ogs.tif
176
     1
290
     0
176
     1
 40
1.0
176
     1
 40
1.0
176
     1
1001
ACAD
1000
AcDbSavedByObjectVersion
1070
     0
  0
VISUALSTYLE
  5
80BB
102
{ACAD_REACTORS
330
80A4
102
}
330
80A4
100
AcDbVisualStyle
  2
OverhangOff
 70
    21
177
     3
291
     1
 70
    58
 90
        2
176
     0
 90
        2
176
     0
 90
        0
176
     0
 90
        0
176
     0
 40
0.6
176
     0
 40
30.0
176
     0
 62
     7
420
 16777215
176
     0
 90
        1
176
     0
 90
        4
176
     0
 62
     7
176
     0
 62
   257
176
     0
 90
        1
176
     0
 90
        1
176
     0
 40
1.0
176
     0
 90
        9
176
     2
 62
     7
176
     0
 40
1.0
176
     0
 90
        1
176
     0
 90
        6
176
     0
 90
        2
176
     0
 62
     7
176
     0
 90
        5
176
     0
 90
        0
176
     0
 90
        0
176
     0
290
     0
176
     0
 90
        1
176
     0
 40
0.0
176
     0
 90
        0
176
     0
290
     0
176
     0
290
     1
176
     0
290
     1
176
     0
290
     0
176
     0
290
     0
176
     0
290
     0
176
     0
290
     0
176
     0
290
     0
176
     0
290
     0
176
     0
 90
       50
176
     0
 40
0.0
176
     0
 40
1.0
176
     0
 90
        0
176
     0
 62
    18
420
        0
176
     0
 90
       50
176
     0
 90
        3
176
     0
 62
     5
420
      255
176
     0
290
     0
176
     0
 90
       50
176
     0
 90
       50
176
     0
 90
       50
176
     0
290
     0
176
     0
 90
       50
176
     0
 62
   256
176
     0
 40
1.0
176
     0
 90
        2
176
     0
  1
strokes_ogs.tif
176
     0
290
     0
176
     0
 40
1.0
176
     0
 40
1.0
176
     0
1001
ACAD
1000
AcDbSavedByObjectVersion
1070
     0
  0
VISUALSTYLE
  5
80AE
102
{ACAD_REACTORS
330
80A4
102
}
330
80A4
100
AcDbVisualStyle
  2
Realistic
 70
     8
177
     3
291
     0
 70
    58
 90
        2
176
     1
 90
        3
176
     1
 90
        0
176
     1
 90
        2
176
     1
 40
0.6
176
     1
 40
30.0
176
     1
 62
     7
420
 16777215
176
     1
 90
        0
176
     1
 90
        0
176
     1
 62
     7
176
     1
 62
   257
176
     1
 90
        1
176
     1
 90
        1
176
     1
 40
1.0
176
     1
 90
        8
176
     1
 62
   257
176
     1
 40
1.0
176
     1
 90
        1
176
     1
 90
        6
176
     1
 90
        2
176
     1
 62
     7
176
     1
 90
        3
176
     1
 90
        0
176
     1
 90
        0
176
     1
290
     0
176
     1
 90
       13
176
     1
 40
0.0
176
     1
 90
        0
176
     1
290
     0
176
     1
290
     1
176
     1
290
     1
176
     1
290
     0
176
     1
290
     0
176
     1
290
     0
176
     1
290
     0
176
     1
290
     0
176
     1
290
     0
176
     1
 90
       50
176
     1
 40
0.0
176
     1
 40
1.0
176
     1
 90
        0
176
     1
 62
    18
420
        0
176
     1
 90
       50
176
     1
 90
        3
176
     1
 62
     5
420
      255
176
     1
290
     0
176
     1
 90
       50
176
     1
 90
       50
176
     1
 90
       50
176
     1
290
     0
176
     1
 90
       50
176
     1
 62
   256
176
     0
 40
1.0
176
     0
 90
        2
176
     1
  1
strokes_ogs.tif
176
     1
290
     0
176
     1
 40
1.0
176
     1
 40
1.0
176
     1
1001
ACAD
1000
AcDbSavedByObjectVersion
1070
     0
  0
VISUALSTYLE
  5
80B9
102
{ACAD_REACTORS
330
80A4
102
}
330
80A4
100
AcDbVisualStyle
  2
Shaded
 70
    27
177
     3
291
     0
 70
    58
 90
        2
176
     1
 90
        2
176
     1
 90
        1
176
     1
 90
        2
176
     1
 40
0.6
176
     1
 40
30.0
176
     1
 62
     7
420
 16777215
176
     1
 90
        0
176
     1
 90
        4
176
     1
 62
     7
176
     1
 62
   257
176
     1
 90
        1
176
     1
 90
        1
176
     1
 40
1.0
176
     1
 90
        8
176
     1
 62
   257
176
     1
 40
1.0
176
     1
 90
        1
176
     1
 90
        6
176
     1
 90
        2
176
     1
 62
     8
420
  7895160
176
     1
 90
        3
176
     1
 90
        0
176
     1
 90
        0
176
     1
290
     0
176
     1
 90
        5
176
     1
 40
0.0
176
     1
 90
        0
176
     1
290
     0
176
     1
290
     1
176
     1
290
     1
176
     1
290
     0
176
     1
290
     0
176
     1
290
     0
176
     1
290
     0
176
     1
290
     0
176
     1
290
     0
176
     1
 90
       50
176
     1
 40
0.0
176
     1
 40
1.0
176
     1
 90
        0
176
     1
 62
    18
420
        0
176
     1
 90
       50
176
     1
 90
        3
176
     1
 62
     5
420
      255
176
     1
290
     0
176
     1
 90
       50
176
     1
 90
       50
176
     1
 90
       50
176
     1
290
     0
176
     1
 90
       50
176
     1
 62
   256
176
     0
 40
1.0
176
     0
 90
        2
176
     1
  1
strokes_ogs.tif
176
     1
290
     0
176
     1
 40
1.0
176
     1
 40
1.0
176
     1
1001
ACAD
1000
AcDbSavedByObjectVersion
1070
     0
  0
VISUALSTYLE
  5
80B8
102
{ACAD_REACTORS
330
80A4
102
}
330
80A4
100
AcDbVisualStyle
  2
Shaded with edges
 70
    26
177
     3
291
     0
 70
    58
 90
        2
176
     1
 90
        2
176
     1
 90
        1
176
     1
 90
        2
176
     1
 40
0.6
176
     1
 40
30.0
176
     1
 62
     7
420
 16777215
176
     1
 90
        1
176
     1
 90
        2
176
     1
 62
     7
176
     1
 62
   257
176
     1
 90
        2
176
     1
 90
        1
176
     1
 40
1.0
176
     1
 90
        8
176
     1
 62
   257
176
     1
 40
1.0
176
     1
 90
        1
176
     1
 90
        6
176
     1
 90
        2
176
     1
 62
     7
176
     1
 90
        3
176
     1
 90
        0
176
     1
 90
        0
176
     1
290
     0
176
     1
 90
        5
176
     1
 40
0.0
176
     1
 90
        0
176
     1
290
     0
176
     1
290
     1
176
     1
290
     1
176
     1
290
     0
176
     1
290
     0
176
     1
290
     0
176
     1
290
     0
176
     1
290
     0
176
     1
290
     0
176
     1
 90
       50
176
     1
 40
0.0
176
     1
 40
1.0
176
     1
 90
        0
176
     1
 62
    18
420
        0
176
     1
 90
       50
176
     1
 90
        3
176
     1
 62
     5
420
      255
176
     1
290
     0
176
     1
 90
       50
176
     1
 90
       50
176
     1
 90
       50
176
     1
290
     0
176
     1
 90
       50
176
     1
 62
   256
176
     0
 40
1.0
176
     0
 90
        2
176
     1
  1
strokes_ogs.tif
176
     1
290
     0
176
     1
 40
1.0
176
     1
 40
1.0
176
     1
1001
ACAD
1000
AcDbSavedByObjectVersion
1070
     0
  0
VISUALSTYLE
  5
80B5
102
{ACAD_REACTORS
330
80A4
102
}
330
80A4
100
AcDbVisualStyle
  2
Shades of Gray
 70
    23
177
     3
291
     0
 70
    58
 90
        2
176
     1
 90
        2
176
     1
 90
        3
176
     1
 90
        0
176
     1
 40
0.6
176
     1
 40
30.0
176
     1
 62
     7
420
 16777215
176
     1
 90
        2
176
     1
 90
        2
176
     1
 62
     7
176
     1
 62
     7
176
     1
 90
        1
176
     1
 90
        1
176
     1
 40
40.0
176
     1
 90
        8
176
     1
 62
     7
176
     1
 40
1.0
176
     1
 90
        1
176
     1
 90
        6
176
     1
 90
        2
176
     1
 62
     7
176
     1
 90
        3
176
     1
 90
        0
176
     1
 90
        0
176
     1
290
     0
176
     1
 90
        1
176
     1
 40
0.0
176
     1
 90
        0
176
     1
290
     0
176
     1
290
     1
176
     1
290
     1
176
     1
290
     0
176
     1
290
     0
176
     1
290
     0
176
     1
290
     0
176
     1
290
     0
176
     1
290
     0
176
     1
 90
       50
176
     1
 40
0.0
176
     1
 40
1.0
176
     1
 90
        0
176
     1
 62
    18
420
        0
176
     1
 90
       50
176
     1
 90
        3
176
     1
 62
     5
420
      255
176
     1
290
     0
176
     1
 90
       50
176
     1
 90
       50
176
     1
 90
       50
176
     1
290
     0
176
     1
 90
       50
176
     1
 62
   256
176
     0
 40
1.0
176
     0
 90
        2
176
     1
  1
strokes_ogs.tif
176
     1
290
     0
176
     1
 40
1.0
176
     1
 40
1.0
176
     1
1001
ACAD
1000
AcDbSavedByObjectVersion
1070
     0
  0
VISUALSTYLE
  5
80B6
102
{ACAD_REACTORS
330
80A4
102
}
330
80A4
100
AcDbVisualStyle
  2
Sketchy
 70
    24
177
     3
291
     0
 70
    58
 90
        1
176
     1
 90
        2
176
     1
 90
        2
176
     1
 90
        0
176
     1
 40
0.6
176
     1
 40
30.0
176
     1
 62
     7
420
 16777215
176
     1
 90
        2
176
     1
 90
        2
176
     1
 62
     7
176
     1
 62
     7
176
     1
 90
        1
176
     1
 90
        1
176
     1
 40
40.0
176
     1
 90
       11
176
     1
 62
     7
176
     1
 40
1.0
176
     1
 90
        1
176
     1
 90
        6
176
     1
 90
        2
176
     1
 62
     7
176
     1
 90
        6
176
     1
 90
        0
176
     1
 90
        0
176
     1
290
     0
176
     1
 90
        1
176
     1
 40
0.0
176
     1
 90
        0
176
     1
290
     0
176
     1
290
     1
176
     1
290
     1
176
     1
290
     0
176
     1
290
     0
176
     1
290
     0
176
     1
290
     0
176
     1
290
     0
176
     1
290
     0
176
     1
 90
       50
176
     1
 40
0.0
176
     1
 40
1.0
176
     1
 90
        0
176
     1
 62
    18
420
        0
176
     1
 90
       50
176
     1
 90
        3
176
     1
 62
     5
420
      255
176
     1
290
     0
176
     1
 90
       50
176
     1
 90
       50
176
     1
 90
       50
176
     1
290
     0
176
     1
 90
       50
176
     1
 62
   256
176
     0
 40
1.0
176
     0
 90
        2
176
     1
  1
strokes_ogs.tif
176
     1
290
     0
176
     1
 40
1.0
176
     1
 40
1.0
176
     1
1001
ACAD
1000
AcDbSavedByObjectVersion
1070
     0
  0
VISUALSTYLE
  5
80B1
102
{ACAD_REACTORS
330
80A4
102
}
330
80A4
100
AcDbVisualStyle
  2
Thicken
 70
    13
177
     3
291
     1
 70
    58
 90
        2
176
     1
 90
        2
176
     1
 90
        0
176
     1
 90
        0
176
     1
 40
0.6
176
     1
 40
30.0
176
     1
 62
     7
420
 16777215
176
     1
 90
        1
176
     1
 90
        4
176
     1
 62
     7
176
     1
 62
   257
176
     1
 90
        1
176
     1
 90
        1
176
     1
 40
1.0
176
     1
 90
       12
176
     1
 62
     7
176
     1
 40
1.0
176
     1
 90
        1
176
     1
 90
        6
176
     1
 90
        2
176
     1
 62
     7
176
     1
 90
        5
176
     1
 90
        0
176
     1
 90
        0
176
     1
290
     0
176
     1
 90
        1
176
     1
 40
0.0
176
     1
 90
        0
176
     1
290
     0
176
     1
290
     1
176
     1
290
     1
176
     1
290
     0
176
     1
290
     0
176
     1
290
     0
176
     1
290
     0
176
     1
290
     0
176
     1
290
     0
176
     1
 90
       50
176
     1
 40
0.0
176
     1
 40
1.0
176
     1
 90
        0
176
     1
 62
    18
420
        0
176
     1
 90
       50
176
     1
 90
        3
176
     1
 62
     5
420
      255
176
     1
290
     0
176
     1
 90
       50
176
     1
 90
       50
176
     1
 90
       50
176
     1
290
     0
176
     1
 90
       50
176
     1
 62
   256
176
     0
 40
1.0
176
     0
 90
        2
176
     1
  1
strokes_ogs.tif
176
     1
290
     0
176
     1
 40
1.0
176
     1
 40
1.0
176
     1
1001
ACAD
1000
AcDbSavedByObjectVersion
1070
     0
  0
VISUALSTYLE
  5
80AB
102
{ACAD_REACTORS
330
80A4
102
}
330
80A4
100
AcDbVisualStyle
  2
Wireframe
 70
     5
177
     3
291
     0
 70
    58
 90
        0
176
     1
 90
        2
176
     1
 90
        0
176
     1
 90
        0
176
     1
 40
0.6
176
     1
 40
30.0
176
     1
 62
     7
420
 16777215
176
     1
 90
        1
176
     1
 90
        4
176
     1
 62
     7
176
     1
 62
   257
176
     1
 90
        1
176
     1
 90
        1
176
     1
 40
1.0
176
     1
 90
        0
176
     1
 62
   257
176
     1
 40
1.0
176
     1
 90
        1
176
     1
 90
        6
176
     1
 90
        2
176
     1
 62
     7
176
     1
 90
        3
176
     1
 90
        0
176
     1
 90
        0
176
     1
290
     0
176
     1
 90
        1
176
     1
 40
0.0
176
     1
 90
        0
176
     1
290
     0
176
     1
290
     1
176
     1
290
     1
176
     1
290
     0
176
     1
290
     0
176
     1
290
     0
176
     1
290
     0
176
     1
290
     0
176
     1
290
     0
176
     1
 90
       50
176
     1
 40
0.0
176
     1
 40
1.0
176
     1
 90
        0
176
     1
 62
    18
420
        0
176
     1
 90
       50
176
     1
 90
        3
176
     1
 62
     5
420
      255
176
     1
290
     0
176
     1
 90
       50
176
     1
 90
       50
176
     1
 90
       50
176
     1
290
     0
176
     1
 90
       50
176
     1
 62
   256
176
     0
 40
1.0
176
     0
 90
        2
176
     1
  1
strokes_ogs.tif
176
     1
290
     0
176
     1
 40
1.0
176
     1
 40
1.0
176
     1
1001
ACAD
1000
AcDbSavedByObjectVersion
1070
     0
  0
VISUALSTYLE
  5
80B7
102
{ACAD_REACTORS
330
80A4
102
}
330
80A4
100
AcDbVisualStyle
  2
X-Ray
 70
    25
177
     3
291
     0
 70
    58
 90
        2
176
     1
 90
        2
176
     1
 90
        1
176
     1
 90
        1
176
     1
 40
0.5
176
     1
 40
30.0
176
     1
 62
     7
420
 16777215
176
     1
 90
        1
176
     1
 90
        0
176
     1
 62
     7
176
     1
 62
   257
176
     1
 90
        1
176
     1
 90
        1
176
     1
 40
1.0
176
     1
 90
        8
176
     1
 62
     7
176
     1
 40
1.0
176
     1
 90
        1
176
     1
 90
        6
176
     1
 90
        2
176
     1
 62
     7
176
     1
 90
        3
176
     1
 90
        0
176
     1
 90
        0
176
     1
290
     0
176
     1
 90
       13
176
     1
 40
0.0
176
     1
 90
        0
176
     1
290
     0
176
     1
290
     1
176
     1
290
     1
176
     1
290
     0
176
     1
290
     0
176
     1
290
     0
176
     1
290
     0
176
     1
290
     0
176
     1
290
     0
176
     1
 90
       50
176
     1
 40
0.0
176
     1
 40
1.0
176
     1
 90
        0
176
     1
 62
    18
420
        0
176
     1
 90
       50
176
     1
 90
        3
176
     1
 62
     5
420
      255
176
     1
290
     0
176
     1
 90
       50
176
     1
 90
       50
176
     1
 90
       50
176
     1
290
     0
176
     1
 90
       50
176
     1
 62
   256
176
     0
 40
1.0
176
     0
 90
        2
176
     1
  1
strokes_ogs.tif
176
     1
290
     0
176
     1
 40
1.0
176
     1
 40
1.0
176
     1
1001
ACAD
1000
AcDbSavedByObjectVersion
1070
     0
  0
DICTIONARYVAR
  5
8329
102
{ACAD_REACTORS
330
8323
102
}
330
8323
100
DictionaryVariables
280
     0
  1
1:1
  0
DICTIONARYVAR
  5
8325
102
{ACAD_REACTORS
330
8323
102
}
330
8323
100
DictionaryVariables
280
     0
  1
STANDARD
  0
DICTIONARYVAR
  5
8324
102
{ACAD_REACTORS
330
8323
102
}
330
8323
100
DictionaryVariables
280
     0
  1
STANDARD
  0
DICTIONARYVAR
  5
8326
102
{ACAD_REACTORS
330
8323
102
}
330
8323
100
DictionaryVariables
280
     0
  1
Metric50
  0
DICTIONARYVAR
  5
8327
102
{ACAD_REACTORS
330
8323
102
}
330
8323
100
DictionaryVariables
280
     0
  1
Metric50
  0
DICTIONARYVAR
  5
832B
102
{ACAD_REACTORS
330
8323
102
}
330
8323
100
DictionaryVariables
280
     0
  1
1
  0
DICTIONARYVAR
  5
832C
102
{ACAD_REACTORS
330
8323
102
}
330
8323
100
DictionaryVariables
280
     0
  1
15
  0
DICTIONARYVAR
  5
832A
102
{ACAD_REACTORS
330
8323
102
}
330
8323
100
DictionaryVariables
280
     0
  1
0
  0
DICTIONARYVAR
  5
8331
102
{ACAD_REACTORS
330
8323
102
}
330
8323
100
DictionaryVariables
280
     0
  1
0
  0
DICTIONARYVAR
  5
8328
102
{ACAD_REACTORS
330
8323
102
}
330
8323
100
DictionaryVariables
280
     0
  1
0
  0
DICTIONARY
  5
833C
102
{ACAD_REACTORS
330
833A
102
}
330
833A
100
AcDbDictionary
281
     1
  0
DICTIONARY
  5
833B
102
{ACAD_REACTORS
330
833A
102
}
330
833A
100
AcDbDictionary
281
     1
  3
2043195130960
350
8335
  3
2043195130976
350
8336
  3
2043195130992
350
8337
  3
2043195131008
350
8338
  3
2043195131024
350
8339
  0
DICTIONARY
  5
833F
330
80D7
100
AcDbDictionary
280
     1
281
     1
  3
ACAD_XREC_ROUNDTRIP
360
8340
  0
DICTIONARY
  5
8095
330
8094
100
AcDbDictionary
280
     1
281
     1
  3
BUMPTILE
360
8097
  3
DIFFUSETILE
360
8096
  3
OPACITYTILE
360
809A
  3
REFLECTIONTILE
360
8099
  3
REFRACTIONTILE
360
809B
  3
SPECULARTILE
360
8098
  0
DICTIONARY
  5
808D
330
808C
100
AcDbDictionary
280
     1
281
     1
  3
BUMPTILE
360
808F
  3
DIFFUSETILE
360
808E
  3
OPACITYTILE
360
8092
  3
REFLECTIONTILE
360
8091
  3
REFRACTIONTILE
360
8093
  3
SPECULARTILE
360
8090
  0
DICTIONARY
  5
809D
330
809C
100
AcDbDictionary
280
     1
281
     1
  3
BUMPTILE
360
809F
  3
DIFFUSETILE
360
809E
  3
OPACITYTILE
360
80A2
  3
REFLECTIONTILE
360
80A1
  3
REFRACTIONTILE
360
80A3
  3
SPECULARTILE
360
80A0
  0
DICTIONARY
  5
833D
330
80D5
100
AcDbDictionary
280
     1
281
     1
  3
ACAD_XREC_ROUNDTRIP
360
833E
  0
DICTIONARY
  5
8332
330
80BF
100
AcDbDictionary
280
     1
281
     1
  3
ACAD_ROUNDTRIP_2008_TABLESTYLE_CELLSTYLEMAP
360
8333
  0
XRECORD
  5
8335
102
{ACAD_REACTORS
330
833B
102
}
330
833B
100
AcDbXrecord
280
     1
  1
AcDb_Thumbnail_Schema
102
{ATTRRECORD
341
8336
  2
AcDbDs::TreatedAsObjectData
280
     1
291
     1
102
ATTRRECORD}
102
{ATTRRECORD
341
8337
  2
AcDbDs::Legacy
280
     1
291
     1
102
ATTRRECORD}
  2
AcDbDs::ID
280
    10
 91
        8
102
{ATTRRECORD
341
8338
  2
AcDs:Indexable
280
     1
291
     1
102
ATTRRECORD}
102
{ATTRRECORD
341
8339
  2
AcDbDs::HandleAttribute
280
     7
282
     1
102
ATTRRECORD}
  2
Thumbnail_Data
280
    15
 91
        0
  0
XRECORD
  5
8336
102
{ACAD_REACTORS
330
833B
102
}
330
833B
100
AcDbXrecord
280
     1
  1
AcDbDs::TreatedAsObjectDataSchema
  2
AcDbDs::TreatedAsObjectData
280
     1
 91
        0
  0
XRECORD
  5
8337
102
{ACAD_REACTORS
330
833B
102
}
330
833B
100
AcDbXrecord
280
     1
  1
AcDbDs::LegacySchema
  2
AcDbDs::Legacy
280
     1
 91
        0
  0
XRECORD
  5
8338
102
{ACAD_REACTORS
330
833B
102
}
330
833B
100
AcDbXrecord
280
     1
  1
AcDbDs::IndexedPropertySchema
  2
AcDs:Indexable
280
     1
 91
        0
  0
XRECORD
  5
8339
102
{ACAD_REACTORS
330
833B
102
}
330
833B
100
AcDbXrecord
280
     1
  1
AcDbDs::HandleAttributeSchema
  2
AcDbDs::HandleAttribute
280
     7
 91
        1
284
     1
  0
XRECORD
  5
8340
102
{ACAD_REACTORS
330
833F
102
}
330
833F
100
AcDbXrecord
280
     1
102
DISPLAYNAME
  1
Metric50
102
FLAGS
 90
        0
  0
XRECORD
  5
8097
102
{ACAD_REACTORS
330
8095
102
}
330
8095
100
AcDbXrecord
280
     1
270
     1
271
     1
  0
XRECORD
  5
8096
102
{ACAD_REACTORS
330
8095
102
}
330
8095
100
AcDbXrecord
280
     1
270
     1
271
     1
  0
XRECORD
  5
809A
102
{ACAD_REACTORS
330
8095
102
}
330
8095
100
AcDbXrecord
280
     1
270
     1
271
     1
  0
XRECORD
  5
8099
102
{ACAD_REACTORS
330
8095
102
}
330
8095
100
AcDbXrecord
280
     1
270
     1
271
     1
  0
XRECORD
  5
809B
102
{ACAD_REACTORS
330
8095
102
}
330
8095
100
AcDbXrecord
280
     1
270
     1
271
     1
  0
XRECORD
  5
8098
102
{ACAD_REACTORS
330
8095
102
}
330
8095
100
AcDbXrecord
280
     1
270
     1
271
     1
  0
XRECORD
  5
808F
102
{ACAD_REACTORS
330
808D
102
}
330
808D
100
AcDbXrecord
280
     1
270
     1
271
     1
  0
XRECORD
  5
808E
102
{ACAD_REACTORS
330
808D
102
}
330
808D
100
AcDbXrecord
280
     1
270
     1
271
     1
  0
XRECORD
  5
8092
102
{ACAD_REACTORS
330
808D
102
}
330
808D
100
AcDbXrecord
280
     1
270
     1
271
     1
  0
XRECORD
  5
8091
102
{ACAD_REACTORS
330
808D
102
}
330
808D
100
AcDbXrecord
280
     1
270
     1
271
     1
  0
XRECORD
  5
8093
102
{ACAD_REACTORS
330
808D
102
}
330
808D
100
AcDbXrecord
280
     1
270
     1
271
     1
  0
XRECORD
  5
8090
102
{ACAD_REACTORS
330
808D
102
}
330
808D
100
AcDbXrecord
280
     1
270
     1
271
     1
  0
XRECORD
  5
809F
102
{ACAD_REACTORS
330
809D
102
}
330
809D
100
AcDbXrecord
280
     1
270
     1
271
     1
  0
XRECORD
  5
809E
102
{ACAD_REACTORS
330
809D
102
}
330
809D
100
AcDbXrecord
280
     1
270
     1
271
     1
  0
XRECORD
  5
80A2
102
{ACAD_REACTORS
330
809D
102
}
330
809D
100
AcDbXrecord
280
     1
270
     1
271
     1
  0
XRECORD
  5
80A1
102
{ACAD_REACTORS
330
809D
102
}
330
809D
100
AcDbXrecord
280
     1
270
     1
271
     1
  0
XRECORD
  5
80A3
102
{ACAD_REACTORS
330
809D
102
}
330
809D
100
AcDbXrecord
280
     1
270
     1
271
     1
  0
XRECORD
  5
80A0
102
{ACAD_REACTORS
330
809D
102
}
330
809D
100
AcDbXrecord
280
     1
270
     1
271
     1
  0
XRECORD
  5
833E
102
{ACAD_REACTORS
330
833D
102
}
330
833D
100
AcDbXrecord
280
     1
102
DISPLAYNAME
  1
Metric50
102
FLAGS
 90
        0
  0
CELLSTYLEMAP
  5
8333
102
{ACAD_REACTORS
330
8332
102
}
330
8332
100
AcDbCellStyleMap
 90
        3
300
CELLSTYLE
  1
TABLEFORMAT_BEGIN
 90
        5
170
     1
 91
        0
 92
    32768
 62
   257
 93
        1
300
CONTENTFORMAT
  1
CONTENTFORMAT_BEGIN
 90
        0
 91
        0
 92
      512
 93
        0
300

 40
0.0
140
1.0
 94
        5
 62
     0
340
10
144
6.0
309
CONTENTFORMAT_END
171
     1
301
MARGIN
  1
CELLMARGIN_BEGIN
 40
1.5
 40
1.5
 40
1.5
 40
1.5
 40
4.5
 40
4.5
309
CELLMARGIN_END
 94
        6
 95
        1
302
GRIDFORMAT
  1
GRIDFORMAT_BEGIN
 90
        0
 91
        1
 62
     0
 92
       -2
340
0
 93
        0
 40
1.125
309
GRIDFORMAT_END
 95
        2
302
GRIDFORMAT
  1
GRIDFORMAT_BEGIN
 90
        0
 91
        1
 62
     0
 92
       -2
340
0
 93
        0
 40
1.125
309
GRIDFORMAT_END
 95
        4
302
GRIDFORMAT
  1
GRIDFORMAT_BEGIN
 90
        0
 91
        1
 62
     0
 92
       -2
340
0
 93
        0
 40
1.125
309
GRIDFORMAT_END
 95
        8
302
GRIDFORMAT
  1
GRIDFORMAT_BEGIN
 90
        0
 91
        1
 62
     0
 92
       -2
340
0
 93
        0
 40
1.125
309
GRIDFORMAT_END
 95
       16
302
GRIDFORMAT
  1
GRIDFORMAT_BEGIN
 90
        0
 91
        1
 62
     0
 92
       -2
340
0
 93
        0
 40
1.125
309
GRIDFORMAT_END
 95
       32
302
GRIDFORMAT
  1
GRIDFORMAT_BEGIN
 90
        0
 91
        1
 62
     0
 92
       -2
340
0
 93
        0
 40
1.125
309
GRIDFORMAT_END
309
TABLEFORMAT_END
  1
CELLSTYLE_BEGIN
 90
        1
 91
        1
300
_TITLE
309
CELLSTYLE_END
300
CELLSTYLE
  1
TABLEFORMAT_BEGIN
 90
        5
170
     1
 91
        0
 92
        0
 62
   257
 93
        1
300
CONTENTFORMAT
  1
CONTENTFORMAT_BEGIN
 90
        0
 91
        0
 92
      512
 93
        0
300

 40
0.0
140
1.0
 94
        5
 62
     0
340
10
144
4.5
309
CONTENTFORMAT_END
171
     1
301
MARGIN
  1
CELLMARGIN_BEGIN
 40
1.5
 40
1.5
 40
1.5
 40
1.5
 40
4.5
 40
4.5
309
CELLMARGIN_END
 94
        6
 95
        1
302
GRIDFORMAT
  1
GRIDFORMAT_BEGIN
 90
        0
 91
        1
 62
     0
 92
       -2
340
0
 93
        0
 40
1.125
309
GRIDFORMAT_END
 95
        2
302
GRIDFORMAT
  1
GRIDFORMAT_BEGIN
 90
        0
 91
        1
 62
     0
 92
       -2
340
0
 93
        0
 40
1.125
309
GRIDFORMAT_END
 95
        4
302
GRIDFORMAT
  1
GRIDFORMAT_BEGIN
 90
        0
 91
        1
 62
     0
 92
       -2
340
0
 93
        0
 40
1.125
309
GRIDFORMAT_END
 95
        8
302
GRIDFORMAT
  1
GRIDFORMAT_BEGIN
 90
        0
 91
        1
 62
     0
 92
       -2
340
0
 93
        0
 40
1.125
309
GRIDFORMAT_END
 95
       16
302
GRIDFORMAT
  1
GRIDFORMAT_BEGIN
 90
        0
 91
        1
 62
     0
 92
       -2
340
0
 93
        0
 40
1.125
309
GRIDFORMAT_END
 95
       32
302
GRIDFORMAT
  1
GRIDFORMAT_BEGIN
 90
        0
 91
        1
 62
     0
 92
       -2
340
0
 93
        0
 40
1.125
309
GRIDFORMAT_END
309
TABLEFORMAT_END
  1
CELLSTYLE_BEGIN
 90
        2
 91
        1
300
_HEADER
309
CELLSTYLE_END
300
CELLSTYLE
  1
TABLEFORMAT_BEGIN
 90
        5
170
     1
 91
        0
 92
        0
 62
   257
 93
        1
300
CONTENTFORMAT
  1
CONTENTFORMAT_BEGIN
 90
        0
 91
        0
 92
      512
 93
        0
300

 40
0.0
140
1.0
 94
        2
 62
     0
340
10
144
4.5
309
CONTENTFORMAT_END
171
     1
301
MARGIN
  1
CELLMARGIN_BEGIN
 40
1.5
 40
1.5
 40
1.5
 40
1.5
 40
4.5
 40
4.5
309
CELLMARGIN_END
 94
        6
 95
        1
302
GRIDFORMAT
  1
GRIDFORMAT_BEGIN
 90
        0
 91
        1
 62
     0
 92
       -2
340
0
 93
        0
 40
1.125
309
GRIDFORMAT_END
 95
        2
302
GRIDFORMAT
  1
GRIDFORMAT_BEGIN
 90
        0
 91
        1
 62
     0
 92
       -2
340
0
 93
        0
 40
1.125
309
GRIDFORMAT_END
 95
        4
302
GRIDFORMAT
  1
GRIDFORMAT_BEGIN
 90
        0
 91
        1
 62
     0
 92
       -2
340
0
 93
        0
 40
1.125
309
GRIDFORMAT_END
 95
        8
302
GRIDFORMAT
  1
GRIDFORMAT_BEGIN
 90
        0
 91
        1
 62
     0
 92
       -2
340
0
 93
        0
 40
1.125
309
GRIDFORMAT_END
 95
       16
302
GRIDFORMAT
  1
GRIDFORMAT_BEGIN
 90
        0
 91
        1
 62
     0
 92
       -2
340
0
 93
        0
 40
1.125
309
GRIDFORMAT_END
 95
       32
302
GRIDFORMAT
  1
GRIDFORMAT_BEGIN
 90
        0
 91
        1
 62
     0
 92
       -2
340
0
 93
        0
 40
1.125
309
GRIDFORMAT_END
309
TABLEFORMAT_END
  1
CELLSTYLE_BEGIN
 90
        3
 91
        2
300
_DATA
309
CELLSTYLE_END
  0
ENDSEC
  0
SECTION
  2
ACDSDATA
 70
     2
 71
     8
  0
ACDSSCHEMA
 90
        0
  1
AcDb_Thumbnail_Schema
  2
AcDbDs::ID
280
    10
 91
        8
  2
Thumbnail_Data
280
    15
 91
        0
101
ACDSRECORD
 95
        0
 90
        1
  2
AcDbDs::TreatedAsObjectData
280
     1
291
     1
101
ACDSRECORD
 95
        0
 90
        2
  2
AcDbDs::Legacy
280
     1
291
     1
101
ACDSRECORD
  1
AcDbDs::ID
 90
        3
  2
AcDs:Indexable
280
     1
291
     1
101
ACDSRECORD
  1
AcDbDs::ID
 90
        4
  2
AcDbDs::HandleAttribute
280
     7
282
     1
  0
ACDSSCHEMA
 90
        1
  1
AcDbDs::TreatedAsObjectDataSchema
  2
AcDbDs::TreatedAsObjectData
280
     1
 91
        0
  0
ACDSSCHEMA
 90
        2
  1
AcDbDs::LegacySchema
  2
AcDbDs::Legacy
280
     1
 91
        0
  0
ACDSSCHEMA
 90
        3
  1
AcDbDs::IndexedPropertySchema
  2
AcDs:Indexable
280
     1
 91
        0
  0
ACDSSCHEMA
 90
        4
  1
AcDbDs::HandleAttributeSchema
  2
AcDbDs::HandleAttribute
280
     7
 91
        1
284
     1
  0
ACDSRECORD
 90
        0
  2
AcDbDs::ID
280
    10
320
8033
  2
Thumbnail_Data
280
    15
 94
     1734
310
89504E470D0A1A0A0000000D49484452000001000000007C0803000000B13B9E5A00000300504C5445000000000000C8C8C80000000000000000000000000000000000000000000000000000330000660000990000CC0000FF0033000033330033660033990033CC0033FF0066000066330066660066990066CC0066FF0099
310
000099330099660099990099CC0099FF00CC0000CC3300CC6600CC9900CCCC00CCFF00FF0000FF3300FF6600FF9900FFCC00FFFF3300003300333300663300993300CC3300FF3333003333333333663333993333CC3333FF3366003366333366663366993366CC3366FF3399003399333399663399993399CC3399FF33CC00
310
33CC3333CC6633CC9933CCCC33CCFF33FF0033FF3333FF6633FF9933FFCC33FFFF6600006600336600666600996600CC6600FF6633006633336633666633996633CC6633FF6666006666336666666666996666CC6666FF6699006699336699666699996699CC6699FF66CC0066CC3366CC6666CC9966CCCC66CCFF66FF0066
310
FF3366FF6666FF9966FFCC66FFFF9900009900339900669900999900CC9900FF9933009933339933669933999933CC9933FF9966009966339966669966999966CC9966FF9999009999339999669999999999CC9999FF99CC0099CC3399CC6699CC9999CCCC99CCFF99FF0099FF3399FF6699FF9999FFCC99FFFFCC0000CC00
310
33CC0066CC0099CC00CCCC00FFCC3300CC3333CC3366CC3399CC33CCCC33FFCC6600CC6633CC6666CC6699CC66CCCC66FFCC9900CC9933CC9966CC9999CC99CCCC99FFCCCC00CCCC33CCCC66CCCC99CCCCCCCCCCFFCCFF00CCFF33CCFF66CCFF99CCFFCCCCFFFFFF0000FF0033FF0066FF0099FF00CCFF00FFFF3300FF3333
310
FF3366FF3399FF33CCFF33FFFF6600FF6633FF6666FF6699FF66CCFF66FFFF9900FF9933FF9966FF9999FF99CCFF99FFFFCC00FFCC33FFCC66FFCC99FFCCCCFFCCFFFFFF00FFFF33FFFF66FFFF99FFFFCCFFFFFF0000000D0D0D1A1A1A2828283535354343435050505D5D5D6B6B6B787878868686939393A1A1A1AEAEAEBB
310
BBBBC9C9C9D6D6D6E4E4E4F1F1F1FFFFFF00000000000000000000000000000000000000000000000000000000000008F1915C000003814944415478DAED9D5B72EB200C86B51C5ED8FF66B40DDE5B1B01E296A4674EDAF04B4CE338C4CD449F7F49DC8610BDA1A437153AA5A4A33ED601380007E0001CC0E77CD307C9CF0A
310
80E1DF9349059807902C0318BCE06C00FFB5077024800FFB3007F0070044C74AD2A93BA722F27C6DF31CA9440040D9686A6693BC2C312F256901A4724AA91C211440BBF8260AC8B63605A837505CA034F292F689C7B6250F82DE0E30D8197AEA120702E833E0AC8CF22F3543E83C8805202D01B41450000CE11F0900A5A946
310
E5C062FE9023CCC580F4AED0724E10C405C0DF65F70A1C00F726B37EC526003C2A7614B07EE9001C801D00C120000974B12BA61470D91797C51200390FD5EA0B8A4900F5B49D39005B00E43C925900A41F260114F5D79CF8528FE05400D9B21E00E9A33C33010308210629511FA569880F60E7025601E8073E00E27D1A544D
310
62C605F0A021146F0538005B007467C812805D7FB80020700045024A00B9D201E003588D880DE363D07D81E781A057053E80CE07EE0A07600B806117A03631524B2083536363CCF7E9711B00B6D7DB00F0B11FEB00FEE09BF2CF5647410060329E05D87A1660BD2A70B4997B4CF339AC022C01D0CFE302497EE42468008AB1
310
3380412F53804401B07301DEB80A1880C05BBFE8AF9B9BC94702986FE86A20A001588C171E0E60F4F0FD32B97C451C148005601CFF3101A005FC6BF0AF27F0020015074F075067C2DAE4C88B0AC00090C77E3385D82F111200F92D6C00D509E20C20EE001CEE02FAFE7E3F82CA0023005A02383906E4EF5E63C0F517C41364
310
75C000A0D50101B8E378E06B655C8CB242EE96801C1B80BB22F405460191AA0B943C10EBB1296076814848009AD554968985D2DC9D168E8000280A8ED5C955121073551628F931A8A6020A005914A621E480106A0C288E0F0B40AB5C9E2E222A0D8E0A80690A536D08D6C542B5223E710188DE60B125D4D8A614C1A3441001
310
886961B9486A3D1632749ECF1D11D2B772B94022CEB73BD05477FA90D8E60607EDFBA00A300FC05D402980570A605C05B4B12ECED33D3C6BA39F1FE0DA81C867C74F8CD45D535E981E879C1BFC97B5202F09CB019C02808C03F8F88F75000EC0013880DFFBA6E677955D5B96F4EF0A0CFB29DB0090C6BDD7496FB70A058016
310
3F9D9628B56DB7653F595800E663C05201F9E6AB0D8597664307C10AA06DB70F0F6051A9B6DFB790057C77796F0A3B0007E0001C8003700080000EFAE9ED2FB727599B3911B7E10000000049454E44AE426082
  0
ENDSEC
  0
EOF
