  0
SECTION
  2
HEADER
  9
$ACADVER
  1
AC1027
  9
$ACADMAINTVER
 70
   125
  9
$DWGCODEPAGE
  3
ANSI_932
  9
$LASTSAVEDBY
  1
yasukiyo.ogawa
  9
$REQUIREDVERSIONS
160
                 0
  9
$INSBASE
 10
0.0
 20
0.0
 30
0.0
  9
$EXTMIN
 10
0.0
 20
0.0
 30
0.0
  9
$EXTMAX
 10
5250.0
 20
7375.0
 30
0.0
  9
$LIMMIN
 10
0.0
 20
0.0
  9
$LIMMAX
 10
297.0
 20
210.0
  9
$ORTHOMODE
 70
     1
  9
$REGENMODE
 70
     1
  9
$FILLMODE
 70
     0
  9
$QTEXTMODE
 70
     0
  9
$MIRRTEXT
 70
     1
  9
$LTSCALE
 40
100.0
  9
$ATTMODE
 70
     1
  9
$TEXTSIZE
 40
180.0
  9
$TRACEWID
 40
0.05
  9
$TEXTSTYLE
  7
STANDARD
  9
$CLAYER
  8
3
  9
$CELTYPE
  6
BYLAYER
  9
$CECOLOR
 62
   256
  9
$CELTSCALE
 40
1.0
  9
$DISPSILH
 70
     0
  9
$DIMSCALE
 40
25.0
  9
$DIMASZ
 40
2.0
  9
$DIMEXO
 40
0.5
  9
$DIMDLI
 40
10.0
  9
$DIMRND
 40
0.0
  9
$DIMDLE
 40
0.0
  9
$DIMEXE
 40
1.0
  9
$DIMTP
 40
1.0
  9
$DIMTM
 40
1.0
  9
$DIMTXT
 40
3.0
  9
$DIMCEN
 40
0.0
  9
$DIMTSZ
 40
0.0
  9
$DIMTOL
 70
     0
  9
$DIMLIM
 70
     0
  9
$DIMTIH
 70
     0
  9
$DIMTOH
 70
     0
  9
$DIMSE1
 70
     0
  9
$DIMSE2
 70
     0
  9
$DIMTAD
 70
     1
  9
$DIMZIN
 70
     8
  9
$DIMBLK
  1

  9
$DIMASO
 70
     1
  9
$DIMSHO
 70
     1
  9
$DIMPOST
  1

  9
$DIMAPOST
  1

  9
$DIMALT
 70
     0
  9
$DIMALTD
 70
     2
  9
$DIMALTF
 40
0.039
  9
$DIMLFAC
 40
1.0
  9
$DIMTOFL
 70
     1
  9
$DIMTVP
 40
0.0
  9
$DIMTIX
 70
     0
  9
$DIMSOXD
 70
     0
  9
$DIMSAH
 70
     1
  9
$DIMBLK1
  1
OPEN
  9
$DIMBLK2
  1
OPEN
  9
$DIMSTYLE
  2
IGA
  9
$DIMCLRD
 70
     0
  9
$DIMCLRE
 70
     0
  9
$DIMCLRT
 70
     0
  9
$DIMTFAC
 40
10.0
  9
$DIMGAP
 40
1.0
  9
$DIMJUST
 70
     0
  9
$DIMSD1
 70
     0
  9
$DIMSD2
 70
     0
  9
$DIMTOLJ
 70
     1
  9
$DIMTZIN
 70
     8
  9
$DIMALTZ
 70
     0
  9
$DIMALTTZ
 70
     0
  9
$DIMUPT
 70
     0
  9
$DIMDEC
 70
     0
  9
$DIMTDEC
 70
     0
  9
$DIMALTU
 70
     2
  9
$DIMALTTD
 70
     2
  9
$DIMTXSTY
  7
STANDARD
  9
$DIMAUNIT
 70
     0
  9
$DIMADEC
 70
     0
  9
$DIMALTRND
 40
0.0
  9
$DIMAZIN
 70
     0
  9
$DIMDSEP
 70
    46
  9
$DIMATFIT
 70
     3
  9
$DIMFRAC
 70
     0
  9
$DIMLDRBLK
  1
OPEN
  9
$DIMLUNIT
 70
     2
  9
$DIMLWD
 70
    -2
  9
$DIMLWE
 70
    -2
  9
$DIMTMOVE
 70
     2
  9
$DIMFXL
 40
1.0
  9
$DIMFXLON
 70
     0
  9
$DIMJOGANG
 40
0.7853981633974483
  9
$DIMTFILL
 70
     0
  9
$DIMTFILLCLR
 70
     0
  9
$DIMARCSYM
 70
     0
  9
$DIMLTYPE
  6

  9
$DIMLTEX1
  6

  9
$DIMLTEX2
  6

  9
$DIMTXTDIRECTION
 70
     0
  9
$LUNITS
 70
     2
  9
$LUPREC
 70
     3
  9
$SKETCHINC
 40
0.1
  9
$FILLETRAD
 40
50.0
  9
$AUNITS
 70
     0
  9
$AUPREC
 70
     0
  9
$MENU
  1
acad
  9
$ELEVATION
 40
0.0
  9
$PELEVATION
 40
0.0
  9
$THICKNESS
 40
0.0
  9
$LIMCHECK
 70
     0
  9
$CHAMFERA
 40
0.5
  9
$CHAMFERB
 40
0.5
  9
$CHAMFERC
 40
20.0
  9
$CHAMFERD
 40
0.0
  9
$SKPOLY
 70
     0
  9
$TDCREATE
 40
2451381.644953704
  9
$TDUCREATE
 40
2451381.269959375
  9
$TDUPDATE
 40
2460234.661342592
  9
$TDUUPDATE
 40
2460234.286349144
  9
$TDINDWG
 40
0.0793937037
  9
$TDUSRTIMER
 40
0.0793937037
  9
$USRTIMER
 70
     1
  9
$ANGBASE
 50
0.0
  9
$ANGDIR
 70
     0
  9
$PDMODE
 70
     0
  9
$PDSIZE
 40
0.0
  9
$PLINEWID
 40
0.0
  9
$SPLFRAME
 70
     0
  9
$SPLINETYPE
 70
     6
  9
$SPLINESEGS
 70
     8
  9
$HANDSEED
  5
82B4
  9
$SURFTAB1
 70
     6
  9
$SURFTAB2
 70
     6
  9
$SURFTYPE
 70
     6
  9
$SURFU
 70
     6
  9
$SURFV
 70
     6
  9
$UCSBASE
  2

  9
$UCSNAME
  2

  9
$UCSORG
 10
0.0
 20
0.0
 30
0.0
  9
$UCSXDIR
 10
1.0
 20
0.0
 30
0.0
  9
$UCSYDIR
 10
0.0
 20
1.0
 30
0.0
  9
$UCSORTHOREF
  2

  9
$UCSORTHOVIEW
 70
     0
  9
$UCSORGTOP
 10
0.0
 20
0.0
 30
0.0
  9
$UCSORGBOTTOM
 10
0.0
 20
0.0
 30
0.0
  9
$UCSORGLEFT
 10
0.0
 20
0.0
 30
0.0
  9
$UCSORGRIGHT
 10
0.0
 20
0.0
 30
0.0
  9
$UCSORGFRONT
 10
0.0
 20
0.0
 30
0.0
  9
$UCSORGBACK
 10
0.0
 20
0.0
 30
0.0
  9
$PUCSBASE
  2

  9
$PUCSNAME
  2

  9
$PUCSORG
 10
0.0
 20
0.0
 30
0.0
  9
$PUCSXDIR
 10
1.0
 20
0.0
 30
0.0
  9
$PUCSYDIR
 10
0.0
 20
1.0
 30
0.0
  9
$PUCSORTHOREF
  2

  9
$PUCSORTHOVIEW
 70
     0
  9
$PUCSORGTOP
 10
0.0
 20
0.0
 30
0.0
  9
$PUCSORGBOTTOM
 10
0.0
 20
0.0
 30
0.0
  9
$PUCSORGLEFT
 10
0.0
 20
0.0
 30
0.0
  9
$PUCSORGRIGHT
 10
0.0
 20
0.0
 30
0.0
  9
$PUCSORGFRONT
 10
0.0
 20
0.0
 30
0.0
  9
$PUCSORGBACK
 10
0.0
 20
0.0
 30
0.0
  9
$USERI1
 70
     0
  9
$USERI2
 70
     0
  9
$USERI3
 70
     0
  9
$USERI4
 70
     0
  9
$USERI5
 70
     0
  9
$USERR1
 40
0.0
  9
$USERR2
 40
0.0
  9
$USERR3
 40
0.0
  9
$USERR4
 40
0.0
  9
$USERR5
 40
0.0
  9
$WORLDVIEW
 70
     1
  9
$SHADEDGE
 70
     3
  9
$SHADEDIF
 70
    70
  9
$TILEMODE
 70
     1
  9
$MAXACTVP
 70
    16
  9
$PINSBASE
 10
0.0
 20
0.0
 30
0.0
  9
$PLIMCHECK
 70
     0
  9
$PEXTMIN
 10
1.000000000000000E+20
 20
1.000000000000000E+20
 30
1.000000000000000E+20
  9
$PEXTMAX
 10
-1.000000000000000E+20
 20
-1.000000000000000E+20
 30
-1.000000000000000E+20
  9
$PLIMMIN
 10
0.0
 20
0.0
  9
$PLIMMAX
 10
12.0
 20
9.0
  9
$UNITMODE
 70
     0
  9
$VISRETAIN
 70
     0
  9
$PLINEGEN
 70
     0
  9
$PSLTSCALE
 70
     1
  9
$TREEDEPTH
 70
  3020
  9
$CMLSTYLE
  2
STANDARD
  9
$CMLJUST
 70
     0
  9
$CMLSCALE
 40
20.0
  9
$PROXYGRAPHICS
 70
     1
  9
$MEASUREMENT
 70
     1
  9
$CELWEIGHT
370
    -1
  9
$ENDCAPS
280
     0
  9
$JOINSTYLE
280
     0
  9
$LWDISPLAY
290
     0
  9
$INSUNITS
 70
     0
  9
$HYPERLINKBASE
  1

  9
$STYLESHEET
  1

  9
$XEDIT
290
     1
  9
$CEPSNTYPE
380
     0
  9
$PSTYLEMODE
290
     1
  9
$FINGERPRINTGUID
  2
{125354A6-B36D-4474-BAA4-88DB52FFE97C}
  9
$VERSIONGUID
  2
{1D96704B-C869-4A5C-879E-4001468E499B}
  9
$EXTNAMES
290
     1
  9
$PSVPSCALE
 40
0.0
  9
$OLESTARTUP
290
     0
  9
$SORTENTS
280
   127
  9
$INDEXCTL
280
     0
  9
$HIDETEXT
280
     0
  9
$XCLIPFRAME
280
     2
  9
$HALOGAP
280
     0
  9
$OBSCOLOR
 70
   257
  9
$OBSLTYPE
280
     0
  9
$INTERSECTIONDISPLAY
280
     0
  9
$INTERSECTIONCOLOR
 70
   257
  9
$DIMASSOC
280
     1
  9
$PROJECTNAME
  1

  9
$CAMERADISPLAY
290
     0
  9
$LENSLENGTH
 40
50.0
  9
$CAMERAHEIGHT
 40
0.0
  9
$STEPSPERSEC
 40
2.0
  9
$STEPSIZE
 40
6.0
  9
$3DDWFPREC
 40
2.0
  9
$PSOLWIDTH
 40
0.25
  9
$PSOLHEIGHT
 40
4.0
  9
$LOFTANG1
 40
1.570796326794896
  9
$LOFTANG2
 40
1.570796326794896
  9
$LOFTMAG1
 40
0.0
  9
$LOFTMAG2
 40
0.0
  9
$LOFTPARAM
 70
     7
  9
$LOFTNORMALS
280
     1
  9
$LATITUDE
 40
37.795
  9
$LONGITUDE
 40
-122.394
  9
$NORTHDIRECTION
 40
0.0
  9
$TIMEZONE
 70
 -8000
  9
$LIGHTGLYPHDISPLAY
280
     1
  9
$TILEMODELIGHTSYNCH
280
     1
  9
$CMATERIAL
347
810B
  9
$SOLIDHIST
280
     0
  9
$SHOWHIST
280
     1
  9
$DWFFRAME
280
     2
  9
$DGNFRAME
280
     0
  9
$REALWORLDSCALE
290
     1
  9
$INTERFERECOLOR
 62
     1
  9
$INTERFEREOBJVS
345
812D
  9
$INTERFEREVPVS
346
812A
  9
$CSHADOW
280
     0
  9
$SHADOWPLANELOCATION
 40
0.0
  0
ENDSEC
  0
SECTION
  2
CLASSES
  0
CLASS
  1
ACDBDICTIONARYWDFLT
  2
AcDbDictionaryWithDefault
  3
ObjectDBX Classes
 90
        0
 91
        1
280
     0
281
     0
  0
CLASS
  1
MATERIAL
  2
AcDbMaterial
  3
ObjectDBX Classes
 90
     1153
 91
        3
280
     0
281
     0
  0
CLASS
  1
VISUALSTYLE
  2
AcDbVisualStyle
  3
ObjectDBX Classes
 90
     4095
 91
       24
280
     0
281
     0
  0
CLASS
  1
TABLESTYLE
  2
AcDbTableStyle
  3
ObjectDBX Classes
 90
     4095
 91
        1
280
     0
281
     0
  0
CLASS
  1
SCALE
  2
AcDbScale
  3
ObjectDBX Classes
 90
     1153
 91
       17
280
     0
281
     0
  0
CLASS
  1
MLEADERSTYLE
  2
AcDbMLeaderStyle
  3
ACDB_MLEADERSTYLE_CLASS
 90
     4095
 91
        1
280
     0
281
     0
  0
CLASS
  1
ACDBSECTIONVIEWSTYLE
  2
AcDbSectionViewStyle
  3
ObjectDBX Classes
 90
     1025
 91
        1
280
     0
281
     0
  0
CLASS
  1
ACDBDETAILVIEWSTYLE
  2
AcDbDetailViewStyle
  3
ObjectDBX Classes
 90
     1025
 91
        1
280
     0
281
     0
  0
CLASS
  1
DICTIONARYVAR
  2
AcDbDictionaryVar
  3
ObjectDBX Classes
 90
        0
 91
       19
280
     0
281
     0
  0
CLASS
  1
SORTENTSTABLE
  2
AcDbSortentsTable
  3
ObjectDBX Classes
 90
        0
 91
        0
280
     0
281
     0
  0
CLASS
  1
CELLSTYLEMAP
  2
AcDbCellStyleMap
  3
ObjectDBX Classes
 90
     1152
 91
        1
280
     0
281
     0
  0
ENDSEC
  0
SECTION
  2
TABLES
  0
TABLE
  2
VPORT
  5
8
330
0
100
AcDbSymbolTable
 70
     1
1001
ACAD
1000
DbSaveVer
1071
      278
  0
VPORT
  5
8108
330
8
100
AcDbSymbolTableRecord
100
AcDbViewportTableRecord
  2
*Active
 70
     0
 10
0.0
 20
0.0
 11
1.0
 21
1.0
 12
3367.681705302028
 22
3687.500017171259
 13
0.0
 23
0.0
 14
10.0
 24
10.0
 15
10.0
 25
10.0
 16
0.0
 26
0.0
 36
1.0
 17
0.0
 27
0.0
 37
0.0
 40
7423.076064359216
 41
2.250314465408805
 42
50.0
 43
0.0
 44
0.0
 50
0.0
 51
0.0
 71
     0
 72
   100
 73
     1
 74
     0
 75
     0
 76
     0
 77
     0
 78
     0
281
     0
 65
     1
110
0.0
120
0.0
130
0.0
111
1.0
121
0.0
131
0.0
112
0.0
122
1.0
132
0.0
 79
     0
146
0.0
348
8129
 60
     3
 61
     5
292
     1
282
     1
141
0.0
142
0.0
 63
   250
421
  3355443
1001
ACAD_NAV_VCDISPLAY
1070
     3
  0
ENDTAB
  0
TABLE
  2
LTYPE
  5
5
330
0
100
AcDbSymbolTable
 70
     3
  0
LTYPE
  5
13
330
5
100
AcDbSymbolTableRecord
100
AcDbLinetypeTableRecord
  2
BYBLOCK
 70
     0
  3

 72
    65
 73
     0
 40
0.0
  0
LTYPE
  5
14
330
5
100
AcDbSymbolTableRecord
100
AcDbLinetypeTableRecord
  2
BYLAYER
 70
     0
  3

 72
    65
 73
     0
 40
0.0
  0
LTYPE
  5
15
330
5
100
AcDbSymbolTableRecord
100
AcDbLinetypeTableRecord
  2
CONTINUOUS
 70
     0
  3
Solid line
 72
    65
 73
     0
 40
0.0
  0
LTYPE
  5
1F
330
5
100
AcDbSymbolTableRecord
100
AcDbLinetypeTableRecord
  2
CENTER
 70
     0
  3
____ _ ____ _ ____ _ ____ _ ____ _ ____ _ ____ 
 72
    65
 73
     4
 40
2.0
 49
1.25
 74
     0
 49
-0.25
 74
     0
 49
0.25
 74
     0
 49
-0.25
 74
     0
  0
LTYPE
  5
81E0
330
5
100
AcDbSymbolTableRecord
100
AcDbLinetypeTableRecord
  2
HIDDEN
 70
     0
  3
__ __ __ __ __ __ __ __ __ __ __ __ __ __ __ __
 72
    65
 73
     2
 40
0.375
 49
0.25
 74
     0
 49
-0.125
 74
     0
  0
ENDTAB
  0
TABLE
  2
LAYER
  5
2
102
{ACAD_XDICTIONARY
360
81EB
102
}
330
0
100
AcDbSymbolTable
 70
     9
  0
LAYER
  5
F
102
{ACAD_XDICTIONARY
360
8249
102
}
330
2
100
AcDbSymbolTableRecord
100
AcDbLayerTableRecord
  2
0
 70
     0
 62
     7
  6
CONTINUOUS
370
    -3
390
80C8
347
811B
348
0
  0
LAYER
  5
31
102
{ACAD_XDICTIONARY
360
824B
102
}
330
2
100
AcDbSymbolTableRecord
100
AcDbLayerTableRecord
  2
3
 70
     0
 62
     2
  6
CONTINUOUS
370
    -3
390
80C8
347
811B
348
0
  0
LAYER
  5
76D0
102
{ACAD_XDICTIONARY
360
824D
102
}
330
2
100
AcDbSymbolTableRecord
100
AcDbLayerTableRecord
  2
2
 70
     0
 62
     3
  6
CENTER
370
    -3
390
80C8
347
811B
348
0
  0
LAYER
  5
76D1
102
{ACAD_XDICTIONARY
360
824F
102
}
330
2
100
AcDbSymbolTableRecord
100
AcDbLayerTableRecord
  2
1
 70
     0
 62
     4
  6
CONTINUOUS
370
    -3
390
80C8
347
811B
348
0
  0
LAYER
  5
76D2
102
{ACAD_XDICTIONARY
360
8251
102
}
330
2
100
AcDbSymbolTableRecord
100
AcDbLayerTableRecord
  2
4
 70
     0
 62
     7
  6
CONTINUOUS
370
    -3
390
80C8
347
811B
348
0
  0
LAYER
  5
7B3C
330
2
100
AcDbSymbolTableRecord
100
AcDbLayerTableRecord
  2
DEFPOINTS
 70
     0
 62
     7
  6
CONTINUOUS
290
     0
370
    -3
390
80C8
347
811B
348
0
  0
LAYER
  5
81E1
102
{ACAD_XDICTIONARY
360
81E2
102
}
330
2
100
AcDbSymbolTableRecord
100
AcDbLayerTableRecord
  2
SP
 70
     0
 62
     2
  6
CONTINUOUS
370
    -3
390
80C8
347
811B
348
0
  0
LAYER
  5
81E3
102
{ACAD_XDICTIONARY
360
81E4
102
}
330
2
100
AcDbSymbolTableRecord
100
AcDbLayerTableRecord
  2
CT
 70
     0
 62
     3
  6
CENTER
370
    -3
390
80C8
347
811B
348
0
  0
LAYER
  5
81E5
102
{ACAD_XDICTIONARY
360
81E6
102
}
330
2
100
AcDbSymbolTableRecord
100
AcDbLayerTableRecord
  2
KL
 70
     0
 62
     7
  6
HIDDEN
370
    -3
390
80C8
347
811B
348
0
  0
ENDTAB
  0
TABLE
  2
STYLE
  5
3
330
0
100
AcDbSymbolTable
 70
     1
  0
STYLE
  5
10
330
3
100
AcDbSymbolTableRecord
100
AcDbTextStyleTableRecord
  2
STANDARD
 70
     0
 40
0.0
 41
1.0
 50
0.0
 71
     0
 42
180.0
  3
simplex.shx
  4
extfont.shx
  0
ENDTAB
  0
TABLE
  2
VIEW
  5
6
330
0
100
AcDbSymbolTable
 70
     0
  0
ENDTAB
  0
TABLE
  2
UCS
  5
7
330
0
100
AcDbSymbolTable
 70
     0
  0
ENDTAB
  0
TABLE
  2
APPID
  5
9
330
0
100
AcDbSymbolTable
 70
     7
  0
APPID
  5
11
330
9
100
AcDbSymbolTableRecord
100
AcDbRegAppTableRecord
  2
ACAD
 70
     0
  0
APPID
  5
8175
330
9
100
AcDbSymbolTableRecord
100
AcDbRegAppTableRecord
  2
AcadAnnoMonitorAlertIconDisabled
 70
     0
  0
APPID
  5
8176
330
9
100
AcDbSymbolTableRecord
100
AcDbRegAppTableRecord
  2
ACAD_EXEMPT_FROM_CAD_STANDARDS
 70
     0
  0
APPID
  5
81D0
330
9
100
AcDbSymbolTableRecord
100
AcDbRegAppTableRecord
  2
ACAD_NAV_VCDISPLAY
 70
     0
  0
APPID
  5
81E8
330
9
100
AcDbSymbolTableRecord
100
AcDbRegAppTableRecord
  2
ACAD_DSTYLE_DIMJAG
 70
     0
  0
APPID
  5
81E9
330
9
100
AcDbSymbolTableRecord
100
AcDbRegAppTableRecord
  2
ACAD_DSTYLE_DIMTALN
 70
     0
  0
APPID
  5
81EA
330
9
100
AcDbSymbolTableRecord
100
AcDbRegAppTableRecord
  2
ACAD_PSEXT
 70
     0
  0
ENDTAB
  0
TABLE
  2
DIMSTYLE
  5
A
330
0
100
AcDbSymbolTable
 70
     3
100
AcDbDimStyleTable
 71
     1
340
1D
  0
DIMSTYLE
105
1D
102
{ACAD_REACTORS
330
808C
330
8099
330
80A6
330
80B3
330
80C0
330
81A8
330
821B
102
}
330
A
100
AcDbSymbolTableRecord
100
AcDbDimStyleTableRecord
  2
IGA
 70
     0
 40
2.0
 41
2.0
 42
0.5
 43
10.0
 44
1.0
 47
1.0
 48
1.0
 73
     0
 74
     0
 77
     1
 78
     8
140
3.0
141
0.0
143
0.03937
146
10.0
147
1.0
173
     1
271
     1
272
     0
279
     2
284
     8
340
10
341
79FC
343
79FC
344
79FC
  0
DIMSTYLE
105
7B3E
102
{ACAD_REACTORS
330
7C9E
330
7C9F
330
7CAC
330
7CC8
330
7CCA
330
7CD1
330
7CD2
330
7CD3
330
7CD4
330
7CD5
330
7CD6
330
7CE5
330
7D10
102
}
330
A
100
AcDbSymbolTableRecord
100
AcDbDimStyleTableRecord
  2
MATSU
 70
     0
 41
2.0
 42
1.0
 43
10.0
 44
1.0
 73
     0
 74
     0
 77
     1
 78
     8
140
3.0
141
0.0
143
0.03937
147
0.5
172
     1
173
     1
176
   256
177
   256
178
   256
284
     8
289
     0
340
10
341
79FC
343
79FC
344
79FC
  0
DIMSTYLE
105
81E7
330
A
100
AcDbSymbolTableRecord
100
AcDbDimStyleTableRecord
  2
mitsuya2014
 70
     0
 40
20.0
 41
2.0
 42
1.0
 43
10.0
 44
1.0
 73
     0
 74
     0
 77
     1
 78
     8
 79
     2
140
3.0
141
0.0
143
0.03937007874016
147
0.5
171
     3
172
     1
176
   256
177
   256
178
   256
179
     3
271
     3
272
     3
274
     3
284
     8
289
     0
340
10
341
79FC
342
79FC
371
    -1
372
    -1
1001
ACAD_DSTYLE_DIMJAG
1070
   388
1040
1.5
1001
ACAD_DSTYLE_DIMTALN
1070
   392
1070
     0
  0
ENDTAB
  0
TABLE
  2
BLOCK_RECORD
  5
1
330
0
100
AcDbSymbolTable
 70
    26
  0
BLOCK_RECORD
  5
19
102
{ACAD_XDICTIONARY
360
80F6
102
}
330
1
100
AcDbSymbolTableRecord
100
AcDbBlockTableRecord
  2
*MODEL_SPACE
340
80CB
 70
     0
280
     1
281
     0
  0
BLOCK_RECORD
  5
16
102
{ACAD_XDICTIONARY
360
80F4
102
}
330
1
100
AcDbSymbolTableRecord
100
AcDbBlockTableRecord
  2
*PAPER_SPACE
340
80CC
 70
     0
280
     1
281
     0
  0
BLOCK_RECORD
  5
79FC
330
1
100
AcDbSymbolTableRecord
100
AcDbBlockTableRecord
  2
_OPEN
340
0
102
{BLKREFS
331
7E4C
331
7E4D
331
7E57
331
7E58
331
7E62
331
7E63
331
81CA
331
81CB
331
7EAF
331
7EB0
331
7EBA
331
7EBB
331
7ED0
331
7ED1
331
7EDB
331
7EDC
331
7EE6
331
7EE7
331
7EFC
331
7EFD
331
7F21
331
7F22
331
7F37
331
7F38
331
7FE1
331
7FE2
331
7FEC
331
7FED
331
8085
331
8086
331
8092
331
8093
331
809F
331
80A0
331
80AC
331
80AD
331
80B9
331
80BA
331
8243
331
8244
102
}
 70
     0
280
     1
281
     0
  0
BLOCK_RECORD
  5
7A0A
330
1
100
AcDbSymbolTableRecord
100
AcDbBlockTableRecord
  2
YA_N
340
0
102
{BLKREFS
331
7C2E
331
7C5A
331
7CA4
102
}
 70
     0
280
     1
281
     0
  0
BLOCK_RECORD
  5
7D25
330
1
100
AcDbSymbolTableRecord
100
AcDbBlockTableRecord
  2
*D2
340
0
 70
     0
280
     1
281
     0
  0
BLOCK_RECORD
  5
7D31
330
1
100
AcDbSymbolTableRecord
100
AcDbBlockTableRecord
  2
*D3
340
0
 70
     0
280
     1
281
     0
  0
BLOCK_RECORD
  5
7D3D
330
1
100
AcDbSymbolTableRecord
100
AcDbBlockTableRecord
  2
*D4
340
0
 70
     0
280
     1
281
     0
  0
BLOCK_RECORD
  5
7D91
330
1
100
AcDbSymbolTableRecord
100
AcDbBlockTableRecord
  2
*D6
340
0
 70
     0
280
     1
281
     0
  0
BLOCK_RECORD
  5
7D9D
330
1
100
AcDbSymbolTableRecord
100
AcDbBlockTableRecord
  2
*D7
340
0
 70
     0
280
     1
281
     0
  0
BLOCK_RECORD
  5
7DA9
330
1
100
AcDbSymbolTableRecord
100
AcDbBlockTableRecord
  2
*D8
340
0
 70
     0
280
     1
281
     0
  0
BLOCK_RECORD
  5
7DB5
330
1
100
AcDbSymbolTableRecord
100
AcDbBlockTableRecord
  2
*D9
340
0
 70
     0
280
     1
281
     0
  0
BLOCK_RECORD
  5
7DC1
330
1
100
AcDbSymbolTableRecord
100
AcDbBlockTableRecord
  2
*D10
340
0
 70
     0
280
     1
281
     0
  0
BLOCK_RECORD
  5
7DCD
330
1
100
AcDbSymbolTableRecord
100
AcDbBlockTableRecord
  2
*D11
340
0
 70
     0
280
     1
281
     0
  0
BLOCK_RECORD
  5
7DD9
330
1
100
AcDbSymbolTableRecord
100
AcDbBlockTableRecord
  2
*D12
340
0
 70
     0
280
     1
281
     0
  0
BLOCK_RECORD
  5
7DE5
330
1
100
AcDbSymbolTableRecord
100
AcDbBlockTableRecord
  2
*D13
340
0
 70
     0
280
     1
281
     0
  0
BLOCK_RECORD
  5
7E0D
330
1
100
AcDbSymbolTableRecord
100
AcDbBlockTableRecord
  2
*D14
340
0
 70
     0
280
     1
281
     0
  0
BLOCK_RECORD
  5
7E25
330
1
100
AcDbSymbolTableRecord
100
AcDbBlockTableRecord
  2
*D16
340
0
 70
     0
280
     1
281
     0
  0
BLOCK_RECORD
  5
7FAD
330
1
100
AcDbSymbolTableRecord
100
AcDbBlockTableRecord
  2
_DOT
340
0
 70
     0
280
     1
281
     0
  0
BLOCK_RECORD
  5
8023
330
1
100
AcDbSymbolTableRecord
100
AcDbBlockTableRecord
  2
_NONE
340
0
 70
     0
280
     1
281
     0
  0
BLOCK_RECORD
  5
8080
330
1
100
AcDbSymbolTableRecord
100
AcDbBlockTableRecord
  2
*D19
340
0
 70
     0
280
     1
281
     0
  0
BLOCK_RECORD
  5
808D
330
1
100
AcDbSymbolTableRecord
100
AcDbBlockTableRecord
  2
*D20
340
0
 70
     0
280
     1
281
     0
  0
BLOCK_RECORD
  5
809A
330
1
100
AcDbSymbolTableRecord
100
AcDbBlockTableRecord
  2
*D21
340
0
 70
     0
280
     1
281
     0
  0
BLOCK_RECORD
  5
80A7
330
1
100
AcDbSymbolTableRecord
100
AcDbBlockTableRecord
  2
*D22
340
0
 70
     0
280
     1
281
     0
  0
BLOCK_RECORD
  5
80B4
330
1
100
AcDbSymbolTableRecord
100
AcDbBlockTableRecord
  2
*D23
340
0
 70
     0
280
     1
281
     0
  0
BLOCK_RECORD
  5
81A9
330
1
100
AcDbSymbolTableRecord
100
AcDbBlockTableRecord
  2
*D24
340
0
 70
     0
280
     1
281
     0
  0
BLOCK_RECORD
  5
821C
330
1
100
AcDbSymbolTableRecord
100
AcDbBlockTableRecord
  2
*D25
340
0
 70
     0
280
     1
281
     0
  0
ENDTAB
  0
ENDSEC
  0
SECTION
  2
BLOCKS
  0
BLOCK
  5
1A
330
19
100
AcDbEntity
  8
0
100
AcDbBlockBegin
  2
*MODEL_SPACE
 70
     0
 10
0.0
 20
0.0
 30
0.0
  3
*MODEL_SPACE
  1

  0
ENDBLK
  5
1B
330
19
100
AcDbEntity
  8
0
100
AcDbBlockEnd
  0
BLOCK
  5
17
330
16
100
AcDbEntity
 67
     1
  8
0
100
AcDbBlockBegin
  2
*PAPER_SPACE
 70
     0
 10
0.0
 20
0.0
 30
0.0
  3
*PAPER_SPACE
  1

  0
ENDBLK
  5
18
330
16
100
AcDbEntity
 67
     1
  8
0
100
AcDbBlockEnd
  0
BLOCK
  5
7A00
330
79FC
100
AcDbEntity
  8
0
100
AcDbBlockBegin
  2
_OPEN
 70
     0
 10
0.0
 20
0.0
 30
0.0
  3
_OPEN
  1

  0
LINE
  5
79FD
330
79FC
100
AcDbEntity
  8
0
  6
ByBlock
 62
     0
100
AcDbLine
 10
-1.0
 20
0.1666666666666666
 30
0.0
 11
0.0
 21
0.0
 31
0.0
  0
LINE
  5
79FE
330
79FC
100
AcDbEntity
  8
0
  6
ByBlock
 62
     0
100
AcDbLine
 10
0.0
 20
0.0
 30
0.0
 11
-1.0
 21
-0.1666666666666666
 31
0.0
  0
LINE
  5
79FF
330
79FC
100
AcDbEntity
  8
0
  6
ByBlock
 62
     0
100
AcDbLine
 10
0.0
 20
0.0
 30
0.0
 11
-1.0
 21
0.0
 31
0.0
  0
ENDBLK
  5
7A01
330
79FC
100
AcDbEntity
  8
0
100
AcDbBlockEnd
  0
BLOCK
  5
7A0B
330
7A0A
100
AcDbEntity
  8
0
100
AcDbBlockBegin
  2
YA_N
 70
     0
 10
0.0
 20
0.0
 30
0.0
  3
YA_N
  1

  0
ENDBLK
  5
7A0C
330
7A0A
100
AcDbEntity
  8
0
100
AcDbBlockEnd
  0
BLOCK
  5
7E48
330
7D25
100
AcDbEntity
  8
0
100
AcDbBlockBegin
  2
*D2
 70
     1
 10
0.0
 20
0.0
 30
0.0
  3
*D2
  1

  0
LINE
  5
7E49
330
7D25
100
AcDbEntity
  8
0
  6
ByBlock
440
 16777216
100
AcDbLine
 10
110.6032242090332
 20
1267.593478221399
 30
0.0
 11
-38.40415957019286
 21
1267.593478221399
 31
0.0
  0
LINE
  5
7E4A
330
7D25
100
AcDbEntity
  8
0
  6
ByBlock
440
 16777216
100
AcDbLine
 10
110.6032242090323
 20
537.5934782213989
 30
0.0
 11
-38.40415957019286
 21
537.5934782213989
 31
0.0
  0
LINE
  5
7E4B
330
7D25
100
AcDbEntity
  8
0
  6
ByBlock
440
 16777216
100
AcDbLine
 10
-13.40415957019286
 20
1217.593478221399
 30
0.0
 11
-13.40415957019286
 21
587.5934782213989
 31
0.0
  0
INSERT
  5
7E4C
330
7D25
100
AcDbEntity
  8
0
  6
ByBlock
440
 16777216
100
AcDbBlockReference
  2
_OPEN
 10
-13.40415957019286
 20
1267.593478221399
 30
0.0
 41
50.0
 42
50.0
 43
50.0
 50
90.0
  0
INSERT
  5
7E4D
330
7D25
100
AcDbEntity
  8
0
  6
ByBlock
440
 16777216
100
AcDbBlockReference
  2
_OPEN
 10
-13.40415957019286
 20
537.5934782213989
 30
0.0
 41
50.0
 42
50.0
 43
50.0
 50
270.0
  0
MTEXT
  5
7E4E
330
7D25
100
AcDbEntity
  8
0
  6
ByBlock
440
 16777216
100
AcDbMText
 10
-63.40415957019286
 20
902.593478221399
 30
0.0
 40
75.0
 41
0.0
 46
0.0
 71
     5
 72
     5
  1
\A1;730
 11
0.0
 21
1.0
 31
0.0
 73
     1
 44
1.0
  0
POINT
  5
7E4F
330
7D25
100
AcDbEntity
  8
DEFPOINTS
  6
ByBlock
 62
     0
440
 16777216
100
AcDbPoint
 10
135.6032242090332
 20
1267.593478221399
 30
0.0
  0
POINT
  5
7E50
330
7D25
100
AcDbEntity
  8
DEFPOINTS
  6
ByBlock
 62
     0
440
 16777216
100
AcDbPoint
 10
135.6032242090323
 20
537.5934782213989
 30
0.0
  0
POINT
  5
7E51
330
7D25
100
AcDbEntity
  8
DEFPOINTS
  6
ByBlock
 62
     0
440
 16777216
100
AcDbPoint
 10
-13.40415957019286
 20
537.5934782213989
 30
0.0
  0
ENDBLK
  5
7E52
330
7D25
100
AcDbEntity
  8
0
100
AcDbBlockEnd
  0
BLOCK
  5
7E53
330
7D31
100
AcDbEntity
  8
0
100
AcDbBlockBegin
  2
*D3
 70
     1
 10
0.0
 20
0.0
 30
0.0
  3
*D3
  1

  0
LINE
  5
7E54
330
7D31
100
AcDbEntity
  8
0
  6
ByBlock
440
 16777216
100
AcDbLine
 10
110.6032242090332
 20
1267.593478221399
 30
0.0
 11
-191.2129330438583
 21
1267.593478221399
 31
0.0
  0
LINE
  5
7E55
330
7D31
100
AcDbEntity
  8
0
  6
ByBlock
440
 16777216
100
AcDbLine
 10
-11.66261459639645
 20
508.5934782213989
 30
0.0
 11
-191.2129330438583
 21
508.5934782213989
 31
0.0
  0
LINE
  5
7E56
330
7D31
100
AcDbEntity
  8
0
  6
ByBlock
440
 16777216
100
AcDbLine
 10
-166.2129330438583
 20
1217.593478221399
 30
0.0
 11
-166.2129330438583
 21
558.5934782213989
 31
0.0
  0
INSERT
  5
7E57
330
7D31
100
AcDbEntity
  8
0
  6
ByBlock
440
 16777216
100
AcDbBlockReference
  2
_OPEN
 10
-166.2129330438583
 20
1267.593478221399
 30
0.0
 41
50.0
 42
50.0
 43
50.0
 50
90.0
  0
INSERT
  5
7E58
330
7D31
100
AcDbEntity
  8
0
  6
ByBlock
440
 16777216
100
AcDbBlockReference
  2
_OPEN
 10
-166.2129330438583
 20
508.5934782213989
 30
0.0
 41
50.0
 42
50.0
 43
50.0
 50
270.0
  0
MTEXT
  5
7E59
330
7D31
100
AcDbEntity
  8
0
  6
ByBlock
440
 16777216
100
AcDbMText
 10
-216.2129330438584
 20
888.0934782213989
 30
0.0
 40
75.0
 41
0.0
 46
0.0
 71
     5
 72
     5
  1
\A1;759
 11
0.0
 21
1.0
 31
0.0
 73
     1
 44
1.0
  0
POINT
  5
7E5A
330
7D31
100
AcDbEntity
  8
DEFPOINTS
  6
ByBlock
 62
     0
440
 16777216
100
AcDbPoint
 10
135.6032242090332
 20
1267.593478221399
 30
0.0
  0
POINT
  5
7E5B
330
7D31
100
AcDbEntity
  8
DEFPOINTS
  6
ByBlock
 62
     0
440
 16777216
100
AcDbPoint
 10
13.33738540360355
 20
508.5934782213989
 30
0.0
  0
POINT
  5
7E5C
330
7D31
100
AcDbEntity
  8
DEFPOINTS
  6
ByBlock
 62
     0
440
 16777216
100
AcDbPoint
 10
-166.2129330438583
 20
508.5934782213989
 30
0.0
  0
ENDBLK
  5
7E5D
330
7D31
100
AcDbEntity
  8
0
100
AcDbBlockEnd
  0
BLOCK
  5
7E5E
330
7D3D
100
AcDbEntity
  8
0
100
AcDbBlockBegin
  2
*D4
 70
     1
 10
0.0
 20
0.0
 30
0.0
  3
*D4
  1

  0
LINE
  5
7E5F
330
7D3D
100
AcDbEntity
  8
0
  6
ByBlock
440
 16777216
100
AcDbLine
 10
135.6032242090332
 20
1334.593478221398
 30
0.0
 11
135.6032242090332
 21
1485.57401040243
 31
0.0
  0
LINE
  5
7E60
330
7D3D
100
AcDbEntity
  8
0
  6
ByBlock
440
 16777216
100
AcDbLine
 10
635.6032242090332
 20
1363.644762678541
 30
0.0
 11
635.6032242090332
 21
1485.57401040243
 31
0.0
  0
LINE
  5
7E61
330
7D3D
100
AcDbEntity
  8
0
  6
ByBlock
440
 16777216
100
AcDbLine
 10
185.6032242090332
 20
1460.57401040243
 30
0.0
 11
585.6032242090332
 21
1460.57401040243
 31
0.0
  0
INSERT
  5
7E62
330
7D3D
100
AcDbEntity
  8
0
  6
ByBlock
440
 16777216
100
AcDbBlockReference
  2
_OPEN
 10
135.6032242090332
 20
1460.57401040243
 30
0.0
 41
50.0
 42
50.0
 43
50.0
 50
180.0
  0
INSERT
  5
7E63
330
7D3D
100
AcDbEntity
  8
0
  6
ByBlock
440
 16777216
100
AcDbBlockReference
  2
_OPEN
 10
635.6032242090332
 20
1460.57401040243
 30
0.0
 41
50.0
 42
50.0
 43
50.0
  0
MTEXT
  5
7E64
330
7D3D
100
AcDbEntity
  8
0
  6
ByBlock
440
 16777216
100
AcDbMText
 10
385.6032242090332
 20
1510.57401040243
 30
0.0
 40
75.0
 41
0.0
 46
0.0
 71
     5
 72
     5
  1
\A1;500
 73
     1
 44
1.0
  0
POINT
  5
7E65
330
7D3D
100
AcDbEntity
  8
DEFPOINTS
  6
ByBlock
 62
     0
440
 16777216
100
AcDbPoint
 10
135.6032242090332
 20
1309.593478221398
 30
0.0
  0
POINT
  5
7E66
330
7D3D
100
AcDbEntity
  8
DEFPOINTS
  6
ByBlock
 62
     0
440
 16777216
100
AcDbPoint
 10
635.6032242090332
 20
1338.644762678541
 30
0.0
  0
POINT
  5
7E67
330
7D3D
100
AcDbEntity
  8
DEFPOINTS
  6
ByBlock
 62
     0
440
 16777216
100
AcDbPoint
 10
635.6032242090332
 20
1460.57401040243
 30
0.0
  0
ENDBLK
  5
7E68
330
7D3D
100
AcDbEntity
  8
0
100
AcDbBlockEnd
  0
BLOCK
  5
7EAB
330
7D91
100
AcDbEntity
  8
0
100
AcDbBlockBegin
  2
*D6
 70
     1
 10
0.0
 20
0.0
 30
0.0
  3
*D6
  1

  0
LINE
  5
7EAC
330
7D91
100
AcDbEntity
  8
0
  6
ByBlock
440
 16777216
100
AcDbLine
 10
3369.27207393047
 20
1334.593478221399
 30
0.0
 11
3369.27207393047
 21
1484.934978527817
 31
0.0
  0
LINE
  5
7EAD
330
7D91
100
AcDbEntity
  8
0
  6
ByBlock
440
 16777216
100
AcDbLine
 10
4319.272073930469
 20
1334.593478221399
 30
0.0
 11
4319.272073930469
 21
1484.934978527817
 31
0.0
  0
LINE
  5
7EAE
330
7D91
100
AcDbEntity
  8
0
  6
ByBlock
440
 16777216
100
AcDbLine
 10
3419.27207393047
 20
1459.934978527817
 30
0.0
 11
4269.272073930469
 21
1459.934978527817
 31
0.0
  0
INSERT
  5
7EAF
330
7D91
100
AcDbEntity
  8
0
  6
ByBlock
440
 16777216
100
AcDbBlockReference
  2
_OPEN
 10
3369.27207393047
 20
1459.934978527817
 30
0.0
 41
50.0
 42
50.0
 43
50.0
 50
180.0
  0
INSERT
  5
7EB0
330
7D91
100
AcDbEntity
  8
0
  6
ByBlock
440
 16777216
100
AcDbBlockReference
  2
_OPEN
 10
4319.272073930469
 20
1459.934978527817
 30
0.0
 41
50.0
 42
50.0
 43
50.0
  0
MTEXT
  5
7EB1
330
7D91
100
AcDbEntity
  8
0
  6
ByBlock
440
 16777216
100
AcDbMText
 10
3844.27207393047
 20
1509.934978527817
 30
0.0
 40
75.0
 41
0.0
 46
0.0
 71
     5
 72
     5
  1
\A1;950
 73
     1
 44
1.0
  0
POINT
  5
7EB2
330
7D91
100
AcDbEntity
  8
DEFPOINTS
  6
ByBlock
 62
     0
440
 16777216
100
AcDbPoint
 10
3369.27207393047
 20
1309.593478221399
 30
0.0
  0
POINT
  5
7EB3
330
7D91
100
AcDbEntity
  8
DEFPOINTS
  6
ByBlock
 62
     0
440
 16777216
100
AcDbPoint
 10
4319.272073930469
 20
1309.593478221399
 30
0.0
  0
POINT
  5
7EB4
330
7D91
100
AcDbEntity
  8
DEFPOINTS
  6
ByBlock
 62
     0
440
 16777216
100
AcDbPoint
 10
4319.272073930469
 20
1459.934978527817
 30
0.0
  0
ENDBLK
  5
7EB5
330
7D91
100
AcDbEntity
  8
0
100
AcDbBlockEnd
  0
BLOCK
  5
7EB6
330
7D9D
100
AcDbEntity
  8
0
100
AcDbBlockBegin
  2
*D7
 70
     1
 10
0.0
 20
0.0
 30
0.0
  3
*D7
  1

  0
LINE
  5
7EB7
330
7D9D
100
AcDbEntity
  8
0
  6
ByBlock
440
 16777216
100
AcDbLine
 10
4349.772073930469
 20
153.593478221399
 30
0.0
 11
4596.274084275781
 21
153.593478221399
 31
0.0
  0
LINE
  5
7EB8
330
7D9D
100
AcDbEntity
  8
0
  6
ByBlock
440
 16777216
100
AcDbLine
 10
4349.772073930469
 20
863.593478221399
 30
0.0
 11
4596.274084275781
 21
863.593478221399
 31
0.0
  0
LINE
  5
7EB9
330
7D9D
100
AcDbEntity
  8
0
  6
ByBlock
440
 16777216
100
AcDbLine
 10
4571.27408427578
 20
203.593478221399
 30
0.0
 11
4571.27408427578
 21
813.593478221399
 31
0.0
  0
INSERT
  5
7EBA
330
7D9D
100
AcDbEntity
  8
0
  6
ByBlock
440
 16777216
100
AcDbBlockReference
  2
_OPEN
 10
4571.27408427578
 20
153.593478221399
 30
0.0
 41
50.0
 42
50.0
 43
50.0
 50
270.0
  0
INSERT
  5
7EBB
330
7D9D
100
AcDbEntity
  8
0
  6
ByBlock
440
 16777216
100
AcDbBlockReference
  2
_OPEN
 10
4571.27408427578
 20
863.593478221399
 30
0.0
 41
50.0
 42
50.0
 43
50.0
 50
90.0
  0
MTEXT
  5
7EBC
330
7D9D
100
AcDbEntity
  8
0
  6
ByBlock
440
 16777216
100
AcDbMText
 10
4521.274084275781
 20
508.5934782213989
 30
0.0
 40
75.0
 41
0.0
 46
0.0
 71
     5
 72
     5
  1
\A1;φ710
 11
0.0
 21
1.0
 31
0.0
 73
     1
 44
1.0
  0
POINT
  5
7EBD
330
7D9D
100
AcDbEntity
  8
DEFPOINTS
  6
ByBlock
 62
     0
440
 16777216
100
AcDbPoint
 10
4324.772073930469
 20
153.593478221399
 30
0.0
  0
POINT
  5
7EBE
330
7D9D
100
AcDbEntity
  8
DEFPOINTS
  6
ByBlock
 62
     0
440
 16777216
100
AcDbPoint
 10
4324.772073930469
 20
863.593478221399
 30
0.0
  0
POINT
  5
7EBF
330
7D9D
100
AcDbEntity
  8
DEFPOINTS
  6
ByBlock
 62
     0
440
 16777216
100
AcDbPoint
 10
4571.27408427578
 20
863.593478221399
 30
0.0
  0
ENDBLK
  5
7EC0
330
7D9D
100
AcDbEntity
  8
0
100
AcDbBlockEnd
  0
BLOCK
  5
7FDD
330
7DA9
100
AcDbEntity
  8
0
100
AcDbBlockBegin
  2
*D8
 70
     1
 10
0.0
 20
0.0
 30
0.0
  3
*D8
  1

  0
LINE
  5
7FDE
330
7DA9
100
AcDbEntity
  8
0
  6
ByBlock
440
 16777216
100
AcDbLine
 10
1717.719751513126
 20
5445.797394839574
 30
0.0
 11
1717.719751513126
 21
5653.282608033805
 31
0.0
  0
LINE
  5
7FDF
330
7DA9
100
AcDbEntity
  8
0
  6
ByBlock
440
 16777216
100
AcDbLine
 10
817.7197515131265
 20
5445.797394839573
 30
0.0
 11
817.7197515131265
 21
5653.282608033805
 31
0.0
  0
LINE
  5
7FE0
330
7DA9
100
AcDbEntity
  8
0
  6
ByBlock
440
 16777216
100
AcDbLine
 10
1667.719751513126
 20
5628.282608033805
 30
0.0
 11
867.7197515131265
 21
5628.282608033805
 31
0.0
  0
INSERT
  5
7FE1
330
7DA9
100
AcDbEntity
  8
0
  6
ByBlock
440
 16777216
100
AcDbBlockReference
  2
_OPEN
 10
1717.719751513126
 20
5628.282608033805
 30
0.0
 41
50.0
 42
50.0
 43
50.0
  0
INSERT
  5
7FE2
330
7DA9
100
AcDbEntity
  8
0
  6
ByBlock
440
 16777216
100
AcDbBlockReference
  2
_OPEN
 10
817.7197515131265
 20
5628.282608033805
 30
0.0
 41
50.0
 42
50.0
 43
50.0
 50
180.0
  0
MTEXT
  5
7FE3
330
7DA9
100
AcDbEntity
  8
0
  6
ByBlock
440
 16777216
100
AcDbMText
 10
1267.719751513126
 20
5678.282608033805
 30
0.0
 40
75.0
 41
0.0
 46
0.0
 71
     5
 72
     5
  1
\A1;900
 73
     1
 44
1.0
  0
POINT
  5
7FE4
330
7DA9
100
AcDbEntity
  8
DEFPOINTS
  6
ByBlock
 62
     0
440
 16777216
100
AcDbPoint
 10
1717.719751513126
 20
5420.797394839574
 30
0.0
  0
POINT
  5
7FE5
330
7DA9
100
AcDbEntity
  8
DEFPOINTS
  6
ByBlock
 62
     0
440
 16777216
100
AcDbPoint
 10
817.7197515131265
 20
5420.797394839573
 30
0.0
  0
POINT
  5
7FE6
330
7DA9
100
AcDbEntity
  8
DEFPOINTS
  6
ByBlock
 62
     0
440
 16777216
100
AcDbPoint
 10
817.7197515131265
 20
5628.282608033805
 30
0.0
  0
ENDBLK
  5
7FE7
330
7DA9
100
AcDbEntity
  8
0
100
AcDbBlockEnd
  0
BLOCK
  5
7ECC
330
7DB5
100
AcDbEntity
  8
0
100
AcDbBlockBegin
  2
*D9
 70
     1
 10
0.0
 20
0.0
 30
0.0
  3
*D9
  1

  0
LINE
  5
7ECD
330
7DB5
100
AcDbEntity
  8
0
  6
ByBlock
440
 16777216
100
AcDbLine
 10
160.6032242090332
 20
3953.533310535338
 30
0.0
 11
-138.0354924402527
 21
3953.533310535338
 31
0.0
  0
LINE
  5
7ECE
330
7DB5
100
AcDbEntity
  8
0
  6
ByBlock
440
 16777216
100
AcDbLine
 10
160.6032242090332
 20
2773.533310535338
 30
0.0
 11
-138.0354924402527
 21
2773.533310535338
 31
0.0
  0
LINE
  5
7ECF
330
7DB5
100
AcDbEntity
  8
0
  6
ByBlock
440
 16777216
100
AcDbLine
 10
-113.0354924402527
 20
3903.533310535337
 30
0.0
 11
-113.0354924402527
 21
2823.533310535338
 31
0.0
  0
INSERT
  5
7ED0
330
7DB5
100
AcDbEntity
  8
0
  6
ByBlock
440
 16777216
100
AcDbBlockReference
  2
_OPEN
 10
-113.0354924402527
 20
3953.533310535338
 30
0.0
 41
50.0
 42
50.0
 43
50.0
 50
90.0
  0
INSERT
  5
7ED1
330
7DB5
100
AcDbEntity
  8
0
  6
ByBlock
440
 16777216
100
AcDbBlockReference
  2
_OPEN
 10
-113.0354924402527
 20
2773.533310535338
 30
0.0
 41
50.0
 42
50.0
 43
50.0
 50
270.0
  0
MTEXT
  5
7ED2
330
7DB5
100
AcDbEntity
  8
0
  6
ByBlock
440
 16777216
100
AcDbMText
 10
-163.0354924402527
 20
3363.533310535338
 30
0.0
 40
75.0
 41
0.0
 46
0.0
 71
     5
 72
     5
  1
\A1;1180
 11
0.0
 21
1.0
 31
0.0
 73
     1
 44
1.0
  0
POINT
  5
7ED3
330
7DB5
100
AcDbEntity
  8
DEFPOINTS
  6
ByBlock
 62
     0
440
 16777216
100
AcDbPoint
 10
185.6032242090332
 20
3953.533310535338
 30
0.0
  0
POINT
  5
7ED4
330
7DB5
100
AcDbEntity
  8
DEFPOINTS
  6
ByBlock
 62
     0
440
 16777216
100
AcDbPoint
 10
185.6032242090332
 20
2773.533310535338
 30
0.0
  0
POINT
  5
7ED5
330
7DB5
100
AcDbEntity
  8
DEFPOINTS
  6
ByBlock
 62
     0
440
 16777216
100
AcDbPoint
 10
-113.0354924402527
 20
2773.533310535338
 30
0.0
  0
ENDBLK
  5
7ED6
330
7DB5
100
AcDbEntity
  8
0
100
AcDbBlockEnd
  0
BLOCK
  5
7ED7
330
7DC1
100
AcDbEntity
  8
0
100
AcDbBlockBegin
  2
*D10
 70
     1
 10
0.0
 20
0.0
 30
0.0
  3
*D10
  1

  0
LINE
  5
7ED8
330
7DC1
100
AcDbEntity
  8
0
  6
ByBlock
440
 16777216
100
AcDbLine
 10
1910.603224209032
 20
3523.533310535339
 30
0.0
 11
2209.208975315931
 21
3523.533310535339
 31
0.0
  0
LINE
  5
7ED9
330
7DC1
100
AcDbEntity
  8
0
  6
ByBlock
440
 16777216
100
AcDbLine
 10
1910.603224209033
 20
2773.53331053534
 30
0.0
 11
2209.208975315931
 21
2773.53331053534
 31
0.0
  0
LINE
  5
7EDA
330
7DC1
100
AcDbEntity
  8
0
  6
ByBlock
440
 16777216
100
AcDbLine
 10
2184.208975315931
 20
3473.533310535339
 30
0.0
 11
2184.208975315931
 21
2823.533310535339
 31
0.0
  0
INSERT
  5
7EDB
330
7DC1
100
AcDbEntity
  8
0
  6
ByBlock
440
 16777216
100
AcDbBlockReference
  2
_OPEN
 10
2184.208975315931
 20
3523.533310535339
 30
0.0
 41
50.0
 42
50.0
 43
50.0
 50
90.0
  0
INSERT
  5
7EDC
330
7DC1
100
AcDbEntity
  8
0
  6
ByBlock
440
 16777216
100
AcDbBlockReference
  2
_OPEN
 10
2184.208975315931
 20
2773.53331053534
 30
0.0
 41
50.0
 42
50.0
 43
50.0
 50
270.0
  0
MTEXT
  5
7EDD
330
7DC1
100
AcDbEntity
  8
0
  6
ByBlock
440
 16777216
100
AcDbMText
 10
2134.208975315931
 20
3148.53331053534
 30
0.0
 40
75.0
 41
0.0
 46
0.0
 71
     5
 72
     5
  1
\A1;750
 11
0.0
 21
1.0
 31
0.0
 73
     1
 44
1.0
  0
POINT
  5
7EDE
330
7DC1
100
AcDbEntity
  8
DEFPOINTS
  6
ByBlock
 62
     0
440
 16777216
100
AcDbPoint
 10
1885.603224209032
 20
3523.533310535339
 30
0.0
  0
POINT
  5
7EDF
330
7DC1
100
AcDbEntity
  8
DEFPOINTS
  6
ByBlock
 62
     0
440
 16777216
100
AcDbPoint
 10
1885.603224209033
 20
2773.53331053534
 30
0.0
  0
POINT
  5
7EE0
330
7DC1
100
AcDbEntity
  8
DEFPOINTS
  6
ByBlock
 62
     0
440
 16777216
100
AcDbPoint
 10
2184.208975315931
 20
2773.53331053534
 30
0.0
  0
ENDBLK
  5
7EE1
330
7DC1
100
AcDbEntity
  8
0
100
AcDbBlockEnd
  0
BLOCK
  5
7EE2
330
7DCD
100
AcDbEntity
  8
0
100
AcDbBlockBegin
  2
*D11
 70
     1
 10
0.0
 20
0.0
 30
0.0
  3
*D11
  1

  0
LINE
  5
7EE3
330
7DCD
100
AcDbEntity
  8
0
  6
ByBlock
440
 16777216
100
AcDbLine
 10
1885.603224209033
 20
2748.53331053534
 30
0.0
 11
1885.603224209033
 21
2326.612722814356
 31
0.0
  0
LINE
  5
7EE4
330
7DCD
100
AcDbEntity
  8
0
  6
ByBlock
440
 16777216
100
AcDbLine
 10
185.6032242090332
 20
2748.533310535338
 30
0.0
 11
185.6032242090332
 21
2326.612722814356
 31
0.0
  0
LINE
  5
7EE5
330
7DCD
100
AcDbEntity
  8
0
  6
ByBlock
440
 16777216
100
AcDbLine
 10
1835.603224209033
 20
2351.612722814356
 30
0.0
 11
235.6032242090332
 21
2351.612722814356
 31
0.0
  0
INSERT
  5
7EE6
330
7DCD
100
AcDbEntity
  8
0
  6
ByBlock
440
 16777216
100
AcDbBlockReference
  2
_OPEN
 10
1885.603224209033
 20
2351.612722814356
 30
0.0
 41
50.0
 42
50.0
 43
50.0
  0
INSERT
  5
7EE7
330
7DCD
100
AcDbEntity
  8
0
  6
ByBlock
440
 16777216
100
AcDbBlockReference
  2
_OPEN
 10
185.6032242090332
 20
2351.612722814356
 30
0.0
 41
50.0
 42
50.0
 43
50.0
 50
180.0
  0
MTEXT
  5
7EE8
330
7DCD
100
AcDbEntity
  8
0
  6
ByBlock
440
 16777216
100
AcDbMText
 10
1035.603224209033
 20
2401.612722814356
 30
0.0
 40
75.0
 41
0.0
 46
0.0
 71
     5
 72
     5
  1
\A1;1700
 73
     1
 44
1.0
  0
POINT
  5
7EE9
330
7DCD
100
AcDbEntity
  8
DEFPOINTS
  6
ByBlock
 62
     0
440
 16777216
100
AcDbPoint
 10
1885.603224209033
 20
2773.53331053534
 30
0.0
  0
POINT
  5
7EEA
330
7DCD
100
AcDbEntity
  8
DEFPOINTS
  6
ByBlock
 62
     0
440
 16777216
100
AcDbPoint
 10
185.6032242090332
 20
2773.533310535338
 30
0.0
  0
POINT
  5
7EEB
330
7DCD
100
AcDbEntity
  8
DEFPOINTS
  6
ByBlock
 62
     0
440
 16777216
100
AcDbPoint
 10
185.6032242090332
 20
2351.612722814356
 30
0.0
  0
ENDBLK
  5
7EEC
330
7DCD
100
AcDbEntity
  8
0
100
AcDbBlockEnd
  0
BLOCK
  5
7FE8
330
7DD9
100
AcDbEntity
  8
0
100
AcDbBlockBegin
  2
*D12
 70
     1
 10
0.0
 20
0.0
 30
0.0
  3
*D12
  1

  0
LINE
  5
7FE9
330
7DD9
100
AcDbEntity
  8
0
  6
ByBlock
440
 16777216
100
AcDbLine
 10
2517.719751513126
 20
5015.797394839575
 30
0.0
 11
2517.719751513126
 21
5653.282608033805
 31
0.0
  0
LINE
  5
7FEA
330
7DD9
100
AcDbEntity
  8
0
  6
ByBlock
440
 16777216
100
AcDbLine
 10
1717.719751513126
 20
5445.797394839574
 30
0.0
 11
1717.719751513126
 21
5653.282608033805
 31
0.0
  0
LINE
  5
7FEB
330
7DD9
100
AcDbEntity
  8
0
  6
ByBlock
440
 16777216
100
AcDbLine
 10
2467.719751513126
 20
5628.282608033805
 30
0.0
 11
1767.719751513126
 21
5628.282608033805
 31
0.0
  0
INSERT
  5
7FEC
330
7DD9
100
AcDbEntity
  8
0
  6
ByBlock
440
 16777216
100
AcDbBlockReference
  2
_OPEN
 10
2517.719751513126
 20
5628.282608033805
 30
0.0
 41
50.0
 42
50.0
 43
50.0
  0
INSERT
  5
7FED
330
7DD9
100
AcDbEntity
  8
0
  6
ByBlock
440
 16777216
100
AcDbBlockReference
  2
_OPEN
 10
1717.719751513126
 20
5628.282608033805
 30
0.0
 41
50.0
 42
50.0
 43
50.0
 50
180.0
  0
MTEXT
  5
7FEE
330
7DD9
100
AcDbEntity
  8
0
  6
ByBlock
440
 16777216
100
AcDbMText
 10
2117.719751513126
 20
5678.282608033805
 30
0.0
 40
75.0
 41
0.0
 46
0.0
 71
     5
 72
     5
  1
\A1;800
 73
     1
 44
1.0
  0
POINT
  5
7FEF
330
7DD9
100
AcDbEntity
  8
DEFPOINTS
  6
ByBlock
 62
     0
440
 16777216
100
AcDbPoint
 10
2517.719751513126
 20
4990.797394839574
 30
0.0
  0
POINT
  5
7FF0
330
7DD9
100
AcDbEntity
  8
DEFPOINTS
  6
ByBlock
 62
     0
440
 16777216
100
AcDbPoint
 10
1717.719751513126
 20
5420.797394839574
 30
0.0
  0
POINT
  5
7FF1
330
7DD9
100
AcDbEntity
  8
DEFPOINTS
  6
ByBlock
 62
     0
440
 16777216
100
AcDbPoint
 10
1717.719751513126
 20
5628.282608033805
 30
0.0
  0
ENDBLK
  5
7FF2
330
7DD9
100
AcDbEntity
  8
0
100
AcDbBlockEnd
  0
BLOCK
  5
7EF8
330
7DE5
100
AcDbEntity
  8
0
100
AcDbBlockBegin
  2
*D13
 70
     1
 10
0.0
 20
0.0
 30
0.0
  3
*D13
  1

  0
LINE
  5
7EF9
330
7DE5
100
AcDbEntity
  8
0
  6
ByBlock
440
 16777216
100
AcDbLine
 10
-11.66261459639645
 20
508.5934782213989
 30
0.0
 11
-190.1505900762822
 21
508.5934782213989
 31
0.0
  0
LINE
  5
7EFA
330
7DE5
100
AcDbEntity
  8
0
  6
ByBlock
440
 16777216
100
AcDbLine
 10
160.6032242090332
 20
-36.40652177860102
 30
0.0
 11
-190.1505900762822
 21
-36.40652177860102
 31
0.0
  0
LINE
  5
7EFB
330
7DE5
100
AcDbEntity
  8
0
  6
ByBlock
440
 16777216
100
AcDbLine
 10
-165.1505900762822
 20
458.5934782213989
 30
0.0
 11
-165.1505900762822
 21
13.59347822139898
 31
0.0
  0
INSERT
  5
7EFC
330
7DE5
100
AcDbEntity
  8
0
  6
ByBlock
440
 16777216
100
AcDbBlockReference
  2
_OPEN
 10
-165.1505900762822
 20
508.5934782213989
 30
0.0
 41
50.0
 42
50.0
 43
50.0
 50
90.0
  0
INSERT
  5
7EFD
330
7DE5
100
AcDbEntity
  8
0
  6
ByBlock
440
 16777216
100
AcDbBlockReference
  2
_OPEN
 10
-165.1505900762822
 20
-36.40652177860102
 30
0.0
 41
50.0
 42
50.0
 43
50.0
 50
270.0
  0
MTEXT
  5
7EFE
330
7DE5
100
AcDbEntity
  8
0
  6
ByBlock
440
 16777216
100
AcDbMText
 10
-215.1505900762822
 20
236.093478221399
 30
0.0
 40
75.0
 41
0.0
 46
0.0
 71
     5
 72
     5
  1
\A1;545
 11
0.0
 21
1.0
 31
0.0
 73
     1
 44
1.0
  0
POINT
  5
7EFF
330
7DE5
100
AcDbEntity
  8
DEFPOINTS
  6
ByBlock
 62
     0
440
 16777216
100
AcDbPoint
 10
13.33738540360355
 20
508.5934782213989
 30
0.0
  0
POINT
  5
7F00
330
7DE5
100
AcDbEntity
  8
DEFPOINTS
  6
ByBlock
 62
     0
440
 16777216
100
AcDbPoint
 10
185.6032242090332
 20
-36.40652177860102
 30
0.0
  0
POINT
  5
7F01
330
7DE5
100
AcDbEntity
  8
DEFPOINTS
  6
ByBlock
 62
     0
440
 16777216
100
AcDbPoint
 10
-165.1505900762822
 20
-36.40652177860102
 30
0.0
  0
ENDBLK
  5
7F02
330
7DE5
100
AcDbEntity
  8
0
100
AcDbBlockEnd
  0
BLOCK
  5
7F1D
330
7E0D
100
AcDbEntity
  8
0
100
AcDbBlockBegin
  2
*D14
 70
     1
 10
0.0
 20
0.0
 30
0.0
  3
*D14
  1

  0
LINE
  5
7F1E
330
7E0D
100
AcDbEntity
  8
0
  6
ByBlock
440
 16777216
100
AcDbLine
 10
4421.77207393047
 20
508.3934782213988
 30
0.0
 11
4421.77207393047
 21
1624.322439612884
 31
0.0
  0
LINE
  5
7F1F
330
7E0D
100
AcDbEntity
  8
0
  6
ByBlock
440
 16777216
100
AcDbLine
 10
3844.27207393047
 20
1595.434008648137
 30
0.0
 11
3844.27207393047
 21
1624.322439612884
 31
0.0
  0
LINE
  5
7F20
330
7E0D
100
AcDbEntity
  8
0
  6
ByBlock
440
 16777216
100
AcDbLine
 10
4371.77207393047
 20
1599.322439612884
 30
0.0
 11
3894.27207393047
 21
1599.322439612884
 31
0.0
  0
INSERT
  5
7F21
330
7E0D
100
AcDbEntity
  8
0
  6
ByBlock
440
 16777216
100
AcDbBlockReference
  2
_OPEN
 10
4421.77207393047
 20
1599.322439612884
 30
0.0
 41
50.0
 42
50.0
 43
50.0
  0
INSERT
  5
7F22
330
7E0D
100
AcDbEntity
  8
0
  6
ByBlock
440
 16777216
100
AcDbBlockReference
  2
_OPEN
 10
3844.27207393047
 20
1599.322439612884
 30
0.0
 41
50.0
 42
50.0
 43
50.0
 50
180.0
  0
MTEXT
  5
7F23
330
7E0D
100
AcDbEntity
  8
0
  6
ByBlock
440
 16777216
100
AcDbMText
 10
4133.02207393047
 20
1668.965296755741
 30
0.0
 40
75.0
 41
0.0
 46
0.0
 71
     5
 72
     5
  1
\A1;(620)
 73
     1
 44
1.0
  0
POINT
  5
7F24
330
7E0D
100
AcDbEntity
  8
DEFPOINTS
  6
ByBlock
 62
     0
440
 16777216
100
AcDbPoint
 10
4421.77207393047
 20
483.3934782213988
 30
0.0
  0
POINT
  5
7F25
330
7E0D
100
AcDbEntity
  8
DEFPOINTS
  6
ByBlock
 62
     0
440
 16777216
100
AcDbPoint
 10
3844.27207393047
 20
1570.434008648137
 30
0.0
  0
POINT
  5
7F26
330
7E0D
100
AcDbEntity
  8
DEFPOINTS
  6
ByBlock
 62
     0
440
 16777216
100
AcDbPoint
 10
3844.27207393047
 20
1599.322439612884
 30
0.0
  0
ENDBLK
  5
7F27
330
7E0D
100
AcDbEntity
  8
0
100
AcDbBlockEnd
  0
BLOCK
  5
7F33
330
7E25
100
AcDbEntity
  8
0
100
AcDbBlockBegin
  2
*D16
 70
     1
 10
0.0
 20
0.0
 30
0.0
  3
*D16
  1

  0
LINE
  5
7F34
330
7E25
100
AcDbEntity
  8
0
  6
ByBlock
440
 16777216
100
AcDbLine
 10
135.6032242090332
 20
1292.593478221399
 30
0.0
 11
135.6032242090332
 21
1634.05136648725
 31
0.0
  0
LINE
  5
7F35
330
7E25
100
AcDbEntity
  8
0
  6
ByBlock
440
 16777216
100
AcDbLine
 10
1885.603224209033
 20
88.59347822139898
 30
0.0
 11
1885.603224209033
 21
1634.05136648725
 31
0.0
  0
LINE
  5
7F36
330
7E25
100
AcDbEntity
  8
0
  6
ByBlock
440
 16777216
100
AcDbLine
 10
185.6032242090332
 20
1609.051366487251
 30
0.0
 11
1835.603224209033
 21
1609.051366487251
 31
0.0
  0
INSERT
  5
7F37
330
7E25
100
AcDbEntity
  8
0
  6
ByBlock
440
 16777216
100
AcDbBlockReference
  2
_OPEN
 10
135.6032242090332
 20
1609.051366487251
 30
0.0
 41
50.0
 42
50.0
 43
50.0
 50
180.0
  0
INSERT
  5
7F38
330
7E25
100
AcDbEntity
  8
0
  6
ByBlock
440
 16777216
100
AcDbBlockReference
  2
_OPEN
 10
1885.603224209033
 20
1609.051366487251
 30
0.0
 41
50.0
 42
50.0
 43
50.0
  0
MTEXT
  5
7F39
330
7E25
100
AcDbEntity
  8
0
  6
ByBlock
440
 16777216
100
AcDbMText
 10
1010.603224209033
 20
1659.051366487251
 30
0.0
 40
75.0
 41
0.0
 46
0.0
 71
     5
 72
     5
  1
\A1;1750
 73
     1
 44
1.0
  0
POINT
  5
7F3A
330
7E25
100
AcDbEntity
  8
DEFPOINTS
  6
ByBlock
 62
     0
440
 16777216
100
AcDbPoint
 10
135.6032242090332
 20
1267.593478221399
 30
0.0
  0
POINT
  5
7F3B
330
7E25
100
AcDbEntity
  8
DEFPOINTS
  6
ByBlock
 62
     0
440
 16777216
100
AcDbPoint
 10
1885.603224209033
 20
63.59347822139898
 30
0.0
  0
POINT
  5
7F3C
330
7E25
100
AcDbEntity
  8
DEFPOINTS
  6
ByBlock
 62
     0
440
 16777216
100
AcDbPoint
 10
1885.603224209033
 20
1609.051366487251
 30
0.0
  0
ENDBLK
  5
7F3D
330
7E25
100
AcDbEntity
  8
0
100
AcDbBlockEnd
  0
BLOCK
  5
7FAE
330
7FAD
100
AcDbEntity
  8
0
100
AcDbBlockBegin
  2
_DOT
 70
     0
 10
0.0
 20
0.0
 30
0.0
  3
_DOT
  1

  0
LWPOLYLINE
  5
7FB7
330
7FAD
100
AcDbEntity
  8
0
  6
ByBlock
 62
     0
100
AcDbPolyline
 90
        2
 70
     1
 43
0.25
 10
-0.125
 20
0.0
 42
1.0
 10
0.125
 20
0.0
 42
1.0
  0
LINE
  5
7FBB
330
7FAD
100
AcDbEntity
  8
0
  6
ByBlock
 62
     0
100
AcDbLine
 10
-0.25
 20
0.0
 30
0.0
 11
-1.0
 21
0.0
 31
0.0
  0
ENDBLK
  5
7FB4
330
7FAD
100
AcDbEntity
  8
0
100
AcDbBlockEnd
  0
BLOCK
  5
8024
330
8023
100
AcDbEntity
  8
0
100
AcDbBlockBegin
  2
_NONE
 70
     0
 10
0.0
 20
0.0
 30
0.0
  3
_NONE
  1

  0
CIRCLE
  5
8025
330
8023
100
AcDbEntity
  8
0
  6
ByBlock
 62
     0
100
AcDbCircle
 10
0.0
 20
0.0
 30
0.0
 40
0.25
  0
ENDBLK
  5
8026
330
8023
100
AcDbEntity
  8
0
100
AcDbBlockEnd
  0
BLOCK
  5
8081
330
8080
100
AcDbEntity
  8
0
100
AcDbBlockBegin
  2
*D19
 70
     1
 10
0.0
 20
0.0
 30
0.0
  3
*D19
  1

  0
LINE
  5
8082
330
8080
100
AcDbEntity
  8
0
  6
ByBlock
 62
     0
440
 16777216
100
AcDbLine
 10
1094.942697238013
 20
1805.552246342122
 30
0.0
 11
1094.942697238013
 21
1622.581899355933
 31
0.0
  0
LINE
  5
8083
330
8080
100
AcDbEntity
  8
0
  6
ByBlock
 62
     0
440
 16777216
100
AcDbLine
 10
1544.942697238013
 20
1805.552246342123
 30
0.0
 11
1544.942697238013
 21
1622.581899355933
 31
0.0
  0
LINE
  5
8084
330
8080
100
AcDbEntity
  8
0
  6
ByBlock
 62
     0
440
 16777216
100
AcDbLine
 10
1144.942697238013
 20
1647.581899355933
 30
0.0
 11
1494.942697238013
 21
1647.581899355933
 31
0.0
  0
INSERT
  5
8085
330
8080
100
AcDbEntity
  8
0
  6
ByBlock
 62
     0
440
 16777216
100
AcDbBlockReference
  2
_OPEN
 10
1094.942697238013
 20
1647.581899355933
 30
0.0
 41
50.0
 42
50.0
 43
50.0
 50
180.0
  0
INSERT
  5
8086
330
8080
100
AcDbEntity
  8
0
  6
ByBlock
 62
     0
440
 16777216
100
AcDbBlockReference
  2
_OPEN
 10
1544.942697238013
 20
1647.581899355933
 30
0.0
 41
50.0
 42
50.0
 43
50.0
  0
MTEXT
  5
8087
330
8080
100
AcDbEntity
  8
0
  6
ByBlock
 62
     0
440
 16777216
100
AcDbMText
 10
1319.942697238013
 20
1710.081899355933
 30
0.0
 40
75.0
 41
0.0
 46
0.0
 71
     5
 72
     5
  1
\A1;450
 73
     1
 44
1.0
  0
POINT
  5
8088
330
8080
100
AcDbEntity
  8
DEFPOINTS
  6
ByBlock
 62
     0
440
 16777216
100
AcDbPoint
 10
1094.942697238013
 20
1818.052246342122
 30
0.0
  0
POINT
  5
8089
330
8080
100
AcDbEntity
  8
DEFPOINTS
  6
ByBlock
 62
     0
440
 16777216
100
AcDbPoint
 10
1544.942697238013
 20
1818.052246342123
 30
0.0
  0
POINT
  5
808A
330
8080
100
AcDbEntity
  8
DEFPOINTS
  6
ByBlock
 62
     0
440
 16777216
100
AcDbPoint
 10
1544.942697238013
 20
1647.581899355933
 30
0.0
  0
ENDBLK
  5
808B
330
8080
100
AcDbEntity
  8
0
100
AcDbBlockEnd
  0
BLOCK
  5
808E
330
808D
100
AcDbEntity
  8
0
100
AcDbBlockBegin
  2
*D20
 70
     1
 10
0.0
 20
0.0
 30
0.0
  3
*D20
  1

  0
LINE
  5
808F
330
808D
100
AcDbEntity
  8
0
  6
ByBlock
 62
     0
440
 16777216
100
AcDbLine
 10
1544.942697238013
 20
1805.552246342123
 30
0.0
 11
1544.942697238013
 21
1622.581899355933
 31
0.0
  0
LINE
  5
8090
330
808D
100
AcDbEntity
  8
0
  6
ByBlock
 62
     0
440
 16777216
100
AcDbLine
 10
2794.942697238014
 20
1805.552246342122
 30
0.0
 11
2794.942697238014
 21
1622.581899355933
 31
0.0
  0
LINE
  5
8091
330
808D
100
AcDbEntity
  8
0
  6
ByBlock
 62
     0
440
 16777216
100
AcDbLine
 10
1594.942697238013
 20
1647.581899355933
 30
0.0
 11
2744.942697238013
 21
1647.581899355933
 31
0.0
  0
INSERT
  5
8092
330
808D
100
AcDbEntity
  8
0
  6
ByBlock
 62
     0
440
 16777216
100
AcDbBlockReference
  2
_OPEN
 10
1544.942697238013
 20
1647.581899355933
 30
0.0
 41
50.0
 42
50.0
 43
50.0
 50
180.0
  0
INSERT
  5
8093
330
808D
100
AcDbEntity
  8
0
  6
ByBlock
 62
     0
440
 16777216
100
AcDbBlockReference
  2
_OPEN
 10
2794.942697238014
 20
1647.581899355933
 30
0.0
 41
50.0
 42
50.0
 43
50.0
  0
MTEXT
  5
8094
330
808D
100
AcDbEntity
  8
0
  6
ByBlock
 62
     0
440
 16777216
100
AcDbMText
 10
2169.942697238013
 20
1710.081899355933
 30
0.0
 40
75.0
 41
0.0
 46
0.0
 71
     5
 72
     5
  1
\A1;1250
 73
     1
 44
1.0
  0
POINT
  5
8095
330
808D
100
AcDbEntity
  8
DEFPOINTS
  6
ByBlock
 62
     0
440
 16777216
100
AcDbPoint
 10
1544.942697238013
 20
1818.052246342123
 30
0.0
  0
POINT
  5
8096
330
808D
100
AcDbEntity
  8
DEFPOINTS
  6
ByBlock
 62
     0
440
 16777216
100
AcDbPoint
 10
2794.942697238014
 20
1818.052246342122
 30
0.0
  0
POINT
  5
8097
330
808D
100
AcDbEntity
  8
DEFPOINTS
  6
ByBlock
 62
     0
440
 16777216
100
AcDbPoint
 10
2794.942697238014
 20
1647.581899355933
 30
0.0
  0
ENDBLK
  5
8098
330
808D
100
AcDbEntity
  8
0
100
AcDbBlockEnd
  0
BLOCK
  5
809B
330
809A
100
AcDbEntity
  8
0
100
AcDbBlockBegin
  2
*D21
 70
     1
 10
0.0
 20
0.0
 30
0.0
  3
*D21
  1

  0
LINE
  5
809C
330
809A
100
AcDbEntity
  8
0
  6
ByBlock
 62
     0
440
 16777216
100
AcDbLine
 10
3264.825569861673
 20
1805.552246342122
 30
0.0
 11
3264.825569861673
 21
1622.581899355933
 31
0.0
  0
LINE
  5
809D
330
809A
100
AcDbEntity
  8
0
  6
ByBlock
 62
     0
440
 16777216
100
AcDbLine
 10
3916.82556986167
 20
1805.552246342122
 30
0.0
 11
3916.82556986167
 21
1622.581899355933
 31
0.0
  0
LINE
  5
809E
330
809A
100
AcDbEntity
  8
0
  6
ByBlock
 62
     0
440
 16777216
100
AcDbLine
 10
3314.825569861672
 20
1647.581899355933
 30
0.0
 11
3866.825569861671
 21
1647.581899355933
 31
0.0
  0
INSERT
  5
809F
330
809A
100
AcDbEntity
  8
0
  6
ByBlock
 62
     0
440
 16777216
100
AcDbBlockReference
  2
_OPEN
 10
3264.825569861673
 20
1647.581899355933
 30
0.0
 41
50.0
 42
50.0
 43
50.0
 50
180.0
  0
INSERT
  5
80A0
330
809A
100
AcDbEntity
  8
0
  6
ByBlock
 62
     0
440
 16777216
100
AcDbBlockReference
  2
_OPEN
 10
3916.82556986167
 20
1647.581899355933
 30
0.0
 41
50.0
 42
50.0
 43
50.0
  0
MTEXT
  5
80A1
330
809A
100
AcDbEntity
  8
0
  6
ByBlock
 62
     0
440
 16777216
100
AcDbMText
 10
3590.825569861671
 20
1710.081899355933
 30
0.0
 40
75.0
 41
0.0
 46
0.0
 71
     5
 72
     5
  1
\A1;652
 73
     1
 44
1.0
  0
POINT
  5
80A2
330
809A
100
AcDbEntity
  8
DEFPOINTS
  6
ByBlock
 62
     0
440
 16777216
100
AcDbPoint
 10
3264.825569861673
 20
1818.052246342122
 30
0.0
  0
POINT
  5
80A3
330
809A
100
AcDbEntity
  8
DEFPOINTS
  6
ByBlock
 62
     0
440
 16777216
100
AcDbPoint
 10
3916.82556986167
 20
1818.052246342122
 30
0.0
  0
POINT
  5
80A4
330
809A
100
AcDbEntity
  8
DEFPOINTS
  6
ByBlock
 62
     0
440
 16777216
100
AcDbPoint
 10
3916.82556986167
 20
1647.581899355933
 30
0.0
  0
ENDBLK
  5
80A5
330
809A
100
AcDbEntity
  8
0
100
AcDbBlockEnd
  0
BLOCK
  5
80A8
330
80A7
100
AcDbEntity
  8
0
100
AcDbBlockBegin
  2
*D22
 70
     1
 10
0.0
 20
0.0
 30
0.0
  3
*D22
  1

  0
LINE
  5
80A9
330
80A7
100
AcDbEntity
  8
0
  6
ByBlock
 62
     0
440
 16777216
100
AcDbLine
 10
3916.82556986167
 20
1805.552246342122
 30
0.0
 11
3916.82556986167
 21
1622.581899355933
 31
0.0
  0
LINE
  5
80AA
330
80A7
100
AcDbEntity
  8
0
  6
ByBlock
 62
     0
440
 16777216
100
AcDbLine
 10
4444.825569861672
 20
1805.552246342122
 30
0.0
 11
4444.825569861672
 21
1622.581899355933
 31
0.0
  0
LINE
  5
80AB
330
80A7
100
AcDbEntity
  8
0
  6
ByBlock
 62
     0
440
 16777216
100
AcDbLine
 10
3966.825569861671
 20
1647.581899355933
 30
0.0
 11
4394.825569861672
 21
1647.581899355933
 31
0.0
  0
INSERT
  5
80AC
330
80A7
100
AcDbEntity
  8
0
  6
ByBlock
 62
     0
440
 16777216
100
AcDbBlockReference
  2
_OPEN
 10
3916.82556986167
 20
1647.581899355933
 30
0.0
 41
50.0
 42
50.0
 43
50.0
 50
180.0
  0
INSERT
  5
80AD
330
80A7
100
AcDbEntity
  8
0
  6
ByBlock
 62
     0
440
 16777216
100
AcDbBlockReference
  2
_OPEN
 10
4444.825569861672
 20
1647.581899355933
 30
0.0
 41
50.0
 42
50.0
 43
50.0
  0
MTEXT
  5
80AE
330
80A7
100
AcDbEntity
  8
0
  6
ByBlock
 62
     0
440
 16777216
100
AcDbMText
 10
4180.825569861671
 20
1710.081899355933
 30
0.0
 40
75.0
 41
0.0
 46
0.0
 71
     5
 72
     5
  1
\A1;528
 73
     1
 44
1.0
  0
POINT
  5
80AF
330
80A7
100
AcDbEntity
  8
DEFPOINTS
  6
ByBlock
 62
     0
440
 16777216
100
AcDbPoint
 10
3916.82556986167
 20
1818.052246342122
 30
0.0
  0
POINT
  5
80B0
330
80A7
100
AcDbEntity
  8
DEFPOINTS
  6
ByBlock
 62
     0
440
 16777216
100
AcDbPoint
 10
4444.825569861672
 20
1818.052246342122
 30
0.0
  0
POINT
  5
80B1
330
80A7
100
AcDbEntity
  8
DEFPOINTS
  6
ByBlock
 62
     0
440
 16777216
100
AcDbPoint
 10
4444.825569861672
 20
1647.581899355933
 30
0.0
  0
ENDBLK
  5
80B2
330
80A7
100
AcDbEntity
  8
0
100
AcDbBlockEnd
  0
BLOCK
  5
80B5
330
80B4
100
AcDbEntity
  8
0
100
AcDbBlockBegin
  2
*D23
 70
     1
 10
0.0
 20
0.0
 30
0.0
  3
*D23
  1

  0
LINE
  5
80B6
330
80B4
100
AcDbEntity
  8
0
  6
ByBlock
 62
     0
440
 16777216
100
AcDbLine
 10
1032.442697238013
 20
3122.052246342122
 30
0.0
 11
580.1539312735003
 21
3122.052246342122
 31
0.0
  0
LINE
  5
80B7
330
80B4
100
AcDbEntity
  8
0
  6
ByBlock
 62
     0
440
 16777216
100
AcDbLine
 10
1082.442697238013
 20
1818.052246342122
 30
0.0
 11
580.1539312735003
 21
1818.052246342122
 31
0.0
  0
LINE
  5
80B8
330
80B4
100
AcDbEntity
  8
0
  6
ByBlock
 62
     0
440
 16777216
100
AcDbLine
 10
605.1539312735003
 20
3072.052246342122
 30
0.0
 11
605.1539312735003
 21
1868.052246342122
 31
0.0
  0
INSERT
  5
80B9
330
80B4
100
AcDbEntity
  8
0
  6
ByBlock
 62
     0
440
 16777216
100
AcDbBlockReference
  2
_OPEN
 10
605.1539312735003
 20
3122.052246342122
 30
0.0
 41
50.0
 42
50.0
 43
50.0
 50
90.0
  0
INSERT
  5
80BA
330
80B4
100
AcDbEntity
  8
0
  6
ByBlock
 62
     0
440
 16777216
100
AcDbBlockReference
  2
_OPEN
 10
605.1539312735003
 20
1818.052246342122
 30
0.0
 41
50.0
 42
50.0
 43
50.0
 50
270.0
  0
MTEXT
  5
80BB
330
80B4
100
AcDbEntity
  8
0
  6
ByBlock
 62
     0
440
 16777216
100
AcDbMText
 10
542.6539312735003
 20
2470.052246342123
 30
0.0
 40
75.0
 41
0.0
 46
0.0
 71
     5
 72
     5
  1
\A1;1304
 11
0.0
 21
1.0
 31
0.0
 73
     1
 44
1.0
  0
POINT
  5
80BC
330
80B4
100
AcDbEntity
  8
DEFPOINTS
  6
ByBlock
 62
     0
440
 16777216
100
AcDbPoint
 10
1044.942697238013
 20
3122.052246342122
 30
0.0
  0
POINT
  5
80BD
330
80B4
100
AcDbEntity
  8
DEFPOINTS
  6
ByBlock
 62
     0
440
 16777216
100
AcDbPoint
 10
1094.942697238013
 20
1818.052246342122
 30
0.0
  0
POINT
  5
80BE
330
80B4
100
AcDbEntity
  8
DEFPOINTS
  6
ByBlock
 62
     0
440
 16777216
100
AcDbPoint
 10
605.1539312735003
 20
1818.052246342122
 30
0.0
  0
ENDBLK
  5
80BF
330
80B4
100
AcDbEntity
  8
0
100
AcDbBlockEnd
  0
BLOCK
  5
81AA
330
81A9
100
AcDbEntity
  8
0
100
AcDbBlockBegin
  2
*D24
 70
     1
 10
0.0
 20
0.0
 30
0.0
  3
*D24
  1

  0
LINE
  5
81C7
330
81A9
100
AcDbEntity
  8
3
 62
     0
440
 16777216
370
    -2
100
AcDbLine
 10
3076.825569861672
 20
2595.552246342122
 30
0.0
 11
3076.825569861672
 21
3478.781207733608
 31
0.0
  0
LINE
  5
81C8
330
81A9
100
AcDbEntity
  8
3
 62
     0
440
 16777216
370
    -2
100
AcDbLine
 10
3916.825569861673
 20
3466.281207733608
 30
0.0
 11
3916.825569861673
 21
3478.781207733608
 31
0.0
  0
LINE
  5
81C9
330
81A9
100
AcDbEntity
  8
3
 62
     0
440
 16777216
370
    -2
100
AcDbLine
 10
3126.825569861673
 20
3453.781207733608
 30
0.0
 11
3866.825569861673
 21
3453.781207733608
 31
0.0
  0
INSERT
  5
81CA
330
81A9
100
AcDbEntity
  8
3
 62
     0
440
 16777216
370
    -2
100
AcDbBlockReference
  2
_OPEN
 10
3076.825569861672
 20
3453.781207733608
 30
0.0
 41
50.0
 42
50.0
 43
50.0
 50
180.0
  0
INSERT
  5
81CB
330
81A9
100
AcDbEntity
  8
3
 62
     0
440
 16777216
370
    -2
100
AcDbBlockReference
  2
_OPEN
 10
3916.825569861673
 20
3453.781207733608
 30
0.0
 41
50.0
 42
50.0
 43
50.0
  0
MTEXT
  5
81CC
330
81A9
100
AcDbEntity
  8
3
 62
     0
440
 16777216
100
AcDbMText
 10
3496.825569861672
 20
3535.924064876465
 30
0.0
 40
75.0
 41
0.0
 46
0.0
 71
     5
 72
     1
  1
\A1;(840)
 73
     1
 44
1.0
  0
POINT
  5
81CD
330
81A9
100
AcDbEntity
  8
DEFPOINTS
 62
     0
440
 16777216
100
AcDbPoint
 10
3076.825569861672
 20
2583.052246342122
 30
0.0
  0
POINT
  5
81CE
330
81A9
100
AcDbEntity
  8
DEFPOINTS
 62
     0
440
 16777216
100
AcDbPoint
 10
3916.825569861673
 20
3453.781207733608
 30
0.0
  0
POINT
  5
81CF
330
81A9
100
AcDbEntity
  8
DEFPOINTS
 62
     0
440
 16777216
100
AcDbPoint
 10
3916.825569861673
 20
3453.781207733608
 30
0.0
  0
ENDBLK
  5
81AB
330
81A9
100
AcDbEntity
  8
0
100
AcDbBlockEnd
  0
BLOCK
  5
821D
330
821C
100
AcDbEntity
  8
0
100
AcDbBlockBegin
  2
*D25
 70
     1
 10
0.0
 20
0.0
 30
0.0
  3
*D25
  1

  0
LINE
  5
8240
330
821C
100
AcDbEntity
  8
3
 62
     0
440
 16777216
370
    -2
100
AcDbLine
 10
1544.942697238013
 20
3327.532778523153
 30
0.0
 11
1544.942697238013
 21
3340.032778523153
 31
0.0
  0
LINE
  5
8241
330
821C
100
AcDbEntity
  8
3
 62
     0
440
 16777216
370
    -2
100
AcDbLine
 10
2139.942697238012
 20
2428.552246342122
 30
0.0
 11
2139.942697238012
 21
3340.032778523153
 31
0.0
  0
LINE
  5
8242
330
821C
100
AcDbEntity
  8
3
 62
     0
440
 16777216
370
    -2
100
AcDbLine
 10
1594.942697238013
 20
3315.032778523153
 30
0.0
 11
2089.942697238011
 21
3315.032778523153
 31
0.0
  0
INSERT
  5
8243
330
821C
100
AcDbEntity
  8
3
 62
     0
440
 16777216
370
    -2
100
AcDbBlockReference
  2
_OPEN
 10
1544.942697238013
 20
3315.032778523153
 30
0.0
 41
50.0
 42
50.0
 43
50.0
 50
180.0
  0
INSERT
  5
8244
330
821C
100
AcDbEntity
  8
3
 62
     0
440
 16777216
370
    -2
100
AcDbBlockReference
  2
_OPEN
 10
2139.942697238012
 20
3315.032778523153
 30
0.0
 41
50.0
 42
50.0
 43
50.0
  0
MTEXT
  5
8245
330
821C
100
AcDbEntity
  8
3
 62
     0
440
 16777216
100
AcDbMText
 10
1842.442697238012
 20
3377.532778523153
 30
0.0
 40
75.0
 41
0.0
 46
0.0
 71
     5
 72
     1
  1
\A1;595
 73
     1
 44
1.0
  0
POINT
  5
8246
330
821C
100
AcDbEntity
  8
DEFPOINTS
 62
     0
440
 16777216
100
AcDbPoint
 10
1544.942697238013
 20
3315.032778523153
 30
0.0
  0
POINT
  5
8247
330
821C
100
AcDbEntity
  8
DEFPOINTS
 62
     0
440
 16777216
100
AcDbPoint
 10
2139.942697238012
 20
2416.052246342122
 30
0.0
  0
POINT
  5
8248
330
821C
100
AcDbEntity
  8
DEFPOINTS
 62
     0
440
 16777216
100
AcDbPoint
 10
2139.942697238012
 20
3315.032778523153
 30
0.0
  0
ENDBLK
  5
821E
330
821C
100
AcDbEntity
  8
0
100
AcDbBlockEnd
  0
ENDSEC
  0
SECTION
  2
ENTITIES
  0
INSERT
  5
7C2E
330
19
100
AcDbEntity
  8
0
100
AcDbBlockReference
  2
YA_N
 10
6.0
 20
5.0
 30
0.0
  0
LINE
  5
7C3B
330
19
100
AcDbEntity
  8
1
100
AcDbLine
 10
1094.942697238013
 20
1918.052246342122
 30
0.0
 11
1094.942697238013
 21
1818.052246342122
 31
0.0
  0
LINE
  5
7C3C
330
19
100
AcDbEntity
  8
1
100
AcDbLine
 10
1094.942697238013
 20
1918.052246342122
 30
0.0
 11
2794.942697238014
 21
1918.052246342122
 31
0.0
  0
LINE
  5
7C3D
330
19
100
AcDbEntity
  8
1
100
AcDbLine
 10
2794.942697238014
 20
1918.052246342122
 30
0.0
 11
2794.942697238014
 21
1818.052246342122
 31
0.0
  0
LINE
  5
7C3E
330
19
100
AcDbEntity
  8
2
100
AcDbLine
 10
1544.942697238013
 20
1818.052246342123
 30
0.0
 11
1544.942697238013
 21
3193.103530799264
 31
0.0
  0
LINE
  5
7C3F
330
19
100
AcDbEntity
  8
2
100
AcDbLine
 10
922.6768584325837
 20
2363.052246342122
 30
0.0
 11
2219.969174740618
 21
2363.052246342122
 31
0.0
  0
LINE
  5
7C40
330
19
100
AcDbEntity
  8
1
100
AcDbLine
 10
2341.942697238013
 20
1958.052246342122
 30
0.0
 11
2747.942697238014
 21
1958.052246342122
 31
0.0
  0
LINE
  5
7C41
330
19
100
AcDbEntity
  8
1
100
AcDbLine
 10
2344.942697238014
 20
1918.052246342122
 30
0.0
 11
2344.942697238014
 21
1958.052246342122
 31
0.0
  0
LINE
  5
7C45
330
19
100
AcDbEntity
  8
1
100
AcDbLine
 10
1094.942697238013
 20
1818.052246342122
 30
0.0
 11
2794.942697238014
 21
1818.052246342122
 31
0.0
1001
ACAD
1000
ASC_BOUNDS
1002
{
1070
    19
1002
}
  0
LINE
  5
7C47
330
19
100
AcDbEntity
  8
2
100
AcDbLine
 10
3916.82556986167
 20
1818.052246342122
 30
0.0
 11
3916.825569861673
 21
3283.038308726713
 31
0.0
  0
LINE
  5
7C48
330
19
100
AcDbEntity
  8
2
100
AcDbLine
 10
3087.415116498869
 20
2363.052246342122
 30
0.0
 11
4503.107928256986
 21
2363.052246342122
 31
0.0
  0
LINE
  5
7C49
330
19
100
AcDbEntity
  8
1
100
AcDbLine
 10
3264.825569861673
 20
1918.052246342122
 30
0.0
 11
4444.825569861672
 21
1918.052246342122
 31
0.0
  0
LINE
  5
7C4A
330
19
100
AcDbEntity
  8
1
100
AcDbLine
 10
3264.825569861673
 20
1818.052246342122
 30
0.0
 11
4444.825569861672
 21
1818.052246342122
 31
0.0
1001
ACAD
1000
ASC_BOUNDS
1002
{
1070
    19
1002
}
  0
LINE
  5
7C4B
330
19
100
AcDbEntity
  8
1
100
AcDbLine
 10
3264.825569861673
 20
1818.052246342122
 30
0.0
 11
3264.825569861673
 21
1918.052246342122
 31
0.0
  0
LINE
  5
7C4E
330
19
100
AcDbEntity
  8
1
100
AcDbLine
 10
4444.825569861672
 20
1818.052246342122
 30
0.0
 11
4444.825569861672
 21
1918.052246342122
 31
0.0
  0
LINE
  5
7C4F
330
19
100
AcDbEntity
  8
2
100
AcDbLine
 10
1544.942697238013
 20
5502.713124470834
 30
0.0
 11
1544.942697238013
 21
3985.755967289448
 31
0.0
  0
LINE
  5
7C50
330
19
100
AcDbEntity
  8
2
100
AcDbLine
 10
2544.942697238014
 20
4863.708326838811
 30
0.0
 11
2544.942697238012
 21
3985.755967289448
 31
0.0
  0
LINE
  5
7C51
330
19
100
AcDbEntity
  8
2
100
AcDbLine
 10
941.6139510605717
 20
4892.797394839572
 30
0.0
 11
2156.942697238013
 21
4892.797394839575
 31
0.0
  0
LINE
  5
7C52
330
19
100
AcDbEntity
  8
2
100
AcDbLine
 10
3086.825569861674
 20
2168.052246342123
 30
0.0
 11
3771.825569861672
 21
2168.052246342123
 31
0.0
  0
LINE
  5
7C53
330
19
100
AcDbEntity
  8
1
100
AcDbLine
 10
3168.825569861673
 20
2061.052246342122
 30
0.0
 11
3168.825569861672
 21
2490.052246342122
 31
0.0
  0
LINE
  5
7C54
330
19
100
AcDbEntity
  8
1
100
AcDbLine
 10
3253.825569861674
 20
2061.052246342122
 30
0.0
 11
3253.825569861672
 21
2490.052246342122
 31
0.0
  0
LINE
  5
7C55
330
19
100
AcDbEntity
  8
1
100
AcDbLine
 10
3076.825569861674
 20
1948.052246342122
 30
0.0
 11
3076.825569861672
 21
2583.052246342122
 31
0.0
  0
LINE
  5
7C56
330
19
100
AcDbEntity
  8
1
100
AcDbLine
 10
3298.825569861673
 20
1948.052246342122
 30
0.0
 11
3298.825569861673
 21
1978.052246342122
 31
0.0
  0
LINE
  5
7C57
330
19
100
AcDbEntity
  8
1
100
AcDbLine
 10
4391.825569861672
 20
1918.052246342122
 30
0.0
 11
4391.825569861672
 21
2363.052246342122
 31
0.0
  0
INSERT
  5
7C5A
330
19
100
AcDbEntity
  8
0
100
AcDbBlockReference
  2
YA_N
 10
-1092.024831295133
 20
-1095.319682135705
 30
0.0
 41
20.0
 42
20.0
 43
20.0
  0
LINE
  5
7C5C
330
19
100
AcDbEntity
  8
1
100
AcDbLine
 10
2698.942697238014
 20
2024.052246342122
 30
0.0
 11
2679.510197238013
 21
2077.442246342123
 31
0.0
  0
LINE
  5
7C5D
330
19
100
AcDbEntity
  8
1
100
AcDbLine
 10
2390.942697238013
 20
2024.052246342122
 30
0.0
 11
2410.375297238014
 21
2077.442246342123
 31
0.0
  0
ARC
  5
7C5E
330
19
100
AcDbEntity
  8
1
100
AcDbCircle
 10
2544.942697238014
 20
2168.052246342123
 30
0.0
 40
162.0
100
AcDbArc
 50
285.6481
 51
0.0
  0
ARC
  5
7C5F
330
19
100
AcDbEntity
  8
1
100
AcDbCircle
 10
2544.942697238014
 20
2168.052246342123
 30
0.0
 40
162.0
100
AcDbArc
 50
0.0
 51
254.5427
  0
LINE
  5
7C60
330
19
100
AcDbEntity
  8
2
100
AcDbLine
 10
2544.942697238014
 20
2417.288246342122
 30
0.0
 11
2544.942697238014
 21
1818.052246342122
 31
0.0
  0
LINE
  5
7C61
330
19
100
AcDbEntity
  8
1
100
AcDbLine
 10
2501.262097238014
 20
2012.052246342122
 30
0.0
 11
2588.623397238013
 21
2012.052246342122
 31
0.0
  0
LINE
  5
7C62
330
19
100
AcDbEntity
  8
1
100
AcDbLine
 10
2459.998797238013
 20
2030.108246342122
 30
0.0
 11
2451.821397238014
 21
2021.930246342122
 31
0.0
  0
LINE
  5
7C63
330
19
100
AcDbEntity
  8
1
100
AcDbLine
 10
2437.729497238013
 20
2026.052246342122
 30
0.0
 11
2392.942697238014
 21
2026.052246342122
 31
0.0
  0
ARC
  5
7C65
330
19
100
AcDbEntity
  8
1
100
AcDbCircle
 10
2392.942697238014
 20
2024.052246342122
 30
0.0
 40
2.0
100
AcDbArc
 50
90.0
 51
180.0
  0
LINE
  5
7C67
330
19
100
AcDbEntity
  8
1
100
AcDbLine
 10
2390.942697238013
 20
2008.052246342122
 30
0.0
 11
2390.942697238013
 21
2024.052246342122
 31
0.0
  0
ARC
  5
7C69
330
19
100
AcDbEntity
  8
1
100
AcDbCircle
 10
2453.942697238014
 20
2019.809246342122
 30
0.0
 40
3.0
100
AcDbArc
 50
135.0
 51
180.0
  0
LINE
  5
7C6A
330
19
100
AcDbEntity
  8
1
100
AcDbLine
 10
2450.942697238013
 20
2008.052246342122
 30
0.0
 11
2450.942697238013
 21
2019.809246342122
 31
0.0
  0
ARC
  5
7C6F
330
19
100
AcDbEntity
  8
1
100
AcDbCircle
 10
2437.729497238013
 20
2029.052246342122
 30
0.0
 40
3.0
100
AcDbArc
 50
270.0
 51
315.0
  0
LINE
  5
7C70
330
19
100
AcDbEntity
  8
1
100
AcDbLine
 10
2449.831497238013
 20
2036.911246342122
 30
0.0
 11
2439.850897238013
 21
2026.930246342122
 31
0.0
  0
LINE
  5
7C72
330
19
100
AcDbEntity
  8
1
100
AcDbLine
 10
2652.155897238014
 20
2026.052246342122
 30
0.0
 11
2696.942697238013
 21
2026.052246342122
 31
0.0
  0
LINE
  5
7C73
330
19
100
AcDbEntity
  8
1
100
AcDbLine
 10
2629.886597238014
 20
2030.108246342122
 30
0.0
 11
2638.064097238014
 21
2021.930246342122
 31
0.0
  0
ARC
  5
7C74
330
19
100
AcDbEntity
  8
1
100
AcDbCircle
 10
2635.942697238013
 20
2019.809246342122
 30
0.0
 40
3.0
100
AcDbArc
 50
0.0
 51
45.0
  0
LINE
  5
7C75
330
19
100
AcDbEntity
  8
1
100
AcDbLine
 10
2638.942697238014
 20
2008.052246342122
 30
0.0
 11
2638.942697238014
 21
2019.809246342122
 31
0.0
  0
ARC
  5
7C76
330
19
100
AcDbEntity
  8
1
100
AcDbCircle
 10
2652.155897238014
 20
2029.052246342122
 30
0.0
 40
3.0
100
AcDbArc
 50
225.0
 51
270.0
  0
LINE
  5
7C77
330
19
100
AcDbEntity
  8
1
100
AcDbLine
 10
2650.144897238013
 20
2026.820246342122
 30
0.0
 11
2640.053897238013
 21
2036.911246342122
 31
0.0
  0
ARC
  5
7C7E
330
19
100
AcDbEntity
  8
1
100
AcDbCircle
 10
2696.942697238013
 20
2024.052246342122
 30
0.0
 40
2.0
100
AcDbArc
 50
0.0
 51
90.0
  0
LINE
  5
7C7F
330
19
100
AcDbEntity
  8
1
100
AcDbLine
 10
2698.942697238014
 20
2008.052246342122
 30
0.0
 11
2698.942697238014
 21
2024.052246342122
 31
0.0
  0
LINE
  5
7C80
330
19
100
AcDbEntity
  8
2
100
AcDbLine
 10
2352.085822338489
 20
2168.052246342123
 30
0.0
 11
2810.047939315722
 21
2168.052246342123
 31
0.0
  0
LINE
  5
7C81
330
19
100
AcDbEntity
  8
1
100
AcDbLine
 10
2655.504097238014
 20
2290.830246342122
 30
0.0
 11
2653.350897238013
 21
2288.284246342122
 31
0.0
  0
LINE
  5
7C82
330
19
100
AcDbEntity
  8
1
100
AcDbLine
 10
2354.983229867755
 20
2008.052246342122
 30
0.0
 11
2484.942697238013
 21
2008.052246342122
 31
0.0
  0
LINE
  5
7C83
330
19
100
AcDbEntity
  8
1
100
AcDbLine
 10
2341.942697238013
 20
1958.052246342122
 30
0.0
 11
2354.983229867755
 21
2008.052246342122
 31
0.0
  0
LINE
  5
7C84
330
19
100
AcDbEntity
  8
1
100
AcDbLine
 10
2747.942697238014
 20
1958.052246342122
 30
0.0
 11
2734.56125632908
 21
2008.052246342122
 31
0.0
  0
LINE
  5
7C85
330
19
100
AcDbEntity
  8
1
100
AcDbLine
 10
2604.942697238013
 20
2008.052246342122
 30
0.0
 11
2604.942697238013
 21
2003.052246342122
 31
0.0
  0
LINE
  5
7C86
330
19
100
AcDbEntity
  8
1
100
AcDbLine
 10
2484.942697238013
 20
2008.052246342122
 30
0.0
 11
2484.942697238013
 21
2003.052246342122
 31
0.0
  0
LINE
  5
7C87
330
19
100
AcDbEntity
  8
1
100
AcDbLine
 10
2484.942697238013
 20
2003.052246342122
 30
0.0
 11
2604.942697238013
 21
2003.052246342122
 31
0.0
  0
LINE
  5
7C89
330
19
100
AcDbEntity
  8
1
100
AcDbLine
 10
2604.942697238013
 20
2008.052246342122
 30
0.0
 11
2734.56125632908
 21
2008.052246342122
 31
0.0
  0
CIRCLE
  5
7C8F
330
19
100
AcDbEntity
  8
1
100
AcDbCircle
 10
1544.942697238013
 20
2363.052246342122
 30
0.0
 40
127.0
  0
CIRCLE
  5
7C90
330
19
100
AcDbEntity
  8
1
100
AcDbCircle
 10
2544.942697238014
 20
2168.052246342123
 30
0.0
 40
107.0
  0
LINE
  5
7C91
330
19
100
AcDbEntity
  8
1
100
AcDbLine
 10
3168.825569861674
 20
2061.052246342122
 30
0.0
 11
3253.825569861674
 21
2061.052246342122
 31
0.0
  0
LINE
  5
7C92
330
19
100
AcDbEntity
  8
1
100
AcDbLine
 10
3168.825569861672
 20
2490.052246342122
 30
0.0
 11
3253.825569861672
 21
2490.052246342122
 31
0.0
  0
LINE
  5
7C93
330
19
100
AcDbEntity
  8
1
100
AcDbLine
 10
3076.825569861672
 20
2583.052246342122
 30
0.0
 11
3298.825569861673
 21
2583.052246342122
 31
0.0
  0
LINE
  5
7C94
330
19
100
AcDbEntity
  8
1
100
AcDbLine
 10
3076.825569861673
 20
1948.052246342122
 30
0.0
 11
3298.825569861673
 21
1948.052246342122
 31
0.0
  0
LINE
  5
7C95
330
19
100
AcDbEntity
  8
1
100
AcDbLine
 10
3298.825569861673
 20
2553.052246342122
 30
0.0
 11
3298.825569861673
 21
2583.052246342122
 31
0.0
  0
LINE
  5
7C96
330
19
100
AcDbEntity
  8
1
100
AcDbLine
 10
3168.825569861673
 20
2275.052246342122
 30
0.0
 11
3253.825569861673
 21
2275.052246342122
 31
0.0
  0
LINE
  5
7C97
330
19
100
AcDbEntity
  8
1
100
AcDbLine
 10
3168.825569861672
 20
2236.052246342122
 30
0.0
 11
3253.825569861673
 21
2236.052246342122
 31
0.0
  0
DIMENSION
  5
7C9E
330
19
100
AcDbEntity
  8
3
100
AcDbDimension
280
     0
  2
*D2
 10
895.9353134587873
 20
2392.052246342122
 30
0.0
 11
845.9353134587873
 21
2757.052246342122
 31
0.0
 12
909.3394730289801
 22
1854.458768120723
 32
0.0
 70
    32
 71
     5
 42
-1.0
 73
     0
 74
     0
 75
     0
  3
MATSU
100
AcDbAlignedDimension
 13
1044.942697238013
 23
3122.052246342122
 33
0.0
 14
1044.942697238012
 24
2392.052246342122
 34
0.0
 50
90.0
100
AcDbRotatedDimension
1001
ACAD
1000
DSTYLE
1002
{
1070
   282
1070
     1
1070
    40
1040
25.0
1002
}
  0
DIMENSION
  5
7C9F
330
19
100
AcDbEntity
  8
3
100
AcDbDimension
280
     0
  2
*D3
 10
743.1265399851217
 20
2363.052246342122
 30
0.0
 11
693.1265399851217
 21
2742.552246342122
 31
0.0
 12
909.3394730289801
 22
1854.458768120723
 32
0.0
 70
    32
 71
     5
 42
-1.0
 73
     0
 74
     0
 75
     0
  3
MATSU
100
AcDbAlignedDimension
 13
1044.942697238013
 23
3122.052246342122
 33
0.0
 14
922.6768584325837
 24
2363.052246342122
 34
0.0
 50
90.0
100
AcDbRotatedDimension
1001
ACAD
1000
DSTYLE
1002
{
1070
   282
1070
     1
1070
    40
1040
25.0
1002
}
  0
INSERT
  5
7CA4
330
19
100
AcDbEntity
  8
0
100
AcDbBlockReference
  2
YA_N
 10
-1018.773193578214
 20
-860.9217325598892
 30
0.0
 41
20.0
 42
20.0
 43
20.0
  0
POINT
  5
7CA9
330
19
100
AcDbEntity
  8
1
100
AcDbPoint
 10
1094.942697238013
 20
1818.052246342122
 30
0.0
  0
LINE
  5
7CAA
330
19
100
AcDbEntity
  8
1
100
AcDbLine
 10
4391.825569861673
 20
2363.052246342122
 30
0.0
 11
4391.825569861671
 21
3122.052246342122
 31
0.0
  0
DIMENSION
  5
7CAC
330
19
100
AcDbEntity
  8
3
100
AcDbDimension
280
     0
  2
*D4
 10
1544.942697238013
 20
3315.032778523153
 30
0.0
 11
1294.942697238013
 21
3365.032778523153
 31
0.0
 12
909.3394730289801
 22
1854.458768120723
 32
0.0
 70
    32
 71
     5
 42
-1.0
 73
     0
 74
     0
 75
     0
  3
MATSU
100
AcDbAlignedDimension
 13
1044.942697238013
 23
3164.052246342122
 33
0.0
 14
1544.942697238013
 24
3193.103530799264
 34
0.0
100
AcDbRotatedDimension
1001
ACAD
1000
DSTYLE
1002
{
1070
   282
1070
     1
1070
    40
1040
25.0
1002
}
  0
LINE
  5
7CAE
330
19
100
AcDbEntity
  8
1
100
AcDbLine
 10
3441.825569861673
 20
2363.052246342122
 30
0.0
 11
3441.825569861672
 21
3122.052246342122
 31
0.0
  0
LINE
  5
7CB2
330
19
100
AcDbEntity
  8
1
100
AcDbLine
 10
4404.325569861671
 20
2227.852246342122
 30
0.0
 11
4404.325569861674
 21
2347.852246342123
 31
0.0
  0
LINE
  5
7CB3
330
19
100
AcDbEntity
  8
1
100
AcDbLine
 10
4494.32556986167
 20
2237.852246342122
 30
0.0
 11
4494.325569861673
 21
2337.852246342122
 31
0.0
  0
LINE
  5
7CB4
330
19
100
AcDbEntity
  8
1
100
AcDbLine
 10
4404.325569861674
 20
2347.852246342123
 30
0.0
 11
4444.125569861673
 21
2347.852246342123
 31
0.0
  0
LINE
  5
7CB5
330
19
100
AcDbEntity
  8
1
100
AcDbLine
 10
4404.325569861671
 20
2227.852246342122
 30
0.0
 11
4444.125569861673
 21
2227.852246342122
 31
0.0
  0
ARC
  5
7CB6
330
19
100
AcDbEntity
  8
1
100
AcDbCircle
 10
4484.325569861673
 20
2337.852246342122
 30
0.0
 40
10.0
100
AcDbArc
 50
359.9999999999984
 51
90.0
  0
ARC
  5
7CB7
330
19
100
AcDbEntity
  8
1
100
AcDbCircle
 10
4484.325569861671
 20
2237.852246342122
 30
0.0
 40
10.0
100
AcDbArc
 50
270.0
 51
359.9999999999984
  0
LINE
  5
7CB8
330
19
100
AcDbEntity
  8
1
100
AcDbLine
 10
4444.125569861673
 20
2227.852246342122
 30
0.0
 11
4484.325569861671
 21
2227.852246342122
 31
0.0
  0
LINE
  5
7CB9
330
19
100
AcDbEntity
  8
1
100
AcDbLine
 10
4444.125569861673
 20
2347.852246342123
 30
0.0
 11
4484.325569861673
 21
2347.852246342123
 31
0.0
  0
LINE
  5
7CBA
330
19
100
AcDbEntity
  8
1
100
AcDbLine
 10
3283.825569861672
 20
2390.552246342122
 30
0.0
 11
3441.825569861673
 21
2390.552246342122
 31
0.0
  0
LINE
  5
7CBB
330
19
100
AcDbEntity
  8
1
100
AcDbLine
 10
3283.825569861672
 20
2335.552246342122
 30
0.0
 11
3441.825569861673
 21
2335.552246342122
 31
0.0
  0
LINE
  5
7CBC
330
19
100
AcDbEntity
  8
1
100
AcDbLine
 10
3283.825569861672
 20
2335.552246342122
 30
0.0
 11
3283.825569861673
 21
2390.552246342122
 31
0.0
  0
LINE
  5
7CBD
330
19
100
AcDbEntity
  8
1
100
AcDbLine
 10
3253.825569861673
 20
2387.052246342122
 30
0.0
 11
3283.825569861672
 21
2387.052246342122
 31
0.0
  0
LINE
  5
7CBE
330
19
100
AcDbEntity
  8
1
100
AcDbLine
 10
3253.825569861673
 20
2339.052246342122
 30
0.0
 11
3283.825569861672
 21
2339.052246342122
 31
0.0
  0
LINE
  5
7CBF
330
19
100
AcDbEntity
  8
1
100
AcDbLine
 10
2744.942697238013
 20
1918.052246342122
 30
0.0
 11
2744.942697238013
 21
1958.052246342122
 31
0.0
  0
ARC
  5
7CC2
330
19
100
AcDbEntity
  8
1
100
AcDbCircle
 10
1544.942697238013
 20
2363.052246342122
 30
0.0
 40
220.0
100
AcDbArc
 50
78.96579099674977
 51
258.9657909967497
  0
ARC
  5
7CC3
330
19
100
AcDbEntity
  8
1
100
AcDbCircle
 10
2544.942697238014
 20
2168.052246342123
 30
0.0
 40
220.0
100
AcDbArc
 50
258.9657909967497
 51
78.96579099674974
  0
LINE
  5
7CC4
330
19
100
AcDbEntity
  8
1
100
AcDbLine
 10
2587.049608546751
 20
2383.985124848472
 30
0.0
 11
1587.049608546751
 21
2578.985124848472
 31
0.0
  0
LINE
  5
7CC5
330
19
100
AcDbEntity
  8
1
100
AcDbLine
 10
2567.479628922867
 20
2272.651896008038
 30
0.0
 11
1571.692139518167
 21
2487.20323239419
 31
0.0
  0
LINE
  5
7CC6
330
19
100
AcDbEntity
  8
1
100
AcDbLine
 10
2526.528980311957
 20
2062.648569798241
 30
0.0
 11
1523.087164064095
 21
2237.946948014339
 31
0.0
  0
LINE
  5
7CC7
330
19
100
AcDbEntity
  8
1
100
AcDbLine
 10
2502.835785929276
 20
1952.119367835772
 30
0.0
 11
1502.835785929275
 21
2147.119367835772
 31
0.0
  0
DIMENSION
  5
7CC8
330
19
100
AcDbEntity
  8
3
100
AcDbDimension
280
     0
  2
*D6
 10
4391.825569861672
 20
3314.393746648541
 30
0.0
 11
3916.825569861673
 21
3364.39374664854
 31
0.0
 12
72.55349593120263
 22
1854.458768120723
 32
0.0
 70
    32
 71
     5
 42
-1.0
 73
     0
 74
     0
 75
     0
  3
MATSU
100
AcDbAlignedDimension
 13
3441.825569861673
 23
3164.052246342122
 33
0.0
 14
4391.825569861672
 24
3164.052246342122
 34
0.0
100
AcDbRotatedDimension
1001
ACAD
1000
DSTYLE
1002
{
1070
   282
1070
     1
1070
    40
1040
25.0
1002
}
  0
POINT
  5
7CC9
330
19
100
AcDbEntity
  8
1
100
AcDbPoint
 10
4494.325569861673
 20
2337.852246342122
 30
0.0
  0
DIMENSION
  5
7CCA
330
19
100
AcDbEntity
  8
3
100
AcDbDimension
280
     0
  2
*D7
 10
4643.827580206983
 20
2718.052246342122
 30
0.0
 11
4593.827580206983
 21
2363.052246342122
 31
0.0
 12
72.55349593120263
 22
1854.458768120723
 32
0.0
 70
    32
  1
φ<>
 71
     5
 42
-1.0
 73
     0
 74
     0
 75
     0
  3
MATSU
100
AcDbAlignedDimension
 13
4397.325569861671
 23
2008.052246342122
 33
0.0
 14
4397.325569861671
 24
2718.052246342122
 34
0.0
 50
90.0
100
AcDbRotatedDimension
1001
ACAD
1000
DSTYLE
1002
{
1070
   282
1070
     1
1070
    40
1040
25.0
1002
}
  0
LINE
  5
7CCB
330
19
100
AcDbEntity
  8
1
100
AcDbLine
 10
1094.942697238013
 20
5420.797394839573
 30
0.0
 11
1994.942697238013
 21
5420.797394839574
 31
0.0
  0
LINE
  5
7CCC
330
19
100
AcDbEntity
  8
1
100
AcDbLine
 10
1094.942697238013
 20
4240.797394839573
 30
0.0
 11
2794.942697238014
 21
4240.797394839574
 31
0.0
  0
LINE
  5
7CCD
330
19
100
AcDbEntity
  8
1
100
AcDbLine
 10
1094.942697238013
 20
5420.797394839573
 30
0.0
 11
1094.942697238013
 21
5367.797394839573
 31
0.0
  0
LINE
  5
7CCE
330
19
100
AcDbEntity
  8
1
100
AcDbLine
 10
1994.942697238013
 20
5420.797394839574
 30
0.0
 11
1994.942697238013
 21
5367.797394839574
 31
0.0
  0
LINE
  5
7CCF
330
19
100
AcDbEntity
  8
1
100
AcDbLine
 10
2794.942697238014
 20
4990.797394839574
 30
0.0
 11
2794.942697238014
 21
4240.797394839574
 31
0.0
  0
LINE
  5
7CD0
330
19
100
AcDbEntity
  8
1
100
AcDbLine
 10
2156.942697238013
 20
4990.797394839574
 30
0.0
 11
2794.942697238012
 21
4990.797394839574
 31
0.0
  0
DIMENSION
  5
7CD1
330
19
100
AcDbEntity
  8
3
100
AcDbDimension
280
     0
  2
*D8
 10
1094.942697238013
 20
5628.282608033805
 30
0.0
 11
1544.942697238013
 21
5678.282608033805
 31
0.0
 12
277.2229457248868
 22
0.0
 32
0.0
 70
    32
 71
     5
 42
-1.0
 73
     0
 74
     0
 75
     0
  3
MATSU
100
AcDbAlignedDimension
 13
1994.942697238013
 23
5420.797394839574
 33
0.0
 14
1094.942697238013
 24
5420.797394839573
 34
0.0
100
AcDbRotatedDimension
1001
ACAD
1000
DSTYLE
1002
{
1070
   282
1070
     1
1070
    40
1040
25.0
1002
}
  0
DIMENSION
  5
7CD2
330
19
100
AcDbEntity
  8
3
100
AcDbDimension
280
     0
  2
*D9
 10
796.3039805887274
 20
4240.797394839573
 30
0.0
 11
746.3039805887274
 21
4830.797394839573
 31
0.0
 12
909.3394730289801
 22
1467.264084304235
 32
0.0
 70
    32
 71
     5
 42
-1.0
 73
     0
 74
     0
 75
     0
  3
MATSU
100
AcDbAlignedDimension
 13
1094.942697238013
 23
5420.797394839573
 33
0.0
 14
1094.942697238013
 24
4240.797394839573
 34
0.0
 50
270.0
100
AcDbRotatedDimension
1001
ACAD
1000
DSTYLE
1002
{
1070
   282
1070
     1
1070
    40
1040
25.0
1002
}
  0
DIMENSION
  5
7CD3
330
19
100
AcDbEntity
  8
3
100
AcDbDimension
280
     0
  2
*D10
 10
3093.548448344911
 20
4240.797394839574
 30
0.0
 11
3043.548448344911
 21
4615.797394839574
 31
0.0
 12
909.3394730289801
 22
1467.264084304235
 32
0.0
 70
    32
 71
     5
 42
-1.0
 73
     0
 74
     0
 75
     0
  3
MATSU
100
AcDbAlignedDimension
 13
2794.942697238012
 23
4990.797394839574
 33
0.0
 14
2794.942697238014
 24
4240.797394839574
 34
0.0
 50
270.0
100
AcDbRotatedDimension
1001
ACAD
1000
DSTYLE
1002
{
1070
   282
1070
     1
1070
    40
1040
25.0
1002
}
  0
DIMENSION
  5
7CD4
330
19
100
AcDbEntity
  8
3
100
AcDbDimension
280
     0
  2
*D11
 10
1094.942697238013
 20
3818.876807118591
 30
0.0
 11
1944.942697238013
 21
3818.876807118591
 31
0.0
 12
909.3394730289801
 22
1467.264084304235
 32
0.0
 70
   160
 71
     5
 42
-1.0
 73
     0
 74
     0
 75
     0
  3
MATSU
100
AcDbAlignedDimension
 13
2794.942697238014
 23
4240.797394839574
 33
0.0
 14
1094.942697238013
 24
4240.797394839573
 34
0.0
100
AcDbRotatedDimension
1001
ACAD
1000
DSTYLE
1002
{
1070
   282
1070
     1
1070
    40
1040
25.0
1002
}
  0
DIMENSION
  5
7CD5
330
19
100
AcDbEntity
  8
3
100
AcDbDimension
280
     0
  2
*D12
 10
1994.942697238013
 20
5628.282608033805
 30
0.0
 11
2394.942697238013
 21
5678.282608033805
 31
0.0
 12
277.2229457248868
 22
0.0
 32
0.0
 70
    32
 71
     5
 42
-1.0
 73
     0
 74
     0
 75
     0
  3
MATSU
100
AcDbAlignedDimension
 13
2794.942697238012
 23
4990.797394839574
 33
0.0
 14
1994.942697238013
 24
5420.797394839574
 34
0.0
100
AcDbRotatedDimension
1001
ACAD
1000
DSTYLE
1002
{
1070
   282
1070
     1
1070
    40
1040
25.0
1002
}
  0
DIMENSION
  5
7CD6
330
19
100
AcDbEntity
  8
3
100
AcDbDimension
280
     0
  2
*D13
 10
744.1888829526979
 20
1818.052246342122
 30
0.0
 11
694.1888829526979
 21
2090.552246342122
 31
0.0
 12
909.3394730289801
 22
1854.458768120723
 32
0.0
 70
    32
 71
     5
 42
-1.0
 73
     0
 74
     0
 75
     0
  3
MATSU
100
AcDbAlignedDimension
 13
922.6768584325837
 23
2363.052246342122
 33
0.0
 14
1094.942697238013
 24
1818.052246342122
 34
0.0
 50
270.0
100
AcDbRotatedDimension
1001
ACAD
1000
DSTYLE
1002
{
1070
   282
1070
     1
1070
    40
1040
25.0
1002
}
  0
POINT
  5
7CDC
330
19
100
AcDbEntity
  8
1
100
AcDbPoint
 10
1094.942697238013
 20
1818.052246342122
 30
0.0
  0
CIRCLE
  5
7CDD
330
19
100
AcDbEntity
  8
1
100
AcDbCircle
 10
1544.942697238013
 20
2363.052246342122
 30
0.0
 40
355.0
  0
CIRCLE
  5
7CDE
330
19
100
AcDbEntity
  8
1
100
AcDbCircle
 10
1544.942697238013
 20
2363.052246342122
 30
0.0
 40
395.0
  0
LINE
  5
7CDF
330
19
100
AcDbEntity
  8
1
100
AcDbLine
 10
3441.825569861671
 20
3122.052246342122
 30
0.0
 11
4391.825569861671
 21
3122.052246342122
 31
0.0
  0
DIMENSION
  5
7CE5
330
19
100
AcDbEntity
  8
3
100
AcDbDimension
280
     0
  2
*D14
 10
3916.825569861673
 20
3453.781207733608
 30
0.0
 11
4205.575569861672
 21
3523.424064876465
 31
0.0
 12
72.55349593120263
 22
1854.458768120723
 32
0.0
 70
    32
  1
(620)
 71
     5
 42
-1.0
 73
     0
 74
     0
 75
     0
  3
MATSU
100
AcDbAlignedDimension
 13
4494.325569861673
 23
2337.852246342122
 33
0.0
 14
3916.825569861673
 24
3424.89277676886
 34
0.0
100
AcDbRotatedDimension
1001
ACAD
1000
DSTYLE
1002
{
1070
   282
1070
     1
1070
    40
1040
25.0
1002
}
  0
LINE
  5
7CE7
330
19
100
AcDbEntity
  8
1
100
AcDbLine
 10
3916.825569861673
 20
3418.757016395057
 30
0.0
 11
3916.825569861673
 21
3424.89277676886
 31
0.0
  0
LINE
  5
7CEA
330
19
100
AcDbEntity
  8
1
100
AcDbLine
 10
1044.942697238013
 20
5407.797394839573
 30
0.0
 11
1044.942697238013
 21
4377.797394839571
 31
0.0
  0
LINE
  5
7CEB
330
19
100
AcDbEntity
  8
1
100
AcDbLine
 10
1044.942697238013
 20
5367.797394839573
 30
0.0
 11
2156.942697238013
 21
5367.797394839573
 31
0.0
  0
LINE
  5
7CEC
330
19
100
AcDbEntity
  8
1
100
AcDbLine
 10
1044.942697238013
 20
4417.797394839573
 30
0.0
 11
2156.942697238013
 21
4417.797394839573
 31
0.0
  0
LINE
  5
7CED
330
19
100
AcDbEntity
  8
1
100
AcDbLine
 10
2156.942697238013
 20
5367.797394839573
 30
0.0
 11
2156.942697238013
 21
4417.797394839573
 31
0.0
  0
LINE
  5
7CEE
330
19
100
AcDbEntity
  8
1
100
AcDbLine
 10
1044.942697238013
 20
5407.797394839573
 30
0.0
 11
1047.942697238013
 21
5407.797394839573
 31
0.0
  0
LINE
  5
7CEF
330
19
100
AcDbEntity
  8
1
100
AcDbLine
 10
1044.942697238013
 20
4377.797394839573
 30
0.0
 11
1047.942697238013
 21
4377.797394839571
 31
0.0
  0
LINE
  5
7CF0
330
19
100
AcDbEntity
  8
1
100
AcDbLine
 10
1047.942697238013
 20
5407.797394839573
 30
0.0
 11
1047.942697238013
 21
5367.797394839573
 31
0.0
  0
LINE
  5
7CF1
330
19
100
AcDbEntity
  8
1
100
AcDbLine
 10
2382.942697238013
 20
4675.797394839573
 30
0.0
 11
2382.942697238013
 21
4190.797394839574
 31
0.0
  0
LINE
  5
7CF2
330
19
100
AcDbEntity
  8
1
100
AcDbLine
 10
2706.942697238014
 20
4675.797394839575
 30
0.0
 11
2706.942697238014
 21
4190.797394839574
 31
0.0
  0
LINE
  5
7CF3
330
19
100
AcDbEntity
  8
1
100
AcDbLine
 10
1324.942697238013
 20
4052.797394839573
 30
0.0
 11
2764.942697238014
 21
4052.797394839574
 31
0.0
  0
LINE
  5
7CF4
330
19
100
AcDbEntity
  8
1
100
AcDbLine
 10
1324.942697238013
 20
4052.797394839573
 30
0.0
 11
1324.942697238013
 21
4202.797394839573
 31
0.0
  0
LINE
  5
7CF5
330
19
100
AcDbEntity
  8
1
100
AcDbLine
 10
2764.942697238014
 20
4052.797394839574
 30
0.0
 11
2764.942697238014
 21
4202.797394839575
 31
0.0
  0
LINE
  5
7CF6
330
19
100
AcDbEntity
  8
1
100
AcDbLine
 10
1324.942697238013
 20
4202.797394839573
 30
0.0
 11
2764.942697238014
 21
4202.797394839574
 31
0.0
  0
LINE
  5
7CF7
330
19
100
AcDbEntity
  8
1
100
AcDbLine
 10
1417.942697238013
 20
4072.797394839573
 30
0.0
 11
1671.942697238013
 21
4072.797394839573
 31
0.0
  0
LINE
  5
7CF8
330
19
100
AcDbEntity
  8
1
100
AcDbLine
 10
1417.942697238013
 20
4157.797394839573
 30
0.0
 11
1671.942697238013
 21
4157.797394839573
 31
0.0
  0
LINE
  5
7CF9
330
19
100
AcDbEntity
  8
1
100
AcDbLine
 10
1671.942697238013
 20
4157.797394839573
 30
0.0
 11
1671.942697238013
 21
4072.797394839573
 31
0.0
  0
LINE
  5
7CFA
330
19
100
AcDbEntity
  8
1
100
AcDbLine
 10
1417.942697238013
 20
4157.797394839573
 30
0.0
 11
1417.942697238013
 21
4072.797394839573
 31
0.0
  0
LINE
  5
7CFB
330
19
100
AcDbEntity
  8
1
100
AcDbLine
 10
2437.942697238013
 20
4157.797394839573
 30
0.0
 11
2437.942697238013
 21
4072.797394839573
 31
0.0
  0
LINE
  5
7CFC
330
19
100
AcDbEntity
  8
1
100
AcDbLine
 10
2651.942697238014
 20
4157.797394839573
 30
0.0
 11
2651.942697238013
 21
4072.797394839573
 31
0.0
  0
LINE
  5
7CFD
330
19
100
AcDbEntity
  8
1
100
AcDbLine
 10
2437.942697238013
 20
4072.797394839573
 30
0.0
 11
2651.942697238013
 21
4072.797394839573
 31
0.0
  0
LINE
  5
7CFE
330
19
100
AcDbEntity
  8
1
100
AcDbLine
 10
2437.942697238013
 20
4157.797394839573
 30
0.0
 11
2651.942697238014
 21
4157.797394839573
 31
0.0
  0
LINE
  5
7CFF
330
19
100
AcDbEntity
  8
1
100
AcDbLine
 10
2382.942697238013
 20
4675.797394839573
 30
0.0
 11
2706.942697238014
 21
4675.797394839573
 31
0.0
  0
LINE
  5
7D00
330
19
100
AcDbEntity
  8
1
100
AcDbLine
 10
2382.942697238015
 20
4190.797394839574
 30
0.0
 11
2706.942697238015
 21
4190.797394839574
 31
0.0
  0
LINE
  5
7D01
330
19
100
AcDbEntity
  8
1
100
AcDbLine
 10
2523.942697238013
 20
4190.797394839574
 30
0.0
 11
2523.942697238013
 21
4157.797394839573
 31
0.0
  0
LINE
  5
7D02
330
19
100
AcDbEntity
  8
1
100
AcDbLine
 10
2565.942697238014
 20
4190.797394839574
 30
0.0
 11
2565.942697238014
 21
4157.797394839573
 31
0.0
  0
LINE
  5
7D03
330
19
100
AcDbEntity
  8
1
100
AcDbLine
 10
1517.442697238013
 20
4417.797394839573
 30
0.0
 11
1517.442697238013
 21
4157.797394839573
 31
0.0
  0
LINE
  5
7D04
330
19
100
AcDbEntity
  8
1
100
AcDbLine
 10
1572.442697238013
 20
4417.797394839573
 30
0.0
 11
1572.442697238013
 21
4157.797394839573
 31
0.0
  0
LINE
  5
7D05
330
19
100
AcDbEntity
  8
1
100
AcDbLine
 10
3771.825569861672
 20
2006.052246342123
 30
0.0
 11
3286.825569861672
 21
2006.052246342123
 31
0.0
  0
LINE
  5
7D06
330
19
100
AcDbEntity
  8
1
100
AcDbLine
 10
3771.825569861672
 20
2330.052246342123
 30
0.0
 11
3286.825569861673
 21
2330.052246342123
 31
0.0
  0
LINE
  5
7D07
330
19
100
AcDbEntity
  8
1
100
AcDbLine
 10
3286.825569861672
 20
2006.052246342125
 30
0.0
 11
3286.825569861673
 21
2330.052246342125
 31
0.0
  0
LINE
  5
7D08
330
19
100
AcDbEntity
  8
1
100
AcDbLine
 10
3286.825569861673
 20
2189.052246342123
 30
0.0
 11
3253.825569861673
 21
2189.052246342123
 31
0.0
  0
LINE
  5
7D09
330
19
100
AcDbEntity
  8
1
100
AcDbLine
 10
3286.825569861673
 20
2147.052246342123
 30
0.0
 11
3253.825569861673
 21
2147.052246342123
 31
0.0
  0
DIMENSION
  5
7D10
330
19
100
AcDbEntity
  8
3
100
AcDbDimension
280
     0
  2
*D16
 10
2794.942697238014
 20
3463.510134607974
 30
0.0
 11
1919.942697238013
 21
3513.510134607974
 31
0.0
 12
909.3394730289801
 22
1854.458768120723
 32
0.0
 70
    32
 71
     5
 42
-1.0
 73
     0
 74
     0
 75
     0
  3
MATSU
100
AcDbAlignedDimension
 13
1044.942697238013
 23
3122.052246342122
 33
0.0
 14
2794.942697238014
 24
1918.052246342122
 34
0.0
100
AcDbRotatedDimension
1001
ACAD
1000
DSTYLE
1002
{
1070
   282
1070
     1
1070
    40
1040
25.0
1002
}
  0
LINE
  5
7D12
330
19
100
AcDbEntity
  8
1
100
AcDbLine
 10
1047.942697238013
 20
4417.797394839572
 30
0.0
 11
1047.942697238013
 21
4377.797394839571
 31
0.0
  0
LINE
  5
7D13
330
19
100
AcDbEntity
  8
1
100
AcDbLine
 10
1094.942697238013
 20
4417.797394839572
 30
0.0
 11
1094.942697238013
 21
4240.797394839574
 31
0.0
  0
LINE
  5
7D14
330
19
100
AcDbEntity
  8
1
100
AcDbLine
 10
3771.825569861672
 20
2006.052246342123
 30
0.0
 11
3771.825569861673
 21
2330.052246342123
 31
0.0
  0
LINE
  5
7D15
330
19
100
AcDbEntity
  8
1
100
AcDbLine
 10
3441.825569861673
 20
2330.052246342123
 30
0.0
 11
3441.825569861673
 21
2363.052246342122
 31
0.0
  0
LINE
  5
7D16
330
19
100
AcDbEntity
  8
1
100
AcDbLine
 10
3345.66059505169
 20
1958.052246342122
 30
0.0
 11
3726.303241444858
 21
1958.052246342122
 31
0.0
  0
LINE
  5
7D17
330
19
100
AcDbEntity
  8
1
100
AcDbLine
 10
3726.303241444858
 20
2006.052246342123
 30
0.0
 11
3726.303241444858
 21
1918.052246342122
 31
0.0
  0
LINE
  5
7D18
330
19
100
AcDbEntity
  8
1
100
AcDbLine
 10
3345.660595051689
 20
1918.052246342122
 30
0.0
 11
3345.66059505169
 21
2006.052246342123
 31
0.0
  0
LINE
  5
7F49
330
19
100
AcDbEntity
  8
4
100
AcDbLine
 10
4625.0
 20
1008.429683345304
 30
0.0
 11
4625.0
 21
508.4296833453045
 31
0.0
  0
LINE
  5
7F4A
330
19
100
AcDbEntity
  8
4
100
AcDbLine
 10
2875.0
 20
1008.429683345304
 30
0.0
 11
2875.0
 21
508.4296833453045
 31
0.0
  0
LINE
  5
7F4B
330
19
100
AcDbEntity
  8
4
100
AcDbLine
 10
1625.0
 20
1008.429683345304
 30
0.0
 11
1625.0
 21
508.4296833453045
 31
0.0
  0
LINE
  5
7F4E
330
19
100
AcDbEntity
  8
4
100
AcDbLine
 10
1625.0
 20
508.4296833453045
 30
0.0
 11
4625.0
 21
508.4296833453045
 31
0.0
  0
LINE
  5
7F4F
330
19
100
AcDbEntity
  8
4
100
AcDbLine
 10
1625.0
 20
758.4296833453045
 30
0.0
 11
4625.0
 21
758.4296833453045
 31
0.0
  0
TEXT
  5
7F50
330
19
100
AcDbEntity
  8
4
100
AcDbText
 10
1721.255202117254
 20
837.2872480118367
 30
0.0
 40
125.0
  1
機器名称
100
AcDbText
  0
TEXT
  5
7F51
330
19
100
AcDbEntity
  8
4
100
AcDbText
 10
1715.645265061994
 20
562.5425751753319
 30
0.0
 40
125.0
  1
機器型番
100
AcDbText
  0
TEXT
  5
7F52
330
19
100
AcDbEntity
  8
4
100
AcDbText
 10
2942.806119241113
 20
813.3451327725893
 30
0.0
 40
100.0
  1
ミツヤリミットロードファン
100
AcDbText
  0
TEXT
  5
7F53
330
19
100
AcDbEntity
  8
4
100
AcDbText
 10
2966.636238963701
 20
551.3286440451629
 30
0.0
 40
125.0
  1
LL#4 1/2-5
100
AcDbText
  0
TEXT
  5
7F55
330
19
100
AcDbEntity
  8
4
100
AcDbText
 10
2011.143650791284
 20
5958.572103331289
 30
0.0
 40
135.0
  1
床置ベット
100
AcDbText
  0
TEXT
  5
7F56
330
19
100
AcDbEntity
  8
4
100
AcDbText
 10
790.4189833236159
 20
6334.702440498245
 30
0.0
 40
180.0
  1
遠心式両吸込両持リミットロードファン
100
AcDbText
  0
LINE
  5
7F57
330
19
100
AcDbEntity
  8
4
100
AcDbLine
 10
625.0
 20
6173.521885662012
 30
0.0
 11
4625.0
 21
6173.521885662012
 31
0.0
  0
LINE
  5
7F58
330
19
100
AcDbEntity
  8
4
100
AcDbLine
 10
625.0
 20
6673.521885662012
 30
0.0
 11
4625.0
 21
6673.521885662012
 31
0.0
  0
LINE
  5
7F59
330
19
100
AcDbEntity
  8
4
100
AcDbLine
 10
1625.0
 20
1008.429683345304
 30
0.0
 11
4625.0
 21
1008.429683345304
 31
0.0
  0
LINE
  5
7F5A
330
19
100
AcDbEntity
  8
4
100
AcDbLine
 10
625.0
 20
6673.521885662012
 30
0.0
 11
625.0
 21
6173.521885662012
 31
0.0
  0
TEXT
  5
7F5B
330
19
100
AcDbEntity
  8
4
100
AcDbText
 10
868.6922044821985
 20
5955.798693865858
 30
0.0
 40
135.0
  1
左回転左横向
100
AcDbText
  0
TEXT
  5
7F5C
330
19
100
AcDbEntity
  8
4
100
AcDbText
 10
3672.423898123225
 20
6765.152703738272
 30
0.0
 40
140.0
  1
No.
100
AcDbText
  0
TEXT
  5
7F5D
330
19
100
AcDbEntity
  8
4
100
AcDbText
 10
3278.240156500033
 20
5958.572103331289
 30
0.0
 40
135.0
  1
縮尺：1/25
100
AcDbText
  0
LINE
  5
7F5E
330
19
100
AcDbEntity
  8
4
100
AcDbLine
 10
4625.0
 20
6673.521885662012
 30
0.0
 11
4625.0
 21
6173.521885662012
 31
0.0
  0
LINE
  5
7F5F
330
19
100
AcDbEntity
  8
4
100
AcDbLine
 10
5250.0
 20
7375.0
 30
0.0
 11
5250.0
 21
7375.0
 31
0.0
  0
LINE
  5
7F60
330
19
100
AcDbEntity
  8
4
100
AcDbLine
 10
3601.543555899662
 20
6703.158957813503
 30
0.0
 11
3601.543555899662
 21
6966.630653874381
 31
0.0
  0
LINE
  5
7F61
330
19
100
AcDbEntity
  8
4
100
AcDbLine
 10
3601.543555899662
 20
6966.630653874381
 30
0.0
 11
4625.0
 21
6966.630653874381
 31
0.0
  0
LINE
  5
7F62
330
19
100
AcDbEntity
  8
4
100
AcDbLine
 10
4625.0
 20
6966.630653874381
 30
0.0
 11
4625.0
 21
6703.158957813503
 31
0.0
  0
LINE
  5
7F63
330
19
100
AcDbEntity
  8
4
100
AcDbLine
 10
4625.0
 20
6703.158957813503
 30
0.0
 11
3601.543555899662
 21
6703.158957813503
 31
0.0
  0
LINE
  5
7F64
330
19
100
AcDbEntity
  8
4
100
AcDbLine
 10
0.0
 20
0.0
 30
0.0
 11
0.0
 21
7375.0
 31
0.0
  0
LINE
  5
7F65
330
19
100
AcDbEntity
  8
4
100
AcDbLine
 10
0.0
 20
7375.0
 30
0.0
 11
5250.0
 21
7375.0
 31
0.0
  0
LINE
  5
7F66
330
19
100
AcDbEntity
  8
4
100
AcDbLine
 10
5250.0
 20
7375.0
 30
0.0
 11
5250.0
 21
0.0
 31
0.0
  0
LINE
  5
7F67
330
19
100
AcDbEntity
  8
4
100
AcDbLine
 10
5250.0
 20
0.0
 30
0.0
 11
0.0
 21
0.0
 31
0.0
  0
DIMENSION
  5
808C
330
19
100
AcDbEntity
  8
3
100
AcDbDimension
280
     0
  2
*D19
 10
1544.942697238013
 20
1647.581899355933
 30
0.0
 11
1319.942697238013
 21
1710.081899355933
 31
0.0
 70
    32
 71
     5
 42
-1.0
 73
     0
 74
     0
 75
     0
  3
IGA
100
AcDbAlignedDimension
 13
1094.942697238013
 23
1818.052246342122
 33
0.0
 14
1544.942697238013
 24
1818.052246342123
 34
0.0
100
AcDbRotatedDimension
1001
ACAD
1000
DSTYLE
1002
{
1070
   172
1070
     1
1070
    40
1040
25.0
1070
   271
1070
     0
1070
   143
1040
0.039
1002
}
  0
DIMENSION
  5
8099
330
19
100
AcDbEntity
  8
3
100
AcDbDimension
280
     0
  2
*D20
 10
2794.942697238014
 20
1647.581899355933
 30
0.0
 11
2169.942697238013
 21
1710.081899355933
 31
0.0
 70
    32
 71
     5
 42
-1.0
 73
     0
 74
     0
 75
     0
  3
IGA
100
AcDbAlignedDimension
 13
1544.942697238013
 23
1818.052246342123
 33
0.0
 14
2794.942697238014
 24
1818.052246342122
 34
0.0
100
AcDbRotatedDimension
1001
ACAD
1000
DSTYLE
1002
{
1070
   172
1070
     1
1070
    40
1040
25.0
1070
   271
1070
     0
1070
   143
1040
0.039
1002
}
  0
DIMENSION
  5
80A6
330
19
100
AcDbEntity
  8
3
100
AcDbDimension
280
     0
  2
*D21
 10
3916.82556986167
 20
1647.581899355933
 30
0.0
 11
3590.825569861671
 21
1710.081899355933
 31
0.0
 70
    32
 71
     5
 42
-1.0
 73
     0
 74
     0
 75
     0
  3
IGA
100
AcDbAlignedDimension
 13
3264.825569861673
 23
1818.052246342122
 33
0.0
 14
3916.82556986167
 24
1818.052246342122
 34
0.0
100
AcDbRotatedDimension
1001
ACAD
1000
DSTYLE
1002
{
1070
   172
1070
     1
1070
    40
1040
25.0
1070
   271
1070
     0
1070
   143
1040
0.039
1002
}
  0
DIMENSION
  5
80B3
330
19
100
AcDbEntity
  8
3
100
AcDbDimension
280
     0
  2
*D22
 10
4444.825569861672
 20
1647.581899355933
 30
0.0
 11
4180.825569861671
 21
1710.081899355933
 31
0.0
 70
    32
 71
     5
 42
-1.0
 73
     0
 74
     0
 75
     0
  3
IGA
100
AcDbAlignedDimension
 13
3916.82556986167
 23
1818.052246342122
 33
0.0
 14
4444.825569861672
 24
1818.052246342122
 34
0.0
100
AcDbRotatedDimension
1001
ACAD
1000
DSTYLE
1002
{
1070
   172
1070
     1
1070
    40
1040
25.0
1070
   271
1070
     0
1070
   143
1040
0.039
1002
}
  0
DIMENSION
  5
80C0
330
19
100
AcDbEntity
  8
3
100
AcDbDimension
280
     0
  2
*D23
 10
605.1539312735003
 20
1818.052246342122
 30
0.0
 11
542.6539312735003
 21
2470.052246342123
 31
0.0
 70
    32
 71
     5
 42
-1.0
 73
     0
 74
     0
 75
     0
  3
IGA
100
AcDbAlignedDimension
 13
1044.942697238013
 23
3122.052246342122
 33
0.0
 14
1094.942697238013
 24
1818.052246342122
 34
0.0
 50
90.0
100
AcDbRotatedDimension
1001
ACAD
1000
DSTYLE
1002
{
1070
   172
1070
     1
1070
    40
1040
25.0
1070
   271
1070
     0
1070
   143
1040
0.039
1002
}
  0
DIMENSION
  5
81A8
330
19
100
AcDbEntity
  8
3
100
AcDbDimension
280
     0
  2
*D24
 10
3916.825569861673
 20
3453.781207733608
 30
0.0
 11
3496.825569861672
 21
3535.924064876465
 31
0.0
 70
    32
  1
(<>)
 71
     5
 42
840.0
 73
     0
 74
     0
 75
     0
  3
IGA
100
AcDbAlignedDimension
 13
3076.825569861672
 23
2583.052246342122
 33
0.0
 14
3916.825569861673
 24
3453.781207733608
 34
0.0
100
AcDbRotatedDimension
1001
ACAD
1000
DSTYLE
1002
{
1070
    40
1040
25.0
1070
   143
1040
0.039
1070
   172
1070
     1
1070
   271
1070
     0
1002
}
  0
LINE
  5
8206
330
19
100
AcDbEntity
  8
1
100
AcDbLine
 10
1047.942697238013
 20
3121.693736718942
 30
0.0
 11
1574.851934393955
 21
3058.726392697971
 31
0.0
  0
ARC
  5
8207
330
19
100
AcDbEntity
  8
1
100
AcDbCircle
 10
1491.942697238012
 20
2416.052246342122
 30
0.0
 40
648.0
100
AcDbArc
 50
0.0
 51
82.64906398247012
  0
ARC
  5
8208
330
19
100
AcDbEntity
  8
1
100
AcDbCircle
 10
1597.942697238012
 20
2416.052246342122
 30
0.0
 40
541.9999999999998
100
AcDbArc
 50
293.245938743557
 51
0.0
  0
ARC
  5
8209
330
19
100
AcDbEntity
  8
1
100
AcDbCircle
 10
1585.942697238012
 20
2322.052246342122
 30
0.0
 40
448.0
100
AcDbArc
 50
180.0
 51
244.393793283609
  0
ARC
  5
820A
330
19
100
AcDbEntity
  8
1
100
AcDbCircle
 10
1503.942697238012
 20
2322.052246342122
 30
0.0
 40
366.0
100
AcDbArc
 50
168.9738595187404
 51
180.0
  0
LINE
  5
820B
330
19
100
AcDbEntity
  8
1
100
AcDbLine
 10
1044.942697238012
 20
2392.052246342122
 30
0.0
 11
1144.699047328928
 21
2392.052246342122
 31
0.0
  0
LINE
  5
820C
330
19
100
AcDbEntity
  8
1
100
AcDbLine
 10
1044.942697238013
 20
3164.052246342122
 30
0.0
 11
1044.942697238012
 21
2350.052246342122
 31
0.0
  0
LINE
  5
820D
330
19
100
AcDbEntity
  8
1
100
AcDbLine
 10
1044.942697238013
 20
3164.052246342122
 30
0.0
 11
1047.942697238013
 21
3164.052246342122
 31
0.0
  0
LINE
  5
820E
330
19
100
AcDbEntity
  8
1
100
AcDbLine
 10
1044.942697238012
 20
2350.052246342122
 30
0.0
 11
1047.942697238013
 21
2350.052246342122
 31
0.0
  0
LINE
  5
820F
330
19
100
AcDbEntity
  8
1
100
AcDbLine
 10
1084.942697238013
 20
3118.603014769517
 30
0.0
 11
1084.942697238013
 21
2392.052246342122
 31
0.0
  0
LINE
  5
8210
330
19
100
AcDbEntity
  8
1
100
AcDbLine
 10
1047.942697238013
 20
3164.052246342122
 30
0.0
 11
1047.942697238013
 21
2350.052246342122
 31
0.0
  0
POINT
  5
8211
330
19
100
AcDbEntity
  8
1
100
AcDbPoint
 10
1084.760124773561
 20
2363.052246342122
 30
0.0
  0
LINE
  5
8212
330
19
100
AcDbEntity
  8
1
100
AcDbLine
 10
1041.46089160552
 20
2363.052246342122
 30
0.0
 11
1025.787586189204
 21
2363.052246342122
 31
0.0
  0
DIMENSION
  5
821B
330
19
100
AcDbEntity
  8
3
100
AcDbDimension
280
     0
  2
*D25
 10
2139.942697238012
 20
3315.032778523153
 30
0.0
 11
1842.442697238012
 21
3377.532778523153
 31
0.0
 70
    32
 71
     5
 42
594.9999999999981
 73
     0
 74
     0
 75
     0
  3
IGA
100
AcDbAlignedDimension
 13
1544.942697238013
 23
3315.032778523153
 33
0.0
 14
2139.942697238012
 24
2416.052246342122
 34
0.0
100
AcDbRotatedDimension
1001
ACAD
1000
DSTYLE
1002
{
1070
    40
1040
25.0
1070
   143
1040
0.039
1070
   172
1070
     1
1070
   271
1070
     0
1002
}
  0
ENDSEC
  0
SECTION
  2
OBJECTS
  0
DICTIONARY
  5
C
330
0
100
AcDbDictionary
281
     1
  3
ACAD_CIP_PREVIOUS_PRODUCT_INFO
350
8159
  3
ACAD_COLOR
350
813C
  3
ACAD_DETAILVIEWSTYLE
350
8155
  3
ACAD_GROUP
350
D
  3
ACAD_LAYOUT
350
80C9
  3
ACAD_MATERIAL
350
810A
  3
ACAD_MLEADERSTYLE
350
8151
  3
ACAD_MLINESTYLE
350
E
  3
ACAD_PLOTSETTINGS
350
80CA
  3
ACAD_PLOTSTYLENAME
350
80C7
  3
ACAD_SCALELIST
350
813F
  3
ACAD_SECTIONVIEWSTYLE
350
8153
  3
ACAD_TABLESTYLE
350
813D
  3
ACAD_VISUALSTYLE
350
8123
  3
ACDB_RECOMPOSE_DATA
350
82A7
  3
AcDbVariableDictionary
350
8296
  3
AcDsDecomposeData
350
82AD
  0
DICTIONARY
  5
81EB
330
2
100
AcDbDictionary
280
     1
281
     1
  3
ACAD_LAYERSTATES
360
81EC
  0
DICTIONARY
  5
8249
330
F
100
AcDbDictionary
280
     1
281
     1
  3
ADSK_XREC_LAYER_RECONCILED
360
824A
  0
DICTIONARY
  5
824B
330
31
100
AcDbDictionary
280
     1
281
     1
  3
ADSK_XREC_LAYER_RECONCILED
360
824C
  0
DICTIONARY
  5
824D
330
76D0
100
AcDbDictionary
280
     1
281
     1
  3
ADSK_XREC_LAYER_RECONCILED
360
824E
  0
DICTIONARY
  5
824F
330
76D1
100
AcDbDictionary
280
     1
281
     1
  3
ADSK_XREC_LAYER_RECONCILED
360
8250
  0
DICTIONARY
  5
8251
330
76D2
100
AcDbDictionary
280
     1
281
     1
  3
ADSK_XREC_LAYER_RECONCILED
360
8252
  0
DICTIONARY
  5
81E2
330
81E1
100
AcDbDictionary
280
     1
281
     1
  3
ADSK_XREC_LAYER_RECONCILED
360
8253
  0
DICTIONARY
  5
81E4
330
81E3
100
AcDbDictionary
280
     1
281
     1
  3
ADSK_XREC_LAYER_RECONCILED
360
8254
  0
DICTIONARY
  5
81E6
330
81E5
100
AcDbDictionary
280
     1
281
     1
  3
ADSK_XREC_LAYER_RECONCILED
360
8255
  0
DICTIONARY
  5
80F6
330
19
100
AcDbDictionary
280
     1
281
     1
  3
ACAD_LAYOUTSELFREF
360
80F7
  0
DICTIONARY
  5
80F4
330
16
100
AcDbDictionary
280
     1
281
     1
  3
ACAD_LAYOUTSELFREF
360
80F5
  0
XRECORD
  5
8159
102
{ACAD_REACTORS
330
C
102
}
330
C
100
AcDbXrecord
280
     1
300
ACDLT
300
2023
300

  0
DICTIONARY
  5
813C
102
{ACAD_REACTORS
330
C
102
}
330
C
100
AcDbDictionary
281
     1
  0
DICTIONARY
  5
8155
102
{ACAD_REACTORS
330
C
102
}
330
C
100
AcDbDictionary
281
     1
  3
Metric50
350
8156
  0
DICTIONARY
  5
D
102
{ACAD_REACTORS
330
C
102
}
330
C
100
AcDbDictionary
281
     1
  0
DICTIONARY
  5
80C9
102
{ACAD_REACTORS
330
C
102
}
330
C
100
AcDbDictionary
281
     1
  3
Model
350
80CB
  3
ﾚｲｱｳﾄ1
350
80CC
  0
DICTIONARY
  5
810A
102
{ACAD_REACTORS
330
C
102
}
330
C
100
AcDbDictionary
281
     1
  3
ByBlock
350
8113
  3
ByLayer
350
810B
  3
Global
350
811B
  0
DICTIONARY
  5
8151
102
{ACAD_REACTORS
330
C
102
}
330
C
100
AcDbDictionary
281
     1
  3
Standard
350
8152
  0
DICTIONARY
  5
E
102
{ACAD_REACTORS
330
C
102
}
330
C
100
AcDbDictionary
281
     1
  3
STANDARD
350
1C
  0
DICTIONARY
  5
80CA
102
{ACAD_REACTORS
330
C
102
}
330
C
100
AcDbDictionary
281
     1
  0
ACDBDICTIONARYWDFLT
  5
80C7
102
{ACAD_REACTORS
330
C
102
}
330
C
100
AcDbDictionary
281
     1
  3
Normal
350
80C8
100
AcDbDictionaryWithDefault
340
80C8
  0
DICTIONARY
  5
813F
102
{ACAD_REACTORS
330
C
102
}
330
C
100
AcDbDictionary
281
     1
  3
A0
350
8140
  3
A1
350
8141
  3
A2
350
8142
  3
A3
350
8143
  3
A4
350
8144
  3
A5
350
8145
  3
A6
350
8146
  3
A7
350
8147
  3
A8
350
8148
  3
A9
350
8149
  3
B0
350
814A
  3
B1
350
814B
  3
B2
350
814C
  3
B3
350
814D
  3
B4
350
814E
  3
B5
350
814F
  3
B6
350
8150
  0
DICTIONARY
  5
8153
102
{ACAD_REACTORS
330
C
102
}
330
C
100
AcDbDictionary
281
     1
  3
Metric50
350
8154
  0
DICTIONARY
  5
813D
102
{ACAD_REACTORS
330
C
102
}
330
C
100
AcDbDictionary
281
     1
  3
Standard
350
813E
  0
DICTIONARY
  5
8123
102
{ACAD_REACTORS
330
C
102
}
330
C
100
AcDbDictionary
281
     1
  3
2dWireframe
350
8129
  3
Basic
350
8128
  3
Brighten
350
812F
  3
ColorChange
350
8133
  3
Conceptual
350
812C
  3
Dim
350
812E
  3
EdgeColorOff
350
813B
  3
Facepattern
350
8132
  3
Flat
350
8124
  3
FlatWithEdges
350
8125
  3
Gouraud
350
8126
  3
GouraudWithEdges
350
8127
  3
Hidden
350
812B
  3
JitterOff
350
8139
  3
Linepattern
350
8131
  3
OverhangOff
350
813A
  3
Realistic
350
812D
  3
Shaded
350
8138
  3
Shaded with edges
350
8137
  3
Shades of Gray
350
8134
  3
Sketchy
350
8135
  3
Thicken
350
8130
  3
Wireframe
350
812A
  3
X-Ray
350
8136
  0
XRECORD
  5
82A7
102
{ACAD_REACTORS
330
C
102
}
330
C
100
AcDbXrecord
280
     1
 90
        1
330
813E
  0
DICTIONARY
  5
8296
102
{ACAD_REACTORS
330
C
102
}
330
C
100
AcDbDictionary
281
     1
  3
CANNOSCALE
350
829C
  3
CMLEADERSTYLE
350
8298
  3
CTABLESTYLE
350
8297
  3
CVIEWDETAILSTYLE
350
8299
  3
CVIEWSECTIONSTYLE
350
829A
  3
LAYEREVAL
350
829E
  3
LAYERNOTIFY
350
829F
  3
LIGHTINGUNITS
350
829D
  3
MARKUPASSISTMODE
350
82A4
  3
MSLTSCALE
350
829B
  0
DICTIONARY
  5
82AD
102
{ACAD_REACTORS
330
C
102
}
330
C
100
AcDbDictionary
281
     1
  3
AcDsRecords
350
82AF
  3
AcDsSchemas
350
82AE
1001
ACAD
1070
     2
  0
DICTIONARY
  5
81EC
102
{ACAD_REACTORS
330
81EB
102
}
330
81EB
100
AcDbDictionary
281
     1
  0
XRECORD
  5
824A
102
{ACAD_REACTORS
330
8249
102
}
330
8249
100
AcDbXrecord
280
     1
290
     1
  0
XRECORD
  5
824C
102
{ACAD_REACTORS
330
824B
102
}
330
824B
100
AcDbXrecord
280
     1
290
     1
  0
XRECORD
  5
824E
102
{ACAD_REACTORS
330
824D
102
}
330
824D
100
AcDbXrecord
280
     1
290
     1
  0
XRECORD
  5
8250
102
{ACAD_REACTORS
330
824F
102
}
330
824F
100
AcDbXrecord
280
     1
290
     1
  0
XRECORD
  5
8252
102
{ACAD_REACTORS
330
8251
102
}
330
8251
100
AcDbXrecord
280
     1
290
     1
  0
XRECORD
  5
8253
102
{ACAD_REACTORS
330
81E2
102
}
330
81E2
100
AcDbXrecord
280
     1
290
     1
  0
XRECORD
  5
8254
102
{ACAD_REACTORS
330
81E4
102
}
330
81E4
100
AcDbXrecord
280
     1
290
     1
  0
XRECORD
  5
8255
102
{ACAD_REACTORS
330
81E6
102
}
330
81E6
100
AcDbXrecord
280
     1
290
     1
  0
XRECORD
  5
80F7
102
{ACAD_REACTORS
330
80F6
102
}
330
80F6
100
AcDbXrecord
280
     1
340
19
  0
XRECORD
  5
80F5
102
{ACAD_REACTORS
330
80F4
102
}
330
80F4
100
AcDbXrecord
280
     1
340
16
  0
ACDBDETAILVIEWSTYLE
  5
8156
102
{ACAD_XDICTIONARY
360
82B2
102
}
102
{ACAD_REACTORS
330
8155
102
}
330
8155
100
AcDbModelDocViewStyle
 70
     0
  3
Metric50
290
     0
100
AcDbDetailViewStyle
 70
     0
 71
     0
 90
        3
 71
     1
340
10
 62
   256
 40
5.0
340
0
 62
   256
 40
5.0
300

 40
0.0
280
     1
 71
     2
340
15
 90
       25
 62
   256
 71
     3
340
10
 62
   256
 40
5.0
 90
        0
 40
15.0
 90
        1
300
%<\AcVar ViewDetailId>% (%<\AcVar ViewScale \f "%sn">%)
 71
     4
340
15
 90
       25
 62
   256
340
15
 90
       25
 62
   256
280
     0
  0
LAYOUT
  5
80CB
102
{ACAD_REACTORS
330
80C9
102
}
330
80C9
100
AcDbPlotSettings
  1

  2
EPSON LP-9300
  4

  6

 40
0.0
 41
0.0
 42
0.0
 43
0.0
 44
0.0
 45
0.0
 46
0.0
 47
0.0
 48
0.0
 49
0.0
140
0.0
141
0.0
142
1.0
143
1.0
 70
  1712
 72
     0
 73
     0
 74
     0
  7

 75
     0
147
1.0
 76
     0
 77
     2
 78
   300
148
0.0
149
0.0
100
AcDbLayout
  1
Model
 70
     1
 71
     0
 10
0.0
 20
0.0
 11
12.0
 21
9.0
 12
0.0
 22
0.0
 32
0.0
 14
0.0
 24
0.0
 34
0.0
 15
0.0
 25
0.0
 35
0.0
146
0.0
 13
0.0
 23
0.0
 33
0.0
 16
1.0
 26
0.0
 36
0.0
 17
0.0
 27
1.0
 37
0.0
 76
     0
330
19
331
8108
  0
LAYOUT
  5
80CC
102
{ACAD_REACTORS
330
80C9
102
}
330
80C9
100
AcDbPlotSettings
  1

  2
EPSON LP-9300
  4

  6

 40
0.0
 41
0.0
 42
0.0
 43
0.0
 44
0.0
 45
0.0
 46
0.0
 47
0.0
 48
0.0
 49
0.0
140
0.0
141
0.0
142
1.0
143
1.0
 70
   688
 72
     0
 73
     0
 74
     5
  7

 75
    16
147
1.0
 76
     0
 77
     2
 78
   300
148
0.0
149
0.0
100
AcDbLayout
  1
ﾚｲｱｳﾄ1
 70
     1
 71
     1
 10
0.0
 20
0.0
 11
12.0
 21
9.0
 12
0.0
 22
0.0
 32
0.0
 14
1.000000000000000E+20
 24
1.000000000000000E+20
 34
1.000000000000000E+20
 15
-1.000000000000000E+20
 25
-1.000000000000000E+20
 35
-1.000000000000000E+20
146
0.0
 13
0.0
 23
0.0
 33
0.0
 16
1.0
 26
0.0
 36
0.0
 17
0.0
 27
1.0
 37
0.0
 76
     0
330
16
  0
MATERIAL
  5
8113
102
{ACAD_XDICTIONARY
360
8114
102
}
102
{ACAD_REACTORS
330
810A
102
}
330
810A
100
AcDbMaterial
  1
ByBlock
 72
     0
 43
0.0208333333333333
 43
0.0
 43
0.0
 43
0.0
 43
0.0
 43
0.0208333333333333
 43
0.0
 43
0.0
 43
0.0
 43
0.0
 43
1.0
 43
0.0
 43
0.0
 43
0.0
 43
0.0
 43
1.0
 77
     0
 47
0.0208333333333333
 47
0.0
 47
0.0
 47
0.0
 47
0.0
 47
0.0208333333333333
 47
0.0
 47
0.0
 47
0.0
 47
0.0
 47
1.0
 47
0.0
 47
0.0
 47
0.0
 47
0.0
 47
1.0
171
     0
 49
0.0208333333333333
 49
0.0
 49
0.0
 49
0.0
 49
0.0
 49
0.0208333333333333
 49
0.0
 49
0.0
 49
0.0
 49
0.0
 49
1.0
 49
0.0
 49
0.0
 49
0.0
 49
0.0
 49
1.0
175
     0
142
0.0208333333333333
142
0.0
142
0.0
142
0.0
142
0.0
142
0.0208333333333333
142
0.0
142
0.0
142
0.0
142
0.0
142
1.0
142
0.0
142
0.0
142
0.0
142
0.0
142
1.0
179
     0
144
0.0208333333333333
144
0.0
144
0.0
144
0.0
144
0.0
144
0.0208333333333333
144
0.0
144
0.0
144
0.0
144
0.0
144
1.0
144
0.0
144
0.0
144
0.0
144
0.0
144
1.0
147
0.0208333333333333
147
0.0
147
0.0
147
0.0
147
0.0
147
0.0208333333333333
147
0.0
147
0.0
147
0.0
147
0.0
147
1.0
147
0.0
147
0.0
147
0.0
147
0.0
147
1.0
  0
MATERIAL
  5
810B
102
{ACAD_XDICTIONARY
360
810C
102
}
102
{ACAD_REACTORS
330
810A
102
}
330
810A
100
AcDbMaterial
  1
ByLayer
 72
     0
 43
0.0208333333333333
 43
0.0
 43
0.0
 43
0.0
 43
0.0
 43
0.0208333333333333
 43
0.0
 43
0.0
 43
0.0
 43
0.0
 43
1.0
 43
0.0
 43
0.0
 43
0.0
 43
0.0
 43
1.0
 77
     0
 47
0.0208333333333333
 47
0.0
 47
0.0
 47
0.0
 47
0.0
 47
0.0208333333333333
 47
0.0
 47
0.0
 47
0.0
 47
0.0
 47
1.0
 47
0.0
 47
0.0
 47
0.0
 47
0.0
 47
1.0
171
     0
 49
0.0208333333333333
 49
0.0
 49
0.0
 49
0.0
 49
0.0
 49
0.0208333333333333
 49
0.0
 49
0.0
 49
0.0
 49
0.0
 49
1.0
 49
0.0
 49
0.0
 49
0.0
 49
0.0
 49
1.0
175
     0
142
0.0208333333333333
142
0.0
142
0.0
142
0.0
142
0.0
142
0.0208333333333333
142
0.0
142
0.0
142
0.0
142
0.0
142
1.0
142
0.0
142
0.0
142
0.0
142
0.0
142
1.0
179
     0
144
0.0208333333333333
144
0.0
144
0.0
144
0.0
144
0.0
144
0.0208333333333333
144
0.0
144
0.0
144
0.0
144
0.0
144
1.0
144
0.0
144
0.0
144
0.0
144
0.0
144
1.0
147
0.0208333333333333
147
0.0
147
0.0
147
0.0
147
0.0
147
0.0208333333333333
147
0.0
147
0.0
147
0.0
147
0.0
147
1.0
147
0.0
147
0.0
147
0.0
147
0.0
147
1.0
  0
MATERIAL
  5
811B
102
{ACAD_XDICTIONARY
360
811C
102
}
102
{ACAD_REACTORS
330
810A
102
}
330
810A
100
AcDbMaterial
  1
Global
 72
     0
 43
0.0208333333333333
 43
0.0
 43
0.0
 43
0.0
 43
0.0
 43
0.0208333333333333
 43
0.0
 43
0.0
 43
0.0
 43
0.0
 43
1.0
 43
0.0
 43
0.0
 43
0.0
 43
0.0
 43
1.0
 77
     0
 47
0.0208333333333333
 47
0.0
 47
0.0
 47
0.0
 47
0.0
 47
0.0208333333333333
 47
0.0
 47
0.0
 47
0.0
 47
0.0
 47
1.0
 47
0.0
 47
0.0
 47
0.0
 47
0.0
 47
1.0
171
     0
 49
0.0208333333333333
 49
0.0
 49
0.0
 49
0.0
 49
0.0
 49
0.0208333333333333
 49
0.0
 49
0.0
 49
0.0
 49
0.0
 49
1.0
 49
0.0
 49
0.0
 49
0.0
 49
0.0
 49
1.0
175
     0
142
0.0208333333333333
142
0.0
142
0.0
142
0.0
142
0.0
142
0.0208333333333333
142
0.0
142
0.0
142
0.0
142
0.0
142
1.0
142
0.0
142
0.0
142
0.0
142
0.0
142
1.0
179
     0
144
0.0208333333333333
144
0.0
144
0.0
144
0.0
144
0.0
144
0.0208333333333333
144
0.0
144
0.0
144
0.0
144
0.0
144
1.0
144
0.0
144
0.0
144
0.0
144
0.0
144
1.0
147
0.0208333333333333
147
0.0
147
0.0
147
0.0
147
0.0
147
0.0208333333333333
147
0.0
147
0.0
147
0.0
147
0.0
147
1.0
147
0.0
147
0.0
147
0.0
147
0.0
147
1.0
  0
MLEADERSTYLE
  5
8152
102
{ACAD_REACTORS
330
8151
102
}
330
8151
100
AcDbMLeaderStyle
179
     2
170
     2
171
     1
172
     0
 90
        2
 40
0.0
 41
0.0
173
     1
 91
-1056964608
340
13
 92
       -2
290
     1
 42
2.0
291
     1
 43
0.36
  3
Standard
 44
4.0
300

342
10
174
     1
178
     6
175
     1
176
     0
 93
-1056964608
 45
4.0
292
     0
297
     0
 46
4.0
 94
-1056964608
 47
1.0
 49
1.0
140
1.0
293
     1
141
0.0
294
     1
177
     0
142
1.0
295
     0
296
     0
143
0.125
271
     0
272
     9
273
     9
298
     1
  0
MLINESTYLE
  5
1C
102
{ACAD_REACTORS
330
E
102
}
330
E
100
AcDbMlineStyle
  2
STANDARD
 70
     0
  3

 62
     0
 51
90.0
 52
90.0
 71
     2
 49
0.5
 62
   256
  6
BYLAYER
 49
-0.5
 62
   256
  6
BYLAYER
  0
ACDBPLACEHOLDER
  5
80C8
102
{ACAD_REACTORS
330
80C7
102
}
330
80C7
  0
SCALE
  5
8140
102
{ACAD_REACTORS
330
813F
102
}
330
813F
100
AcDbScale
 70
     0
300
1:1
140
1.0
141
1.0
290
     1
  0
SCALE
  5
8141
102
{ACAD_REACTORS
330
813F
102
}
330
813F
100
AcDbScale
 70
     0
300
1:2
140
1.0
141
2.0
290
     0
  0
SCALE
  5
8142
102
{ACAD_REACTORS
330
813F
102
}
330
813F
100
AcDbScale
 70
     0
300
1:4
140
1.0
141
4.0
290
     0
  0
SCALE
  5
8143
102
{ACAD_REACTORS
330
813F
102
}
330
813F
100
AcDbScale
 70
     0
300
1:5
140
1.0
141
5.0
290
     0
  0
SCALE
  5
8144
102
{ACAD_REACTORS
330
813F
102
}
330
813F
100
AcDbScale
 70
     0
300
1:8
140
1.0
141
8.0
290
     0
  0
SCALE
  5
8145
102
{ACAD_REACTORS
330
813F
102
}
330
813F
100
AcDbScale
 70
     0
300
1:10
140
1.0
141
10.0
290
     0
  0
SCALE
  5
8146
102
{ACAD_REACTORS
330
813F
102
}
330
813F
100
AcDbScale
 70
     0
300
1:16
140
1.0
141
16.0
290
     0
  0
SCALE
  5
8147
102
{ACAD_REACTORS
330
813F
102
}
330
813F
100
AcDbScale
 70
     0
300
1:20
140
1.0
141
20.0
290
     0
  0
SCALE
  5
8148
102
{ACAD_REACTORS
330
813F
102
}
330
813F
100
AcDbScale
 70
     0
300
1:30
140
1.0
141
30.0
290
     0
  0
SCALE
  5
8149
102
{ACAD_REACTORS
330
813F
102
}
330
813F
100
AcDbScale
 70
     0
300
1:40
140
1.0
141
40.0
290
     0
  0
SCALE
  5
814A
102
{ACAD_REACTORS
330
813F
102
}
330
813F
100
AcDbScale
 70
     0
300
1:50
140
1.0
141
50.0
290
     0
  0
SCALE
  5
814B
102
{ACAD_REACTORS
330
813F
102
}
330
813F
100
AcDbScale
 70
     0
300
1:100
140
1.0
141
100.0
290
     0
  0
SCALE
  5
814C
102
{ACAD_REACTORS
330
813F
102
}
330
813F
100
AcDbScale
 70
     0
300
2:1
140
2.0
141
1.0
290
     0
  0
SCALE
  5
814D
102
{ACAD_REACTORS
330
813F
102
}
330
813F
100
AcDbScale
 70
     0
300
4:1
140
4.0
141
1.0
290
     0
  0
SCALE
  5
814E
102
{ACAD_REACTORS
330
813F
102
}
330
813F
100
AcDbScale
 70
     0
300
8:1
140
8.0
141
1.0
290
     0
  0
SCALE
  5
814F
102
{ACAD_REACTORS
330
813F
102
}
330
813F
100
AcDbScale
 70
     0
300
10:1
140
10.0
141
1.0
290
     0
  0
SCALE
  5
8150
102
{ACAD_REACTORS
330
813F
102
}
330
813F
100
AcDbScale
 70
     0
300
100:1
140
100.0
141
1.0
290
     0
  0
ACDBSECTIONVIEWSTYLE
  5
8154
102
{ACAD_XDICTIONARY
360
82B0
102
}
102
{ACAD_REACTORS
330
8153
102
}
330
8153
100
AcDbModelDocViewStyle
 70
     0
  3
Metric50
290
     0
100
AcDbSectionViewStyle
 70
     0
 71
     0
 90
      102
 71
     1
340
10
 62
   256
 40
5.0
340
0
340
0
 62
   256
 40
5.0
300
I, O, Q, S, X, Z
 40
10.0
 90
        0
 40
2.5
 90
        0
 71
     2
340
15
 90
       25
 62
   256
340
15
 90
       50
 62
   256
 40
5.0
 40
2.5
 40
5.0
 71
     3
340
10
 62
   256
 40
5.0
 90
        0
 40
15.0
 90
        1
300
%<\AcVar ViewSectionStartId>%-%<\AcVar ViewSectionEndId>% (%<\AcVar ViewScale \f "%sn">%)
 71
     4
 62
   256
 62
   257
300
ANSI31
 40
1.0
 90
        0
290
     0
290
     0
 90
        6
 40
0.0
 40
1.570796326794896
 40
0.2617993877991494
 40
1.308996938995747
 40
-0.2617993877991494
 40
1.832595714594046
  0
TABLESTYLE
  5
813E
102
{ACAD_XDICTIONARY
360
82A5
102
}
102
{ACAD_REACTORS
330
813D
102
}
330
813D
100
AcDbTableStyle
280
     0
  3
Standard
 70
     0
 71
     0
 40
1.5
 41
1.5
280
     0
281
     0
  7
STANDARD
140
4.5
170
     2
 62
     0
 63
     7
283
     0
 90
      512
 91
        0
  1

274
    -2
284
     1
 64
     0
275
    -2
285
     1
 65
     0
276
    -2
286
     1
 66
     0
277
    -2
287
     1
 67
     0
278
    -2
288
     1
 68
     0
279
    -2
289
     1
 69
     0
  7
STANDARD
140
6.0
170
     5
 62
     0
 63
     7
283
     0
 90
      512
 91
        0
  1

274
    -2
284
     1
 64
     0
275
    -2
285
     1
 65
     0
276
    -2
286
     1
 66
     0
277
    -2
287
     1
 67
     0
278
    -2
288
     1
 68
     0
279
    -2
289
     1
 69
     0
  7
STANDARD
140
4.5
170
     5
 62
     0
 63
     7
283
     0
 90
      512
 91
        0
  1

274
    -2
284
     1
 64
     0
275
    -2
285
     1
 65
     0
276
    -2
286
     1
 66
     0
277
    -2
287
     1
 67
     0
278
    -2
288
     1
 68
     0
279
    -2
289
     1
 69
     0
  0
VISUALSTYLE
  5
8129
102
{ACAD_REACTORS
330
8123
102
}
330
8123
100
AcDbVisualStyle
  2
2dWireframe
 70
     4
177
     3
291
     0
 70
    58
 90
        0
176
     1
 90
        2
176
     1
 90
        0
176
     1
 90
        0
176
     1
 40
0.6
176
     1
 40
30.0
176
     1
 62
     7
420
 16777215
176
     1
 90
        1
176
     1
 90
        4
176
     1
 62
     7
176
     1
 62
   257
176
     1
 90
        1
176
     1
 90
        1
176
     1
 40
1.0
176
     1
 90
        0
176
     1
 62
   257
176
     1
 40
1.0
176
     1
 90
        1
176
     1
 90
        6
176
     1
 90
        2
176
     1
 62
     7
176
     1
 90
        5
176
     1
 90
        0
176
     1
 90
        0
176
     1
290
     0
176
     1
 90
        1
176
     1
 40
0.0
176
     1
 90
        0
176
     1
290
     1
176
     1
290
     1
176
     1
290
     0
176
     1
290
     0
176
     1
290
     0
176
     1
290
     0
176
     1
290
     0
176
     1
290
     0
176
     1
290
     0
176
     1
 90
       50
176
     1
 40
0.0
176
     1
 40
1.0
176
     1
 90
        0
176
     1
 62
    18
420
        0
176
     1
 90
       50
176
     1
 90
        3
176
     1
 62
     5
420
      255
176
     1
290
     0
176
     1
 90
       50
176
     1
 90
       50
176
     1
 90
       50
176
     1
290
     0
176
     1
 90
       50
176
     1
 62
   256
176
     0
 40
1.0
176
     0
 90
        2
176
     1
  1
strokes_ogs.tif
176
     1
290
     0
176
     1
 40
1.0
176
     1
 40
1.0
176
     1
1001
ACAD
1000
AcDbSavedByObjectVersion
1070
     0
  0
VISUALSTYLE
  5
8128
102
{ACAD_REACTORS
330
8123
102
}
330
8123
100
AcDbVisualStyle
  2
Basic
 70
     7
177
     3
291
     1
 70
    58
 90
        1
176
     1
 90
        0
176
     1
 90
        1
176
     1
 90
        0
176
     1
 40
0.6
176
     1
 40
30.0
176
     1
 62
     7
420
 16777215
176
     1
 90
        0
176
     1
 90
        4
176
     1
 62
     7
176
     1
 62
   257
176
     1
 90
        1
176
     1
 90
        1
176
     1
 40
1.0
176
     1
 90
        8
176
     1
 62
     7
176
     1
 40
1.0
176
     1
 90
        1
176
     1
 90
        6
176
     1
 90
        2
176
     1
 62
     7
176
     1
 90
        5
176
     1
 90
        0
176
     1
 90
        0
176
     1
290
     0
176
     1
 90
        1
176
     1
 40
0.0
176
     1
 90
        0
176
     1
290
     0
176
     1
290
     1
176
     1
290
     1
176
     1
290
     0
176
     1
290
     0
176
     1
290
     0
176
     1
290
     0
176
     1
290
     0
176
     1
290
     0
176
     1
 90
       50
176
     1
 40
0.0
176
     1
 40
1.0
176
     1
 90
        0
176
     1
 62
    18
420
        0
176
     1
 90
       50
176
     1
 90
        3
176
     1
 62
     5
420
      255
176
     1
290
     0
176
     1
 90
       50
176
     1
 90
       50
176
     1
 90
       50
176
     1
290
     0
176
     1
 90
       50
176
     1
 62
   256
176
     0
 40
1.0
176
     0
 90
        2
176
     1
  1
strokes_ogs.tif
176
     1
290
     0
176
     1
 40
1.0
176
     1
 40
1.0
176
     1
1001
ACAD
1000
AcDbSavedByObjectVersion
1070
     0
  0
VISUALSTYLE
  5
812F
102
{ACAD_REACTORS
330
8123
102
}
330
8123
100
AcDbVisualStyle
  2
Brighten
 70
    12
177
     3
291
     1
 70
    58
 90
        2
176
     1
 90
        2
176
     1
 90
        0
176
     1
 90
        0
176
     1
 40
0.6
176
     1
 40
30.0
176
     1
 62
     7
420
 16777215
176
     1
 90
        1
176
     1
 90
        4
176
     1
 62
     7
176
     1
 62
   257
176
     1
 90
        1
176
     1
 90
        1
176
     1
 40
1.0
176
     1
 90
        8
176
     1
 62
     7
176
     1
 40
1.0
176
     1
 90
        1
176
     1
 90
        6
176
     1
 90
        2
176
     1
 62
     7
176
     1
 90
        5
176
     1
 90
        0
176
     1
 90
        0
176
     1
290
     0
176
     1
 90
        1
176
     1
 40
50.0
176
     1
 90
        0
176
     1
290
     0
176
     1
290
     1
176
     1
290
     1
176
     1
290
     0
176
     1
290
     0
176
     1
290
     0
176
     1
290
     0
176
     1
290
     0
176
     1
290
     0
176
     1
 90
       50
176
     1
 40
0.0
176
     1
 40
1.0
176
     1
 90
        0
176
     1
 62
    18
420
        0
176
     1
 90
       50
176
     1
 90
        3
176
     1
 62
     5
420
      255
176
     1
290
     0
176
     1
 90
       50
176
     1
 90
       50
176
     1
 90
       50
176
     1
290
     0
176
     1
 90
       50
176
     1
 62
   256
176
     0
 40
1.0
176
     0
 90
        2
176
     1
  1
strokes_ogs.tif
176
     1
290
     0
176
     1
 40
1.0
176
     1
 40
1.0
176
     1
1001
ACAD
1000
AcDbSavedByObjectVersion
1070
     0
  0
VISUALSTYLE
  5
8133
102
{ACAD_REACTORS
330
8123
102
}
330
8123
100
AcDbVisualStyle
  2
ColorChange
 70
    16
177
     3
291
     1
 70
    58
 90
        2
176
     1
 90
        2
176
     1
 90
        3
176
     1
 90
        0
176
     1
 40
0.6
176
     1
 40
30.0
176
     1
 62
     8
420
  8421504
176
     1
 90
        1
176
     1
 90
        4
176
     1
 62
     7
176
     1
 62
   257
176
     1
 90
        1
176
     1
 90
        1
176
     1
 40
1.0
176
     1
 90
        8
176
     1
 62
     8
420
  8421504
176
     1
 40
1.0
176
     1
 90
        1
176
     1
 90
        6
176
     1
 90
        2
176
     1
 62
     7
176
     1
 90
        5
176
     1
 90
        0
176
     1
 90
        0
176
     1
290
     0
176
     1
 90
        1
176
     1
 40
0.0
176
     1
 90
        0
176
     1
290
     0
176
     1
290
     1
176
     1
290
     1
176
     1
290
     0
176
     1
290
     0
176
     1
290
     0
176
     1
290
     0
176
     1
290
     0
176
     1
290
     0
176
     1
 90
       50
176
     1
 40
0.0
176
     1
 40
1.0
176
     1
 90
        0
176
     1
 62
    18
420
        0
176
     1
 90
       50
176
     1
 90
        3
176
     1
 62
     5
420
      255
176
     1
290
     0
176
     1
 90
       50
176
     1
 90
       50
176
     1
 90
       50
176
     1
290
     0
176
     1
 90
       50
176
     1
 62
   256
176
     0
 40
1.0
176
     0
 90
        2
176
     1
  1
strokes_ogs.tif
176
     1
290
     0
176
     1
 40
1.0
176
     1
 40
1.0
176
     1
1001
ACAD
1000
AcDbSavedByObjectVersion
1070
     0
  0
VISUALSTYLE
  5
812C
102
{ACAD_REACTORS
330
8123
102
}
330
8123
100
AcDbVisualStyle
  2
Conceptual
 70
     9
177
     3
291
     0
 70
    58
 90
        3
176
     1
 90
        2
176
     1
 90
        0
176
     1
 90
        0
176
     1
 40
0.6
176
     1
 40
30.0
176
     1
 62
     7
420
 16777215
176
     1
 90
        2
176
     1
 90
        2
176
     1
 62
     7
176
     1
 62
   257
176
     1
 90
        1
176
     1
 90
        1
176
     1
 40
179.0
176
     1
 90
        8
176
     1
 62
     7
176
     1
 40
1.0
176
     1
 90
        1
176
     1
 90
        6
176
     1
 90
        2
176
     1
 62
     7
176
     1
 90
        3
176
     1
 90
        0
176
     1
 90
        0
176
     1
290
     0
176
     1
 90
        1
176
     1
 40
0.0
176
     1
 90
        0
176
     1
290
     0
176
     1
290
     1
176
     1
290
     1
176
     1
290
     0
176
     1
290
     0
176
     1
290
     0
176
     1
290
     0
176
     1
290
     0
176
     1
290
     0
176
     1
 90
       50
176
     1
 40
0.0
176
     1
 40
1.0
176
     1
 90
        0
176
     1
 62
    18
420
        0
176
     1
 90
       50
176
     1
 90
        3
176
     1
 62
     5
420
      255
176
     1
290
     0
176
     1
 90
       50
176
     1
 90
       50
176
     1
 90
       50
176
     1
290
     0
176
     1
 90
       50
176
     1
 62
   256
176
     0
 40
1.0
176
     0
 90
        2
176
     1
  1
strokes_ogs.tif
176
     1
290
     0
176
     1
 40
1.0
176
     1
 40
1.0
176
     1
1001
ACAD
1000
AcDbSavedByObjectVersion
1070
     0
  0
VISUALSTYLE
  5
812E
102
{ACAD_REACTORS
330
8123
102
}
330
8123
100
AcDbVisualStyle
  2
Dim
 70
    11
177
     3
291
     1
 70
    58
 90
        2
176
     1
 90
        2
176
     1
 90
        0
176
     1
 90
        0
176
     1
 40
0.6
176
     1
 40
30.0
176
     1
 62
     7
420
 16777215
176
     1
 90
        1
176
     1
 90
        4
176
     1
 62
     7
176
     1
 62
   257
176
     1
 90
        1
176
     1
 90
        1
176
     1
 40
1.0
176
     1
 90
        8
176
     1
 62
     7
176
     1
 40
1.0
176
     1
 90
        1
176
     1
 90
        6
176
     1
 90
        2
176
     1
 62
     7
176
     1
 90
        5
176
     1
 90
        0
176
     1
 90
        0
176
     1
290
     0
176
     1
 90
        1
176
     1
 40
-50.0
176
     1
 90
        0
176
     1
290
     0
176
     1
290
     1
176
     1
290
     1
176
     1
290
     0
176
     1
290
     0
176
     1
290
     0
176
     1
290
     0
176
     1
290
     0
176
     1
290
     0
176
     1
 90
       50
176
     1
 40
0.0
176
     1
 40
1.0
176
     1
 90
        0
176
     1
 62
    18
420
        0
176
     1
 90
       50
176
     1
 90
        3
176
     1
 62
     5
420
      255
176
     1
290
     0
176
     1
 90
       50
176
     1
 90
       50
176
     1
 90
       50
176
     1
290
     0
176
     1
 90
       50
176
     1
 62
   256
176
     0
 40
1.0
176
     0
 90
        2
176
     1
  1
strokes_ogs.tif
176
     1
290
     0
176
     1
 40
1.0
176
     1
 40
1.0
176
     1
1001
ACAD
1000
AcDbSavedByObjectVersion
1070
     0
  0
VISUALSTYLE
  5
813B
102
{ACAD_REACTORS
330
8123
102
}
330
8123
100
AcDbVisualStyle
  2
EdgeColorOff
 70
    22
177
     3
291
     1
 70
    58
 90
        2
176
     0
 90
        2
176
     0
 90
        0
176
     0
 90
        0
176
     0
 40
0.6
176
     0
 40
30.0
176
     0
 62
     7
420
 16777215
176
     0
 90
        1
176
     0
 90
        4
176
     0
 62
     7
176
     0
 62
   257
176
     0
 90
        1
176
     0
 90
        1
176
     0
 40
1.0
176
     0
 90
        8
176
     2
 62
     7
176
     0
 40
1.0
176
     0
 90
        1
176
     0
 90
        6
176
     0
 90
        2
176
     0
 62
     7
176
     0
 90
        5
176
     0
 90
        0
176
     0
 90
        0
176
     0
290
     0
176
     0
 90
        1
176
     0
 40
0.0
176
     0
 90
        0
176
     0
290
     0
176
     0
290
     1
176
     0
290
     1
176
     0
290
     0
176
     0
290
     0
176
     0
290
     0
176
     0
290
     0
176
     0
290
     0
176
     0
290
     0
176
     0
 90
       50
176
     0
 40
0.0
176
     0
 40
1.0
176
     0
 90
        0
176
     0
 62
    18
420
        0
176
     0
 90
       50
176
     0
 90
        3
176
     0
 62
     5
420
      255
176
     0
290
     0
176
     0
 90
       50
176
     0
 90
       50
176
     0
 90
       50
176
     0
290
     0
176
     0
 90
       50
176
     0
 62
   256
176
     0
 40
1.0
176
     0
 90
        2
176
     0
  1
strokes_ogs.tif
176
     0
290
     0
176
     0
 40
1.0
176
     0
 40
1.0
176
     0
1001
ACAD
1000
AcDbSavedByObjectVersion
1070
     0
  0
VISUALSTYLE
  5
8132
102
{ACAD_REACTORS
330
8123
102
}
330
8123
100
AcDbVisualStyle
  2
Facepattern
 70
    15
177
     3
291
     1
 70
    58
 90
        2
176
     1
 90
        2
176
     1
 90
        0
176
     1
 90
        0
176
     1
 40
0.6
176
     1
 40
30.0
176
     1
 62
     7
420
 16777215
176
     1
 90
        1
176
     1
 90
        4
176
     1
 62
     7
176
     1
 62
   257
176
     1
 90
        1
176
     1
 90
        1
176
     1
 40
1.0
176
     1
 90
        8
176
     1
 62
     7
176
     1
 40
1.0
176
     1
 90
        1
176
     1
 90
        6
176
     1
 90
        2
176
     1
 62
     7
176
     1
 90
        5
176
     1
 90
        0
176
     1
 90
        0
176
     1
290
     0
176
     1
 90
        1
176
     1
 40
0.0
176
     1
 90
        0
176
     1
290
     0
176
     1
290
     1
176
     1
290
     1
176
     1
290
     0
176
     1
290
     0
176
     1
290
     0
176
     1
290
     0
176
     1
290
     0
176
     1
290
     0
176
     1
 90
       50
176
     1
 40
0.0
176
     1
 40
1.0
176
     1
 90
        0
176
     1
 62
    18
420
        0
176
     1
 90
       50
176
     1
 90
        3
176
     1
 62
     5
420
      255
176
     1
290
     0
176
     1
 90
       50
176
     1
 90
       50
176
     1
 90
       50
176
     1
290
     0
176
     1
 90
       50
176
     1
 62
   256
176
     0
 40
1.0
176
     0
 90
        2
176
     1
  1
strokes_ogs.tif
176
     1
290
     0
176
     1
 40
1.0
176
     1
 40
1.0
176
     1
1001
ACAD
1000
AcDbSavedByObjectVersion
1070
     0
  0
VISUALSTYLE
  5
8124
102
{ACAD_REACTORS
330
8123
102
}
330
8123
100
AcDbVisualStyle
  2
Flat
 70
     0
177
     3
291
     1
 70
    58
 90
        2
176
     1
 90
        1
176
     1
 90
        1
176
     1
 90
        2
176
     1
 40
0.6
176
     1
 40
30.0
176
     1
 62
     7
420
 16777215
176
     1
 90
        0
176
     1
 90
        0
176
     1
 62
     7
176
     1
 62
   257
176
     1
 90
        1
176
     1
 90
        1
176
     1
 40
1.0
176
     1
 90
        8
176
     1
 62
     7
176
     1
 40
1.0
176
     1
 90
        1
176
     1
 90
        6
176
     1
 90
        2
176
     1
 62
     7
176
     1
 90
        5
176
     1
 90
        0
176
     1
 90
        0
176
     1
290
     0
176
     1
 90
       13
176
     1
 40
0.0
176
     1
 90
        0
176
     1
290
     0
176
     1
290
     1
176
     1
290
     1
176
     1
290
     0
176
     1
290
     0
176
     1
290
     0
176
     1
290
     0
176
     1
290
     0
176
     1
290
     0
176
     1
 90
       50
176
     1
 40
0.0
176
     1
 40
1.0
176
     1
 90
        0
176
     1
 62
    18
420
        0
176
     1
 90
       50
176
     1
 90
        3
176
     1
 62
     5
420
      255
176
     1
290
     0
176
     1
 90
       50
176
     1
 90
       50
176
     1
 90
       50
176
     1
290
     0
176
     1
 90
       50
176
     1
 62
   256
176
     0
 40
1.0
176
     0
 90
        2
176
     1
  1
strokes_ogs.tif
176
     1
290
     0
176
     1
 40
1.0
176
     1
 40
1.0
176
     1
1001
ACAD
1000
AcDbSavedByObjectVersion
1070
     0
  0
VISUALSTYLE
  5
8125
102
{ACAD_REACTORS
330
8123
102
}
330
8123
100
AcDbVisualStyle
  2
FlatWithEdges
 70
     1
177
     3
291
     1
 70
    58
 90
        2
176
     1
 90
        1
176
     1
 90
        1
176
     1
 90
        2
176
     1
 40
0.6
176
     1
 40
30.0
176
     1
 62
     7
420
 16777215
176
     1
 90
        1
176
     1
 90
        0
176
     1
 62
     7
176
     1
 62
   257
176
     1
 90
        1
176
     1
 90
        1
176
     1
 40
1.0
176
     1
 90
        0
176
     1
 62
   257
176
     1
 40
1.0
176
     1
 90
        1
176
     1
 90
        6
176
     1
 90
        2
176
     1
 62
     7
176
     1
 90
        5
176
     1
 90
        0
176
     1
 90
        0
176
     1
290
     0
176
     1
 90
       13
176
     1
 40
0.0
176
     1
 90
        0
176
     1
290
     0
176
     1
290
     1
176
     1
290
     1
176
     1
290
     0
176
     1
290
     0
176
     1
290
     0
176
     1
290
     0
176
     1
290
     0
176
     1
290
     0
176
     1
 90
       50
176
     1
 40
0.0
176
     1
 40
1.0
176
     1
 90
        0
176
     1
 62
    18
420
        0
176
     1
 90
       50
176
     1
 90
        3
176
     1
 62
     5
420
      255
176
     1
290
     0
176
     1
 90
       50
176
     1
 90
       50
176
     1
 90
       50
176
     1
290
     0
176
     1
 90
       50
176
     1
 62
   256
176
     0
 40
1.0
176
     0
 90
        2
176
     1
  1
strokes_ogs.tif
176
     1
290
     0
176
     1
 40
1.0
176
     1
 40
1.0
176
     1
1001
ACAD
1000
AcDbSavedByObjectVersion
1070
     0
  0
VISUALSTYLE
  5
8126
102
{ACAD_REACTORS
330
8123
102
}
330
8123
100
AcDbVisualStyle
  2
Gouraud
 70
     2
177
     3
291
     1
 70
    58
 90
        2
176
     1
 90
        2
176
     1
 90
        1
176
     1
 90
        2
176
     1
 40
0.6
176
     1
 40
30.0
176
     1
 62
     7
420
 16777215
176
     1
 90
        0
176
     1
 90
        0
176
     1
 62
     7
176
     1
 62
   257
176
     1
 90
        1
176
     1
 90
        1
176
     1
 40
1.0
176
     1
 90
        0
176
     1
 62
     7
176
     1
 40
1.0
176
     1
 90
        1
176
     1
 90
        6
176
     1
 90
        2
176
     1
 62
     7
176
     1
 90
        5
176
     1
 90
        0
176
     1
 90
        0
176
     1
290
     0
176
     1
 90
       13
176
     1
 40
0.0
176
     1
 90
        0
176
     1
290
     0
176
     1
290
     1
176
     1
290
     1
176
     1
290
     0
176
     1
290
     0
176
     1
290
     0
176
     1
290
     0
176
     1
290
     0
176
     1
290
     0
176
     1
 90
       50
176
     1
 40
0.0
176
     1
 40
1.0
176
     1
 90
        0
176
     1
 62
    18
420
        0
176
     1
 90
       50
176
     1
 90
        3
176
     1
 62
     5
420
      255
176
     1
290
     0
176
     1
 90
       50
176
     1
 90
       50
176
     1
 90
       50
176
     1
290
     0
176
     1
 90
       50
176
     1
 62
   256
176
     0
 40
1.0
176
     0
 90
        2
176
     1
  1
strokes_ogs.tif
176
     1
290
     0
176
     1
 40
1.0
176
     1
 40
1.0
176
     1
1001
ACAD
1000
AcDbSavedByObjectVersion
1070
     0
  0
VISUALSTYLE
  5
8127
102
{ACAD_REACTORS
330
8123
102
}
330
8123
100
AcDbVisualStyle
  2
GouraudWithEdges
 70
     3
177
     3
291
     1
 70
    58
 90
        2
176
     1
 90
        2
176
     1
 90
        1
176
     1
 90
        2
176
     1
 40
0.6
176
     1
 40
30.0
176
     1
 62
     7
420
 16777215
176
     1
 90
        1
176
     1
 90
        0
176
     1
 62
     7
176
     1
 62
   257
176
     1
 90
        1
176
     1
 90
        1
176
     1
 40
1.0
176
     1
 90
        0
176
     1
 62
   257
176
     1
 40
1.0
176
     1
 90
        1
176
     1
 90
        6
176
     1
 90
        2
176
     1
 62
     7
176
     1
 90
        5
176
     1
 90
        0
176
     1
 90
        0
176
     1
290
     0
176
     1
 90
       13
176
     1
 40
0.0
176
     1
 90
        0
176
     1
290
     0
176
     1
290
     1
176
     1
290
     1
176
     1
290
     0
176
     1
290
     0
176
     1
290
     0
176
     1
290
     0
176
     1
290
     0
176
     1
290
     0
176
     1
 90
       50
176
     1
 40
0.0
176
     1
 40
1.0
176
     1
 90
        0
176
     1
 62
    18
420
        0
176
     1
 90
       50
176
     1
 90
        3
176
     1
 62
     5
420
      255
176
     1
290
     0
176
     1
 90
       50
176
     1
 90
       50
176
     1
 90
       50
176
     1
290
     0
176
     1
 90
       50
176
     1
 62
   256
176
     0
 40
1.0
176
     0
 90
        2
176
     1
  1
strokes_ogs.tif
176
     1
290
     0
176
     1
 40
1.0
176
     1
 40
1.0
176
     1
1001
ACAD
1000
AcDbSavedByObjectVersion
1070
     0
  0
VISUALSTYLE
  5
812B
102
{ACAD_REACTORS
330
8123
102
}
330
8123
100
AcDbVisualStyle
  2
Hidden
 70
     6
177
     3
291
     0
 70
    58
 90
        1
176
     1
 90
        2
176
     1
 90
        2
176
     1
 90
        0
176
     1
 40
0.6
176
     1
 40
30.0
176
     1
 62
     7
420
 16777215
176
     1
 90
        2
176
     1
 90
        2
176
     1
 62
     7
176
     1
 62
   257
176
     1
 90
        2
176
     1
 90
        1
176
     1
 40
40.0
176
     1
 90
        0
176
     1
 62
   257
176
     1
 40
1.0
176
     1
 90
        1
176
     1
 90
        6
176
     1
 90
        2
176
     1
 62
     7
176
     1
 90
        3
176
     1
 90
        0
176
     1
 90
        0
176
     1
290
     0
176
     1
 90
        1
176
     1
 40
0.0
176
     1
 90
        0
176
     1
290
     0
176
     1
290
     1
176
     1
290
     1
176
     1
290
     0
176
     1
290
     0
176
     1
290
     0
176
     1
290
     0
176
     1
290
     0
176
     1
290
     0
176
     1
 90
       50
176
     1
 40
0.0
176
     1
 40
1.0
176
     1
 90
        0
176
     1
 62
    18
420
        0
176
     1
 90
       50
176
     1
 90
        3
176
     1
 62
     5
420
      255
176
     1
290
     0
176
     1
 90
       50
176
     1
 90
       50
176
     1
 90
       50
176
     1
290
     0
176
     1
 90
       50
176
     1
 62
   256
176
     0
 40
1.0
176
     0
 90
        2
176
     1
  1
strokes_ogs.tif
176
     1
290
     0
176
     1
 40
1.0
176
     1
 40
1.0
176
     1
1001
ACAD
1000
AcDbSavedByObjectVersion
1070
     0
  0
VISUALSTYLE
  5
8139
102
{ACAD_REACTORS
330
8123
102
}
330
8123
100
AcDbVisualStyle
  2
JitterOff
 70
    20
177
     3
291
     1
 70
    58
 90
        2
176
     0
 90
        2
176
     0
 90
        0
176
     0
 90
        0
176
     0
 40
0.6
176
     0
 40
30.0
176
     0
 62
     7
420
 16777215
176
     0
 90
        1
176
     0
 90
        4
176
     0
 62
     7
176
     0
 62
   257
176
     0
 90
        1
176
     0
 90
        1
176
     0
 40
1.0
176
     0
 90
       10
176
     2
 62
     7
176
     0
 40
1.0
176
     0
 90
        1
176
     0
 90
        6
176
     0
 90
        2
176
     0
 62
     7
176
     0
 90
        5
176
     0
 90
        0
176
     0
 90
        0
176
     0
290
     0
176
     0
 90
        1
176
     0
 40
0.0
176
     0
 90
        0
176
     0
290
     0
176
     0
290
     1
176
     0
290
     1
176
     0
290
     0
176
     0
290
     0
176
     0
290
     0
176
     0
290
     0
176
     0
290
     0
176
     0
290
     0
176
     0
 90
       50
176
     0
 40
0.0
176
     0
 40
1.0
176
     0
 90
        0
176
     0
 62
    18
420
        0
176
     0
 90
       50
176
     0
 90
        3
176
     0
 62
     5
420
      255
176
     0
290
     0
176
     0
 90
       50
176
     0
 90
       50
176
     0
 90
       50
176
     0
290
     0
176
     0
 90
       50
176
     0
 62
   256
176
     0
 40
1.0
176
     0
 90
        2
176
     0
  1
strokes_ogs.tif
176
     0
290
     0
176
     0
 40
1.0
176
     0
 40
1.0
176
     0
1001
ACAD
1000
AcDbSavedByObjectVersion
1070
     0
  0
VISUALSTYLE
  5
8131
102
{ACAD_REACTORS
330
8123
102
}
330
8123
100
AcDbVisualStyle
  2
Linepattern
 70
    14
177
     3
291
     1
 70
    58
 90
        2
176
     1
 90
        2
176
     1
 90
        0
176
     1
 90
        0
176
     1
 40
0.6
176
     1
 40
30.0
176
     1
 62
     7
420
 16777215
176
     1
 90
        1
176
     1
 90
        4
176
     1
 62
     7
176
     1
 62
   257
176
     1
 90
        7
176
     1
 90
        7
176
     1
 40
1.0
176
     1
 90
        8
176
     1
 62
     7
176
     1
 40
1.0
176
     1
 90
        1
176
     1
 90
        6
176
     1
 90
        2
176
     1
 62
     7
176
     1
 90
        5
176
     1
 90
        0
176
     1
 90
        0
176
     1
290
     0
176
     1
 90
        1
176
     1
 40
0.0
176
     1
 90
        0
176
     1
290
     0
176
     1
290
     1
176
     1
290
     1
176
     1
290
     0
176
     1
290
     0
176
     1
290
     0
176
     1
290
     0
176
     1
290
     0
176
     1
290
     0
176
     1
 90
       50
176
     1
 40
0.0
176
     1
 40
1.0
176
     1
 90
        0
176
     1
 62
    18
420
        0
176
     1
 90
       50
176
     1
 90
        3
176
     1
 62
     5
420
      255
176
     1
290
     0
176
     1
 90
       50
176
     1
 90
       50
176
     1
 90
       50
176
     1
290
     0
176
     1
 90
       50
176
     1
 62
   256
176
     0
 40
1.0
176
     0
 90
        2
176
     1
  1
strokes_ogs.tif
176
     1
290
     0
176
     1
 40
1.0
176
     1
 40
1.0
176
     1
1001
ACAD
1000
AcDbSavedByObjectVersion
1070
     0
  0
VISUALSTYLE
  5
813A
102
{ACAD_REACTORS
330
8123
102
}
330
8123
100
AcDbVisualStyle
  2
OverhangOff
 70
    21
177
     3
291
     1
 70
    58
 90
        2
176
     0
 90
        2
176
     0
 90
        0
176
     0
 90
        0
176
     0
 40
0.6
176
     0
 40
30.0
176
     0
 62
     7
420
 16777215
176
     0
 90
        1
176
     0
 90
        4
176
     0
 62
     7
176
     0
 62
   257
176
     0
 90
        1
176
     0
 90
        1
176
     0
 40
1.0
176
     0
 90
        9
176
     2
 62
     7
176
     0
 40
1.0
176
     0
 90
        1
176
     0
 90
        6
176
     0
 90
        2
176
     0
 62
     7
176
     0
 90
        5
176
     0
 90
        0
176
     0
 90
        0
176
     0
290
     0
176
     0
 90
        1
176
     0
 40
0.0
176
     0
 90
        0
176
     0
290
     0
176
     0
290
     1
176
     0
290
     1
176
     0
290
     0
176
     0
290
     0
176
     0
290
     0
176
     0
290
     0
176
     0
290
     0
176
     0
290
     0
176
     0
 90
       50
176
     0
 40
0.0
176
     0
 40
1.0
176
     0
 90
        0
176
     0
 62
    18
420
        0
176
     0
 90
       50
176
     0
 90
        3
176
     0
 62
     5
420
      255
176
     0
290
     0
176
     0
 90
       50
176
     0
 90
       50
176
     0
 90
       50
176
     0
290
     0
176
     0
 90
       50
176
     0
 62
   256
176
     0
 40
1.0
176
     0
 90
        2
176
     0
  1
strokes_ogs.tif
176
     0
290
     0
176
     0
 40
1.0
176
     0
 40
1.0
176
     0
1001
ACAD
1000
AcDbSavedByObjectVersion
1070
     0
  0
VISUALSTYLE
  5
812D
102
{ACAD_REACTORS
330
8123
102
}
330
8123
100
AcDbVisualStyle
  2
Realistic
 70
     8
177
     3
291
     0
 70
    58
 90
        2
176
     1
 90
        3
176
     1
 90
        0
176
     1
 90
        2
176
     1
 40
0.6
176
     1
 40
30.0
176
     1
 62
     7
420
 16777215
176
     1
 90
        0
176
     1
 90
        0
176
     1
 62
     7
176
     1
 62
   257
176
     1
 90
        1
176
     1
 90
        1
176
     1
 40
1.0
176
     1
 90
        8
176
     1
 62
   257
176
     1
 40
1.0
176
     1
 90
        1
176
     1
 90
        6
176
     1
 90
        2
176
     1
 62
     7
176
     1
 90
        3
176
     1
 90
        0
176
     1
 90
        0
176
     1
290
     0
176
     1
 90
       13
176
     1
 40
0.0
176
     1
 90
        0
176
     1
290
     0
176
     1
290
     1
176
     1
290
     1
176
     1
290
     0
176
     1
290
     0
176
     1
290
     0
176
     1
290
     0
176
     1
290
     0
176
     1
290
     0
176
     1
 90
       50
176
     1
 40
0.0
176
     1
 40
1.0
176
     1
 90
        0
176
     1
 62
    18
420
        0
176
     1
 90
       50
176
     1
 90
        3
176
     1
 62
     5
420
      255
176
     1
290
     0
176
     1
 90
       50
176
     1
 90
       50
176
     1
 90
       50
176
     1
290
     0
176
     1
 90
       50
176
     1
 62
   256
176
     0
 40
1.0
176
     0
 90
        2
176
     1
  1
strokes_ogs.tif
176
     1
290
     0
176
     1
 40
1.0
176
     1
 40
1.0
176
     1
1001
ACAD
1000
AcDbSavedByObjectVersion
1070
     0
  0
VISUALSTYLE
  5
8138
102
{ACAD_REACTORS
330
8123
102
}
330
8123
100
AcDbVisualStyle
  2
Shaded
 70
    27
177
     3
291
     0
 70
    58
 90
        2
176
     1
 90
        2
176
     1
 90
        1
176
     1
 90
        2
176
     1
 40
0.6
176
     1
 40
30.0
176
     1
 62
     7
420
 16777215
176
     1
 90
        0
176
     1
 90
        4
176
     1
 62
     7
176
     1
 62
   257
176
     1
 90
        1
176
     1
 90
        1
176
     1
 40
1.0
176
     1
 90
        8
176
     1
 62
   257
176
     1
 40
1.0
176
     1
 90
        1
176
     1
 90
        6
176
     1
 90
        2
176
     1
 62
     8
420
  7895160
176
     1
 90
        3
176
     1
 90
        0
176
     1
 90
        0
176
     1
290
     0
176
     1
 90
        5
176
     1
 40
0.0
176
     1
 90
        0
176
     1
290
     0
176
     1
290
     1
176
     1
290
     1
176
     1
290
     0
176
     1
290
     0
176
     1
290
     0
176
     1
290
     0
176
     1
290
     0
176
     1
290
     0
176
     1
 90
       50
176
     1
 40
0.0
176
     1
 40
1.0
176
     1
 90
        0
176
     1
 62
    18
420
        0
176
     1
 90
       50
176
     1
 90
        3
176
     1
 62
     5
420
      255
176
     1
290
     0
176
     1
 90
       50
176
     1
 90
       50
176
     1
 90
       50
176
     1
290
     0
176
     1
 90
       50
176
     1
 62
   256
176
     0
 40
1.0
176
     0
 90
        2
176
     1
  1
strokes_ogs.tif
176
     1
290
     0
176
     1
 40
1.0
176
     1
 40
1.0
176
     1
1001
ACAD
1000
AcDbSavedByObjectVersion
1070
     0
  0
VISUALSTYLE
  5
8137
102
{ACAD_REACTORS
330
8123
102
}
330
8123
100
AcDbVisualStyle
  2
Shaded with edges
 70
    26
177
     3
291
     0
 70
    58
 90
        2
176
     1
 90
        2
176
     1
 90
        1
176
     1
 90
        2
176
     1
 40
0.6
176
     1
 40
30.0
176
     1
 62
     7
420
 16777215
176
     1
 90
        1
176
     1
 90
        2
176
     1
 62
     7
176
     1
 62
   257
176
     1
 90
        2
176
     1
 90
        1
176
     1
 40
1.0
176
     1
 90
        8
176
     1
 62
   257
176
     1
 40
1.0
176
     1
 90
        1
176
     1
 90
        6
176
     1
 90
        2
176
     1
 62
     7
176
     1
 90
        3
176
     1
 90
        0
176
     1
 90
        0
176
     1
290
     0
176
     1
 90
        5
176
     1
 40
0.0
176
     1
 90
        0
176
     1
290
     0
176
     1
290
     1
176
     1
290
     1
176
     1
290
     0
176
     1
290
     0
176
     1
290
     0
176
     1
290
     0
176
     1
290
     0
176
     1
290
     0
176
     1
 90
       50
176
     1
 40
0.0
176
     1
 40
1.0
176
     1
 90
        0
176
     1
 62
    18
420
        0
176
     1
 90
       50
176
     1
 90
        3
176
     1
 62
     5
420
      255
176
     1
290
     0
176
     1
 90
       50
176
     1
 90
       50
176
     1
 90
       50
176
     1
290
     0
176
     1
 90
       50
176
     1
 62
   256
176
     0
 40
1.0
176
     0
 90
        2
176
     1
  1
strokes_ogs.tif
176
     1
290
     0
176
     1
 40
1.0
176
     1
 40
1.0
176
     1
1001
ACAD
1000
AcDbSavedByObjectVersion
1070
     0
  0
VISUALSTYLE
  5
8134
102
{ACAD_REACTORS
330
8123
102
}
330
8123
100
AcDbVisualStyle
  2
Shades of Gray
 70
    23
177
     3
291
     0
 70
    58
 90
        2
176
     1
 90
        2
176
     1
 90
        3
176
     1
 90
        0
176
     1
 40
0.6
176
     1
 40
30.0
176
     1
 62
     7
420
 16777215
176
     1
 90
        2
176
     1
 90
        2
176
     1
 62
     7
176
     1
 62
     7
176
     1
 90
        1
176
     1
 90
        1
176
     1
 40
40.0
176
     1
 90
        8
176
     1
 62
     7
176
     1
 40
1.0
176
     1
 90
        1
176
     1
 90
        6
176
     1
 90
        2
176
     1
 62
     7
176
     1
 90
        3
176
     1
 90
        0
176
     1
 90
        0
176
     1
290
     0
176
     1
 90
        1
176
     1
 40
0.0
176
     1
 90
        0
176
     1
290
     0
176
     1
290
     1
176
     1
290
     1
176
     1
290
     0
176
     1
290
     0
176
     1
290
     0
176
     1
290
     0
176
     1
290
     0
176
     1
290
     0
176
     1
 90
       50
176
     1
 40
0.0
176
     1
 40
1.0
176
     1
 90
        0
176
     1
 62
    18
420
        0
176
     1
 90
       50
176
     1
 90
        3
176
     1
 62
     5
420
      255
176
     1
290
     0
176
     1
 90
       50
176
     1
 90
       50
176
     1
 90
       50
176
     1
290
     0
176
     1
 90
       50
176
     1
 62
   256
176
     0
 40
1.0
176
     0
 90
        2
176
     1
  1
strokes_ogs.tif
176
     1
290
     0
176
     1
 40
1.0
176
     1
 40
1.0
176
     1
1001
ACAD
1000
AcDbSavedByObjectVersion
1070
     0
  0
VISUALSTYLE
  5
8135
102
{ACAD_REACTORS
330
8123
102
}
330
8123
100
AcDbVisualStyle
  2
Sketchy
 70
    24
177
     3
291
     0
 70
    58
 90
        1
176
     1
 90
        2
176
     1
 90
        2
176
     1
 90
        0
176
     1
 40
0.6
176
     1
 40
30.0
176
     1
 62
     7
420
 16777215
176
     1
 90
        2
176
     1
 90
        2
176
     1
 62
     7
176
     1
 62
     7
176
     1
 90
        1
176
     1
 90
        1
176
     1
 40
40.0
176
     1
 90
       11
176
     1
 62
     7
176
     1
 40
1.0
176
     1
 90
        1
176
     1
 90
        6
176
     1
 90
        2
176
     1
 62
     7
176
     1
 90
        6
176
     1
 90
        0
176
     1
 90
        0
176
     1
290
     0
176
     1
 90
        1
176
     1
 40
0.0
176
     1
 90
        0
176
     1
290
     0
176
     1
290
     1
176
     1
290
     1
176
     1
290
     0
176
     1
290
     0
176
     1
290
     0
176
     1
290
     0
176
     1
290
     0
176
     1
290
     0
176
     1
 90
       50
176
     1
 40
0.0
176
     1
 40
1.0
176
     1
 90
        0
176
     1
 62
    18
420
        0
176
     1
 90
       50
176
     1
 90
        3
176
     1
 62
     5
420
      255
176
     1
290
     0
176
     1
 90
       50
176
     1
 90
       50
176
     1
 90
       50
176
     1
290
     0
176
     1
 90
       50
176
     1
 62
   256
176
     0
 40
1.0
176
     0
 90
        2
176
     1
  1
strokes_ogs.tif
176
     1
290
     0
176
     1
 40
1.0
176
     1
 40
1.0
176
     1
1001
ACAD
1000
AcDbSavedByObjectVersion
1070
     0
  0
VISUALSTYLE
  5
8130
102
{ACAD_REACTORS
330
8123
102
}
330
8123
100
AcDbVisualStyle
  2
Thicken
 70
    13
177
     3
291
     1
 70
    58
 90
        2
176
     1
 90
        2
176
     1
 90
        0
176
     1
 90
        0
176
     1
 40
0.6
176
     1
 40
30.0
176
     1
 62
     7
420
 16777215
176
     1
 90
        1
176
     1
 90
        4
176
     1
 62
     7
176
     1
 62
   257
176
     1
 90
        1
176
     1
 90
        1
176
     1
 40
1.0
176
     1
 90
       12
176
     1
 62
     7
176
     1
 40
1.0
176
     1
 90
        1
176
     1
 90
        6
176
     1
 90
        2
176
     1
 62
     7
176
     1
 90
        5
176
     1
 90
        0
176
     1
 90
        0
176
     1
290
     0
176
     1
 90
        1
176
     1
 40
0.0
176
     1
 90
        0
176
     1
290
     0
176
     1
290
     1
176
     1
290
     1
176
     1
290
     0
176
     1
290
     0
176
     1
290
     0
176
     1
290
     0
176
     1
290
     0
176
     1
290
     0
176
     1
 90
       50
176
     1
 40
0.0
176
     1
 40
1.0
176
     1
 90
        0
176
     1
 62
    18
420
        0
176
     1
 90
       50
176
     1
 90
        3
176
     1
 62
     5
420
      255
176
     1
290
     0
176
     1
 90
       50
176
     1
 90
       50
176
     1
 90
       50
176
     1
290
     0
176
     1
 90
       50
176
     1
 62
   256
176
     0
 40
1.0
176
     0
 90
        2
176
     1
  1
strokes_ogs.tif
176
     1
290
     0
176
     1
 40
1.0
176
     1
 40
1.0
176
     1
1001
ACAD
1000
AcDbSavedByObjectVersion
1070
     0
  0
VISUALSTYLE
  5
812A
102
{ACAD_REACTORS
330
8123
102
}
330
8123
100
AcDbVisualStyle
  2
Wireframe
 70
     5
177
     3
291
     0
 70
    58
 90
        0
176
     1
 90
        2
176
     1
 90
        0
176
     1
 90
        0
176
     1
 40
0.6
176
     1
 40
30.0
176
     1
 62
     7
420
 16777215
176
     1
 90
        1
176
     1
 90
        4
176
     1
 62
     7
176
     1
 62
   257
176
     1
 90
        1
176
     1
 90
        1
176
     1
 40
1.0
176
     1
 90
        0
176
     1
 62
   257
176
     1
 40
1.0
176
     1
 90
        1
176
     1
 90
        6
176
     1
 90
        2
176
     1
 62
     7
176
     1
 90
        3
176
     1
 90
        0
176
     1
 90
        0
176
     1
290
     0
176
     1
 90
        1
176
     1
 40
0.0
176
     1
 90
        0
176
     1
290
     0
176
     1
290
     1
176
     1
290
     1
176
     1
290
     0
176
     1
290
     0
176
     1
290
     0
176
     1
290
     0
176
     1
290
     0
176
     1
290
     0
176
     1
 90
       50
176
     1
 40
0.0
176
     1
 40
1.0
176
     1
 90
        0
176
     1
 62
    18
420
        0
176
     1
 90
       50
176
     1
 90
        3
176
     1
 62
     5
420
      255
176
     1
290
     0
176
     1
 90
       50
176
     1
 90
       50
176
     1
 90
       50
176
     1
290
     0
176
     1
 90
       50
176
     1
 62
   256
176
     0
 40
1.0
176
     0
 90
        2
176
     1
  1
strokes_ogs.tif
176
     1
290
     0
176
     1
 40
1.0
176
     1
 40
1.0
176
     1
1001
ACAD
1000
AcDbSavedByObjectVersion
1070
     0
  0
VISUALSTYLE
  5
8136
102
{ACAD_REACTORS
330
8123
102
}
330
8123
100
AcDbVisualStyle
  2
X-Ray
 70
    25
177
     3
291
     0
 70
    58
 90
        2
176
     1
 90
        2
176
     1
 90
        1
176
     1
 90
        1
176
     1
 40
0.5
176
     1
 40
30.0
176
     1
 62
     7
420
 16777215
176
     1
 90
        1
176
     1
 90
        0
176
     1
 62
     7
176
     1
 62
   257
176
     1
 90
        1
176
     1
 90
        1
176
     1
 40
1.0
176
     1
 90
        8
176
     1
 62
     7
176
     1
 40
1.0
176
     1
 90
        1
176
     1
 90
        6
176
     1
 90
        2
176
     1
 62
     7
176
     1
 90
        3
176
     1
 90
        0
176
     1
 90
        0
176
     1
290
     0
176
     1
 90
       13
176
     1
 40
0.0
176
     1
 90
        0
176
     1
290
     0
176
     1
290
     1
176
     1
290
     1
176
     1
290
     0
176
     1
290
     0
176
     1
290
     0
176
     1
290
     0
176
     1
290
     0
176
     1
290
     0
176
     1
 90
       50
176
     1
 40
0.0
176
     1
 40
1.0
176
     1
 90
        0
176
     1
 62
    18
420
        0
176
     1
 90
       50
176
     1
 90
        3
176
     1
 62
     5
420
      255
176
     1
290
     0
176
     1
 90
       50
176
     1
 90
       50
176
     1
 90
       50
176
     1
290
     0
176
     1
 90
       50
176
     1
 62
   256
176
     0
 40
1.0
176
     0
 90
        2
176
     1
  1
strokes_ogs.tif
176
     1
290
     0
176
     1
 40
1.0
176
     1
 40
1.0
176
     1
1001
ACAD
1000
AcDbSavedByObjectVersion
1070
     0
  0
DICTIONARYVAR
  5
829C
102
{ACAD_REACTORS
330
8296
102
}
330
8296
100
DictionaryVariables
280
     0
  1
1:1
  0
DICTIONARYVAR
  5
8298
102
{ACAD_REACTORS
330
8296
102
}
330
8296
100
DictionaryVariables
280
     0
  1
STANDARD
  0
DICTIONARYVAR
  5
8297
102
{ACAD_REACTORS
330
8296
102
}
330
8296
100
DictionaryVariables
280
     0
  1
STANDARD
  0
DICTIONARYVAR
  5
8299
102
{ACAD_REACTORS
330
8296
102
}
330
8296
100
DictionaryVariables
280
     0
  1
Metric50
  0
DICTIONARYVAR
  5
829A
102
{ACAD_REACTORS
330
8296
102
}
330
8296
100
DictionaryVariables
280
     0
  1
Metric50
  0
DICTIONARYVAR
  5
829E
102
{ACAD_REACTORS
330
8296
102
}
330
8296
100
DictionaryVariables
280
     0
  1
1
  0
DICTIONARYVAR
  5
829F
102
{ACAD_REACTORS
330
8296
102
}
330
8296
100
DictionaryVariables
280
     0
  1
15
  0
DICTIONARYVAR
  5
829D
102
{ACAD_REACTORS
330
8296
102
}
330
8296
100
DictionaryVariables
280
     0
  1
0
  0
DICTIONARYVAR
  5
82A4
102
{ACAD_REACTORS
330
8296
102
}
330
8296
100
DictionaryVariables
280
     0
  1
0
  0
DICTIONARYVAR
  5
829B
102
{ACAD_REACTORS
330
8296
102
}
330
8296
100
DictionaryVariables
280
     0
  1
0
  0
DICTIONARY
  5
82AF
102
{ACAD_REACTORS
330
82AD
102
}
330
82AD
100
AcDbDictionary
281
     1
  0
DICTIONARY
  5
82AE
102
{ACAD_REACTORS
330
82AD
102
}
330
82AD
100
AcDbDictionary
281
     1
  3
2042639588992
350
82A8
  3
2042639589008
350
82A9
  3
2042639589024
350
82AA
  3
2042639589040
350
82AB
  3
2042639589056
350
82AC
  0
DICTIONARY
  5
82B2
330
8156
100
AcDbDictionary
280
     1
281
     1
  3
ACAD_XREC_ROUNDTRIP
360
82B3
  0
DICTIONARY
  5
8114
330
8113
100
AcDbDictionary
280
     1
281
     1
  3
BUMPTILE
360
8116
  3
DIFFUSETILE
360
8115
  3
OPACITYTILE
360
8119
  3
REFLECTIONTILE
360
8118
  3
REFRACTIONTILE
360
811A
  3
SPECULARTILE
360
8117
  0
DICTIONARY
  5
810C
330
810B
100
AcDbDictionary
280
     1
281
     1
  3
BUMPTILE
360
810E
  3
DIFFUSETILE
360
810D
  3
OPACITYTILE
360
8111
  3
REFLECTIONTILE
360
8110
  3
REFRACTIONTILE
360
8112
  3
SPECULARTILE
360
810F
  0
DICTIONARY
  5
811C
330
811B
100
AcDbDictionary
280
     1
281
     1
  3
BUMPTILE
360
811E
  3
DIFFUSETILE
360
811D
  3
OPACITYTILE
360
8121
  3
REFLECTIONTILE
360
8120
  3
REFRACTIONTILE
360
8122
  3
SPECULARTILE
360
811F
  0
DICTIONARY
  5
82B0
330
8154
100
AcDbDictionary
280
     1
281
     1
  3
ACAD_XREC_ROUNDTRIP
360
82B1
  0
DICTIONARY
  5
82A5
330
813E
100
AcDbDictionary
280
     1
281
     1
  3
ACAD_ROUNDTRIP_2008_TABLESTYLE_CELLSTYLEMAP
360
82A6
  0
XRECORD
  5
82A8
102
{ACAD_REACTORS
330
82AE
102
}
330
82AE
100
AcDbXrecord
280
     1
  1
AcDb_Thumbnail_Schema
102
{ATTRRECORD
341
82A9
  2
AcDbDs::TreatedAsObjectData
280
     1
291
     1
102
ATTRRECORD}
102
{ATTRRECORD
341
82AA
  2
AcDbDs::Legacy
280
     1
291
     1
102
ATTRRECORD}
  2
AcDbDs::ID
280
    10
 91
        8
102
{ATTRRECORD
341
82AB
  2
AcDs:Indexable
280
     1
291
     1
102
ATTRRECORD}
102
{ATTRRECORD
341
82AC
  2
AcDbDs::HandleAttribute
280
     7
282
     1
102
ATTRRECORD}
  2
Thumbnail_Data
280
    15
 91
        0
  0
XRECORD
  5
82A9
102
{ACAD_REACTORS
330
82AE
102
}
330
82AE
100
AcDbXrecord
280
     1
  1
AcDbDs::TreatedAsObjectDataSchema
  2
AcDbDs::TreatedAsObjectData
280
     1
 91
        0
  0
XRECORD
  5
82AA
102
{ACAD_REACTORS
330
82AE
102
}
330
82AE
100
AcDbXrecord
280
     1
  1
AcDbDs::LegacySchema
  2
AcDbDs::Legacy
280
     1
 91
        0
  0
XRECORD
  5
82AB
102
{ACAD_REACTORS
330
82AE
102
}
330
82AE
100
AcDbXrecord
280
     1
  1
AcDbDs::IndexedPropertySchema
  2
AcDs:Indexable
280
     1
 91
        0
  0
XRECORD
  5
82AC
102
{ACAD_REACTORS
330
82AE
102
}
330
82AE
100
AcDbXrecord
280
     1
  1
AcDbDs::HandleAttributeSchema
  2
AcDbDs::HandleAttribute
280
     7
 91
        1
284
     1
  0
XRECORD
  5
82B3
102
{ACAD_REACTORS
330
82B2
102
}
330
82B2
100
AcDbXrecord
280
     1
102
DISPLAYNAME
  1
Metric50
102
FLAGS
 90
        0
  0
XRECORD
  5
8116
102
{ACAD_REACTORS
330
8114
102
}
330
8114
100
AcDbXrecord
280
     1
270
     1
271
     1
  0
XRECORD
  5
8115
102
{ACAD_REACTORS
330
8114
102
}
330
8114
100
AcDbXrecord
280
     1
270
     1
271
     1
  0
XRECORD
  5
8119
102
{ACAD_REACTORS
330
8114
102
}
330
8114
100
AcDbXrecord
280
     1
270
     1
271
     1
  0
XRECORD
  5
8118
102
{ACAD_REACTORS
330
8114
102
}
330
8114
100
AcDbXrecord
280
     1
270
     1
271
     1
  0
XRECORD
  5
811A
102
{ACAD_REACTORS
330
8114
102
}
330
8114
100
AcDbXrecord
280
     1
270
     1
271
     1
  0
XRECORD
  5
8117
102
{ACAD_REACTORS
330
8114
102
}
330
8114
100
AcDbXrecord
280
     1
270
     1
271
     1
  0
XRECORD
  5
810E
102
{ACAD_REACTORS
330
810C
102
}
330
810C
100
AcDbXrecord
280
     1
270
     1
271
     1
  0
XRECORD
  5
810D
102
{ACAD_REACTORS
330
810C
102
}
330
810C
100
AcDbXrecord
280
     1
270
     1
271
     1
  0
XRECORD
  5
8111
102
{ACAD_REACTORS
330
810C
102
}
330
810C
100
AcDbXrecord
280
     1
270
     1
271
     1
  0
XRECORD
  5
8110
102
{ACAD_REACTORS
330
810C
102
}
330
810C
100
AcDbXrecord
280
     1
270
     1
271
     1
  0
XRECORD
  5
8112
102
{ACAD_REACTORS
330
810C
102
}
330
810C
100
AcDbXrecord
280
     1
270
     1
271
     1
  0
XRECORD
  5
810F
102
{ACAD_REACTORS
330
810C
102
}
330
810C
100
AcDbXrecord
280
     1
270
     1
271
     1
  0
XRECORD
  5
811E
102
{ACAD_REACTORS
330
811C
102
}
330
811C
100
AcDbXrecord
280
     1
270
     1
271
     1
  0
XRECORD
  5
811D
102
{ACAD_REACTORS
330
811C
102
}
330
811C
100
AcDbXrecord
280
     1
270
     1
271
     1
  0
XRECORD
  5
8121
102
{ACAD_REACTORS
330
811C
102
}
330
811C
100
AcDbXrecord
280
     1
270
     1
271
     1
  0
XRECORD
  5
8120
102
{ACAD_REACTORS
330
811C
102
}
330
811C
100
AcDbXrecord
280
     1
270
     1
271
     1
  0
XRECORD
  5
8122
102
{ACAD_REACTORS
330
811C
102
}
330
811C
100
AcDbXrecord
280
     1
270
     1
271
     1
  0
XRECORD
  5
811F
102
{ACAD_REACTORS
330
811C
102
}
330
811C
100
AcDbXrecord
280
     1
270
     1
271
     1
  0
XRECORD
  5
82B1
102
{ACAD_REACTORS
330
82B0
102
}
330
82B0
100
AcDbXrecord
280
     1
102
DISPLAYNAME
  1
Metric50
102
FLAGS
 90
        0
  0
CELLSTYLEMAP
  5
82A6
102
{ACAD_REACTORS
330
82A5
102
}
330
82A5
100
AcDbCellStyleMap
 90
        3
300
CELLSTYLE
  1
TABLEFORMAT_BEGIN
 90
        5
170
     1
 91
        0
 92
    32768
 62
   257
 93
        1
300
CONTENTFORMAT
  1
CONTENTFORMAT_BEGIN
 90
        0
 91
        0
 92
      512
 93
        0
300

 40
0.0
140
1.0
 94
        5
 62
     0
340
10
144
6.0
309
CONTENTFORMAT_END
171
     1
301
MARGIN
  1
CELLMARGIN_BEGIN
 40
1.5
 40
1.5
 40
1.5
 40
1.5
 40
4.5
 40
4.5
309
CELLMARGIN_END
 94
        6
 95
        1
302
GRIDFORMAT
  1
GRIDFORMAT_BEGIN
 90
        0
 91
        1
 62
     0
 92
       -2
340
0
 93
        0
 40
1.125
309
GRIDFORMAT_END
 95
        2
302
GRIDFORMAT
  1
GRIDFORMAT_BEGIN
 90
        0
 91
        1
 62
     0
 92
       -2
340
0
 93
        0
 40
1.125
309
GRIDFORMAT_END
 95
        4
302
GRIDFORMAT
  1
GRIDFORMAT_BEGIN
 90
        0
 91
        1
 62
     0
 92
       -2
340
0
 93
        0
 40
1.125
309
GRIDFORMAT_END
 95
        8
302
GRIDFORMAT
  1
GRIDFORMAT_BEGIN
 90
        0
 91
        1
 62
     0
 92
       -2
340
0
 93
        0
 40
1.125
309
GRIDFORMAT_END
 95
       16
302
GRIDFORMAT
  1
GRIDFORMAT_BEGIN
 90
        0
 91
        1
 62
     0
 92
       -2
340
0
 93
        0
 40
1.125
309
GRIDFORMAT_END
 95
       32
302
GRIDFORMAT
  1
GRIDFORMAT_BEGIN
 90
        0
 91
        1
 62
     0
 92
       -2
340
0
 93
        0
 40
1.125
309
GRIDFORMAT_END
309
TABLEFORMAT_END
  1
CELLSTYLE_BEGIN
 90
        1
 91
        1
300
_TITLE
309
CELLSTYLE_END
300
CELLSTYLE
  1
TABLEFORMAT_BEGIN
 90
        5
170
     1
 91
        0
 92
        0
 62
   257
 93
        1
300
CONTENTFORMAT
  1
CONTENTFORMAT_BEGIN
 90
        0
 91
        0
 92
      512
 93
        0
300

 40
0.0
140
1.0
 94
        5
 62
     0
340
10
144
4.5
309
CONTENTFORMAT_END
171
     1
301
MARGIN
  1
CELLMARGIN_BEGIN
 40
1.5
 40
1.5
 40
1.5
 40
1.5
 40
4.5
 40
4.5
309
CELLMARGIN_END
 94
        6
 95
        1
302
GRIDFORMAT
  1
GRIDFORMAT_BEGIN
 90
        0
 91
        1
 62
     0
 92
       -2
340
0
 93
        0
 40
1.125
309
GRIDFORMAT_END
 95
        2
302
GRIDFORMAT
  1
GRIDFORMAT_BEGIN
 90
        0
 91
        1
 62
     0
 92
       -2
340
0
 93
        0
 40
1.125
309
GRIDFORMAT_END
 95
        4
302
GRIDFORMAT
  1
GRIDFORMAT_BEGIN
 90
        0
 91
        1
 62
     0
 92
       -2
340
0
 93
        0
 40
1.125
309
GRIDFORMAT_END
 95
        8
302
GRIDFORMAT
  1
GRIDFORMAT_BEGIN
 90
        0
 91
        1
 62
     0
 92
       -2
340
0
 93
        0
 40
1.125
309
GRIDFORMAT_END
 95
       16
302
GRIDFORMAT
  1
GRIDFORMAT_BEGIN
 90
        0
 91
        1
 62
     0
 92
       -2
340
0
 93
        0
 40
1.125
309
GRIDFORMAT_END
 95
       32
302
GRIDFORMAT
  1
GRIDFORMAT_BEGIN
 90
        0
 91
        1
 62
     0
 92
       -2
340
0
 93
        0
 40
1.125
309
GRIDFORMAT_END
309
TABLEFORMAT_END
  1
CELLSTYLE_BEGIN
 90
        2
 91
        1
300
_HEADER
309
CELLSTYLE_END
300
CELLSTYLE
  1
TABLEFORMAT_BEGIN
 90
        5
170
     1
 91
        0
 92
        0
 62
   257
 93
        1
300
CONTENTFORMAT
  1
CONTENTFORMAT_BEGIN
 90
        0
 91
        0
 92
      512
 93
        0
300

 40
0.0
140
1.0
 94
        2
 62
     0
340
10
144
4.5
309
CONTENTFORMAT_END
171
     1
301
MARGIN
  1
CELLMARGIN_BEGIN
 40
1.5
 40
1.5
 40
1.5
 40
1.5
 40
4.5
 40
4.5
309
CELLMARGIN_END
 94
        6
 95
        1
302
GRIDFORMAT
  1
GRIDFORMAT_BEGIN
 90
        0
 91
        1
 62
     0
 92
       -2
340
0
 93
        0
 40
1.125
309
GRIDFORMAT_END
 95
        2
302
GRIDFORMAT
  1
GRIDFORMAT_BEGIN
 90
        0
 91
        1
 62
     0
 92
       -2
340
0
 93
        0
 40
1.125
309
GRIDFORMAT_END
 95
        4
302
GRIDFORMAT
  1
GRIDFORMAT_BEGIN
 90
        0
 91
        1
 62
     0
 92
       -2
340
0
 93
        0
 40
1.125
309
GRIDFORMAT_END
 95
        8
302
GRIDFORMAT
  1
GRIDFORMAT_BEGIN
 90
        0
 91
        1
 62
     0
 92
       -2
340
0
 93
        0
 40
1.125
309
GRIDFORMAT_END
 95
       16
302
GRIDFORMAT
  1
GRIDFORMAT_BEGIN
 90
        0
 91
        1
 62
     0
 92
       -2
340
0
 93
        0
 40
1.125
309
GRIDFORMAT_END
 95
       32
302
GRIDFORMAT
  1
GRIDFORMAT_BEGIN
 90
        0
 91
        1
 62
     0
 92
       -2
340
0
 93
        0
 40
1.125
309
GRIDFORMAT_END
309
TABLEFORMAT_END
  1
CELLSTYLE_BEGIN
 90
        3
 91
        2
300
_DATA
309
CELLSTYLE_END
  0
ENDSEC
  0
SECTION
  2
ACDSDATA
 70
     2
 71
     8
  0
ACDSSCHEMA
 90
        0
  1
AcDb_Thumbnail_Schema
  2
AcDbDs::ID
280
    10
 91
        8
  2
Thumbnail_Data
280
    15
 91
        0
101
ACDSRECORD
 95
        0
 90
        1
  2
AcDbDs::TreatedAsObjectData
280
     1
291
     1
101
ACDSRECORD
 95
        0
 90
        2
  2
AcDbDs::Legacy
280
     1
291
     1
101
ACDSRECORD
  1
AcDbDs::ID
 90
        3
  2
AcDs:Indexable
280
     1
291
     1
101
ACDSRECORD
  1
AcDbDs::ID
 90
        4
  2
AcDbDs::HandleAttribute
280
     7
282
     1
  0
ACDSSCHEMA
 90
        1
  1
AcDbDs::TreatedAsObjectDataSchema
  2
AcDbDs::TreatedAsObjectData
280
     1
 91
        0
  0
ACDSSCHEMA
 90
        2
  1
AcDbDs::LegacySchema
  2
AcDbDs::Legacy
280
     1
 91
        0
  0
ACDSSCHEMA
 90
        3
  1
AcDbDs::IndexedPropertySchema
  2
AcDs:Indexable
280
     1
 91
        0
  0
ACDSSCHEMA
 90
        4
  1
AcDbDs::HandleAttributeSchema
  2
AcDbDs::HandleAttribute
280
     7
 91
        1
284
     1
  0
ACDSRECORD
 90
        0
  2
AcDbDs::ID
280
    10
320
80CB
  2
Thumbnail_Data
280
    15
 94
     1710
310
89504E470D0A1A0A0000000D49484452000001000000007C0803000000B13B9E5A00000300504C5445000000000000C8C8C80000000000000000000000000000000000000000000000000000330000660000990000CC0000FF0033000033330033660033990033CC0033FF0066000066330066660066990066CC0066FF0099
310
000099330099660099990099CC0099FF00CC0000CC3300CC6600CC9900CCCC00CCFF00FF0000FF3300FF6600FF9900FFCC00FFFF3300003300333300663300993300CC3300FF3333003333333333663333993333CC3333FF3366003366333366663366993366CC3366FF3399003399333399663399993399CC3399FF33CC00
310
33CC3333CC6633CC9933CCCC33CCFF33FF0033FF3333FF6633FF9933FFCC33FFFF6600006600336600666600996600CC6600FF6633006633336633666633996633CC6633FF6666006666336666666666996666CC6666FF6699006699336699666699996699CC6699FF66CC0066CC3366CC6666CC9966CCCC66CCFF66FF0066
310
FF3366FF6666FF9966FFCC66FFFF9900009900339900669900999900CC9900FF9933009933339933669933999933CC9933FF9966009966339966669966999966CC9966FF9999009999339999669999999999CC9999FF99CC0099CC3399CC6699CC9999CCCC99CCFF99FF0099FF3399FF6699FF9999FFCC99FFFFCC0000CC00
310
33CC0066CC0099CC00CCCC00FFCC3300CC3333CC3366CC3399CC33CCCC33FFCC6600CC6633CC6666CC6699CC66CCCC66FFCC9900CC9933CC9966CC9999CC99CCCC99FFCCCC00CCCC33CCCC66CCCC99CCCCCCCCCCFFCCFF00CCFF33CCFF66CCFF99CCFFCCCCFFFFFF0000FF0033FF0066FF0099FF00CCFF00FFFF3300FF3333
310
FF3366FF3399FF33CCFF33FFFF6600FF6633FF6666FF6699FF66CCFF66FFFF9900FF9933FF9966FF9999FF99CCFF99FFFFCC00FFCC33FFCC66FFCC99FFCCCCFFCCFFFFFF00FFFF33FFFF66FFFF99FFFFCCFFFFFF0000000D0D0D1A1A1A2828283535354343435050505D5D5D6B6B6B787878868686939393A1A1A1AEAEAEBB
310
BBBBC9C9C9D6D6D6E4E4E4F1F1F1FFFFFF00000000000000000000000000000000000000000000000000000000000008F1915C000003684944415478DAED9D5992E3200C86751C5E74FFCBE81ABC8FDB2C1218E374D564C65AA8AE6E07A753E1E3D7C21202F08592BF54404BC9AA5E3600048000100002C07BDEE926F87901
310
30FD7B76A900F700B267009315E806F05747002A01BCECC502C07F0050752C249D876B68222FCF65CBA995160040693470B3A13E6C3E2FE79A01E47609858C011F70E9F5C1BFE5D6CE5101E286151368495E9636B16F5B0E27187980C3C1D0A349E803B0EA52D1B9935C4AE05B4E025B0420D200E0100993FBB70780418827
310
8BE64F31C29D0FC8DF722D7A9C6000B009808E72F7C83800DA151700360F3D014801C01F80D3CA917028AE14F0D33E5C145F0060340151150002400008003E01704CFC34215609A0B46CAB00FC54066A01A484E952B013B10F60A38000601E006C0088A498EC02D884413C2B024000F00060391C1600C03C8096FEC93B8E00
310
80630025D1C74DB13D16787004E3E4980F00308D08C11B00BF0A18F300AEA000E00700C7859B7B7601C4EAF07D7101E0CD2F1B00DEF34EA5475878072B00EE1D9FF489B600D06314F82444680620F6845D7AB6029035C83AB005803A009A01C888C8B080CC9AC01AC0E559761430E53C5B0588CD544600A057004DC96DD89F
310
1E005CA70AB42BE0A70B0F4B3E5B3F4C7FDC009814600300509F0D4E85836F00A59D8E00105D008C0DB30D809600005D02104ED02500390BFE21803169D40AA03A41C416057E170649B1026A327F02387FCA4AD0320C0E8B4406016055C1E2130375F9B8EE189801907E00A70F38BB1753D541ED717401A08E0552C273BBE4
310
797128007B5658009CB5F3864A4CCA0134132E2EE068256075835509A98D77500E845801A81B8018CF3613800EA067060CA00B9F4D00B503A00EA0F731B44870FC4EB007300C88D503A8BF59E858CC3C351FD0F75127319162040034DBE6747098F3B833014300BA9F9B677EFA36B2AB1334900A7307CAAE1F6A689E0C8341
310
01062644B87D699EF34B22297CDC3FA47852B46D14A41D007193969FB135B04162B9267A5D34E04B4300C6759E61215CFCADD5B45841B3BF47E871FF50988062006F7ED9001000024000080001200004807FF34EDD9F2AFBFB96B90090F37CF63A9F3B6B0D002CBE3A4D9CB8DE4E5AB70BC0BD0F582B00326479A0F0B2D996
310
7D0003E0E3F6CD0358548AE3F7B30305C4E9F2910A07800010000240000800060128FAEAED3FC1460EF5EDBAE4E80000000049454E44AE42608282
  0
ENDSEC
  0
EOF
