  0
SECTION
  2
HEADER
  9
$ACADVER
  1
AC1009
  9
$INSBASE
 10
0.0
 20
0.0
 30
0.0
  9
$EXTMIN
 10
0.0
 20
0.0
 30
0.0
  9
$EXTMAX
 10
6300.0
 20
8850.0
 30
0.0
  9
$LIMMIN
 10
0.0
 20
0.0
  9
$LIMMAX
 10
297.0
 20
210.0
  9
$ORTHOMODE
 70
     0
  9
$REGENMODE
 70
     1
  9
$FILLMODE
 70
     0
  9
$QTEXTMODE
 70
     0
  9
$MIRRTEXT
 70
     1
  9
$DRAGMODE
 70
     2
  9
$LTSCALE
 40
100.0
  9
$OSMODE
 70
    37
  9
$ATTMODE
 70
     1
  9
$TEXTSIZE
 40
180.0
  9
$TRACEWID
 40
0.05
  9
$TEXTSTYLE
  7
STANDARD
  9
$CLAYER
  8
3
  9
$CELTYPE
  6
BYLAYER
  9
$CECOLOR
 62
   256
  9
$DIMSCALE
 40
30.0
  9
$DIMASZ
 40
2.0
  9
$DIMEXO
 40
0.5
  9
$DIMDLI
 40
10.0
  9
$DIMRND
 40
0.0
  9
$DIMDLE
 40
0.0
  9
$DIMEXE
 40
1.0
  9
$DIMTP
 40
1.0
  9
$DIMTM
 40
1.0
  9
$DIMTXT
 40
3.0
  9
$DIMCEN
 40
0.0
  9
$DIMTSZ
 40
0.0
  9
$DIMTOL
 70
     0
  9
$DIMLIM
 70
     0
  9
$DIMTIH
 70
     0
  9
$DIMTOH
 70
     0
  9
$DIMSE1
 70
     0
  9
$DIMSE2
 70
     0
  9
$DIMTAD
 70
     1
  9
$DIMZIN
 70
     8
  9
$DIMBLK
  1

  9
$DIMASO
 70
     1
  9
$DIMSHO
 70
     1
  9
$DIMPOST
  1

  9
$DIMAPOST
  1

  9
$DIMALT
 70
     0
  9
$DIMALTD
 70
     2
  9
$DIMALTF
 40
0.039
  9
$DIMLFAC
 40
1.0
  9
$DIMTOFL
 70
     1
  9
$DIMTVP
 40
0.0
  9
$DIMTIX
 70
     0
  9
$DIMSOXD
 70
     0
  9
$DIMSAH
 70
     1
  9
$DIMBLK1
  1
OPEN
  9
$DIMBLK2
  1
OPEN
  9
$DIMSTYLE
  2
IGA
  9
$DIMCLRD
 70
     0
  9
$DIMCLRE
 70
     0
  9
$DIMCLRT
 70
     0
  9
$DIMTFAC
 40
10.0
  9
$DIMGAP
 40
1.0
  9
$LUNITS
 70
     2
  9
$LUPREC
 70
     3
  9
$SKETCHINC
 40
0.1
  9
$FILLETRAD
 40
50.0
  9
$AUNITS
 70
     0
  9
$AUPREC
 70
     0
  9
$MENU
  1
acad
  9
$ELEVATION
 40
0.0
  9
$PELEVATION
 40
0.0
  9
$THICKNESS
 40
0.0
  9
$LIMCHECK
 70
     0
  9
$BLIPMODE
 70
     0
  9
$CHAMFERA
 40
0.5
  9
$CHAMFERB
 40
0.5
  9
$SKPOLY
 70
     0
  9
$TDCREATE
 40
2452717.6036704858
  9
$TDUPDATE
 40
2454953.6430924418
  9
$TDINDWG
 40
0.0779234606
  9
$TDUSRTIMER
 40
0.0779234606
  9
$USRTIMER
 70
     1
  9
$ANGBASE
 50
0.0
  9
$ANGDIR
 70
     0
  9
$PDMODE
 70
     0
  9
$PDSIZE
 40
0.0
  9
$PLINEWID
 40
0.0
  9
$COORDS
 70
     1
  9
$SPLFRAME
 70
     0
  9
$SPLINETYPE
 70
     6
  9
$SPLINESEGS
 70
     8
  9
$ATTDIA
 70
     0
  9
$ATTREQ
 70
     1
  9
$HANDLING
 70
 10241
  9
$HANDSEED
  5
836B
  9
$SURFTAB1
 70
     6
  9
$SURFTAB2
 70
     6
  9
$SURFTYPE
 70
     6
  9
$SURFU
 70
     6
  9
$SURFV
 70
     6
  9
$UCSNAME
  2

  9
$UCSORG
 10
0.0
 20
0.0
 30
0.0
  9
$UCSXDIR
 10
1.0
 20
0.0
 30
0.0
  9
$UCSYDIR
 10
0.0
 20
1.0
 30
0.0
  9
$PUCSNAME
  2

  9
$PUCSORG
 10
0.0
 20
0.0
 30
0.0
  9
$PUCSXDIR
 10
1.0
 20
0.0
 30
0.0
  9
$PUCSYDIR
 10
0.0
 20
1.0
 30
0.0
  9
$USERI1
 70
     0
  9
$USERI2
 70
     0
  9
$USERI3
 70
     0
  9
$USERI4
 70
     0
  9
$USERI5
 70
     0
  9
$USERR1
 40
0.0
  9
$USERR2
 40
0.0
  9
$USERR3
 40
0.0
  9
$USERR4
 40
0.0
  9
$USERR5
 40
0.0
  9
$WORLDVIEW
 70
     1
  9
$SHADEDGE
 70
     3
  9
$SHADEDIF
 70
    70
  9
$TILEMODE
 70
     1
  9
$MAXACTVP
 70
    16
  9
$PLIMCHECK
 70
     0
  9
$PEXTMIN
 10
1.0000000000000000E+020
 20
1.0000000000000000E+020
 30
1.0000000000000000E+020
  9
$PEXTMAX
 10
-1.0000000000000000E+020
 20
-1.0000000000000000E+020
 30
-1.0000000000000000E+020
  9
$PLIMMIN
 10
0.0
 20
0.0
  9
$PLIMMAX
 10
12.0
 20
9.0
  9
$UNITMODE
 70
     0
  9
$VISRETAIN
 70
     0
  9
$PLINEGEN
 70
     0
  9
$PSLTSCALE
 70
     1
  0
ENDSEC
  0
SECTION
  2
TABLES
  0
TABLE
  2
VPORT
 70
     2
  0
VPORT
  2
*ACTIVE
 70
     0
 10
0.0
 20
0.0
 11
1.0
 21
1.0
 12
6266.741045920252
 22
1071.825800499669
 13
0.0
 23
0.0
 14
10.0
 24
10.0
 15
10.0
 25
10.0
 16
0.0
 26
0.0
 36
1.0
 17
0.0
 27
0.0
 37
0.0
 40
2824.6699298202311
 41
3.1666666666666661
 42
50.0
 43
0.0
 44
0.0
 50
0.0
 51
0.0
 71
     0
 72
   100
 73
     1
 74
     0
 75
     0
 76
     0
 77
     0
 78
     0
  0
ENDTAB
  0
TABLE
  2
LTYPE
 70
     2
  0
LTYPE
  2
CONTINUOUS
 70
     0
  3
Solid line
 72
    65
 73
     0
 40
0.0
  0
LTYPE
  2
CENTER
 70
     0
  3
____ _ ____ _ ____ _ ____ _ ____ _ ____ _ ____ 
 72
    65
 73
     4
 40
2.0
 49
1.25
 49
-0.25
 49
0.25
 49
-0.25
  0
ENDTAB
  0
TABLE
  2
LAYER
 70
     6
  0
LAYER
  2
0
 70
     0
 62
     7
  6
CONTINUOUS
  0
LAYER
  2
3
 70
     0
 62
     2
  6
CONTINUOUS
  0
LAYER
  2
2
 70
     0
 62
     3
  6
CENTER
  0
LAYER
  2
1
 70
     0
 62
     4
  6
CONTINUOUS
  0
LAYER
  2
4
 70
     0
 62
     7
  6
CONTINUOUS
  0
LAYER
  2
DEFPOINTS
 70
     0
 62
     7
  6
CONTINUOUS
  0
ENDTAB
  0
TABLE
  2
STYLE
 70
     1
  0
STYLE
  2
STANDARD
 70
     0
 40
0.0
 41
1.0
 50
0.0
 71
     0
 42
180.0
  3
simplex.shx
  4
extfont.shx
  0
ENDTAB
  0
TABLE
  2
VIEW
 70
     0
  0
ENDTAB
  0
TABLE
  2
UCS
 70
     0
  0
ENDTAB
  0
TABLE
  2
APPID
 70
     1
  0
APPID
  2
ACAD
 70
     0
  0
ENDTAB
  0
TABLE
  2
DIMSTYLE
 70
     1
  0
DIMSTYLE
  2
IGA
 70
     0
  3

  4

  5

  6
OPEN
  7
OPEN
 40
2.0
 41
2.0
 42
0.5
 43
10.0
 44
1.0
 45
0.0
 46
0.0
 47
1.0
 48
1.0
140
3.0
141
0.0
142
0.0
143
0.03937
144
1.0
145
0.0
146
10.0
147
1.0
 71
     0
 72
     0
 73
     0
 74
     0
 75
     0
 76
     0
 77
     1
 78
     8
170
     0
171
     2
172
     0
173
     1
174
     0
175
     0
176
     0
177
     0
178
     0
  0
ENDTAB
  0
ENDSEC
  0
SECTION
  2
BLOCKS
  0
BLOCK
  8
0
  2
$MODEL_SPACE
 70
     0
 10
0.0
 20
0.0
 30
0.0
  3
$MODEL_SPACE
  1

  0
ENDBLK
  5
1B
  8
0
  0
BLOCK
 67
     1
  8
0
  2
$PAPER_SPACE
 70
     0
 10
0.0
 20
0.0
 30
0.0
  3
$PAPER_SPACE
  1

  0
ENDBLK
  5
18
 67
     1
  8
0
  0
BLOCK
  8
0
  2
YA_N
 70
     0
 10
0.0
 20
0.0
 30
0.0
  3
YA_N
  1

  0
ENDBLK
  5
79FE
  8
0
  0
BLOCK
  8
0
  2
_OPEN
 70
     0
 10
0.0
 20
0.0
 30
0.0
  3
_OPEN
  1

  0
LINE
  5
7BE5
  8
0
  6
BYBLOCK
 62
     0
 10
-1.0
 20
0.1666666666666666
 30
0.0
 11
0.0
 21
0.0
 31
0.0
  0
LINE
  5
7BE6
  8
0
  6
BYBLOCK
 62
     0
 10
0.0
 20
0.0
 30
0.0
 11
-1.0
 21
-0.1666666666666666
 31
0.0
  0
LINE
  5
7BE7
  8
0
  6
BYBLOCK
 62
     0
 10
0.0
 20
0.0
 30
0.0
 11
-1.0
 21
0.0
 31
0.0
  0
ENDBLK
  5
7BE8
  8
0
  0
BLOCK
  8
0
  2
*D2
 70
     1
 10
0.0
 20
0.0
 30
0.0
  3
*D2
  1

  0
LINE
  5
82C0
  8
3
 62
     0
 10
1642.324850451055
 20
3660.3123359245192
 30
0.0
 11
1642.324850451055
 21
3861.508865207601
 31
0.0
  0
LINE
  5
82C1
  8
3
 62
     0
 10
2142.3248504510552
 20
3687.3260233836099
 30
0.0
 11
2142.3248504510552
 21
3861.508865207601
 31
0.0
  0
LINE
  5
82C2
  8
3
 62
     0
 10
1702.3248504510559
 20
3831.508865207601
 30
0.0
 11
2082.3248504510552
 21
3831.508865207601
 31
0.0
  0
INSERT
  5
82C3
  8
3
 62
     0
  2
_OPEN
 10
1642.324850451055
 20
3831.508865207601
 30
0.0
 41
60.0
 42
60.0
 43
60.0
 50
180.0
  0
INSERT
  5
82C4
  8
3
 62
     0
  2
_OPEN
 10
2142.3248504510552
 20
3831.508865207601
 30
0.0
 41
60.0
 42
60.0
 43
60.0
  0
TEXT
  8
3
  40
90
  5
8359
  62
0
  72
0
  71
0
 10
1756.61
 20
3747.21
 30
0.000000
  1
500
  0
POINT
  5
82C6
  8
DEFPOINTS
 62
     0
 10
1642.324850451055
 20
3645.3123359245178
 30
0.0
  0
POINT
  5
82C7
  8
DEFPOINTS
 62
     0
 10
2142.3248504510552
 20
3672.3260233836108
 30
0.0
  0
POINT
  5
82C8
  8
DEFPOINTS
 62
     0
 10
2142.3248504510552
 20
3831.508865207601
 30
0.0
  0
ENDBLK
  5
8009
  8
0
  0
BLOCK
  8
0
  2
*D3
 70
     1
 10
0.0
 20
0.0
 30
0.0
  3
*D3
  1

  0
LINE
  5
82C9
  8
3
 62
     0
 10
2754.3248504510552
 20
2912.3123359245192
 30
0.0
 11
2754.3248504510552
 21
3861.508865207601
 31
0.0
  0
LINE
  5
82CA
  8
3
 62
     0
 10
2202.3248504510552
 20
3831.508865207601
 30
0.0
 11
2694.3248504510552
 21
3831.508865207601
 31
0.0
  0
INSERT
  5
82CB
  8
3
 62
     0
  2
_OPEN
 10
2142.3248504510552
 20
3831.508865207601
 30
0.0
 41
60.0
 42
60.0
 43
60.0
 50
180.0
  0
INSERT
  5
82CC
  8
3
 62
     0
  2
_OPEN
 10
2754.3248504510552
 20
3831.508865207601
 30
0.0
 41
60.0
 42
60.0
 43
60.0
  0
TEXT
  8
3
  40
90
  5
835A
  62
0
  72
0
  71
0
 10
2268.32
 20
3747.21
 30
0.000000
  1
612
  0
POINT
  5
82CE
  8
DEFPOINTS
 62
     0
 10
2142.3248504510552
 20
3672.3260233836108
 30
0.0
  0
POINT
  5
82CF
  8
DEFPOINTS
 62
     0
 10
2754.3248504510552
 20
2897.3123359245192
 30
0.0
  0
POINT
  5
82D0
  8
DEFPOINTS
 62
     0
 10
2754.3248504510552
 20
3831.508865207601
 30
0.0
  0
ENDBLK
  5
7FCF
  8
0
  0
BLOCK
  8
0
  2
*D4
 70
     1
 10
0.0
 20
0.0
 30
0.0
  3
*D4
  1

  0
LINE
  5
82D1
  8
3
 62
     0
 10
1627.3248504510559
 20
3603.3123359245192
 30
0.0
 11
1399.795414686454
 21
3603.3123359245192
 31
0.0
  0
LINE
  5
82D2
  8
3
 62
     0
 10
1627.3248504510559
 20
2873.3123359245192
 30
0.0
 11
1399.795414686454
 21
2873.3123359245192
 31
0.0
  0
LINE
  5
82D3
  8
3
 62
     0
 10
1429.795414686454
 20
3543.3123359245192
 30
0.0
 11
1429.795414686454
 21
2933.3123359245192
 31
0.0
  0
INSERT
  5
82D4
  8
3
 62
     0
  2
_OPEN
 10
1429.795414686454
 20
3603.3123359245192
 30
0.0
 41
60.0
 42
60.0
 43
60.0
 50
90.0
  0
INSERT
  5
82D5
  8
3
 62
     0
  2
_OPEN
 10
1429.795414686454
 20
2873.3123359245192
 30
0.0
 41
60.0
 42
60.0
 43
60.0
 50
270.0
  0
TEXT
  8
3
  40
90
  5
835B
  62
0
  72
0
  71
0
 10
1174.80
 20
3100.80
 30
0.000000
  1
730
  0
POINT
  5
82D7
  8
DEFPOINTS
 62
     0
 10
1642.324850451055
 20
3603.3123359245192
 30
0.0
  0
POINT
  5
82D8
  8
DEFPOINTS
 62
     0
 10
1642.324850451055
 20
2873.3123359245192
 30
0.0
  0
POINT
  5
82D9
  8
DEFPOINTS
 62
     0
 10
1429.795414686454
 20
2873.3123359245192
 30
0.0
  0
ENDBLK
  5
8029
  8
0
  0
BLOCK
  8
0
  2
*D5
 70
     1
 10
0.0
 20
0.0
 30
0.0
  3
*D5
  1

  0
LINE
  5
82DA
  8
3
 62
     0
 10
1627.3248504510559
 20
3603.3123359245192
 30
0.0
 11
1218.8926776036651
 21
3603.3123359245192
 31
0.0
  0
LINE
  5
82DB
  8
3
 62
     0
 10
1569.2951668069311
 20
2844.3123359245192
 30
0.0
 11
1218.892677603664
 21
2844.3123359245192
 31
0.0
  0
LINE
  5
82DC
  8
3
 62
     0
 10
1248.892677603664
 20
3543.3123359245192
 30
0.0
 11
1248.892677603664
 21
2904.3123359245192
 31
0.0
  0
INSERT
  5
82DD
  8
3
 62
     0
  2
_OPEN
 10
1248.8926776036651
 20
3603.3123359245192
 30
0.0
 41
60.0
 42
60.0
 43
60.0
 50
90.0
  0
INSERT
  5
82DE
  8
3
 62
     0
  2
_OPEN
 10
1248.892677603664
 20
2844.3123359245192
 30
0.0
 41
60.0
 42
60.0
 43
60.0
 50
270.0
  0
TEXT
  8
3
  40
90
  5
835C
  62
0
  72
0
  71
0
 10
993.893
 20
3053.46
 30
0.000000
  1
759
  0
POINT
  5
82E0
  8
DEFPOINTS
 62
     0
 10
1642.324850451055
 20
3603.3123359245192
 30
0.0
  0
POINT
  5
82E1
  8
DEFPOINTS
 62
     0
 10
1584.2951668069311
 20
2844.3123359245192
 30
0.0
  0
POINT
  5
82E2
  8
DEFPOINTS
 62
     0
 10
1248.892677603664
 20
2844.3123359245192
 30
0.0
  0
ENDBLK
  5
801E
  8
0
  0
BLOCK
  8
0
  2
*D6
 70
     1
 10
0.0
 20
0.0
 30
0.0
  3
*D6
  1

  0
LINE
  5
82E3
  8
3
 62
     0
 10
1677.324850451055
 20
2299.3123359245192
 30
0.0
 11
1218.892677603664
 21
2299.3123359245192
 31
0.0
  0
LINE
  5
82E4
  8
3
 62
     0
 10
1248.892677603664
 20
2784.3123359245192
 30
0.0
 11
1248.892677603664
 21
2359.3123359245192
 31
0.0
  0
INSERT
  5
82E5
  8
3
 62
     0
  2
_OPEN
 10
1248.892677603664
 20
2844.3123359245192
 30
0.0
 41
60.0
 42
60.0
 43
60.0
 50
90.0
  0
INSERT
  5
82E6
  8
3
 62
     0
  2
_OPEN
 10
1248.892677603664
 20
2299.3123359245192
 30
0.0
 41
60.0
 42
60.0
 43
60.0
 50
270.0
  0
TEXT
  8
3
  40
90
  5
835D
  62
0
  72
0
  71
0
 10
993.893
 20
2412.51
 30
0.000000
  1
545
  0
POINT
  5
82E8
  8
DEFPOINTS
 62
     0
 10
1584.2951668069311
 20
2844.3123359245192
 30
0.0
  0
POINT
  5
82E9
  8
DEFPOINTS
 62
     0
 10
1692.324850451055
 20
2299.3123359245192
 30
0.0
  0
POINT
  5
82EA
  8
DEFPOINTS
 62
     0
 10
1248.892677603664
 20
2299.3123359245192
 30
0.0
  0
ENDBLK
  5
7FFE
  8
0
  0
BLOCK
  8
0
  2
*D7
 70
     1
 10
0.0
 20
0.0
 30
0.0
  3
*D7
  1

  0
LINE
  5
82EB
  8
3
 62
     0
 10
1677.324850451055
 20
2204.3123359245192
 30
0.0
 11
1218.892677603664
 21
2204.3123359245192
 31
0.0
  0
LINE
  5
82EC
  8
3
 62
     0
 10
1677.324850451055
 20
2104.3123359245192
 30
0.0
 11
1218.892677603664
 21
2104.3123359245192
 31
0.0
  0
LINE
  5
82ED
  8
3
 62
     0
 10
1248.892677603664
 20
2264.3123359245192
 30
0.0
 11
1248.892677603664
 21
2324.3123359245192
 31
0.0
  0
LINE
  5
82EE
  8
3
 62
     0
 10
1248.892677603664
 20
2044.3123359245189
 30
0.0
 11
1248.892677603664
 21
1710.026621638805
 31
0.0
  0
LINE
  5
82EF
  8
3
 62
     0
 10
1248.892677603664
 20
2204.3123359245192
 30
0.0
 11
1248.892677603664
 21
2104.3123359245192
 31
0.0
  0
INSERT
  5
82F0
  8
3
 62
     0
  2
_DOT
 10
1248.892677603664
 20
2204.3123359245192
 30
0.0
 41
60.0
 42
60.0
 43
60.0
 50
270.0
  0
INSERT
  5
82F1
  8
3
 62
     0
  2
_OPEN
 10
1248.892677603664
 20
2104.3123359245192
 30
0.0
 41
60.0
 42
60.0
 43
60.0
 50
90.0
  0
TEXT
  8
3
  40
90
  5
835E
  62
0
  72
0
  71
0
 10
993.893
 20
1687.87
 30
0.000000
  1
100
  0
POINT
  5
82F3
  8
DEFPOINTS
 62
     0
 10
1692.324850451055
 20
2204.3123359245192
 30
0.0
  0
POINT
  5
82F4
  8
DEFPOINTS
 62
     0
 10
1692.324850451055
 20
2104.3123359245192
 30
0.0
  0
POINT
  5
82F5
  8
DEFPOINTS
 62
     0
 10
1248.892677603664
 20
2104.3123359245192
 30
0.0
  0
ENDBLK
  5
7FE7
  8
0
  0
BLOCK
  8
0
  2
*D8
 70
     1
 10
0.0
 20
0.0
 30
0.0
  3
*D8
  1

  0
LINE
  5
8062
  8
0
  6
BYBLOCK
 62
     0
 10
5090.5741014141413
 20
2157.3123359245178
 30
0.0
 11
5090.5741014141413
 21
1917.605233527607
 31
0.0
  0
LINE
  5
8063
  8
0
  6
BYBLOCK
 62
     0
 10
4830.5741014141404
 20
1947.605233527607
 30
0.0
 11
5030.5741014141404
 21
1947.605233527607
 31
0.0
  0
TEXT
  5
8064
  8
3
 62
     0
 10
4828.6993436144521
 20
1983.025152385715
 30
0.0
 40
90.0
  1
320
  0
INSERT
  5
8065
  8
0
  6
BYBLOCK
 62
     0
  2
_OPEN
 10
4770.5741014141404
 20
1947.605233527607
 30
0.0
 41
60.0
 42
60.0
 43
60.0
 50
180.0
  0
INSERT
  5
8066
  8
0
  6
BYBLOCK
 62
     0
  2
_OPEN
 10
5090.5741014141413
 20
1947.605233527607
 30
0.0
 41
60.0
 42
60.0
 43
60.0
  0
POINT
  5
8067
  8
DEFPOINTS
  6
BYBLOCK
 62
     0
 10
4770.5741014141404
 20
2085.1420078861311
 30
0.0
  0
POINT
  5
8068
  8
DEFPOINTS
  6
BYBLOCK
 62
     0
 10
5090.5741014141413
 20
2172.3123359245192
 30
0.0
  0
POINT
  5
8069
  8
DEFPOINTS
  6
BYBLOCK
 62
     0
 10
5090.5741014141413
 20
1947.605233527607
 30
0.0
  0
ENDBLK
  5
806A
  8
0
  0
BLOCK
  8
0
  2
*D9
 70
     1
 10
0.0
 20
0.0
 30
0.0
  3
*D9
  1

  0
LINE
  5
7DAF
  8
0
  6
BYBLOCK
 62
     0
 10
5038.5741014141404
 20
3660.3123359245192
 30
0.0
 11
5038.5741014141404
 21
3981.61527098939
 31
0.0
  0
LINE
  5
7DB0
  8
0
  6
BYBLOCK
 62
     0
 10
4770.5741014141404
 20
3862.2813391902091
 30
0.0
 11
4770.5741014141404
 21
3981.61527098939
 31
0.0
  0
LINE
  5
7DB1
  8
0
  6
BYBLOCK
 62
     0
 10
4978.5741014141413
 20
3951.61527098939
 30
0.0
 11
4830.5741014141404
 21
3951.61527098939
 31
0.0
  0
TEXT
  5
7DB2
  8
3
 62
     0
 10
4795.4338984993155
 20
3990.3456629039679
 30
0.0
 40
90.0
  1
268
  0
INSERT
  5
7DB3
  8
0
  6
BYBLOCK
 62
     0
  2
_OPEN
 10
5038.5741014141404
 20
3951.61527098939
 30
0.0
 41
60.0
 42
60.0
 43
60.0
  0
INSERT
  5
7DB4
  8
0
  6
BYBLOCK
 62
     0
  2
_OPEN
 10
4770.5741014141404
 20
3951.61527098939
 30
0.0
 41
60.0
 42
60.0
 43
60.0
 50
180.0
  0
POINT
  5
7DB5
  8
DEFPOINTS
  6
BYBLOCK
 62
     0
 10
5038.5741014141404
 20
3645.3123359245178
 30
0.0
  0
POINT
  5
7DB6
  8
DEFPOINTS
  6
BYBLOCK
 62
     0
 10
4770.5741014141404
 20
3847.28133919021
 30
0.0
  0
POINT
  5
7DB7
  8
DEFPOINTS
  6
BYBLOCK
 62
     0
 10
4770.5741014141404
 20
3951.61527098939
 30
0.0
  0
ENDBLK
  5
7DB8
  8
0
  0
BLOCK
  8
0
  2
*D10
 70
     1
 10
0.0
 20
0.0
 30
0.0
  3
*D10
  1

  0
LINE
  5
82F6
  8
3
 62
     0
 10
3625.0741014141399
 20
3079.3123359245192
 30
0.0
 11
3625.0741014141399
 21
3981.61527098939
 31
0.0
  0
LINE
  5
82F7
  8
3
 62
     0
 10
4710.5741014141413
 20
3951.61527098939
 30
0.0
 11
3685.0741014141399
 21
3951.61527098939
 31
0.0
  0
INSERT
  5
82F8
  8
3
 62
     0
  2
_OPEN
 10
4770.5741014141404
 20
3951.61527098939
 30
0.0
 41
60.0
 42
60.0
 43
60.0
  0
INSERT
  5
82F9
  8
3
 62
     0
  2
_OPEN
 10
3625.0741014141399
 20
3951.61527098939
 30
0.0
 41
60.0
 42
60.0
 43
60.0
 50
180.0
  0
TEXT
  8
3
  40
90
  5
835F
  62
0
  72
0
  71
0
 10
4017.82
 20
3942.32
 30
0.000000
  1
MAX
  0
TEXT
  8
3
  40
90
  5
8360
  62
0
  72
0
  71
0
 10
4017.82
 20
3825.32
 30
0.000000
  1
1160
  0
POINT
  5
82FB
  8
DEFPOINTS
 62
     0
 10
4770.5741014141404
 20
3847.28133919021
 30
0.0
  0
POINT
  5
82FC
  8
DEFPOINTS
 62
     0
 10
3625.0741014141399
 20
3064.3123359245192
 30
0.0
  0
POINT
  5
82FD
  8
DEFPOINTS
 62
     0
 10
3625.0741014141399
 20
3951.61527098939
 30
0.0
  0
ENDBLK
  5
7DAD
  8
0
  0
BLOCK
  8
0
  2
*D11
 70
     1
 10
0.0
 20
0.0
 30
0.0
  3
*D11
  1

  0
LINE
  5
82FE
  8
3
 62
     0
 10
4505.5741014141404
 20
3660.3123359245192
 30
0.0
 11
4505.5741014141404
 21
3766.7991624136598
 31
0.0
  0
LINE
  5
82FF
  8
3
 62
     0
 10
5035.5741014141413
 20
3660.3123359245192
 30
0.0
 11
5035.5741014141413
 21
3766.7991624136598
 31
0.0
  0
LINE
  5
8300
  8
3
 62
     0
 10
4565.5741014141404
 20
3736.7991624136589
 30
0.0
 11
4975.5741014141413
 21
3736.7991624136589
 31
0.0
  0
INSERT
  5
8301
  8
3
 62
     0
  2
_OPEN
 10
4505.5741014141404
 20
3736.7991624136589
 30
0.0
 41
60.0
 42
60.0
 43
60.0
 50
180.0
  0
INSERT
  5
8302
  8
3
 62
     0
  2
_OPEN
 10
5035.5741014141413
 20
3736.7991624136589
 30
0.0
 41
60.0
 42
60.0
 43
60.0
  0
TEXT
  8
3
  40
90
  5
8361
  62
0
  72
0
  71
0
 10
4589.70
 20
3652.50
 30
0.000000
  1
530
  0
POINT
  5
8304
  8
DEFPOINTS
 62
     0
 10
4505.5741014141404
 20
3645.3123359245178
 30
0.0
  0
POINT
  5
8305
  8
DEFPOINTS
 62
     0
 10
5035.5741014141413
 20
3645.3123359245178
 30
0.0
  0
POINT
  5
8306
  8
DEFPOINTS
 62
     0
 10
5035.5741014141413
 20
3736.7991624136589
 30
0.0
  0
ENDBLK
  5
7DA3
  8
0
  0
BLOCK
  8
0
  2
*D12
 70
     1
 10
0.0
 20
0.0
 30
0.0
  3
*D12
  1

  0
LINE
  5
8307
  8
3
 62
     0
 10
1692.324850451055
 20
6313.6246307899637
 30
0.0
 11
1692.324850451055
 21
6495.0181677225701
 31
0.0
  0
LINE
  5
8308
  8
3
 62
     0
 10
2592.3248504510552
 20
6313.6246307899637
 30
0.0
 11
2592.3248504510552
 21
6495.0181677225701
 31
0.0
  0
LINE
  5
8309
  8
3
 62
     0
 10
1752.3248504510559
 20
6465.0181677225701
 30
0.0
 11
2532.3248504510561
 21
6465.0181677225701
 31
0.0
  0
INSERT
  5
830A
  8
3
 62
     0
  2
_OPEN
 10
1692.324850451055
 20
6465.0181677225701
 30
0.0
 41
60.0
 42
60.0
 43
60.0
 50
180.0
  0
INSERT
  5
830B
  8
3
 62
     0
  2
_OPEN
 10
2592.3248504510552
 20
6465.0181677225701
 30
0.0
 41
60.0
 42
60.0
 43
60.0
  0
TEXT
  8
3
  40
90
  5
8362
  62
0
  72
0
  71
0
 10
1961.55
 20
6380.72
 30
0.000000
  1
900
  0
POINT
  5
830D
  8
DEFPOINTS
 62
     0
 10
1692.324850451055
 20
6298.6246307899637
 30
0.0
  0
POINT
  5
830E
  8
DEFPOINTS
 62
     0
 10
2592.3248504510552
 20
6298.6246307899637
 30
0.0
  0
POINT
  5
830F
  8
DEFPOINTS
 62
     0
 10
2592.3248504510552
 20
6465.0181677225701
 30
0.0
  0
ENDBLK
  5
7FAF
  8
0
  0
BLOCK
  8
0
  2
*D13
 70
     1
 10
0.0
 20
0.0
 30
0.0
  3
*D13
  1

  0
LINE
  5
7F7C
  8
0
  6
BYBLOCK
 62
     0
 10
2447.5704786437491
 20
5723.6246307899637
 30
0.0
 11
2447.5704786437491
 21
6495.0181677225701
 31
0.0
  0
LINE
  5
7F7D
  8
0
  6
BYBLOCK
 62
     0
 10
2217.5704786437491
 20
6465.0181677225701
 30
0.0
 11
2387.5704786437491
 21
6465.0181677225701
 31
0.0
  0
TEXT
  5
7F7E
  8
3
 62
     0
 10
2186.8561929294628
 20
6504.1976473153272
 30
0.0
 40
90.0
  1
290
  0
INSERT
  5
7F7F
  8
0
  6
BYBLOCK
 62
     0
  2
_OPEN
 10
2157.5704786437491
 20
6465.0181677225701
 30
0.0
 41
60.0
 42
60.0
 43
60.0
 50
180.0
  0
INSERT
  5
7F80
  8
0
  6
BYBLOCK
 62
     0
  2
_OPEN
 10
2447.5704786437491
 20
6465.0181677225701
 30
0.0
 41
60.0
 42
60.0
 43
60.0
  0
POINT
  5
7F81
  8
DEFPOINTS
  6
BYBLOCK
 62
     0
 10
2157.5704786437491
 20
6298.6246307899637
 30
0.0
  0
POINT
  5
7F82
  8
DEFPOINTS
  6
BYBLOCK
 62
     0
 10
2447.5704786437491
 20
5708.6246307899628
 30
0.0
  0
POINT
  5
7F83
  8
DEFPOINTS
  6
BYBLOCK
 62
     0
 10
2447.5704786437491
 20
6465.0181677225701
 30
0.0
  0
ENDBLK
  5
7F84
  8
0
  0
BLOCK
  8
0
  2
*D14
 70
     1
 10
0.0
 20
0.0
 30
0.0
  3
*D14
  1

  0
LINE
  5
8310
  8
3
 62
     0
 10
2897.3248504510561
 20
5708.6246307899628
 30
0.0
 11
3142.0599979077201
 21
5708.6246307899628
 31
0.0
  0
LINE
  5
8311
  8
3
 62
     0
 10
2897.3248504510561
 20
5003.6246307899637
 30
0.0
 11
3142.0599979077201
 21
5003.6246307899637
 31
0.0
  0
LINE
  5
8312
  8
3
 62
     0
 10
3112.0599979077201
 20
5648.6246307899637
 30
0.0
 11
3112.0599979077201
 21
5063.6246307899637
 31
0.0
  0
INSERT
  5
8313
  8
3
 62
     0
  2
_OPEN
 10
3112.0599979077201
 20
5708.6246307899628
 30
0.0
 41
60.0
 42
60.0
 43
60.0
 50
90.0
  0
INSERT
  5
8314
  8
3
 62
     0
  2
_OPEN
 10
3112.0599979077201
 20
5003.6246307899637
 30
0.0
 41
60.0
 42
60.0
 43
60.0
 50
270.0
  0
TEXT
  8
3
  40
90
  5
8363
  62
0
  72
0
  71
0
 10
2857.06
 20
5149.65
 30
0.000000
  1
705
  0
POINT
  5
8316
  8
DEFPOINTS
 62
     0
 10
2882.3248504510552
 20
5708.6246307899628
 30
0.0
  0
POINT
  5
8317
  8
DEFPOINTS
 62
     0
 10
2882.3248504510552
 20
5003.6246307899637
 30
0.0
  0
POINT
  5
8318
  8
DEFPOINTS
 62
     0
 10
3112.0599979077201
 20
5003.6246307899637
 30
0.0
  0
ENDBLK
  5
8036
  8
0
  0
BLOCK
  8
0
  2
*D15
 70
     1
 10
0.0
 20
0.0
 30
0.0
  3
*D15
  1

  0
LINE
  5
8319
  8
3
 62
     0
 10
1877.3248504510559
 20
4988.6246307899628
 30
0.0
 11
1877.3248504510559
 21
4599.9055830525167
 31
0.0
  0
LINE
  5
831A
  8
3
 62
     0
 10
2882.3248504510552
 20
4988.6246307899628
 30
0.0
 11
2882.3248504510552
 21
4599.9055830525167
 31
0.0
  0
LINE
  5
831B
  8
3
 62
     0
 10
1937.324850451055
 20
4629.9055830525176
 30
0.0
 11
2822.3248504510552
 21
4629.9055830525176
 31
0.0
  0
INSERT
  5
831C
  8
3
 62
     0
  2
_OPEN
 10
1877.3248504510559
 20
4629.9055830525176
 30
0.0
 41
60.0
 42
60.0
 43
60.0
 50
180.0
  0
INSERT
  5
831D
  8
3
 62
     0
  2
_OPEN
 10
2882.3248504510552
 20
4629.9055830525176
 30
0.0
 41
60.0
 42
60.0
 43
60.0
  0
TEXT
  8
3
  40
90
  5
8364
  62
0
  72
0
  71
0
 10
2197.45
 20
4545.61
 30
0.000000
  1
1005
  0
POINT
  5
831F
  8
DEFPOINTS
 62
     0
 10
1877.3248504510559
 20
5003.6246307899637
 30
0.0
  0
POINT
  5
8320
  8
DEFPOINTS
 62
     0
 10
2882.3248504510552
 20
5003.6246307899637
 30
0.0
  0
POINT
  5
8321
  8
DEFPOINTS
 62
     0
 10
2882.3248504510552
 20
4629.9055830525176
 30
0.0
  0
ENDBLK
  5
7F7A
  8
0
  0
BLOCK
  8
0
  2
*D16
 70
     1
 10
0.0
 20
0.0
 30
0.0
  3
*D16
  1

  0
LINE
  5
8322
  8
3
 62
     0
 10
1862.324850451055
 20
5003.6246307899637
 30
0.0
 11
1358.9286425598079
 21
5003.6246307899637
 31
0.0
  0
LINE
  5
8323
  8
3
 62
     0
 10
1677.324850451055
 20
5658.6246307899628
 30
0.0
 11
1358.9286425598079
 21
5658.6246307899628
 31
0.0
  0
LINE
  5
8324
  8
3
 62
     0
 10
1388.9286425598079
 20
5063.6246307899637
 30
0.0
 11
1388.9286425598079
 21
5598.6246307899637
 31
0.0
  0
INSERT
  5
8325
  8
3
 62
     0
  2
_OPEN
 10
1388.9286425598079
 20
5003.6246307899637
 30
0.0
 41
60.0
 42
60.0
 43
60.0
 50
270.0
  0
INSERT
  5
8326
  8
3
 62
     0
  2
_OPEN
 10
1388.9286425598079
 20
5658.6246307899628
 30
0.0
 41
60.0
 42
60.0
 43
60.0
 50
90.0
  0
TEXT
  8
3
  40
90
  5
8365
  62
0
  72
0
  71
0
 10
1133.93
 20
5149.65
 30
0.000000
  1
655
  0
POINT
  5
8328
  8
DEFPOINTS
 62
     0
 10
1877.3248504510559
 20
5003.6246307899637
 30
0.0
  0
POINT
  5
8329
  8
DEFPOINTS
 62
     0
 10
1692.324850451055
 20
5658.6246307899628
 30
0.0
  0
POINT
  5
832A
  8
DEFPOINTS
 62
     0
 10
1388.9286425598079
 20
5658.6246307899628
 30
0.0
  0
ENDBLK
  5
7FA4
  8
0
  0
BLOCK
  8
0
  2
*D17
 70
     1
 10
0.0
 20
0.0
 30
0.0
  3
*D17
  1

  0
LINE
  5
832B
  8
3
 62
     0
 10
1677.324850451055
 20
6298.6246307899637
 30
0.0
 11
1358.928642559807
 21
6298.6246307899637
 31
0.0
  0
LINE
  5
832C
  8
3
 62
     0
 10
1388.928642559807
 20
5718.6246307899637
 30
0.0
 11
1388.928642559807
 21
6238.6246307899628
 31
0.0
  0
INSERT
  5
832D
  8
3
 62
     0
  2
_OPEN
 10
1388.928642559807
 20
5658.6246307899628
 30
0.0
 41
60.0
 42
60.0
 43
60.0
 50
270.0
  0
INSERT
  5
832E
  8
3
 62
     0
  2
_OPEN
 10
1388.928642559807
 20
6298.6246307899637
 30
0.0
 41
60.0
 42
60.0
 43
60.0
 50
90.0
  0
TEXT
  8
3
  40
90
  5
8366
  62
0
  72
0
  71
0
 10
1133.93
 20
5819.32
 30
0.000000
  1
640
  0
POINT
  5
8330
  8
DEFPOINTS
 62
     0
 10
1692.324850451055
 20
5658.6246307899628
 30
0.0
  0
POINT
  5
8331
  8
DEFPOINTS
 62
     0
 10
1692.324850451055
 20
6298.6246307899637
 30
0.0
  0
POINT
  5
8332
  8
DEFPOINTS
 62
     0
 10
1388.928642559807
 20
6298.6246307899637
 30
0.0
  0
ENDBLK
  5
7F99
  8
0
  0
BLOCK
  8
0
  2
*D18
 70
     1
 10
0.0
 20
0.0
 30
0.0
  3
*D18
  1

  0
LINE
  5
8333
  8
3
 62
     0
 10
1642.324850451055
 20
3660.3123359245192
 30
0.0
 11
1642.324850451055
 21
4081.5116744727629
 31
0.0
  0
LINE
  5
8334
  8
3
 62
     0
 10
2899.8248504510552
 20
2454.3123359245192
 30
0.0
 11
2899.8248504510552
 21
4081.5116744727629
 31
0.0
  0
LINE
  5
8335
  8
3
 62
     0
 10
1702.3248504510559
 20
4051.5116744727638
 30
0.0
 11
2839.8248504510552
 21
4051.5116744727638
 31
0.0
  0
INSERT
  5
8336
  8
3
 62
     0
  2
_OPEN
 10
1642.324850451055
 20
4051.5116744727638
 30
0.0
 41
60.0
 42
60.0
 43
60.0
 50
180.0
  0
INSERT
  5
8337
  8
3
 62
     0
  2
_OPEN
 10
2899.8248504510552
 20
4051.5116744727638
 30
0.0
 41
60.0
 42
60.0
 43
60.0
  0
TEXT
  8
3
  40
90
  5
8367
  62
0
  72
0
  71
0
 10
2030.45
 20
3967.21
 30
0.000000
  1
1258
  0
POINT
  5
8339
  8
DEFPOINTS
 62
     0
 10
1642.324850451055
 20
3645.3123359245178
 30
0.0
  0
POINT
  5
833A
  8
DEFPOINTS
 62
     0
 10
2899.8248504510552
 20
2439.3123359245192
 30
0.0
  0
POINT
  5
833B
  8
DEFPOINTS
 62
     0
 10
2899.8248504510552
 20
4051.5116744727638
 30
0.0
  0
ENDBLK
  5
7FC5
  8
0
  0
BLOCK
  8
0
  2
*D19
 70
     1
 10
0.0
 20
0.0
 30
0.0
  3
*D19
  1

  0
LINE
  5
833C
  8
3
 62
     0
 10
1692.324850451055
 20
2089.3123359245192
 30
0.0
 11
1692.324850451055
 21
1867.8821347352241
 31
0.0
  0
LINE
  5
833D
  8
3
 62
     0
 10
2082.3248504510552
 20
1897.8821347352241
 30
0.0
 11
1752.3248504510559
 21
1897.8821347352241
 31
0.0
  0
INSERT
  5
833E
  8
3
 62
     0
  2
_OPEN
 10
2142.3248504510552
 20
1897.8821347352241
 30
0.0
 41
60.0
 42
60.0
 43
60.0
  0
INSERT
  5
833F
  8
3
 62
     0
  2
_OPEN
 10
1692.324850451055
 20
1897.8821347352241
 30
0.0
 41
60.0
 42
60.0
 43
60.0
 50
180.0
  0
TEXT
  8
3
  40
90
  5
8368
  62
0
  72
0
  71
0
 10
1737.32
 20
1813.58
 30
0.000000
  1
450
  0
POINT
  5
8341
  8
DEFPOINTS
 62
     0
 10
2142.3248504510552
 20
2040.2543529888981
 30
0.0
  0
POINT
  5
8342
  8
DEFPOINTS
 62
     0
 10
1692.324850451055
 20
2104.3123359245192
 30
0.0
  0
POINT
  5
8343
  8
DEFPOINTS
 62
     0
 10
1692.324850451055
 20
1897.8821347352241
 30
0.0
  0
ENDBLK
  5
8086
  8
0
  0
BLOCK
  8
0
  2
_DOT
 70
     0
 10
0.0
 20
0.0
 30
0.0
  3
_DOT
  1

  0
LINE
  5
7F67
  8
0
  6
BYBLOCK
 62
     0
 10
0.0
 20
0.0
 30
0.0
 11
-1.0
 21
-0.0000000000000284
 31
0.0
  0
POLYLINE
  5
7F68
  8
0
  6
BYBLOCK
 62
     0
 66
     1
 10
0.0
 20
0.0
 30
0.0
 70
     1
 40
0.1666666666666666
 41
0.1666666666666666
  0
VERTEX
  5
8344
  8
0
  6
BYBLOCK
 62
     0
 10
-0.0833333333333286
 20
-0.0000000000000284
 30
0.0
 42
1.0
  0
VERTEX
  5
8345
  8
0
  6
BYBLOCK
 62
     0
 10
0.0833333333333286
 20
-0.0000000000000284
 30
0.0
 42
1.0
  0
SEQEND
  5
8346
  8
0
  6
BYBLOCK
 62
     0
  0
ENDBLK
  5
7EEA
  8
0
  0
BLOCK
  8
0
  2
*D21
 70
     1
 10
0.0
 20
0.0
 30
0.0
  3
*D21
  1

  0
LINE
  5
8347
  8
3
 62
     0
 10
2142.3248504510552
 20
2093.2543529888981
 30
0.0
 11
2142.3248504510552
 21
1870.4689146419621
 31
0.0
  0
LINE
  5
8348
  8
3
 62
     0
 10
2882.3248504510552
 20
2089.3123359245192
 30
0.0
 11
2882.3248504510552
 21
1870.4689146419621
 31
0.0
  0
LINE
  5
8349
  8
3
 62
     0
 10
2202.3248504510552
 20
1900.4689146419621
 30
0.0
 11
2822.3248504510552
 21
1900.4689146419621
 31
0.0
  0
INSERT
  5
834A
  8
3
 62
     0
  2
_OPEN
 10
2142.3248504510552
 20
1900.4689146419621
 30
0.0
 41
60.0
 42
60.0
 43
60.0
 50
180.0
  0
INSERT
  5
834B
  8
3
 62
     0
  2
_OPEN
 10
2882.3248504510552
 20
1900.4689146419621
 30
0.0
 41
60.0
 42
60.0
 43
60.0
  0
TEXT
  8
3
  40
90
  5
8369
  62
0
  72
0
  71
0
 10
2332.32
 20
1816.17
 30
0.000000
  1
740
  0
POINT
  5
834D
  8
DEFPOINTS
 62
     0
 10
2142.3248504510552
 20
2108.2543529888981
 30
0.0
  0
POINT
  5
834E
  8
DEFPOINTS
 62
     0
 10
2882.3248504510552
 20
2104.3123359245192
 30
0.0
  0
POINT
  5
834F
  8
DEFPOINTS
 62
     0
 10
2882.3248504510552
 20
1900.4689146419621
 30
0.0
  0
ENDBLK
  5
8267
  8
0
  0
BLOCK
  8
0
  2
*D22
 70
     1
 10
0.0
 20
0.0
 30
0.0
  3
*D22
  1

  0
LINE
  5
8350
  8
3
 62
     0
 10
3795.5741014141399
 20
2089.3123359245192
 30
0.0
 11
3795.5741014141399
 21
1847.4141490831059
 31
0.0
  0
LINE
  5
8351
  8
3
 62
     0
 10
4770.5741014141404
 20
2089.3123359245192
 30
0.0
 11
4770.5741014141404
 21
1847.4141490831059
 31
0.0
  0
LINE
  5
8352
  8
3
 62
     0
 10
3855.5741014141399
 20
1877.4141490831059
 30
0.0
 11
4710.5741014141413
 21
1877.4141490831059
 31
0.0
  0
INSERT
  5
8353
  8
3
 62
     0
  2
_OPEN
 10
3795.5741014141399
 20
1877.4141490831059
 30
0.0
 41
60.0
 42
60.0
 43
60.0
 50
180.0
  0
INSERT
  5
8354
  8
3
 62
     0
  2
_OPEN
 10
4770.5741014141404
 20
1877.4141490831059
 30
0.0
 41
60.0
 42
60.0
 43
60.0
  0
TEXT
  8
3
  40
90
  5
836A
  62
0
  72
0
  71
0
 10
4103.07
 20
1793.11
 30
0.000000
  1
975
  0
POINT
  5
8356
  8
DEFPOINTS
 62
     0
 10
3795.5741014141399
 20
2104.3123359245192
 30
0.0
  0
POINT
  5
8357
  8
DEFPOINTS
 62
     0
 10
4770.5741014141404
 20
2104.3123359245192
 30
0.0
  0
POINT
  5
8358
  8
DEFPOINTS
 62
     0
 10
4770.5741014141404
 20
1877.4141490831059
 30
0.0
  0
ENDBLK
  5
8274
  8
0
  0
BLOCK
  8
0
  2
*D23
 70
     1
 10
0.0
 20
0.0
 30
0.0
  3
*D23
  1

  0
LINE
  5
8278
  8
0
  6
BYBLOCK
 62
     0
 10
1677.324850451055
 20
2204.3123359245192
 30
0.0
 11
1218.4138665236569
 21
2204.3123359245192
 31
0.0
  0
LINE
  5
8279
  8
0
  6
BYBLOCK
 62
     0
 10
1677.324850451055
 20
2299.3123359245192
 30
0.0
 11
1218.4138665236569
 21
2299.3123359245192
 31
0.0
  0
LINE
  5
827A
  8
0
  6
BYBLOCK
 62
     0
 10
1248.4138665236569
 20
2144.3123359245192
 30
0.0
 11
1248.4138665236569
 21
2084.3123359245192
 31
0.0
  0
LINE
  5
827B
  8
0
  6
BYBLOCK
 62
     0
 10
1248.4138665236569
 20
2359.3123359245192
 30
0.0
 11
1248.4138665236569
 21
2419.3123359245192
 31
0.0
  0
TEXT
  5
827C
  8
3
 62
     0
 10
1134.842437952228
 20
2121.0980502102329
 30
0.0
 40
90.0
  1
(95)
 50
90.0
  0
LINE
  5
827D
  8
0
  6
BYBLOCK
 62
     0
 10
1248.4138665236569
 20
2204.3123359245192
 30
0.0
 11
1248.4138665236569
 21
2299.3123359245192
 31
0.0
  0
INSERT
  5
827E
  8
0
  6
BYBLOCK
 62
     0
  2
_DOT
 10
1248.4138665236569
 20
2204.3123359245192
 30
0.0
 41
60.0
 42
60.0
 43
60.0
 50
90.0
  0
INSERT
  5
827F
  8
0
  6
BYBLOCK
 62
     0
  2
_OPEN
 10
1248.4138665236569
 20
2299.3123359245192
 30
0.0
 41
60.0
 42
60.0
 43
60.0
 50
270.0
  0
POINT
  5
8280
  8
DEFPOINTS
  6
BYBLOCK
 62
     0
 10
1692.324850451055
 20
2204.3123359245192
 30
0.0
  0
POINT
  5
8281
  8
DEFPOINTS
  6
BYBLOCK
 62
     0
 10
1692.324850451055
 20
2299.3123359245192
 30
0.0
  0
POINT
  5
8282
  8
DEFPOINTS
  6
BYBLOCK
 62
     0
 10
1248.4138665236569
 20
2299.3123359245192
 30
0.0
  0
ENDBLK
  5
8283
  8
0
  0
BLOCK
  8
0
  2
*D24
 70
     1
 10
0.0
 20
0.0
 30
0.0
  3
*D24
  1

  0
LINE
  5
8287
  8
0
  6
BYBLOCK
 62
     0
 10
1627.3248504510559
 20
3645.3123359245178
 30
0.0
 11
954.99320093709684
 21
3645.3123359245178
 31
0.0
  0
LINE
  5
8288
  8
0
  6
BYBLOCK
 62
     0
 10
1677.324850451055
 20
2104.3123359245192
 30
0.0
 11
954.99320093709684
 21
2104.3123359245192
 31
0.0
  0
LINE
  5
8289
  8
0
  6
BYBLOCK
 62
     0
 10
984.99320093709684
 20
3585.3123359245192
 30
0.0
 11
984.99320093709684
 21
2164.3123359245192
 31
0.0
  0
INSERT
  5
828A
  8
0
  6
BYBLOCK
 62
     0
  2
_OPEN
 10
984.99320093709684
 20
3645.3123359245178
 30
0.0
 41
60.0
 42
60.0
 43
60.0
 50
90.0
  0
INSERT
  5
828B
  8
0
  6
BYBLOCK
 62
     0
  2
_OPEN
 10
984.99320093709684
 20
2104.3123359245192
 30
0.0
 41
60.0
 42
60.0
 43
60.0
 50
270.0
  0
TEXT
  5
828C
  8
3
 62
     0
 10
916.42177236566829
 20
2675.526621638805
 30
0.0
 40
90.0
  1
(1541)
 50
90.0
  0
POINT
  5
828D
  8
DEFPOINTS
  6
BYBLOCK
 62
     0
 10
1642.324850451055
 20
3645.3123359245178
 30
0.0
  0
POINT
  5
828E
  8
DEFPOINTS
  6
BYBLOCK
 62
     0
 10
1692.324850451055
 20
2104.3123359245192
 30
0.0
  0
POINT
  5
828F
  8
DEFPOINTS
  6
BYBLOCK
 62
     0
 10
984.99320093709684
 20
2104.3123359245192
 30
0.0
  0
ENDBLK
  5
8290
  8
0
  0
BLOCK
  8
0
  2
*D25
 70
     1
 10
0.0
 20
0.0
 30
0.0
  3
*D25
  1

  0
LINE
  5
82A4
  8
0
  6
BYBLOCK
 62
     0
 10
5053.5741014141413
 20
3199.3123359245192
 30
0.0
 11
5320.1991384639441
 21
3199.3123359245192
 31
0.0
  0
LINE
  5
82A5
  8
0
  6
BYBLOCK
 62
     0
 10
5053.5741014141413
 20
2489.3123359245201
 30
0.0
 11
5320.1991384639441
 21
2489.3123359245201
 31
0.0
  0
LINE
  5
82A6
  8
0
  6
BYBLOCK
 62
     0
 10
5290.1991384639441
 20
3139.3123359245178
 30
0.0
 11
5290.1991384639441
 21
2549.3123359245192
 31
0.0
  0
INSERT
  5
82A7
  8
0
  6
BYBLOCK
 62
     0
  2
_OPEN
 10
5290.1991384639441
 20
3199.3123359245192
 30
0.0
 41
60.0
 42
60.0
 43
60.0
 50
90.0
  0
INSERT
  5
82A8
  8
0
  6
BYBLOCK
 62
     0
  2
_OPEN
 10
5290.1991384639441
 20
2489.3123359245201
 30
0.0
 41
60.0
 42
60.0
 43
60.0
 50
270.0
  0
TEXT
  5
82A9
  8
3
 62
     0
 10
5260.1991384639441
 20
2737.1694787816618
 30
0.0
 40
90.0
  1
710
 50
90.0
  0
POINT
  5
82AA
  8
DEFPOINTS
  6
BYBLOCK
 62
     0
 10
5038.5741014141404
 20
3199.3123359245192
 30
0.0
  0
POINT
  5
82AB
  8
DEFPOINTS
  6
BYBLOCK
 62
     0
 10
5038.5741014141404
 20
2489.3123359245201
 30
0.0
  0
POINT
  5
82AC
  8
DEFPOINTS
  6
BYBLOCK
 62
     0
 10
5290.1991384639441
 20
2489.3123359245201
 30
0.0
  0
ENDBLK
  5
82AD
  8
0
  0
ENDSEC
  0
SECTION
  2
ENTITIES
  0
INSERT
  5
7AF9
  8
0
  2
YA_N
 10
2375.7491199319738
 20
5.0
 30
0.0
  0
LINE
  5
7AFB
  8
2
 10
1584.2951668069311
 20
2844.3123359245192
 30
0.0
 11
2818.825553214057
 21
2844.3123359245192
 31
0.0
  0
ARC
  5
7AFC
  8
1
 10
2089.3248504510552
 20
2897.3123359245192
 30
0.0
 40
665.0
 50
355.42872127646581
 51
85.428721276465865
  0
ARC
  5
7AFD
  8
1
 10
2195.3248504510561
 20
2897.3123359245192
 30
0.0
 40
559.0
 50
350.50766765079862
 51
354.55949116267749
  0
ARC
  5
7AFE
  8
1
 10
2184.3248504510552
 20
2802.3123359245192
 30
0.0
 40
464.0
 50
174.80663570260771
 51
230.39833990041109
  0
LINE
  5
7AFF
  8
1
 10
1642.324850451055
 20
3645.3123359245178
 30
0.0
 11
1642.324850451055
 21
2831.3123359245192
 31
0.0
  0
LINE
  5
7B00
  8
1
 10
1642.324850451055
 20
2873.3123359245192
 30
0.0
 11
1721.3224751608429
 21
2873.3123359245192
 31
0.0
  0
LINE
  5
7B01
  8
1
 10
2142.3248504510552
 20
3560.1969412669569
 30
0.0
 11
1642.324850451055
 21
3603.3123359245192
 31
0.0
  0
LINE
  5
7B02
  8
1
 10
1642.324850451055
 20
3645.3123359245178
 30
0.0
 11
1682.324850451055
 21
3645.3123359245178
 31
0.0
  0
LINE
  5
7B03
  8
1
 10
1642.324850451055
 20
2831.3123359245192
 30
0.0
 11
1682.324850451055
 21
2831.3123359245192
 31
0.0
  0
LINE
  5
7B04
  8
1
 10
1682.324850451055
 20
3645.3123359245178
 30
0.0
 11
1682.324850451055
 21
2831.3123359245192
 31
0.0
  0
LINE
  5
7B05
  8
1
 10
1645.324850451055
 20
3645.3123359245178
 30
0.0
 11
1645.324850451055
 21
2831.3123359245192
 31
0.0
  0
LINE
  5
7B06
  8
1
 10
1692.324850451055
 20
2399.3123359245192
 30
0.0
 11
1692.324850451055
 21
2299.3123359245192
 31
0.0
  0
LINE
  5
7B07
  8
1
 10
1692.324850451055
 20
2399.3123359245192
 30
0.0
 11
2902.3248504510552
 21
2399.3123359245192
 31
0.0
  0
LINE
  5
7B08
  8
1
 10
1692.324850451055
 20
2299.3123359245192
 30
0.0
 11
2882.3248504510552
 21
2299.3123359245192
 31
0.0
1001
ACAD
1000
ASC_BOUNDS
1002
{
1070
    19
1002
}
  0
LINE
  5
7B09
  8
1
 10
2902.3248504510552
 20
2439.3123359245192
 30
0.0
 11
2902.3248504510552
 21
2399.3123359245192
 31
0.0
  0
LINE
  5
7B0A
  8
2
 10
2142.3248504510552
 20
2108.2543529888981
 30
0.0
 11
2142.3248504510552
 21
3672.3260233836108
 31
0.0
  0
LINE
  5
7B0B
  8
1
 10
2502.3248504510561
 20
2439.3123359245192
 30
0.0
 11
2902.3248504510552
 21
2439.3123359245192
 31
0.0
  0
LINE
  5
7B0C
  8
1
 10
2502.3248504510561
 20
2399.3123359245192
 30
0.0
 11
2502.3248504510561
 21
2439.3123359245192
 31
0.0
  0
LINE
  5
7B0D
  8
1
 10
1692.324850451055
 20
2204.3123359245192
 30
0.0
 11
2882.3248504510552
 21
2204.3123359245192
 31
0.0
1001
ACAD
1000
ASC_BOUNDS
1002
{
1070
    19
1002
}
  0
LINE
  5
7B0E
  8
1
 10
1692.324850451055
 20
2204.3123359245192
 30
0.0
 11
1692.324850451055
 21
2104.3123359245192
 31
0.0
  0
LINE
  5
7B0F
  8
1
 10
2882.3248504510552
 20
2204.3123359245192
 30
0.0
 11
2882.3248504510552
 21
2104.3123359245192
 31
0.0
  0
LINE
  5
7B10
  8
2
 10
4770.5741014141404
 20
2104.3123359245192
 30
0.0
 11
4770.5741014141404
 21
3730.0449039888522
 31
0.0
  0
LINE
  5
7B11
  8
2
 10
3650.646112690567
 20
2844.3123359245192
 30
0.0
 11
5102.9395614708592
 21
2844.3123359245192
 31
0.0
  0
LINE
  5
7B12
  8
1
 10
3795.5741014141399
 20
2399.3123359245192
 30
0.0
 11
5090.5741014141413
 21
2399.3123359245192
 31
0.0
  0
LINE
  5
7B13
  8
1
 10
3795.5741014141399
 20
2299.3123359245192
 30
0.0
 11
5090.5741014141413
 21
2299.3123359245192
 31
0.0
1001
ACAD
1000
ASC_BOUNDS
1002
{
1070
    19
1002
}
  0
LINE
  5
7B16
  8
2
 10
2142.3248504510552
 20
6353.7099191859561
 30
0.0
 11
2142.3248504510552
 21
4801.4800930230613
 31
0.0
  0
LINE
  5
7B17
  8
2
 10
2833.5022210360071
 20
5980.6246307899628
 30
0.0
 11
1580.304640069571
 21
5980.6246307899637
 31
0.0
  0
LINE
  5
7B19
  8
1
 10
5035.5741014141413
 20
2399.3123359245192
 30
0.0
 11
5035.5741014141413
 21
2831.3123359245192
 31
0.0
  0
LINE
  5
7B1A
  8
1
 10
4505.5741014141404
 20
2399.3123359245192
 30
0.0
 11
4505.5741014141404
 21
2831.3123359245192
 31
0.0
  0
POINT
  5
7B1B
  8
1
 10
1642.324850451055
 20
3603.3123359245192
 30
0.0
  0
POINT
  5
7B1C
  8
1
 10
1682.1422779866041
 20
2844.3123359245192
 30
0.0
  0
INSERT
  5
7B1D
  8
0
  2
YA_N
 10
1277.7242886368399
 20
-1095.3196821357051
 30
0.0
 41
20.0
 42
20.0
 43
20.0
  0
LINE
  5
7B1F
  8
1
 10
1692.324850451055
 20
2104.3123359245192
 30
0.0
 11
2882.3248504510552
 21
2104.3123359245192
 31
0.0
  0
LINE
  5
7B20
  8
1
 10
2882.3248504510552
 20
2399.3123359245192
 30
0.0
 11
2882.3248504510552
 21
2299.3123359245192
 31
0.0
  0
LINE
  5
7B28
  8
1
 10
1877.3248504510559
 20
2104.3123359245192
 30
0.0
 11
1877.3248504510559
 21
2204.3123359245192
 31
0.0
  0
LINE
  5
7B29
  8
1
 10
1877.3248504510559
 20
2299.3123359245192
 30
0.0
 11
1877.3248504510559
 21
2399.3123359245192
 31
0.0
  0
LINE
  5
7B2A
  8
1
 10
5077.5741014139894
 20
2831.3123359245192
 30
0.0
 11
5077.5741014142277
 21
3645.3123359245178
 31
0.0
  0
LINE
  5
7B2B
  8
1
 10
4463.5741014141404
 20
2831.3123359245192
 30
0.0
 11
4463.5741014141404
 21
3645.3123359245178
 31
0.0
  0
LINE
  5
7B2C
  8
1
 10
3832.5741014141399
 20
2399.3123359245192
 30
0.0
 11
3832.5741014141399
 21
2784.3123359245192
 31
0.0
  0
LINE
  5
7B2D
  8
1
 10
3832.5741014141399
 20
2784.3123359245192
 30
0.0
 11
3861.738084877788
 21
2784.3123359245192
 31
0.0
  0
LINE
  5
7B2E
  8
1
 10
4402.5741014141404
 20
2399.3123359245192
 30
0.0
 11
4402.5741014141404
 21
2784.3123359245192
 31
0.0
  0
LINE
  5
7B2F
  8
1
 10
3795.5741014141399
 20
2104.3123359245192
 30
0.0
 11
5090.5741014141413
 21
2104.3123359245192
 31
0.0
  0
LINE
  5
7B30
  8
1
 10
3795.5741014141399
 20
2204.3123359245192
 30
0.0
 11
5090.5741014141413
 21
2204.3123359245192
 31
0.0
1001
ACAD
1000
ASC_BOUNDS
1002
{
1070
    19
1002
}
  0
LINE
  5
7B31
  8
1
 10
4502.6194761276847
 20
2104.3123359245192
 30
0.0
 11
4502.6194761276847
 21
2204.3123359245192
 31
0.0
  0
LINE
  5
7B32
  8
1
 10
3777.5741014141399
 20
2865.3123359245192
 30
0.0
 11
3787.5741014141399
 21
2865.3123359245192
 31
0.0
  0
LINE
  5
7B33
  8
1
 10
3777.5741014141399
 20
2823.3123359245192
 30
0.0
 11
3787.5741014141399
 21
2823.3123359245192
 31
0.0
  0
LINE
  5
7B34
  8
1
 10
3787.574101414139
 20
2816.8123359245192
 30
0.0
 11
3787.5741014141408
 21
2871.8123359245192
 31
0.0
  0
LINE
  5
7B38
  8
1
 10
3787.5741014141408
 20
2871.8123359245201
 30
0.0
 11
4463.5741014141404
 21
2871.8123359245192
 31
0.0
  0
LINE
  5
7B39
  8
1
 10
3787.574101414139
 20
2816.8123359245192
 30
0.0
 11
4505.5741014141404
 21
2816.8123359245192
 31
0.0
  0
LINE
  5
7B3A
  8
1
 10
3676.5741014141399
 20
2570.3123359245192
 30
0.0
 11
3676.5741014141399
 21
2996.7123359245188
 31
0.0
  0
LINE
  5
7B3B
  8
1
 10
3777.5741014141399
 20
2570.3123359245192
 30
0.0
 11
3777.5741014141399
 21
2996.7123359245188
 31
0.0
  0
LINE
  5
7B3C
  8
1
 10
3825.0741014141399
 20
2499.3123359245192
 30
0.0
 11
3825.0741014141399
 21
2519.3123359245192
 31
0.0
  0
LINE
  5
7B3D
  8
1
 10
3625.0741014141399
 20
2499.3123359245192
 30
0.0
 11
3625.0741014141399
 21
3064.3123359245192
 31
0.0
  0
POINT
  5
7B3E
  8
1
 10
2882.3248504510552
 20
2204.3123359245192
 30
0.0
  0
POINT
  5
7B3F
  8
1
 10
2882.3248504510552
 20
2299.3123359245192
 30
0.0
  0
POINT
  5
7B40
  8
1
 10
2882.3248504510552
 20
2204.3123359245192
 30
0.0
  0
POINT
  5
7B41
  8
1
 10
2882.3248504510552
 20
2104.3123359245192
 30
0.0
  0
LINE
  5
7B42
  8
1
 10
2548.3248504510552
 20
2505.3123359245192
 30
0.0
 11
2567.7573504510551
 21
2558.702335924519
 31
0.0
  0
LINE
  5
7B43
  8
1
 10
2856.3248504510561
 20
2505.3123359245192
 30
0.0
 11
2836.892250451056
 21
2558.702335924519
 31
0.0
  0
ARC
  5
7B44
  8
1
 10
2702.3248504510561
 20
2649.3123359245192
 30
0.0
 40
162.0
 50
180.0
 51
254.35189999999989
  0
ARC
  5
7B45
  8
1
 10
2702.3248504510561
 20
2649.3123359245192
 30
0.0
 40
162.0
 50
285.45729999999998
 51
180.0
  0
LINE
  5
7B46
  8
2
 10
2702.3248504510561
 20
2873.296123871884
 30
0.0
 11
2702.3248504510561
 21
2368.674059576334
 31
0.0
  0
LINE
  5
7B47
  8
1
 10
2746.0054504510549
 20
2493.3123359245192
 30
0.0
 11
2658.6441504510558
 21
2493.3123359245192
 31
0.0
  0
LINE
  5
7B48
  8
1
 10
2787.2687504510559
 20
2511.3683359245192
 30
0.0
 11
2795.446150451055
 21
2503.190335924518
 31
0.0
  0
LINE
  5
7B49
  8
1
 10
2809.5380504510558
 20
2507.3123359245192
 30
0.0
 11
2854.3248504510552
 21
2507.3123359245192
 31
0.0
  0
LINE
  5
7B4A
  8
1
 10
2836.5748504510552
 20
2507.3123359245192
 30
0.0
 11
2836.5748504510552
 21
2489.3123359245192
 31
0.0
  0
ARC
  5
7B4B
  8
1
 10
2854.3248504510552
 20
2505.3123359245192
 30
0.0
 40
2.0
 50
0.0
 51
90.0
  0
LINE
  5
7B4C
  8
1
 10
2829.3248504510552
 20
2512.041335924519
 30
0.0
 11
2829.3248504510552
 21
2481.7833359245192
 31
0.0
  0
LINE
  5
7B4D
  8
1
 10
2856.3248504510561
 20
2489.3123359245192
 30
0.0
 11
2856.3248504510561
 21
2505.3123359245192
 31
0.0
  0
LINE
  5
7B4E
  8
1
 10
2822.0748504510552
 20
2507.3123359245192
 30
0.0
 11
2822.0748504510552
 21
2489.3123359245192
 31
0.0
  0
ARC
  5
7B4F
  8
1
 10
2793.3248504510552
 20
2501.0693359245188
 30
0.0
 40
3.0
 50
0.0
 51
45.0
  0
LINE
  5
7B50
  8
1
 10
2796.3248504510552
 20
2489.3123359245192
 30
0.0
 11
2796.3248504510552
 21
2501.0693359245188
 31
0.0
  0
ARC
  5
7B51
  8
1
 10
2807.4053504510548
 20
2519.5153359245191
 30
0.0
 40
8.0
 50
225.0
 51
308.99310000000003
  0
ARC
  5
7B52
  8
1
 10
2702.3248504510561
 20
2649.3123359245192
 30
0.0
 40
175.0
 50
308.99299999999988
 51
313.80709999999999
  0
ARC
  5
7B53
  8
1
 10
2817.9276504510558
 20
2528.7923359245192
 30
0.0
 40
8.0
 50
313.80680000000001
 51
45.0
  0
LINE
  5
7B54
  8
1
 10
2820.069550451055
 20
2537.9643359245192
 30
0.0
 11
2823.7855504510549
 21
2534.2483359245189
 31
0.0
  0
ARC
  5
7B55
  8
1
 10
2809.5380504510558
 20
2510.3123359245192
 30
0.0
 40
3.0
 50
225.0
 51
270.0
  0
LINE
  5
7B56
  8
1
 10
2797.436050451056
 20
2518.1713359245191
 30
0.0
 11
2807.4166504510558
 21
2508.1903359245189
 31
0.0
  0
ARC
  5
7B57
  8
1
 10
2597.244250451055
 20
2519.5153359245191
 30
0.0
 40
8.0
 50
231.00689999999989
 51
315.0
  0
LINE
  5
7B58
  8
1
 10
2595.1116504510551
 20
2507.3123359245192
 30
0.0
 11
2550.3248504510561
 21
2507.3123359245192
 31
0.0
  0
LINE
  5
7B59
  8
1
 10
2617.380950451055
 20
2511.3683359245192
 30
0.0
 11
2609.2034504510548
 21
2503.190335924518
 31
0.0
  0
ARC
  5
7B5A
  8
1
 10
2611.3248504510561
 20
2501.0693359245188
 30
0.0
 40
3.0
 50
135.0
 51
180.0
  0
LINE
  5
7B5B
  8
1
 10
2608.3248504510552
 20
2489.3123359245192
 30
0.0
 11
2608.3248504510552
 21
2501.0693359245188
 31
0.0
  0
ARC
  5
7B5C
  8
1
 10
2595.1116504510551
 20
2510.3123359245192
 30
0.0
 40
3.0
 50
270.0
 51
315.0
  0
LINE
  5
7B5D
  8
1
 10
2597.122650451056
 20
2508.0803359245192
 30
0.0
 11
2607.2136504510559
 21
2518.1713359245191
 31
0.0
  0
LINE
  5
7B5E
  8
1
 10
2582.5748504510552
 20
2507.3123359245192
 30
0.0
 11
2582.5748504510552
 21
2489.3123359245192
 31
0.0
  0
LINE
  5
7B5F
  8
1
 10
2568.0748504510552
 20
2507.3123359245192
 30
0.0
 11
2568.0748504510552
 21
2489.3123359245192
 31
0.0
  0
LINE
  5
7B60
  8
1
 10
2575.3248504510552
 20
2512.041335924519
 30
0.0
 11
2575.3248504510552
 21
2481.7833359245192
 31
0.0
  0
ARC
  5
7B61
  8
1
 10
2586.7219504510549
 20
2528.7923359245192
 30
0.0
 40
8.0
 50
135.0
 51
226.19319999999991
  0
LINE
  5
7B62
  8
1
 10
2584.580150451055
 20
2537.9643359245192
 30
0.0
 11
2580.864150451056
 21
2534.2483359245189
 31
0.0
  0
ARC
  5
7B63
  8
1
 10
2702.3248504510561
 20
2649.3123359245192
 30
0.0
 40
175.0
 50
226.1928999999999
 51
231.00699999999989
  0
ARC
  5
7B64
  8
1
 10
2550.3248504510561
 20
2505.3123359245192
 30
0.0
 40
2.0
 50
90.0
 51
180.0
  0
LINE
  5
7B65
  8
1
 10
2548.3248504510552
 20
2489.3123359245192
 30
0.0
 11
2548.3248504510552
 21
2505.3123359245192
 31
0.0
  0
LINE
  5
7B66
  8
2
 10
2903.6812880776561
 20
2649.3123359245192
 30
0.0
 11
2505.9945552399472
 21
2649.3123359245192
 31
0.0
  0
LINE
  5
7B67
  8
1
 10
2517.9258441599918
 20
2489.3123359245192
 30
0.0
 11
2642.3248504510552
 21
2489.3123359245192
 31
0.0
  0
LINE
  5
7B68
  8
1
 10
2899.8248504510552
 20
2439.3123359245192
 30
0.0
 11
2886.3927359549971
 21
2489.3123359245192
 31
0.0
  0
LINE
  5
7B69
  8
1
 10
2504.8248504510552
 20
2439.3123359245192
 30
0.0
 11
2517.9258441599918
 21
2489.3123359245192
 31
0.0
  0
LINE
  5
7B6A
  8
1
 10
2642.3248504510552
 20
2484.3123359245192
 30
0.0
 11
2762.3248504510552
 21
2484.3123359245192
 31
0.0
  0
LINE
  5
7B6B
  8
1
 10
2642.3248504510552
 20
2444.3123359245192
 30
0.0
 11
2762.3248504510552
 21
2444.3123359245192
 31
0.0
  0
LINE
  5
7B6C
  8
1
 10
2642.3248504510552
 20
2489.3123359245192
 30
0.0
 11
2642.3248504510552
 21
2484.3123359245192
 31
0.0
  0
LINE
  5
7B6D
  8
1
 10
2762.3248504510552
 20
2489.3123359245192
 30
0.0
 11
2762.3248504510552
 21
2484.3123359245192
 31
0.0
  0
LINE
  5
7B6E
  8
1
 10
2762.3248504510552
 20
2489.3123359245192
 30
0.0
 11
2886.3927359549971
 21
2489.3123359245192
 31
0.0
  0
LINE
  5
7B6F
  8
1
 10
2642.3248504510552
 20
2444.3123359245192
 30
0.0
 11
2642.3248504510552
 21
2439.3123359245192
 31
0.0
  0
LINE
  5
7B70
  8
1
 10
2762.3248504510552
 20
2444.3123359245192
 30
0.0
 11
2762.3248504510552
 21
2439.3123359245192
 31
0.0
  0
CIRCLE
  5
7B71
  8
1
 10
2702.3248504510561
 20
2649.3123359245192
 30
0.0
 40
79.0
  0
LINE
  5
7B72
  8
1
 10
3676.5741014141399
 20
2728.3123359245192
 30
0.0
 11
3777.5741014141399
 21
2728.3123359245192
 31
0.0
  0
LINE
  5
7B73
  8
1
 10
3676.5741014141399
 20
2570.3123359245192
 30
0.0
 11
3777.5741014141399
 21
2570.3123359245192
 31
0.0
  0
LINE
  5
7B74
  8
1
 10
3625.0741014141399
 20
2499.3123359245192
 30
0.0
 11
3825.0741014141399
 21
2499.3123359245192
 31
0.0
  0
LINE
  5
7B75
  8
1
 10
3825.0741014141399
 20
3044.3123359245192
 30
0.0
 11
3825.0741014141399
 21
3064.3123359245192
 31
0.0
  0
LINE
  5
7B76
  8
1
 10
2592.3248504510552
 20
6298.6246307899637
 30
0.0
 11
1692.324850451055
 21
6298.6246307899637
 31
0.0
  0
LINE
  5
7B77
  8
1
 10
1877.3248504510559
 20
5658.6246307899628
 30
0.0
 11
1692.324850451055
 21
5658.6246307899628
 31
0.0
  0
LINE
  5
7B78
  8
1
 10
1692.324850451055
 20
6298.6246307899637
 30
0.0
 11
1692.324850451055
 21
5658.6246307899646
 31
0.0
  0
LINE
  5
7B79
  8
1
 10
2592.3248504510552
 20
6298.6246307899637
 30
0.0
 11
2592.3248504510552
 21
6245.6246307899619
 31
0.0
  0
LINE
  5
7B7A
  8
1
 10
2882.3248504510552
 20
5708.6246307899628
 30
0.0
 11
2882.3248504510552
 21
5003.6246307899628
 31
0.0
  0
LINE
  5
7B7B
  8
1
 10
2882.3248504510552
 20
5708.6246307899628
 30
0.0
 11
2592.3248504510552
 21
5708.6246307899628
 31
0.0
  0
LINE
  5
7B7C
  8
1
 10
2882.3248504510552
 20
5003.6246307899637
 30
0.0
 11
1877.3248504510559
 21
5003.6246307899637
 31
0.0
  0
LINE
  5
7B7D
  8
1
 10
1877.3248504510559
 20
5658.6246307899628
 30
0.0
 11
1877.3248504510559
 21
5003.6246307899637
 31
0.0
  0
INSERT
  5
7B7E
  8
0
  2
YA_N
 10
1455.327808750855
 20
-1134.8543670562351
 30
0.0
 41
20.0
 42
20.0
 43
20.0
  0
LINE
  5
7B80
  8
1
 10
5038.5741014141404
 20
2449.3123359245192
 30
0.0
 11
5038.5741014141404
 21
3645.3123359245178
 31
0.0
  0
POINT
  5
7B81
  8
1
 10
1692.324850451055
 20
2204.3123359245192
 30
0.0
  0
POINT
  5
7B82
  8
1
 10
1692.324850451055
 20
2104.3123359245192
 30
0.0
  0
POINT
  5
7B83
  8
1
 10
1692.324850451055
 20
2204.3123359245192
 30
0.0
  0
POINT
  5
7B84
  8
1
 10
1692.324850451055
 20
2299.3123359245192
 30
0.0
  0
POINT
  5
7B85
  8
1
 10
5038.5741014141404
 20
3344.3123359245192
 30
0.0
  0
POINT
  5
7B86
  8
1
 10
1692.324850451055
 20
5658.6246307899628
 30
0.0
  0
POINT
  5
7B87
  8
1
 10
1692.324850451055
 20
2204.3123359245192
 30
0.0
  0
POINT
  5
7B88
  8
1
 10
1692.324850451055
 20
2104.3123359245192
 30
0.0
  0
POINT
  5
7B89
  8
1
 10
1692.324850451055
 20
2204.3123359245192
 30
0.0
  0
POINT
  5
7B8A
  8
1
 10
1692.324850451055
 20
2299.3123359245192
 30
0.0
  0
LINE
  5
7B8B
  8
1
 10
4505.5741014141386
 20
3603.3123359245192
 30
0.0
 11
5035.5741014141413
 21
3603.3123359245192
 31
0.0
  0
LINE
  5
7B8C
  8
1
 10
4463.5741014141404
 20
3645.3123359245178
 30
0.0
 11
5077.5741014142277
 21
3645.3123359245178
 31
0.0
  0
LINE
  5
7B8D
  8
1
 10
4505.5741014141404
 20
2873.3123359245192
 30
0.0
 11
5035.5741014141413
 21
2873.3123359245192
 31
0.0
  0
LINE
  5
7B8E
  8
1
 10
4463.5741014141404
 20
2831.3123359245192
 30
0.0
 11
5077.5741014139894
 21
2831.3123359245192
 31
0.0
  0
LINE
  5
7B8F
  8
1
 10
4505.5741014141404
 20
2873.3123359245192
 30
0.0
 11
4505.5741014141404
 21
3645.3123359245178
 31
0.0
  0
LINE
  5
7B90
  8
1
 10
5035.5741014141413
 20
2873.3123359245192
 30
0.0
 11
5035.5741014141413
 21
3645.3123359245178
 31
0.0
  0
POINT
  5
7B91
  8
1
 10
5038.5741014141404
 20
3645.3123359245178
 30
0.0
  0
INSERT
  5
7B92
  8
0
  2
YA_N
 10
11334.47253219087
 20
150.26205665596169
 30
0.0
  0
CIRCLE
  5
7B96
  8
1
 10
2142.3248504510552
 20
2844.3123359245192
 30
0.0
 40
152.40000000000001
  0
ARC
  5
7B97
  8
1
 10
2142.3248504510552
 20
2844.3123359245192
 30
0.0
 40
220.0
 50
64.021699557842283
 51
257.58060587445362
  0
ARC
  5
7B98
  8
1
 10
2702.3248504510561
 20
2649.3123359245192
 30
0.0
 40
150.0
 50
257.58060587445362
 51
64.021699557842283
  0
LINE
  5
7B99
  8
1
 10
2238.691608021662
 20
3042.0835371529279
 30
0.0
 11
2768.0294578855601
 21
2784.1563367620711
 31
0.0
  0
LINE
  5
7B9A
  8
1
 10
2209.8709537836849
 20
2980.9259660079688
 30
0.0
 11
2737.3389066405421
 21
2720.1291126738138
 31
0.0
  0
LINE
  5
7B9B
  8
1
 10
2685.7805617695672
 20
2572.0641222751178
 30
0.0
 11
2110.4090327920831
 21
2695.2917313654202
 31
0.0
  0
LINE
  5
7B9C
  8
1
 10
2095.010350256915
 20
2629.4604379310899
 30
0.0
 11
2670.0649639550511
 21
2502.8224054744542
 31
0.0
  0
LINE
  5
7B9D
  8
1
 10
3676.5741014141399
 20
2996.7123359245188
 30
0.0
 11
3777.5741014141399
 21
2996.7123359245188
 31
0.0
  0
LINE
  5
7B9E
  8
1
 10
3676.5741014141399
 20
2691.9123359245191
 30
0.0
 11
3777.5741014141399
 21
2691.9123359245191
 31
0.0
  0
LINE
  5
7B9F
  8
1
 10
3625.0741014141399
 20
3064.3123359245192
 30
0.0
 11
3825.0741014141399
 21
3064.3123359245192
 31
0.0
  0
ARC
  5
7BA0
  8
1
 10
2142.3248504510552
 20
2844.3123359245192
 30
0.0
 40
422.0
 50
176.05950665792179
 51
180.0
  0
LINE
  5
7BA1
  8
1
 10
5090.5741014141413
 20
2104.3123359245192
 30
0.0
 11
5090.5741014141413
 21
2204.3123359245192
 31
0.0
  0
LINE
  5
7BA2
  8
1
 10
5090.5741014141413
 20
2299.3123359245192
 30
0.0
 11
5090.5741014141413
 21
2399.3123359245192
 31
0.0
  0
LINE
  5
7BA3
  8
1
 10
4502.6194761276847
 20
2299.3123359245192
 30
0.0
 11
4502.6194761276847
 21
2399.3123359245192
 31
0.0
  0
LINE
  5
7BA4
  8
1
 10
3795.5741014141399
 20
2104.3123359245192
 30
0.0
 11
3795.5741014141399
 21
2204.3123359245192
 31
0.0
  0
LINE
  5
7BA5
  8
1
 10
3795.5741014141399
 20
2399.3123359245192
 30
0.0
 11
3795.5741014141399
 21
2299.3123359245192
 31
0.0
  0
LINE
  5
7BA7
  8
1
 10
2864.3248504510552
 20
5113.6940963854804
 30
0.0
 11
2864.3248504510552
 21
5355.9411363459012
 31
0.0
  0
LINE
  5
7BA8
  8
1
 10
2864.3248504510552
 20
5519.2246882141708
 30
0.0
 11
2864.3248504510552
 21
5045.1029683957513
 31
0.0
  0
LINE
  5
7BA9
  8
1
 10
2542.3248504510561
 20
5045.1029683957513
 30
0.0
 11
2542.3248504510561
 21
5519.2246882141708
 31
0.0
  0
LINE
  5
7BAA
  8
2
 10
2702.3248504510561
 20
5577.3686175523917
 30
0.0
 11
2702.3248504510561
 21
4893.2621017151287
 31
0.0
  0
LINE
  5
7BAB
  8
1
 10
2542.3248504510561
 20
5519.2246882141708
 30
0.0
 11
2864.3248504510552
 21
5519.2246882141708
 31
0.0
  0
LINE
  5
7BAC
  8
1
 10
2864.3248504510552
 20
5045.1029683957513
 30
0.0
 11
2542.3248504510561
 21
5045.1029683957513
 31
0.0
  0
LINE
  5
7BAD
  8
1
 10
2681.324850451057
 20
4916.2246882131803
 30
0.0
 11
2681.324850451057
 21
5026.2246882093086
 31
0.0
  0
LINE
  5
7BAE
  8
1
 10
2723.3248504510552
 20
4916.2246882131803
 30
0.0
 11
2723.3248504510561
 21
5026.2246882093086
 31
0.0
  0
LINE
  5
7BAF
  8
1
 10
2671.903541505209
 20
5026.2246882093086
 30
0.0
 11
2730.7461593969019
 21
5026.2246882093086
 31
0.0
  0
LINE
  5
7BB0
  8
1
 10
2644.1074014684568
 20
5034.2246882141708
 30
0.0
 11
2760.5422994336541
 21
5034.2246882141708
 31
0.0
  0
LINE
  5
7BB1
  8
1
 10
2671.903541505209
 20
5026.2246882093086
 30
0.0
 11
2671.9035415052099
 21
5034.2246882141708
 31
0.0
  0
LINE
  5
7BB2
  8
1
 10
2644.1074014684568
 20
5045.1029683957513
 30
0.0
 11
2644.1074014684568
 21
5034.2246882141708
 31
0.0
  0
LINE
  5
7BB3
  8
1
 10
2760.5422994336541
 20
5045.1029683957513
 30
0.0
 11
2760.5422994336541
 21
5034.2246882141708
 31
0.0
  0
LINE
  5
7BB4
  8
1
 10
2730.7461593969019
 20
5026.2246882093086
 30
0.0
 11
2730.7461593969019
 21
5034.2246882141708
 31
0.0
  0
LINE
  5
7BB5
  8
1
 10
2723.3248504510552
 20
4916.2246882131803
 30
0.0
 11
2681.3248504510552
 21
4916.2246882131803
 31
0.0
  0
LINE
  5
7BB6
  8
1
 10
2169.8248504510552
 20
4997.6246307899628
 30
0.0
 11
2169.8248504510552
 21
5715.6246307899646
 31
0.0
  0
LINE
  5
7BB7
  8
1
 10
2114.8248504510552
 20
4997.6246307899646
 30
0.0
 11
2114.8248504510552
 21
5715.6246307899637
 31
0.0
  0
LINE
  5
7BB8
  8
1
 10
2852.3248504510561
 20
4835.1246307899664
 30
0.0
 11
1922.324850451055
 21
4835.1246307899628
 31
0.0
  0
LINE
  5
7BB9
  8
1
 10
2781.3248504510552
 20
4987.6246307899646
 30
0.0
 11
1989.9248504510549
 21
4987.6246307899628
 31
0.0
  0
LINE
  5
7BBA
  8
1
 10
2781.3248504510552
 20
4886.6246307899637
 30
0.0
 11
1989.9248504510549
 21
4886.6246307899628
 31
0.0
  0
LINE
  5
7BBC
  8
1
 10
2169.8248504510552
 20
4997.6246307899628
 30
0.0
 11
2114.8248504510552
 21
4997.6246307899637
 31
0.0
  0
LINE
  5
7BBD
  8
1
 10
2852.3248504510561
 20
4835.1246307899628
 30
0.0
 11
2852.3248504510561
 21
5035.1246307899628
 31
0.0
  0
LINE
  5
7BC0
  8
1
 10
2294.7248504510549
 20
4886.6246307899628
 30
0.0
 11
2294.7248504510549
 21
4987.6246307899628
 31
0.0
  0
LINE
  5
7BC1
  8
1
 10
2781.3248504510552
 20
4886.6246307899628
 30
0.0
 11
2781.3248504510552
 21
4987.6246307899646
 31
0.0
  0
LINE
  5
7BC2
  8
1
 10
2623.3248504510552
 20
4886.6246307899628
 30
0.0
 11
2623.3248504510552
 21
4987.6246307899628
 31
0.0
  0
LINE
  5
7BC3
  8
1
 10
2163.3248504510561
 20
4987.6246307899628
 30
0.0
 11
2163.3248504510561
 21
4997.6246307899637
 31
0.0
  0
LINE
  5
7BC4
  8
1
 10
2312.3248504510552
 20
5042.6246307899637
 30
0.0
 11
2169.8248504510552
 21
5042.6246307899637
 31
0.0
  0
LINE
  5
7BC5
  8
1
 10
2852.3248504510561
 20
5035.1246307899628
 30
0.0
 11
2832.3248504510561
 21
5035.1246307899628
 31
0.0
  0
LINE
  5
7BC6
  8
1
 10
2312.3248504510552
 20
5612.6246307899628
 30
0.0
 11
2169.8248504510552
 21
5612.6246307899628
 31
0.0
  0
LINE
  5
7BC7
  8
1
 10
1922.324850451055
 20
4835.1246307899628
 30
0.0
 11
1922.324850451055
 21
5035.1246307899628
 31
0.0
  0
LINE
  5
7BC9
  8
1
 10
1989.9248504510549
 20
4886.6246307899628
 30
0.0
 11
1989.9248504510549
 21
4987.6246307899628
 31
0.0
  0
LINE
  5
7BCA
  8
1
 10
2121.3248504510552
 20
4987.6246307899628
 30
0.0
 11
2121.3248504510552
 21
4997.6246307899637
 31
0.0
  0
LINE
  5
7BCB
  8
1
 10
1942.324850451055
 20
5035.1246307899628
 30
0.0
 11
1922.324850451055
 21
5035.1246307899628
 31
0.0
  0
LINE
  5
7BCD
  8
1
 10
1684.324850451055
 20
5673.6246307899637
 30
0.0
 11
1642.324850451055
 21
5673.6246307899637
 31
0.0
  0
LINE
  5
7BCE
  8
1
 10
1684.324850451055
 20
6287.6246307900392
 30
0.0
 11
1642.324850451055
 21
6287.624630790051
 31
0.0
  0
LINE
  5
7BD0
  8
1
 10
2812.3248504510552
 20
5708.6700055035089
 30
0.0
 11
2712.3248504510552
 21
5708.6700055035089
 31
0.0
  0
LINE
  5
7BD1
  8
1
 10
2754.3248504510552
 20
5715.6246307899637
 30
0.0
 11
2142.3248504510552
 21
5715.6246307899637
 31
0.0
  0
LINE
  5
7BD2
  8
1
 10
2687.3248504510552
 20
5708.6700055035089
 30
0.0
 11
2592.3248504510552
 21
5708.6700055035089
 31
0.0
  0
LINE
  5
7BD3
  8
1
 10
2754.3248504510552
 20
6245.6246307899619
 30
0.0
 11
2142.3248504510552
 21
6245.6246307899637
 31
0.0
  0
LINE
  5
7BD6
  8
1
 10
1642.324850451055
 20
5673.6246307899637
 30
0.0
 11
1642.324850451055
 21
6287.6246307900528
 31
0.0
  0
LINE
  5
7BD7
  8
1
 10
1684.324850451055
 20
5673.6246307899637
 30
0.0
 11
1684.324850451055
 21
6287.6246307900392
 31
0.0
  0
LINE
  5
7BD8
  8
1
 10
2142.3248504510552
 20
5715.6246307899637
 30
0.0
 11
1642.324850451055
 21
5715.6246307899637
 31
0.0
  0
LINE
  5
7BD9
  8
1
 10
2142.3248504510552
 20
6245.6246307899637
 30
0.0
 11
1642.324850451055
 21
6245.6246307899637
 31
0.0
  0
POINT
  5
7BDB
  8
1
 10
1642.324850451055
 20
6248.6246307899637
 30
0.0
  0
POINT
  5
7BDC
  8
1
 10
1642.324850451055
 20
6248.6246307899637
 30
0.0
  0
LINE
  5
7BDF
  8
1
 10
2114.8248504510552
 20
5612.6246307899628
 30
0.0
 11
1972.324850451055
 21
5612.6246307899628
 31
0.0
  0
LINE
  5
7BE0
  8
1
 10
2114.8248504510552
 20
5042.6246307899637
 30
0.0
 11
1972.324850451055
 21
5042.6246307899637
 31
0.0
  0
LINE
  5
7BE1
  8
1
 10
2754.3248504510552
 20
5715.6246307899637
 30
0.0
 11
2754.3248504510552
 21
6245.6246307899619
 31
0.0
  0
LINE
  5
7BE2
  8
1
 10
2592.3248504510552
 20
5715.6246307899637
 30
0.0
 11
2592.3248504510552
 21
5708.6246307899628
 31
0.0
  0
DIMENSION
  5
7BF5
  8
3
  2
*D2
 10
2142.3248504510552
 20
3831.508865207601
 30
0.0
 11
1936.610564736769
 21
3831.508865207601
 31
0.0
 70
   128
 13
1642.324850451055
 23
3645.3123359245178
 33
0.0
 14
2142.3248504510552
 24
3672.3260233836108
 34
0.0
1001
ACAD
1000
DSTYLE
1002
{
1070
   287
1070
     3
1070
   287
1070
     3
1070
    40
1040
30.0
1070
   143
1040
0.039
1070
   172
1070
     1
1070
   271
1070
     0
1070
   279
1070
     0
1070
   288
1070
     1
1002
}
  0
DIMENSION
  5
7C01
  8
3
  2
*D3
 10
2754.3248504510552
 20
3831.508865207601
 30
0.0
 11
2448.3248504510552
 21
3906.508865207601
 31
0.0
 70
     0
 13
2142.3248504510552
 23
3672.3260233836108
 33
0.0
 14
2754.3248504510552
 24
2897.3123359245192
 34
0.0
1001
ACAD
1000
DSTYLE
1002
{
1070
   287
1070
     4
1070
   287
1070
     4
1070
    40
1040
30.0
1070
    75
1070
     1
1070
   143
1040
0.039
1070
   172
1070
     1
1070
   271
1070
     0
1070
   279
1070
     1
1070
   288
1070
     1
1002
}
  0
DIMENSION
  5
7C0E
  8
3
  2
*D4
 10
1429.795414686454
 20
2873.3123359245192
 30
0.0
 11
1429.795414686454
 21
3260.1041065340942
 31
0.0
 70
   128
 13
1642.324850451055
 23
3603.3123359245192
 33
0.0
 14
1642.324850451055
 24
2873.3123359245192
 34
0.0
 50
270.0
1001
ACAD
1000
DSTYLE
1002
{
1070
   287
1070
     3
1070
   287
1070
     3
1070
    40
1040
30.0
1070
   143
1040
0.039
1070
   172
1070
     1
1070
   271
1070
     0
1070
   279
1070
     0
1070
   288
1070
     1
1002
}
  0
DIMENSION
  5
7C1B
  8
3
  2
*D5
 10
1248.892677603664
 20
2844.3123359245192
 30
0.0
 11
1248.892677603664
 21
3212.7639069583702
 31
0.0
 70
   128
 13
1642.324850451055
 23
3603.3123359245192
 33
0.0
 14
1584.2951668069311
 24
2844.3123359245192
 34
0.0
 50
270.0
1001
ACAD
1000
DSTYLE
1002
{
1070
   287
1070
     3
1070
   287
1070
     3
1070
    40
1040
30.0
1070
   143
1040
0.039
1070
   172
1070
     1
1070
   271
1070
     0
1070
   279
1070
     0
1070
   288
1070
     1
1002
}
  0
DIMENSION
  5
7C27
  8
3
  2
*D6
 10
1248.892677603664
 20
2299.3123359245192
 30
0.0
 11
1173.892677603664
 21
2571.8123359245192
 31
0.0
 70
     0
 13
1584.2951668069311
 23
2844.3123359245192
 33
0.0
 14
1692.324850451055
 24
2299.3123359245192
 34
0.0
 50
270.0
1001
ACAD
1000
DSTYLE
1002
{
1070
   287
1070
     4
1070
   287
1070
     4
1070
    40
1040
30.0
1070
    75
1070
     1
1070
   143
1040
0.039
1070
   172
1070
     1
1070
   271
1070
     0
1070
   279
1070
     1
1070
   288
1070
     1
1002
}
  0
DIMENSION
  5
7C47
  8
3
  2
*D7
 10
1248.892677603664
 20
2104.3123359245192
 30
0.0
 11
1173.8926776036631
 21
1847.1694787816621
 31
0.0
 70
     0
 13
1692.324850451055
 23
2204.3123359245192
 33
0.0
 14
1692.324850451055
 24
2104.3123359245192
 34
0.0
 50
270.0
1001
ACAD
1000
DSTYLE
1002
{
1070
   287
1070
     3
1070
   287
1070
     3
1070
    40
1040
30.0
1070
   143
1040
0.039
1070
   172
1070
     1
1070
   271
1070
     0
1070
   279
1070
     0
1070
   288
1070
     1
1070
     6
1000
DOT
1002
}
  0
DIMENSION
  5
7D02
  8
3
  2
*D8
 10
5090.5741014141413
 20
1879.605233527607
 30
0.0
 11
4944.4136293287384
 21
1960.0251523857139
 31
0.0
 12
0.0
 22
-68.0
 32
0.0
 70
   128
 13
4770.5741014141404
 23
2017.1420078861311
 33
0.0
 14
5090.5741014141413
 24
2104.3123359245192
 34
0.0
1001
ACAD
1000
DSTYLE
1002
{
1070
   288
1070
     1
1070
   172
1070
     1
1070
    75
1070
     1
1070
    40
1040
30.0
1070
   271
1070
     0
1070
   143
1040
0.039
1002
}
  0
DIMENSION
  5
7D3F
  8
3
  2
*D9
 10
4770.5741014141404
 20
3951.61527098939
 30
0.0
 11
4911.1481842136009
 21
4035.3456629039679
 31
0.0
 70
   128
 13
5038.5741014141404
 23
3645.3123359245178
 33
0.0
 14
4770.5741014141404
 24
3847.28133919021
 34
0.0
1001
ACAD
1000
DSTYLE
1002
{
1070
   288
1070
     1
1070
   172
1070
     1
1070
    40
1040
30.0
1070
   271
1070
     0
1070
   143
1040
0.039
1002
}
  0
DIMENSION
  5
7D61
  8
3
  2
*D10
 10
3625.0741014141399
 20
3951.61527098939
 30
0.0
 11
4197.8241014141404
 21
4101.6152709893904
 31
0.0
 70
     0
  1
MAX\P1160
 13
4770.5741014141404
 23
3847.28133919021
 33
0.0
 14
3625.0741014141399
 24
3064.3123359245192
 34
0.0
1001
ACAD
1000
DSTYLE
1002
{
1070
   287
1070
     4
1070
   287
1070
     4
1070
    40
1040
30.0
1070
    75
1070
     1
1070
   143
1040
0.039
1070
   172
1070
     1
1070
   271
1070
     0
1070
   279
1070
     1
1070
   288
1070
     1
1002
}
  0
DIMENSION
  5
7D78
  8
3
  2
*D11
 10
5035.5741014141413
 20
3736.7991624136589
 30
0.0
 11
4769.6977271789547
 21
3736.7991624136589
 31
0.0
 70
   128
 13
4505.5741014141404
 23
3645.3123359245178
 33
0.0
 14
5035.5741014141413
 24
3645.3123359245178
 34
0.0
1001
ACAD
1000
DSTYLE
1002
{
1070
   287
1070
     3
1070
   287
1070
     3
1070
    40
1040
30.0
1070
   143
1040
0.039
1070
   172
1070
     1
1070
   271
1070
     0
1070
   279
1070
     0
1070
   288
1070
     1
1002
}
  0
DIMENSION
  5
7DC6
  8
3
  2
*D12
 10
2592.3248504510552
 20
6465.0181677225701
 30
0.0
 11
2141.5530503746518
 21
6465.0181677225701
 31
0.0
 70
   128
 13
1692.324850451055
 23
6298.6246307899637
 33
0.0
 14
2592.3248504510552
 24
6298.6246307899637
 34
0.0
1001
ACAD
1000
DSTYLE
1002
{
1070
   287
1070
     3
1070
   287
1070
     3
1070
    40
1040
30.0
1070
   143
1040
0.039
1070
   172
1070
     1
1070
   271
1070
     0
1070
   279
1070
     0
1070
   288
1070
     1
1002
}
  0
DIMENSION
  5
7DD4
  8
3
  2
*D13
 10
2882.3248504510552
 20
6465.0181677225701
 30
0.0
 11
2737.3248504510552
 21
6549.1976473153263
 31
0.0
 12
434.75437180730648
 22
0.0
 32
0.0
 70
   128
 13
2592.3248504510552
 23
6298.6246307899637
 33
0.0
 14
2882.3248504510552
 24
5708.6246307899628
 34
0.0
1001
ACAD
1000
DSTYLE
1002
{
1070
   288
1070
     1
1070
   172
1070
     1
1070
    75
1070
     1
1070
    40
1040
30.0
1070
   271
1070
     0
1070
   143
1040
0.039
1002
}
  0
DIMENSION
  5
7DF5
  8
3
  2
*D14
 10
3112.0599979077201
 20
5003.6246307899637
 30
0.0
 11
3112.0599979077192
 21
5308.9533645522424
 31
0.0
 70
   128
 13
2882.3248504510552
 23
5708.6246307899628
 33
0.0
 14
2882.3248504510552
 24
5003.6246307899637
 34
0.0
 50
270.0
1001
ACAD
1000
DSTYLE
1002
{
1070
   287
1070
     3
1070
   287
1070
     3
1070
    40
1040
30.0
1070
   143
1040
0.039
1070
   172
1070
     1
1070
   271
1070
     0
1070
   279
1070
     0
1070
   288
1070
     1
1002
}
  0
DIMENSION
  5
7E02
  8
3
  2
*D15
 10
2882.3248504510552
 20
4629.9055830525176
 30
0.0
 11
2377.4502567789791
 21
4629.9055830525176
 31
0.0
 70
   128
 13
1877.3248504510559
 23
5003.6246307899637
 33
0.0
 14
2882.3248504510552
 24
5003.6246307899637
 34
0.0
1001
ACAD
1000
DSTYLE
1002
{
1070
   287
1070
     3
1070
   287
1070
     3
1070
    40
1040
30.0
1070
   143
1040
0.039
1070
   172
1070
     1
1070
   271
1070
     0
1070
   279
1070
     0
1070
   288
1070
     1
1002
}
  0
DIMENSION
  5
7E0F
  8
3
  2
*D16
 10
1388.9286425598079
 20
5658.6246307899628
 30
0.0
 11
1388.928642559807
 21
5308.9533645522424
 31
0.0
 70
   128
 13
1877.3248504510559
 23
5003.6246307899637
 33
0.0
 14
1692.324850451055
 24
5658.6246307899628
 34
0.0
 50
270.0
1001
ACAD
1000
DSTYLE
1002
{
1070
   287
1070
     3
1070
   287
1070
     3
1070
    40
1040
30.0
1070
   143
1040
0.039
1070
   172
1070
     1
1070
   271
1070
     0
1070
   279
1070
     0
1070
   288
1070
     1
1002
}
  0
DIMENSION
  5
7E1B
  8
3
  2
*D17
 10
1388.928642559807
 20
6298.6246307899637
 30
0.0
 11
1313.9286425598059
 21
5978.6246307899637
 31
0.0
 70
     0
 13
1692.324850451055
 23
5658.6246307899628
 33
0.0
 14
1692.324850451055
 24
6298.6246307899637
 34
0.0
 50
270.0
1001
ACAD
1000
DSTYLE
1002
{
1070
   287
1070
     4
1070
   287
1070
     4
1070
    40
1040
30.0
1070
    75
1070
     1
1070
   143
1040
0.039
1070
   172
1070
     1
1070
   271
1070
     0
1070
   279
1070
     1
1070
   288
1070
     1
1002
}
  0
DIMENSION
  5
7E52
  8
3
  2
*D18
 10
2899.8248504510552
 20
4051.5116744727638
 30
0.0
 11
2210.4511966561072
 21
4051.5116744727638
 31
0.0
 70
   128
 13
1642.324850451055
 23
3645.3123359245178
 33
0.0
 14
2899.8248504510552
 24
2439.3123359245192
 34
0.0
1001
ACAD
1000
DSTYLE
1002
{
1070
   287
1070
     3
1070
   287
1070
     3
1070
    40
1040
30.0
1070
   143
1040
0.039
1070
   172
1070
     1
1070
   271
1070
     0
1070
   279
1070
     0
1070
   288
1070
     1
1002
}
  0
DIMENSION
  5
7E78
  8
3
  2
*D19
 10
1692.324850451055
 20
1897.8821347352241
 30
0.0
 11
1917.324850451055
 21
1972.8821347352241
 31
0.0
 70
     0
 13
2142.3248504510552
 23
2040.2543529888981
 33
0.0
 14
1692.324850451055
 24
2104.3123359245192
 34
0.0
1001
ACAD
1000
DSTYLE
1002
{
1070
   287
1070
     4
1070
   287
1070
     4
1070
    40
1040
30.0
1070
    75
1070
     1
1070
   143
1040
0.039
1070
   172
1070
     1
1070
   271
1070
     0
1070
   279
1070
     1
1070
   288
1070
     1
1002
}
  0
LINE
  5
7E86
  8
4
 10
5945.5309793693741
 20
1500.0
 30
0.0
 11
5945.5309793693732
 21
900.0
 31
0.0
  0
LINE
  5
7E87
  8
4
 10
3450.0
 20
1500.0
 30
0.0
 11
3449.9999999999991
 21
900.0
 31
0.0
  0
LINE
  5
7E88
  8
4
 10
1950.0
 20
1500.0
 30
0.0
 11
1950.0
 21
900.0
 31
0.0
  0
LINE
  5
7E8B
  8
4
 10
1950.0
 20
900.0
 30
0.0
 11
5945.5309793693741
 21
900.0
 31
0.0
  0
LINE
  5
7E8C
  8
4
 10
1950.0
 20
1200.0
 30
0.0
 11
5945.5309793693741
 21
1200.0
 31
0.0
  0
TEXT
  5
7E8D
  8
4
 10
2065.5062425407041
 20
1294.629077599838
 30
0.0
 40
150.0
  1
機器名称
  0
TEXT
  5
7E8E
  8
4
 10
2058.7743180743919
 20
964.93547019603284
 30
0.0
 40
150.0
  1
機器型番
  0
TEXT
  5
7E8F
  8
4
 10
3533.036236462995
 20
1267.715306872705
 30
0.0
 40
150.0
  1
ミツヤリミットロードファン
  0
TEXT
  5
7E90
  8
4
 10
3559.9634867564419
 20
951.47875283983012
 30
0.0
 40
150.0
  1
LL＃4 1/2-1
  0
TEXT
  5
7E92
  8
4
 10
2452.306730691525
 20
7150.2865239975472
 30
0.0
 40
161.99999999999989
  1
床置防振ベット
  0
TEXT
  5
7E93
  8
4
 10
880.89968007659616
 20
7601.6429285978938
 30
0.0
 40
216.0
  1
遠心式片吸込片持リミットロードファン
  0
LINE
  5
7E94
  8
4
 10
750.0
 20
7408.2262627944137
 30
0.0
 11
5550.0
 21
7408.2262627944137
 31
0.0
  0
LINE
  5
7E95
  8
4
 10
750.0
 20
8008.2262627944137
 30
0.0
 11
5550.0
 21
8008.2262627944137
 31
0.0
  0
LINE
  5
7E96
  8
4
 10
1950.0
 20
1500.0
 30
0.0
 11
5945.5309793693741
 21
1500.0
 31
0.0
  0
LINE
  5
7E97
  8
4
 10
750.0
 20
8008.2262627944137
 30
0.0
 11
750.0
 21
7408.2262627944137
 31
0.0
  0
TEXT
  5
7E98
  8
4
 10
1144.7302339634191
 20
7146.9584326390304
 30
0.0
 40
161.99999999999989
  1
左回転左横向
  0
TEXT
  5
7E99
  8
4
 10
4406.9086777478688
 20
8118.1832444859256
 30
0.0
 40
168.0
  1
No.
  0
TEXT
  5
7E9A
  8
4
 10
3933.8881878000388
 20
7150.2865239975472
 30
0.0
 40
161.99999999999989
  1
縮尺：1/30
  0
LINE
  5
7E9B
  8
4
 10
5550.0
 20
8008.2262627944137
 30
0.0
 11
5550.0
 21
7408.2262627944137
 31
0.0
  0
LINE
  5
7E9C
  8
4
 10
6300.0
 20
8850.0
 30
0.0
 11
6300.0
 21
8850.0
 31
0.0
  0
LINE
  5
7E9D
  8
4
 10
4321.8522670795937
 20
8043.790749376205
 30
0.0
 11
4321.8522670795937
 21
8359.9567846492573
 31
0.0
  0
LINE
  5
7E9E
  8
4
 10
4321.8522670795937
 20
8359.9567846492573
 30
0.0
 11
5550.0
 21
8359.9567846492573
 31
0.0
  0
LINE
  5
7E9F
  8
4
 10
5550.0
 20
8359.9567846492573
 30
0.0
 11
5550.0
 21
8043.790749376205
 31
0.0
  0
LINE
  5
7EA0
  8
4
 10
5550.0
 20
8043.790749376205
 30
0.0
 11
4321.8522670795937
 21
8043.790749376205
 31
0.0
  0
LINE
  5
7EA1
  8
4
 10
0.0
 20
0.0
 30
0.0
 11
0.0
 21
8850.0
 31
0.0
  0
LINE
  5
7EA2
  8
4
 10
0.0
 20
8850.0
 30
0.0
 11
6300.0
 21
8850.0
 31
0.0
  0
LINE
  5
7EA3
  8
4
 10
6300.0
 20
8850.0
 30
0.0
 11
6300.0
 21
0.0
 31
0.0
  0
LINE
  5
7EA4
  8
4
 10
6300.0
 20
0.0
 30
0.0
 11
0.0
 21
0.0
 31
0.0
  0
LINE
  5
8037
  8
1
 10
3850.8598046962088
 20
2707.529784907118
 30
0.0
 11
3850.8598046962088
 21
2591.0948869419199
 31
0.0
  0
LINE
  5
8038
  8
1
 10
3861.738084877788
 20
2487.3123359245192
 30
0.0
 11
3861.738084877788
 21
2809.3123359245192
 31
0.0
  0
LINE
  5
8039
  8
1
 10
4335.8598046962079
 20
2809.3123359245192
 30
0.0
 11
4335.8598046962079
 21
2487.3123359245192
 31
0.0
  0
LINE
  5
803A
  8
1
 10
3861.738084877788
 20
2809.3123359245192
 30
0.0
 11
4335.8598046962079
 21
2809.3123359245192
 31
0.0
  0
LINE
  5
803C
  8
1
 10
3861.738084877788
 20
2707.529784907118
 30
0.0
 11
3850.8598046962088
 21
2707.529784907118
 31
0.0
  0
LINE
  5
803E
  8
2
 10
4359.5828407204899
 20
2649.3123359245192
 30
0.0
 11
3651.1780292087819
 21
2649.3123359245192
 31
0.0
  0
LINE
  5
803F
  8
1
 10
4335.8598046962079
 20
2487.3123359245192
 30
0.0
 11
3861.738084877788
 21
2487.3123359245192
 31
0.0
  0
LINE
  5
8040
  8
1
 10
3930.3292128675189
 20
2487.3123359245192
 30
0.0
 11
4172.5762528279383
 21
2487.3123359245192
 31
0.0
  0
LINE
  5
8041
  8
1
 10
3732.859804695217
 20
2628.3123359245192
 30
0.0
 11
3842.8598046913462
 21
2628.3123359245178
 31
0.0
  0
LINE
  5
8042
  8
1
 10
3732.859804695217
 20
2670.3123359245178
 30
0.0
 11
3842.8598046913462
 21
2670.3123359245178
 31
0.0
  0
LINE
  5
8043
  8
1
 10
3732.859804695217
 20
2628.3123359245192
 30
0.0
 11
3732.859804695217
 21
2670.3123359245192
 31
0.0
  0
LINE
  5
8044
  8
1
 10
3842.8598046913462
 20
2679.733644870365
 30
0.0
 11
3842.8598046913462
 21
2620.8910269786729
 31
0.0
  0
LINE
  5
8045
  8
1
 10
3842.8598046913462
 20
2679.733644870365
 30
0.0
 11
3850.8598046962088
 21
2679.7336448703641
 31
0.0
  0
LINE
  5
8046
  8
1
 10
3842.8598046913462
 20
2620.8910269786729
 30
0.0
 11
3850.8598046962088
 21
2620.8910269786729
 31
0.0
  0
LINE
  5
8047
  8
1
 10
3861.738084877788
 20
2591.0948869419199
 30
0.0
 11
3850.8598046962088
 21
2591.0948869419199
 31
0.0
  0
LINE
  5
806D
  8
1
 10
4237.4527328477288
 20
2487.3123359245192
 30
0.0
 11
4237.4527328477288
 21
2399.3123359245192
 31
0.0
  0
LINE
  5
806E
  8
1
 10
3865.4527328477279
 20
2487.3123359245192
 30
0.0
 11
3865.4527328477279
 21
2399.3123359245192
 31
0.0
  0
LINE
  5
806F
  8
1
 10
3865.4527328477279
 20
2439.3123359245192
 30
0.0
 11
4237.4527328477288
 21
2439.3123359245192
 31
0.0
  0
LINE
  5
8070
  8
1
 10
4335.8598046962079
 20
2784.3123359245192
 30
0.0
 11
4402.5741014141404
 21
2784.3123359245192
 31
0.0
  0
DIMENSION
  5
8268
  8
3
  2
*D21
 10
2882.3248504510552
 20
1900.4689146419621
 30
0.0
 11
2512.3248504510552
 21
1975.4689146419621
 31
0.0
 70
     0
 13
2142.3248504510552
 23
2108.2543529888981
 33
0.0
 14
2882.3248504510552
 24
2104.3123359245192
 34
0.0
1001
ACAD
1000
DSTYLE
1002
{
1070
   287
1070
     3
1070
    40
1040
30.0
1070
   143
1040
0.039
1070
   172
1070
     1
1070
   271
1070
     0
1070
   279
1070
     0
1002
}
  0
DIMENSION
  5
8275
  8
3
  2
*D22
 10
4770.5741014141404
 20
1877.4141490831059
 30
0.0
 11
4283.0741014141404
 21
1952.4141490831059
 31
0.0
 70
     0
 13
3795.5741014141399
 23
2104.3123359245192
 33
0.0
 14
4770.5741014141404
 24
2104.3123359245192
 34
0.0
1001
ACAD
1000
DSTYLE
1002
{
1070
   287
1070
     3
1070
    40
1040
30.0
1070
   143
1040
0.039
1070
   172
1070
     1
1070
   271
1070
     0
1070
   279
1070
     0
1002
}
  0
DIMENSION
  5
8284
  8
3
  2
*D23
 10
1248.4138665236569
 20
2299.3123359245192
 30
0.0
 11
1104.842437952228
 21
2251.8123359245192
 31
0.0
 70
     0
 13
1692.324850451055
 23
2204.3123359245192
 33
0.0
 14
1692.324850451055
 24
2299.3123359245192
 34
0.0
 50
90.0
1001
ACAD
1000
DSTYLE
1002
{
1070
   172
1070
     1
1070
    40
1040
30.0
1070
     3
1000
(<>)
1070
   271
1070
     0
1070
     7
1000
_OPEN
1070
     6
1000
_DOT
1070
   143
1040
0.039
1002
}
  0
DIMENSION
  5
8291
  8
3
  2
*D24
 10
984.99320093709684
 20
2104.3123359245192
 30
0.0
 11
886.42177236566829
 21
2874.8123359245192
 31
0.0
 70
     0
 13
1642.324850451055
 23
3645.3123359245178
 33
0.0
 14
1692.324850451055
 24
2104.3123359245192
 34
0.0
 50
90.0
1001
ACAD
1000
DSTYLE
1002
{
1070
   172
1070
     1
1070
    40
1040
30.0
1070
     3
1000
(<>)
1070
   271
1070
     0
1070
     7
1000
_OPEN
1070
     6
1000
_OPEN
1070
   143
1040
0.039
1002
}
  0
LINE
  5
8296
  8
1
 10
1972.3248504510559
 20
2784.3123359245201
 30
0.0
 11
2312.3248504510561
 21
2784.3123359245178
 31
0.0
  0
LINE
  5
8298
  8
1
 10
1972.324850451055
 20
2784.3123359245192
 30
0.0
 11
1877.3248504510559
 21
2399.3123359245192
 31
0.0
  0
LINE
  5
8299
  8
1
 10
2312.3248504510552
 20
2784.3123359245192
 30
0.0
 11
2407.3248504510561
 21
2399.3123359245192
 31
0.0
  0
LINE
  5
829A
  8
1
 10
1972.324850451055
 20
5612.6246307899628
 30
0.0
 11
1972.324850451055
 21
5042.6246307899637
 31
0.0
  0
LINE
  5
829B
  8
1
 10
2312.3248504510552
 20
5612.6246307899628
 30
0.0
 11
2312.3248504510552
 21
5042.6246307899637
 31
0.0
  0
DIMENSION
  5
82AE
  8
3
  2
*D25
 10
5290.1991384639441
 20
2489.3123359245201
 30
0.0
 11
5215.1991384639441
 21
2844.3123359245192
 31
0.0
 70
     0
 13
5038.5741014141404
 23
3199.3123359245192
 33
0.0
 14
5038.5741014141404
 24
2489.3123359245201
 34
0.0
 50
90.0
1001
ACAD
1000
DSTYLE
1002
{
1070
   172
1070
     1
1070
    40
1040
30.0
1070
   271
1070
     0
1070
     7
1000
_OPEN
1070
     6
1000
_OPEN
1070
   143
1040
0.039
1002
}
  0
ENDSEC
  0
EOF
