  0
SECTION
  2
HEADER
  9
$ACADVER
  1
AC1009
  9
$INSBASE
 10
0.0
 20
0.0
 30
0.0
  9
$EXTMIN
 10
0.0
 20
0.0
 30
0.0
  9
$EXTMAX
 10
6300.0
 20
8850.0
 30
0.0
  9
$LIMMIN
 10
0.0
 20
0.0
  9
$LIMMAX
 10
297.0
 20
210.0
  9
$ORTHOMODE
 70
     0
  9
$REGENMODE
 70
     1
  9
$FILLMODE
 70
     0
  9
$QTEXTMODE
 70
     0
  9
$MIRRTEXT
 70
     1
  9
$DRAGMODE
 70
     2
  9
$LTSCALE
 40
100.0
  9
$OSMODE
 70
    37
  9
$ATTMODE
 70
     1
  9
$TEXTSIZE
 40
180.0
  9
$TRACEWID
 40
0.05
  9
$TEXTSTYLE
  7
STANDARD
  9
$CLAYER
  8
3
  9
$CELTYPE
  6
BYLAYER
  9
$CECOLOR
 62
   256
  9
$DIMSCALE
 40
30.0
  9
$DIMASZ
 40
2.0
  9
$DIMEXO
 40
0.5
  9
$DIMDLI
 40
10.0
  9
$DIMRND
 40
0.0
  9
$DIMDLE
 40
0.0
  9
$DIMEXE
 40
1.0
  9
$DIMTP
 40
1.0
  9
$DIMTM
 40
1.0
  9
$DIMTXT
 40
3.0
  9
$DIMCEN
 40
0.0
  9
$DIMTSZ
 40
0.0
  9
$DIMTOL
 70
     0
  9
$DIMLIM
 70
     0
  9
$DIMTIH
 70
     0
  9
$DIMTOH
 70
     0
  9
$DIMSE1
 70
     0
  9
$DIMSE2
 70
     0
  9
$DIMTAD
 70
     1
  9
$DIMZIN
 70
     8
  9
$DIMBLK
  1

  9
$DIMASO
 70
     1
  9
$DIMSHO
 70
     1
  9
$DIMPOST
  1

  9
$DIMAPOST
  1

  9
$DIMALT
 70
     0
  9
$DIMALTD
 70
     2
  9
$DIMALTF
 40
0.039
  9
$DIMLFAC
 40
1.0
  9
$DIMTOFL
 70
     1
  9
$DIMTVP
 40
0.0
  9
$DIMTIX
 70
     0
  9
$DIMSOXD
 70
     0
  9
$DIMSAH
 70
     1
  9
$DIMBLK1
  1
OPEN
  9
$DIMBLK2
  1
OPEN
  9
$DIMSTYLE
  2
IGA
  9
$DIMCLRD
 70
     0
  9
$DIMCLRE
 70
     0
  9
$DIMCLRT
 70
     0
  9
$DIMTFAC
 40
10.0
  9
$DIMGAP
 40
1.0
  9
$LUNITS
 70
     2
  9
$LUPREC
 70
     3
  9
$SKETCHINC
 40
0.1
  9
$FILLETRAD
 40
50.0
  9
$AUNITS
 70
     0
  9
$AUPREC
 70
     0
  9
$MENU
  1
acad
  9
$ELEVATION
 40
0.0
  9
$PELEVATION
 40
0.0
  9
$THICKNESS
 40
0.0
  9
$LIMCHECK
 70
     0
  9
$BLIPMODE
 70
     0
  9
$CHAMFERA
 40
0.5
  9
$CHAMFERB
 40
0.5
  9
$SKPOLY
 70
     0
  9
$TDCREATE
 40
2452717.6036704858
  9
$TDUPDATE
 40
2454953.6429870138
  9
$TDINDWG
 40
0.0368374537
  9
$TDUSRTIMER
 40
0.0368374537
  9
$USRTIMER
 70
     1
  9
$ANGBASE
 50
0.0
  9
$ANGDIR
 70
     0
  9
$PDMODE
 70
     0
  9
$PDSIZE
 40
0.0
  9
$PLINEWID
 40
0.0
  9
$COORDS
 70
     1
  9
$SPLFRAME
 70
     0
  9
$SPLINETYPE
 70
     6
  9
$SPLINESEGS
 70
     8
  9
$ATTDIA
 70
     0
  9
$ATTREQ
 70
     1
  9
$HANDLING
 70
 10241
  9
$HANDSEED
  5
836D
  9
$SURFTAB1
 70
     6
  9
$SURFTAB2
 70
     6
  9
$SURFTYPE
 70
     6
  9
$SURFU
 70
     6
  9
$SURFV
 70
     6
  9
$UCSNAME
  2

  9
$UCSORG
 10
0.0
 20
0.0
 30
0.0
  9
$UCSXDIR
 10
1.0
 20
0.0
 30
0.0
  9
$UCSYDIR
 10
0.0
 20
1.0
 30
0.0
  9
$PUCSNAME
  2

  9
$PUCSORG
 10
0.0
 20
0.0
 30
0.0
  9
$PUCSXDIR
 10
1.0
 20
0.0
 30
0.0
  9
$PUCSYDIR
 10
0.0
 20
1.0
 30
0.0
  9
$USERI1
 70
     0
  9
$USERI2
 70
     0
  9
$USERI3
 70
     0
  9
$USERI4
 70
     0
  9
$USERI5
 70
     0
  9
$USERR1
 40
0.0
  9
$USERR2
 40
0.0
  9
$USERR3
 40
0.0
  9
$USERR4
 40
0.0
  9
$USERR5
 40
0.0
  9
$WORLDVIEW
 70
     1
  9
$SHADEDGE
 70
     3
  9
$SHADEDIF
 70
    70
  9
$TILEMODE
 70
     1
  9
$MAXACTVP
 70
    16
  9
$PLIMCHECK
 70
     0
  9
$PEXTMIN
 10
1.0000000000000000E+020
 20
1.0000000000000000E+020
 30
1.0000000000000000E+020
  9
$PEXTMAX
 10
-1.0000000000000000E+020
 20
-1.0000000000000000E+020
 30
-1.0000000000000000E+020
  9
$PLIMMIN
 10
0.0
 20
0.0
  9
$PLIMMAX
 10
12.0
 20
9.0
  9
$UNITMODE
 70
     0
  9
$VISRETAIN
 70
     0
  9
$PLINEGEN
 70
     0
  9
$PSLTSCALE
 70
     1
  0
ENDSEC
  0
SECTION
  2
TABLES
  0
TABLE
  2
VPORT
 70
     2
  0
VPORT
  2
*ACTIVE
 70
     0
 10
0.0
 20
0.0
 11
1.0
 21
1.0
 12
6267.2527112158205
 22
1064.6802984325379
 13
0.0
 23
0.0
 14
10.0
 24
10.0
 15
10.0
 25
10.0
 16
0.0
 26
0.0
 36
1.0
 17
0.0
 27
0.0
 37
0.0
 40
2834.0231299088059
 41
3.1666666666666661
 42
50.0
 43
0.0
 44
0.0
 50
0.0
 51
0.0
 71
     0
 72
   100
 73
     1
 74
     0
 75
     0
 76
     0
 77
     0
 78
     0
  0
ENDTAB
  0
TABLE
  2
LTYPE
 70
     2
  0
LTYPE
  2
CONTINUOUS
 70
     0
  3
Solid line
 72
    65
 73
     0
 40
0.0
  0
LTYPE
  2
CENTER
 70
     0
  3
____ _ ____ _ ____ _ ____ _ ____ _ ____ _ ____ 
 72
    65
 73
     4
 40
2.0
 49
1.25
 49
-0.25
 49
0.25
 49
-0.25
  0
ENDTAB
  0
TABLE
  2
LAYER
 70
     6
  0
LAYER
  2
0
 70
     0
 62
     7
  6
CONTINUOUS
  0
LAYER
  2
3
 70
     0
 62
     2
  6
CONTINUOUS
  0
LAYER
  2
2
 70
     0
 62
     3
  6
CENTER
  0
LAYER
  2
1
 70
     0
 62
     4
  6
CONTINUOUS
  0
LAYER
  2
4
 70
     0
 62
     7
  6
CONTINUOUS
  0
LAYER
  2
DEFPOINTS
 70
     0
 62
     7
  6
CONTINUOUS
  0
ENDTAB
  0
TABLE
  2
STYLE
 70
     1
  0
STYLE
  2
STANDARD
 70
     0
 40
0.0
 41
1.0
 50
0.0
 71
     0
 42
180.0
  3
simplex.shx
  4
extfont.shx
  0
ENDTAB
  0
TABLE
  2
VIEW
 70
     0
  0
ENDTAB
  0
TABLE
  2
UCS
 70
     0
  0
ENDTAB
  0
TABLE
  2
APPID
 70
     1
  0
APPID
  2
ACAD
 70
     0
  0
ENDTAB
  0
TABLE
  2
DIMSTYLE
 70
     1
  0
DIMSTYLE
  2
IGA
 70
     0
  3

  4

  5

  6
OPEN
  7
OPEN
 40
2.0
 41
2.0
 42
0.5
 43
10.0
 44
1.0
 45
0.0
 46
0.0
 47
1.0
 48
1.0
140
3.0
141
0.0
142
0.0
143
0.03937
144
1.0
145
0.0
146
10.0
147
1.0
 71
     0
 72
     0
 73
     0
 74
     0
 75
     0
 76
     0
 77
     1
 78
     8
170
     0
171
     2
172
     0
173
     1
174
     0
175
     0
176
     0
177
     0
178
     0
  0
ENDTAB
  0
ENDSEC
  0
SECTION
  2
BLOCKS
  0
BLOCK
  8
0
  2
$MODEL_SPACE
 70
     0
 10
0.0
 20
0.0
 30
0.0
  3
$MODEL_SPACE
  1

  0
ENDBLK
  5
1B
  8
0
  0
BLOCK
 67
     1
  8
0
  2
$PAPER_SPACE
 70
     0
 10
0.0
 20
0.0
 30
0.0
  3
$PAPER_SPACE
  1

  0
ENDBLK
  5
18
 67
     1
  8
0
  0
BLOCK
  8
0
  2
YA_N
 70
     0
 10
0.0
 20
0.0
 30
0.0
  3
YA_N
  1

  0
ENDBLK
  5
79FE
  8
0
  0
BLOCK
  8
0
  2
_OPEN
 70
     0
 10
0.0
 20
0.0
 30
0.0
  3
_OPEN
  1

  0
LINE
  5
7BE5
  8
0
  6
BYBLOCK
 62
     0
 10
-1.0
 20
0.1666666666666666
 30
0.0
 11
0.0
 21
0.0
 31
0.0
  0
LINE
  5
7BE6
  8
0
  6
BYBLOCK
 62
     0
 10
0.0
 20
0.0
 30
0.0
 11
-1.0
 21
-0.1666666666666666
 31
0.0
  0
LINE
  5
7BE7
  8
0
  6
BYBLOCK
 62
     0
 10
0.0
 20
0.0
 30
0.0
 11
-1.0
 21
0.0
 31
0.0
  0
ENDBLK
  5
7BE8
  8
0
  0
BLOCK
  8
0
  2
*D2
 70
     1
 10
0.0
 20
0.0
 30
0.0
  3
*D2
  1

  0
LINE
  5
82AE
  8
3
 62
     0
 10
948.57047864374908
 20
3359.3123359245192
 30
0.0
 11
948.57047864374908
 21
3586.8417716891208
 31
0.0
  0
LINE
  5
82AF
  8
3
 62
     0
 10
1678.5704786437491
 20
3359.3123359245192
 30
0.0
 11
1678.5704786437491
 21
3586.8417716891208
 31
0.0
  0
LINE
  5
82B0
  8
3
 62
     0
 10
1008.570478643749
 20
3556.8417716891208
 30
0.0
 11
1618.5704786437491
 21
3556.8417716891208
 31
0.0
  0
INSERT
  5
82B1
  8
3
 62
     0
  2
_OPEN
 10
948.57047864374908
 20
3556.8417716891208
 30
0.0
 41
60.0
 42
60.0
 43
60.0
 50
180.0
  0
INSERT
  5
82B2
  8
3
 62
     0
  2
_OPEN
 10
1678.5704786437491
 20
3556.8417716891208
 30
0.0
 41
60.0
 42
60.0
 43
60.0
  0
TEXT
  8
3
  40
90
  5
8359
  62
0
  72
0
  71
0
 10
1111.78
 20
3472.54
 30
0.000000
  1
730
  0
POINT
  5
82B4
  8
DEFPOINTS
 62
     0
 10
948.57047864374908
 20
3344.3123359245192
 30
0.0
  0
POINT
  5
82B5
  8
DEFPOINTS
 62
     0
 10
1678.5704786437491
 20
3344.3123359245192
 30
0.0
  0
POINT
  5
82B6
  8
DEFPOINTS
 62
     0
 10
1678.5704786437491
 20
3556.8417716891208
 30
0.0
  0
ENDBLK
  5
7F35
  8
0
  0
BLOCK
  8
0
  2
*D3
 70
     1
 10
0.0
 20
0.0
 30
0.0
  3
*D3
  1

  0
LINE
  5
82B7
  8
3
 62
     0
 10
948.57047864374908
 20
3359.3123359245192
 30
0.0
 11
948.57047864374908
 21
3767.7445087719102
 31
0.0
  0
LINE
  5
82B8
  8
3
 62
     0
 10
1707.5704786437491
 20
3417.3420195686431
 30
0.0
 11
1707.5704786437491
 21
3767.7445087719102
 31
0.0
  0
LINE
  5
82B9
  8
3
 62
     0
 10
1008.570478643749
 20
3737.7445087719111
 30
0.0
 11
1647.5704786437491
 21
3737.7445087719111
 31
0.0
  0
INSERT
  5
82BA
  8
3
 62
     0
  2
_OPEN
 10
948.57047864374908
 20
3737.7445087719111
 30
0.0
 41
60.0
 42
60.0
 43
60.0
 50
180.0
  0
INSERT
  5
82BB
  8
3
 62
     0
  2
_OPEN
 10
1707.5704786437491
 20
3737.7445087719111
 30
0.0
 41
60.0
 42
60.0
 43
60.0
  0
TEXT
  8
3
  40
90
  5
835A
  62
0
  72
0
  71
0
 10
1159.12
 20
3653.44
 30
0.000000
  1
759
  0
POINT
  5
82BD
  8
DEFPOINTS
 62
     0
 10
948.57047864374908
 20
3344.3123359245192
 30
0.0
  0
POINT
  5
82BE
  8
DEFPOINTS
 62
     0
 10
1707.5704786437491
 20
3402.3420195686431
 30
0.0
  0
POINT
  5
82BF
  8
DEFPOINTS
 62
     0
 10
1707.5704786437491
 20
3737.7445087719111
 30
0.0
  0
ENDBLK
  5
7F40
  8
0
  0
BLOCK
  8
0
  2
*D4
 70
     1
 10
0.0
 20
0.0
 30
0.0
  3
*D4
  1

  0
LINE
  5
82C0
  8
3
 62
     0
 10
2280.600162287873
 20
2844.3123359245192
 30
0.0
 11
2631.0026514911401
 21
2844.3123359245192
 31
0.0
  0
LINE
  5
82C1
  8
3
 62
     0
 10
2172.5704786437482
 20
2204.3123359245192
 30
0.0
 11
2631.0026514911401
 21
2204.3123359245192
 31
0.0
  0
LINE
  5
82C2
  8
3
 62
     0
 10
2601.0026514911401
 20
2784.3123359245192
 30
0.0
 11
2601.0026514911401
 21
2264.3123359245192
 31
0.0
  0
INSERT
  5
82C3
  8
3
 62
     0
  2
_OPEN
 10
2601.0026514911401
 20
2844.3123359245192
 30
0.0
 41
60.0
 42
60.0
 43
60.0
 50
90.0
  0
INSERT
  5
82C4
  8
3
 62
     0
  2
_OPEN
 10
2601.0026514911401
 20
2204.3123359245192
 30
0.0
 41
60.0
 42
60.0
 43
60.0
 50
270.0
  0
TEXT
  8
3
  40
90
  5
835B
  62
0
  72
0
  71
0
 10
2346.00
 20
2365.01
 30
0.000000
  1
640
  0
POINT
  5
82C6
  8
DEFPOINTS
 62
     0
 10
2265.6001622878721
 20
2844.3123359245192
 30
0.0
  0
POINT
  5
82C7
  8
DEFPOINTS
 62
     0
 10
2157.5704786437491
 20
2204.3123359245192
 30
0.0
  0
POINT
  5
82C8
  8
DEFPOINTS
 62
     0
 10
2601.0026514911401
 20
2204.3123359245192
 30
0.0
  0
ENDBLK
  5
7F4B
  8
0
  0
BLOCK
  8
0
  2
*D5
 70
     1
 10
0.0
 20
0.0
 30
0.0
  3
*D5
  1

  0
LINE
  5
7FD1
  8
0
  6
BYBLOCK
 62
     0
 10
2172.5704786437482
 20
2204.3123359245192
 30
0.0
 11
2631.0026514911401
 21
2204.3123359245192
 31
0.0
  0
LINE
  5
7FD2
  8
0
  6
BYBLOCK
 62
     0
 10
2172.5704786437482
 20
2177.3123359245192
 30
0.0
 11
2631.0026514911401
 21
2177.3123359245192
 31
0.0
  0
LINE
  5
7FD3
  8
0
  6
BYBLOCK
 62
     0
 10
2601.0026514911401
 20
2264.3123359245192
 30
0.0
 11
2601.0026514911401
 21
2324.3123359245192
 31
0.0
  0
LINE
  5
7FD4
  8
0
  6
BYBLOCK
 62
     0
 10
2601.0026514911401
 20
2117.3123359245192
 30
0.0
 11
2601.0026514911401
 21
2057.3123359245192
 31
0.0
  0
TEXT
  5
7FD5
  8
3
 62
     0
 10
2774.574080062569
 20
2124.4819836102829
 30
0.0
 40
90.0
  1
(27)
 50
90.0
  0
LINE
  5
7FD6
  8
0
  6
BYBLOCK
 62
     0
 10
2601.0026514911401
 20
2204.3123359245192
 30
0.0
 11
2601.0026514911401
 21
2177.3123359245192
 31
0.0
  0
INSERT
  5
7FD7
  8
0
  6
BYBLOCK
 62
     0
  2
_OPEN
 10
2601.0026514911401
 20
2204.3123359245192
 30
0.0
 41
60.0
 42
60.0
 43
60.0
 50
270.0
  0
INSERT
  5
7FD8
  8
0
  6
BYBLOCK
 62
     0
  2
_DOT
 10
2601.0026514911401
 20
2177.3123359245192
 30
0.0
 41
60.0
 42
60.0
 43
60.0
 50
90.0
  0
POINT
  5
7FD9
  8
DEFPOINTS
  6
BYBLOCK
 62
     0
 10
2157.5704786437491
 20
2204.3123359245192
 30
0.0
  0
POINT
  5
7FDA
  8
DEFPOINTS
  6
BYBLOCK
 62
     0
 10
2157.5704786437491
 20
2177.3123359245192
 30
0.0
  0
POINT
  5
7FDB
  8
DEFPOINTS
  6
BYBLOCK
 62
     0
 10
2601.0026514911401
 20
2177.3123359245192
 30
0.0
  0
ENDBLK
  5
7FDC
  8
0
  0
BLOCK
  8
0
  2
*D6
 70
     1
 10
0.0
 20
0.0
 30
0.0
  3
*D6
  1

  0
LINE
  5
82C9
  8
3
 62
     0
 10
2172.5704786437482
 20
2177.3123359245192
 30
0.0
 11
2631.0026514911401
 21
2177.3123359245192
 31
0.0
  0
LINE
  5
82CA
  8
3
 62
     0
 10
2172.5704786437482
 20
2077.3123359245192
 30
0.0
 11
2631.0026514911401
 21
2077.3123359245192
 31
0.0
  0
LINE
  5
82CB
  8
3
 62
     0
 10
2601.0026514911401
 20
2237.3123359245192
 30
0.0
 11
2601.0026514911401
 21
2297.3123359245192
 31
0.0
  0
LINE
  5
82CC
  8
3
 62
     0
 10
2601.0026514911401
 20
2017.312335924518
 30
0.0
 11
2601.0026514911401
 21
1683.026621638804
 31
0.0
  0
LINE
  5
82CD
  8
3
 62
     0
 10
2601.0026514911401
 20
2177.3123359245192
 30
0.0
 11
2601.0026514911401
 21
2077.3123359245192
 31
0.0
  0
INSERT
  5
82CE
  8
3
 62
     0
  2
_DOT
 10
2601.0026514911401
 20
2177.3123359245192
 30
0.0
 41
60.0
 42
60.0
 43
60.0
 50
270.0
  0
INSERT
  5
82CF
  8
3
 62
     0
  2
_OPEN
 10
2601.0026514911401
 20
2077.3123359245192
 30
0.0
 41
60.0
 42
60.0
 43
60.0
 50
90.0
  0
TEXT
  8
3
  40
90
  5
835C
  62
0
  72
0
  71
0
 10
2346.00
 20
1660.87
 30
0.000000
  1
100
  0
POINT
  5
82D1
  8
DEFPOINTS
 62
     0
 10
2157.5704786437491
 20
2177.3123359245192
 30
0.0
  0
POINT
  5
82D2
  8
DEFPOINTS
 62
     0
 10
2157.5704786437491
 20
2077.3123359245192
 30
0.0
  0
POINT
  5
82D3
  8
DEFPOINTS
 62
     0
 10
2601.0026514911401
 20
2077.3123359245192
 30
0.0
  0
ENDBLK
  5
7FB7
  8
0
  0
BLOCK
  8
0
  2
*D7
 70
     1
 10
0.0
 20
0.0
 30
0.0
  3
*D7
  1

  0
LINE
  5
82D4
  8
3
 62
     0
 10
3795.5741014141399
 20
2062.3123359245192
 30
0.0
 11
3795.5741014141399
 21
1845.795047611995
 31
0.0
  0
LINE
  5
82D5
  8
3
 62
     0
 10
4770.5741014141404
 20
1975.1420078861311
 30
0.0
 11
4770.5741014141404
 21
1845.795047611995
 31
0.0
  0
LINE
  5
82D6
  8
3
 62
     0
 10
3855.5741014141399
 20
1875.795047611995
 30
0.0
 11
4710.5741014141413
 21
1875.795047611995
 31
0.0
  0
INSERT
  5
82D7
  8
3
 62
     0
  2
_OPEN
 10
3795.5741014141399
 20
1875.795047611995
 30
0.0
 41
60.0
 42
60.0
 43
60.0
 50
180.0
  0
INSERT
  5
82D8
  8
3
 62
     0
  2
_OPEN
 10
4770.5741014141404
 20
1875.795047611995
 30
0.0
 41
60.0
 42
60.0
 43
60.0
  0
TEXT
  8
3
  40
90
  5
835D
  62
0
  72
0
  71
0
 10
4051.54
 20
1791.50
 30
0.000000
  1
975
  0
POINT
  5
82DA
  8
DEFPOINTS
 62
     0
 10
3795.5741014141399
 20
2077.3123359245192
 30
0.0
  0
POINT
  5
82DB
  8
DEFPOINTS
 62
     0
 10
4770.5741014141404
 20
1990.1420078861311
 30
0.0
  0
POINT
  5
82DC
  8
DEFPOINTS
 62
     0
 10
4770.5741014141404
 20
1875.795047611995
 30
0.0
  0
ENDBLK
  5
7CF4
  8
0
  0
BLOCK
  8
0
  2
*D8
 70
     1
 10
0.0
 20
0.0
 30
0.0
  3
*D8
  1

  0
LINE
  5
7D0E
  8
0
  6
BYBLOCK
 62
     0
 10
5090.5741014141413
 20
2159.3123359245192
 30
0.0
 11
5090.5741014141413
 21
1942.7950476119941
 31
0.0
  0
LINE
  5
7D0F
  8
0
  6
BYBLOCK
 62
     0
 10
4830.5741014141404
 20
1972.795047611995
 30
0.0
 11
5030.5741014141404
 21
1972.795047611995
 31
0.0
  0
TEXT
  5
7D10
  8
3
 62
     0
 10
4814.8598156998551
 20
2006.124564656667
 30
0.0
 40
90.0
  1
320
  0
INSERT
  5
7D11
  8
0
  6
BYBLOCK
 62
     0
  2
_OPEN
 10
4770.5741014141404
 20
1972.795047611995
 30
0.0
 41
60.0
 42
60.0
 43
60.0
 50
180.0
  0
INSERT
  5
7D12
  8
0
  6
BYBLOCK
 62
     0
  2
_OPEN
 10
5090.5741014141413
 20
1972.795047611995
 30
0.0
 41
60.0
 42
60.0
 43
60.0
  0
POINT
  5
7D13
  8
DEFPOINTS
  6
BYBLOCK
 62
     0
 10
4770.5741014141404
 20
2087.1420078861311
 30
0.0
  0
POINT
  5
7D14
  8
DEFPOINTS
  6
BYBLOCK
 62
     0
 10
5090.5741014141413
 20
2174.3123359245192
 30
0.0
  0
POINT
  5
7D15
  8
DEFPOINTS
  6
BYBLOCK
 62
     0
 10
5090.5741014141413
 20
1972.795047611995
 30
0.0
  0
ENDBLK
  5
7D16
  8
0
  0
BLOCK
  8
0
  2
*D9
 70
     1
 10
0.0
 20
0.0
 30
0.0
  3
*D9
  1

  0
LINE
  5
7DAF
  8
0
  6
BYBLOCK
 62
     0
 10
5038.5741014141404
 20
3660.3123359245192
 30
0.0
 11
5038.5741014141404
 21
3981.61527098939
 31
0.0
  0
LINE
  5
7DB0
  8
0
  6
BYBLOCK
 62
     0
 10
4770.5741014141404
 20
3862.2813391902091
 30
0.0
 11
4770.5741014141404
 21
3981.61527098939
 31
0.0
  0
LINE
  5
7DB1
  8
0
  6
BYBLOCK
 62
     0
 10
4978.5741014141413
 20
3951.61527098939
 30
0.0
 11
4830.5741014141404
 21
3951.61527098939
 31
0.0
  0
TEXT
  5
7DB2
  8
3
 62
     0
 10
4795.4338984993155
 20
3990.3456629039679
 30
0.0
 40
90.0
  1
268
  0
INSERT
  5
7DB3
  8
0
  6
BYBLOCK
 62
     0
  2
_OPEN
 10
5038.5741014141404
 20
3951.61527098939
 30
0.0
 41
60.0
 42
60.0
 43
60.0
  0
INSERT
  5
7DB4
  8
0
  6
BYBLOCK
 62
     0
  2
_OPEN
 10
4770.5741014141404
 20
3951.61527098939
 30
0.0
 41
60.0
 42
60.0
 43
60.0
 50
180.0
  0
POINT
  5
7DB5
  8
DEFPOINTS
  6
BYBLOCK
 62
     0
 10
5038.5741014141404
 20
3645.3123359245178
 30
0.0
  0
POINT
  5
7DB6
  8
DEFPOINTS
  6
BYBLOCK
 62
     0
 10
4770.5741014141404
 20
3847.28133919021
 30
0.0
  0
POINT
  5
7DB7
  8
DEFPOINTS
  6
BYBLOCK
 62
     0
 10
4770.5741014141404
 20
3951.61527098939
 30
0.0
  0
ENDBLK
  5
7DB8
  8
0
  0
BLOCK
  8
0
  2
*D10
 70
     1
 10
0.0
 20
0.0
 30
0.0
  3
*D10
  1

  0
LINE
  5
82DD
  8
3
 62
     0
 10
3625.0741014141399
 20
3079.3123359245192
 30
0.0
 11
3625.0741014141399
 21
3680.61527098939
 31
0.0
  0
LINE
  5
82DE
  8
3
 62
     0
 10
4710.5741014141413
 20
3650.61527098939
 30
0.0
 11
3685.0741014141399
 21
3650.61527098939
 31
0.0
  0
INSERT
  5
82DF
  8
3
 62
     0
  2
_OPEN
 10
4770.5741014141404
 20
3650.61527098939
 30
0.0
 41
60.0
 42
60.0
 43
60.0
  0
INSERT
  5
82E0
  8
3
 62
     0
  2
_OPEN
 10
3625.0741014141399
 20
3650.61527098939
 30
0.0
 41
60.0
 42
60.0
 43
60.0
 50
180.0
  0
TEXT
  8
3
  40
90
  5
835E
  62
0
  72
0
  71
0
 10
4017.82
 20
3641.32
 30
0.000000
  1
MAX
  0
TEXT
  8
3
  40
90
  5
835F
  62
0
  72
0
  71
0
 10
4017.82
 20
3524.32
 30
0.000000
  1
1160
  0
POINT
  5
82E2
  8
DEFPOINTS
 62
     0
 10
4770.5741014141404
 20
3546.2813391902091
 30
0.0
  0
POINT
  5
82E3
  8
DEFPOINTS
 62
     0
 10
3625.0741014141399
 20
3064.3123359245192
 30
0.0
  0
POINT
  5
82E4
  8
DEFPOINTS
 62
     0
 10
3625.0741014141399
 20
3650.61527098939
 30
0.0
  0
ENDBLK
  5
7F78
  8
0
  0
BLOCK
  8
0
  2
*D11
 70
     1
 10
0.0
 20
0.0
 30
0.0
  3
*D11
  1

  0
LINE
  5
82E5
  8
3
 62
     0
 10
4505.5741014141404
 20
3359.3123359245192
 30
0.0
 11
4505.5741014141404
 21
3465.7991624136589
 31
0.0
  0
LINE
  5
82E6
  8
3
 62
     0
 10
5035.5741014141413
 20
3359.3123359245192
 30
0.0
 11
5035.5741014141413
 21
3465.7991624136589
 31
0.0
  0
LINE
  5
82E7
  8
3
 62
     0
 10
4565.5741014141404
 20
3435.799162413658
 30
0.0
 11
4975.5741014141413
 21
3435.799162413658
 31
0.0
  0
INSERT
  5
82E8
  8
3
 62
     0
  2
_OPEN
 10
4505.5741014141404
 20
3435.799162413658
 30
0.0
 41
60.0
 42
60.0
 43
60.0
 50
180.0
  0
INSERT
  5
82E9
  8
3
 62
     0
  2
_OPEN
 10
5035.5741014141413
 20
3435.799162413658
 30
0.0
 41
60.0
 42
60.0
 43
60.0
  0
TEXT
  8
3
  40
90
  5
8360
  62
0
  72
0
  71
0
 10
4589.70
 20
3351.50
 30
0.000000
  1
530
  0
POINT
  5
82EB
  8
DEFPOINTS
 62
     0
 10
4505.5741014141404
 20
3344.3123359245178
 30
0.0
  0
POINT
  5
82EC
  8
DEFPOINTS
 62
     0
 10
5035.5741014141413
 20
3344.3123359245178
 30
0.0
  0
POINT
  5
82ED
  8
DEFPOINTS
 62
     0
 10
5035.5741014141413
 20
3435.799162413658
 30
0.0
  0
ENDBLK
  5
7DA3
  8
0
  0
BLOCK
  8
0
  2
*D12
 70
     1
 10
0.0
 20
0.0
 30
0.0
  3
*D12
  1

  0
LINE
  5
82EE
  8
3
 62
     0
 10
2157.5704786437491
 20
6313.6246307899637
 30
0.0
 11
2157.5704786437491
 21
6495.0181677225701
 31
0.0
  0
LINE
  5
82EF
  8
3
 62
     0
 10
1257.5704786437491
 20
6313.6246307899637
 30
0.0
 11
1257.5704786437491
 21
6495.0181677225701
 31
0.0
  0
LINE
  5
82F0
  8
3
 62
     0
 10
2097.5704786437491
 20
6465.0181677225701
 30
0.0
 11
1317.5704786437491
 21
6465.0181677225701
 31
0.0
  0
INSERT
  5
82F1
  8
3
 62
     0
  2
_OPEN
 10
2157.5704786437491
 20
6465.0181677225701
 30
0.0
 41
60.0
 42
60.0
 43
60.0
  0
INSERT
  5
82F2
  8
3
 62
     0
  2
_OPEN
 10
1257.5704786437491
 20
6465.0181677225701
 30
0.0
 41
60.0
 42
60.0
 43
60.0
 50
180.0
  0
TEXT
  8
3
  40
90
  5
8361
  62
0
  72
0
  71
0
 10
1528.34
 20
6380.72
 30
0.000000
  1
900
  0
POINT
  5
82F4
  8
DEFPOINTS
 62
     0
 10
2157.5704786437491
 20
6298.6246307899637
 30
0.0
  0
POINT
  5
82F5
  8
DEFPOINTS
 62
     0
 10
1257.5704786437491
 20
6298.6246307899637
 30
0.0
  0
POINT
  5
82F6
  8
DEFPOINTS
 62
     0
 10
1257.5704786437491
 20
6465.0181677225701
 30
0.0
  0
ENDBLK
  5
7DC5
  8
0
  0
BLOCK
  8
0
  2
*D13
 70
     1
 10
0.0
 20
0.0
 30
0.0
  3
*D13
  1

  0
LINE
  5
7E28
  8
0
  6
BYBLOCK
 62
     0
 10
1386.8514140573679
 20
5723.6246307899637
 30
0.0
 11
1386.8514140573679
 21
6495.0181677225701
 31
0.0
  0
LINE
  5
7E29
  8
0
  6
BYBLOCK
 62
     0
 10
1616.8514140573679
 20
6465.0181677225701
 30
0.0
 11
1446.8514140573679
 21
6465.0181677225701
 31
0.0
  0
TEXT
  5
7E2A
  8
3
 62
     0
 10
1416.1371283430819
 20
6504.1976473153272
 30
0.0
 40
90.0
  1
290
  0
INSERT
  5
7E2B
  8
0
  6
BYBLOCK
 62
     0
  2
_OPEN
 10
1676.8514140573679
 20
6465.0181677225701
 30
0.0
 41
60.0
 42
60.0
 43
60.0
  0
INSERT
  5
7E2C
  8
0
  6
BYBLOCK
 62
     0
  2
_OPEN
 10
1386.8514140573679
 20
6465.0181677225701
 30
0.0
 41
60.0
 42
60.0
 43
60.0
 50
180.0
  0
POINT
  5
7E2D
  8
DEFPOINTS
  6
BYBLOCK
 62
     0
 10
1676.8514140573679
 20
6298.6246307899637
 30
0.0
  0
POINT
  5
7E2E
  8
DEFPOINTS
  6
BYBLOCK
 62
     0
 10
1386.8514140573679
 20
5708.6246307899628
 30
0.0
  0
POINT
  5
7E2F
  8
DEFPOINTS
  6
BYBLOCK
 62
     0
 10
1386.8514140573679
 20
6465.0181677225701
 30
0.0
  0
ENDBLK
  5
7E30
  8
0
  0
BLOCK
  8
0
  2
*D14
 70
     1
 10
0.0
 20
0.0
 30
0.0
  3
*D14
  1

  0
LINE
  5
82F7
  8
3
 62
     0
 10
952.57047864374897
 20
5708.6246307899628
 30
0.0
 11
819.00243646307808
 21
5708.6246307899628
 31
0.0
  0
LINE
  5
82F8
  8
3
 62
     0
 10
952.57047864374897
 20
5003.6246307899637
 30
0.0
 11
819.00243646307786
 21
5003.6246307899637
 31
0.0
  0
LINE
  5
82F9
  8
3
 62
     0
 10
849.00243646307797
 20
5648.6246307899637
 30
0.0
 11
849.00243646307797
 21
5063.6246307899637
 31
0.0
  0
INSERT
  5
82FA
  8
3
 62
     0
  2
_OPEN
 10
849.00243646307797
 20
5708.6246307899628
 30
0.0
 41
60.0
 42
60.0
 43
60.0
 50
90.0
  0
INSERT
  5
82FB
  8
3
 62
     0
  2
_OPEN
 10
849.00243646307797
 20
5003.6246307899637
 30
0.0
 41
60.0
 42
60.0
 43
60.0
 50
270.0
  0
TEXT
  8
3
  40
90
  5
8362
  62
0
  72
0
  71
0
 10
594.002
 20
5149.65
 30
0.000000
  1
705
  0
POINT
  5
82FD
  8
DEFPOINTS
 62
     0
 10
967.57047864374897
 20
5708.6246307899628
 30
0.0
  0
POINT
  5
82FE
  8
DEFPOINTS
 62
     0
 10
967.57047864374897
 20
5003.6246307899637
 30
0.0
  0
POINT
  5
82FF
  8
DEFPOINTS
 62
     0
 10
849.00243646307797
 20
5003.6246307899637
 30
0.0
  0
ENDBLK
  5
7E26
  8
0
  0
BLOCK
  8
0
  2
*D15
 70
     1
 10
0.0
 20
0.0
 30
0.0
  3
*D15
  1

  0
LINE
  5
8300
  8
3
 62
     0
 10
1972.5704786437479
 20
4988.6246307899628
 30
0.0
 11
1972.5704786437479
 21
4599.9055830525167
 31
0.0
  0
LINE
  5
8301
  8
3
 62
     0
 10
967.57047864374897
 20
4988.6246307899628
 30
0.0
 11
967.57047864374897
 21
4599.9055830525167
 31
0.0
  0
LINE
  5
8302
  8
3
 62
     0
 10
1912.5704786437491
 20
4629.9055830525176
 30
0.0
 11
1027.5704786437491
 21
4629.9055830525176
 31
0.0
  0
INSERT
  5
8303
  8
3
 62
     0
  2
_OPEN
 10
1972.5704786437479
 20
4629.9055830525176
 30
0.0
 41
60.0
 42
60.0
 43
60.0
  0
INSERT
  5
8304
  8
3
 62
     0
  2
_OPEN
 10
967.57047864374897
 20
4629.9055830525176
 30
0.0
 41
60.0
 42
60.0
 43
60.0
 50
180.0
  0
TEXT
  8
3
  40
90
  5
8363
  62
0
  72
0
  71
0
 10
1292.45
 20
4545.61
 30
0.000000
  1
1005
  0
POINT
  5
8306
  8
DEFPOINTS
 62
     0
 10
1972.5704786437479
 20
5003.6246307899637
 30
0.0
  0
POINT
  5
8307
  8
DEFPOINTS
 62
     0
 10
967.57047864374897
 20
5003.6246307899637
 30
0.0
  0
POINT
  5
8308
  8
DEFPOINTS
 62
     0
 10
967.57047864374897
 20
4629.9055830525176
 30
0.0
  0
ENDBLK
  5
7E01
  8
0
  0
BLOCK
  8
0
  2
*D16
 70
     1
 10
0.0
 20
0.0
 30
0.0
  3
*D16
  1

  0
LINE
  5
8309
  8
3
 62
     0
 10
1987.5704786437491
 20
5003.6246307899637
 30
0.0
 11
2490.9666865349968
 21
5003.6246307899628
 31
0.0
  0
LINE
  5
830A
  8
3
 62
     0
 10
2172.5704786437482
 20
5658.6246307899628
 30
0.0
 11
2490.9666865349982
 21
5658.6246307899628
 31
0.0
  0
LINE
  5
830B
  8
3
 62
     0
 10
2460.9666865349982
 20
5063.6246307899628
 30
0.0
 11
2460.9666865349982
 21
5598.6246307899637
 31
0.0
  0
INSERT
  5
830C
  8
3
 62
     0
  2
_OPEN
 10
2460.9666865349982
 20
5003.6246307899628
 30
0.0
 41
60.0
 42
60.0
 43
60.0
 50
270.0
  0
INSERT
  5
830D
  8
3
 62
     0
  2
_OPEN
 10
2460.9666865349982
 20
5658.6246307899628
 30
0.0
 41
60.0
 42
60.0
 43
60.0
 50
90.0
  0
TEXT
  8
3
  40
90
  5
8364
  62
0
  72
0
  71
0
 10
2205.97
 20
5149.65
 30
0.000000
  1
655
  0
POINT
  5
830F
  8
DEFPOINTS
 62
     0
 10
1972.5704786437479
 20
5003.6246307899637
 30
0.0
  0
POINT
  5
8310
  8
DEFPOINTS
 62
     0
 10
2157.5704786437491
 20
5658.6246307899628
 30
0.0
  0
POINT
  5
8311
  8
DEFPOINTS
 62
     0
 10
2460.9666865349982
 20
5658.6246307899628
 30
0.0
  0
ENDBLK
  5
7E3B
  8
0
  0
BLOCK
  8
0
  2
*D17
 70
     1
 10
0.0
 20
0.0
 30
0.0
  3
*D17
  1

  0
LINE
  5
8312
  8
3
 62
     0
 10
2172.5704786437482
 20
6298.6246307899637
 30
0.0
 11
2490.9666865349968
 21
6298.6246307899637
 31
0.0
  0
LINE
  5
8313
  8
3
 62
     0
 10
2460.9666865349968
 20
5718.6246307899637
 30
0.0
 11
2460.9666865349968
 21
6238.6246307899628
 31
0.0
  0
INSERT
  5
8314
  8
3
 62
     0
  2
_OPEN
 10
2460.9666865349968
 20
5658.6246307899628
 30
0.0
 41
60.0
 42
60.0
 43
60.0
 50
270.0
  0
INSERT
  5
8315
  8
3
 62
     0
  2
_OPEN
 10
2460.9666865349968
 20
6298.6246307899637
 30
0.0
 41
60.0
 42
60.0
 43
60.0
 50
90.0
  0
TEXT
  8
3
  40
90
  5
8365
  62
0
  72
0
  71
0
 10
2205.97
 20
5819.32
 30
0.000000
  1
640
  0
POINT
  5
8317
  8
DEFPOINTS
 62
     0
 10
2157.5704786437491
 20
5658.6246307899628
 30
0.0
  0
POINT
  5
8318
  8
DEFPOINTS
 62
     0
 10
2157.5704786437491
 20
6298.6246307899637
 30
0.0
  0
POINT
  5
8319
  8
DEFPOINTS
 62
     0
 10
2460.9666865349968
 20
6298.6246307899637
 30
0.0
  0
ENDBLK
  5
7E45
  8
0
  0
BLOCK
  8
0
  2
*D18
 70
     1
 10
0.0
 20
0.0
 30
0.0
  3
*D18
  1

  0
LINE
  5
831A
  8
3
 62
     0
 10
967.57047864374897
 20
2062.3123359245192
 30
0.0
 11
967.57047864374897
 21
1840.8821347352241
 31
0.0
  0
LINE
  5
831B
  8
3
 62
     0
 10
1707.5704786437491
 20
2062.3123359245192
 30
0.0
 11
1707.5704786437491
 21
1840.8821347352241
 31
0.0
  0
LINE
  5
831C
  8
3
 62
     0
 10
1027.5704786437491
 20
1870.8821347352241
 30
0.0
 11
1647.5704786437491
 21
1870.8821347352241
 31
0.0
  0
INSERT
  5
831D
  8
3
 62
     0
  2
_OPEN
 10
967.57047864374897
 20
1870.8821347352241
 30
0.0
 41
60.0
 42
60.0
 43
60.0
 50
180.0
  0
INSERT
  5
831E
  8
3
 62
     0
  2
_OPEN
 10
1707.5704786437491
 20
1870.8821347352241
 30
0.0
 41
60.0
 42
60.0
 43
60.0
  0
TEXT
  8
3
  40
90
  5
8366
  62
0
  72
0
  71
0
 10
1157.74
 20
1786.58
 30
0.000000
  1
740
  0
POINT
  5
8320
  8
DEFPOINTS
 62
     0
 10
967.57047864374897
 20
2077.3123359245192
 30
0.0
  0
POINT
  5
8321
  8
DEFPOINTS
 62
     0
 10
1707.5704786437491
 20
2077.3123359245192
 30
0.0
  0
POINT
  5
8322
  8
DEFPOINTS
 62
     0
 10
1707.5704786437491
 20
1870.8821347352241
 30
0.0
  0
ENDBLK
  5
7E6B
  8
0
  0
BLOCK
  8
0
  2
*D19
 70
     1
 10
0.0
 20
0.0
 30
0.0
  3
*D19
  1

  0
LINE
  5
8323
  8
3
 62
     0
 10
2157.5704786437491
 20
2062.3123359245192
 30
0.0
 11
2157.5704786437491
 21
1840.8821347352241
 31
0.0
  0
LINE
  5
8324
  8
3
 62
     0
 10
1767.5704786437491
 20
1870.8821347352241
 30
0.0
 11
2097.5704786437491
 21
1870.8821347352241
 31
0.0
  0
INSERT
  5
8325
  8
3
 62
     0
  2
_OPEN
 10
1707.5704786437491
 20
1870.8821347352241
 30
0.0
 41
60.0
 42
60.0
 43
60.0
 50
180.0
  0
INSERT
  5
8326
  8
3
 62
     0
  2
_OPEN
 10
2157.5704786437491
 20
1870.8821347352241
 30
0.0
 41
60.0
 42
60.0
 43
60.0
  0
TEXT
  8
3
  40
90
  5
8367
  62
0
  72
0
  71
0
 10
1752.57
 20
1786.58
 30
0.000000
  1
450
  0
POINT
  5
8328
  8
DEFPOINTS
 62
     0
 10
1707.5704786437491
 20
2077.3123359245192
 30
0.0
  0
POINT
  5
8329
  8
DEFPOINTS
 62
     0
 10
2157.5704786437491
 20
2077.3123359245192
 30
0.0
  0
POINT
  5
832A
  8
DEFPOINTS
 62
     0
 10
2157.5704786437491
 20
1870.8821347352241
 30
0.0
  0
ENDBLK
  5
7E77
  8
0
  0
BLOCK
  8
0
  2
_DOT
 70
     0
 10
0.0
 20
0.0
 30
0.0
  3
_DOT
  1

  0
LINE
  5
7FDD
  8
0
  6
BYBLOCK
 62
     0
 10
0.0
 20
0.0
 30
0.0
 11
-1.0
 21
-0.0000000000000284
 31
0.0
  0
POLYLINE
  5
7FDE
  8
0
  6
BYBLOCK
 62
     0
 66
     1
 10
0.0
 20
0.0
 30
0.0
 70
     1
 40
0.1666666666666666
 41
0.1666666666666666
  0
VERTEX
  5
834D
  8
0
  6
BYBLOCK
 62
     0
 10
-0.0833333333333286
 20
-0.0000000000000284
 30
0.0
 42
1.0
  0
VERTEX
  5
834E
  8
0
  6
BYBLOCK
 62
     0
 10
0.0833333333333286
 20
-0.0000000000000284
 30
0.0
 42
1.0
  0
SEQEND
  5
834F
  8
0
  6
BYBLOCK
 62
     0
  0
ENDBLK
  5
7EEA
  8
0
  0
BLOCK
  8
0
  2
*D21
 70
     1
 10
0.0
 20
0.0
 30
0.0
  3
*D21
  1

  0
LINE
  5
832B
  8
3
 62
     0
 10
1722.5704786437479
 20
3344.3123359245192
 30
0.0
 11
2631.0026514911401
 21
3344.3123359245192
 31
0.0
  0
LINE
  5
832C
  8
3
 62
     0
 10
2601.0026514911401
 20
2904.3123359245192
 30
0.0
 11
2601.0026514911401
 21
3284.3123359245192
 31
0.0
  0
INSERT
  5
832D
  8
3
 62
     0
  2
_OPEN
 10
2601.0026514911401
 20
2844.3123359245192
 30
0.0
 41
60.0
 42
60.0
 43
60.0
 50
270.0
  0
INSERT
  5
832E
  8
3
 62
     0
  2
_OPEN
 10
2601.0026514911401
 20
3344.3123359245192
 30
0.0
 41
60.0
 42
60.0
 43
60.0
 50
90.0
  0
TEXT
  8
3
  40
90
  5
8368
  62
0
  72
0
  71
0
 10
2346.00
 20
2935.01
 30
0.000000
  1
500
  0
POINT
  5
8330
  8
DEFPOINTS
 62
     0
 10
2265.6001622878721
 20
2844.3123359245192
 30
0.0
  0
POINT
  5
8331
  8
DEFPOINTS
 62
     0
 10
1707.5704786437491
 20
3344.3123359245192
 30
0.0
  0
POINT
  5
8332
  8
DEFPOINTS
 62
     0
 10
2601.0026514911401
 20
3344.3123359245192
 30
0.0
  0
ENDBLK
  5
7F61
  8
0
  0
BLOCK
  8
0
  2
*D22
 70
     1
 10
0.0
 20
0.0
 30
0.0
  3
*D22
  1

  0
LINE
  5
8333
  8
3
 62
     0
 10
2213.5704786437482
 20
2806.3123359245192
 30
0.0
 11
2213.5704786437482
 21
3767.7445087719102
 31
0.0
  0
LINE
  5
8334
  8
3
 62
     0
 10
1767.5704786437491
 20
3737.7445087719111
 30
0.0
 11
2153.5704786437491
 21
3737.7445087719111
 31
0.0
  0
INSERT
  5
8335
  8
3
 62
     0
  2
_OPEN
 10
1707.5704786437491
 20
3737.7445087719111
 30
0.0
 41
60.0
 42
60.0
 43
60.0
 50
180.0
  0
INSERT
  5
8336
  8
3
 62
     0
  2
_OPEN
 10
2213.5704786437482
 20
3737.7445087719111
 30
0.0
 41
60.0
 42
60.0
 43
60.0
  0
TEXT
  8
3
  40
90
  5
8369
  62
0
  72
0
  71
0
 10
1780.57
 20
3653.44
 30
0.000000
  1
506
  0
POINT
  5
8338
  8
DEFPOINTS
 62
     0
 10
1707.5704786437491
 20
3402.3420195686431
 30
0.0
  0
POINT
  5
8339
  8
DEFPOINTS
 62
     0
 10
2213.5704786437482
 20
2791.3123359245192
 30
0.0
  0
POINT
  5
833A
  8
DEFPOINTS
 62
     0
 10
2213.5704786437482
 20
3737.7445087719111
 30
0.0
  0
ENDBLK
  5
7F6C
  8
0
  0
BLOCK
  8
0
  2
*D23
 70
     1
 10
0.0
 20
0.0
 30
0.0
  3
*D23
  1

  0
LINE
  5
833B
  8
3
 62
     0
 10
906.57047864374908
 20
3359.3123359245192
 30
0.0
 11
906.57047864374908
 21
3954.4333985372718
 31
0.0
  0
LINE
  5
833C
  8
3
 62
     0
 10
2213.5704786437482
 20
2806.3123359245192
 30
0.0
 11
2213.5704786437482
 21
3954.4333985372718
 31
0.0
  0
LINE
  5
833D
  8
3
 62
     0
 10
966.57047864374897
 20
3924.4333985372732
 30
0.0
 11
2153.5704786437491
 21
3924.4333985372732
 31
0.0
  0
INSERT
  5
833E
  8
3
 62
     0
  2
_OPEN
 10
906.57047864374908
 20
3924.4333985372732
 30
0.0
 41
60.0
 42
60.0
 43
60.0
 50
180.0
  0
INSERT
  5
833F
  8
3
 62
     0
  2
_OPEN
 10
2213.5704786437482
 20
3924.4333985372732
 30
0.0
 41
60.0
 42
60.0
 43
60.0
  0
TEXT
  8
3
  40
90
  5
836A
  62
0
  72
0
  71
0
 10
1457.65
 20
3840.13
 30
0.000000
  1
1307
  0
POINT
  5
8341
  8
DEFPOINTS
 62
     0
 10
906.57047864374908
 20
3344.3123359245192
 30
0.0
  0
POINT
  5
8342
  8
DEFPOINTS
 62
     0
 10
2213.5704786437482
 20
2791.3123359245192
 30
0.0
  0
POINT
  5
8343
  8
DEFPOINTS
 62
     0
 10
2213.5704786437482
 20
3924.4333985372732
 30
0.0
  0
ENDBLK
  5
7F92
  8
0
  0
BLOCK
  8
0
  2
*D24
 70
     1
 10
0.0
 20
0.0
 30
0.0
  3
*D24
  1

  0
LINE
  5
8344
  8
3
 62
     0
 10
1735.5704786437491
 20
3344.3123359245192
 30
0.0
 11
2920.3264596387821
 21
3344.3123359245192
 31
0.0
  0
LINE
  5
8345
  8
3
 62
     0
 10
2172.5704786437482
 20
2077.3123359245192
 30
0.0
 11
2920.3264596387821
 21
2077.3123359245192
 31
0.0
  0
LINE
  5
8346
  8
3
 62
     0
 10
2890.3264596387821
 20
3284.3123359245192
 30
0.0
 11
2890.3264596387821
 21
2137.3123359245192
 31
0.0
  0
INSERT
  5
8347
  8
3
 62
     0
  2
_OPEN
 10
2890.3264596387821
 20
3344.3123359245192
 30
0.0
 41
60.0
 42
60.0
 43
60.0
 50
90.0
  0
INSERT
  5
8348
  8
3
 62
     0
  2
_OPEN
 10
2890.3264596387821
 20
2077.3123359245192
 30
0.0
 41
60.0
 42
60.0
 43
60.0
 50
270.0
  0
TEXT
  8
3
  40
90
  5
836B
  62
0
  72
0
  71
0
 10
2635.33
 20
2456.34
 30
0.000000
  1
1267
  0
POINT
  5
834A
  8
DEFPOINTS
 62
     0
 10
1720.5704786437491
 20
3344.3123359245192
 30
0.0
  0
POINT
  5
834B
  8
DEFPOINTS
 62
     0
 10
2157.5704786437491
 20
2077.3123359245192
 30
0.0
  0
POINT
  5
834C
  8
DEFPOINTS
 62
     0
 10
2890.3264596387821
 20
2077.3123359245192
 30
0.0
  0
ENDBLK
  5
7FC2
  8
0
  0
BLOCK
  8
0
  2
*D25
 70
     1
 10
0.0
 20
0.0
 30
0.0
  3
*D25
  1

  0
LINE
  5
8350
  8
3
 62
     0
 10
5053.5741014141413
 20
3199.3123359245192
 30
0.0
 11
5294.8717706620118
 21
3199.3123359245178
 31
0.0
  0
LINE
  5
8351
  8
3
 62
     0
 10
5053.5741014141413
 20
2489.3123359245192
 30
0.0
 11
5294.8717706620118
 21
2489.3123359245178
 31
0.0
  0
LINE
  5
8352
  8
3
 62
     0
 10
5264.8717706620118
 20
3139.3123359245178
 30
0.0
 11
5264.8717706620118
 21
2549.3123359245178
 31
0.0
  0
INSERT
  5
8353
  8
3
 62
     0
  2
_OPEN
 10
5264.8717706620118
 20
3199.3123359245178
 30
0.0
 41
60.0
 42
60.0
 43
60.0
 50
90.0
  0
INSERT
  5
8354
  8
3
 62
     0
  2
_OPEN
 10
5264.8717706620118
 20
2489.3123359245178
 30
0.0
 41
60.0
 42
60.0
 43
60.0
 50
270.0
  0
TEXT
  8
3
  40
90
  5
836C
  62
0
  72
0
  71
0
 10
5009.87
 20
2685.43
 30
0.000000
  1
710
  0
POINT
  5
8356
  8
DEFPOINTS
 62
     0
 10
5038.5741014141404
 20
3199.3123359245192
 30
0.0
  0
POINT
  5
8357
  8
DEFPOINTS
 62
     0
 10
5038.5741014141404
 20
2489.3123359245192
 30
0.0
  0
POINT
  5
8358
  8
DEFPOINTS
 62
     0
 10
5264.8717706620118
 20
2489.3123359245178
 30
0.0
  0
ENDBLK
  5
829A
  8
0
  0
ENDSEC
  0
SECTION
  2
ENTITIES
  0
INSERT
  5
7AF9
  8
0
  2
YA_N
 10
2375.7491199319738
 20
5.0
 30
0.0
  0
LINE
  5
7AFB
  8
2
 10
2265.6001622878721
 20
2844.3123359245192
 30
0.0
 11
1031.0697758807471
 21
2844.3123359245192
 31
0.0
  0
ARC
  5
7AFC
  8
1
 10
1654.5704786437491
 20
2897.3123359245192
 30
0.0
 40
665.0
 50
184.57127872353411
 51
200.2948413172065
  0
ARC
  5
7AFE
  8
1
 10
1749.5704786437491
 20
2802.3123359245192
 30
0.0
 40
464.0
 50
5.1933642973921401
 51
95.193364297392193
  0
LINE
  5
7AFF
  8
1
 10
906.57047864374908
 20
3344.3123359245192
 30
0.0
 11
1720.5704786437491
 21
3344.3123359245192
 31
0.0
  0
LINE
  5
7B00
  8
1
 10
1678.5704786437491
 20
3344.3123359245192
 30
0.0
 11
1678.5704786437491
 21
3265.3147112147308
 31
0.0
  0
LINE
  5
7B01
  8
1
 10
991.68587330131049
 20
2844.3123359245192
 30
0.0
 11
948.57047864374908
 21
3344.3123359245192
 31
0.0
  0
LINE
  5
7B02
  8
1
 10
906.57047864374908
 20
3344.3123359245192
 30
0.0
 11
906.57047864374908
 21
3304.3123359245192
 31
0.0
  0
LINE
  5
7B03
  8
1
 10
1720.5704786437491
 20
3344.3123359245192
 30
0.0
 11
1720.5704786437491
 21
3304.3123359245192
 31
0.0
  0
LINE
  5
7B04
  8
1
 10
906.57047864374908
 20
3304.3123359245192
 30
0.0
 11
1720.5704786437491
 21
3304.3123359245192
 31
0.0
  0
LINE
  5
7B05
  8
1
 10
906.57047864374908
 20
3341.3123359245192
 30
0.0
 11
1720.5704786437491
 21
3341.3123359245192
 31
0.0
  0
LINE
  5
7B06
  8
1
 10
2157.5704786437491
 20
2304.3123359245192
 30
0.0
 11
2157.5704786437491
 21
2204.3123359245192
 31
0.0
  0
LINE
  5
7B07
  8
1
 10
2157.5704786437491
 20
2304.3123359245192
 30
0.0
 11
947.57047864374908
 21
2304.3123359245192
 31
0.0
  0
LINE
  5
7B08
  8
1
 10
2157.5704786437491
 20
2204.3123359245192
 30
0.0
 11
967.57047864374897
 21
2204.3123359245192
 31
0.0
1001
ACAD
1000
ASC_BOUNDS
1002
{
1070
    19
1002
}
  0
LINE
  5
7B09
  8
1
 10
947.57047864374908
 20
2344.3123359245192
 30
0.0
 11
947.57047864374908
 21
2304.3123359245192
 31
0.0
  0
LINE
  5
7B0A
  8
2
 10
1707.5704786437491
 20
2077.3123359245192
 30
0.0
 11
1707.5704786437491
 21
3369.8928582416552
 31
0.0
  0
LINE
  5
7B0B
  8
1
 10
1347.5704786437491
 20
2344.3123359245192
 30
0.0
 11
947.57047864374908
 21
2344.3123359245192
 31
0.0
  0
LINE
  5
7B0C
  8
1
 10
1347.5704786437491
 20
2304.3123359245192
 30
0.0
 11
1347.5704786437491
 21
2344.3123359245192
 31
0.0
  0
LINE
  5
7B0D
  8
1
 10
2157.5704786437491
 20
2177.3123359245192
 30
0.0
 11
967.57047864374897
 21
2177.3123359245192
 31
0.0
1001
ACAD
1000
ASC_BOUNDS
1002
{
1070
    19
1002
}
  0
LINE
  5
7B0E
  8
1
 10
2157.5704786437491
 20
2177.3123359245192
 30
0.0
 11
2157.5704786437491
 21
2077.3123359245192
 31
0.0
  0
LINE
  5
7B0F
  8
1
 10
967.57047864374897
 20
2177.3123359245192
 30
0.0
 11
967.57047864374897
 21
2077.3123359245192
 31
0.0
  0
LINE
  5
7B10
  8
2
 10
4770.5741014141404
 20
1990.1420078861311
 30
0.0
 11
4770.5741014141404
 21
3429.0449039888508
 31
0.0
  0
LINE
  5
7B11
  8
2
 10
3650.646112690567
 20
2844.3123359245192
 30
0.0
 11
5102.9395614708592
 21
2844.3123359245192
 31
0.0
  0
LINE
  5
7B12
  8
1
 10
3795.5741014141399
 20
2304.3123359245192
 30
0.0
 11
5090.5741014141413
 21
2304.3123359245192
 31
0.0
  0
LINE
  5
7B13
  8
1
 10
3795.5741014141399
 20
2204.3123359245192
 30
0.0
 11
5090.5741014141413
 21
2204.3123359245178
 31
0.0
1001
ACAD
1000
ASC_BOUNDS
1002
{
1070
    19
1002
}
  0
LINE
  5
7B16
  8
2
 10
1707.5704786437491
 20
6353.7099191859561
 30
0.0
 11
1707.5704786437491
 21
4801.4800930230613
 31
0.0
  0
LINE
  5
7B17
  8
2
 10
1016.393108058797
 20
5980.6246307899628
 30
0.0
 11
2269.5906890252331
 21
5980.6246307899637
 31
0.0
  0
LINE
  5
7B18
  8
2
 10
3650.646112690567
 20
2554.3123359245192
 30
0.0
 11
3912.9701648666878
 21
2554.3123359245192
 31
0.0
  0
LINE
  5
7B19
  8
1
 10
5035.5741014141413
 20
2304.3123359245192
 30
0.0
 11
5035.5741014141413
 21
2844.3123359245192
 31
0.0
  0
LINE
  5
7B1A
  8
1
 10
4505.5741014141404
 20
2304.3123359245192
 30
0.0
 11
4505.5741014141404
 21
2844.3123359245192
 31
0.0
  0
POINT
  5
7B1B
  8
1
 10
948.57047864374908
 20
3344.3123359245192
 30
0.0
  0
POINT
  5
7B1C
  8
1
 10
1707.5704786437491
 20
3304.4949083889701
 30
0.0
  0
INSERT
  5
7B1D
  8
0
  2
YA_N
 10
1277.7242886368399
 20
-1095.3196821357051
 30
0.0
 41
20.0
 42
20.0
 43
20.0
  0
LINE
  5
7B1F
  8
1
 10
2157.5704786437491
 20
2077.3123359245192
 30
0.0
 11
967.57047864374897
 21
2077.3123359245192
 31
0.0
  0
LINE
  5
7B20
  8
1
 10
967.57047864374897
 20
2304.3123359245192
 30
0.0
 11
967.57047864374897
 21
2204.3123359245192
 31
0.0
  0
LINE
  5
7B28
  8
1
 10
1972.5704786437479
 20
2077.3123359245192
 30
0.0
 11
1972.5704786437479
 21
2177.3123359245192
 31
0.0
  0
LINE
  5
7B29
  8
1
 10
1972.5704786437479
 20
2204.3123359245192
 30
0.0
 11
1972.5704786437479
 21
2304.3123359245192
 31
0.0
  0
LINE
  5
7B2A
  8
1
 10
5077.5741014142077
 20
3304.3123359245192
 30
0.0
 11
5077.5741014142277
 21
3344.3123359245178
 31
0.0
  0
LINE
  5
7B2B
  8
1
 10
4463.5741014141404
 20
3304.3123359245192
 30
0.0
 11
4463.5741014141404
 21
3344.3123359245178
 31
0.0
  0
LINE
  5
7B2C
  8
1
 10
3832.5741014141399
 20
2304.3123359245192
 30
0.0
 11
3832.5741014141399
 21
2784.3123359245192
 31
0.0
  0
LINE
  5
7B2D
  8
1
 10
3832.5741014141399
 20
2784.3123359245192
 30
0.0
 11
4402.5741014141404
 21
2784.3123359245192
 31
0.0
  0
LINE
  5
7B2E
  8
1
 10
4402.5741014141404
 20
2304.3123359245192
 30
0.0
 11
4402.5741014141404
 21
2784.3123359245192
 31
0.0
  0
LINE
  5
7B2F
  8
1
 10
3795.5741014141399
 20
2077.3123359245192
 30
0.0
 11
5090.5741014141413
 21
2077.3123359245192
 31
0.0
  0
LINE
  5
7B30
  8
1
 10
3795.5741014141399
 20
2177.3123359245192
 30
0.0
 11
5090.5741014141413
 21
2177.3123359245192
 31
0.0
1001
ACAD
1000
ASC_BOUNDS
1002
{
1070
    19
1002
}
  0
LINE
  5
7B31
  8
1
 10
4502.6194761276847
 20
2077.3123359245192
 30
0.0
 11
4502.6194761276847
 21
2177.3123359245192
 31
0.0
  0
LINE
  5
7B32
  8
1
 10
3777.5741014141399
 20
2865.3123359245192
 30
0.0
 11
3787.5741014141399
 21
2865.3123359245192
 31
0.0
  0
LINE
  5
7B33
  8
1
 10
3777.5741014141399
 20
2823.3123359245192
 30
0.0
 11
3787.5741014141399
 21
2823.3123359245192
 31
0.0
  0
LINE
  5
7B34
  8
1
 10
3787.574101414139
 20
2816.8123359245178
 30
0.0
 11
3787.5741014141399
 21
2871.8123359245192
 31
0.0
  0
LINE
  5
7B38
  8
1
 10
3787.5741014141408
 20
2871.8123359245192
 30
0.0
 11
4505.5741014141404
 21
2871.8123359245201
 31
0.0
  0
LINE
  5
7B39
  8
1
 10
3787.574101414139
 20
2816.8123359245178
 30
0.0
 11
4505.5741014141404
 21
2816.8123359245192
 31
0.0
  0
LINE
  5
7B3A
  8
1
 10
3676.5741014141399
 20
2475.3123359245192
 30
0.0
 11
3676.5741014141399
 21
2996.7123359245188
 31
0.0
  0
LINE
  5
7B3B
  8
1
 10
3777.5741014141399
 20
2475.3123359245192
 30
0.0
 11
3777.5741014141399
 21
2996.7123359245188
 31
0.0
  0
LINE
  5
7B3C
  8
1
 10
3825.0741014141399
 20
2404.3123359245192
 30
0.0
 11
3825.0741014141399
 21
2424.3123359245192
 31
0.0
  0
LINE
  5
7B3D
  8
1
 10
3625.0741014141399
 20
2404.3123359245192
 30
0.0
 11
3625.0741014141399
 21
3064.3123359245192
 31
0.0
  0
POINT
  5
7B3E
  8
1
 10
967.57047864374897
 20
2177.3123359245192
 30
0.0
  0
POINT
  5
7B3F
  8
1
 10
967.57047864374897
 20
2204.3123359245192
 30
0.0
  0
POINT
  5
7B40
  8
1
 10
967.57047864374897
 20
2177.3123359245192
 30
0.0
  0
POINT
  5
7B41
  8
1
 10
967.57047864374897
 20
2077.3123359245192
 30
0.0
  0
LINE
  5
7B42
  8
1
 10
1301.5704786437491
 20
2410.3123359245192
 30
0.0
 11
1282.137978643749
 21
2463.702335924519
 31
0.0
  0
LINE
  5
7B43
  8
1
 10
993.57047864374897
 20
2410.3123359245192
 30
0.0
 11
1013.0030786437489
 21
2463.702335924519
 31
0.0
  0
ARC
  5
7B44
  8
1
 10
1147.5704786437491
 20
2554.3123359245192
 30
0.0
 40
162.0
 50
285.6481
 51
0.0
  0
ARC
  5
7B45
  8
1
 10
1147.5704786437491
 20
2554.3123359245192
 30
0.0
 40
162.0
 50
0.0
 51
254.5427
  0
LINE
  5
7B46
  8
2
 10
1147.5704786437491
 20
2778.296123871884
 30
0.0
 11
1147.5704786437491
 21
2273.674059576334
 31
0.0
  0
LINE
  5
7B47
  8
1
 10
1103.8898786437489
 20
2398.3123359245192
 30
0.0
 11
1191.2511786437481
 21
2398.3123359245192
 31
0.0
  0
LINE
  5
7B48
  8
1
 10
1062.626578643748
 20
2416.3683359245192
 30
0.0
 11
1054.4491786437491
 21
2408.1903359245189
 31
0.0
  0
LINE
  5
7B49
  8
1
 10
1040.357278643748
 20
2412.3123359245192
 30
0.0
 11
995.57047864374908
 21
2412.3123359245192
 31
0.0
  0
LINE
  5
7B4A
  8
1
 10
1013.320478643749
 20
2412.3123359245192
 30
0.0
 11
1013.320478643749
 21
2394.3123359245192
 31
0.0
  0
ARC
  5
7B4B
  8
1
 10
995.57047864374908
 20
2410.3123359245192
 30
0.0
 40
2.0
 50
90.0
 51
180.0
  0
LINE
  5
7B4C
  8
1
 10
1020.570478643749
 20
2417.041335924519
 30
0.0
 11
1020.570478643749
 21
2386.7833359245192
 31
0.0
  0
LINE
  5
7B4D
  8
1
 10
993.57047864374897
 20
2394.3123359245192
 30
0.0
 11
993.57047864374897
 21
2410.3123359245192
 31
0.0
  0
LINE
  5
7B4E
  8
1
 10
1027.8204786437491
 20
2412.3123359245192
 30
0.0
 11
1027.8204786437491
 21
2394.3123359245192
 31
0.0
  0
ARC
  5
7B4F
  8
1
 10
1056.5704786437491
 20
2406.0693359245188
 30
0.0
 40
3.0
 50
135.0
 51
180.0
  0
LINE
  5
7B50
  8
1
 10
1053.5704786437479
 20
2394.3123359245192
 30
0.0
 11
1053.5704786437479
 21
2406.0693359245188
 31
0.0
  0
ARC
  5
7B51
  8
1
 10
1042.4899786437491
 20
2424.5153359245191
 30
0.0
 40
8.0
 50
231.00689999999989
 51
315.0
  0
ARC
  5
7B52
  8
1
 10
1147.5704786437491
 20
2554.3123359245192
 30
0.0
 40
175.0
 50
226.19290000000001
 51
231.00700000000001
  0
ARC
  5
7B53
  8
1
 10
1031.9676786437481
 20
2433.7923359245192
 30
0.0
 40
8.0
 50
135.0
 51
226.19319999999991
  0
LINE
  5
7B54
  8
1
 10
1029.8257786437489
 20
2442.9643359245192
 30
0.0
 11
1026.109778643749
 21
2439.2483359245189
 31
0.0
  0
ARC
  5
7B55
  8
1
 10
1040.357278643748
 20
2415.3123359245192
 30
0.0
 40
3.0
 50
270.0
 51
315.0
  0
LINE
  5
7B56
  8
1
 10
1052.4592786437479
 20
2423.1713359245191
 30
0.0
 11
1042.478678643748
 21
2413.1903359245189
 31
0.0
  0
ARC
  5
7B57
  8
1
 10
1252.6510786437491
 20
2424.5153359245191
 30
0.0
 40
8.0
 50
225.0
 51
308.99310000000003
  0
LINE
  5
7B58
  8
1
 10
1254.783678643749
 20
2412.3123359245192
 30
0.0
 11
1299.5704786437491
 21
2412.3123359245192
 31
0.0
  0
LINE
  5
7B59
  8
1
 10
1232.5143786437491
 20
2416.3683359245192
 30
0.0
 11
1240.6918786437491
 21
2408.1903359245189
 31
0.0
  0
ARC
  5
7B5A
  8
1
 10
1238.5704786437491
 20
2406.0693359245188
 30
0.0
 40
3.0
 50
0.0
 51
45.0
  0
LINE
  5
7B5B
  8
1
 10
1241.5704786437491
 20
2394.3123359245192
 30
0.0
 11
1241.5704786437491
 21
2406.0693359245188
 31
0.0
  0
ARC
  5
7B5C
  8
1
 10
1254.783678643749
 20
2415.3123359245192
 30
0.0
 40
3.0
 50
225.0
 51
270.0
  0
LINE
  5
7B5D
  8
1
 10
1252.7726786437479
 20
2413.0803359245192
 30
0.0
 11
1242.681678643748
 21
2423.1713359245191
 31
0.0
  0
LINE
  5
7B5E
  8
1
 10
1267.3204786437491
 20
2412.3123359245192
 30
0.0
 11
1267.3204786437491
 21
2394.3123359245192
 31
0.0
  0
LINE
  5
7B5F
  8
1
 10
1281.8204786437491
 20
2412.3123359245192
 30
0.0
 11
1281.8204786437491
 21
2394.3123359245192
 31
0.0
  0
LINE
  5
7B60
  8
1
 10
1274.5704786437491
 20
2417.041335924519
 30
0.0
 11
1274.5704786437491
 21
2386.7833359245192
 31
0.0
  0
ARC
  5
7B61
  8
1
 10
1263.1733786437489
 20
2433.7923359245192
 30
0.0
 40
8.0
 50
313.80680000000001
 51
45.0
  0
LINE
  5
7B62
  8
1
 10
1265.3151786437491
 20
2442.9643359245192
 30
0.0
 11
1269.031178643748
 21
2439.2483359245189
 31
0.0
  0
ARC
  5
7B63
  8
1
 10
1147.5704786437491
 20
2554.3123359245192
 30
0.0
 40
175.0
 50
308.99299999999988
 51
313.80709999999999
  0
ARC
  5
7B64
  8
1
 10
1299.5704786437491
 20
2410.3123359245192
 30
0.0
 40
2.0
 50
0.0
 51
90.0
  0
LINE
  5
7B65
  8
1
 10
1301.5704786437491
 20
2394.3123359245192
 30
0.0
 11
1301.5704786437491
 21
2410.3123359245192
 31
0.0
  0
LINE
  5
7B66
  8
2
 10
946.2140410171487
 20
2554.3123359245192
 30
0.0
 11
1343.9007738548571
 21
2554.3123359245192
 31
0.0
  0
LINE
  5
7B67
  8
1
 10
1331.969484934812
 20
2394.3123359245192
 30
0.0
 11
1207.5704786437491
 21
2394.3123359245192
 31
0.0
  0
LINE
  5
7B68
  8
1
 10
950.07047864374908
 20
2344.3123359245192
 30
0.0
 11
963.50259313980769
 21
2394.3123359245192
 31
0.0
  0
LINE
  5
7B69
  8
1
 10
1345.0704786437491
 20
2344.3123359245192
 30
0.0
 11
1331.969484934812
 21
2394.3123359245192
 31
0.0
  0
LINE
  5
7B6A
  8
1
 10
1207.5704786437491
 20
2389.3123359245192
 30
0.0
 11
1087.5704786437491
 21
2389.3123359245192
 31
0.0
  0
LINE
  5
7B6B
  8
1
 10
1207.5704786437491
 20
2349.3123359245192
 30
0.0
 11
1087.5704786437491
 21
2349.3123359245192
 31
0.0
  0
LINE
  5
7B6C
  8
1
 10
1207.5704786437491
 20
2394.3123359245192
 30
0.0
 11
1207.5704786437491
 21
2389.3123359245192
 31
0.0
  0
LINE
  5
7B6D
  8
1
 10
1087.5704786437491
 20
2394.3123359245192
 30
0.0
 11
1087.5704786437491
 21
2389.3123359245192
 31
0.0
  0
LINE
  5
7B6E
  8
1
 10
1087.5704786437491
 20
2394.3123359245192
 30
0.0
 11
963.50259313980769
 21
2394.3123359245192
 31
0.0
  0
LINE
  5
7B6F
  8
1
 10
1207.5704786437491
 20
2349.3123359245192
 30
0.0
 11
1207.5704786437491
 21
2344.3123359245192
 31
0.0
  0
LINE
  5
7B70
  8
1
 10
1087.5704786437491
 20
2349.3123359245192
 30
0.0
 11
1087.5704786437491
 21
2344.3123359245192
 31
0.0
  0
CIRCLE
  5
7B71
  8
1
 10
1147.5704786437491
 20
2554.3123359245192
 30
0.0
 40
79.0
  0
LINE
  5
7B72
  8
1
 10
3676.5741014141399
 20
2633.3123359245192
 30
0.0
 11
3777.5741014141399
 21
2633.3123359245192
 31
0.0
  0
LINE
  5
7B73
  8
1
 10
3676.5741014141399
 20
2475.3123359245192
 30
0.0
 11
3777.5741014141399
 21
2475.3123359245192
 31
0.0
  0
LINE
  5
7B74
  8
1
 10
3625.0741014141399
 20
2404.3123359245192
 30
0.0
 11
3825.0741014141399
 21
2404.3123359245192
 31
0.0
  0
LINE
  5
7B75
  8
1
 10
3825.0741014141399
 20
3044.3123359245192
 30
0.0
 11
3825.0741014141399
 21
3064.3123359245192
 31
0.0
  0
LINE
  5
7B76
  8
1
 10
1257.5704786437491
 20
6298.6246307899637
 30
0.0
 11
2157.5704786437491
 21
6298.6246307899637
 31
0.0
  0
LINE
  5
7B77
  8
1
 10
1972.5704786437479
 20
5658.6246307899628
 30
0.0
 11
2157.5704786437491
 21
5658.6246307899628
 31
0.0
  0
LINE
  5
7B78
  8
1
 10
2157.5704786437491
 20
6298.6246307899637
 30
0.0
 11
2157.5704786437491
 21
6245.6246307899673
 31
0.0
  0
LINE
  5
7B79
  8
1
 10
1257.5704786437491
 20
6298.6246307899637
 30
0.0
 11
1257.5704786437491
 21
6287.6246307897827
 31
0.0
  0
LINE
  5
7B7A
  8
1
 10
967.57047864374897
 20
5708.6246307899628
 30
0.0
 11
967.57047864374897
 21
5003.6246307899628
 31
0.0
  0
LINE
  5
7B7B
  8
1
 10
967.57047864374897
 20
5708.6246307899628
 30
0.0
 11
1257.5704786437491
 21
5708.6246307899628
 31
0.0
  0
LINE
  5
7B7C
  8
1
 10
967.57047864374897
 20
5003.6246307899637
 30
0.0
 11
1972.5704786437479
 21
5003.6246307899637
 31
0.0
  0
LINE
  5
7B7D
  8
1
 10
1972.5704786437479
 20
5658.6246307899628
 30
0.0
 11
1972.5704786437479
 21
5003.6246307899637
 31
0.0
  0
INSERT
  5
7B7E
  8
0
  2
YA_N
 10
1455.327808750855
 20
-1134.8543670562351
 30
0.0
 41
20.0
 42
20.0
 43
20.0
  0
LINE
  5
7B80
  8
1
 10
5038.5741014141404
 20
2449.3123359245192
 30
0.0
 11
5038.5741014141404
 21
3344.3123359245178
 31
0.0
  0
POINT
  5
7B81
  8
1
 10
2157.5704786437491
 20
2177.3123359245192
 30
0.0
  0
POINT
  5
7B82
  8
1
 10
2157.5704786437491
 20
2077.3123359245192
 30
0.0
  0
POINT
  5
7B83
  8
1
 10
2157.5704786437491
 20
2177.3123359245192
 30
0.0
  0
POINT
  5
7B84
  8
1
 10
2157.5704786437491
 20
2204.3123359245192
 30
0.0
  0
POINT
  5
7B85
  8
1
 10
5038.5741014141404
 20
3344.3123359245192
 30
0.0
  0
POINT
  5
7B86
  8
1
 10
2157.5704786437491
 20
5658.6246307899628
 30
0.0
  0
POINT
  5
7B87
  8
1
 10
2157.5704786437491
 20
2177.3123359245192
 30
0.0
  0
POINT
  5
7B88
  8
1
 10
2157.5704786437491
 20
2077.3123359245192
 30
0.0
  0
POINT
  5
7B89
  8
1
 10
2157.5704786437491
 20
2177.3123359245192
 30
0.0
  0
POINT
  5
7B8A
  8
1
 10
2157.5704786437491
 20
2204.3123359245192
 30
0.0
  0
LINE
  5
7B8C
  8
1
 10
4463.5741014141404
 20
3344.3123359245178
 30
0.0
 11
5077.5741014142277
 21
3344.3123359245178
 31
0.0
  0
LINE
  5
7B8F
  8
1
 10
4505.5741014141404
 20
2844.3123359245192
 30
0.0
 11
4505.5741014141404
 21
3344.3123359245178
 31
0.0
  0
LINE
  5
7B90
  8
1
 10
5035.5741014141413
 20
2844.3123359245192
 30
0.0
 11
5035.5741014141413
 21
3344.3123359245178
 31
0.0
  0
POINT
  5
7B91
  8
1
 10
5038.5741014141404
 20
3344.3123359245178
 30
0.0
  0
INSERT
  5
7B92
  8
0
  2
YA_N
 10
11334.47253219087
 20
150.26205665596169
 30
0.0
  0
CIRCLE
  5
7B96
  8
1
 10
1707.5704786437491
 20
2844.3123359245192
 30
0.0
 40
152.40000000000001
  0
ARC
  5
7B97
  8
1
 10
1707.5704786437491
 20
2844.3123359245192
 30
0.0
 40
220.0
 50
282.41939412554632
 51
115.9783004421577
  0
ARC
  5
7B98
  8
1
 10
1147.5704786437491
 20
2554.3123359245192
 30
0.0
 40
150.0
 50
115.9783004421577
 51
282.41939412554632
  0
LINE
  5
7B99
  8
1
 10
1611.2037210731421
 20
3042.0835371529279
 30
0.0
 11
1081.865871209244
 21
2689.1563367620711
 31
0.0
  0
LINE
  5
7B9A
  8
1
 10
1640.024375311119
 20
2980.9259660079688
 30
0.0
 11
1112.556422454262
 21
2625.1291126738138
 31
0.0
  0
LINE
  5
7B9B
  8
1
 10
1164.1147673252369
 20
2477.0641222751178
 30
0.0
 11
1739.4862963027199
 21
2695.2917313654202
 31
0.0
  0
LINE
  5
7B9C
  8
1
 10
1754.8849788378891
 20
2629.4604379310899
 30
0.0
 11
1179.830365139753
 21
2407.8224054744542
 31
0.0
  0
LINE
  5
7B9D
  8
1
 10
3676.5741014141399
 20
2996.7123359245188
 30
0.0
 11
3777.5741014141399
 21
2996.7123359245188
 31
0.0
  0
LINE
  5
7B9E
  8
1
 10
3676.5741014141399
 20
2691.9123359245191
 30
0.0
 11
3777.5741014141399
 21
2691.9123359245191
 31
0.0
  0
LINE
  5
7B9F
  8
1
 10
3625.0741014141399
 20
3064.3123359245192
 30
0.0
 11
3825.0741014141399
 21
3064.3123359245192
 31
0.0
  0
ARC
  5
7BA0
  8
1
 10
1707.5704786437491
 20
2844.3123359245192
 30
0.0
 40
422.0
 50
90.0
 51
93.940493342078184
  0
LINE
  5
7BA1
  8
1
 10
5090.5741014141413
 20
2077.3123359245192
 30
0.0
 11
5090.5741014141413
 21
2177.3123359245192
 31
0.0
  0
LINE
  5
7BA2
  8
1
 10
5090.5741014141413
 20
2204.3123359245192
 30
0.0
 11
5090.5741014141413
 21
2304.3123359245192
 31
0.0
  0
LINE
  5
7BA3
  8
1
 10
4502.6194761276847
 20
2204.3123359245192
 30
0.0
 11
4502.6194761276847
 21
2304.3123359245192
 31
0.0
  0
LINE
  5
7BA4
  8
1
 10
3795.5741014141399
 20
2077.3123359245192
 30
0.0
 11
3795.5741014141399
 21
2177.3123359245192
 31
0.0
  0
LINE
  5
7BA5
  8
1
 10
3795.5741014141399
 20
2304.3123359245192
 30
0.0
 11
3795.5741014141399
 21
2204.3123359245192
 31
0.0
  0
ARC
  5
7BA6
  8
1
 10
1654.5704786437491
 20
2791.3123359245192
 30
0.0
 40
559.0
 50
304.08146549585769
 51
5.4405088373224242
  0
LINE
  5
7BA7
  8
1
 10
985.57047864374897
 20
5113.6940963854804
 30
0.0
 11
985.57047864374897
 21
5355.9411363459012
 31
0.0
  0
LINE
  5
7BA8
  8
1
 10
985.57047864374897
 20
5519.2246882141708
 30
0.0
 11
985.57047864374897
 21
5045.1029683957513
 31
0.0
  0
LINE
  5
7BA9
  8
1
 10
1307.5704786437491
 20
5045.1029683957513
 30
0.0
 11
1307.5704786437491
 21
5519.2246882141708
 31
0.0
  0
LINE
  5
7BAA
  8
2
 10
1147.5704786437491
 20
5577.3686175523917
 30
0.0
 11
1147.5704786437491
 21
4893.2621017151287
 31
0.0
  0
LINE
  5
7BAB
  8
1
 10
1307.5704786437491
 20
5519.2246882141708
 30
0.0
 11
985.57047864374897
 21
5519.2246882141708
 31
0.0
  0
LINE
  5
7BAC
  8
1
 10
985.57047864374897
 20
5045.1029683957513
 30
0.0
 11
1307.5704786437491
 21
5045.1029683957513
 31
0.0
  0
LINE
  5
7BAD
  8
1
 10
1168.5704786437479
 20
4916.2246882131803
 30
0.0
 11
1168.5704786437479
 21
5026.2246882093086
 31
0.0
  0
LINE
  5
7BAE
  8
1
 10
1126.5704786437491
 20
4916.2246882131803
 30
0.0
 11
1126.5704786437479
 21
5026.2246882093086
 31
0.0
  0
LINE
  5
7BAF
  8
1
 10
1177.9917875895951
 20
5026.2246882093086
 30
0.0
 11
1119.1491696979019
 21
5026.2246882093086
 31
0.0
  0
LINE
  5
7BB0
  8
1
 10
1205.787927626347
 20
5034.2246882141708
 30
0.0
 11
1089.35302966115
 21
5034.2246882141708
 31
0.0
  0
LINE
  5
7BB1
  8
1
 10
1177.9917875895951
 20
5026.2246882093086
 30
0.0
 11
1177.991787589594
 21
5034.2246882141708
 31
0.0
  0
LINE
  5
7BB2
  8
1
 10
1205.787927626347
 20
5045.1029683957513
 30
0.0
 11
1205.787927626347
 21
5034.2246882141708
 31
0.0
  0
LINE
  5
7BB3
  8
1
 10
1089.35302966115
 20
5045.1029683957513
 30
0.0
 11
1089.35302966115
 21
5034.2246882141708
 31
0.0
  0
LINE
  5
7BB4
  8
1
 10
1119.1491696979019
 20
5026.2246882093086
 30
0.0
 11
1119.1491696979019
 21
5034.2246882141708
 31
0.0
  0
LINE
  5
7BB5
  8
1
 10
1126.5704786437491
 20
4916.2246882131803
 30
0.0
 11
1168.5704786437491
 21
4916.2246882131803
 31
0.0
  0
LINE
  5
7BB6
  8
1
 10
1680.0704786437491
 20
4997.6246307899637
 30
0.0
 11
1680.0704786437491
 21
5673.6246307899492
 31
0.0
  0
LINE
  5
7BB7
  8
1
 10
1735.0704786437479
 20
4997.6246307899619
 30
0.0
 11
1735.0704786437479
 21
5715.6246307899637
 31
0.0
  0
LINE
  5
7BB8
  8
1
 10
997.57047864374908
 20
4835.1246307899664
 30
0.0
 11
1927.5704786437491
 21
4835.1246307899628
 31
0.0
  0
LINE
  5
7BB9
  8
1
 10
1068.5704786437491
 20
4987.6246307899646
 30
0.0
 11
1859.9704786437489
 21
4987.6246307899628
 31
0.0
  0
LINE
  5
7BBA
  8
1
 10
1068.5704786437491
 20
4886.6246307899637
 30
0.0
 11
1859.9704786437489
 21
4886.6246307899628
 31
0.0
  0
LINE
  5
7BBC
  8
1
 10
1680.0704786437491
 20
4997.6246307899637
 30
0.0
 11
1735.0704786437479
 21
4997.6246307899628
 31
0.0
  0
LINE
  5
7BBD
  8
1
 10
997.57047864374908
 20
4835.1246307899628
 30
0.0
 11
997.57047864374908
 21
5035.1246307899628
 31
0.0
  0
LINE
  5
7BBF
  8
1
 10
1147.5704786437491
 20
4808.938735550616
 30
0.0
 11
1147.5704786437491
 21
5123.020694242512
 31
0.0
  0
LINE
  5
7BC0
  8
1
 10
1555.170478643749
 20
4886.6246307899628
 30
0.0
 11
1555.170478643749
 21
4987.6246307899628
 31
0.0
  0
LINE
  5
7BC1
  8
1
 10
1068.5704786437491
 20
4886.6246307899628
 30
0.0
 11
1068.5704786437491
 21
4987.6246307899646
 31
0.0
  0
LINE
  5
7BC2
  8
1
 10
1226.5704786437491
 20
4886.6246307899628
 30
0.0
 11
1226.5704786437491
 21
4987.6246307899628
 31
0.0
  0
LINE
  5
7BC3
  8
1
 10
1686.5704786437491
 20
4987.6246307899628
 30
0.0
 11
1686.5704786437491
 21
4997.6246307899637
 31
0.0
  0
LINE
  5
7BC4
  8
1
 10
1537.5704786437491
 20
5042.6246307899637
 30
0.0
 11
1680.0704786437491
 21
5042.6246307899637
 31
0.0
  0
LINE
  5
7BC5
  8
1
 10
997.57047864374908
 20
5035.1246307899628
 30
0.0
 11
1017.570478643749
 21
5035.1246307899628
 31
0.0
  0
LINE
  5
7BC6
  8
1
 10
1537.5704786437491
 20
5612.6246307899628
 30
0.0
 11
1680.0704786437491
 21
5612.6246307899628
 31
0.0
  0
LINE
  5
7BC7
  8
1
 10
1927.5704786437491
 20
4835.1246307899628
 30
0.0
 11
1927.5704786437491
 21
5035.1246307899628
 31
0.0
  0
LINE
  5
7BC9
  8
1
 10
1859.9704786437489
 20
4886.6246307899628
 30
0.0
 11
1859.9704786437489
 21
4987.6246307899628
 31
0.0
  0
LINE
  5
7BCA
  8
1
 10
1728.5704786437491
 20
4987.6246307899628
 30
0.0
 11
1728.5704786437491
 21
4997.6246307899637
 31
0.0
  0
LINE
  5
7BCB
  8
1
 10
1907.5704786437491
 20
5035.1246307899628
 30
0.0
 11
1927.5704786437491
 21
5035.1246307899628
 31
0.0
  0
LINE
  5
7BCD
  8
1
 10
906.57047864374908
 20
5673.6246307899646
 30
0.0
 11
1718.5704786437491
 21
5673.6246307899482
 31
0.0
  0
LINE
  5
7BCE
  8
1
 10
906.57047864374908
 20
6287.6246307896854
 30
0.0
 11
1718.5704786437491
 21
6287.6246307899128
 31
0.0
  0
LINE
  5
7BD0
  8
1
 10
1037.5704786437491
 20
5708.6700055035089
 30
0.0
 11
1137.5704786437491
 21
5708.6700055035089
 31
0.0
  0
LINE
  5
7BD1
  8
1
 10
948.57047864374886
 20
5715.6246307899628
 30
0.0
 11
1678.5704786437491
 21
5715.6246307899637
 31
0.0
  0
LINE
  5
7BD2
  8
1
 10
1162.5704786437491
 20
5708.6700055035089
 30
0.0
 11
1257.5704786437491
 21
5708.6700055035089
 31
0.0
  0
LINE
  5
7BD3
  8
1
 10
948.57047864374886
 20
6245.624630789961
 30
0.0
 11
1678.5704786437491
 21
6245.6246307899619
 31
0.0
  0
POINT
  5
7BDC
  8
1
 10
2207.5704786437491
 20
6248.6246307899637
 30
0.0
  0
LINE
  5
7BDF
  8
1
 10
1735.0704786437479
 20
5612.6246307899628
 30
0.0
 11
1877.5704786437491
 21
5612.6246307899628
 31
0.0
  0
LINE
  5
7BE0
  8
1
 10
1735.0704786437479
 20
5042.6246307899637
 30
0.0
 11
1877.5704786437491
 21
5042.6246307899637
 31
0.0
  0
LINE
  5
7BE2
  8
1
 10
1257.5704786437491
 20
5715.6246307899637
 30
0.0
 11
1257.5704786437491
 21
5708.6246307899628
 31
0.0
  0
DIMENSION
  5
7C0E
  8
3
  2
*D2
 10
1678.5704786437491
 20
3556.8417716891208
 30
0.0
 11
1291.7787080341741
 21
3556.8417716891208
 31
0.0
 70
   128
 13
948.57047864374908
 23
3344.3123359245192
 33
0.0
 14
1678.5704786437491
 24
3344.3123359245192
 34
0.0
 50
180.0
1001
ACAD
1000
DSTYLE
1002
{
1070
   287
1070
     3
1070
   287
1070
     3
1070
    40
1040
30.0
1070
   143
1040
0.039
1070
   172
1070
     1
1070
   271
1070
     0
1070
   279
1070
     0
1070
   288
1070
     1
1002
}
  0
DIMENSION
  5
7C1B
  8
3
  2
*D3
 10
1707.5704786437491
 20
3737.7445087719111
 30
0.0
 11
1339.118907609897
 21
3737.7445087719111
 31
0.0
 70
   128
 13
948.57047864374908
 23
3344.3123359245192
 33
0.0
 14
1707.5704786437491
 24
3402.3420195686431
 34
0.0
 50
180.0
1001
ACAD
1000
DSTYLE
1002
{
1070
   287
1070
     3
1070
   287
1070
     3
1070
    40
1040
30.0
1070
   143
1040
0.039
1070
   172
1070
     1
1070
   271
1070
     0
1070
   279
1070
     0
1070
   288
1070
     1
1002
}
  0
DIMENSION
  5
7C27
  8
3
  2
*D4
 10
2601.0026514911401
 20
2204.3123359245192
 30
0.0
 11
2526.0026514911401
 21
2524.3123359245192
 31
0.0
 70
     0
 13
2265.6001622878721
 23
2844.3123359245192
 33
0.0
 14
2157.5704786437491
 24
2204.3123359245192
 34
0.0
 50
90.0
1001
ACAD
1000
DSTYLE
1002
{
1070
   287
1070
     3
1070
   287
1070
     3
1070
    40
1040
30.0
1070
   143
1040
0.039
1070
   172
1070
     1
1070
   271
1070
     0
1070
   279
1070
     0
1070
   288
1070
     1
1002
}
  0
DIMENSION
  5
7C37
  8
3
  2
*D5
 10
2601.0026514911401
 20
2177.3123359245192
 30
0.0
 11
2744.574080062569
 21
2255.1962693245691
 31
0.0
 70
   128
  1
(<>)
 13
2157.5704786437491
 23
2204.3123359245192
 33
0.0
 14
2157.5704786437491
 24
2177.3123359245192
 34
0.0
 50
90.0
1001
ACAD
1000
DSTYLE
1002
{
1070
   288
1070
     1
1070
   172
1070
     1
1070
    40
1040
30.0
1070
   271
1070
     0
1070
     7
1000
_DOT
1070
   143
1040
0.039
1002
}
  0
DIMENSION
  5
7C47
  8
3
  2
*D6
 10
2601.0026514911401
 20
2077.3123359245192
 30
0.0
 11
2526.0026514911401
 21
1820.1694787816621
 31
0.0
 70
     0
 13
2157.5704786437491
 23
2177.3123359245192
 33
0.0
 14
2157.5704786437491
 24
2077.3123359245192
 34
0.0
 50
90.0
1001
ACAD
1000
DSTYLE
1002
{
1070
   287
1070
     3
1070
   287
1070
     3
1070
    40
1040
30.0
1070
   143
1040
0.039
1070
   172
1070
     1
1070
   271
1070
     0
1070
   279
1070
     0
1070
   288
1070
     1
1070
     6
1000
DOT
1002
}
  0
DIMENSION
  5
7CE9
  8
3
  2
*D7
 10
4770.5741014141404
 20
1875.795047611995
 30
0.0
 11
4231.5395720720371
 21
1875.795047611995
 31
0.0
 70
   128
 13
3795.5741014141399
 23
2077.3123359245192
 33
0.0
 14
4770.5741014141404
 24
1990.1420078861311
 34
0.0
1001
ACAD
1000
DSTYLE
1002
{
1070
   287
1070
     3
1070
   287
1070
     3
1070
    40
1040
30.0
1070
   143
1040
0.039
1070
   172
1070
     1
1070
   271
1070
     0
1070
   279
1070
     0
1070
   288
1070
     1
1002
}
  0
DIMENSION
  5
7D02
  8
3
  2
*D8
 10
5090.5741014141413
 20
1875.795047611995
 30
0.0
 11
4930.5741014141413
 21
1954.124564656667
 31
0.0
 12
0.0
 22
-97.0
 32
0.0
 70
   128
 13
4770.5741014141404
 23
1990.1420078861311
 33
0.0
 14
5090.5741014141413
 24
2077.3123359245192
 34
0.0
1001
ACAD
1000
DSTYLE
1002
{
1070
   288
1070
     1
1070
   172
1070
     1
1070
    75
1070
     1
1070
    40
1040
30.0
1070
   271
1070
     0
1070
   143
1040
0.039
1002
}
  0
DIMENSION
  5
7D3F
  8
3
  2
*D9
 10
4770.5741014141404
 20
3650.61527098939
 30
0.0
 11
4911.1481842136009
 21
3734.345662903967
 31
0.0
 12
0.0
 22
-301.0000000000004
 32
0.0
 70
   128
 13
5038.5741014141404
 23
3344.3123359245178
 33
0.0
 14
4770.5741014141404
 24
3546.2813391902091
 34
0.0
1001
ACAD
1000
DSTYLE
1002
{
1070
   288
1070
     1
1070
   172
1070
     1
1070
    40
1040
30.0
1070
   271
1070
     0
1070
   143
1040
0.039
1002
}
  0
DIMENSION
  5
7D61
  8
3
  2
*D10
 10
3625.0741014141399
 20
3650.61527098939
 30
0.0
 11
4197.8241014141404
 21
3800.61527098939
 31
0.0
 70
     0
  1
MAX\P1160
 13
4770.5741014141404
 23
3546.2813391902091
 33
0.0
 14
3625.0741014141399
 24
3064.3123359245192
 34
0.0
1001
ACAD
1000
DSTYLE
1002
{
1070
   287
1070
     4
1070
   287
1070
     4
1070
    40
1040
30.0
1070
    75
1070
     1
1070
   143
1040
0.039
1070
   172
1070
     1
1070
   271
1070
     0
1070
   279
1070
     1
1070
   288
1070
     1
1002
}
  0
DIMENSION
  5
7D78
  8
3
  2
*D11
 10
5035.5741014141413
 20
3435.799162413658
 30
0.0
 11
4769.6977271789547
 21
3435.799162413658
 31
0.0
 70
   128
 13
4505.5741014141404
 23
3344.3123359245178
 33
0.0
 14
5035.5741014141413
 24
3344.3123359245178
 34
0.0
1001
ACAD
1000
DSTYLE
1002
{
1070
   287
1070
     3
1070
   287
1070
     3
1070
    40
1040
30.0
1070
   143
1040
0.039
1070
   172
1070
     1
1070
   271
1070
     0
1070
   279
1070
     0
1070
   288
1070
     1
1002
}
  0
DIMENSION
  5
7DC6
  8
3
  2
*D12
 10
1257.5704786437491
 20
6465.0181677225701
 30
0.0
 11
1708.3422787201521
 21
6465.0181677225701
 31
0.0
 70
   128
 13
2157.5704786437491
 23
6298.6246307899637
 33
0.0
 14
1257.5704786437491
 24
6298.6246307899637
 34
0.0
1001
ACAD
1000
DSTYLE
1002
{
1070
   287
1070
     3
1070
   287
1070
     3
1070
    40
1040
30.0
1070
   143
1040
0.039
1070
   172
1070
     1
1070
   271
1070
     0
1070
   279
1070
     0
1070
   288
1070
     1
1002
}
  0
DIMENSION
  5
7DD4
  8
3
  2
*D13
 10
967.57047864374897
 20
6465.0181677225701
 30
0.0
 11
1112.5704786437491
 21
6549.1976473153263
 31
0.0
 12
-419.28093541361881
 22
0.0
 32
0.0
 70
   128
 13
1257.5704786437491
 23
6298.6246307899637
 33
0.0
 14
967.57047864374897
 24
5708.6246307899628
 34
0.0
1001
ACAD
1000
DSTYLE
1002
{
1070
   288
1070
     1
1070
   172
1070
     1
1070
    75
1070
     1
1070
    40
1040
30.0
1070
   271
1070
     0
1070
   143
1040
0.039
1002
}
  0
DIMENSION
  5
7DF5
  8
3
  2
*D14
 10
849.00243646307797
 20
5003.6246307899637
 30
0.0
 11
849.00243646307706
 21
5308.9533645522424
 31
0.0
 70
   128
 13
967.57047864374897
 23
5708.6246307899628
 33
0.0
 14
967.57047864374897
 24
5003.6246307899637
 34
0.0
 50
90.0
1001
ACAD
1000
DSTYLE
1002
{
1070
   287
1070
     3
1070
   287
1070
     3
1070
    40
1040
30.0
1070
   143
1040
0.039
1070
   172
1070
     1
1070
   271
1070
     0
1070
   279
1070
     0
1070
   288
1070
     1
1002
}
  0
DIMENSION
  5
7E02
  8
3
  2
*D15
 10
967.57047864374897
 20
4629.9055830525176
 30
0.0
 11
1472.4450723158261
 21
4629.9055830525176
 31
0.0
 70
   128
 13
1972.5704786437479
 23
5003.6246307899637
 33
0.0
 14
967.57047864374897
 24
5003.6246307899637
 34
0.0
1001
ACAD
1000
DSTYLE
1002
{
1070
   287
1070
     3
1070
   287
1070
     3
1070
    40
1040
30.0
1070
   143
1040
0.039
1070
   172
1070
     1
1070
   271
1070
     0
1070
   279
1070
     0
1070
   288
1070
     1
1002
}
  0
DIMENSION
  5
7E0F
  8
3
  2
*D16
 10
2460.9666865349982
 20
5658.6246307899628
 30
0.0
 11
2460.9666865349968
 21
5308.9533645522424
 31
0.0
 70
   128
 13
1972.5704786437479
 23
5003.6246307899637
 33
0.0
 14
2157.5704786437491
 24
5658.6246307899628
 34
0.0
 50
90.0
1001
ACAD
1000
DSTYLE
1002
{
1070
   287
1070
     3
1070
   287
1070
     3
1070
    40
1040
30.0
1070
   143
1040
0.039
1070
   172
1070
     1
1070
   271
1070
     0
1070
   279
1070
     0
1070
   288
1070
     1
1002
}
  0
DIMENSION
  5
7E1B
  8
3
  2
*D17
 10
2460.9666865349968
 20
6298.6246307899637
 30
0.0
 11
2385.9666865349959
 21
5978.6246307899646
 31
0.0
 70
     0
 13
2157.5704786437491
 23
5658.6246307899628
 33
0.0
 14
2157.5704786437491
 24
6298.6246307899637
 34
0.0
 50
90.0
1001
ACAD
1000
DSTYLE
1002
{
1070
   287
1070
     4
1070
   287
1070
     4
1070
    40
1040
30.0
1070
    75
1070
     1
1070
   143
1040
0.039
1070
   172
1070
     1
1070
   271
1070
     0
1070
   279
1070
     1
1070
   288
1070
     1
1002
}
  0
DIMENSION
  5
7E6C
  8
3
  2
*D18
 10
1707.5704786437491
 20
1870.8821347352241
 30
0.0
 11
1337.7415687456121
 21
1870.8821347352241
 31
0.0
 70
   128
 13
967.57047864374897
 23
2077.3123359245192
 33
0.0
 14
1707.5704786437491
 24
2077.3123359245192
 34
0.0
1001
ACAD
1000
DSTYLE
1002
{
1070
   287
1070
     3
1070
   287
1070
     3
1070
    40
1040
30.0
1070
   143
1040
0.039
1070
   172
1070
     1
1070
   271
1070
     0
1070
   279
1070
     0
1070
   288
1070
     1
1002
}
  0
DIMENSION
  5
7E78
  8
3
  2
*D19
 10
2157.5704786437491
 20
1870.8821347352241
 30
0.0
 11
1932.5704786437491
 21
1945.8821347352241
 31
0.0
 70
     0
 13
1707.5704786437491
 23
2077.3123359245192
 33
0.0
 14
2157.5704786437491
 24
2077.3123359245192
 34
0.0
1001
ACAD
1000
DSTYLE
1002
{
1070
   287
1070
     4
1070
   287
1070
     4
1070
    40
1040
30.0
1070
    75
1070
     1
1070
   143
1040
0.039
1070
   172
1070
     1
1070
   271
1070
     0
1070
   279
1070
     1
1070
   288
1070
     1
1002
}
  0
LINE
  5
7E86
  8
4
 10
5952.075726288982
 20
1500.0
 30
0.0
 11
5952.0757262889829
 21
900.0
 31
0.0
  0
LINE
  5
7E87
  8
4
 10
3450.0
 20
1500.0
 30
0.0
 11
3450.0
 21
900.0
 31
0.0
  0
LINE
  5
7E88
  8
4
 10
1950.0
 20
1500.0
 30
0.0
 11
1950.0
 21
900.0
 31
0.0
  0
LINE
  5
7E8B
  8
4
 10
1950.0
 20
900.0
 30
0.0
 11
5952.075726288982
 21
900.0
 31
0.0
  0
LINE
  5
7E8C
  8
4
 10
1950.0
 20
1200.0
 30
0.0
 11
5952.075726288982
 21
1200.0
 31
0.0
  0
TEXT
  5
7E8D
  8
4
 10
2065.5062425407041
 20
1294.629077599838
 30
0.0
 40
150.0
  1
機器名称
  0
TEXT
  5
7E8E
  8
4
 10
2058.7743180743919
 20
964.93547019603284
 30
0.0
 40
150.0
  1
機器型番
  0
TEXT
  5
7E8F
  8
4
 10
3533.036236462995
 20
1267.715306872705
 30
0.0
 40
150.0
  1
ミツヤリミットロードファン
  0
TEXT
  5
7E90
  8
4
 10
3559.9634867564419
 20
951.47875283983012
 30
0.0
 40
150.0
  1
LL＃4 1/2-1
  0
TEXT
  5
7E92
  8
4
 10
2452.306730691525
 20
7150.2865239975472
 30
0.0
 40
161.99999999999989
  1
床置防振ベット
  0
TEXT
  5
7E93
  8
4
 10
813.28385855002125
 20
7601.6429285978938
 30
0.0
 40
216.0
  1
遠心式片吸込片持リミットロードファン
  0
LINE
  5
7E94
  8
4
 10
750.0
 20
7408.2262627944137
 30
0.0
 11
5550.0
 21
7408.2262627944137
 31
0.0
  0
LINE
  5
7E95
  8
4
 10
750.0
 20
8008.2262627944137
 30
0.0
 11
5550.0
 21
8008.2262627944137
 31
0.0
  0
LINE
  5
7E96
  8
4
 10
1950.0
 20
1500.0
 30
0.0
 11
5952.075726288982
 21
1500.0
 31
0.0
  0
LINE
  5
7E97
  8
4
 10
750.0
 20
8008.2262627944137
 30
0.0
 11
750.0
 21
7408.2262627944137
 31
0.0
  0
TEXT
  5
7E98
  8
4
 10
1144.7302339634191
 20
7146.9584326390304
 30
0.0
 40
161.99999999999989
  1
右回転上向
  0
TEXT
  5
7E99
  8
4
 10
4406.9086777478688
 20
8118.1832444859256
 30
0.0
 40
168.0
  1
No.
  0
TEXT
  5
7E9A
  8
4
 10
3933.8881878000388
 20
7150.2865239975472
 30
0.0
 40
161.99999999999989
  1
縮尺：1/30
  0
LINE
  5
7E9B
  8
4
 10
5550.0
 20
8008.2262627944137
 30
0.0
 11
5550.0
 21
7408.2262627944137
 31
0.0
  0
LINE
  5
7E9C
  8
4
 10
6300.0
 20
8850.0
 30
0.0
 11
6300.0
 21
8850.0
 31
0.0
  0
LINE
  5
7E9D
  8
4
 10
4321.8522670795937
 20
8043.790749376205
 30
0.0
 11
4321.8522670795937
 21
8359.9567846492573
 31
0.0
  0
LINE
  5
7E9E
  8
4
 10
4321.8522670795937
 20
8359.9567846492573
 30
0.0
 11
5550.0
 21
8359.9567846492573
 31
0.0
  0
LINE
  5
7E9F
  8
4
 10
5550.0
 20
8359.9567846492573
 30
0.0
 11
5550.0
 21
8043.790749376205
 31
0.0
  0
LINE
  5
7EA0
  8
4
 10
5550.0
 20
8043.790749376205
 30
0.0
 11
4321.8522670795937
 21
8043.790749376205
 31
0.0
  0
LINE
  5
7EA1
  8
4
 10
0.0
 20
0.0
 30
0.0
 11
0.0
 21
8850.0
 31
0.0
  0
LINE
  5
7EA2
  8
4
 10
0.0
 20
8850.0
 30
0.0
 11
6300.0
 21
8850.0
 31
0.0
  0
LINE
  5
7EA3
  8
4
 10
6300.0
 20
8850.0
 30
0.0
 11
6300.0
 21
0.0
 31
0.0
  0
LINE
  5
7EA4
  8
4
 10
6300.0
 20
0.0
 30
0.0
 11
0.0
 21
0.0
 31
0.0
  0
DIMENSION
  5
7F57
  8
3
  2
*D21
 10
2601.0026514911401
 20
3344.3123359245192
 30
0.0
 11
2526.0026514911401
 21
3094.3123359245192
 31
0.0
 70
     0
 13
2265.6001622878721
 23
2844.3123359245192
 33
0.0
 14
1707.5704786437491
 24
3344.3123359245192
 34
0.0
 50
90.0
1001
ACAD
1000
DSTYLE
1002
{
1070
   287
1070
     4
1070
   287
1070
     4
1070
    40
1040
30.0
1070
    75
1070
     1
1070
   143
1040
0.039
1070
   172
1070
     1
1070
   271
1070
     0
1070
   279
1070
     1
1070
   288
1070
     1
1002
}
  0
DIMENSION
  5
7F6D
  8
3
  2
*D22
 10
2213.5704786437482
 20
3737.7445087719111
 30
0.0
 11
1960.5704786437491
 21
3812.7445087719111
 31
0.0
 70
     0
 13
1707.5704786437491
 23
3402.3420195686431
 33
0.0
 14
2213.5704786437482
 24
2791.3123359245192
 34
0.0
1001
ACAD
1000
DSTYLE
1002
{
1070
   287
1070
     4
1070
   287
1070
     4
1070
    40
1040
30.0
1070
    75
1070
     1
1070
   143
1040
0.039
1070
   172
1070
     1
1070
   271
1070
     0
1070
   279
1070
     1
1070
   288
1070
     1
1002
}
  0
LINE
  5
7F79
  8
1
 10
4463.5741014141404
 20
3304.3123359245201
 30
0.0
 11
5077.5741014142077
 21
3304.3123359245192
 31
0.0
  0
LINE
  5
7F7C
  8
1
 10
948.57047864374908
 20
6245.6246307899619
 30
0.0
 11
948.57047864374908
 21
5715.6246307899628
 31
0.0
  0
LINE
  5
7F7D
  8
1
 10
906.57047864374886
 20
5673.6246307899646
 30
0.0
 11
906.57047864374886
 21
6287.6246307896827
 31
0.0
  0
LINE
  5
7F7E
  8
1
 10
2213.5704786437482
 20
6245.6246307899646
 30
0.0
 11
2213.5704786437482
 21
5715.6246307899646
 31
0.0
  0
LINE
  5
7F7F
  8
1
 10
2157.5704786437491
 20
5715.6246307899637
 30
0.0
 11
2157.5704786437491
 21
5658.6246307899646
 31
0.0
  0
LINE
  5
7F81
  8
1
 10
1678.5704786437491
 20
6245.6246307899646
 30
0.0
 11
1678.5704786437491
 21
5715.6246307899637
 31
0.0
  0
LINE
  5
7F82
  8
1
 10
1718.5704786437491
 20
6287.6246307896972
 30
0.0
 11
1718.5704786437491
 21
5673.6246307899646
 31
0.0
  0
LINE
  5
7F83
  8
1
 10
1718.5704786437491
 20
6245.6246307899646
 30
0.0
 11
2213.5704786437482
 21
6245.6246307899673
 31
0.0
  0
LINE
  5
7F84
  8
1
 10
1718.5704786437491
 20
5715.6246307899637
 30
0.0
 11
2213.5704786437482
 21
5715.6246307899637
 31
0.0
  0
LINE
  5
7F85
  8
1
 10
1678.5704786437491
 20
6245.6246307899619
 30
0.0
 11
948.57047864374908
 21
5715.6246307899628
 31
0.0
  0
LINE
  5
7F86
  8
1
 10
948.57047864374908
 20
6245.624630789961
 30
0.0
 11
1678.5704786437491
 21
5715.6246307899637
 31
0.0
  0
DIMENSION
  5
7F93
  8
3
  2
*D23
 10
2213.5704786437482
 20
3924.4333985372732
 30
0.0
 11
1637.65237460711
 21
3924.4333985372732
 31
0.0
 70
   128
 13
906.57047864374908
 23
3344.3123359245192
 33
0.0
 14
2213.5704786437482
 24
2791.3123359245192
 34
0.0
1001
ACAD
1000
DSTYLE
1002
{
1070
   287
1070
     3
1070
   287
1070
     3
1070
    40
1040
30.0
1070
   143
1040
0.039
1070
   172
1070
     1
1070
   271
1070
     0
1070
   279
1070
     0
1070
   288
1070
     1
1002
}
  0
DIMENSION
  5
7FA0
  8
3
  2
*D24
 10
2890.3264596387821
 20
2077.3123359245192
 30
0.0
 11
2890.3264596387821
 21
2615.6405119254559
 31
0.0
 70
   128
 13
1720.5704786437491
 23
3344.3123359245192
 33
0.0
 14
2157.5704786437491
 24
2077.3123359245192
 34
0.0
 50
90.0
1001
ACAD
1000
DSTYLE
1002
{
1070
   287
1070
     3
1070
   287
1070
     3
1070
    40
1040
30.0
1070
   143
1040
0.039
1070
   172
1070
     1
1070
   271
1070
     0
1070
   279
1070
     0
1070
   288
1070
     1
1002
}
  0
LINE
  5
8283
  8
1
 10
1537.5704786437491
 20
2784.3123359245192
 30
0.0
 11
1877.5704786437491
 21
2784.3123359245192
 31
0.0
  0
LINE
  5
8285
  8
1
 10
1877.5704786437491
 20
2784.3123359245192
 30
0.0
 11
1972.5704786437479
 21
2304.3123359245192
 31
0.0
  0
LINE
  5
8286
  8
1
 10
1537.5704786437491
 20
2784.3123359245192
 30
0.0
 11
1442.5704786437491
 21
2304.3123359245192
 31
0.0
  0
LINE
  5
8287
  8
1
 10
1537.5704786437491
 20
5612.6246307899628
 30
0.0
 11
1537.5704786437491
 21
5042.6246307899637
 31
0.0
  0
LINE
  5
8288
  8
1
 10
1877.5704786437491
 20
5612.6246307899628
 30
0.0
 11
1877.5704786437491
 21
5042.6246307899637
 31
0.0
  0
DIMENSION
  5
829B
  8
3
  2
*D25
 10
5264.8717706620118
 20
2489.3123359245178
 30
0.0
 11
5264.8717706620109
 21
2844.732903230215
 31
0.0
 70
   128
 13
5038.5741014141404
 23
3199.3123359245192
 33
0.0
 14
5038.5741014141404
 24
2489.3123359245192
 34
0.0
 50
90.0
1001
ACAD
1000
DSTYLE
1002
{
1070
   287
1070
     3
1070
    40
1040
30.0
1070
   143
1040
0.039
1070
   172
1070
     1
1070
   271
1070
     0
1070
   279
1070
     0
1070
   288
1070
     1
1002
}
  0
ENDSEC
  0
EOF
