  0
SECTION
  2
HEADER
  9
$ACADVER
  1
AC1027
  9
$ACADMAINTVER
 70
   125
  9
$DWGCODEPAGE
  3
ANSI_932
  9
$LASTSAVEDBY
  1
yasukiyo.ogawa
  9
$REQUIREDVERSIONS
160
                 0
  9
$INSBASE
 10
0.0
 20
0.0
 30
0.0
  9
$EXTMIN
 10
0.0
 20
0.0
 30
0.0
  9
$EXTMAX
 10
5250.0
 20
7375.0
 30
0.0
  9
$LIMMIN
 10
0.0
 20
0.0
  9
$LIMMAX
 10
297.0
 20
210.0
  9
$ORTHOMODE
 70
     1
  9
$REGENMODE
 70
     1
  9
$FILLMODE
 70
     0
  9
$QTEXTMODE
 70
     0
  9
$MIRRTEXT
 70
     1
  9
$LTSCALE
 40
100.0
  9
$ATTMODE
 70
     1
  9
$TEXTSIZE
 40
180.0
  9
$TRACEWID
 40
0.05
  9
$TEXTSTYLE
  7
STANDARD
  9
$CLAYER
  8
3
  9
$CELTYPE
  6
BYLAYER
  9
$CECOLOR
 62
   256
  9
$CELTSCALE
 40
1.0
  9
$DISPSILH
 70
     0
  9
$DIMSCALE
 40
25.0
  9
$DIMASZ
 40
2.0
  9
$DIMEXO
 40
0.5
  9
$DIMDLI
 40
10.0
  9
$DIMRND
 40
0.0
  9
$DIMDLE
 40
0.0
  9
$DIMEXE
 40
1.0
  9
$DIMTP
 40
1.0
  9
$DIMTM
 40
1.0
  9
$DIMTXT
 40
3.0
  9
$DIMCEN
 40
0.0
  9
$DIMTSZ
 40
0.0
  9
$DIMTOL
 70
     0
  9
$DIMLIM
 70
     0
  9
$DIMTIH
 70
     0
  9
$DIMTOH
 70
     0
  9
$DIMSE1
 70
     0
  9
$DIMSE2
 70
     0
  9
$DIMTAD
 70
     1
  9
$DIMZIN
 70
     8
  9
$DIMBLK
  1

  9
$DIMASO
 70
     1
  9
$DIMSHO
 70
     1
  9
$DIMPOST
  1
(<>)
  9
$DIMAPOST
  1

  9
$DIMALT
 70
     0
  9
$DIMALTD
 70
     2
  9
$DIMALTF
 40
0.039
  9
$DIMLFAC
 40
1.0
  9
$DIMTOFL
 70
     1
  9
$DIMTVP
 40
0.0
  9
$DIMTIX
 70
     0
  9
$DIMSOXD
 70
     0
  9
$DIMSAH
 70
     1
  9
$DIMBLK1
  1
OPEN
  9
$DIMBLK2
  1
OPEN
  9
$DIMSTYLE
  2
IGA
  9
$DIMCLRD
 70
     0
  9
$DIMCLRE
 70
     0
  9
$DIMCLRT
 70
     0
  9
$DIMTFAC
 40
10.0
  9
$DIMGAP
 40
1.0
  9
$DIMJUST
 70
     0
  9
$DIMSD1
 70
     0
  9
$DIMSD2
 70
     0
  9
$DIMTOLJ
 70
     1
  9
$DIMTZIN
 70
     8
  9
$DIMALTZ
 70
     0
  9
$DIMALTTZ
 70
     0
  9
$DIMUPT
 70
     0
  9
$DIMDEC
 70
     0
  9
$DIMTDEC
 70
     0
  9
$DIMALTU
 70
     2
  9
$DIMALTTD
 70
     2
  9
$DIMTXSTY
  7
STANDARD
  9
$DIMAUNIT
 70
     0
  9
$DIMADEC
 70
     0
  9
$DIMALTRND
 40
0.0
  9
$DIMAZIN
 70
     0
  9
$DIMDSEP
 70
    46
  9
$DIMATFIT
 70
     3
  9
$DIMFRAC
 70
     0
  9
$DIMLDRBLK
  1
OPEN
  9
$DIMLUNIT
 70
     2
  9
$DIMLWD
 70
    -2
  9
$DIMLWE
 70
    -2
  9
$DIMTMOVE
 70
     2
  9
$DIMFXL
 40
1.0
  9
$DIMFXLON
 70
     0
  9
$DIMJOGANG
 40
0.7853981633974483
  9
$DIMTFILL
 70
     0
  9
$DIMTFILLCLR
 70
     0
  9
$DIMARCSYM
 70
     0
  9
$DIMLTYPE
  6

  9
$DIMLTEX1
  6

  9
$DIMLTEX2
  6

  9
$DIMTXTDIRECTION
 70
     0
  9
$LUNITS
 70
     2
  9
$LUPREC
 70
     3
  9
$SKETCHINC
 40
0.1
  9
$FILLETRAD
 40
50.0
  9
$AUNITS
 70
     0
  9
$AUPREC
 70
     0
  9
$MENU
  1
acad
  9
$ELEVATION
 40
0.0
  9
$PELEVATION
 40
0.0
  9
$THICKNESS
 40
0.0
  9
$LIMCHECK
 70
     0
  9
$CHAMFERA
 40
0.5
  9
$CHAMFERB
 40
0.5
  9
$CHAMFERC
 40
20.0
  9
$CHAMFERD
 40
0.0
  9
$SKPOLY
 70
     0
  9
$TDCREATE
 40
2451381.415659723
  9
$TDUCREATE
 40
2451381.040660070
  9
$TDUPDATE
 40
2460234.597800926
  9
$TDUUPDATE
 40
2460234.222804132
  9
$TDINDWG
 40
0.0327828356
  9
$TDUSRTIMER
 40
0.0327828356
  9
$USRTIMER
 70
     1
  9
$ANGBASE
 50
0.0
  9
$ANGDIR
 70
     0
  9
$PDMODE
 70
     0
  9
$PDSIZE
 40
0.0
  9
$PLINEWID
 40
0.0
  9
$SPLFRAME
 70
     0
  9
$SPLINETYPE
 70
     6
  9
$SPLINESEGS
 70
     8
  9
$HANDSEED
  5
81CE
  9
$SURFTAB1
 70
     6
  9
$SURFTAB2
 70
     6
  9
$SURFTYPE
 70
     6
  9
$SURFU
 70
     6
  9
$SURFV
 70
     6
  9
$UCSBASE
  2

  9
$UCSNAME
  2

  9
$UCSORG
 10
0.0
 20
0.0
 30
0.0
  9
$UCSXDIR
 10
1.0
 20
0.0
 30
0.0
  9
$UCSYDIR
 10
0.0
 20
1.0
 30
0.0
  9
$UCSORTHOREF
  2

  9
$UCSORTHOVIEW
 70
     0
  9
$UCSORGTOP
 10
0.0
 20
0.0
 30
0.0
  9
$UCSORGBOTTOM
 10
0.0
 20
0.0
 30
0.0
  9
$UCSORGLEFT
 10
0.0
 20
0.0
 30
0.0
  9
$UCSORGRIGHT
 10
0.0
 20
0.0
 30
0.0
  9
$UCSORGFRONT
 10
0.0
 20
0.0
 30
0.0
  9
$UCSORGBACK
 10
0.0
 20
0.0
 30
0.0
  9
$PUCSBASE
  2

  9
$PUCSNAME
  2

  9
$PUCSORG
 10
0.0
 20
0.0
 30
0.0
  9
$PUCSXDIR
 10
1.0
 20
0.0
 30
0.0
  9
$PUCSYDIR
 10
0.0
 20
1.0
 30
0.0
  9
$PUCSORTHOREF
  2

  9
$PUCSORTHOVIEW
 70
     0
  9
$PUCSORGTOP
 10
0.0
 20
0.0
 30
0.0
  9
$PUCSORGBOTTOM
 10
0.0
 20
0.0
 30
0.0
  9
$PUCSORGLEFT
 10
0.0
 20
0.0
 30
0.0
  9
$PUCSORGRIGHT
 10
0.0
 20
0.0
 30
0.0
  9
$PUCSORGFRONT
 10
0.0
 20
0.0
 30
0.0
  9
$PUCSORGBACK
 10
0.0
 20
0.0
 30
0.0
  9
$USERI1
 70
     0
  9
$USERI2
 70
     0
  9
$USERI3
 70
     0
  9
$USERI4
 70
     0
  9
$USERI5
 70
     0
  9
$USERR1
 40
0.0
  9
$USERR2
 40
0.0
  9
$USERR3
 40
0.0
  9
$USERR4
 40
0.0
  9
$USERR5
 40
0.0
  9
$WORLDVIEW
 70
     1
  9
$SHADEDGE
 70
     3
  9
$SHADEDIF
 70
    70
  9
$TILEMODE
 70
     1
  9
$MAXACTVP
 70
    16
  9
$PINSBASE
 10
0.0
 20
0.0
 30
0.0
  9
$PLIMCHECK
 70
     0
  9
$PEXTMIN
 10
1.000000000000000E+20
 20
1.000000000000000E+20
 30
1.000000000000000E+20
  9
$PEXTMAX
 10
-1.000000000000000E+20
 20
-1.000000000000000E+20
 30
-1.000000000000000E+20
  9
$PLIMMIN
 10
0.0
 20
0.0
  9
$PLIMMAX
 10
12.0
 20
9.0
  9
$UNITMODE
 70
     0
  9
$VISRETAIN
 70
     0
  9
$PLINEGEN
 70
     0
  9
$PSLTSCALE
 70
     1
  9
$TREEDEPTH
 70
  3020
  9
$CMLSTYLE
  2
STANDARD
  9
$CMLJUST
 70
     0
  9
$CMLSCALE
 40
20.0
  9
$PROXYGRAPHICS
 70
     1
  9
$MEASUREMENT
 70
     1
  9
$CELWEIGHT
370
    -1
  9
$ENDCAPS
280
     0
  9
$JOINSTYLE
280
     0
  9
$LWDISPLAY
290
     0
  9
$INSUNITS
 70
     0
  9
$HYPERLINKBASE
  1

  9
$STYLESHEET
  1

  9
$XEDIT
290
     1
  9
$CEPSNTYPE
380
     0
  9
$PSTYLEMODE
290
     1
  9
$FINGERPRINTGUID
  2
{E99DA6CD-7C58-47EC-9782-F45E1CA771F7}
  9
$VERSIONGUID
  2
{E13BB92B-1529-4E62-A1DE-A47EDCC6120B}
  9
$EXTNAMES
290
     1
  9
$PSVPSCALE
 40
0.0
  9
$OLESTARTUP
290
     0
  9
$SORTENTS
280
   127
  9
$INDEXCTL
280
     0
  9
$HIDETEXT
280
     0
  9
$XCLIPFRAME
280
     2
  9
$HALOGAP
280
     0
  9
$OBSCOLOR
 70
   257
  9
$OBSLTYPE
280
     0
  9
$INTERSECTIONDISPLAY
280
     0
  9
$INTERSECTIONCOLOR
 70
   257
  9
$DIMASSOC
280
     1
  9
$PROJECTNAME
  1

  9
$CAMERADISPLAY
290
     0
  9
$LENSLENGTH
 40
50.0
  9
$CAMERAHEIGHT
 40
0.0
  9
$STEPSPERSEC
 40
2.0
  9
$STEPSIZE
 40
6.0
  9
$3DDWFPREC
 40
2.0
  9
$PSOLWIDTH
 40
0.25
  9
$PSOLHEIGHT
 40
4.0
  9
$LOFTANG1
 40
1.570796326794896
  9
$LOFTANG2
 40
1.570796326794896
  9
$LOFTMAG1
 40
0.0
  9
$LOFTMAG2
 40
0.0
  9
$LOFTPARAM
 70
     7
  9
$LOFTNORMALS
280
     1
  9
$LATITUDE
 40
37.795
  9
$LONGITUDE
 40
-122.394
  9
$NORTHDIRECTION
 40
0.0
  9
$TIMEZONE
 70
 -8000
  9
$LIGHTGLYPHDISPLAY
280
     1
  9
$TILEMODELIGHTSYNCH
280
     1
  9
$CMATERIAL
347
80E8
  9
$SOLIDHIST
280
     0
  9
$SHOWHIST
280
     1
  9
$DWFFRAME
280
     2
  9
$DGNFRAME
280
     0
  9
$REALWORLDSCALE
290
     1
  9
$INTERFERECOLOR
 62
     1
  9
$INTERFEREOBJVS
345
810A
  9
$INTERFEREVPVS
346
8107
  9
$CSHADOW
280
     0
  9
$SHADOWPLANELOCATION
 40
0.0
  0
ENDSEC
  0
SECTION
  2
CLASSES
  0
CLASS
  1
ACDBDICTIONARYWDFLT
  2
AcDbDictionaryWithDefault
  3
ObjectDBX Classes
 90
        0
 91
        1
280
     0
281
     0
  0
CLASS
  1
MATERIAL
  2
AcDbMaterial
  3
ObjectDBX Classes
 90
     1153
 91
        3
280
     0
281
     0
  0
CLASS
  1
VISUALSTYLE
  2
AcDbVisualStyle
  3
ObjectDBX Classes
 90
     4095
 91
       24
280
     0
281
     0
  0
CLASS
  1
TABLESTYLE
  2
AcDbTableStyle
  3
ObjectDBX Classes
 90
     4095
 91
        1
280
     0
281
     0
  0
CLASS
  1
SCALE
  2
AcDbScale
  3
ObjectDBX Classes
 90
     1153
 91
       17
280
     0
281
     0
  0
CLASS
  1
MLEADERSTYLE
  2
AcDbMLeaderStyle
  3
ACDB_MLEADERSTYLE_CLASS
 90
     4095
 91
        1
280
     0
281
     0
  0
CLASS
  1
ACDBSECTIONVIEWSTYLE
  2
AcDbSectionViewStyle
  3
ObjectDBX Classes
 90
     1025
 91
        1
280
     0
281
     0
  0
CLASS
  1
ACDBDETAILVIEWSTYLE
  2
AcDbDetailViewStyle
  3
ObjectDBX Classes
 90
     1025
 91
        1
280
     0
281
     0
  0
CLASS
  1
DICTIONARYVAR
  2
AcDbDictionaryVar
  3
ObjectDBX Classes
 90
        0
 91
       10
280
     0
281
     0
  0
CLASS
  1
CELLSTYLEMAP
  2
AcDbCellStyleMap
  3
ObjectDBX Classes
 90
     1152
 91
        1
280
     0
281
     0
  0
ENDSEC
  0
SECTION
  2
TABLES
  0
TABLE
  2
VPORT
  5
8
330
0
100
AcDbSymbolTable
 70
     1
1001
ACAD
1000
DbSaveVer
1071
      278
  0
VPORT
  5
80E5
330
8
100
AcDbSymbolTableRecord
100
AcDbViewportTableRecord
  2
*Active
 70
     0
 10
0.0
 20
0.0
 11
1.0
 21
1.0
 12
3367.641899159945
 22
3687.500017171259
 13
0.0
 23
0.0
 14
10.0
 24
10.0
 15
10.0
 25
10.0
 16
0.0
 26
0.0
 36
1.0
 17
0.0
 27
0.0
 37
0.0
 40
7422.678203440799
 41
2.250314465408805
 42
50.0
 43
0.0
 44
0.0
 50
0.0
 51
0.0
 71
     0
 72
   100
 73
     1
 74
     0
 75
     0
 76
     0
 77
     0
 78
     0
281
     0
 65
     1
110
0.0
120
0.0
130
0.0
111
1.0
121
0.0
131
0.0
112
0.0
122
1.0
132
0.0
 79
     0
146
0.0
348
8106
 60
     3
 61
     5
292
     1
282
     1
141
0.0
142
0.0
 63
   250
421
  3355443
1001
ACAD_NAV_VCDISPLAY
1070
     3
  0
ENDTAB
  0
TABLE
  2
LTYPE
  5
5
330
0
100
AcDbSymbolTable
 70
     2
  0
LTYPE
  5
13
330
5
100
AcDbSymbolTableRecord
100
AcDbLinetypeTableRecord
  2
BYBLOCK
 70
     0
  3

 72
    65
 73
     0
 40
0.0
  0
LTYPE
  5
14
330
5
100
AcDbSymbolTableRecord
100
AcDbLinetypeTableRecord
  2
BYLAYER
 70
     0
  3

 72
    65
 73
     0
 40
0.0
  0
LTYPE
  5
15
330
5
100
AcDbSymbolTableRecord
100
AcDbLinetypeTableRecord
  2
CONTINUOUS
 70
     0
  3
Solid line
 72
    65
 73
     0
 40
0.0
  0
LTYPE
  5
1F
330
5
100
AcDbSymbolTableRecord
100
AcDbLinetypeTableRecord
  2
CENTER
 70
     0
  3
____ _ ____ _ ____ _ ____ _ ____ _ ____ _ ____ 
 72
    65
 73
     4
 40
2.0
 49
1.25
 74
     0
 49
-0.25
 74
     0
 49
0.25
 74
     0
 49
-0.25
 74
     0
  0
ENDTAB
  0
TABLE
  2
LAYER
  5
2
102
{ACAD_XDICTIONARY
360
81A4
102
}
330
0
100
AcDbSymbolTable
 70
     6
  0
LAYER
  5
F
102
{ACAD_XDICTIONARY
360
8197
102
}
330
2
100
AcDbSymbolTableRecord
100
AcDbLayerTableRecord
  2
0
 70
     0
 62
     7
  6
CONTINUOUS
370
    -3
390
809A
347
80F8
348
0
  0
LAYER
  5
31
102
{ACAD_XDICTIONARY
360
8199
102
}
330
2
100
AcDbSymbolTableRecord
100
AcDbLayerTableRecord
  2
3
 70
     0
 62
     2
  6
CONTINUOUS
370
    -3
390
809A
347
80F8
348
0
  0
LAYER
  5
76D0
102
{ACAD_XDICTIONARY
360
819B
102
}
330
2
100
AcDbSymbolTableRecord
100
AcDbLayerTableRecord
  2
2
 70
     0
 62
     3
  6
CENTER
370
    -3
390
809A
347
80F8
348
0
  0
LAYER
  5
76D1
102
{ACAD_XDICTIONARY
360
819D
102
}
330
2
100
AcDbSymbolTableRecord
100
AcDbLayerTableRecord
  2
1
 70
     0
 62
     4
  6
CONTINUOUS
370
    -3
390
809A
347
80F8
348
0
  0
LAYER
  5
76D2
102
{ACAD_XDICTIONARY
360
819F
102
}
330
2
100
AcDbSymbolTableRecord
100
AcDbLayerTableRecord
  2
4
 70
     0
 62
     7
  6
CONTINUOUS
370
    -3
390
809A
347
80F8
348
0
  0
LAYER
  5
7B3C
330
2
100
AcDbSymbolTableRecord
100
AcDbLayerTableRecord
  2
DEFPOINTS
 70
     0
 62
     7
  6
CONTINUOUS
290
     0
370
    -3
390
809A
347
80F8
348
0
  0
ENDTAB
  0
TABLE
  2
STYLE
  5
3
330
0
100
AcDbSymbolTable
 70
     1
  0
STYLE
  5
10
330
3
100
AcDbSymbolTableRecord
100
AcDbTextStyleTableRecord
  2
STANDARD
 70
     0
 40
0.0
 41
1.0
 50
0.0
 71
     0
 42
180.0
  3
simplex.shx
  4
extfont.shx
  0
ENDTAB
  0
TABLE
  2
VIEW
  5
6
330
0
100
AcDbSymbolTable
 70
     0
  0
ENDTAB
  0
TABLE
  2
UCS
  5
7
330
0
100
AcDbSymbolTable
 70
     0
  0
ENDTAB
  0
TABLE
  2
APPID
  5
9
330
0
100
AcDbSymbolTable
 70
     4
  0
APPID
  5
11
330
9
100
AcDbSymbolTableRecord
100
AcDbRegAppTableRecord
  2
ACAD
 70
     0
  0
APPID
  5
8137
330
9
100
AcDbSymbolTableRecord
100
AcDbRegAppTableRecord
  2
AcadAnnoMonitorAlertIconDisabled
 70
     0
  0
APPID
  5
8138
330
9
100
AcDbSymbolTableRecord
100
AcDbRegAppTableRecord
  2
ACAD_EXEMPT_FROM_CAD_STANDARDS
 70
     0
  0
APPID
  5
81AA
330
9
100
AcDbSymbolTableRecord
100
AcDbRegAppTableRecord
  2
ACAD_NAV_VCDISPLAY
 70
     0
  0
ENDTAB
  0
TABLE
  2
DIMSTYLE
  5
A
330
0
100
AcDbSymbolTable
 70
     2
100
AcDbDimStyleTable
 71
     1
340
1D
  0
DIMSTYLE
105
1D
102
{ACAD_REACTORS
330
7F72
330
8085
330
8092
102
}
330
A
100
AcDbSymbolTableRecord
100
AcDbDimStyleTableRecord
  2
IGA
 70
     0
 40
2.0
 41
2.0
 42
0.5
 43
10.0
 44
1.0
 47
1.0
 48
1.0
 73
     0
 74
     0
 77
     1
 78
     8
140
3.0
141
0.0
143
0.03937
146
10.0
147
1.0
173
     1
271
     1
272
     0
279
     2
284
     8
340
10
341
79FC
343
79FC
344
79FC
  0
DIMSTYLE
105
7B3E
102
{ACAD_REACTORS
330
7C78
330
7C79
330
7C7A
330
7C7D
330
7C7E
330
7C83
330
7C84
330
7C9B
330
7CB0
330
7CBA
330
7CBB
330
7CBC
330
7CBD
330
7CBE
330
7CBF
330
7CCB
330
7CCC
330
7CCD
330
7CF9
102
}
330
A
100
AcDbSymbolTableRecord
100
AcDbDimStyleTableRecord
  2
MATSU
 70
     0
 41
2.0
 42
1.0
 43
10.0
 44
1.0
 73
     0
 74
     0
 77
     1
 78
     8
140
3.0
141
0.0
143
0.03937
147
0.5
172
     1
173
     1
176
   256
177
   256
178
   256
284
     8
289
     0
340
10
341
79FC
343
79FC
344
79FC
  0
ENDTAB
  0
TABLE
  2
BLOCK_RECORD
  5
1
330
0
100
AcDbSymbolTable
 70
    25
  0
BLOCK_RECORD
  5
19
102
{ACAD_XDICTIONARY
360
80C8
102
}
330
1
100
AcDbSymbolTableRecord
100
AcDbBlockTableRecord
  2
*MODEL_SPACE
340
809D
 70
     0
280
     1
281
     0
  0
BLOCK_RECORD
  5
16
102
{ACAD_XDICTIONARY
360
80C6
102
}
330
1
100
AcDbSymbolTableRecord
100
AcDbBlockTableRecord
  2
*PAPER_SPACE
340
809E
 70
     0
280
     1
281
     0
  0
BLOCK_RECORD
  5
79FC
330
1
100
AcDbSymbolTableRecord
100
AcDbBlockTableRecord
  2
_OPEN
340
0
102
{BLKREFS
331
7E2E
331
7E2F
331
7E39
331
7E3A
331
7E44
331
7E45
331
7E4F
331
7E50
331
7E91
331
7E92
331
7E9C
331
7E9D
331
7EA7
331
7EA8
331
7EB2
331
7EB3
331
7EBD
331
7EBE
331
7EC8
331
7EC9
331
7ED3
331
7ED4
331
7EF8
331
7EF9
331
7F0E
331
7F0F
331
7F24
331
7F25
331
814F
331
8150
331
8158
331
8159
331
8161
331
8162
331
816A
331
816B
331
8173
331
8174
331
817F
331
818C
331
818D
102
}
 70
     0
280
     1
281
     0
  0
BLOCK_RECORD
  5
7CFB
330
1
100
AcDbSymbolTableRecord
100
AcDbBlockTableRecord
  2
*D1
340
0
 70
     0
280
     1
281
     0
  0
BLOCK_RECORD
  5
7D07
330
1
100
AcDbSymbolTableRecord
100
AcDbBlockTableRecord
  2
*D2
340
0
 70
     0
280
     1
281
     0
  0
BLOCK_RECORD
  5
7D13
330
1
100
AcDbSymbolTableRecord
100
AcDbBlockTableRecord
  2
*D3
340
0
 70
     0
280
     1
281
     0
  0
BLOCK_RECORD
  5
7D1F
330
1
100
AcDbSymbolTableRecord
100
AcDbBlockTableRecord
  2
*D4
340
0
 70
     0
280
     1
281
     0
  0
BLOCK_RECORD
  5
7D2B
330
1
100
AcDbSymbolTableRecord
100
AcDbBlockTableRecord
  2
*D5
340
0
 70
     0
280
     1
281
     0
  0
BLOCK_RECORD
  5
7D37
330
1
100
AcDbSymbolTableRecord
100
AcDbBlockTableRecord
  2
*D6
340
0
 70
     0
280
     1
281
     0
  0
BLOCK_RECORD
  5
7D43
330
1
100
AcDbSymbolTableRecord
100
AcDbBlockTableRecord
  2
*D7
340
0
 70
     0
280
     1
281
     0
  0
BLOCK_RECORD
  5
7D5B
330
1
100
AcDbSymbolTableRecord
100
AcDbBlockTableRecord
  2
*D8
340
0
 70
     0
280
     1
281
     0
  0
BLOCK_RECORD
  5
7D73
330
1
100
AcDbSymbolTableRecord
100
AcDbBlockTableRecord
  2
*D9
340
0
 70
     0
280
     1
281
     0
  0
BLOCK_RECORD
  5
7D7F
330
1
100
AcDbSymbolTableRecord
100
AcDbBlockTableRecord
  2
*D10
340
0
 70
     0
280
     1
281
     0
  0
BLOCK_RECORD
  5
7D8B
330
1
100
AcDbSymbolTableRecord
100
AcDbBlockTableRecord
  2
*D11
340
0
 70
     0
280
     1
281
     0
  0
BLOCK_RECORD
  5
7D97
330
1
100
AcDbSymbolTableRecord
100
AcDbBlockTableRecord
  2
*D12
340
0
 70
     0
280
     1
281
     0
  0
BLOCK_RECORD
  5
7DA3
330
1
100
AcDbSymbolTableRecord
100
AcDbBlockTableRecord
  2
*D13
340
0
 70
     0
280
     1
281
     0
  0
BLOCK_RECORD
  5
7DAF
330
1
100
AcDbSymbolTableRecord
100
AcDbBlockTableRecord
  2
*D14
340
0
 70
     0
280
     1
281
     0
  0
BLOCK_RECORD
  5
7DBB
330
1
100
AcDbSymbolTableRecord
100
AcDbBlockTableRecord
  2
*D15
340
0
 70
     0
280
     1
281
     0
  0
BLOCK_RECORD
  5
7DE3
330
1
100
AcDbSymbolTableRecord
100
AcDbBlockTableRecord
  2
*D16
340
0
 70
     0
280
     1
281
     0
  0
BLOCK_RECORD
  5
7DEF
330
1
100
AcDbSymbolTableRecord
100
AcDbBlockTableRecord
  2
*D17
340
0
 70
     0
280
     1
281
     0
  0
BLOCK_RECORD
  5
7DFB
330
1
100
AcDbSymbolTableRecord
100
AcDbBlockTableRecord
  2
*D18
340
0
 70
     0
280
     1
281
     0
  0
BLOCK_RECORD
  5
7E13
330
1
100
AcDbSymbolTableRecord
100
AcDbBlockTableRecord
  2
*D19
340
0
 70
     0
280
     1
281
     0
  0
BLOCK_RECORD
  5
7F63
330
1
100
AcDbSymbolTableRecord
100
AcDbBlockTableRecord
  2
*D20
340
0
 70
     0
280
     1
281
     0
  0
BLOCK_RECORD
  5
7FAD
330
1
100
AcDbSymbolTableRecord
100
AcDbBlockTableRecord
  2
_DOT
340
0
102
{BLKREFS
331
817E
102
}
 70
     0
280
     1
281
     0
  0
BLOCK_RECORD
  5
8055
330
1
100
AcDbSymbolTableRecord
100
AcDbBlockTableRecord
  2
_NONE
340
0
 70
     0
280
     1
281
     0
  0
BLOCK_RECORD
  5
807D
330
1
100
AcDbSymbolTableRecord
100
AcDbBlockTableRecord
  2
*D23
340
0
 70
     0
280
     1
281
     0
  0
BLOCK_RECORD
  5
8086
330
1
100
AcDbSymbolTableRecord
100
AcDbBlockTableRecord
  2
*D24
340
0
 70
     0
280
     1
281
     0
  0
ENDTAB
  0
ENDSEC
  0
SECTION
  2
BLOCKS
  0
BLOCK
  5
1A
330
19
100
AcDbEntity
  8
0
100
AcDbBlockBegin
  2
*MODEL_SPACE
 70
     0
 10
0.0
 20
0.0
 30
0.0
  3
*MODEL_SPACE
  1

  0
ENDBLK
  5
1B
330
19
100
AcDbEntity
  8
0
100
AcDbBlockEnd
  0
BLOCK
  5
17
330
16
100
AcDbEntity
 67
     1
  8
0
100
AcDbBlockBegin
  2
*PAPER_SPACE
 70
     0
 10
0.0
 20
0.0
 30
0.0
  3
*PAPER_SPACE
  1

  0
ENDBLK
  5
18
330
16
100
AcDbEntity
 67
     1
  8
0
100
AcDbBlockEnd
  0
BLOCK
  5
7A00
330
79FC
100
AcDbEntity
  8
0
100
AcDbBlockBegin
  2
_OPEN
 70
     0
 10
0.0
 20
0.0
 30
0.0
  3
_OPEN
  1

  0
LINE
  5
79FD
330
79FC
100
AcDbEntity
  8
0
  6
ByBlock
 62
     0
100
AcDbLine
 10
-1.0
 20
0.1666666666666666
 30
0.0
 11
0.0
 21
0.0
 31
0.0
  0
LINE
  5
79FE
330
79FC
100
AcDbEntity
  8
0
  6
ByBlock
 62
     0
100
AcDbLine
 10
0.0
 20
0.0
 30
0.0
 11
-1.0
 21
-0.1666666666666666
 31
0.0
  0
LINE
  5
79FF
330
79FC
100
AcDbEntity
  8
0
  6
ByBlock
 62
     0
100
AcDbLine
 10
0.0
 20
0.0
 30
0.0
 11
-1.0
 21
0.0
 31
0.0
  0
ENDBLK
  5
7A01
330
79FC
100
AcDbEntity
  8
0
100
AcDbBlockEnd
  0
BLOCK
  5
7E1F
330
7CFB
100
AcDbEntity
  8
0
100
AcDbBlockBegin
  2
*D1
 70
     1
 10
0.0
 20
0.0
 30
0.0
  3
*D1
  1

  0
LINE
  5
8155
330
7CFB
100
AcDbEntity
  8
3
440
 16777216
370
    -2
100
AcDbLine
 10
2000.303397801782
 20
1834.683647820611
 30
0.0
 11
2000.303397801782
 21
1682.151848617885
 31
0.0
  0
LINE
  5
8156
330
7CFB
100
AcDbEntity
  8
3
440
 16777216
370
    -2
100
AcDbLine
 10
2400.303397801782
 20
1834.683647820611
 30
0.0
 11
2400.303397801782
 21
1682.151848617885
 31
0.0
  0
LINE
  5
8157
330
7CFB
100
AcDbEntity
  8
3
440
 16777216
370
    -2
100
AcDbLine
 10
2050.303397801782
 20
1707.151848617885
 30
0.0
 11
2350.303397801782
 21
1707.151848617885
 31
0.0
  0
INSERT
  5
8158
330
7CFB
100
AcDbEntity
  8
3
440
 16777216
370
    -2
100
AcDbBlockReference
  2
_OPEN
 10
2000.303397801782
 20
1707.151848617885
 30
0.0
 41
50.0
 42
50.0
 43
50.0
 50
180.0
  0
INSERT
  5
8159
330
7CFB
100
AcDbEntity
  8
3
440
 16777216
370
    -2
100
AcDbBlockReference
  2
_OPEN
 10
2400.303397801782
 20
1707.151848617885
 30
0.0
 41
50.0
 42
50.0
 43
50.0
  0
MTEXT
  5
815A
330
7CFB
100
AcDbEntity
  8
3
440
 16777216
100
AcDbMText
 10
2200.303397801782
 20
1757.151848617885
 30
0.0
 40
75.0
 41
0.0
 46
0.0
 71
     5
 72
     1
  1
\A1;400
 73
     1
 44
1.0
  0
POINT
  5
815B
330
7CFB
100
AcDbEntity
  8
DEFPOINTS
 62
     0
440
 16777216
100
AcDbPoint
 10
2000.303397801782
 20
1859.683647820611
 30
0.0
  0
POINT
  5
815C
330
7CFB
100
AcDbEntity
  8
DEFPOINTS
 62
     0
440
 16777216
100
AcDbPoint
 10
2400.303397801782
 20
1859.683647820611
 30
0.0
  0
POINT
  5
815D
330
7CFB
100
AcDbEntity
  8
DEFPOINTS
 62
     0
440
 16777216
100
AcDbPoint
 10
2400.303397801782
 20
1707.151848617885
 30
0.0
  0
ENDBLK
  5
7E29
330
7CFB
100
AcDbEntity
  8
0
100
AcDbBlockEnd
  0
BLOCK
  5
7E2A
330
7D07
100
AcDbEntity
  8
0
100
AcDbBlockBegin
  2
*D2
 70
     1
 10
0.0
 20
0.0
 30
0.0
  3
*D2
  1

  0
LINE
  5
7E2B
330
7D07
100
AcDbEntity
  8
0
  6
ByBlock
440
 16777216
100
AcDbLine
 10
1064.652996394238
 20
1246.09762645012
 30
0.0
 11
1214.610818311248
 21
1246.09762645012
 31
0.0
  0
LINE
  5
7E2C
330
7D07
100
AcDbEntity
  8
0
  6
ByBlock
440
 16777216
100
AcDbLine
 10
1064.652996394238
 20
596.0976264501205
 30
0.0
 11
1214.610818311248
 21
596.0976264501205
 31
0.0
  0
LINE
  5
7E2D
330
7D07
100
AcDbEntity
  8
0
  6
ByBlock
440
 16777216
100
AcDbLine
 10
1189.610818311248
 20
1196.09762645012
 30
0.0
 11
1189.610818311248
 21
646.0976264501205
 31
0.0
  0
INSERT
  5
7E2E
330
7D07
100
AcDbEntity
  8
0
  6
ByBlock
440
 16777216
100
AcDbBlockReference
  2
_OPEN
 10
1189.610818311248
 20
1246.09762645012
 30
0.0
 41
50.0
 42
50.0
 43
50.0
 50
90.0
  0
INSERT
  5
7E2F
330
7D07
100
AcDbEntity
  8
0
  6
ByBlock
440
 16777216
100
AcDbBlockReference
  2
_OPEN
 10
1189.610818311248
 20
596.0976264501205
 30
0.0
 41
50.0
 42
50.0
 43
50.0
 50
270.0
  0
MTEXT
  5
7E30
330
7D07
100
AcDbEntity
  8
0
  6
ByBlock
440
 16777216
100
AcDbMText
 10
1139.610818311248
 20
921.0976264501205
 30
0.0
 40
75.0
 41
0.0
 46
0.0
 71
     5
 72
     5
  1
\A1;650
 11
0.0
 21
1.0
 31
0.0
 73
     1
 44
1.0
  0
POINT
  5
7E31
330
7D07
100
AcDbEntity
  8
DEFPOINTS
  6
ByBlock
 62
     0
440
 16777216
100
AcDbPoint
 10
1039.652996394238
 20
1246.09762645012
 30
0.0
  0
POINT
  5
7E32
330
7D07
100
AcDbEntity
  8
DEFPOINTS
  6
ByBlock
 62
     0
440
 16777216
100
AcDbPoint
 10
1039.652996394238
 20
596.0976264501205
 30
0.0
  0
POINT
  5
7E33
330
7D07
100
AcDbEntity
  8
DEFPOINTS
  6
ByBlock
 62
     0
440
 16777216
100
AcDbPoint
 10
1189.610818311248
 20
596.0976264501205
 30
0.0
  0
ENDBLK
  5
7E34
330
7D07
100
AcDbEntity
  8
0
100
AcDbBlockEnd
  0
BLOCK
  5
7E35
330
7D13
100
AcDbEntity
  8
0
100
AcDbBlockBegin
  2
*D3
 70
     1
 10
0.0
 20
0.0
 30
0.0
  3
*D3
  1

  0
LINE
  5
7E36
330
7D13
100
AcDbEntity
  8
0
  6
ByBlock
440
 16777216
100
AcDbLine
 10
1064.652996394238
 20
1246.09762645012
 30
0.0
 11
1364.154662514931
 21
1246.09762645012
 31
0.0
  0
LINE
  5
7E37
330
7D13
100
AcDbEntity
  8
0
  6
ByBlock
440
 16777216
100
AcDbLine
 10
1111.545969497234
 20
568.0976264501205
 30
0.0
 11
1364.154662514931
 21
568.0976264501205
 31
0.0
  0
LINE
  5
7E38
330
7D13
100
AcDbEntity
  8
0
  6
ByBlock
440
 16777216
100
AcDbLine
 10
1339.154662514931
 20
1196.09762645012
 30
0.0
 11
1339.154662514931
 21
618.0976264501205
 31
0.0
  0
INSERT
  5
7E39
330
7D13
100
AcDbEntity
  8
0
  6
ByBlock
440
 16777216
100
AcDbBlockReference
  2
_OPEN
 10
1339.154662514931
 20
1246.09762645012
 30
0.0
 41
50.0
 42
50.0
 43
50.0
 50
90.0
  0
INSERT
  5
7E3A
330
7D13
100
AcDbEntity
  8
0
  6
ByBlock
440
 16777216
100
AcDbBlockReference
  2
_OPEN
 10
1339.154662514931
 20
568.0976264501205
 30
0.0
 41
50.0
 42
50.0
 43
50.0
 50
270.0
  0
MTEXT
  5
7E3B
330
7D13
100
AcDbEntity
  8
0
  6
ByBlock
440
 16777216
100
AcDbMText
 10
1289.154662514931
 20
907.0976264501204
 30
0.0
 40
75.0
 41
0.0
 46
0.0
 71
     5
 72
     5
  1
\A1;678
 11
0.0
 21
1.0
 31
0.0
 73
     1
 44
1.0
  0
POINT
  5
7E3C
330
7D13
100
AcDbEntity
  8
DEFPOINTS
  6
ByBlock
 62
     0
440
 16777216
100
AcDbPoint
 10
1039.652996394238
 20
1246.09762645012
 30
0.0
  0
POINT
  5
7E3D
330
7D13
100
AcDbEntity
  8
DEFPOINTS
  6
ByBlock
 62
     0
440
 16777216
100
AcDbPoint
 10
1086.545969497234
 20
568.0976264501205
 30
0.0
  0
POINT
  5
7E3E
330
7D13
100
AcDbEntity
  8
DEFPOINTS
  6
ByBlock
 62
     0
440
 16777216
100
AcDbPoint
 10
1339.154662514931
 20
568.0976264501205
 30
0.0
  0
ENDBLK
  5
7E3F
330
7D13
100
AcDbEntity
  8
0
100
AcDbBlockEnd
  0
BLOCK
  5
7E40
330
7D1F
100
AcDbEntity
  8
0
100
AcDbBlockBegin
  2
*D4
 70
     1
 10
0.0
 20
0.0
 30
0.0
  3
*D4
  1

  0
LINE
  5
7E41
330
7D1F
100
AcDbEntity
  8
0
  6
ByBlock
440
 16777216
100
AcDbLine
 10
1039.652996394238
 20
1313.09762645012
 30
0.0
 11
1039.652996394238
 21
1464.092195333285
 31
0.0
  0
LINE
  5
7E42
330
7D1F
100
AcDbEntity
  8
0
  6
ByBlock
440
 16777216
100
AcDbLine
 10
579.6529963942385
 20
1312.730462101994
 30
0.0
 11
579.6529963942385
 21
1464.092195333285
 31
0.0
  0
LINE
  5
7E43
330
7D1F
100
AcDbEntity
  8
0
  6
ByBlock
440
 16777216
100
AcDbLine
 10
989.6529963942384
 20
1439.092195333285
 30
0.0
 11
629.6529963942385
 21
1439.092195333285
 31
0.0
  0
INSERT
  5
7E44
330
7D1F
100
AcDbEntity
  8
0
  6
ByBlock
440
 16777216
100
AcDbBlockReference
  2
_OPEN
 10
1039.652996394238
 20
1439.092195333285
 30
0.0
 41
50.0
 42
50.0
 43
50.0
  0
INSERT
  5
7E45
330
7D1F
100
AcDbEntity
  8
0
  6
ByBlock
440
 16777216
100
AcDbBlockReference
  2
_OPEN
 10
579.6529963942385
 20
1439.092195333285
 30
0.0
 41
50.0
 42
50.0
 43
50.0
 50
180.0
  0
MTEXT
  5
7E46
330
7D1F
100
AcDbEntity
  8
0
  6
ByBlock
440
 16777216
100
AcDbMText
 10
809.6529963942384
 20
1489.092195333285
 30
0.0
 40
75.0
 41
0.0
 46
0.0
 71
     5
 72
     5
  1
\A1;460
 73
     1
 44
1.0
  0
POINT
  5
7E47
330
7D1F
100
AcDbEntity
  8
DEFPOINTS
  6
ByBlock
 62
     0
440
 16777216
100
AcDbPoint
 10
1039.652996394238
 20
1288.09762645012
 30
0.0
  0
POINT
  5
7E48
330
7D1F
100
AcDbEntity
  8
DEFPOINTS
  6
ByBlock
 62
     0
440
 16777216
100
AcDbPoint
 10
579.6529963942385
 20
1287.730462101994
 30
0.0
  0
POINT
  5
7E49
330
7D1F
100
AcDbEntity
  8
DEFPOINTS
  6
ByBlock
 62
     0
440
 16777216
100
AcDbPoint
 10
579.6529963942385
 20
1439.092195333285
 30
0.0
  0
ENDBLK
  5
7E4A
330
7D1F
100
AcDbEntity
  8
0
100
AcDbBlockEnd
  0
BLOCK
  5
7E4B
330
7D2B
100
AcDbEntity
  8
0
100
AcDbBlockBegin
  2
*D5
 70
     1
 10
0.0
 20
0.0
 30
0.0
  3
*D5
  1

  0
LINE
  5
7E4C
330
7D2B
100
AcDbEntity
  8
0
  6
ByBlock
440
 16777216
100
AcDbLine
 10
579.6529963942385
 20
1312.730462101994
 30
0.0
 11
579.6529963942385
 21
1463.871748959153
 31
0.0
  0
LINE
  5
7E4D
330
7D2B
100
AcDbEntity
  8
0
  6
ByBlock
440
 16777216
100
AcDbLine
 10
33.86245919450357
 20
593.0976264501205
 30
0.0
 11
33.86245919450357
 21
1463.871748959153
 31
0.0
  0
LINE
  5
7E4E
330
7D2B
100
AcDbEntity
  8
0
  6
ByBlock
440
 16777216
100
AcDbLine
 10
529.6529963942385
 20
1438.871748959153
 30
0.0
 11
83.86245919450358
 21
1438.871748959153
 31
0.0
  0
INSERT
  5
7E4F
330
7D2B
100
AcDbEntity
  8
0
  6
ByBlock
440
 16777216
100
AcDbBlockReference
  2
_OPEN
 10
579.6529963942385
 20
1438.871748959153
 30
0.0
 41
50.0
 42
50.0
 43
50.0
  0
INSERT
  5
7E50
330
7D2B
100
AcDbEntity
  8
0
  6
ByBlock
440
 16777216
100
AcDbBlockReference
  2
_OPEN
 10
33.86245919450357
 20
1438.871748959153
 30
0.0
 41
50.0
 42
50.0
 43
50.0
 50
180.0
  0
MTEXT
  5
7E51
330
7D2B
100
AcDbEntity
  8
0
  6
ByBlock
440
 16777216
100
AcDbMText
 10
306.757727794371
 20
1488.871748959153
 30
0.0
 40
75.0
 41
0.0
 46
0.0
 71
     5
 72
     5
  1
\A1;548
 73
     1
 44
1.0
  0
POINT
  5
7E52
330
7D2B
100
AcDbEntity
  8
DEFPOINTS
  6
ByBlock
 62
     0
440
 16777216
100
AcDbPoint
 10
579.6529963942385
 20
1287.730462101994
 30
0.0
  0
POINT
  5
7E53
330
7D2B
100
AcDbEntity
  8
DEFPOINTS
  6
ByBlock
 62
     0
440
 16777216
100
AcDbPoint
 10
33.86245919450357
 20
568.0976264501205
 30
0.0
  0
POINT
  5
7E54
330
7D2B
100
AcDbEntity
  8
DEFPOINTS
  6
ByBlock
 62
     0
440
 16777216
100
AcDbPoint
 10
33.86245919450357
 20
1438.871748959153
 30
0.0
  0
ENDBLK
  5
7E55
330
7D2B
100
AcDbEntity
  8
0
100
AcDbBlockEnd
  0
BLOCK
  5
7E56
330
7D37
100
AcDbEntity
  8
0
100
AcDbBlockBegin
  2
*D6
 70
     1
 10
0.0
 20
0.0
 30
0.0
  3
*D6
  1

  0
LINE
  5
815E
330
7D37
100
AcDbEntity
  8
3
440
 16777216
370
    -2
100
AcDbLine
 10
3405.946594890826
 20
1834.683647820611
 30
0.0
 11
3405.946594890826
 21
1682.697227844682
 31
0.0
  0
LINE
  5
815F
330
7D37
100
AcDbEntity
  8
3
440
 16777216
370
    -2
100
AcDbLine
 10
3987.946594890826
 20
1834.683647820611
 30
0.0
 11
3987.946594890826
 21
1682.697227844682
 31
0.0
  0
LINE
  5
8160
330
7D37
100
AcDbEntity
  8
3
440
 16777216
370
    -2
100
AcDbLine
 10
3455.946594890826
 20
1707.697227844683
 30
0.0
 11
3937.946594890826
 21
1707.697227844683
 31
0.0
  0
INSERT
  5
8161
330
7D37
100
AcDbEntity
  8
3
440
 16777216
370
    -2
100
AcDbBlockReference
  2
_OPEN
 10
3405.946594890826
 20
1707.697227844683
 30
0.0
 41
50.0
 42
50.0
 43
50.0
 50
180.0
  0
INSERT
  5
8162
330
7D37
100
AcDbEntity
  8
3
440
 16777216
370
    -2
100
AcDbBlockReference
  2
_OPEN
 10
3987.946594890826
 20
1707.697227844683
 30
0.0
 41
50.0
 42
50.0
 43
50.0
  0
MTEXT
  5
8163
330
7D37
100
AcDbEntity
  8
3
440
 16777216
100
AcDbMText
 10
3696.946594890827
 20
1757.697227844683
 30
0.0
 40
75.0
 41
0.0
 46
0.0
 71
     5
 72
     1
  1
\A1;582
 73
     1
 44
1.0
  0
POINT
  5
8164
330
7D37
100
AcDbEntity
  8
DEFPOINTS
 62
     0
440
 16777216
100
AcDbPoint
 10
3405.946594890826
 20
1859.683647820611
 30
0.0
  0
POINT
  5
8165
330
7D37
100
AcDbEntity
  8
DEFPOINTS
 62
     0
440
 16777216
100
AcDbPoint
 10
3987.946594890826
 20
1859.683647820611
 30
0.0
  0
POINT
  5
8166
330
7D37
100
AcDbEntity
  8
DEFPOINTS
 62
     0
440
 16777216
100
AcDbPoint
 10
3987.946594890826
 20
1707.697227844683
 30
0.0
  0
ENDBLK
  5
7E60
330
7D37
100
AcDbEntity
  8
0
100
AcDbBlockEnd
  0
BLOCK
  5
7E61
330
7D43
100
AcDbEntity
  8
0
100
AcDbBlockBegin
  2
*D7
 70
     1
 10
0.0
 20
0.0
 30
0.0
  3
*D7
  1

  0
LINE
  5
8167
330
7D43
100
AcDbEntity
  8
3
440
 16777216
370
    -2
100
AcDbLine
 10
3987.946594890826
 20
1834.683647820611
 30
0.0
 11
3987.946594890826
 21
1682.697227844682
 31
0.0
  0
LINE
  5
8168
330
7D43
100
AcDbEntity
  8
3
440
 16777216
370
    -2
100
AcDbLine
 10
4465.946594890826
 20
1834.683647820611
 30
0.0
 11
4465.946594890826
 21
1682.697227844682
 31
0.0
  0
LINE
  5
8169
330
7D43
100
AcDbEntity
  8
3
440
 16777216
370
    -2
100
AcDbLine
 10
4037.946594890826
 20
1707.697227844683
 30
0.0
 11
4415.946594890826
 21
1707.697227844683
 31
0.0
  0
INSERT
  5
816A
330
7D43
100
AcDbEntity
  8
3
440
 16777216
370
    -2
100
AcDbBlockReference
  2
_OPEN
 10
3987.946594890826
 20
1707.697227844683
 30
0.0
 41
50.0
 42
50.0
 43
50.0
 50
180.0
  0
INSERT
  5
816B
330
7D43
100
AcDbEntity
  8
3
440
 16777216
370
    -2
100
AcDbBlockReference
  2
_OPEN
 10
4465.946594890826
 20
1707.697227844683
 30
0.0
 41
50.0
 42
50.0
 43
50.0
  0
MTEXT
  5
816C
330
7D43
100
AcDbEntity
  8
3
440
 16777216
100
AcDbMText
 10
4226.946594890826
 20
1757.697227844683
 30
0.0
 40
75.0
 41
0.0
 46
0.0
 71
     5
 72
     1
  1
\A1;478
 73
     1
 44
1.0
  0
POINT
  5
816D
330
7D43
100
AcDbEntity
  8
DEFPOINTS
 62
     0
440
 16777216
100
AcDbPoint
 10
3987.946594890826
 20
1859.683647820611
 30
0.0
  0
POINT
  5
816E
330
7D43
100
AcDbEntity
  8
DEFPOINTS
 62
     0
440
 16777216
100
AcDbPoint
 10
4465.946594890826
 20
1859.683647820611
 30
0.0
  0
POINT
  5
816F
330
7D43
100
AcDbEntity
  8
DEFPOINTS
 62
     0
440
 16777216
100
AcDbPoint
 10
4465.946594890826
 20
1707.697227844683
 30
0.0
  0
ENDBLK
  5
7E6B
330
7D43
100
AcDbEntity
  8
0
100
AcDbBlockEnd
  0
BLOCK
  5
7E77
330
7D5B
100
AcDbEntity
  8
0
100
AcDbBlockBegin
  2
*D8
 70
     1
 10
0.0
 20
0.0
 30
0.0
  3
*D8
  1

  0
LINE
  5
8170
330
7D5B
100
AcDbEntity
  8
3
440
 16777216
370
    -2
100
AcDbLine
 10
850.3033978017819
 20
1834.683647820611
 30
0.0
 11
850.3033978017819
 21
1681.635539142537
 31
0.0
  0
LINE
  5
8171
330
7D5B
100
AcDbEntity
  8
3
440
 16777216
370
    -2
100
AcDbLine
 10
2000.303397801782
 20
1834.683647820611
 30
0.0
 11
2000.303397801782
 21
1681.635539142537
 31
0.0
  0
LINE
  5
8172
330
7D5B
100
AcDbEntity
  8
3
440
 16777216
370
    -2
100
AcDbLine
 10
900.3033978017819
 20
1706.635539142537
 30
0.0
 11
1950.303397801782
 21
1706.635539142537
 31
0.0
  0
INSERT
  5
8173
330
7D5B
100
AcDbEntity
  8
3
440
 16777216
370
    -2
100
AcDbBlockReference
  2
_OPEN
 10
850.3033978017819
 20
1706.635539142537
 30
0.0
 41
50.0
 42
50.0
 43
50.0
 50
180.0
  0
INSERT
  5
8174
330
7D5B
100
AcDbEntity
  8
3
440
 16777216
370
    -2
100
AcDbBlockReference
  2
_OPEN
 10
2000.303397801782
 20
1706.635539142537
 30
0.0
 41
50.0
 42
50.0
 43
50.0
  0
MTEXT
  5
8175
330
7D5B
100
AcDbEntity
  8
3
440
 16777216
100
AcDbMText
 10
1425.303397801782
 20
1756.635539142537
 30
0.0
 40
75.0
 41
0.0
 46
0.0
 71
     5
 72
     1
  1
\A1;1150
 73
     1
 44
1.0
  0
POINT
  5
8176
330
7D5B
100
AcDbEntity
  8
DEFPOINTS
 62
     0
440
 16777216
100
AcDbPoint
 10
850.3033978017819
 20
1859.683647820611
 30
0.0
  0
POINT
  5
8177
330
7D5B
100
AcDbEntity
  8
DEFPOINTS
 62
     0
440
 16777216
100
AcDbPoint
 10
2000.303397801782
 20
1859.683647820611
 30
0.0
  0
POINT
  5
8178
330
7D5B
100
AcDbEntity
  8
DEFPOINTS
 62
     0
440
 16777216
100
AcDbPoint
 10
2000.303397801782
 20
1706.635539142537
 30
0.0
  0
ENDBLK
  5
7E81
330
7D5B
100
AcDbEntity
  8
0
100
AcDbBlockEnd
  0
BLOCK
  5
7E8D
330
7D73
100
AcDbEntity
  8
0
100
AcDbBlockBegin
  2
*D9
 70
     1
 10
0.0
 20
0.0
 30
0.0
  3
*D9
  1

  0
LINE
  5
7E8E
330
7D73
100
AcDbEntity
  8
0
  6
ByBlock
440
 16777216
100
AcDbLine
 10
2142.296193483282
 20
1271.09762645012
 30
0.0
 11
2142.296193483282
 21
1384.275246436373
 31
0.0
  0
LINE
  5
7E8F
330
7D73
100
AcDbEntity
  8
0
  6
ByBlock
440
 16777216
100
AcDbLine
 10
2992.296193483283
 20
1271.09762645012
 30
0.0
 11
2992.296193483283
 21
1384.275246436373
 31
0.0
  0
LINE
  5
7E90
330
7D73
100
AcDbEntity
  8
0
  6
ByBlock
440
 16777216
100
AcDbLine
 10
2192.296193483282
 20
1359.275246436373
 30
0.0
 11
2942.296193483283
 21
1359.275246436373
 31
0.0
  0
INSERT
  5
7E91
330
7D73
100
AcDbEntity
  8
0
  6
ByBlock
440
 16777216
100
AcDbBlockReference
  2
_OPEN
 10
2142.296193483282
 20
1359.275246436373
 30
0.0
 41
50.0
 42
50.0
 43
50.0
 50
180.0
  0
INSERT
  5
7E92
330
7D73
100
AcDbEntity
  8
0
  6
ByBlock
440
 16777216
100
AcDbBlockReference
  2
_OPEN
 10
2992.296193483283
 20
1359.275246436373
 30
0.0
 41
50.0
 42
50.0
 43
50.0
  0
MTEXT
  5
7E93
330
7D73
100
AcDbEntity
  8
0
  6
ByBlock
440
 16777216
100
AcDbMText
 10
2567.296193483283
 20
1409.275246436373
 30
0.0
 40
75.0
 41
0.0
 46
0.0
 71
     5
 72
     5
  1
\A1;850
 73
     1
 44
1.0
  0
POINT
  5
7E94
330
7D73
100
AcDbEntity
  8
DEFPOINTS
  6
ByBlock
 62
     0
440
 16777216
100
AcDbPoint
 10
2142.296193483282
 20
1246.09762645012
 30
0.0
  0
POINT
  5
7E95
330
7D73
100
AcDbEntity
  8
DEFPOINTS
  6
ByBlock
 62
     0
440
 16777216
100
AcDbPoint
 10
2992.296193483283
 20
1246.09762645012
 30
0.0
  0
POINT
  5
7E96
330
7D73
100
AcDbEntity
  8
DEFPOINTS
  6
ByBlock
 62
     0
440
 16777216
100
AcDbPoint
 10
2992.296193483283
 20
1359.275246436373
 30
0.0
  0
ENDBLK
  5
7E97
330
7D73
100
AcDbEntity
  8
0
100
AcDbBlockEnd
  0
BLOCK
  5
7E98
330
7D7F
100
AcDbEntity
  8
0
100
AcDbBlockBegin
  2
*D10
 70
     1
 10
0.0
 20
0.0
 30
0.0
  3
*D10
  1

  0
LINE
  5
7E99
330
7D7F
100
AcDbEntity
  8
0
  6
ByBlock
440
 16777216
100
AcDbLine
 10
1004.652996394238
 20
2129.414968530634
 30
0.0
 11
1303.2910797043
 21
2129.414968530634
 31
0.0
  0
LINE
  5
7E9A
330
7D7F
100
AcDbEntity
  8
0
  6
ByBlock
440
 16777216
100
AcDbLine
 10
1004.652996394239
 20
3189.414968530635
 30
0.0
 11
1303.2910797043
 21
3189.414968530635
 31
0.0
  0
LINE
  5
7E9B
330
7D7F
100
AcDbEntity
  8
0
  6
ByBlock
440
 16777216
100
AcDbLine
 10
1278.2910797043
 20
2179.414968530633
 30
0.0
 11
1278.2910797043
 21
3139.414968530635
 31
0.0
  0
INSERT
  5
7E9C
330
7D7F
100
AcDbEntity
  8
0
  6
ByBlock
440
 16777216
100
AcDbBlockReference
  2
_OPEN
 10
1278.2910797043
 20
2129.414968530634
 30
0.0
 41
50.0
 42
50.0
 43
50.0
 50
270.0
  0
INSERT
  5
7E9D
330
7D7F
100
AcDbEntity
  8
0
  6
ByBlock
440
 16777216
100
AcDbBlockReference
  2
_OPEN
 10
1278.2910797043
 20
3189.414968530635
 30
0.0
 41
50.0
 42
50.0
 43
50.0
 50
90.0
  0
MTEXT
  5
7E9E
330
7D7F
100
AcDbEntity
  8
0
  6
ByBlock
440
 16777216
100
AcDbMText
 10
1228.2910797043
 20
2659.414968530634
 30
0.0
 40
75.0
 41
0.0
 46
0.0
 71
     5
 72
     5
  1
\A1;1060
 11
0.0
 21
1.0
 31
0.0
 73
     1
 44
1.0
  0
POINT
  5
7E9F
330
7D7F
100
AcDbEntity
  8
DEFPOINTS
  6
ByBlock
 62
     0
440
 16777216
100
AcDbPoint
 10
979.6529963942385
 20
2129.414968530634
 30
0.0
  0
POINT
  5
7EA0
330
7D7F
100
AcDbEntity
  8
DEFPOINTS
  6
ByBlock
 62
     0
440
 16777216
100
AcDbPoint
 10
979.6529963942388
 20
3189.414968530635
 30
0.0
  0
POINT
  5
7EA1
330
7D7F
100
AcDbEntity
  8
DEFPOINTS
  6
ByBlock
 62
     0
440
 16777216
100
AcDbPoint
 10
1278.2910797043
 20
3189.414968530635
 30
0.0
  0
ENDBLK
  5
7EA2
330
7D7F
100
AcDbEntity
  8
0
100
AcDbBlockEnd
  0
BLOCK
  5
7EA3
330
7D8B
100
AcDbEntity
  8
0
100
AcDbBlockBegin
  2
*D11
 70
     1
 10
0.0
 20
0.0
 30
0.0
  3
*D11
  1

  0
LINE
  5
7EA4
330
7D8B
100
AcDbEntity
  8
0
  6
ByBlock
440
 16777216
100
AcDbLine
 10
179.6529963942385
 20
3214.414968530635
 30
0.0
 11
179.6529963942385
 21
3515.46792986967
 31
0.0
  0
LINE
  5
7EA5
330
7D8B
100
AcDbEntity
  8
0
  6
ByBlock
440
 16777216
100
AcDbLine
 10
979.6529963942388
 20
3214.414968530635
 30
0.0
 11
979.6529963942388
 21
3515.46792986967
 31
0.0
  0
LINE
  5
7EA6
330
7D8B
100
AcDbEntity
  8
0
  6
ByBlock
440
 16777216
100
AcDbLine
 10
229.6529963942385
 20
3490.46792986967
 30
0.0
 11
929.6529963942388
 21
3490.46792986967
 31
0.0
  0
INSERT
  5
7EA7
330
7D8B
100
AcDbEntity
  8
0
  6
ByBlock
440
 16777216
100
AcDbBlockReference
  2
_OPEN
 10
179.6529963942385
 20
3490.46792986967
 30
0.0
 41
50.0
 42
50.0
 43
50.0
 50
180.0
  0
INSERT
  5
7EA8
330
7D8B
100
AcDbEntity
  8
0
  6
ByBlock
440
 16777216
100
AcDbBlockReference
  2
_OPEN
 10
979.6529963942388
 20
3490.46792986967
 30
0.0
 41
50.0
 42
50.0
 43
50.0
  0
MTEXT
  5
7EA9
330
7D8B
100
AcDbEntity
  8
0
  6
ByBlock
440
 16777216
100
AcDbMText
 10
579.6529963942386
 20
3540.46792986967
 30
0.0
 40
75.0
 41
0.0
 46
0.0
 71
     5
 72
     5
  1
\A1;800
 73
     1
 44
1.0
  0
POINT
  5
7EAA
330
7D8B
100
AcDbEntity
  8
DEFPOINTS
  6
ByBlock
 62
     0
440
 16777216
100
AcDbPoint
 10
179.6529963942385
 20
3189.414968530634
 30
0.0
  0
POINT
  5
7EAB
330
7D8B
100
AcDbEntity
  8
DEFPOINTS
  6
ByBlock
 62
     0
440
 16777216
100
AcDbPoint
 10
979.6529963942388
 20
3189.414968530635
 30
0.0
  0
POINT
  5
7EAC
330
7D8B
100
AcDbEntity
  8
DEFPOINTS
  6
ByBlock
 62
     0
440
 16777216
100
AcDbPoint
 10
979.6529963942388
 20
3490.46792986967
 30
0.0
  0
ENDBLK
  5
7EAD
330
7D8B
100
AcDbEntity
  8
0
100
AcDbBlockEnd
  0
BLOCK
  5
7EAE
330
7D97
100
AcDbEntity
  8
0
100
AcDbBlockBegin
  2
*D12
 70
     1
 10
0.0
 20
0.0
 30
0.0
  3
*D12
  1

  0
LINE
  5
7EAF
330
7D97
100
AcDbEntity
  8
0
  6
ByBlock
440
 16777216
100
AcDbLine
 10
-595.347003605762
 20
2779.414968530633
 30
0.0
 11
-894.4050562683914
 21
2779.414968530633
 31
0.0
  0
LINE
  5
7EB0
330
7D97
100
AcDbEntity
  8
0
  6
ByBlock
440
 16777216
100
AcDbLine
 10
-595.3470036057615
 20
2129.414968530633
 30
0.0
 11
-894.4050562683914
 21
2129.414968530633
 31
0.0
  0
LINE
  5
7EB1
330
7D97
100
AcDbEntity
  8
0
  6
ByBlock
440
 16777216
100
AcDbLine
 10
-869.4050562683914
 20
2729.414968530633
 30
0.0
 11
-869.4050562683914
 21
2179.414968530632
 31
0.0
  0
INSERT
  5
7EB2
330
7D97
100
AcDbEntity
  8
0
  6
ByBlock
440
 16777216
100
AcDbBlockReference
  2
_OPEN
 10
-869.4050562683914
 20
2779.414968530633
 30
0.0
 41
50.0
 42
50.0
 43
50.0
 50
90.0
  0
INSERT
  5
7EB3
330
7D97
100
AcDbEntity
  8
0
  6
ByBlock
440
 16777216
100
AcDbBlockReference
  2
_OPEN
 10
-869.4050562683914
 20
2129.414968530633
 30
0.0
 41
50.0
 42
50.0
 43
50.0
 50
270.0
  0
MTEXT
  5
7EB4
330
7D97
100
AcDbEntity
  8
0
  6
ByBlock
440
 16777216
100
AcDbMText
 10
-919.4050562683914
 20
2454.414968530633
 30
0.0
 40
75.0
 41
0.0
 46
0.0
 71
     5
 72
     5
  1
\A1;650
 11
0.0
 21
1.0
 31
0.0
 73
     1
 44
1.0
  0
POINT
  5
7EB5
330
7D97
100
AcDbEntity
  8
DEFPOINTS
  6
ByBlock
 62
     0
440
 16777216
100
AcDbPoint
 10
-570.347003605762
 20
2779.414968530633
 30
0.0
  0
POINT
  5
7EB6
330
7D97
100
AcDbEntity
  8
DEFPOINTS
  6
ByBlock
 62
     0
440
 16777216
100
AcDbPoint
 10
-570.3470036057615
 20
2129.414968530633
 30
0.0
  0
POINT
  5
7EB7
330
7D97
100
AcDbEntity
  8
DEFPOINTS
  6
ByBlock
 62
     0
440
 16777216
100
AcDbPoint
 10
-869.4050562683914
 20
2129.414968530633
 30
0.0
  0
ENDBLK
  5
7EB8
330
7D97
100
AcDbEntity
  8
0
100
AcDbBlockEnd
  0
BLOCK
  5
7EB9
330
7DA3
100
AcDbEntity
  8
0
100
AcDbBlockBegin
  2
*D13
 70
     1
 10
0.0
 20
0.0
 30
0.0
  3
*D13
  1

  0
LINE
  5
7EBA
330
7DA3
100
AcDbEntity
  8
0
  6
ByBlock
440
 16777216
100
AcDbLine
 10
-570.3470036057615
 20
2104.414968530633
 30
0.0
 11
-570.3470036057615
 21
1708.503006503273
 31
0.0
  0
LINE
  5
7EBB
330
7DA3
100
AcDbEntity
  8
0
  6
ByBlock
440
 16777216
100
AcDbLine
 10
979.6529963942385
 20
2104.414968530633
 30
0.0
 11
979.6529963942385
 21
1708.503006503273
 31
0.0
  0
LINE
  5
7EBC
330
7DA3
100
AcDbEntity
  8
0
  6
ByBlock
440
 16777216
100
AcDbLine
 10
-520.3470036057615
 20
1733.503006503273
 30
0.0
 11
929.6529963942385
 21
1733.503006503273
 31
0.0
  0
INSERT
  5
7EBD
330
7DA3
100
AcDbEntity
  8
0
  6
ByBlock
440
 16777216
100
AcDbBlockReference
  2
_OPEN
 10
-570.3470036057615
 20
1733.503006503273
 30
0.0
 41
50.0
 42
50.0
 43
50.0
 50
180.0
  0
INSERT
  5
7EBE
330
7DA3
100
AcDbEntity
  8
0
  6
ByBlock
440
 16777216
100
AcDbBlockReference
  2
_OPEN
 10
979.6529963942385
 20
1733.503006503273
 30
0.0
 41
50.0
 42
50.0
 43
50.0
  0
MTEXT
  5
7EBF
330
7DA3
100
AcDbEntity
  8
0
  6
ByBlock
440
 16777216
100
AcDbMText
 10
204.6529963942385
 20
1783.503006503273
 30
0.0
 40
75.0
 41
0.0
 46
0.0
 71
     5
 72
     5
  1
\A1;1550
 73
     1
 44
1.0
  0
POINT
  5
7EC0
330
7DA3
100
AcDbEntity
  8
DEFPOINTS
  6
ByBlock
 62
     0
440
 16777216
100
AcDbPoint
 10
-570.3470036057615
 20
2129.414968530633
 30
0.0
  0
POINT
  5
7EC1
330
7DA3
100
AcDbEntity
  8
DEFPOINTS
  6
ByBlock
 62
     0
440
 16777216
100
AcDbPoint
 10
979.6529963942385
 20
2129.414968530634
 30
0.0
  0
POINT
  5
7EC2
330
7DA3
100
AcDbEntity
  8
DEFPOINTS
  6
ByBlock
 62
     0
440
 16777216
100
AcDbPoint
 10
979.6529963942385
 20
1733.503006503273
 30
0.0
  0
ENDBLK
  5
7EC3
330
7DA3
100
AcDbEntity
  8
0
100
AcDbBlockEnd
  0
BLOCK
  5
7EC4
330
7DAF
100
AcDbEntity
  8
0
100
AcDbBlockBegin
  2
*D14
 70
     1
 10
0.0
 20
0.0
 30
0.0
  3
*D14
  1

  0
LINE
  5
7EC5
330
7DAF
100
AcDbEntity
  8
0
  6
ByBlock
440
 16777216
100
AcDbLine
 10
-570.347003605762
 20
2804.414968530633
 30
0.0
 11
-570.347003605762
 21
3515.46792986967
 31
0.0
  0
LINE
  5
7EC6
330
7DAF
100
AcDbEntity
  8
0
  6
ByBlock
440
 16777216
100
AcDbLine
 10
179.6529963942385
 20
3214.414968530635
 30
0.0
 11
179.6529963942385
 21
3515.46792986967
 31
0.0
  0
LINE
  5
7EC7
330
7DAF
100
AcDbEntity
  8
0
  6
ByBlock
440
 16777216
100
AcDbLine
 10
-520.347003605762
 20
3490.46792986967
 30
0.0
 11
129.6529963942385
 21
3490.46792986967
 31
0.0
  0
INSERT
  5
7EC8
330
7DAF
100
AcDbEntity
  8
0
  6
ByBlock
440
 16777216
100
AcDbBlockReference
  2
_OPEN
 10
-570.347003605762
 20
3490.46792986967
 30
0.0
 41
50.0
 42
50.0
 43
50.0
 50
180.0
  0
INSERT
  5
7EC9
330
7DAF
100
AcDbEntity
  8
0
  6
ByBlock
440
 16777216
100
AcDbBlockReference
  2
_OPEN
 10
179.6529963942385
 20
3490.46792986967
 30
0.0
 41
50.0
 42
50.0
 43
50.0
  0
MTEXT
  5
7ECA
330
7DAF
100
AcDbEntity
  8
0
  6
ByBlock
440
 16777216
100
AcDbMText
 10
-195.3470036057617
 20
3540.46792986967
 30
0.0
 40
75.0
 41
0.0
 46
0.0
 71
     5
 72
     5
  1
\A1;750
 73
     1
 44
1.0
  0
POINT
  5
7ECB
330
7DAF
100
AcDbEntity
  8
DEFPOINTS
  6
ByBlock
 62
     0
440
 16777216
100
AcDbPoint
 10
-570.347003605762
 20
2779.414968530633
 30
0.0
  0
POINT
  5
7ECC
330
7DAF
100
AcDbEntity
  8
DEFPOINTS
  6
ByBlock
 62
     0
440
 16777216
100
AcDbPoint
 10
179.6529963942385
 20
3189.414968530634
 30
0.0
  0
POINT
  5
7ECD
330
7DAF
100
AcDbEntity
  8
DEFPOINTS
  6
ByBlock
 62
     0
440
 16777216
100
AcDbPoint
 10
179.6529963942385
 20
3490.46792986967
 30
0.0
  0
ENDBLK
  5
7ECE
330
7DAF
100
AcDbEntity
  8
0
100
AcDbBlockEnd
  0
BLOCK
  5
7ECF
330
7DBB
100
AcDbEntity
  8
0
100
AcDbBlockBegin
  2
*D15
 70
     1
 10
0.0
 20
0.0
 30
0.0
  3
*D15
  1

  0
LINE
  5
7ED0
330
7DBB
100
AcDbEntity
  8
0
  6
ByBlock
440
 16777216
100
AcDbLine
 10
1111.545969497234
 20
568.0976264501205
 30
0.0
 11
1364.854953013288
 21
568.0976264501205
 31
0.0
  0
LINE
  5
7ED1
330
7DBB
100
AcDbEntity
  8
0
  6
ByBlock
440
 16777216
100
AcDbLine
 10
1004.652996394238
 20
63.09762645012051
 30
0.0
 11
1364.854953013288
 21
63.09762645012051
 31
0.0
  0
LINE
  5
7ED2
330
7DBB
100
AcDbEntity
  8
0
  6
ByBlock
440
 16777216
100
AcDbLine
 10
1339.854953013287
 20
518.0976264501205
 30
0.0
 11
1339.854953013287
 21
113.0976264501205
 31
0.0
  0
INSERT
  5
7ED3
330
7DBB
100
AcDbEntity
  8
0
  6
ByBlock
440
 16777216
100
AcDbBlockReference
  2
_OPEN
 10
1339.854953013287
 20
568.0976264501205
 30
0.0
 41
50.0
 42
50.0
 43
50.0
 50
90.0
  0
INSERT
  5
7ED4
330
7DBB
100
AcDbEntity
  8
0
  6
ByBlock
440
 16777216
100
AcDbBlockReference
  2
_OPEN
 10
1339.854953013287
 20
63.09762645012051
 30
0.0
 41
50.0
 42
50.0
 43
50.0
 50
270.0
  0
MTEXT
  5
7ED5
330
7DBB
100
AcDbEntity
  8
0
  6
ByBlock
440
 16777216
100
AcDbMText
 10
1289.854953013288
 20
315.5976264501205
 30
0.0
 40
75.0
 41
0.0
 46
0.0
 71
     5
 72
     5
  1
\A1;505
 11
0.0
 21
1.0
 31
0.0
 73
     1
 44
1.0
  0
POINT
  5
7ED6
330
7DBB
100
AcDbEntity
  8
DEFPOINTS
  6
ByBlock
 62
     0
440
 16777216
100
AcDbPoint
 10
1086.545969497234
 20
568.0976264501205
 30
0.0
  0
POINT
  5
7ED7
330
7DBB
100
AcDbEntity
  8
DEFPOINTS
  6
ByBlock
 62
     0
440
 16777216
100
AcDbPoint
 10
979.6529963942385
 20
63.09762645012051
 30
0.0
  0
POINT
  5
7ED8
330
7DBB
100
AcDbEntity
  8
DEFPOINTS
  6
ByBlock
 62
     0
440
 16777216
100
AcDbPoint
 10
1339.854953013287
 20
63.09762645012051
 30
0.0
  0
ENDBLK
  5
7ED9
330
7DBB
100
AcDbEntity
  8
0
100
AcDbBlockEnd
  0
BLOCK
  5
7EF4
330
7DE3
100
AcDbEntity
  8
0
100
AcDbBlockBegin
  2
*D16
 70
     1
 10
0.0
 20
0.0
 30
0.0
  3
*D16
  1

  0
LINE
  5
7EF5
330
7DE3
100
AcDbEntity
  8
0
  6
ByBlock
440
 16777216
100
AcDbLine
 10
3094.796193483283
 20
569.4976264501201
 30
0.0
 11
3094.796193483283
 21
1581.907440296147
 31
0.0
  0
LINE
  5
7EF6
330
7DE3
100
AcDbEntity
  8
0
  6
ByBlock
440
 16777216
100
AcDbLine
 10
2567.296193483282
 20
1482.720391033721
 30
0.0
 11
2567.296193483282
 21
1581.907440296147
 31
0.0
  0
LINE
  5
7EF7
330
7DE3
100
AcDbEntity
  8
0
  6
ByBlock
440
 16777216
100
AcDbLine
 10
3044.796193483283
 20
1556.907440296147
 30
0.0
 11
2617.296193483282
 21
1556.907440296147
 31
0.0
  0
INSERT
  5
7EF8
330
7DE3
100
AcDbEntity
  8
0
  6
ByBlock
440
 16777216
100
AcDbBlockReference
  2
_OPEN
 10
3094.796193483283
 20
1556.907440296147
 30
0.0
 41
50.0
 42
50.0
 43
50.0
  0
INSERT
  5
7EF9
330
7DE3
100
AcDbEntity
  8
0
  6
ByBlock
440
 16777216
100
AcDbBlockReference
  2
_OPEN
 10
2567.296193483282
 20
1556.907440296147
 30
0.0
 41
50.0
 42
50.0
 43
50.0
 50
180.0
  0
MTEXT
  5
7EFA
330
7DE3
100
AcDbEntity
  8
0
  6
ByBlock
440
 16777216
100
AcDbMText
 10
2831.046193483283
 20
1626.550297439004
 30
0.0
 40
75.0
 41
0.0
 46
0.0
 71
     5
 72
     5
  1
\A1;(570)
 73
     1
 44
1.0
  0
POINT
  5
7EFB
330
7DE3
100
AcDbEntity
  8
DEFPOINTS
  6
ByBlock
 62
     0
440
 16777216
100
AcDbPoint
 10
3094.796193483283
 20
544.4976264501201
 30
0.0
  0
POINT
  5
7EFC
330
7DE3
100
AcDbEntity
  8
DEFPOINTS
  6
ByBlock
 62
     0
440
 16777216
100
AcDbPoint
 10
2567.296193483282
 20
1457.720391033721
 30
0.0
  0
POINT
  5
7EFD
330
7DE3
100
AcDbEntity
  8
DEFPOINTS
  6
ByBlock
 62
     0
440
 16777216
100
AcDbPoint
 10
2567.296193483282
 20
1556.907440296147
 30
0.0
  0
ENDBLK
  5
7EFE
330
7DE3
100
AcDbEntity
  8
0
100
AcDbBlockEnd
  0
BLOCK
  5
8042
330
7DEF
100
AcDbEntity
  8
0
100
AcDbBlockBegin
  2
*D17
 70
     1
 10
0.0
 20
0.0
 30
0.0
  3
*D17
  1

  0
LINE
  5
814C
330
7DEF
100
AcDbEntity
  8
3
440
 16777216
370
    -2
100
AcDbLine
 10
3987.946594890825
 20
3459.306412404212
 30
0.0
 11
3987.946594890825
 21
3558.493461666638
 31
0.0
  0
LINE
  5
814D
330
7DEF
100
AcDbEntity
  8
3
440
 16777216
370
    -2
100
AcDbLine
 10
3187.946594890826
 20
2719.683647820612
 30
0.0
 11
3187.946594890826
 21
3558.493461666638
 31
0.0
  0
LINE
  5
814E
330
7DEF
100
AcDbEntity
  8
3
440
 16777216
370
    -2
100
AcDbLine
 10
3937.946594890826
 20
3533.493461666638
 30
0.0
 11
3237.946594890826
 21
3533.493461666638
 31
0.0
  0
INSERT
  5
814F
330
7DEF
100
AcDbEntity
  8
3
440
 16777216
370
    -2
100
AcDbBlockReference
  2
_OPEN
 10
3987.946594890825
 20
3533.493461666638
 30
0.0
 41
50.0
 42
50.0
 43
50.0
  0
INSERT
  5
8150
330
7DEF
100
AcDbEntity
  8
3
440
 16777216
370
    -2
100
AcDbBlockReference
  2
_OPEN
 10
3187.946594890826
 20
3533.493461666638
 30
0.0
 41
50.0
 42
50.0
 43
50.0
 50
180.0
  0
MTEXT
  5
8151
330
7DEF
100
AcDbEntity
  8
3
440
 16777216
100
AcDbMText
 10
3587.946594890826
 20
3603.136318809495
 30
0.0
 40
75.0
 41
0.0
 46
0.0
 71
     5
 72
     1
  1
\A1;(800)
 73
     1
 44
1.0
  0
POINT
  5
8152
330
7DEF
100
AcDbEntity
  8
DEFPOINTS
 62
     0
440
 16777216
100
AcDbPoint
 10
3987.946594890825
 20
3434.306412404212
 30
0.0
  0
POINT
  5
8153
330
7DEF
100
AcDbEntity
  8
DEFPOINTS
 62
     0
440
 16777216
100
AcDbPoint
 10
3187.946594890826
 20
2694.683647820612
 30
0.0
  0
POINT
  5
8154
330
7DEF
100
AcDbEntity
  8
DEFPOINTS
 62
     0
440
 16777216
100
AcDbPoint
 10
3187.946594890826
 20
3533.493461666638
 30
0.0
  0
ENDBLK
  5
804C
330
7DEF
100
AcDbEntity
  8
0
100
AcDbBlockEnd
  0
BLOCK
  5
7F0A
330
7DFB
100
AcDbEntity
  8
0
100
AcDbBlockBegin
  2
*D18
 70
     1
 10
0.0
 20
0.0
 30
0.0
  3
*D18
  1

  0
LINE
  5
7F0B
330
7DFB
100
AcDbEntity
  8
0
  6
ByBlock
440
 16777216
100
AcDbLine
 10
3017.296193483283
 20
883.0976264501204
 30
0.0
 11
3252.521631761363
 21
883.0976264501204
 31
0.0
  0
LINE
  5
7F0C
330
7DFB
100
AcDbEntity
  8
0
  6
ByBlock
440
 16777216
100
AcDbLine
 10
3017.296193483283
 20
253.0976264501205
 30
0.0
 11
3252.521631761363
 21
253.0976264501205
 31
0.0
  0
LINE
  5
7F0D
330
7DFB
100
AcDbEntity
  8
0
  6
ByBlock
440
 16777216
100
AcDbLine
 10
3227.521631761363
 20
833.0976264501204
 30
0.0
 11
3227.521631761363
 21
303.0976264501205
 31
0.0
  0
INSERT
  5
7F0E
330
7DFB
100
AcDbEntity
  8
0
  6
ByBlock
440
 16777216
100
AcDbBlockReference
  2
_OPEN
 10
3227.521631761363
 20
883.0976264501204
 30
0.0
 41
50.0
 42
50.0
 43
50.0
 50
90.0
  0
INSERT
  5
7F0F
330
7DFB
100
AcDbEntity
  8
0
  6
ByBlock
440
 16777216
100
AcDbBlockReference
  2
_OPEN
 10
3227.521631761363
 20
253.0976264501205
 30
0.0
 41
50.0
 42
50.0
 43
50.0
 50
270.0
  0
MTEXT
  5
7F10
330
7DFB
100
AcDbEntity
  8
0
  6
ByBlock
440
 16777216
100
AcDbMText
 10
3177.521631761363
 20
568.0976264501205
 30
0.0
 40
75.0
 41
0.0
 46
0.0
 71
     5
 72
     5
  1
\A1;φ630
 11
0.0
 21
1.0
 31
0.0
 73
     1
 44
1.0
  0
POINT
  5
7F11
330
7DFB
100
AcDbEntity
  8
DEFPOINTS
  6
ByBlock
 62
     0
440
 16777216
100
AcDbPoint
 10
2992.296193483283
 20
883.0976264501204
 30
0.0
  0
POINT
  5
7F12
330
7DFB
100
AcDbEntity
  8
DEFPOINTS
  6
ByBlock
 62
     0
440
 16777216
100
AcDbPoint
 10
2992.296193483283
 20
253.0976264501205
 30
0.0
  0
POINT
  5
7F13
330
7DFB
100
AcDbEntity
  8
DEFPOINTS
  6
ByBlock
 62
     0
440
 16777216
100
AcDbPoint
 10
3227.521631761363
 20
253.0976264501205
 30
0.0
  0
ENDBLK
  5
7F14
330
7DFB
100
AcDbEntity
  8
0
100
AcDbBlockEnd
  0
BLOCK
  5
7F20
330
7E13
100
AcDbEntity
  8
0
100
AcDbBlockBegin
  2
*D19
 70
     1
 10
0.0
 20
0.0
 30
0.0
  3
*D19
  1

  0
LINE
  5
7F21
330
7E13
100
AcDbEntity
  8
0
  6
ByBlock
440
 16777216
100
AcDbLine
 10
1039.652996394238
 20
1313.09762645012
 30
0.0
 11
1039.652996394238
 21
1572.493880601907
 31
0.0
  0
LINE
  5
7F22
330
7E13
100
AcDbEntity
  8
0
  6
ByBlock
440
 16777216
100
AcDbLine
 10
-570.3470036057615
 20
188.0976264501205
 30
0.0
 11
-570.3470036057615
 21
1572.493880601907
 31
0.0
  0
LINE
  5
7F23
330
7E13
100
AcDbEntity
  8
0
  6
ByBlock
440
 16777216
100
AcDbLine
 10
989.6529963942384
 20
1547.493880601907
 30
0.0
 11
-520.3470036057615
 21
1547.493880601907
 31
0.0
  0
INSERT
  5
7F24
330
7E13
100
AcDbEntity
  8
0
  6
ByBlock
440
 16777216
100
AcDbBlockReference
  2
_OPEN
 10
1039.652996394238
 20
1547.493880601907
 30
0.0
 41
50.0
 42
50.0
 43
50.0
  0
INSERT
  5
7F25
330
7E13
100
AcDbEntity
  8
0
  6
ByBlock
440
 16777216
100
AcDbBlockReference
  2
_OPEN
 10
-570.3470036057615
 20
1547.493880601907
 30
0.0
 41
50.0
 42
50.0
 43
50.0
 50
180.0
  0
MTEXT
  5
7F26
330
7E13
100
AcDbEntity
  8
0
  6
ByBlock
440
 16777216
100
AcDbMText
 10
234.6529963942385
 20
1597.493880601907
 30
0.0
 40
75.0
 41
0.0
 46
0.0
 71
     5
 72
     5
  1
\A1;1610
 73
     1
 44
1.0
  0
POINT
  5
7F27
330
7E13
100
AcDbEntity
  8
DEFPOINTS
  6
ByBlock
 62
     0
440
 16777216
100
AcDbPoint
 10
1039.652996394238
 20
1288.09762645012
 30
0.0
  0
POINT
  5
7F28
330
7E13
100
AcDbEntity
  8
DEFPOINTS
  6
ByBlock
 62
     0
440
 16777216
100
AcDbPoint
 10
-570.3470036057615
 20
163.0976264501205
 30
0.0
  0
POINT
  5
7F29
330
7E13
100
AcDbEntity
  8
DEFPOINTS
  6
ByBlock
 62
     0
440
 16777216
100
AcDbPoint
 10
-570.3470036057615
 20
1547.493880601907
 30
0.0
  0
ENDBLK
  5
7F2A
330
7E13
100
AcDbEntity
  8
0
100
AcDbBlockEnd
  0
BLOCK
  5
7FDB
330
7F63
100
AcDbEntity
  8
0
100
AcDbBlockBegin
  2
*D20
 70
     1
 10
0.0
 20
0.0
 30
0.0
  3
*D20
  1

  0
LINE
  5
8179
330
7F63
100
AcDbEntity
  8
3
 62
     0
440
 16777216
370
    -2
100
AcDbLine
 10
2412.803397801782
 20
1959.683647820611
 30
0.0
 11
2785.505354420831
 21
1959.683647820611
 31
0.0
  0
LINE
  5
817A
330
7F63
100
AcDbEntity
  8
3
 62
     0
440
 16777216
370
    -2
100
AcDbLine
 10
2412.803397801782
 20
1859.683647820611
 30
0.0
 11
2785.505354420831
 21
1859.683647820611
 31
0.0
  0
LINE
  5
817B
330
7F63
100
AcDbEntity
  8
3
 62
     0
440
 16777216
370
    -2
100
AcDbLine
 10
2760.505354420832
 20
2009.683647820611
 30
0.0
 11
2760.505354420832
 21
2059.683647820611
 31
0.0
  0
LINE
  5
817C
330
7F63
100
AcDbEntity
  8
3
 62
     0
440
 16777216
370
    -2
100
AcDbLine
 10
2760.505354420832
 20
1809.683647820611
 30
0.0
 11
2760.505354420832
 21
1531.112219249183
 31
0.0
  0
LINE
  5
817D
330
7F63
100
AcDbEntity
  8
3
 62
     0
440
 16777216
370
    -2
100
AcDbLine
 10
2760.505354420832
 20
1959.683647820611
 30
0.0
 11
2760.505354420832
 21
1859.683647820611
 31
0.0
  0
INSERT
  5
817E
330
7F63
100
AcDbEntity
  8
3
 62
     0
440
 16777216
370
    -2
100
AcDbBlockReference
  2
_DOT
 10
2760.505354420832
 20
1959.683647820611
 30
0.0
 41
50.0
 42
50.0
 43
50.0
 50
270.0
  0
INSERT
  5
817F
330
7F63
100
AcDbEntity
  8
3
 62
     0
440
 16777216
370
    -2
100
AcDbBlockReference
  2
_OPEN
 10
2760.505354420832
 20
1859.683647820611
 30
0.0
 41
50.0
 42
50.0
 43
50.0
 50
90.0
  0
MTEXT
  5
8180
330
7F63
100
AcDbEntity
  8
3
 62
     0
440
 16777216
100
AcDbMText
 10
2698.005354420831
 20
1645.397933534897
 30
0.0
 40
75.0
 41
0.0
 46
0.0
 71
     5
 72
     1
  1
\A1;100
 11
0.0000000000000001
 21
1.0
 31
0.0
 73
     1
 44
1.0
  0
POINT
  5
8181
330
7F63
100
AcDbEntity
  8
DEFPOINTS
 62
     0
440
 16777216
100
AcDbPoint
 10
2400.303397801782
 20
1959.683647820611
 30
0.0
  0
POINT
  5
8182
330
7F63
100
AcDbEntity
  8
DEFPOINTS
 62
     0
440
 16777216
100
AcDbPoint
 10
2400.303397801782
 20
1859.683647820611
 30
0.0
  0
POINT
  5
8183
330
7F63
100
AcDbEntity
  8
DEFPOINTS
 62
     0
440
 16777216
100
AcDbPoint
 10
2760.505354420832
 20
1859.683647820611
 30
0.0
  0
ENDBLK
  5
7FE7
330
7F63
100
AcDbEntity
  8
0
100
AcDbBlockEnd
  0
BLOCK
  5
7FB3
330
7FAD
100
AcDbEntity
  8
0
100
AcDbBlockBegin
  2
_DOT
 70
     0
 10
0.0
 20
0.0
 30
0.0
  3
_DOT
  1

  0
LWPOLYLINE
  5
7FAE
330
7FAD
100
AcDbEntity
  8
0
  6
ByBlock
 62
     0
100
AcDbPolyline
 90
        2
 70
     1
 43
0.25
 10
-0.125
 20
0.0
 42
1.0
 10
0.125
 20
0.0
 42
1.0
  0
LINE
  5
7FB2
330
7FAD
100
AcDbEntity
  8
0
  6
ByBlock
 62
     0
100
AcDbLine
 10
-0.25
 20
0.0
 30
0.0
 11
-1.0
 21
0.0
 31
0.0
  0
ENDBLK
  5
7FB4
330
7FAD
100
AcDbEntity
  8
0
100
AcDbBlockEnd
  0
BLOCK
  5
8056
330
8055
100
AcDbEntity
  8
0
100
AcDbBlockBegin
  2
_NONE
 70
     0
 10
0.0
 20
0.0
 30
0.0
  3
_NONE
  1

  0
CIRCLE
  5
8057
330
8055
100
AcDbEntity
  8
0
  6
ByBlock
 62
     0
100
AcDbCircle
 10
0.0
 20
0.0
 30
0.0
 40
0.25
  0
ENDBLK
  5
8058
330
8055
100
AcDbEntity
  8
0
100
AcDbBlockEnd
  0
BLOCK
  5
807E
330
807D
100
AcDbEntity
  8
0
100
AcDbBlockBegin
  2
*D23
 70
     1
 10
0.0
 20
0.0
 30
0.0
  3
*D23
  1

  0
LINE
  5
8192
330
807D
100
AcDbEntity
  8
3
 62
     0
440
 16777216
370
    -2
100
AcDbLine
 10
2761.397657164911
 20
1959.683647820611
 30
0.0
 11
2761.397657164911
 21
2039.683647820611
 31
0.0
  0
MTEXT
  5
8193
330
807D
100
AcDbEntity
  8
3
 62
     0
440
 16777216
100
AcDbMText
 10
2854.302530981528
 20
1999.683647820612
 30
0.0
 40
75.0
 41
0.0
 46
0.0
 71
     5
 72
     1
  1
\A1;(80)
 11
0.0000000000000001
 21
1.0
 31
0.0
 73
     1
 44
1.0
  0
POINT
  5
8194
330
807D
100
AcDbEntity
  8
DEFPOINTS
 62
     0
440
 16777216
100
AcDbPoint
 10
2400.303397801782
 20
1959.683647820611
 30
0.0
  0
POINT
  5
8195
330
807D
100
AcDbEntity
  8
DEFPOINTS
 62
     0
440
 16777216
100
AcDbPoint
 10
2400.303397801782
 20
2039.683647820611
 30
0.0
  0
POINT
  5
8196
330
807D
100
AcDbEntity
  8
DEFPOINTS
 62
     0
440
 16777216
100
AcDbPoint
 10
2761.397657164911
 20
2039.683647820611
 30
0.0
  0
ENDBLK
  5
8084
330
807D
100
AcDbEntity
  8
0
100
AcDbBlockEnd
  0
BLOCK
  5
8087
330
8086
100
AcDbEntity
  8
0
100
AcDbBlockBegin
  2
*D24
 70
     1
 10
0.0
 20
0.0
 30
0.0
  3
*D24
  1

  0
LINE
  5
8189
330
8086
100
AcDbEntity
  8
3
 62
     0
440
 16777216
370
    -2
100
AcDbLine
 10
2472.803397801782
 20
3222.683647820612
 30
0.0
 11
2975.798550140423
 21
3222.683647820612
 31
0.0
  0
LINE
  5
818A
330
8086
100
AcDbEntity
  8
3
 62
     0
440
 16777216
370
    -2
100
AcDbLine
 10
2412.803397801782
 20
1859.683647820611
 30
0.0
 11
2975.798550140422
 21
1859.683647820611
 31
0.0
  0
LINE
  5
818B
330
8086
100
AcDbEntity
  8
3
 62
     0
440
 16777216
370
    -2
100
AcDbLine
 10
2950.798550140423
 20
3172.683647820611
 30
0.0
 11
2950.798550140422
 21
1909.683647820611
 31
0.0
  0
INSERT
  5
818C
330
8086
100
AcDbEntity
  8
3
 62
     0
440
 16777216
370
    -2
100
AcDbBlockReference
  2
_OPEN
 10
2950.798550140423
 20
3222.683647820612
 30
0.0
 41
50.0
 42
50.0
 43
50.0
 50
90.0
  0
INSERT
  5
818D
330
8086
100
AcDbEntity
  8
3
 62
     0
440
 16777216
370
    -2
100
AcDbBlockReference
  2
_OPEN
 10
2950.798550140422
 20
1859.683647820611
 30
0.0
 41
50.0
 42
50.0
 43
50.0
 50
270.0
  0
MTEXT
  5
818E
330
8086
100
AcDbEntity
  8
3
 62
     0
440
 16777216
100
AcDbMText
 10
2868.655692997564
 20
2541.183647820612
 30
0.0
 40
75.0
 41
0.0
 46
0.0
 71
     5
 72
     1
  1
\A1;(1363)
 11
0.0000000000000001
 21
1.0
 31
0.0
 73
     1
 44
1.0
  0
POINT
  5
818F
330
8086
100
AcDbEntity
  8
DEFPOINTS
 62
     0
440
 16777216
100
AcDbPoint
 10
2460.303397801782
 20
3222.683647820612
 30
0.0
  0
POINT
  5
8190
330
8086
100
AcDbEntity
  8
DEFPOINTS
 62
     0
440
 16777216
100
AcDbPoint
 10
2400.303397801782
 20
1859.683647820611
 30
0.0
  0
POINT
  5
8191
330
8086
100
AcDbEntity
  8
DEFPOINTS
 62
     0
440
 16777216
100
AcDbPoint
 10
2950.798550140422
 20
1859.683647820611
 30
0.0
  0
ENDBLK
  5
8091
330
8086
100
AcDbEntity
  8
0
100
AcDbBlockEnd
  0
ENDSEC
  0
SECTION
  2
ENTITIES
  0
LINE
  5
7C22
330
19
100
AcDbEntity
  8
2
100
AcDbLine
 10
1389.049655495855
 20
2544.683647820612
 30
0.0
 11
2507.196370904778
 21
2544.683647820612
 31
0.0
  0
LINE
  5
7C23
330
19
100
AcDbEntity
  8
2
100
AcDbLine
 10
2000.303397801782
 20
3264.316483472486
 30
0.0
 11
2000.303397801783
 21
1859.683647820611
 31
0.0
  0
ARC
  5
7C24
330
19
100
AcDbEntity
  8
1
100
AcDbCircle
 10
2047.303397801782
 20
2591.683647820612
 30
0.0
 40
595.0
100
AcDbArc
 50
94.53060504268263
 51
184.5306050426826
  0
ARC
  5
7C25
330
19
100
AcDbEntity
  8
1
100
AcDbCircle
 10
1953.303397801782
 20
2591.683647820612
 30
0.0
 40
501.0
100
AcDbArc
 50
185.3829686498813
 51
244.448188039322
  0
ARC
  5
7C26
330
19
100
AcDbEntity
  8
1
100
AcDbCircle
 10
1962.303397801782
 20
2506.683647820612
 30
0.0
 40
416.0
100
AcDbArc
 50
298.0896983689055
 51
5.241055061296707
  0
ARC
  5
7C27
330
19
100
AcDbEntity
  8
1
100
AcDbCircle
 10
2038.303397801782
 20
2506.683647820612
 30
0.0
 40
340.0
100
AcDbArc
 50
6.417053143028675
 51
11.19318360568382
  0
LINE
  5
7C28
330
19
100
AcDbEntity
  8
1
100
AcDbLine
 10
2460.303397801782
 20
3264.683647820611
 30
0.0
 11
2460.303397801782
 21
2530.683647820612
 31
0.0
  0
LINE
  5
7C29
330
19
100
AcDbEntity
  8
1
100
AcDbLine
 10
2460.303397801782
 20
3222.683647820612
 30
0.0
 11
2000.303397801782
 21
3184.824440550297
 31
0.0
  0
LINE
  5
7C2A
330
19
100
AcDbEntity
  8
1
100
AcDbLine
 10
2371.836004903396
 20
2572.683647820611
 30
0.0
 11
2460.303397801782
 21
2572.683647820611
 31
0.0
  0
LINE
  5
7C2B
330
19
100
AcDbEntity
  8
1
100
AcDbLine
 10
2420.303397801782
 20
3219.391542840585
 30
0.0
 11
2420.303397801782
 21
2572.683647820611
 31
0.0
  0
LINE
  5
7C2C
330
19
100
AcDbEntity
  8
1
100
AcDbLine
 10
2457.303397801782
 20
3264.683647820611
 30
0.0
 11
2460.303397801782
 21
3264.683647820611
 31
0.0
  0
LINE
  5
7C2D
330
19
100
AcDbEntity
  8
1
100
AcDbLine
 10
2457.303397801782
 20
2530.683647820612
 30
0.0
 11
2460.303397801782
 21
2530.683647820612
 31
0.0
  0
LINE
  5
7C2E
330
19
100
AcDbEntity
  8
1
100
AcDbLine
 10
2457.303397801782
 20
3264.683647820611
 30
0.0
 11
2457.303397801782
 21
2530.683647820612
 31
0.0
  0
LINE
  5
7C2F
330
19
100
AcDbEntity
  8
1
100
AcDbLine
 10
850.3033978017819
 20
2139.683647820612
 30
0.0
 11
2400.303397801782
 21
2139.683647820612
 31
0.0
  0
LINE
  5
7C30
330
19
100
AcDbEntity
  8
1
100
AcDbLine
 10
850.3033978017819
 20
2039.683647820611
 30
0.0
 11
2400.303397801782
 21
2039.683647820611
 31
0.0
1001
ACAD
1000
ASC_BOUNDS
1002
{
1070
    19
1002
}
  0
LINE
  5
7C31
330
19
100
AcDbEntity
  8
1
100
AcDbLine
 10
2400.303397801782
 20
2139.683647820612
 30
0.0
 11
2400.303397801782
 21
2039.683647820611
 31
0.0
  0
LINE
  5
7C32
330
19
100
AcDbEntity
  8
1
100
AcDbLine
 10
850.3033978017819
 20
2139.683647820612
 30
0.0
 11
850.3033978017819
 21
2039.683647820611
 31
0.0
  0
LINE
  5
7C33
330
19
100
AcDbEntity
  8
2
100
AcDbLine
 10
1150.303397801782
 20
2560.177465814146
 30
0.0
 11
1150.303397801782
 21
1859.683647820611
 31
0.0
  0
LINE
  5
7C34
330
19
100
AcDbEntity
  8
2
100
AcDbLine
 10
3987.946594890825
 20
3314.577286870121
 30
0.0
 11
3987.946594890825
 21
1859.683647820611
 31
0.0
  0
LINE
  5
7C35
330
19
100
AcDbEntity
  8
2
100
AcDbLine
 10
3201.848470695186
 20
2544.683647820612
 30
0.0
 11
4526.068166362811
 21
2544.683647820612
 31
0.0
  0
LINE
  5
7C36
330
19
100
AcDbEntity
  8
1
100
AcDbLine
 10
3405.946594890826
 20
2039.683647820611
 30
0.0
 11
4465.946594890827
 21
2039.683647820611
 31
0.0
1001
ACAD
1000
ASC_BOUNDS
1002
{
1070
    19
1002
}
  0
LINE
  5
7C37
330
19
100
AcDbEntity
  8
1
100
AcDbLine
 10
3405.946594890826
 20
2139.683647820612
 30
0.0
 11
4465.946594890827
 21
2139.683647820612
 31
0.0
  0
LINE
  5
7C38
330
19
100
AcDbEntity
  8
1
100
AcDbLine
 10
3405.946594890826
 20
2139.683647820612
 30
0.0
 11
3405.946594890826
 21
2039.683647820611
 31
0.0
  0
LINE
  5
7C39
330
19
100
AcDbEntity
  8
1
100
AcDbLine
 10
4465.946594890827
 20
2139.683647820612
 30
0.0
 11
4465.946594890826
 21
2039.683647820611
 31
0.0
  0
LINE
  5
7C3A
330
19
100
AcDbEntity
  8
1
100
AcDbLine
 10
4412.946594890826
 20
3222.683647820612
 30
0.0
 11
4412.946594890826
 21
2572.683647820611
 31
0.0
  0
LINE
  5
7C3B
330
19
100
AcDbEntity
  8
1
100
AcDbLine
 10
3562.946594890826
 20
3222.683647820612
 30
0.0
 11
4412.946594890827
 21
3222.683647820612
 31
0.0
  0
LINE
  5
7C3C
330
19
100
AcDbEntity
  8
1
100
AcDbLine
 10
3562.946594890826
 20
2572.683647820611
 30
0.0
 11
4412.946594890826
 21
2572.683647820611
 31
0.0
  0
LINE
  5
7C3D
330
19
100
AcDbEntity
  8
1
100
AcDbLine
 10
4412.946594890826
 20
2572.683647820611
 30
0.0
 11
4412.946594890826
 21
2139.683647820612
 31
0.0
  0
LINE
  5
7C3E
330
19
100
AcDbEntity
  8
2
100
AcDbLine
 10
2000.303397801782
 20
5207.019703409993
 30
0.0
 11
2000.303397801782
 21
3780.949654558376
 31
0.0
  0
LINE
  5
7C3F
330
19
100
AcDbEntity
  8
2
100
AcDbLine
 10
1452.303397801782
 20
4688.000989901124
 30
0.0
 11
2513.907243537848
 21
4688.000989901125
 31
0.0
  0
LINE
  5
7C42
330
19
100
AcDbEntity
  8
1
100
AcDbLine
 10
850.3033978017819
 20
1859.683647820611
 30
0.0
 11
2400.303397801782
 21
1859.683647820611
 31
0.0
  0
LINE
  5
7C43
330
19
100
AcDbEntity
  8
1
100
AcDbLine
 10
850.3033978017819
 20
1959.683647820611
 30
0.0
 11
2400.303397801782
 21
1959.683647820611
 31
0.0
1001
ACAD
1000
ASC_BOUNDS
1002
{
1070
    19
1002
}
  0
LINE
  5
7C44
330
19
100
AcDbEntity
  8
1
100
AcDbLine
 10
850.3033978017819
 20
1959.683647820611
 30
0.0
 11
850.3033978017819
 21
1859.683647820611
 31
0.0
  0
LINE
  5
7C45
330
19
100
AcDbEntity
  8
1
100
AcDbLine
 10
2400.303397801782
 20
1959.683647820611
 30
0.0
 11
2400.303397801782
 21
1859.683647820611
 31
0.0
  0
ARC
  5
7C46
330
19
100
AcDbEntity
  8
1
100
AcDbCircle
 10
1150.303397801782
 20
2356.683647820611
 30
0.0
 40
142.5
100
AcDbArc
 50
295.2746
 51
0.0
  0
ARC
  5
7C47
330
19
100
AcDbEntity
  8
1
100
AcDbCircle
 10
1150.303397801782
 20
2356.683647820611
 30
0.0
 40
142.5
100
AcDbArc
 50
0.0
 51
244.9988
  0
LINE
  5
7C49
330
19
100
AcDbEntity
  8
1
100
AcDbLine
 10
1210.844797801782
 20
2227.683647820612
 30
0.0
 11
1089.762097801782
 21
2227.683647820612
 31
0.0
  0
LINE
  5
7C4A
330
19
100
AcDbEntity
  8
1
100
AcDbLine
 10
1062.840397801782
 20
2244.191147820612
 30
0.0
 11
1059.211597801782
 21
2240.562347820612
 31
0.0
  0
LINE
  5
7C4B
330
19
100
AcDbEntity
  8
1
100
AcDbLine
 10
1030.820597801782
 20
2278.934247820611
 30
0.0
 11
1020.303397801782
 21
2239.683647820612
 31
0.0
  0
LINE
  5
7C4C
330
19
100
AcDbEntity
  8
1
100
AcDbLine
 10
1057.090297801782
 20
2239.683647820612
 30
0.0
 11
1022.303397801782
 21
2239.683647820612
 31
0.0
  0
ARC
  5
7C4D
330
19
100
AcDbEntity
  8
1
100
AcDbCircle
 10
1022.303397801782
 20
2237.683647820611
 30
0.0
 40
2.0
100
AcDbArc
 50
90.0
 51
180.0
  0
LINE
  5
7C4E
330
19
100
AcDbEntity
  8
1
100
AcDbLine
 10
1020.303397801782
 20
2239.486247820611
 30
0.0
 11
1020.303397801782
 21
2224.683647820612
 31
0.0
  0
ARC
  5
7C52
330
19
100
AcDbEntity
  8
1
100
AcDbCircle
 10
1057.090297801782
 20
2242.683647820612
 30
0.0
 40
3.0
100
AcDbArc
 50
270.0
 51
314.9996
  0
ARC
  5
7C53
330
19
100
AcDbEntity
  8
1
100
AcDbCircle
 10
1075.303397801782
 20
2232.612647820612
 30
0.0
 40
4.9999
100
AcDbArc
 50
134.9995
 51
180.0
  0
LINE
  5
7C54
330
19
100
AcDbEntity
  8
1
100
AcDbLine
 10
1071.423597801782
 20
2235.803847820611
 30
0.0
 11
1072.794497801782
 21
2237.174747820612
 31
0.0
  0
LINE
  5
7C55
330
19
100
AcDbEntity
  8
1
100
AcDbLine
 10
1070.303397801782
 20
2224.683647820612
 30
0.0
 11
1070.303397801782
 21
2232.612647820612
 31
0.0
  0
LINE
  5
7C56
330
19
100
AcDbEntity
  8
1
100
AcDbLine
 10
1269.828997801782
 20
2278.774947820612
 30
0.0
 11
1280.303397801782
 21
2239.683647820612
 31
0.0
  0
LINE
  5
7C57
330
19
100
AcDbEntity
  8
1
100
AcDbLine
 10
1243.516597801782
 20
2239.683647820612
 30
0.0
 11
1278.303397801782
 21
2239.683647820612
 31
0.0
  0
ARC
  5
7C58
330
19
100
AcDbEntity
  8
1
100
AcDbCircle
 10
1225.303497801782
 20
2232.612647820612
 30
0.0
 40
4.9999
100
AcDbArc
 50
0.0
 51
45.0005
  0
LINE
  5
7C59
330
19
100
AcDbEntity
  8
1
100
AcDbLine
 10
1228.678597801782
 20
2236.308647820612
 30
0.0
 11
1227.876597801782
 21
2237.110647820612
 31
0.0
  0
LINE
  5
7C5A
330
19
100
AcDbEntity
  8
1
100
AcDbLine
 10
1230.303397801782
 20
2224.683647820612
 30
0.0
 11
1230.303397801782
 21
2232.612647820612
 31
0.0
  0
ARC
  5
7C5B
330
19
100
AcDbEntity
  8
1
100
AcDbCircle
 10
1243.516597801782
 20
2242.683647820612
 30
0.0
 40
3.0
100
AcDbArc
 50
225.0
 51
270.0
  0
LINE
  5
7C5C
330
19
100
AcDbEntity
  8
1
100
AcDbLine
 10
1237.647697801782
 20
2244.309847820612
 30
0.0
 11
1241.395297801782
 21
2240.562347820612
 31
0.0
  0
ARC
  5
7C60
330
19
100
AcDbEntity
  8
1
100
AcDbCircle
 10
1278.303397801782
 20
2237.683647820611
 30
0.0
 40
2.0
100
AcDbArc
 50
0.0
 51
90.0
  0
LINE
  5
7C61
330
19
100
AcDbEntity
  8
1
100
AcDbLine
 10
1280.303397801782
 20
2239.486247820611
 30
0.0
 11
1280.303397801782
 21
2224.683647820612
 31
0.0
  0
LINE
  5
7C62
330
19
100
AcDbEntity
  8
2
100
AcDbLine
 10
970.6332786265175
 20
2356.683647820611
 30
0.0
 11
1318.804163327442
 21
2356.683647820611
 31
0.0
  0
LINE
  5
7C63
330
19
100
AcDbEntity
  8
1
100
AcDbLine
 10
1150.303397801782
 20
2498.240647820611
 30
0.0
 11
1150.303497801782
 21
2504.096647820612
 31
0.0
  0
LINE
  5
7C64
330
19
100
AcDbEntity
  8
1
100
AcDbLine
 10
1350.303397801782
 20
2179.683647820612
 30
0.0
 11
1350.303397801782
 21
2139.683647820612
 31
0.0
  0
LINE
  5
7C65
330
19
100
AcDbEntity
  8
1
100
AcDbLine
 10
950.3033978017819
 20
2179.683647820612
 30
0.0
 11
950.3033978017819
 21
2139.683647820612
 31
0.0
  0
LINE
  5
7C66
330
19
100
AcDbEntity
  8
1
100
AcDbLine
 10
950.3033978017819
 20
2179.683647820612
 30
0.0
 11
1350.303397801782
 21
2179.683647820612
 31
0.0
  0
LINE
  5
7C68
330
19
100
AcDbEntity
  8
1
100
AcDbLine
 10
986.4677411879874
 20
2224.683647820612
 30
0.0
 11
1100.303397801782
 21
2224.683647820612
 31
0.0
  0
LINE
  5
7C69
330
19
100
AcDbEntity
  8
1
100
AcDbLine
 10
975.3033978017819
 20
2179.683647820612
 30
0.0
 11
986.4677411879874
 21
2224.683647820612
 31
0.0
  0
LINE
  5
7C6A
330
19
100
AcDbEntity
  8
1
100
AcDbLine
 10
1325.303397801782
 20
2179.683647820612
 30
0.0
 11
1312.925909193109
 21
2224.683647820612
 31
0.0
  0
LINE
  5
7C6B
330
19
100
AcDbEntity
  8
1
100
AcDbLine
 10
1100.303397801782
 20
2219.683647820612
 30
0.0
 11
1200.303397801782
 21
2219.683647820612
 31
0.0
  0
LINE
  5
7C6D
330
19
100
AcDbEntity
  8
1
100
AcDbLine
 10
1200.303397801782
 20
2224.683647820612
 30
0.0
 11
1200.303397801782
 21
2219.683647820612
 31
0.0
  0
LINE
  5
7C6E
330
19
100
AcDbEntity
  8
1
100
AcDbLine
 10
1100.303397801782
 20
2224.683647820612
 30
0.0
 11
1100.303397801782
 21
2219.683647820612
 31
0.0
  0
LINE
  5
7C6F
330
19
100
AcDbEntity
  8
1
100
AcDbLine
 10
1200.303397801782
 20
2224.683647820612
 30
0.0
 11
1312.925909193109
 21
2224.683647820612
 31
0.0
  0
LINE
  5
7C74
330
19
100
AcDbEntity
  8
1
100
AcDbLine
 10
3405.946594890826
 20
1959.683647820611
 30
0.0
 11
4465.946594890826
 21
1959.683647820611
 31
0.0
1001
ACAD
1000
ASC_BOUNDS
1002
{
1070
    19
1002
}
  0
LINE
  5
7C75
330
19
100
AcDbEntity
  8
1
100
AcDbLine
 10
3405.946594890826
 20
1859.683647820611
 30
0.0
 11
4465.946594890826
 21
1859.683647820611
 31
0.0
  0
LINE
  5
7C76
330
19
100
AcDbEntity
  8
1
100
AcDbLine
 10
3405.946594890826
 20
1959.683647820611
 30
0.0
 11
3405.946594890826
 21
1859.683647820611
 31
0.0
  0
LINE
  5
7C77
330
19
100
AcDbEntity
  8
1
100
AcDbLine
 10
4465.946594890826
 20
1959.683647820611
 30
0.0
 11
4465.946594890826
 21
1859.683647820611
 31
0.0
  0
DIMENSION
  5
7C78
330
19
100
AcDbEntity
  8
3
100
AcDbDimension
280
     0
  2
*D1
 10
2400.303397801782
 20
1707.151848617885
 30
0.0
 11
2200.303397801782
 21
1757.151848617885
 31
0.0
 70
    32
 71
     5
 42
400.0
 73
     0
 74
     0
 75
     0
  3
MATSU
100
AcDbAlignedDimension
 13
2000.303397801782
 23
1859.683647820611
 33
0.0
 14
2400.303397801782
 24
1859.683647820611
 34
0.0
100
AcDbRotatedDimension
1001
ACAD
1000
DSTYLE
1002
{
1070
    40
1040
25.0
1002
}
  0
DIMENSION
  5
7C79
330
19
100
AcDbEntity
  8
3
100
AcDbDimension
280
     0
  2
*D2
 10
2610.261219718792
 20
2572.683647820611
 30
0.0
 11
2560.261219718792
 21
2897.683647820612
 31
0.0
 12
1420.650401407543
 22
1976.586021370491
 32
0.0
 70
    32
 71
     5
 42
-1.0
 73
     0
 74
     0
 75
     0
  3
MATSU
100
AcDbAlignedDimension
 13
2460.303397801782
 23
3222.683647820612
 33
0.0
 14
2460.303397801782
 24
2572.683647820611
 34
0.0
 50
90.0
100
AcDbRotatedDimension
1001
ACAD
1000
DSTYLE
1002
{
1070
    40
1040
25.0
1002
}
  0
DIMENSION
  5
7C7A
330
19
100
AcDbEntity
  8
3
100
AcDbDimension
280
     0
  2
*D3
 10
2759.805063922475
 20
2544.683647820612
 30
0.0
 11
2709.805063922475
 21
2883.683647820612
 31
0.0
 12
1420.650401407543
 22
1976.586021370491
 32
0.0
 70
    32
 71
     5
 42
-1.0
 73
     0
 74
     0
 75
     0
  3
MATSU
100
AcDbAlignedDimension
 13
2460.303397801782
 23
3222.683647820612
 33
0.0
 14
2507.196370904778
 24
2544.683647820612
 34
0.0
 50
90.0
100
AcDbRotatedDimension
1001
ACAD
1000
DSTYLE
1002
{
1070
    40
1040
25.0
1002
}
  0
POINT
  5
7C7B
330
19
100
AcDbEntity
  8
1
100
AcDbPoint
 10
2400.303397801782
 20
1859.683647820611
 30
0.0
  0
POINT
  5
7C7C
330
19
100
AcDbEntity
  8
1
100
AcDbPoint
 10
2400.303397801782
 20
2039.683647820611
 30
0.0
  0
DIMENSION
  5
7C7D
330
19
100
AcDbEntity
  8
3
100
AcDbDimension
280
     0
  2
*D4
 10
2000.303397801782
 20
3415.678216703776
 30
0.0
 11
2230.303397801782
 21
3465.678216703776
 31
0.0
 12
1420.650401407543
 22
1976.586021370491
 32
0.0
 70
    32
 71
     5
 42
-1.0
 73
     0
 74
     0
 75
     0
  3
MATSU
100
AcDbAlignedDimension
 13
2460.303397801782
 23
3264.683647820611
 33
0.0
 14
2000.303397801782
 24
3264.316483472486
 34
0.0
100
AcDbRotatedDimension
1001
ACAD
1000
DSTYLE
1002
{
1070
    40
1040
25.0
1002
}
  0
DIMENSION
  5
7C7E
330
19
100
AcDbEntity
  8
3
100
AcDbDimension
280
     0
  2
*D5
 10
1454.512860602047
 20
3415.457770329644
 30
0.0
 11
1727.408129201914
 21
3465.457770329644
 31
0.0
 12
1420.650401407543
 22
1976.586021370491
 32
0.0
 70
    32
  1
548
 71
     5
 42
-1.0
 73
     0
 74
     0
 75
     0
  3
MATSU
100
AcDbAlignedDimension
 13
2000.303397801782
 23
3264.316483472486
 33
0.0
 14
1454.512860602047
 24
2544.683647820612
 34
0.0
100
AcDbRotatedDimension
1001
ACAD
1000
DSTYLE
1002
{
1070
    40
1040
25.0
1002
}
  0
LINE
  5
7C81
330
19
100
AcDbEntity
  8
1
100
AcDbLine
 10
3562.946594890826
 20
3222.683647820612
 30
0.0
 11
3562.946594890826
 21
2572.683647820611
 31
0.0
  0
LINE
  5
7C82
330
19
100
AcDbEntity
  8
1
100
AcDbLine
 10
3562.946594890826
 20
2572.683647820611
 30
0.0
 11
3562.946594890826
 21
2139.683647820612
 31
0.0
  0
DIMENSION
  5
7C83
330
19
100
AcDbEntity
  8
3
100
AcDbDimension
280
     0
  2
*D6
 10
3987.946594890826
 20
1707.697227844683
 30
0.0
 11
3696.946594890827
 21
1757.697227844683
 31
0.0
 70
    32
 71
     5
 42
582.0
 73
     0
 74
     0
 75
     0
  3
MATSU
100
AcDbAlignedDimension
 13
3405.946594890826
 23
1859.683647820611
 33
0.0
 14
3987.946594890826
 24
1859.683647820611
 34
0.0
100
AcDbRotatedDimension
1001
ACAD
1000
DSTYLE
1002
{
1070
    40
1040
25.0
1002
}
  0
DIMENSION
  5
7C84
330
19
100
AcDbEntity
  8
3
100
AcDbDimension
280
     0
  2
*D7
 10
4465.946594890826
 20
1707.697227844683
 30
0.0
 11
4226.946594890826
 21
1757.697227844683
 31
0.0
 70
    32
 71
     5
 42
478.0
 73
     0
 74
     0
 75
     0
  3
MATSU
100
AcDbAlignedDimension
 13
3987.946594890826
 23
1859.683647820611
 33
0.0
 14
4465.946594890826
 24
1859.683647820611
 34
0.0
100
AcDbRotatedDimension
1001
ACAD
1000
DSTYLE
1002
{
1070
    40
1040
25.0
1002
}
  0
LINE
  5
7C86
330
19
100
AcDbEntity
  8
1
100
AcDbLine
 10
3404.946594890827
 20
2569.683647820612
 30
0.0
 11
3404.946594890827
 21
2519.683647820612
 31
0.0
  0
LINE
  5
7C87
330
19
100
AcDbEntity
  8
1
100
AcDbLine
 10
3364.946594890826
 20
2565.683647820612
 30
0.0
 11
3404.946594890827
 21
2565.683647820612
 31
0.0
  0
LINE
  5
7C88
330
19
100
AcDbEntity
  8
1
100
AcDbLine
 10
3364.946594890826
 20
2523.683647820611
 30
0.0
 11
3404.946594890827
 21
2523.683647820611
 31
0.0
  0
LINE
  5
7C89
330
19
100
AcDbEntity
  8
1
100
AcDbLine
 10
3404.946594890827
 20
2569.683647820612
 30
0.0
 11
3562.946594890826
 21
2569.683647820611
 31
0.0
  0
LINE
  5
7C8A
330
19
100
AcDbEntity
  8
1
100
AcDbLine
 10
3404.946594890827
 20
2519.683647820612
 30
0.0
 11
3562.946594890826
 21
2519.683647820612
 31
0.0
  0
LINE
  5
7C8B
330
19
100
AcDbEntity
  8
1
100
AcDbLine
 10
3550.646594890827
 20
2513.683647820612
 30
0.0
 11
3550.646594890827
 21
2363.683647820611
 31
0.0
  0
LINE
  5
7C8C
330
19
100
AcDbEntity
  8
1
100
AcDbLine
 10
3425.646594890827
 20
2503.683647820612
 30
0.0
 11
3425.646594890827
 21
2373.683647820612
 31
0.0
  0
LINE
  5
7C8D
330
19
100
AcDbEntity
  8
1
100
AcDbLine
 10
3435.646594890827
 20
2513.683647820612
 30
0.0
 11
3510.646594890825
 21
2513.683647820612
 31
0.0
  0
LINE
  5
7C8E
330
19
100
AcDbEntity
  8
1
100
AcDbLine
 10
3435.646594890827
 20
2363.683647820611
 30
0.0
 11
3510.646594890825
 21
2363.683647820611
 31
0.0
  0
ARC
  5
7C8F
330
19
100
AcDbEntity
  8
1
100
AcDbCircle
 10
3435.646594890827
 20
2503.683647820612
 30
0.0
 40
10.0
100
AcDbArc
 50
90.0
 51
180.0
  0
ARC
  5
7C90
330
19
100
AcDbEntity
  8
1
100
AcDbCircle
 10
3435.646594890827
 20
2373.683647820612
 30
0.0
 40
10.0
100
AcDbArc
 50
180.0
 51
270.0
  0
LINE
  5
7C91
330
19
100
AcDbEntity
  8
1
100
AcDbLine
 10
3510.646594890827
 20
2513.683647820612
 30
0.0
 11
3550.646594890827
 21
2513.683647820612
 31
0.0
  0
LINE
  5
7C92
330
19
100
AcDbEntity
  8
1
100
AcDbLine
 10
3510.646594890827
 20
2363.683647820611
 30
0.0
 11
3550.646594890827
 21
2363.683647820611
 31
0.0
  0
LINE
  5
7C93
330
19
100
AcDbEntity
  8
1
100
AcDbLine
 10
4425.446594890825
 20
2531.083647820612
 30
0.0
 11
4425.446594890825
 21
2411.083647820611
 31
0.0
  0
LINE
  5
7C94
330
19
100
AcDbEntity
  8
1
100
AcDbLine
 10
4515.446594890827
 20
2521.083647820611
 30
0.0
 11
4515.446594890827
 21
2421.083647820611
 31
0.0
  0
LINE
  5
7C95
330
19
100
AcDbEntity
  8
1
100
AcDbLine
 10
4425.446594890825
 20
2531.083647820612
 30
0.0
 11
4465.246594890826
 21
2531.083647820612
 31
0.0
  0
LINE
  5
7C96
330
19
100
AcDbEntity
  8
1
100
AcDbLine
 10
4425.446594890825
 20
2411.083647820611
 30
0.0
 11
4465.246594890826
 21
2411.083647820611
 31
0.0
  0
ARC
  5
7C97
330
19
100
AcDbEntity
  8
1
100
AcDbCircle
 10
4505.446594890826
 20
2521.083647820611
 30
0.0
 40
10.0
100
AcDbArc
 50
0.0
 51
90.0
  0
ARC
  5
7C98
330
19
100
AcDbEntity
  8
1
100
AcDbCircle
 10
4505.446594890826
 20
2421.083647820611
 30
0.0
 40
10.0
100
AcDbArc
 50
270.0
 51
0.0
  0
LINE
  5
7C99
330
19
100
AcDbEntity
  8
1
100
AcDbLine
 10
4465.246594890826
 20
2411.083647820611
 30
0.0
 11
4505.446594890826
 21
2411.083647820611
 31
0.0
  0
LINE
  5
7C9A
330
19
100
AcDbEntity
  8
1
100
AcDbLine
 10
4465.246594890826
 20
2531.083647820612
 30
0.0
 11
4505.446594890826
 21
2531.083647820612
 31
0.0
  0
DIMENSION
  5
7C9B
330
19
100
AcDbEntity
  8
3
100
AcDbDimension
280
     0
  2
*D8
 10
2000.303397801782
 20
1706.635539142537
 30
0.0
 11
1425.303397801782
 21
1756.635539142537
 31
0.0
 70
    32
 71
     5
 42
1150.0
 73
     0
 74
     0
 75
     0
  3
MATSU
100
AcDbAlignedDimension
 13
850.3033978017819
 23
1859.683647820611
 33
0.0
 14
2000.303397801782
 24
1859.683647820611
 34
0.0
100
AcDbRotatedDimension
1001
ACAD
1000
DSTYLE
1002
{
1070
    40
1040
25.0
1002
}
  0
CIRCLE
  5
7C9D
330
19
100
AcDbEntity
  8
1
100
AcDbCircle
 10
1150.303397801782
 20
2356.683647820611
 30
0.0
 40
79.0
  0
CIRCLE
  5
7C9E
330
19
100
AcDbEntity
  8
1
100
AcDbCircle
 10
2000.303397801782
 20
2544.683647820612
 30
0.0
 40
88.9
  0
ARC
  5
7C9F
330
19
100
AcDbEntity
  8
1
100
AcDbCircle
 10
2000.303397801782
 20
2544.683647820612
 30
0.0
 40
150.0
100
AcDbArc
 50
282.4716975566092
 51
102.4716975566092
  0
ARC
  5
7CA0
330
19
100
AcDbEntity
  8
1
100
AcDbCircle
 10
1150.303397801782
 20
2356.683647820611
 30
0.0
 40
150.0
100
AcDbArc
 50
102.4716975566092
 51
282.4716975566092
  0
LINE
  5
7CA1
330
19
100
AcDbEntity
  8
1
100
AcDbLine
 10
1967.909798930483
 20
2691.144068249359
 30
0.0
 11
1117.909798930483
 21
2503.144068249359
 31
0.0
  0
LINE
  5
7CA2
330
19
100
AcDbEntity
  8
1
100
AcDbLine
 10
1980.118899134893
 20
2631.261913069844
 30
0.0
 11
1132.366666702972
 21
2433.620463958849
 31
0.0
  0
LINE
  5
7CA3
330
19
100
AcDbEntity
  8
1
100
AcDbLine
 10
2018.513628677411
 20
2457.668720989313
 30
0.0
 11
1166.485717702509
 21
2279.358797205621
 31
0.0
  0
LINE
  5
7CA4
330
19
100
AcDbEntity
  8
1
100
AcDbLine
 10
2032.696996673081
 20
2398.223227391865
 30
0.0
 11
1182.696996673081
 21
2210.223227391864
 31
0.0
  0
LINE
  5
7CA5
330
19
100
AcDbEntity
  8
1
100
AcDbLine
 10
3282.946594890827
 20
2633.583647820612
 30
0.0
 11
3282.946594890824
 21
2277.683647820611
 31
0.0
  0
LINE
  5
7CA6
330
19
100
AcDbEntity
  8
1
100
AcDbLine
 10
3364.946594890827
 20
2633.583647820612
 30
0.0
 11
3364.946594890824
 21
2277.683647820611
 31
0.0
  0
LINE
  5
7CA7
330
19
100
AcDbEntity
  8
1
100
AcDbLine
 10
3282.946594890827
 20
2633.583647820612
 30
0.0
 11
3364.946594890827
 21
2633.583647820612
 31
0.0
  0
LINE
  5
7CA8
330
19
100
AcDbEntity
  8
1
100
AcDbLine
 10
3282.946594890826
 20
2455.783647820612
 30
0.0
 11
3364.946594890826
 21
2455.783647820612
 31
0.0
  0
LINE
  5
7CA9
330
19
100
AcDbEntity
  8
1
100
AcDbLine
 10
3282.946594890826
 20
2435.683647820612
 30
0.0
 11
3364.946594890826
 21
2435.683647820612
 31
0.0
  0
LINE
  5
7CAA
330
19
100
AcDbEntity
  8
1
100
AcDbLine
 10
3282.946594890824
 20
2277.683647820611
 30
0.0
 11
3364.946594890824
 21
2277.683647820611
 31
0.0
  0
LINE
  5
7CAB
330
19
100
AcDbEntity
  8
1
100
AcDbLine
 10
3187.946594890826
 20
2694.683647820612
 30
0.0
 11
3187.946594890825
 21
2206.683647820611
 31
0.0
  0
LINE
  5
7CAC
330
19
100
AcDbEntity
  8
1
100
AcDbLine
 10
3412.946594890826
 20
2694.683647820612
 30
0.0
 11
3412.946594890828
 21
2674.683647820612
 31
0.0
  0
LINE
  5
7CAD
330
19
100
AcDbEntity
  8
1
100
AcDbLine
 10
3187.946594890827
 20
2694.683647820612
 30
0.0
 11
3412.946594890826
 21
2694.683647820612
 31
0.0
  0
LINE
  5
7CAE
330
19
100
AcDbEntity
  8
1
100
AcDbLine
 10
3187.946594890825
 20
2206.683647820611
 30
0.0
 11
3412.946594890825
 21
2206.683647820611
 31
0.0
  0
LINE
  5
7CAF
330
19
100
AcDbEntity
  8
1
100
AcDbLine
 10
3412.946594890825
 20
2226.683647820612
 30
0.0
 11
3412.946594890825
 21
2206.683647820611
 31
0.0
  0
DIMENSION
  5
7CB0
330
19
100
AcDbEntity
  8
3
100
AcDbDimension
280
     0
  2
*D9
 10
4412.946594890826
 20
3335.861267806864
 30
0.0
 11
3987.946594890826
 21
3385.861267806864
 31
0.0
 12
1420.650401407543
 22
1976.586021370491
 32
0.0
 70
    32
 71
     5
 42
-1.0
 73
     0
 74
     0
 75
     0
  3
MATSU
100
AcDbAlignedDimension
 13
3562.946594890826
 23
3222.683647820612
 33
0.0
 14
4412.946594890826
 24
3222.683647820612
 34
0.0
100
AcDbRotatedDimension
1001
ACAD
1000
DSTYLE
1002
{
1070
    40
1040
25.0
1002
}
  0
POINT
  5
7CB1
330
19
100
AcDbEntity
  8
1
100
AcDbPoint
 10
3187.946594890826
 20
2694.683647820612
 30
0.0
  0
POINT
  5
7CB2
330
19
100
AcDbEntity
  8
1
100
AcDbPoint
 10
4515.446594890827
 20
2521.083647820611
 30
0.0
  0
LINE
  5
7CB3
330
19
100
AcDbEntity
  8
2
100
AcDbLine
 10
1150.303397801782
 20
4498.413470919198
 30
0.0
 11
1150.303397801782
 21
3807.522395329275
 31
0.0
  0
LINE
  5
7CB4
330
19
100
AcDbEntity
  8
1
100
AcDbLine
 10
1600.303397801782
 20
5166.000989901125
 30
0.0
 11
2400.303397801783
 21
5166.000989901125
 31
0.0
  0
LINE
  5
7CB5
330
19
100
AcDbEntity
  8
1
100
AcDbLine
 10
850.3033978017819
 20
4106.000989901124
 30
0.0
 11
2400.303397801782
 21
4106.000989901124
 31
0.0
  0
LINE
  5
7CB6
330
19
100
AcDbEntity
  8
1
100
AcDbLine
 10
2400.303397801782
 20
5166.000989901125
 30
0.0
 11
2400.303397801782
 21
5113.000989901124
 31
0.0
  0
LINE
  5
7CB7
330
19
100
AcDbEntity
  8
1
100
AcDbLine
 10
1600.303397801782
 20
5166.000989901124
 30
0.0
 11
1600.303397801782
 21
5113.000989901124
 31
0.0
  0
LINE
  5
7CB8
330
19
100
AcDbEntity
  8
1
100
AcDbLine
 10
850.3033978017819
 20
4756.000989901123
 30
0.0
 11
850.3033978017819
 21
4106.000989901124
 31
0.0
  0
LINE
  5
7CB9
330
19
100
AcDbEntity
  8
1
100
AcDbLine
 10
850.3033978017816
 20
4756.000989901123
 30
0.0
 11
1452.303397801782
 21
4756.000989901123
 31
0.0
  0
DIMENSION
  5
7CBA
330
19
100
AcDbEntity
  8
3
100
AcDbDimension
280
     0
  2
*D10
 10
2698.941481111844
 20
5166.000989901125
 30
0.0
 11
2648.941481111844
 21
4636.000989901124
 31
0.0
 12
1420.650401407543
 22
1976.586021370491
 32
0.0
 70
    32
 71
     5
 42
-1.0
 73
     0
 74
     0
 75
     0
  3
MATSU
100
AcDbAlignedDimension
 13
2400.303397801782
 23
4106.000989901124
 33
0.0
 14
2400.303397801783
 24
5166.000989901125
 34
0.0
 50
90.0
100
AcDbRotatedDimension
1001
ACAD
1000
DSTYLE
1002
{
1070
    40
1040
25.0
1002
}
  0
DIMENSION
  5
7CBB
330
19
100
AcDbEntity
  8
3
100
AcDbDimension
280
     0
  2
*D11
 10
2400.303397801783
 20
5467.053951240161
 30
0.0
 11
2000.303397801782
 21
5517.053951240161
 31
0.0
 12
1420.650401407543
 22
1976.586021370491
 32
0.0
 70
    32
 71
     5
 42
-1.0
 73
     0
 74
     0
 75
     0
  3
MATSU
100
AcDbAlignedDimension
 13
1600.303397801782
 23
5166.000989901125
 33
0.0
 14
2400.303397801783
 24
5166.000989901125
 34
0.0
100
AcDbRotatedDimension
1001
ACAD
1000
DSTYLE
1002
{
1070
    40
1040
25.0
1002
}
  0
DIMENSION
  5
7CBC
330
19
100
AcDbEntity
  8
3
100
AcDbDimension
280
     0
  2
*D12
 10
551.245345139152
 20
4106.000989901124
 30
0.0
 11
501.245345139152
 21
4431.000989901124
 31
0.0
 12
1420.650401407543
 22
1976.586021370491
 32
0.0
 70
    32
 71
     5
 42
-1.0
 73
     0
 74
     0
 75
     0
  3
MATSU
100
AcDbAlignedDimension
 13
850.3033978017816
 23
4756.000989901123
 33
0.0
 14
850.3033978017819
 24
4106.000989901124
 34
0.0
 50
90.0
100
AcDbRotatedDimension
1001
ACAD
1000
DSTYLE
1002
{
1070
    40
1040
25.0
1002
}
  0
DIMENSION
  5
7CBD
330
19
100
AcDbEntity
  8
3
100
AcDbDimension
280
     0
  2
*D13
 10
2400.303397801782
 20
3710.089027873765
 30
0.0
 11
1625.303397801782
 21
3710.089027873765
 31
0.0
 12
1420.650401407543
 22
1976.586021370491
 32
0.0
 70
   160
 71
     5
 42
-1.0
 73
     0
 74
     0
 75
     0
  3
MATSU
100
AcDbAlignedDimension
 13
850.3033978017819
 23
4106.000989901124
 33
0.0
 14
2400.303397801782
 24
4106.000989901124
 34
0.0
100
AcDbRotatedDimension
1001
ACAD
1000
DSTYLE
1002
{
1070
    40
1040
25.0
1002
}
  0
DIMENSION
  5
7CBE
330
19
100
AcDbEntity
  8
3
100
AcDbDimension
280
     0
  2
*D14
 10
1600.303397801782
 20
5467.053951240161
 30
0.0
 11
1225.303397801782
 21
5517.053951240161
 31
0.0
 12
1420.650401407543
 22
1976.586021370491
 32
0.0
 70
    32
 71
     5
 42
-1.0
 73
     0
 74
     0
 75
     0
  3
MATSU
100
AcDbAlignedDimension
 13
850.3033978017816
 23
4756.000989901123
 33
0.0
 14
1600.303397801782
 24
5166.000989901125
 34
0.0
100
AcDbRotatedDimension
1001
ACAD
1000
DSTYLE
1002
{
1070
    40
1040
25.0
1002
}
  0
DIMENSION
  5
7CBF
330
19
100
AcDbEntity
  8
3
100
AcDbDimension
280
     0
  2
*D15
 10
2760.505354420832
 20
2039.683647820611
 30
0.0
 11
2710.505354420832
 21
2292.183647820611
 31
0.0
 12
1420.650401407543
 22
1976.586021370491
 32
0.0
 70
    32
 71
     5
 42
-1.0
 73
     0
 74
     0
 75
     0
  3
MATSU
100
AcDbAlignedDimension
 13
2507.196370904778
 23
2544.683647820612
 33
0.0
 14
2400.303397801782
 24
2039.683647820611
 34
0.0
 50
90.0
100
AcDbRotatedDimension
1001
ACAD
1000
DSTYLE
1002
{
1070
    40
1040
25.0
1002
}
  0
POINT
  5
7CC0
330
19
100
AcDbEntity
  8
1
100
AcDbPoint
 10
2400.303397801782
 20
1959.683647820611
 30
0.0
  0
POINT
  5
7CC1
330
19
100
AcDbEntity
  8
1
100
AcDbPoint
 10
2400.303397801782
 20
1859.683647820611
 30
0.0
  0
POINT
  5
7CC4
330
19
100
AcDbEntity
  8
1
100
AcDbPoint
 10
2400.303397801782
 20
1959.683647820611
 30
0.0
  0
POINT
  5
7CC5
330
19
100
AcDbEntity
  8
1
100
AcDbPoint
 10
2400.303397801782
 20
2039.683647820611
 30
0.0
  0
CIRCLE
  5
7CC7
330
19
100
AcDbEntity
  8
1
100
AcDbCircle
 10
2000.303397801782
 20
2544.683647820612
 30
0.0
 40
315.0
  0
CIRCLE
  5
7CC8
330
19
100
AcDbEntity
  8
1
100
AcDbCircle
 10
2000.303397801782
 20
2544.683647820612
 30
0.0
 40
355.0
  0
DIMENSION
  5
7CCB
330
19
100
AcDbEntity
  8
3
100
AcDbDimension
280
     0
  2
*D16
 10
3987.946594890825
 20
3533.493461666638
 30
0.0
 11
4251.696594890826
 21
3603.136318809495
 31
0.0
 12
1420.650401407543
 22
1976.586021370491
 32
0.0
 70
    32
  1
(570)
 71
     5
 42
-1.0
 73
     0
 74
     0
 75
     0
  3
MATSU
100
AcDbAlignedDimension
 13
4515.446594890827
 23
2521.083647820611
 33
0.0
 14
3987.946594890825
 24
3434.306412404212
 34
0.0
100
AcDbRotatedDimension
1001
ACAD
1000
DSTYLE
1002
{
1070
    40
1040
25.0
1002
}
  0
DIMENSION
  5
7CCC
330
19
100
AcDbEntity
  8
3
100
AcDbDimension
280
     0
  2
*D17
 10
3187.946594890826
 20
3533.493461666638
 30
0.0
 11
3587.946594890826
 21
3603.136318809495
 31
0.0
 70
    32
  1
(<>)
 71
     5
 42
799.9999999999991
 73
     0
 74
     0
 75
     0
  3
MATSU
100
AcDbAlignedDimension
 13
3987.946594890825
 23
3434.306412404212
 33
0.0
 14
3187.946594890826
 24
2694.683647820612
 34
0.0
100
AcDbRotatedDimension
1001
ACAD
1000
DSTYLE
1002
{
1070
    40
1040
25.0
1002
}
  0
DIMENSION
  5
7CCD
330
19
100
AcDbEntity
  8
3
100
AcDbDimension
280
     0
  2
*D18
 10
4648.172033168907
 20
2229.683647820611
 30
0.0
 11
4598.172033168906
 21
2544.683647820612
 31
0.0
 12
1420.650401407543
 22
1976.586021370491
 32
0.0
 70
    32
 71
     5
 42
-1.0
 73
     0
 74
     0
 75
     0
  3
MATSU
100
AcDbAlignedDimension
 13
4412.946594890826
 23
2859.683647820612
 33
0.0
 14
4412.946594890826
 24
2229.683647820611
 34
0.0
 50
90.0
100
AcDbRotatedDimension
1001
ACAD
1000
DSTYLE
1002
{
1070
    40
1040
25.0
1070
     3
1000
φ<>
1002
}
  0
LINE
  5
7CCE
330
19
100
AcDbEntity
  8
1
100
AcDbLine
 10
4412.946594890826
 20
3222.683647820612
 30
0.0
 11
3562.946594890826
 21
2572.683647820611
 31
0.0
  0
LINE
  5
7CCF
330
19
100
AcDbEntity
  8
1
100
AcDbLine
 10
3562.946594890826
 20
3222.683647820612
 30
0.0
 11
4412.946594890826
 21
2572.683647820611
 31
0.0
  0
LINE
  5
7CD0
330
19
100
AcDbEntity
  8
1
100
AcDbLine
 10
1452.303397801782
 20
5113.000989901124
 30
0.0
 11
2460.303397801782
 21
5113.000989901124
 31
0.0
  0
LINE
  5
7CD1
330
19
100
AcDbEntity
  8
1
100
AcDbLine
 10
1452.303397801782
 20
4263.000989901124
 30
0.0
 11
2460.303397801782
 21
4263.000989901125
 31
0.0
  0
LINE
  5
7CD2
330
19
100
AcDbEntity
  8
1
100
AcDbLine
 10
2460.303397801782
 20
5153.000989901124
 30
0.0
 11
2460.303397801782
 21
4223.000989901125
 31
0.0
  0
LINE
  5
7CD3
330
19
100
AcDbEntity
  8
1
100
AcDbLine
 10
1452.303397801782
 20
5113.000989901124
 30
0.0
 11
1452.303397801782
 21
4263.000989901124
 31
0.0
  0
LINE
  5
7CD5
330
19
100
AcDbEntity
  8
1
100
AcDbLine
 10
2457.303397801782
 20
5153.000989901124
 30
0.0
 11
2460.303397801782
 21
5153.000989901124
 31
0.0
  0
LINE
  5
7CD6
330
19
100
AcDbEntity
  8
1
100
AcDbLine
 10
2457.303397801782
 20
4223.000989901126
 30
0.0
 11
2460.303397801782
 21
4223.000989901126
 31
0.0
  0
LINE
  5
7CD7
330
19
100
AcDbEntity
  8
1
100
AcDbLine
 10
2457.303397801782
 20
5153.000989901124
 30
0.0
 11
2457.303397801782
 21
4223.000989901125
 31
0.0
  0
LINE
  5
7CD8
330
19
100
AcDbEntity
  8
1
100
AcDbLine
 10
1292.803397801782
 20
4414.000989901124
 30
0.0
 11
1292.803397801782
 21
4014.000989901123
 31
0.0
  0
LINE
  5
7CD9
330
19
100
AcDbEntity
  8
1
100
AcDbLine
 10
1007.803397801782
 20
4414.000989901124
 30
0.0
 11
1007.803397801782
 21
4014.000989901124
 31
0.0
  0
LINE
  5
7CDA
330
19
100
AcDbEntity
  8
1
100
AcDbLine
 10
1000.303397801782
 20
3888.000989901124
 30
0.0
 11
2150.303397801782
 21
3888.000989901125
 31
0.0
  0
LINE
  5
7CDB
330
19
100
AcDbEntity
  8
1
100
AcDbLine
 10
1000.303397801782
 20
4048.000989901123
 30
0.0
 11
2150.303397801782
 21
4048.000989901125
 31
0.0
  0
LINE
  5
7CDC
330
19
100
AcDbEntity
  8
1
100
AcDbLine
 10
2150.303397801782
 20
3888.000989901125
 30
0.0
 11
2150.303397801782
 21
4048.000989901125
 31
0.0
  0
LINE
  5
7CDD
330
19
100
AcDbEntity
  8
1
100
AcDbLine
 10
1000.303397801782
 20
3888.000989901124
 30
0.0
 11
1000.303397801782
 21
4048.000989901123
 31
0.0
  0
LINE
  5
7CDE
330
19
100
AcDbEntity
  8
1
100
AcDbLine
 10
1229.303397801782
 20
4009.000989901124
 30
0.0
 11
1229.303397801782
 21
3927.000989901124
 31
0.0
  0
LINE
  5
7CDF
330
19
100
AcDbEntity
  8
1
100
AcDbLine
 10
1071.303397801782
 20
4009.000989901124
 30
0.0
 11
1071.303397801782
 21
3927.000989901124
 31
0.0
  0
LINE
  5
7CE0
330
19
100
AcDbEntity
  8
1
100
AcDbLine
 10
2089.303397801782
 20
4009.000989901124
 30
0.0
 11
2089.303397801782
 21
3927.000989901124
 31
0.0
  0
LINE
  5
7CE1
330
19
100
AcDbEntity
  8
1
100
AcDbLine
 10
1911.303397801782
 20
4009.000989901124
 30
0.0
 11
1911.303397801782
 21
3927.000989901124
 31
0.0
  0
LINE
  5
7CE2
330
19
100
AcDbEntity
  8
1
100
AcDbLine
 10
1071.303397801782
 20
4009.000989901124
 30
0.0
 11
1229.303397801782
 21
4009.000989901124
 31
0.0
  0
LINE
  5
7CE3
330
19
100
AcDbEntity
  8
1
100
AcDbLine
 10
1071.303397801782
 20
3927.000989901124
 30
0.0
 11
1229.303397801782
 21
3927.000989901124
 31
0.0
  0
LINE
  5
7CE4
330
19
100
AcDbEntity
  8
1
100
AcDbLine
 10
1911.303397801782
 20
4009.000989901124
 30
0.0
 11
2089.303397801782
 21
4009.000989901124
 31
0.0
  0
LINE
  5
7CE5
330
19
100
AcDbEntity
  8
1
100
AcDbLine
 10
1911.303397801782
 20
3927.000989901124
 30
0.0
 11
2089.303397801782
 21
3927.000989901125
 31
0.0
  0
LINE
  5
7CE6
330
19
100
AcDbEntity
  8
1
100
AcDbLine
 10
2025.303397801782
 20
4263.000989901125
 30
0.0
 11
2025.303397801782
 21
4009.000989901124
 31
0.0
  0
LINE
  5
7CE7
330
19
100
AcDbEntity
  8
1
100
AcDbLine
 10
1975.303397801782
 20
4263.000989901125
 30
0.0
 11
1975.303397801782
 21
4009.000989901124
 31
0.0
  0
LINE
  5
7CE8
330
19
100
AcDbEntity
  8
1
100
AcDbLine
 10
1007.803397801782
 20
4414.000989901124
 30
0.0
 11
1292.803397801782
 21
4414.000989901124
 31
0.0
  0
LINE
  5
7CE9
330
19
100
AcDbEntity
  8
1
100
AcDbLine
 10
1007.80339780178
 20
4014.000989901124
 30
0.0
 11
1292.80339780178
 21
4014.000989901123
 31
0.0
  0
LINE
  5
7CEA
330
19
100
AcDbEntity
  8
1
100
AcDbLine
 10
1169.303397801782
 20
4014.000989901123
 30
0.0
 11
1169.303397801782
 21
4009.000989901124
 31
0.0
  0
LINE
  5
7CEB
330
19
100
AcDbEntity
  8
1
100
AcDbLine
 10
1131.303397801782
 20
4014.000989901123
 30
0.0
 11
1131.303397801782
 21
4009.000989901124
 31
0.0
  0
LINE
  5
7CEC
330
19
100
AcDbEntity
  8
1
100
AcDbLine
 10
3369.946594890825
 20
2214.183647820612
 30
0.0
 11
3369.946594890826
 21
2499.183647820612
 31
0.0
  0
LINE
  5
7CED
330
19
100
AcDbEntity
  8
1
100
AcDbLine
 10
3369.946594890825
 20
2214.183647820612
 30
0.0
 11
3562.946594890826
 21
2214.183647820612
 31
0.0
  0
LINE
  5
7CEE
330
19
100
AcDbEntity
  8
1
100
AcDbLine
 10
3369.946594890826
 20
2499.183647820612
 30
0.0
 11
3425.646594890827
 21
2499.183647820612
 31
0.0
  0
LINE
  5
7CEF
330
19
100
AcDbEntity
  8
2
100
AcDbLine
 10
3181.615275900988
 20
2356.683647820611
 30
0.0
 11
3562.946594890826
 21
2356.683647820612
 31
0.0
  0
LINE
  5
7CF0
330
19
100
AcDbEntity
  8
1
100
AcDbLine
 10
3364.946594890826
 20
2375.683647820612
 30
0.0
 11
3369.946594890826
 21
2375.683647820612
 31
0.0
  0
LINE
  5
7CF1
330
19
100
AcDbEntity
  8
1
100
AcDbLine
 10
3364.946594890824
 20
2337.683647820611
 30
0.0
 11
3369.946594890826
 21
2337.683647820611
 31
0.0
  0
LINE
  5
7CF2
330
19
100
AcDbEntity
  8
1
100
AcDbLine
 10
3550.646594890827
 20
2499.183647820612
 30
0.0
 11
3562.946594890826
 21
2499.183647820612
 31
0.0
  0
DIMENSION
  5
7CF9
330
19
100
AcDbEntity
  8
3
100
AcDbDimension
280
     0
  2
*D19
 10
850.3033978017819
 20
3524.079901972398
 30
0.0
 11
1655.303397801782
 21
3574.079901972398
 31
0.0
 12
1420.650401407543
 22
1976.586021370491
 32
0.0
 70
    32
 71
     5
 42
-1.0
 73
     0
 74
     0
 75
     0
  3
MATSU
100
AcDbAlignedDimension
 13
2460.303397801782
 23
3264.683647820611
 33
0.0
 14
850.3033978017819
 24
2139.683647820612
 34
0.0
100
AcDbRotatedDimension
1001
ACAD
1000
DSTYLE
1002
{
1070
    40
1040
25.0
1002
}
  0
LINE
  5
7CFA
330
19
100
AcDbEntity
  8
1
100
AcDbLine
 10
2400.303397801782
 20
4263.000989901125
 30
0.0
 11
2400.303397801782
 21
4106.000989901125
 31
0.0
  0
LINE
  5
7F2B
330
19
100
AcDbEntity
  8
4
100
AcDbLine
 10
4625.0
 20
1250.0
 30
0.0
 11
4625.0
 21
750.0
 31
0.0
  0
LINE
  5
7F2C
330
19
100
AcDbEntity
  8
4
100
AcDbLine
 10
2875.0
 20
1250.0
 30
0.0
 11
2875.0
 21
750.0
 31
0.0
  0
LINE
  5
7F2D
330
19
100
AcDbEntity
  8
4
100
AcDbLine
 10
1625.0
 20
1250.0
 30
0.0
 11
1625.0
 21
750.0
 31
0.0
  0
LINE
  5
7F30
330
19
100
AcDbEntity
  8
4
100
AcDbLine
 10
1625.0
 20
750.0
 30
0.0
 11
4625.0
 21
750.0
 31
0.0
  0
LINE
  5
7F31
330
19
100
AcDbEntity
  8
4
100
AcDbLine
 10
1625.0
 20
1000.0
 30
0.0
 11
4625.0
 21
1000.0
 31
0.0
  0
TEXT
  5
7F32
330
19
100
AcDbEntity
  8
4
100
AcDbText
 10
1721.255202117254
 20
1078.857564666532
 30
0.0
 40
125.0
  1
機器名称
100
AcDbText
  0
TEXT
  5
7F33
330
19
100
AcDbEntity
  8
4
100
AcDbText
 10
1715.645265061994
 20
804.1128918300273
 30
0.0
 40
125.0
  1
機器型番
100
AcDbText
  0
TEXT
  5
7F34
330
19
100
AcDbEntity
  8
4
100
AcDbText
 10
2945.446334160461
 20
1054.915450212763
 30
0.0
 40
100.0
  1
ミツヤリミットロードファン
100
AcDbText
  0
TEXT
  5
7F35
330
19
100
AcDbEntity
  8
4
100
AcDbText
 10
2966.636238963701
 20
792.8989606998584
 30
0.0
 40
125.0
  1
LL#4-5
100
AcDbText
  0
TEXT
  5
7F37
330
19
100
AcDbEntity
  8
4
100
AcDbText
 10
1945.138176242624
 20
5971.765289076838
 30
0.0
 40
135.0
  1
床置防振ベット
100
AcDbText
  0
TEXT
  5
7F38
330
19
100
AcDbEntity
  8
4
100
AcDbText
 10
790.4189833236159
 20
6334.702440498245
 30
0.0
 40
180.0
  1
遠心式両吸込両持リミットロードファン
100
AcDbText
  0
LINE
  5
7F39
330
19
100
AcDbEntity
  8
4
100
AcDbLine
 10
625.0
 20
6173.521885662012
 30
0.0
 11
4625.0
 21
6173.521885662012
 31
0.0
  0
LINE
  5
7F3A
330
19
100
AcDbEntity
  8
4
100
AcDbLine
 10
625.0
 20
6673.521885662012
 30
0.0
 11
4625.0
 21
6673.521885662012
 31
0.0
  0
LINE
  5
7F3B
330
19
100
AcDbEntity
  8
4
100
AcDbLine
 10
1625.0
 20
1250.0
 30
0.0
 11
4625.0
 21
1250.0
 31
0.0
  0
LINE
  5
7F3C
330
19
100
AcDbEntity
  8
4
100
AcDbLine
 10
625.0
 20
6673.521885662012
 30
0.0
 11
625.0
 21
6173.521885662012
 31
0.0
  0
TEXT
  5
7F3D
330
19
100
AcDbEntity
  8
4
100
AcDbText
 10
855.4910956358689
 20
5968.991879611408
 30
0.0
 40
135.0
  1
右回転右横向
100
AcDbText
  0
TEXT
  5
7F3E
330
19
100
AcDbEntity
  8
4
100
AcDbText
 10
3672.423898123225
 20
6765.152703738272
 30
0.0
 40
140.0
  1
No.
100
AcDbText
  0
TEXT
  5
7F3F
330
19
100
AcDbEntity
  8
4
100
AcDbText
 10
3278.240156500033
 20
5958.572103331289
 30
0.0
 40
135.0
  1
縮尺：1/25
100
AcDbText
  0
LINE
  5
7F40
330
19
100
AcDbEntity
  8
4
100
AcDbLine
 10
4625.0
 20
6673.521885662012
 30
0.0
 11
4625.0
 21
6173.521885662012
 31
0.0
  0
LINE
  5
7F41
330
19
100
AcDbEntity
  8
4
100
AcDbLine
 10
5250.0
 20
7375.0
 30
0.0
 11
5250.0
 21
7375.0
 31
0.0
  0
LINE
  5
7F42
330
19
100
AcDbEntity
  8
4
100
AcDbLine
 10
3601.543555899662
 20
6703.158957813503
 30
0.0
 11
3601.543555899662
 21
6966.630653874381
 31
0.0
  0
LINE
  5
7F43
330
19
100
AcDbEntity
  8
4
100
AcDbLine
 10
3601.543555899662
 20
6966.630653874381
 30
0.0
 11
4625.0
 21
6966.630653874381
 31
0.0
  0
LINE
  5
7F44
330
19
100
AcDbEntity
  8
4
100
AcDbLine
 10
4625.0
 20
6966.630653874381
 30
0.0
 11
4625.0
 21
6703.158957813503
 31
0.0
  0
LINE
  5
7F45
330
19
100
AcDbEntity
  8
4
100
AcDbLine
 10
4625.0
 20
6703.158957813503
 30
0.0
 11
3601.543555899662
 21
6703.158957813503
 31
0.0
  0
LINE
  5
7F46
330
19
100
AcDbEntity
  8
4
100
AcDbLine
 10
0.0
 20
0.0
 30
0.0
 11
0.0
 21
7375.0
 31
0.0
  0
LINE
  5
7F47
330
19
100
AcDbEntity
  8
4
100
AcDbLine
 10
0.0
 20
7375.0
 30
0.0
 11
5250.0
 21
7375.0
 31
0.0
  0
LINE
  5
7F48
330
19
100
AcDbEntity
  8
4
100
AcDbLine
 10
5250.0
 20
7375.0
 30
0.0
 11
5250.0
 21
0.0
 31
0.0
  0
LINE
  5
7F49
330
19
100
AcDbEntity
  8
4
100
AcDbLine
 10
5250.0
 20
0.0
 30
0.0
 11
0.0
 21
0.0
 31
0.0
  0
DIMENSION
  5
7F72
330
19
100
AcDbEntity
  8
3
100
AcDbDimension
280
     0
  2
*D20
 10
2760.505354420832
 20
1859.683647820611
 30
0.0
 11
2698.005354420831
 21
1645.397933534897
 31
0.0
 70
    32
 71
     5
 42
100.0
 73
     0
 74
     0
 75
     0
  3
IGA
100
AcDbAlignedDimension
 13
2400.303397801782
 23
1959.683647820611
 33
0.0
 14
2400.303397801782
 24
1859.683647820611
 34
0.0
 50
90.0
100
AcDbRotatedDimension
1001
ACAD
1000
DSTYLE
1002
{
1070
   287
1070
     3
1070
    40
1040
25.0
1070
   143
1040
0.039
1070
   172
1070
     1
1070
   271
1070
     0
1070
   279
1070
     0
1070
   288
1070
     1
1070
     6
1000
DOT
1002
}
  0
DIMENSION
  5
8085
330
19
100
AcDbEntity
  8
3
100
AcDbDimension
280
     0
  2
*D23
 10
2761.397657164911
 20
2039.683647820611
 30
0.0
 11
2854.302530981528
 21
1999.683647820612
 31
0.0
 70
   160
 71
     5
 42
80.0
 73
     0
 74
     0
 75
     0
  3
IGA
100
AcDbAlignedDimension
 13
2400.303397801782
 23
1959.683647820611
 33
0.0
 14
2400.303397801782
 24
2039.683647820611
 34
0.0
 50
90.0
100
AcDbRotatedDimension
1001
ACAD
1000
DSTYLE
1002
{
1070
     3
1000
(<>)
1070
    40
1040
25.0
1070
    75
1070
     1
1070
    76
1070
     1
1070
   143
1040
0.039
1070
   172
1070
     1
1070
   271
1070
     0
1070
   343
1005
8055
1070
   344
1005
8055
1002
}
  0
DIMENSION
  5
8092
330
19
100
AcDbEntity
  8
3
100
AcDbDimension
280
     0
  2
*D24
 10
2950.798550140422
 20
1859.683647820611
 30
0.0
 11
2868.655692997564
 21
2541.183647820612
 31
0.0
 70
    32
 71
     5
 42
1363.0
 73
     0
 74
     0
 75
     0
  3
IGA
100
AcDbAlignedDimension
 13
2460.303397801782
 23
3222.683647820612
 33
0.0
 14
2400.303397801782
 24
1859.683647820611
 34
0.0
 50
90.0
100
AcDbRotatedDimension
1001
ACAD
1000
DSTYLE
1002
{
1070
   172
1070
     1
1070
    40
1040
25.0
1070
     3
1000
(<>)
1070
   271
1070
     0
1070
   143
1040
0.039
1002
}
  0
ENDSEC
  0
SECTION
  2
OBJECTS
  0
DICTIONARY
  5
C
330
0
100
AcDbDictionary
281
     1
  3
ACAD_CIP_PREVIOUS_PRODUCT_INFO
350
8136
  3
ACAD_COLOR
350
8119
  3
ACAD_DETAILVIEWSTYLE
350
8132
  3
ACAD_GROUP
350
D
  3
ACAD_LAYOUT
350
809B
  3
ACAD_MATERIAL
350
80E7
  3
ACAD_MLEADERSTYLE
350
812E
  3
ACAD_MLINESTYLE
350
E
  3
ACAD_PLOTSETTINGS
350
809C
  3
ACAD_PLOTSTYLENAME
350
8099
  3
ACAD_SCALELIST
350
811C
  3
ACAD_SECTIONVIEWSTYLE
350
8130
  3
ACAD_TABLESTYLE
350
811A
  3
ACAD_VISUALSTYLE
350
8100
  3
ACDB_RECOMPOSE_DATA
350
81C1
  3
AcDbVariableDictionary
350
81B0
  3
AcDsDecomposeData
350
81C7
  0
DICTIONARY
  5
81A4
330
2
100
AcDbDictionary
280
     1
281
     1
  3
ACAD_LAYERSTATES
360
81A5
  0
DICTIONARY
  5
8197
330
F
100
AcDbDictionary
280
     1
281
     1
  3
ADSK_XREC_LAYER_RECONCILED
360
8198
  0
DICTIONARY
  5
8199
330
31
100
AcDbDictionary
280
     1
281
     1
  3
ADSK_XREC_LAYER_RECONCILED
360
819A
  0
DICTIONARY
  5
819B
330
76D0
100
AcDbDictionary
280
     1
281
     1
  3
ADSK_XREC_LAYER_RECONCILED
360
819C
  0
DICTIONARY
  5
819D
330
76D1
100
AcDbDictionary
280
     1
281
     1
  3
ADSK_XREC_LAYER_RECONCILED
360
819E
  0
DICTIONARY
  5
819F
330
76D2
100
AcDbDictionary
280
     1
281
     1
  3
ADSK_XREC_LAYER_RECONCILED
360
81A0
  0
DICTIONARY
  5
80C8
330
19
100
AcDbDictionary
280
     1
281
     1
  3
ACAD_LAYOUTSELFREF
360
80C9
  0
DICTIONARY
  5
80C6
330
16
100
AcDbDictionary
280
     1
281
     1
  3
ACAD_LAYOUTSELFREF
360
80C7
  0
XRECORD
  5
8136
102
{ACAD_REACTORS
330
C
102
}
330
C
100
AcDbXrecord
280
     1
300
ACDLT
300
2023
300

  0
DICTIONARY
  5
8119
102
{ACAD_REACTORS
330
C
102
}
330
C
100
AcDbDictionary
281
     1
  0
DICTIONARY
  5
8132
102
{ACAD_REACTORS
330
C
102
}
330
C
100
AcDbDictionary
281
     1
  3
Metric50
350
8133
  0
DICTIONARY
  5
D
102
{ACAD_REACTORS
330
C
102
}
330
C
100
AcDbDictionary
281
     1
  0
DICTIONARY
  5
809B
102
{ACAD_REACTORS
330
C
102
}
330
C
100
AcDbDictionary
281
     1
  3
Model
350
809D
  3
ﾚｲｱｳﾄ1
350
809E
  0
DICTIONARY
  5
80E7
102
{ACAD_REACTORS
330
C
102
}
330
C
100
AcDbDictionary
281
     1
  3
ByBlock
350
80F0
  3
ByLayer
350
80E8
  3
Global
350
80F8
  0
DICTIONARY
  5
812E
102
{ACAD_REACTORS
330
C
102
}
330
C
100
AcDbDictionary
281
     1
  3
Standard
350
812F
  0
DICTIONARY
  5
E
102
{ACAD_REACTORS
330
C
102
}
330
C
100
AcDbDictionary
281
     1
  3
STANDARD
350
1C
  0
DICTIONARY
  5
809C
102
{ACAD_REACTORS
330
C
102
}
330
C
100
AcDbDictionary
281
     1
  0
ACDBDICTIONARYWDFLT
  5
8099
102
{ACAD_REACTORS
330
C
102
}
330
C
100
AcDbDictionary
281
     1
  3
Normal
350
809A
100
AcDbDictionaryWithDefault
340
809A
  0
DICTIONARY
  5
811C
102
{ACAD_REACTORS
330
C
102
}
330
C
100
AcDbDictionary
281
     1
  3
A0
350
811D
  3
A1
350
811E
  3
A2
350
811F
  3
A3
350
8120
  3
A4
350
8121
  3
A5
350
8122
  3
A6
350
8123
  3
A7
350
8124
  3
A8
350
8125
  3
A9
350
8126
  3
B0
350
8127
  3
B1
350
8128
  3
B2
350
8129
  3
B3
350
812A
  3
B4
350
812B
  3
B5
350
812C
  3
B6
350
812D
  0
DICTIONARY
  5
8130
102
{ACAD_REACTORS
330
C
102
}
330
C
100
AcDbDictionary
281
     1
  3
Metric50
350
8131
  0
DICTIONARY
  5
811A
102
{ACAD_REACTORS
330
C
102
}
330
C
100
AcDbDictionary
281
     1
  3
Standard
350
811B
  0
DICTIONARY
  5
8100
102
{ACAD_REACTORS
330
C
102
}
330
C
100
AcDbDictionary
281
     1
  3
2dWireframe
350
8106
  3
Basic
350
8105
  3
Brighten
350
810C
  3
ColorChange
350
8110
  3
Conceptual
350
8109
  3
Dim
350
810B
  3
EdgeColorOff
350
8118
  3
Facepattern
350
810F
  3
Flat
350
8101
  3
FlatWithEdges
350
8102
  3
Gouraud
350
8103
  3
GouraudWithEdges
350
8104
  3
Hidden
350
8108
  3
JitterOff
350
8116
  3
Linepattern
350
810E
  3
OverhangOff
350
8117
  3
Realistic
350
810A
  3
Shaded
350
8115
  3
Shaded with edges
350
8114
  3
Shades of Gray
350
8111
  3
Sketchy
350
8112
  3
Thicken
350
810D
  3
Wireframe
350
8107
  3
X-Ray
350
8113
  0
XRECORD
  5
81C1
102
{ACAD_REACTORS
330
C
102
}
330
C
100
AcDbXrecord
280
     1
 90
        1
330
811B
  0
DICTIONARY
  5
81B0
102
{ACAD_REACTORS
330
C
102
}
330
C
100
AcDbDictionary
281
     1
  3
CANNOSCALE
350
81B6
  3
CMLEADERSTYLE
350
81B2
  3
CTABLESTYLE
350
81B1
  3
CVIEWDETAILSTYLE
350
81B3
  3
CVIEWSECTIONSTYLE
350
81B4
  3
LAYEREVAL
350
81B8
  3
LAYERNOTIFY
350
81B9
  3
LIGHTINGUNITS
350
81B7
  3
MARKUPASSISTMODE
350
81BE
  3
MSLTSCALE
350
81B5
  0
DICTIONARY
  5
81C7
102
{ACAD_REACTORS
330
C
102
}
330
C
100
AcDbDictionary
281
     1
  3
AcDsRecords
350
81C9
  3
AcDsSchemas
350
81C8
1001
ACAD
1070
     2
  0
DICTIONARY
  5
81A5
102
{ACAD_REACTORS
330
81A4
102
}
330
81A4
100
AcDbDictionary
281
     1
  0
XRECORD
  5
8198
102
{ACAD_REACTORS
330
8197
102
}
330
8197
100
AcDbXrecord
280
     1
290
     1
  0
XRECORD
  5
819A
102
{ACAD_REACTORS
330
8199
102
}
330
8199
100
AcDbXrecord
280
     1
290
     1
  0
XRECORD
  5
819C
102
{ACAD_REACTORS
330
819B
102
}
330
819B
100
AcDbXrecord
280
     1
290
     1
  0
XRECORD
  5
819E
102
{ACAD_REACTORS
330
819D
102
}
330
819D
100
AcDbXrecord
280
     1
290
     1
  0
XRECORD
  5
81A0
102
{ACAD_REACTORS
330
819F
102
}
330
819F
100
AcDbXrecord
280
     1
290
     1
  0
XRECORD
  5
80C9
102
{ACAD_REACTORS
330
80C8
102
}
330
80C8
100
AcDbXrecord
280
     1
340
19
  0
XRECORD
  5
80C7
102
{ACAD_REACTORS
330
80C6
102
}
330
80C6
100
AcDbXrecord
280
     1
340
16
  0
ACDBDETAILVIEWSTYLE
  5
8133
102
{ACAD_XDICTIONARY
360
81CC
102
}
102
{ACAD_REACTORS
330
8132
102
}
330
8132
100
AcDbModelDocViewStyle
 70
     0
  3
Metric50
290
     0
100
AcDbDetailViewStyle
 70
     0
 71
     0
 90
        3
 71
     1
340
10
 62
   256
 40
5.0
340
0
 62
   256
 40
5.0
300

 40
0.0
280
     1
 71
     2
340
15
 90
       25
 62
   256
 71
     3
340
10
 62
   256
 40
5.0
 90
        0
 40
15.0
 90
        1
300
%<\AcVar ViewDetailId>% (%<\AcVar ViewScale \f "%sn">%)
 71
     4
340
15
 90
       25
 62
   256
340
15
 90
       25
 62
   256
280
     0
  0
LAYOUT
  5
809D
102
{ACAD_REACTORS
330
809B
102
}
330
809B
100
AcDbPlotSettings
  1

  2
EPSON LP-9300
  4

  6

 40
0.0
 41
0.0
 42
0.0
 43
0.0
 44
0.0
 45
0.0
 46
0.0
 47
0.0
 48
0.0
 49
0.0
140
0.0
141
0.0
142
1.0
143
1.0
 70
  1712
 72
     0
 73
     0
 74
     0
  7

 75
     0
147
1.0
 76
     0
 77
     2
 78
   300
148
0.0
149
0.0
100
AcDbLayout
  1
Model
 70
     1
 71
     0
 10
0.0
 20
0.0
 11
12.0
 21
9.0
 12
0.0
 22
0.0
 32
0.0
 14
0.0
 24
0.0
 34
0.0
 15
0.0
 25
0.0
 35
0.0
146
0.0
 13
0.0
 23
0.0
 33
0.0
 16
1.0
 26
0.0
 36
0.0
 17
0.0
 27
1.0
 37
0.0
 76
     0
330
19
331
80E5
  0
LAYOUT
  5
809E
102
{ACAD_REACTORS
330
809B
102
}
330
809B
100
AcDbPlotSettings
  1

  2
EPSON LP-9300
  4

  6

 40
0.0
 41
0.0
 42
0.0
 43
0.0
 44
0.0
 45
0.0
 46
0.0
 47
0.0
 48
0.0
 49
0.0
140
0.0
141
0.0
142
1.0
143
1.0
 70
   688
 72
     0
 73
     0
 74
     5
  7

 75
    16
147
1.0
 76
     0
 77
     2
 78
   300
148
0.0
149
0.0
100
AcDbLayout
  1
ﾚｲｱｳﾄ1
 70
     1
 71
     1
 10
0.0
 20
0.0
 11
12.0
 21
9.0
 12
0.0
 22
0.0
 32
0.0
 14
1.000000000000000E+20
 24
1.000000000000000E+20
 34
1.000000000000000E+20
 15
-1.000000000000000E+20
 25
-1.000000000000000E+20
 35
-1.000000000000000E+20
146
0.0
 13
0.0
 23
0.0
 33
0.0
 16
1.0
 26
0.0
 36
0.0
 17
0.0
 27
1.0
 37
0.0
 76
     0
330
16
  0
MATERIAL
  5
80F0
102
{ACAD_XDICTIONARY
360
80F1
102
}
102
{ACAD_REACTORS
330
80E7
102
}
330
80E7
100
AcDbMaterial
  1
ByBlock
 72
     0
 43
0.0208333333333333
 43
0.0
 43
0.0
 43
0.0
 43
0.0
 43
0.0208333333333333
 43
0.0
 43
0.0
 43
0.0
 43
0.0
 43
1.0
 43
0.0
 43
0.0
 43
0.0
 43
0.0
 43
1.0
 77
     0
 47
0.0208333333333333
 47
0.0
 47
0.0
 47
0.0
 47
0.0
 47
0.0208333333333333
 47
0.0
 47
0.0
 47
0.0
 47
0.0
 47
1.0
 47
0.0
 47
0.0
 47
0.0
 47
0.0
 47
1.0
171
     0
 49
0.0208333333333333
 49
0.0
 49
0.0
 49
0.0
 49
0.0
 49
0.0208333333333333
 49
0.0
 49
0.0
 49
0.0
 49
0.0
 49
1.0
 49
0.0
 49
0.0
 49
0.0
 49
0.0
 49
1.0
175
     0
142
0.0208333333333333
142
0.0
142
0.0
142
0.0
142
0.0
142
0.0208333333333333
142
0.0
142
0.0
142
0.0
142
0.0
142
1.0
142
0.0
142
0.0
142
0.0
142
0.0
142
1.0
179
     0
144
0.0208333333333333
144
0.0
144
0.0
144
0.0
144
0.0
144
0.0208333333333333
144
0.0
144
0.0
144
0.0
144
0.0
144
1.0
144
0.0
144
0.0
144
0.0
144
0.0
144
1.0
147
0.0208333333333333
147
0.0
147
0.0
147
0.0
147
0.0
147
0.0208333333333333
147
0.0
147
0.0
147
0.0
147
0.0
147
1.0
147
0.0
147
0.0
147
0.0
147
0.0
147
1.0
  0
MATERIAL
  5
80E8
102
{ACAD_XDICTIONARY
360
80E9
102
}
102
{ACAD_REACTORS
330
80E7
102
}
330
80E7
100
AcDbMaterial
  1
ByLayer
 72
     0
 43
0.0208333333333333
 43
0.0
 43
0.0
 43
0.0
 43
0.0
 43
0.0208333333333333
 43
0.0
 43
0.0
 43
0.0
 43
0.0
 43
1.0
 43
0.0
 43
0.0
 43
0.0
 43
0.0
 43
1.0
 77
     0
 47
0.0208333333333333
 47
0.0
 47
0.0
 47
0.0
 47
0.0
 47
0.0208333333333333
 47
0.0
 47
0.0
 47
0.0
 47
0.0
 47
1.0
 47
0.0
 47
0.0
 47
0.0
 47
0.0
 47
1.0
171
     0
 49
0.0208333333333333
 49
0.0
 49
0.0
 49
0.0
 49
0.0
 49
0.0208333333333333
 49
0.0
 49
0.0
 49
0.0
 49
0.0
 49
1.0
 49
0.0
 49
0.0
 49
0.0
 49
0.0
 49
1.0
175
     0
142
0.0208333333333333
142
0.0
142
0.0
142
0.0
142
0.0
142
0.0208333333333333
142
0.0
142
0.0
142
0.0
142
0.0
142
1.0
142
0.0
142
0.0
142
0.0
142
0.0
142
1.0
179
     0
144
0.0208333333333333
144
0.0
144
0.0
144
0.0
144
0.0
144
0.0208333333333333
144
0.0
144
0.0
144
0.0
144
0.0
144
1.0
144
0.0
144
0.0
144
0.0
144
0.0
144
1.0
147
0.0208333333333333
147
0.0
147
0.0
147
0.0
147
0.0
147
0.0208333333333333
147
0.0
147
0.0
147
0.0
147
0.0
147
1.0
147
0.0
147
0.0
147
0.0
147
0.0
147
1.0
  0
MATERIAL
  5
80F8
102
{ACAD_XDICTIONARY
360
80F9
102
}
102
{ACAD_REACTORS
330
80E7
102
}
330
80E7
100
AcDbMaterial
  1
Global
 72
     0
 43
0.0208333333333333
 43
0.0
 43
0.0
 43
0.0
 43
0.0
 43
0.0208333333333333
 43
0.0
 43
0.0
 43
0.0
 43
0.0
 43
1.0
 43
0.0
 43
0.0
 43
0.0
 43
0.0
 43
1.0
 77
     0
 47
0.0208333333333333
 47
0.0
 47
0.0
 47
0.0
 47
0.0
 47
0.0208333333333333
 47
0.0
 47
0.0
 47
0.0
 47
0.0
 47
1.0
 47
0.0
 47
0.0
 47
0.0
 47
0.0
 47
1.0
171
     0
 49
0.0208333333333333
 49
0.0
 49
0.0
 49
0.0
 49
0.0
 49
0.0208333333333333
 49
0.0
 49
0.0
 49
0.0
 49
0.0
 49
1.0
 49
0.0
 49
0.0
 49
0.0
 49
0.0
 49
1.0
175
     0
142
0.0208333333333333
142
0.0
142
0.0
142
0.0
142
0.0
142
0.0208333333333333
142
0.0
142
0.0
142
0.0
142
0.0
142
1.0
142
0.0
142
0.0
142
0.0
142
0.0
142
1.0
179
     0
144
0.0208333333333333
144
0.0
144
0.0
144
0.0
144
0.0
144
0.0208333333333333
144
0.0
144
0.0
144
0.0
144
0.0
144
1.0
144
0.0
144
0.0
144
0.0
144
0.0
144
1.0
147
0.0208333333333333
147
0.0
147
0.0
147
0.0
147
0.0
147
0.0208333333333333
147
0.0
147
0.0
147
0.0
147
0.0
147
1.0
147
0.0
147
0.0
147
0.0
147
0.0
147
1.0
  0
MLEADERSTYLE
  5
812F
102
{ACAD_REACTORS
330
812E
102
}
330
812E
100
AcDbMLeaderStyle
179
     2
170
     2
171
     1
172
     0
 90
        2
 40
0.0
 41
0.0
173
     1
 91
-1056964608
340
13
 92
       -2
290
     1
 42
2.0
291
     1
 43
0.36
  3
Standard
 44
4.0
300

342
10
174
     1
178
     6
175
     1
176
     0
 93
-1056964608
 45
4.0
292
     0
297
     0
 46
4.0
 94
-1056964608
 47
1.0
 49
1.0
140
1.0
293
     1
141
0.0
294
     1
177
     0
142
1.0
295
     0
296
     0
143
0.125
271
     0
272
     9
273
     9
298
     1
  0
MLINESTYLE
  5
1C
102
{ACAD_REACTORS
330
E
102
}
330
E
100
AcDbMlineStyle
  2
STANDARD
 70
     0
  3

 62
     0
 51
90.0
 52
90.0
 71
     2
 49
0.5
 62
   256
  6
BYLAYER
 49
-0.5
 62
   256
  6
BYLAYER
  0
ACDBPLACEHOLDER
  5
809A
102
{ACAD_REACTORS
330
8099
102
}
330
8099
  0
SCALE
  5
811D
102
{ACAD_REACTORS
330
811C
102
}
330
811C
100
AcDbScale
 70
     0
300
1:1
140
1.0
141
1.0
290
     1
  0
SCALE
  5
811E
102
{ACAD_REACTORS
330
811C
102
}
330
811C
100
AcDbScale
 70
     0
300
1:2
140
1.0
141
2.0
290
     0
  0
SCALE
  5
811F
102
{ACAD_REACTORS
330
811C
102
}
330
811C
100
AcDbScale
 70
     0
300
1:4
140
1.0
141
4.0
290
     0
  0
SCALE
  5
8120
102
{ACAD_REACTORS
330
811C
102
}
330
811C
100
AcDbScale
 70
     0
300
1:5
140
1.0
141
5.0
290
     0
  0
SCALE
  5
8121
102
{ACAD_REACTORS
330
811C
102
}
330
811C
100
AcDbScale
 70
     0
300
1:8
140
1.0
141
8.0
290
     0
  0
SCALE
  5
8122
102
{ACAD_REACTORS
330
811C
102
}
330
811C
100
AcDbScale
 70
     0
300
1:10
140
1.0
141
10.0
290
     0
  0
SCALE
  5
8123
102
{ACAD_REACTORS
330
811C
102
}
330
811C
100
AcDbScale
 70
     0
300
1:16
140
1.0
141
16.0
290
     0
  0
SCALE
  5
8124
102
{ACAD_REACTORS
330
811C
102
}
330
811C
100
AcDbScale
 70
     0
300
1:20
140
1.0
141
20.0
290
     0
  0
SCALE
  5
8125
102
{ACAD_REACTORS
330
811C
102
}
330
811C
100
AcDbScale
 70
     0
300
1:30
140
1.0
141
30.0
290
     0
  0
SCALE
  5
8126
102
{ACAD_REACTORS
330
811C
102
}
330
811C
100
AcDbScale
 70
     0
300
1:40
140
1.0
141
40.0
290
     0
  0
SCALE
  5
8127
102
{ACAD_REACTORS
330
811C
102
}
330
811C
100
AcDbScale
 70
     0
300
1:50
140
1.0
141
50.0
290
     0
  0
SCALE
  5
8128
102
{ACAD_REACTORS
330
811C
102
}
330
811C
100
AcDbScale
 70
     0
300
1:100
140
1.0
141
100.0
290
     0
  0
SCALE
  5
8129
102
{ACAD_REACTORS
330
811C
102
}
330
811C
100
AcDbScale
 70
     0
300
2:1
140
2.0
141
1.0
290
     0
  0
SCALE
  5
812A
102
{ACAD_REACTORS
330
811C
102
}
330
811C
100
AcDbScale
 70
     0
300
4:1
140
4.0
141
1.0
290
     0
  0
SCALE
  5
812B
102
{ACAD_REACTORS
330
811C
102
}
330
811C
100
AcDbScale
 70
     0
300
8:1
140
8.0
141
1.0
290
     0
  0
SCALE
  5
812C
102
{ACAD_REACTORS
330
811C
102
}
330
811C
100
AcDbScale
 70
     0
300
10:1
140
10.0
141
1.0
290
     0
  0
SCALE
  5
812D
102
{ACAD_REACTORS
330
811C
102
}
330
811C
100
AcDbScale
 70
     0
300
100:1
140
100.0
141
1.0
290
     0
  0
ACDBSECTIONVIEWSTYLE
  5
8131
102
{ACAD_XDICTIONARY
360
81CA
102
}
102
{ACAD_REACTORS
330
8130
102
}
330
8130
100
AcDbModelDocViewStyle
 70
     0
  3
Metric50
290
     0
100
AcDbSectionViewStyle
 70
     0
 71
     0
 90
      102
 71
     1
340
10
 62
   256
 40
5.0
340
0
340
0
 62
   256
 40
5.0
300
I, O, Q, S, X, Z
 40
10.0
 90
        0
 40
2.5
 90
        0
 71
     2
340
15
 90
       25
 62
   256
340
15
 90
       50
 62
   256
 40
5.0
 40
2.5
 40
5.0
 71
     3
340
10
 62
   256
 40
5.0
 90
        0
 40
15.0
 90
        1
300
%<\AcVar ViewSectionStartId>%-%<\AcVar ViewSectionEndId>% (%<\AcVar ViewScale \f "%sn">%)
 71
     4
 62
   256
 62
   257
300
ANSI31
 40
1.0
 90
        0
290
     0
290
     0
 90
        6
 40
0.0
 40
1.570796326794896
 40
0.2617993877991494
 40
1.308996938995747
 40
-0.2617993877991494
 40
1.832595714594046
  0
TABLESTYLE
  5
811B
102
{ACAD_XDICTIONARY
360
81BF
102
}
102
{ACAD_REACTORS
330
811A
102
}
330
811A
100
AcDbTableStyle
280
     0
  3
Standard
 70
     0
 71
     0
 40
1.5
 41
1.5
280
     0
281
     0
  7
STANDARD
140
4.5
170
     2
 62
     0
 63
     7
283
     0
 90
      512
 91
        0
  1

274
    -2
284
     1
 64
     0
275
    -2
285
     1
 65
     0
276
    -2
286
     1
 66
     0
277
    -2
287
     1
 67
     0
278
    -2
288
     1
 68
     0
279
    -2
289
     1
 69
     0
  7
STANDARD
140
6.0
170
     5
 62
     0
 63
     7
283
     0
 90
      512
 91
        0
  1

274
    -2
284
     1
 64
     0
275
    -2
285
     1
 65
     0
276
    -2
286
     1
 66
     0
277
    -2
287
     1
 67
     0
278
    -2
288
     1
 68
     0
279
    -2
289
     1
 69
     0
  7
STANDARD
140
4.5
170
     5
 62
     0
 63
     7
283
     0
 90
      512
 91
        0
  1

274
    -2
284
     1
 64
     0
275
    -2
285
     1
 65
     0
276
    -2
286
     1
 66
     0
277
    -2
287
     1
 67
     0
278
    -2
288
     1
 68
     0
279
    -2
289
     1
 69
     0
  0
VISUALSTYLE
  5
8106
102
{ACAD_REACTORS
330
8100
102
}
330
8100
100
AcDbVisualStyle
  2
2dWireframe
 70
     4
177
     3
291
     0
 70
    58
 90
        0
176
     1
 90
        2
176
     1
 90
        0
176
     1
 90
        0
176
     1
 40
0.6
176
     1
 40
30.0
176
     1
 62
     7
420
 16777215
176
     1
 90
        1
176
     1
 90
        4
176
     1
 62
     7
176
     1
 62
   257
176
     1
 90
        1
176
     1
 90
        1
176
     1
 40
1.0
176
     1
 90
        0
176
     1
 62
   257
176
     1
 40
1.0
176
     1
 90
        1
176
     1
 90
        6
176
     1
 90
        2
176
     1
 62
     7
176
     1
 90
        5
176
     1
 90
        0
176
     1
 90
        0
176
     1
290
     0
176
     1
 90
        1
176
     1
 40
0.0
176
     1
 90
        0
176
     1
290
     1
176
     1
290
     1
176
     1
290
     0
176
     1
290
     0
176
     1
290
     0
176
     1
290
     0
176
     1
290
     0
176
     1
290
     0
176
     1
290
     0
176
     1
 90
       50
176
     1
 40
0.0
176
     1
 40
1.0
176
     1
 90
        0
176
     1
 62
    18
420
        0
176
     1
 90
       50
176
     1
 90
        3
176
     1
 62
     5
420
      255
176
     1
290
     0
176
     1
 90
       50
176
     1
 90
       50
176
     1
 90
       50
176
     1
290
     0
176
     1
 90
       50
176
     1
 62
   256
176
     0
 40
1.0
176
     0
 90
        2
176
     1
  1
strokes_ogs.tif
176
     1
290
     0
176
     1
 40
1.0
176
     1
 40
1.0
176
     1
1001
ACAD
1000
AcDbSavedByObjectVersion
1070
     0
  0
VISUALSTYLE
  5
8105
102
{ACAD_REACTORS
330
8100
102
}
330
8100
100
AcDbVisualStyle
  2
Basic
 70
     7
177
     3
291
     1
 70
    58
 90
        1
176
     1
 90
        0
176
     1
 90
        1
176
     1
 90
        0
176
     1
 40
0.6
176
     1
 40
30.0
176
     1
 62
     7
420
 16777215
176
     1
 90
        0
176
     1
 90
        4
176
     1
 62
     7
176
     1
 62
   257
176
     1
 90
        1
176
     1
 90
        1
176
     1
 40
1.0
176
     1
 90
        8
176
     1
 62
     7
176
     1
 40
1.0
176
     1
 90
        1
176
     1
 90
        6
176
     1
 90
        2
176
     1
 62
     7
176
     1
 90
        5
176
     1
 90
        0
176
     1
 90
        0
176
     1
290
     0
176
     1
 90
        1
176
     1
 40
0.0
176
     1
 90
        0
176
     1
290
     0
176
     1
290
     1
176
     1
290
     1
176
     1
290
     0
176
     1
290
     0
176
     1
290
     0
176
     1
290
     0
176
     1
290
     0
176
     1
290
     0
176
     1
 90
       50
176
     1
 40
0.0
176
     1
 40
1.0
176
     1
 90
        0
176
     1
 62
    18
420
        0
176
     1
 90
       50
176
     1
 90
        3
176
     1
 62
     5
420
      255
176
     1
290
     0
176
     1
 90
       50
176
     1
 90
       50
176
     1
 90
       50
176
     1
290
     0
176
     1
 90
       50
176
     1
 62
   256
176
     0
 40
1.0
176
     0
 90
        2
176
     1
  1
strokes_ogs.tif
176
     1
290
     0
176
     1
 40
1.0
176
     1
 40
1.0
176
     1
1001
ACAD
1000
AcDbSavedByObjectVersion
1070
     0
  0
VISUALSTYLE
  5
810C
102
{ACAD_REACTORS
330
8100
102
}
330
8100
100
AcDbVisualStyle
  2
Brighten
 70
    12
177
     3
291
     1
 70
    58
 90
        2
176
     1
 90
        2
176
     1
 90
        0
176
     1
 90
        0
176
     1
 40
0.6
176
     1
 40
30.0
176
     1
 62
     7
420
 16777215
176
     1
 90
        1
176
     1
 90
        4
176
     1
 62
     7
176
     1
 62
   257
176
     1
 90
        1
176
     1
 90
        1
176
     1
 40
1.0
176
     1
 90
        8
176
     1
 62
     7
176
     1
 40
1.0
176
     1
 90
        1
176
     1
 90
        6
176
     1
 90
        2
176
     1
 62
     7
176
     1
 90
        5
176
     1
 90
        0
176
     1
 90
        0
176
     1
290
     0
176
     1
 90
        1
176
     1
 40
50.0
176
     1
 90
        0
176
     1
290
     0
176
     1
290
     1
176
     1
290
     1
176
     1
290
     0
176
     1
290
     0
176
     1
290
     0
176
     1
290
     0
176
     1
290
     0
176
     1
290
     0
176
     1
 90
       50
176
     1
 40
0.0
176
     1
 40
1.0
176
     1
 90
        0
176
     1
 62
    18
420
        0
176
     1
 90
       50
176
     1
 90
        3
176
     1
 62
     5
420
      255
176
     1
290
     0
176
     1
 90
       50
176
     1
 90
       50
176
     1
 90
       50
176
     1
290
     0
176
     1
 90
       50
176
     1
 62
   256
176
     0
 40
1.0
176
     0
 90
        2
176
     1
  1
strokes_ogs.tif
176
     1
290
     0
176
     1
 40
1.0
176
     1
 40
1.0
176
     1
1001
ACAD
1000
AcDbSavedByObjectVersion
1070
     0
  0
VISUALSTYLE
  5
8110
102
{ACAD_REACTORS
330
8100
102
}
330
8100
100
AcDbVisualStyle
  2
ColorChange
 70
    16
177
     3
291
     1
 70
    58
 90
        2
176
     1
 90
        2
176
     1
 90
        3
176
     1
 90
        0
176
     1
 40
0.6
176
     1
 40
30.0
176
     1
 62
     8
420
  8421504
176
     1
 90
        1
176
     1
 90
        4
176
     1
 62
     7
176
     1
 62
   257
176
     1
 90
        1
176
     1
 90
        1
176
     1
 40
1.0
176
     1
 90
        8
176
     1
 62
     8
420
  8421504
176
     1
 40
1.0
176
     1
 90
        1
176
     1
 90
        6
176
     1
 90
        2
176
     1
 62
     7
176
     1
 90
        5
176
     1
 90
        0
176
     1
 90
        0
176
     1
290
     0
176
     1
 90
        1
176
     1
 40
0.0
176
     1
 90
        0
176
     1
290
     0
176
     1
290
     1
176
     1
290
     1
176
     1
290
     0
176
     1
290
     0
176
     1
290
     0
176
     1
290
     0
176
     1
290
     0
176
     1
290
     0
176
     1
 90
       50
176
     1
 40
0.0
176
     1
 40
1.0
176
     1
 90
        0
176
     1
 62
    18
420
        0
176
     1
 90
       50
176
     1
 90
        3
176
     1
 62
     5
420
      255
176
     1
290
     0
176
     1
 90
       50
176
     1
 90
       50
176
     1
 90
       50
176
     1
290
     0
176
     1
 90
       50
176
     1
 62
   256
176
     0
 40
1.0
176
     0
 90
        2
176
     1
  1
strokes_ogs.tif
176
     1
290
     0
176
     1
 40
1.0
176
     1
 40
1.0
176
     1
1001
ACAD
1000
AcDbSavedByObjectVersion
1070
     0
  0
VISUALSTYLE
  5
8109
102
{ACAD_REACTORS
330
8100
102
}
330
8100
100
AcDbVisualStyle
  2
Conceptual
 70
     9
177
     3
291
     0
 70
    58
 90
        3
176
     1
 90
        2
176
     1
 90
        0
176
     1
 90
        0
176
     1
 40
0.6
176
     1
 40
30.0
176
     1
 62
     7
420
 16777215
176
     1
 90
        2
176
     1
 90
        2
176
     1
 62
     7
176
     1
 62
   257
176
     1
 90
        1
176
     1
 90
        1
176
     1
 40
179.0
176
     1
 90
        8
176
     1
 62
     7
176
     1
 40
1.0
176
     1
 90
        1
176
     1
 90
        6
176
     1
 90
        2
176
     1
 62
     7
176
     1
 90
        3
176
     1
 90
        0
176
     1
 90
        0
176
     1
290
     0
176
     1
 90
        1
176
     1
 40
0.0
176
     1
 90
        0
176
     1
290
     0
176
     1
290
     1
176
     1
290
     1
176
     1
290
     0
176
     1
290
     0
176
     1
290
     0
176
     1
290
     0
176
     1
290
     0
176
     1
290
     0
176
     1
 90
       50
176
     1
 40
0.0
176
     1
 40
1.0
176
     1
 90
        0
176
     1
 62
    18
420
        0
176
     1
 90
       50
176
     1
 90
        3
176
     1
 62
     5
420
      255
176
     1
290
     0
176
     1
 90
       50
176
     1
 90
       50
176
     1
 90
       50
176
     1
290
     0
176
     1
 90
       50
176
     1
 62
   256
176
     0
 40
1.0
176
     0
 90
        2
176
     1
  1
strokes_ogs.tif
176
     1
290
     0
176
     1
 40
1.0
176
     1
 40
1.0
176
     1
1001
ACAD
1000
AcDbSavedByObjectVersion
1070
     0
  0
VISUALSTYLE
  5
810B
102
{ACAD_REACTORS
330
8100
102
}
330
8100
100
AcDbVisualStyle
  2
Dim
 70
    11
177
     3
291
     1
 70
    58
 90
        2
176
     1
 90
        2
176
     1
 90
        0
176
     1
 90
        0
176
     1
 40
0.6
176
     1
 40
30.0
176
     1
 62
     7
420
 16777215
176
     1
 90
        1
176
     1
 90
        4
176
     1
 62
     7
176
     1
 62
   257
176
     1
 90
        1
176
     1
 90
        1
176
     1
 40
1.0
176
     1
 90
        8
176
     1
 62
     7
176
     1
 40
1.0
176
     1
 90
        1
176
     1
 90
        6
176
     1
 90
        2
176
     1
 62
     7
176
     1
 90
        5
176
     1
 90
        0
176
     1
 90
        0
176
     1
290
     0
176
     1
 90
        1
176
     1
 40
-50.0
176
     1
 90
        0
176
     1
290
     0
176
     1
290
     1
176
     1
290
     1
176
     1
290
     0
176
     1
290
     0
176
     1
290
     0
176
     1
290
     0
176
     1
290
     0
176
     1
290
     0
176
     1
 90
       50
176
     1
 40
0.0
176
     1
 40
1.0
176
     1
 90
        0
176
     1
 62
    18
420
        0
176
     1
 90
       50
176
     1
 90
        3
176
     1
 62
     5
420
      255
176
     1
290
     0
176
     1
 90
       50
176
     1
 90
       50
176
     1
 90
       50
176
     1
290
     0
176
     1
 90
       50
176
     1
 62
   256
176
     0
 40
1.0
176
     0
 90
        2
176
     1
  1
strokes_ogs.tif
176
     1
290
     0
176
     1
 40
1.0
176
     1
 40
1.0
176
     1
1001
ACAD
1000
AcDbSavedByObjectVersion
1070
     0
  0
VISUALSTYLE
  5
8118
102
{ACAD_REACTORS
330
8100
102
}
330
8100
100
AcDbVisualStyle
  2
EdgeColorOff
 70
    22
177
     3
291
     1
 70
    58
 90
        2
176
     0
 90
        2
176
     0
 90
        0
176
     0
 90
        0
176
     0
 40
0.6
176
     0
 40
30.0
176
     0
 62
     7
420
 16777215
176
     0
 90
        1
176
     0
 90
        4
176
     0
 62
     7
176
     0
 62
   257
176
     0
 90
        1
176
     0
 90
        1
176
     0
 40
1.0
176
     0
 90
        8
176
     2
 62
     7
176
     0
 40
1.0
176
     0
 90
        1
176
     0
 90
        6
176
     0
 90
        2
176
     0
 62
     7
176
     0
 90
        5
176
     0
 90
        0
176
     0
 90
        0
176
     0
290
     0
176
     0
 90
        1
176
     0
 40
0.0
176
     0
 90
        0
176
     0
290
     0
176
     0
290
     1
176
     0
290
     1
176
     0
290
     0
176
     0
290
     0
176
     0
290
     0
176
     0
290
     0
176
     0
290
     0
176
     0
290
     0
176
     0
 90
       50
176
     0
 40
0.0
176
     0
 40
1.0
176
     0
 90
        0
176
     0
 62
    18
420
        0
176
     0
 90
       50
176
     0
 90
        3
176
     0
 62
     5
420
      255
176
     0
290
     0
176
     0
 90
       50
176
     0
 90
       50
176
     0
 90
       50
176
     0
290
     0
176
     0
 90
       50
176
     0
 62
   256
176
     0
 40
1.0
176
     0
 90
        2
176
     0
  1
strokes_ogs.tif
176
     0
290
     0
176
     0
 40
1.0
176
     0
 40
1.0
176
     0
1001
ACAD
1000
AcDbSavedByObjectVersion
1070
     0
  0
VISUALSTYLE
  5
810F
102
{ACAD_REACTORS
330
8100
102
}
330
8100
100
AcDbVisualStyle
  2
Facepattern
 70
    15
177
     3
291
     1
 70
    58
 90
        2
176
     1
 90
        2
176
     1
 90
        0
176
     1
 90
        0
176
     1
 40
0.6
176
     1
 40
30.0
176
     1
 62
     7
420
 16777215
176
     1
 90
        1
176
     1
 90
        4
176
     1
 62
     7
176
     1
 62
   257
176
     1
 90
        1
176
     1
 90
        1
176
     1
 40
1.0
176
     1
 90
        8
176
     1
 62
     7
176
     1
 40
1.0
176
     1
 90
        1
176
     1
 90
        6
176
     1
 90
        2
176
     1
 62
     7
176
     1
 90
        5
176
     1
 90
        0
176
     1
 90
        0
176
     1
290
     0
176
     1
 90
        1
176
     1
 40
0.0
176
     1
 90
        0
176
     1
290
     0
176
     1
290
     1
176
     1
290
     1
176
     1
290
     0
176
     1
290
     0
176
     1
290
     0
176
     1
290
     0
176
     1
290
     0
176
     1
290
     0
176
     1
 90
       50
176
     1
 40
0.0
176
     1
 40
1.0
176
     1
 90
        0
176
     1
 62
    18
420
        0
176
     1
 90
       50
176
     1
 90
        3
176
     1
 62
     5
420
      255
176
     1
290
     0
176
     1
 90
       50
176
     1
 90
       50
176
     1
 90
       50
176
     1
290
     0
176
     1
 90
       50
176
     1
 62
   256
176
     0
 40
1.0
176
     0
 90
        2
176
     1
  1
strokes_ogs.tif
176
     1
290
     0
176
     1
 40
1.0
176
     1
 40
1.0
176
     1
1001
ACAD
1000
AcDbSavedByObjectVersion
1070
     0
  0
VISUALSTYLE
  5
8101
102
{ACAD_REACTORS
330
8100
102
}
330
8100
100
AcDbVisualStyle
  2
Flat
 70
     0
177
     3
291
     1
 70
    58
 90
        2
176
     1
 90
        1
176
     1
 90
        1
176
     1
 90
        2
176
     1
 40
0.6
176
     1
 40
30.0
176
     1
 62
     7
420
 16777215
176
     1
 90
        0
176
     1
 90
        0
176
     1
 62
     7
176
     1
 62
   257
176
     1
 90
        1
176
     1
 90
        1
176
     1
 40
1.0
176
     1
 90
        8
176
     1
 62
     7
176
     1
 40
1.0
176
     1
 90
        1
176
     1
 90
        6
176
     1
 90
        2
176
     1
 62
     7
176
     1
 90
        5
176
     1
 90
        0
176
     1
 90
        0
176
     1
290
     0
176
     1
 90
       13
176
     1
 40
0.0
176
     1
 90
        0
176
     1
290
     0
176
     1
290
     1
176
     1
290
     1
176
     1
290
     0
176
     1
290
     0
176
     1
290
     0
176
     1
290
     0
176
     1
290
     0
176
     1
290
     0
176
     1
 90
       50
176
     1
 40
0.0
176
     1
 40
1.0
176
     1
 90
        0
176
     1
 62
    18
420
        0
176
     1
 90
       50
176
     1
 90
        3
176
     1
 62
     5
420
      255
176
     1
290
     0
176
     1
 90
       50
176
     1
 90
       50
176
     1
 90
       50
176
     1
290
     0
176
     1
 90
       50
176
     1
 62
   256
176
     0
 40
1.0
176
     0
 90
        2
176
     1
  1
strokes_ogs.tif
176
     1
290
     0
176
     1
 40
1.0
176
     1
 40
1.0
176
     1
1001
ACAD
1000
AcDbSavedByObjectVersion
1070
     0
  0
VISUALSTYLE
  5
8102
102
{ACAD_REACTORS
330
8100
102
}
330
8100
100
AcDbVisualStyle
  2
FlatWithEdges
 70
     1
177
     3
291
     1
 70
    58
 90
        2
176
     1
 90
        1
176
     1
 90
        1
176
     1
 90
        2
176
     1
 40
0.6
176
     1
 40
30.0
176
     1
 62
     7
420
 16777215
176
     1
 90
        1
176
     1
 90
        0
176
     1
 62
     7
176
     1
 62
   257
176
     1
 90
        1
176
     1
 90
        1
176
     1
 40
1.0
176
     1
 90
        0
176
     1
 62
   257
176
     1
 40
1.0
176
     1
 90
        1
176
     1
 90
        6
176
     1
 90
        2
176
     1
 62
     7
176
     1
 90
        5
176
     1
 90
        0
176
     1
 90
        0
176
     1
290
     0
176
     1
 90
       13
176
     1
 40
0.0
176
     1
 90
        0
176
     1
290
     0
176
     1
290
     1
176
     1
290
     1
176
     1
290
     0
176
     1
290
     0
176
     1
290
     0
176
     1
290
     0
176
     1
290
     0
176
     1
290
     0
176
     1
 90
       50
176
     1
 40
0.0
176
     1
 40
1.0
176
     1
 90
        0
176
     1
 62
    18
420
        0
176
     1
 90
       50
176
     1
 90
        3
176
     1
 62
     5
420
      255
176
     1
290
     0
176
     1
 90
       50
176
     1
 90
       50
176
     1
 90
       50
176
     1
290
     0
176
     1
 90
       50
176
     1
 62
   256
176
     0
 40
1.0
176
     0
 90
        2
176
     1
  1
strokes_ogs.tif
176
     1
290
     0
176
     1
 40
1.0
176
     1
 40
1.0
176
     1
1001
ACAD
1000
AcDbSavedByObjectVersion
1070
     0
  0
VISUALSTYLE
  5
8103
102
{ACAD_REACTORS
330
8100
102
}
330
8100
100
AcDbVisualStyle
  2
Gouraud
 70
     2
177
     3
291
     1
 70
    58
 90
        2
176
     1
 90
        2
176
     1
 90
        1
176
     1
 90
        2
176
     1
 40
0.6
176
     1
 40
30.0
176
     1
 62
     7
420
 16777215
176
     1
 90
        0
176
     1
 90
        0
176
     1
 62
     7
176
     1
 62
   257
176
     1
 90
        1
176
     1
 90
        1
176
     1
 40
1.0
176
     1
 90
        0
176
     1
 62
     7
176
     1
 40
1.0
176
     1
 90
        1
176
     1
 90
        6
176
     1
 90
        2
176
     1
 62
     7
176
     1
 90
        5
176
     1
 90
        0
176
     1
 90
        0
176
     1
290
     0
176
     1
 90
       13
176
     1
 40
0.0
176
     1
 90
        0
176
     1
290
     0
176
     1
290
     1
176
     1
290
     1
176
     1
290
     0
176
     1
290
     0
176
     1
290
     0
176
     1
290
     0
176
     1
290
     0
176
     1
290
     0
176
     1
 90
       50
176
     1
 40
0.0
176
     1
 40
1.0
176
     1
 90
        0
176
     1
 62
    18
420
        0
176
     1
 90
       50
176
     1
 90
        3
176
     1
 62
     5
420
      255
176
     1
290
     0
176
     1
 90
       50
176
     1
 90
       50
176
     1
 90
       50
176
     1
290
     0
176
     1
 90
       50
176
     1
 62
   256
176
     0
 40
1.0
176
     0
 90
        2
176
     1
  1
strokes_ogs.tif
176
     1
290
     0
176
     1
 40
1.0
176
     1
 40
1.0
176
     1
1001
ACAD
1000
AcDbSavedByObjectVersion
1070
     0
  0
VISUALSTYLE
  5
8104
102
{ACAD_REACTORS
330
8100
102
}
330
8100
100
AcDbVisualStyle
  2
GouraudWithEdges
 70
     3
177
     3
291
     1
 70
    58
 90
        2
176
     1
 90
        2
176
     1
 90
        1
176
     1
 90
        2
176
     1
 40
0.6
176
     1
 40
30.0
176
     1
 62
     7
420
 16777215
176
     1
 90
        1
176
     1
 90
        0
176
     1
 62
     7
176
     1
 62
   257
176
     1
 90
        1
176
     1
 90
        1
176
     1
 40
1.0
176
     1
 90
        0
176
     1
 62
   257
176
     1
 40
1.0
176
     1
 90
        1
176
     1
 90
        6
176
     1
 90
        2
176
     1
 62
     7
176
     1
 90
        5
176
     1
 90
        0
176
     1
 90
        0
176
     1
290
     0
176
     1
 90
       13
176
     1
 40
0.0
176
     1
 90
        0
176
     1
290
     0
176
     1
290
     1
176
     1
290
     1
176
     1
290
     0
176
     1
290
     0
176
     1
290
     0
176
     1
290
     0
176
     1
290
     0
176
     1
290
     0
176
     1
 90
       50
176
     1
 40
0.0
176
     1
 40
1.0
176
     1
 90
        0
176
     1
 62
    18
420
        0
176
     1
 90
       50
176
     1
 90
        3
176
     1
 62
     5
420
      255
176
     1
290
     0
176
     1
 90
       50
176
     1
 90
       50
176
     1
 90
       50
176
     1
290
     0
176
     1
 90
       50
176
     1
 62
   256
176
     0
 40
1.0
176
     0
 90
        2
176
     1
  1
strokes_ogs.tif
176
     1
290
     0
176
     1
 40
1.0
176
     1
 40
1.0
176
     1
1001
ACAD
1000
AcDbSavedByObjectVersion
1070
     0
  0
VISUALSTYLE
  5
8108
102
{ACAD_REACTORS
330
8100
102
}
330
8100
100
AcDbVisualStyle
  2
Hidden
 70
     6
177
     3
291
     0
 70
    58
 90
        1
176
     1
 90
        2
176
     1
 90
        2
176
     1
 90
        0
176
     1
 40
0.6
176
     1
 40
30.0
176
     1
 62
     7
420
 16777215
176
     1
 90
        2
176
     1
 90
        2
176
     1
 62
     7
176
     1
 62
   257
176
     1
 90
        2
176
     1
 90
        1
176
     1
 40
40.0
176
     1
 90
        0
176
     1
 62
   257
176
     1
 40
1.0
176
     1
 90
        1
176
     1
 90
        6
176
     1
 90
        2
176
     1
 62
     7
176
     1
 90
        3
176
     1
 90
        0
176
     1
 90
        0
176
     1
290
     0
176
     1
 90
        1
176
     1
 40
0.0
176
     1
 90
        0
176
     1
290
     0
176
     1
290
     1
176
     1
290
     1
176
     1
290
     0
176
     1
290
     0
176
     1
290
     0
176
     1
290
     0
176
     1
290
     0
176
     1
290
     0
176
     1
 90
       50
176
     1
 40
0.0
176
     1
 40
1.0
176
     1
 90
        0
176
     1
 62
    18
420
        0
176
     1
 90
       50
176
     1
 90
        3
176
     1
 62
     5
420
      255
176
     1
290
     0
176
     1
 90
       50
176
     1
 90
       50
176
     1
 90
       50
176
     1
290
     0
176
     1
 90
       50
176
     1
 62
   256
176
     0
 40
1.0
176
     0
 90
        2
176
     1
  1
strokes_ogs.tif
176
     1
290
     0
176
     1
 40
1.0
176
     1
 40
1.0
176
     1
1001
ACAD
1000
AcDbSavedByObjectVersion
1070
     0
  0
VISUALSTYLE
  5
8116
102
{ACAD_REACTORS
330
8100
102
}
330
8100
100
AcDbVisualStyle
  2
JitterOff
 70
    20
177
     3
291
     1
 70
    58
 90
        2
176
     0
 90
        2
176
     0
 90
        0
176
     0
 90
        0
176
     0
 40
0.6
176
     0
 40
30.0
176
     0
 62
     7
420
 16777215
176
     0
 90
        1
176
     0
 90
        4
176
     0
 62
     7
176
     0
 62
   257
176
     0
 90
        1
176
     0
 90
        1
176
     0
 40
1.0
176
     0
 90
       10
176
     2
 62
     7
176
     0
 40
1.0
176
     0
 90
        1
176
     0
 90
        6
176
     0
 90
        2
176
     0
 62
     7
176
     0
 90
        5
176
     0
 90
        0
176
     0
 90
        0
176
     0
290
     0
176
     0
 90
        1
176
     0
 40
0.0
176
     0
 90
        0
176
     0
290
     0
176
     0
290
     1
176
     0
290
     1
176
     0
290
     0
176
     0
290
     0
176
     0
290
     0
176
     0
290
     0
176
     0
290
     0
176
     0
290
     0
176
     0
 90
       50
176
     0
 40
0.0
176
     0
 40
1.0
176
     0
 90
        0
176
     0
 62
    18
420
        0
176
     0
 90
       50
176
     0
 90
        3
176
     0
 62
     5
420
      255
176
     0
290
     0
176
     0
 90
       50
176
     0
 90
       50
176
     0
 90
       50
176
     0
290
     0
176
     0
 90
       50
176
     0
 62
   256
176
     0
 40
1.0
176
     0
 90
        2
176
     0
  1
strokes_ogs.tif
176
     0
290
     0
176
     0
 40
1.0
176
     0
 40
1.0
176
     0
1001
ACAD
1000
AcDbSavedByObjectVersion
1070
     0
  0
VISUALSTYLE
  5
810E
102
{ACAD_REACTORS
330
8100
102
}
330
8100
100
AcDbVisualStyle
  2
Linepattern
 70
    14
177
     3
291
     1
 70
    58
 90
        2
176
     1
 90
        2
176
     1
 90
        0
176
     1
 90
        0
176
     1
 40
0.6
176
     1
 40
30.0
176
     1
 62
     7
420
 16777215
176
     1
 90
        1
176
     1
 90
        4
176
     1
 62
     7
176
     1
 62
   257
176
     1
 90
        7
176
     1
 90
        7
176
     1
 40
1.0
176
     1
 90
        8
176
     1
 62
     7
176
     1
 40
1.0
176
     1
 90
        1
176
     1
 90
        6
176
     1
 90
        2
176
     1
 62
     7
176
     1
 90
        5
176
     1
 90
        0
176
     1
 90
        0
176
     1
290
     0
176
     1
 90
        1
176
     1
 40
0.0
176
     1
 90
        0
176
     1
290
     0
176
     1
290
     1
176
     1
290
     1
176
     1
290
     0
176
     1
290
     0
176
     1
290
     0
176
     1
290
     0
176
     1
290
     0
176
     1
290
     0
176
     1
 90
       50
176
     1
 40
0.0
176
     1
 40
1.0
176
     1
 90
        0
176
     1
 62
    18
420
        0
176
     1
 90
       50
176
     1
 90
        3
176
     1
 62
     5
420
      255
176
     1
290
     0
176
     1
 90
       50
176
     1
 90
       50
176
     1
 90
       50
176
     1
290
     0
176
     1
 90
       50
176
     1
 62
   256
176
     0
 40
1.0
176
     0
 90
        2
176
     1
  1
strokes_ogs.tif
176
     1
290
     0
176
     1
 40
1.0
176
     1
 40
1.0
176
     1
1001
ACAD
1000
AcDbSavedByObjectVersion
1070
     0
  0
VISUALSTYLE
  5
8117
102
{ACAD_REACTORS
330
8100
102
}
330
8100
100
AcDbVisualStyle
  2
OverhangOff
 70
    21
177
     3
291
     1
 70
    58
 90
        2
176
     0
 90
        2
176
     0
 90
        0
176
     0
 90
        0
176
     0
 40
0.6
176
     0
 40
30.0
176
     0
 62
     7
420
 16777215
176
     0
 90
        1
176
     0
 90
        4
176
     0
 62
     7
176
     0
 62
   257
176
     0
 90
        1
176
     0
 90
        1
176
     0
 40
1.0
176
     0
 90
        9
176
     2
 62
     7
176
     0
 40
1.0
176
     0
 90
        1
176
     0
 90
        6
176
     0
 90
        2
176
     0
 62
     7
176
     0
 90
        5
176
     0
 90
        0
176
     0
 90
        0
176
     0
290
     0
176
     0
 90
        1
176
     0
 40
0.0
176
     0
 90
        0
176
     0
290
     0
176
     0
290
     1
176
     0
290
     1
176
     0
290
     0
176
     0
290
     0
176
     0
290
     0
176
     0
290
     0
176
     0
290
     0
176
     0
290
     0
176
     0
 90
       50
176
     0
 40
0.0
176
     0
 40
1.0
176
     0
 90
        0
176
     0
 62
    18
420
        0
176
     0
 90
       50
176
     0
 90
        3
176
     0
 62
     5
420
      255
176
     0
290
     0
176
     0
 90
       50
176
     0
 90
       50
176
     0
 90
       50
176
     0
290
     0
176
     0
 90
       50
176
     0
 62
   256
176
     0
 40
1.0
176
     0
 90
        2
176
     0
  1
strokes_ogs.tif
176
     0
290
     0
176
     0
 40
1.0
176
     0
 40
1.0
176
     0
1001
ACAD
1000
AcDbSavedByObjectVersion
1070
     0
  0
VISUALSTYLE
  5
810A
102
{ACAD_REACTORS
330
8100
102
}
330
8100
100
AcDbVisualStyle
  2
Realistic
 70
     8
177
     3
291
     0
 70
    58
 90
        2
176
     1
 90
        3
176
     1
 90
        0
176
     1
 90
        2
176
     1
 40
0.6
176
     1
 40
30.0
176
     1
 62
     7
420
 16777215
176
     1
 90
        0
176
     1
 90
        0
176
     1
 62
     7
176
     1
 62
   257
176
     1
 90
        1
176
     1
 90
        1
176
     1
 40
1.0
176
     1
 90
        8
176
     1
 62
   257
176
     1
 40
1.0
176
     1
 90
        1
176
     1
 90
        6
176
     1
 90
        2
176
     1
 62
     7
176
     1
 90
        3
176
     1
 90
        0
176
     1
 90
        0
176
     1
290
     0
176
     1
 90
       13
176
     1
 40
0.0
176
     1
 90
        0
176
     1
290
     0
176
     1
290
     1
176
     1
290
     1
176
     1
290
     0
176
     1
290
     0
176
     1
290
     0
176
     1
290
     0
176
     1
290
     0
176
     1
290
     0
176
     1
 90
       50
176
     1
 40
0.0
176
     1
 40
1.0
176
     1
 90
        0
176
     1
 62
    18
420
        0
176
     1
 90
       50
176
     1
 90
        3
176
     1
 62
     5
420
      255
176
     1
290
     0
176
     1
 90
       50
176
     1
 90
       50
176
     1
 90
       50
176
     1
290
     0
176
     1
 90
       50
176
     1
 62
   256
176
     0
 40
1.0
176
     0
 90
        2
176
     1
  1
strokes_ogs.tif
176
     1
290
     0
176
     1
 40
1.0
176
     1
 40
1.0
176
     1
1001
ACAD
1000
AcDbSavedByObjectVersion
1070
     0
  0
VISUALSTYLE
  5
8115
102
{ACAD_REACTORS
330
8100
102
}
330
8100
100
AcDbVisualStyle
  2
Shaded
 70
    27
177
     3
291
     0
 70
    58
 90
        2
176
     1
 90
        2
176
     1
 90
        1
176
     1
 90
        2
176
     1
 40
0.6
176
     1
 40
30.0
176
     1
 62
     7
420
 16777215
176
     1
 90
        0
176
     1
 90
        4
176
     1
 62
     7
176
     1
 62
   257
176
     1
 90
        1
176
     1
 90
        1
176
     1
 40
1.0
176
     1
 90
        8
176
     1
 62
   257
176
     1
 40
1.0
176
     1
 90
        1
176
     1
 90
        6
176
     1
 90
        2
176
     1
 62
     8
420
  7895160
176
     1
 90
        3
176
     1
 90
        0
176
     1
 90
        0
176
     1
290
     0
176
     1
 90
        5
176
     1
 40
0.0
176
     1
 90
        0
176
     1
290
     0
176
     1
290
     1
176
     1
290
     1
176
     1
290
     0
176
     1
290
     0
176
     1
290
     0
176
     1
290
     0
176
     1
290
     0
176
     1
290
     0
176
     1
 90
       50
176
     1
 40
0.0
176
     1
 40
1.0
176
     1
 90
        0
176
     1
 62
    18
420
        0
176
     1
 90
       50
176
     1
 90
        3
176
     1
 62
     5
420
      255
176
     1
290
     0
176
     1
 90
       50
176
     1
 90
       50
176
     1
 90
       50
176
     1
290
     0
176
     1
 90
       50
176
     1
 62
   256
176
     0
 40
1.0
176
     0
 90
        2
176
     1
  1
strokes_ogs.tif
176
     1
290
     0
176
     1
 40
1.0
176
     1
 40
1.0
176
     1
1001
ACAD
1000
AcDbSavedByObjectVersion
1070
     0
  0
VISUALSTYLE
  5
8114
102
{ACAD_REACTORS
330
8100
102
}
330
8100
100
AcDbVisualStyle
  2
Shaded with edges
 70
    26
177
     3
291
     0
 70
    58
 90
        2
176
     1
 90
        2
176
     1
 90
        1
176
     1
 90
        2
176
     1
 40
0.6
176
     1
 40
30.0
176
     1
 62
     7
420
 16777215
176
     1
 90
        1
176
     1
 90
        2
176
     1
 62
     7
176
     1
 62
   257
176
     1
 90
        2
176
     1
 90
        1
176
     1
 40
1.0
176
     1
 90
        8
176
     1
 62
   257
176
     1
 40
1.0
176
     1
 90
        1
176
     1
 90
        6
176
     1
 90
        2
176
     1
 62
     7
176
     1
 90
        3
176
     1
 90
        0
176
     1
 90
        0
176
     1
290
     0
176
     1
 90
        5
176
     1
 40
0.0
176
     1
 90
        0
176
     1
290
     0
176
     1
290
     1
176
     1
290
     1
176
     1
290
     0
176
     1
290
     0
176
     1
290
     0
176
     1
290
     0
176
     1
290
     0
176
     1
290
     0
176
     1
 90
       50
176
     1
 40
0.0
176
     1
 40
1.0
176
     1
 90
        0
176
     1
 62
    18
420
        0
176
     1
 90
       50
176
     1
 90
        3
176
     1
 62
     5
420
      255
176
     1
290
     0
176
     1
 90
       50
176
     1
 90
       50
176
     1
 90
       50
176
     1
290
     0
176
     1
 90
       50
176
     1
 62
   256
176
     0
 40
1.0
176
     0
 90
        2
176
     1
  1
strokes_ogs.tif
176
     1
290
     0
176
     1
 40
1.0
176
     1
 40
1.0
176
     1
1001
ACAD
1000
AcDbSavedByObjectVersion
1070
     0
  0
VISUALSTYLE
  5
8111
102
{ACAD_REACTORS
330
8100
102
}
330
8100
100
AcDbVisualStyle
  2
Shades of Gray
 70
    23
177
     3
291
     0
 70
    58
 90
        2
176
     1
 90
        2
176
     1
 90
        3
176
     1
 90
        0
176
     1
 40
0.6
176
     1
 40
30.0
176
     1
 62
     7
420
 16777215
176
     1
 90
        2
176
     1
 90
        2
176
     1
 62
     7
176
     1
 62
     7
176
     1
 90
        1
176
     1
 90
        1
176
     1
 40
40.0
176
     1
 90
        8
176
     1
 62
     7
176
     1
 40
1.0
176
     1
 90
        1
176
     1
 90
        6
176
     1
 90
        2
176
     1
 62
     7
176
     1
 90
        3
176
     1
 90
        0
176
     1
 90
        0
176
     1
290
     0
176
     1
 90
        1
176
     1
 40
0.0
176
     1
 90
        0
176
     1
290
     0
176
     1
290
     1
176
     1
290
     1
176
     1
290
     0
176
     1
290
     0
176
     1
290
     0
176
     1
290
     0
176
     1
290
     0
176
     1
290
     0
176
     1
 90
       50
176
     1
 40
0.0
176
     1
 40
1.0
176
     1
 90
        0
176
     1
 62
    18
420
        0
176
     1
 90
       50
176
     1
 90
        3
176
     1
 62
     5
420
      255
176
     1
290
     0
176
     1
 90
       50
176
     1
 90
       50
176
     1
 90
       50
176
     1
290
     0
176
     1
 90
       50
176
     1
 62
   256
176
     0
 40
1.0
176
     0
 90
        2
176
     1
  1
strokes_ogs.tif
176
     1
290
     0
176
     1
 40
1.0
176
     1
 40
1.0
176
     1
1001
ACAD
1000
AcDbSavedByObjectVersion
1070
     0
  0
VISUALSTYLE
  5
8112
102
{ACAD_REACTORS
330
8100
102
}
330
8100
100
AcDbVisualStyle
  2
Sketchy
 70
    24
177
     3
291
     0
 70
    58
 90
        1
176
     1
 90
        2
176
     1
 90
        2
176
     1
 90
        0
176
     1
 40
0.6
176
     1
 40
30.0
176
     1
 62
     7
420
 16777215
176
     1
 90
        2
176
     1
 90
        2
176
     1
 62
     7
176
     1
 62
     7
176
     1
 90
        1
176
     1
 90
        1
176
     1
 40
40.0
176
     1
 90
       11
176
     1
 62
     7
176
     1
 40
1.0
176
     1
 90
        1
176
     1
 90
        6
176
     1
 90
        2
176
     1
 62
     7
176
     1
 90
        6
176
     1
 90
        0
176
     1
 90
        0
176
     1
290
     0
176
     1
 90
        1
176
     1
 40
0.0
176
     1
 90
        0
176
     1
290
     0
176
     1
290
     1
176
     1
290
     1
176
     1
290
     0
176
     1
290
     0
176
     1
290
     0
176
     1
290
     0
176
     1
290
     0
176
     1
290
     0
176
     1
 90
       50
176
     1
 40
0.0
176
     1
 40
1.0
176
     1
 90
        0
176
     1
 62
    18
420
        0
176
     1
 90
       50
176
     1
 90
        3
176
     1
 62
     5
420
      255
176
     1
290
     0
176
     1
 90
       50
176
     1
 90
       50
176
     1
 90
       50
176
     1
290
     0
176
     1
 90
       50
176
     1
 62
   256
176
     0
 40
1.0
176
     0
 90
        2
176
     1
  1
strokes_ogs.tif
176
     1
290
     0
176
     1
 40
1.0
176
     1
 40
1.0
176
     1
1001
ACAD
1000
AcDbSavedByObjectVersion
1070
     0
  0
VISUALSTYLE
  5
810D
102
{ACAD_REACTORS
330
8100
102
}
330
8100
100
AcDbVisualStyle
  2
Thicken
 70
    13
177
     3
291
     1
 70
    58
 90
        2
176
     1
 90
        2
176
     1
 90
        0
176
     1
 90
        0
176
     1
 40
0.6
176
     1
 40
30.0
176
     1
 62
     7
420
 16777215
176
     1
 90
        1
176
     1
 90
        4
176
     1
 62
     7
176
     1
 62
   257
176
     1
 90
        1
176
     1
 90
        1
176
     1
 40
1.0
176
     1
 90
       12
176
     1
 62
     7
176
     1
 40
1.0
176
     1
 90
        1
176
     1
 90
        6
176
     1
 90
        2
176
     1
 62
     7
176
     1
 90
        5
176
     1
 90
        0
176
     1
 90
        0
176
     1
290
     0
176
     1
 90
        1
176
     1
 40
0.0
176
     1
 90
        0
176
     1
290
     0
176
     1
290
     1
176
     1
290
     1
176
     1
290
     0
176
     1
290
     0
176
     1
290
     0
176
     1
290
     0
176
     1
290
     0
176
     1
290
     0
176
     1
 90
       50
176
     1
 40
0.0
176
     1
 40
1.0
176
     1
 90
        0
176
     1
 62
    18
420
        0
176
     1
 90
       50
176
     1
 90
        3
176
     1
 62
     5
420
      255
176
     1
290
     0
176
     1
 90
       50
176
     1
 90
       50
176
     1
 90
       50
176
     1
290
     0
176
     1
 90
       50
176
     1
 62
   256
176
     0
 40
1.0
176
     0
 90
        2
176
     1
  1
strokes_ogs.tif
176
     1
290
     0
176
     1
 40
1.0
176
     1
 40
1.0
176
     1
1001
ACAD
1000
AcDbSavedByObjectVersion
1070
     0
  0
VISUALSTYLE
  5
8107
102
{ACAD_REACTORS
330
8100
102
}
330
8100
100
AcDbVisualStyle
  2
Wireframe
 70
     5
177
     3
291
     0
 70
    58
 90
        0
176
     1
 90
        2
176
     1
 90
        0
176
     1
 90
        0
176
     1
 40
0.6
176
     1
 40
30.0
176
     1
 62
     7
420
 16777215
176
     1
 90
        1
176
     1
 90
        4
176
     1
 62
     7
176
     1
 62
   257
176
     1
 90
        1
176
     1
 90
        1
176
     1
 40
1.0
176
     1
 90
        0
176
     1
 62
   257
176
     1
 40
1.0
176
     1
 90
        1
176
     1
 90
        6
176
     1
 90
        2
176
     1
 62
     7
176
     1
 90
        3
176
     1
 90
        0
176
     1
 90
        0
176
     1
290
     0
176
     1
 90
        1
176
     1
 40
0.0
176
     1
 90
        0
176
     1
290
     0
176
     1
290
     1
176
     1
290
     1
176
     1
290
     0
176
     1
290
     0
176
     1
290
     0
176
     1
290
     0
176
     1
290
     0
176
     1
290
     0
176
     1
 90
       50
176
     1
 40
0.0
176
     1
 40
1.0
176
     1
 90
        0
176
     1
 62
    18
420
        0
176
     1
 90
       50
176
     1
 90
        3
176
     1
 62
     5
420
      255
176
     1
290
     0
176
     1
 90
       50
176
     1
 90
       50
176
     1
 90
       50
176
     1
290
     0
176
     1
 90
       50
176
     1
 62
   256
176
     0
 40
1.0
176
     0
 90
        2
176
     1
  1
strokes_ogs.tif
176
     1
290
     0
176
     1
 40
1.0
176
     1
 40
1.0
176
     1
1001
ACAD
1000
AcDbSavedByObjectVersion
1070
     0
  0
VISUALSTYLE
  5
8113
102
{ACAD_REACTORS
330
8100
102
}
330
8100
100
AcDbVisualStyle
  2
X-Ray
 70
    25
177
     3
291
     0
 70
    58
 90
        2
176
     1
 90
        2
176
     1
 90
        1
176
     1
 90
        1
176
     1
 40
0.5
176
     1
 40
30.0
176
     1
 62
     7
420
 16777215
176
     1
 90
        1
176
     1
 90
        0
176
     1
 62
     7
176
     1
 62
   257
176
     1
 90
        1
176
     1
 90
        1
176
     1
 40
1.0
176
     1
 90
        8
176
     1
 62
     7
176
     1
 40
1.0
176
     1
 90
        1
176
     1
 90
        6
176
     1
 90
        2
176
     1
 62
     7
176
     1
 90
        3
176
     1
 90
        0
176
     1
 90
        0
176
     1
290
     0
176
     1
 90
       13
176
     1
 40
0.0
176
     1
 90
        0
176
     1
290
     0
176
     1
290
     1
176
     1
290
     1
176
     1
290
     0
176
     1
290
     0
176
     1
290
     0
176
     1
290
     0
176
     1
290
     0
176
     1
290
     0
176
     1
 90
       50
176
     1
 40
0.0
176
     1
 40
1.0
176
     1
 90
        0
176
     1
 62
    18
420
        0
176
     1
 90
       50
176
     1
 90
        3
176
     1
 62
     5
420
      255
176
     1
290
     0
176
     1
 90
       50
176
     1
 90
       50
176
     1
 90
       50
176
     1
290
     0
176
     1
 90
       50
176
     1
 62
   256
176
     0
 40
1.0
176
     0
 90
        2
176
     1
  1
strokes_ogs.tif
176
     1
290
     0
176
     1
 40
1.0
176
     1
 40
1.0
176
     1
1001
ACAD
1000
AcDbSavedByObjectVersion
1070
     0
  0
DICTIONARYVAR
  5
81B6
102
{ACAD_REACTORS
330
81B0
102
}
330
81B0
100
DictionaryVariables
280
     0
  1
1:1
  0
DICTIONARYVAR
  5
81B2
102
{ACAD_REACTORS
330
81B0
102
}
330
81B0
100
DictionaryVariables
280
     0
  1
STANDARD
  0
DICTIONARYVAR
  5
81B1
102
{ACAD_REACTORS
330
81B0
102
}
330
81B0
100
DictionaryVariables
280
     0
  1
STANDARD
  0
DICTIONARYVAR
  5
81B3
102
{ACAD_REACTORS
330
81B0
102
}
330
81B0
100
DictionaryVariables
280
     0
  1
Metric50
  0
DICTIONARYVAR
  5
81B4
102
{ACAD_REACTORS
330
81B0
102
}
330
81B0
100
DictionaryVariables
280
     0
  1
Metric50
  0
DICTIONARYVAR
  5
81B8
102
{ACAD_REACTORS
330
81B0
102
}
330
81B0
100
DictionaryVariables
280
     0
  1
1
  0
DICTIONARYVAR
  5
81B9
102
{ACAD_REACTORS
330
81B0
102
}
330
81B0
100
DictionaryVariables
280
     0
  1
15
  0
DICTIONARYVAR
  5
81B7
102
{ACAD_REACTORS
330
81B0
102
}
330
81B0
100
DictionaryVariables
280
     0
  1
0
  0
DICTIONARYVAR
  5
81BE
102
{ACAD_REACTORS
330
81B0
102
}
330
81B0
100
DictionaryVariables
280
     0
  1
0
  0
DICTIONARYVAR
  5
81B5
102
{ACAD_REACTORS
330
81B0
102
}
330
81B0
100
DictionaryVariables
280
     0
  1
0
  0
DICTIONARY
  5
81C9
102
{ACAD_REACTORS
330
81C7
102
}
330
81C7
100
AcDbDictionary
281
     1
  0
DICTIONARY
  5
81C8
102
{ACAD_REACTORS
330
81C7
102
}
330
81C7
100
AcDbDictionary
281
     1
  3
2039782419744
350
81C2
  3
2039782419760
350
81C3
  3
2039782419776
350
81C4
  3
2039782419792
350
81C5
  3
2039782419808
350
81C6
  0
DICTIONARY
  5
81CC
330
8133
100
AcDbDictionary
280
     1
281
     1
  3
ACAD_XREC_ROUNDTRIP
360
81CD
  0
DICTIONARY
  5
80F1
330
80F0
100
AcDbDictionary
280
     1
281
     1
  3
BUMPTILE
360
80F3
  3
DIFFUSETILE
360
80F2
  3
OPACITYTILE
360
80F6
  3
REFLECTIONTILE
360
80F5
  3
REFRACTIONTILE
360
80F7
  3
SPECULARTILE
360
80F4
  0
DICTIONARY
  5
80E9
330
80E8
100
AcDbDictionary
280
     1
281
     1
  3
BUMPTILE
360
80EB
  3
DIFFUSETILE
360
80EA
  3
OPACITYTILE
360
80EE
  3
REFLECTIONTILE
360
80ED
  3
REFRACTIONTILE
360
80EF
  3
SPECULARTILE
360
80EC
  0
DICTIONARY
  5
80F9
330
80F8
100
AcDbDictionary
280
     1
281
     1
  3
BUMPTILE
360
80FB
  3
DIFFUSETILE
360
80FA
  3
OPACITYTILE
360
80FE
  3
REFLECTIONTILE
360
80FD
  3
REFRACTIONTILE
360
80FF
  3
SPECULARTILE
360
80FC
  0
DICTIONARY
  5
81CA
330
8131
100
AcDbDictionary
280
     1
281
     1
  3
ACAD_XREC_ROUNDTRIP
360
81CB
  0
DICTIONARY
  5
81BF
330
811B
100
AcDbDictionary
280
     1
281
     1
  3
ACAD_ROUNDTRIP_2008_TABLESTYLE_CELLSTYLEMAP
360
81C0
  0
XRECORD
  5
81C2
102
{ACAD_REACTORS
330
81C8
102
}
330
81C8
100
AcDbXrecord
280
     1
  1
AcDb_Thumbnail_Schema
102
{ATTRRECORD
341
81C3
  2
AcDbDs::TreatedAsObjectData
280
     1
291
     1
102
ATTRRECORD}
102
{ATTRRECORD
341
81C4
  2
AcDbDs::Legacy
280
     1
291
     1
102
ATTRRECORD}
  2
AcDbDs::ID
280
    10
 91
        8
102
{ATTRRECORD
341
81C5
  2
AcDs:Indexable
280
     1
291
     1
102
ATTRRECORD}
102
{ATTRRECORD
341
81C6
  2
AcDbDs::HandleAttribute
280
     7
282
     1
102
ATTRRECORD}
  2
Thumbnail_Data
280
    15
 91
        0
  0
XRECORD
  5
81C3
102
{ACAD_REACTORS
330
81C8
102
}
330
81C8
100
AcDbXrecord
280
     1
  1
AcDbDs::TreatedAsObjectDataSchema
  2
AcDbDs::TreatedAsObjectData
280
     1
 91
        0
  0
XRECORD
  5
81C4
102
{ACAD_REACTORS
330
81C8
102
}
330
81C8
100
AcDbXrecord
280
     1
  1
AcDbDs::LegacySchema
  2
AcDbDs::Legacy
280
     1
 91
        0
  0
XRECORD
  5
81C5
102
{ACAD_REACTORS
330
81C8
102
}
330
81C8
100
AcDbXrecord
280
     1
  1
AcDbDs::IndexedPropertySchema
  2
AcDs:Indexable
280
     1
 91
        0
  0
XRECORD
  5
81C6
102
{ACAD_REACTORS
330
81C8
102
}
330
81C8
100
AcDbXrecord
280
     1
  1
AcDbDs::HandleAttributeSchema
  2
AcDbDs::HandleAttribute
280
     7
 91
        1
284
     1
  0
XRECORD
  5
81CD
102
{ACAD_REACTORS
330
81CC
102
}
330
81CC
100
AcDbXrecord
280
     1
102
DISPLAYNAME
  1
Metric50
102
FLAGS
 90
        0
  0
XRECORD
  5
80F3
102
{ACAD_REACTORS
330
80F1
102
}
330
80F1
100
AcDbXrecord
280
     1
270
     1
271
     1
  0
XRECORD
  5
80F2
102
{ACAD_REACTORS
330
80F1
102
}
330
80F1
100
AcDbXrecord
280
     1
270
     1
271
     1
  0
XRECORD
  5
80F6
102
{ACAD_REACTORS
330
80F1
102
}
330
80F1
100
AcDbXrecord
280
     1
270
     1
271
     1
  0
XRECORD
  5
80F5
102
{ACAD_REACTORS
330
80F1
102
}
330
80F1
100
AcDbXrecord
280
     1
270
     1
271
     1
  0
XRECORD
  5
80F7
102
{ACAD_REACTORS
330
80F1
102
}
330
80F1
100
AcDbXrecord
280
     1
270
     1
271
     1
  0
XRECORD
  5
80F4
102
{ACAD_REACTORS
330
80F1
102
}
330
80F1
100
AcDbXrecord
280
     1
270
     1
271
     1
  0
XRECORD
  5
80EB
102
{ACAD_REACTORS
330
80E9
102
}
330
80E9
100
AcDbXrecord
280
     1
270
     1
271
     1
  0
XRECORD
  5
80EA
102
{ACAD_REACTORS
330
80E9
102
}
330
80E9
100
AcDbXrecord
280
     1
270
     1
271
     1
  0
XRECORD
  5
80EE
102
{ACAD_REACTORS
330
80E9
102
}
330
80E9
100
AcDbXrecord
280
     1
270
     1
271
     1
  0
XRECORD
  5
80ED
102
{ACAD_REACTORS
330
80E9
102
}
330
80E9
100
AcDbXrecord
280
     1
270
     1
271
     1
  0
XRECORD
  5
80EF
102
{ACAD_REACTORS
330
80E9
102
}
330
80E9
100
AcDbXrecord
280
     1
270
     1
271
     1
  0
XRECORD
  5
80EC
102
{ACAD_REACTORS
330
80E9
102
}
330
80E9
100
AcDbXrecord
280
     1
270
     1
271
     1
  0
XRECORD
  5
80FB
102
{ACAD_REACTORS
330
80F9
102
}
330
80F9
100
AcDbXrecord
280
     1
270
     1
271
     1
  0
XRECORD
  5
80FA
102
{ACAD_REACTORS
330
80F9
102
}
330
80F9
100
AcDbXrecord
280
     1
270
     1
271
     1
  0
XRECORD
  5
80FE
102
{ACAD_REACTORS
330
80F9
102
}
330
80F9
100
AcDbXrecord
280
     1
270
     1
271
     1
  0
XRECORD
  5
80FD
102
{ACAD_REACTORS
330
80F9
102
}
330
80F9
100
AcDbXrecord
280
     1
270
     1
271
     1
  0
XRECORD
  5
80FF
102
{ACAD_REACTORS
330
80F9
102
}
330
80F9
100
AcDbXrecord
280
     1
270
     1
271
     1
  0
XRECORD
  5
80FC
102
{ACAD_REACTORS
330
80F9
102
}
330
80F9
100
AcDbXrecord
280
     1
270
     1
271
     1
  0
XRECORD
  5
81CB
102
{ACAD_REACTORS
330
81CA
102
}
330
81CA
100
AcDbXrecord
280
     1
102
DISPLAYNAME
  1
Metric50
102
FLAGS
 90
        0
  0
CELLSTYLEMAP
  5
81C0
102
{ACAD_REACTORS
330
81BF
102
}
330
81BF
100
AcDbCellStyleMap
 90
        3
300
CELLSTYLE
  1
TABLEFORMAT_BEGIN
 90
        5
170
     1
 91
        0
 92
    32768
 62
   257
 93
        1
300
CONTENTFORMAT
  1
CONTENTFORMAT_BEGIN
 90
        0
 91
        0
 92
      512
 93
        0
300

 40
0.0
140
1.0
 94
        5
 62
     0
340
10
144
6.0
309
CONTENTFORMAT_END
171
     1
301
MARGIN
  1
CELLMARGIN_BEGIN
 40
1.5
 40
1.5
 40
1.5
 40
1.5
 40
4.5
 40
4.5
309
CELLMARGIN_END
 94
        6
 95
        1
302
GRIDFORMAT
  1
GRIDFORMAT_BEGIN
 90
        0
 91
        1
 62
     0
 92
       -2
340
0
 93
        0
 40
1.125
309
GRIDFORMAT_END
 95
        2
302
GRIDFORMAT
  1
GRIDFORMAT_BEGIN
 90
        0
 91
        1
 62
     0
 92
       -2
340
0
 93
        0
 40
1.125
309
GRIDFORMAT_END
 95
        4
302
GRIDFORMAT
  1
GRIDFORMAT_BEGIN
 90
        0
 91
        1
 62
     0
 92
       -2
340
0
 93
        0
 40
1.125
309
GRIDFORMAT_END
 95
        8
302
GRIDFORMAT
  1
GRIDFORMAT_BEGIN
 90
        0
 91
        1
 62
     0
 92
       -2
340
0
 93
        0
 40
1.125
309
GRIDFORMAT_END
 95
       16
302
GRIDFORMAT
  1
GRIDFORMAT_BEGIN
 90
        0
 91
        1
 62
     0
 92
       -2
340
0
 93
        0
 40
1.125
309
GRIDFORMAT_END
 95
       32
302
GRIDFORMAT
  1
GRIDFORMAT_BEGIN
 90
        0
 91
        1
 62
     0
 92
       -2
340
0
 93
        0
 40
1.125
309
GRIDFORMAT_END
309
TABLEFORMAT_END
  1
CELLSTYLE_BEGIN
 90
        1
 91
        1
300
_TITLE
309
CELLSTYLE_END
300
CELLSTYLE
  1
TABLEFORMAT_BEGIN
 90
        5
170
     1
 91
        0
 92
        0
 62
   257
 93
        1
300
CONTENTFORMAT
  1
CONTENTFORMAT_BEGIN
 90
        0
 91
        0
 92
      512
 93
        0
300

 40
0.0
140
1.0
 94
        5
 62
     0
340
10
144
4.5
309
CONTENTFORMAT_END
171
     1
301
MARGIN
  1
CELLMARGIN_BEGIN
 40
1.5
 40
1.5
 40
1.5
 40
1.5
 40
4.5
 40
4.5
309
CELLMARGIN_END
 94
        6
 95
        1
302
GRIDFORMAT
  1
GRIDFORMAT_BEGIN
 90
        0
 91
        1
 62
     0
 92
       -2
340
0
 93
        0
 40
1.125
309
GRIDFORMAT_END
 95
        2
302
GRIDFORMAT
  1
GRIDFORMAT_BEGIN
 90
        0
 91
        1
 62
     0
 92
       -2
340
0
 93
        0
 40
1.125
309
GRIDFORMAT_END
 95
        4
302
GRIDFORMAT
  1
GRIDFORMAT_BEGIN
 90
        0
 91
        1
 62
     0
 92
       -2
340
0
 93
        0
 40
1.125
309
GRIDFORMAT_END
 95
        8
302
GRIDFORMAT
  1
GRIDFORMAT_BEGIN
 90
        0
 91
        1
 62
     0
 92
       -2
340
0
 93
        0
 40
1.125
309
GRIDFORMAT_END
 95
       16
302
GRIDFORMAT
  1
GRIDFORMAT_BEGIN
 90
        0
 91
        1
 62
     0
 92
       -2
340
0
 93
        0
 40
1.125
309
GRIDFORMAT_END
 95
       32
302
GRIDFORMAT
  1
GRIDFORMAT_BEGIN
 90
        0
 91
        1
 62
     0
 92
       -2
340
0
 93
        0
 40
1.125
309
GRIDFORMAT_END
309
TABLEFORMAT_END
  1
CELLSTYLE_BEGIN
 90
        2
 91
        1
300
_HEADER
309
CELLSTYLE_END
300
CELLSTYLE
  1
TABLEFORMAT_BEGIN
 90
        5
170
     1
 91
        0
 92
        0
 62
   257
 93
        1
300
CONTENTFORMAT
  1
CONTENTFORMAT_BEGIN
 90
        0
 91
        0
 92
      512
 93
        0
300

 40
0.0
140
1.0
 94
        2
 62
     0
340
10
144
4.5
309
CONTENTFORMAT_END
171
     1
301
MARGIN
  1
CELLMARGIN_BEGIN
 40
1.5
 40
1.5
 40
1.5
 40
1.5
 40
4.5
 40
4.5
309
CELLMARGIN_END
 94
        6
 95
        1
302
GRIDFORMAT
  1
GRIDFORMAT_BEGIN
 90
        0
 91
        1
 62
     0
 92
       -2
340
0
 93
        0
 40
1.125
309
GRIDFORMAT_END
 95
        2
302
GRIDFORMAT
  1
GRIDFORMAT_BEGIN
 90
        0
 91
        1
 62
     0
 92
       -2
340
0
 93
        0
 40
1.125
309
GRIDFORMAT_END
 95
        4
302
GRIDFORMAT
  1
GRIDFORMAT_BEGIN
 90
        0
 91
        1
 62
     0
 92
       -2
340
0
 93
        0
 40
1.125
309
GRIDFORMAT_END
 95
        8
302
GRIDFORMAT
  1
GRIDFORMAT_BEGIN
 90
        0
 91
        1
 62
     0
 92
       -2
340
0
 93
        0
 40
1.125
309
GRIDFORMAT_END
 95
       16
302
GRIDFORMAT
  1
GRIDFORMAT_BEGIN
 90
        0
 91
        1
 62
     0
 92
       -2
340
0
 93
        0
 40
1.125
309
GRIDFORMAT_END
 95
       32
302
GRIDFORMAT
  1
GRIDFORMAT_BEGIN
 90
        0
 91
        1
 62
     0
 92
       -2
340
0
 93
        0
 40
1.125
309
GRIDFORMAT_END
309
TABLEFORMAT_END
  1
CELLSTYLE_BEGIN
 90
        3
 91
        2
300
_DATA
309
CELLSTYLE_END
  0
ENDSEC
  0
SECTION
  2
ACDSDATA
 70
     2
 71
     8
  0
ACDSSCHEMA
 90
        0
  1
AcDb_Thumbnail_Schema
  2
AcDbDs::ID
280
    10
 91
        8
  2
Thumbnail_Data
280
    15
 91
        0
101
ACDSRECORD
 95
        0
 90
        1
  2
AcDbDs::TreatedAsObjectData
280
     1
291
     1
101
ACDSRECORD
 95
        0
 90
        2
  2
AcDbDs::Legacy
280
     1
291
     1
101
ACDSRECORD
  1
AcDbDs::ID
 90
        3
  2
AcDs:Indexable
280
     1
291
     1
101
ACDSRECORD
  1
AcDbDs::ID
 90
        4
  2
AcDbDs::HandleAttribute
280
     7
282
     1
  0
ACDSSCHEMA
 90
        1
  1
AcDbDs::TreatedAsObjectDataSchema
  2
AcDbDs::TreatedAsObjectData
280
     1
 91
        0
  0
ACDSSCHEMA
 90
        2
  1
AcDbDs::LegacySchema
  2
AcDbDs::Legacy
280
     1
 91
        0
  0
ACDSSCHEMA
 90
        3
  1
AcDbDs::IndexedPropertySchema
  2
AcDs:Indexable
280
     1
 91
        0
  0
ACDSSCHEMA
 90
        4
  1
AcDbDs::HandleAttributeSchema
  2
AcDbDs::HandleAttribute
280
     7
 91
        1
284
     1
  0
ACDSRECORD
 90
        0
  2
AcDbDs::ID
280
    10
320
809D
  2
Thumbnail_Data
280
    15
 94
     1686
310
89504E470D0A1A0A0000000D49484452000001000000007C0803000000B13B9E5A00000300504C5445000000000000C8C8C80000000000000000000000000000000000000000000000000000330000660000990000CC0000FF0033000033330033660033990033CC0033FF0066000066330066660066990066CC0066FF0099
310
000099330099660099990099CC0099FF00CC0000CC3300CC6600CC9900CCCC00CCFF00FF0000FF3300FF6600FF9900FFCC00FFFF3300003300333300663300993300CC3300FF3333003333333333663333993333CC3333FF3366003366333366663366993366CC3366FF3399003399333399663399993399CC3399FF33CC00
310
33CC3333CC6633CC9933CCCC33CCFF33FF0033FF3333FF6633FF9933FFCC33FFFF6600006600336600666600996600CC6600FF6633006633336633666633996633CC6633FF6666006666336666666666996666CC6666FF6699006699336699666699996699CC6699FF66CC0066CC3366CC6666CC9966CCCC66CCFF66FF0066
310
FF3366FF6666FF9966FFCC66FFFF9900009900339900669900999900CC9900FF9933009933339933669933999933CC9933FF9966009966339966669966999966CC9966FF9999009999339999669999999999CC9999FF99CC0099CC3399CC6699CC9999CCCC99CCFF99FF0099FF3399FF6699FF9999FFCC99FFFFCC0000CC00
310
33CC0066CC0099CC00CCCC00FFCC3300CC3333CC3366CC3399CC33CCCC33FFCC6600CC6633CC6666CC6699CC66CCCC66FFCC9900CC9933CC9966CC9999CC99CCCC99FFCCCC00CCCC33CCCC66CCCC99CCCCCCCCCCFFCCFF00CCFF33CCFF66CCFF99CCFFCCCCFFFFFF0000FF0033FF0066FF0099FF00CCFF00FFFF3300FF3333
310
FF3366FF3399FF33CCFF33FFFF6600FF6633FF6666FF6699FF66CCFF66FFFF9900FF9933FF9966FF9999FF99CCFF99FFFFCC00FFCC33FFCC66FFCC99FFCCCCFFCCFFFFFF00FFFF33FFFF66FFFF99FFFFCCFFFFFF0000000D0D0D1A1A1A2828283535354343435050505D5D5D6B6B6B787878868686939393A1A1A1AEAEAEBB
310
BBBBC9C9C9D6D6D6E4E4E4F1F1F1FFFFFF00000000000000000000000000000000000000000000000000000000000008F1915C000003514944415478DAED9D5B6E2B210C86BD1C5EBCFFCDB00DDE4F130CD8C04C12A93D2DBF4DAA88B9248ABFF10D8328D10FB4F2438D4E69E5A8AF0D00012000048000F0777EE94DF0F302
310
60FA7871A901EE0114CF00262B381BC0B78E008E04F0C7BE2C00FC0200D163A5D2C5F4A92979BD77588E9C44004055681A62931C369F578A6400A575A9B477080DA02BFF261A50651D1AA02EA098404BF28AB6897BD94A38C1C803300643A51943CFF14A738D1FE592A702D8793E1B134907BF323CA707003D1B1809434780
310
06806CECEB065ED47DD45F4000BEEDF351130C0001200004804301E447DB1E380090AF9B130017FDF9280004003F00925F00AC5BE68F3CE1F90078691FA9010080D649EA44000800012000A002908CDF38FD09007818CCE6B913A7A9717206C0BD06380320C27117D92D80E601BD458101E0217200F09808CD00DC8D062700
310
73380800E42D159E5B765211DA0A4F8E6A825FD226630189BC0170AE012AF29B3CC01F80E6F49C0188C9D1ABB65C51583684001648BC7AEC9800F27B36F0FA0E0813683255E12E278EF3EEECF900EE356083090EC0DC5901CC80FC0198322560007D3428FA9EA54460F3654400632C5005AC7FFDA2D2004C003C347C07A022
310
48F52A2000667A01806A01497A6800D8F8B85E12B200BEDE52EBF804402CF5133800ACBC6003403B00E20B6DB6040280C5C4F94D138002D0E25C73F2EF38C14C68008601080049849EC74B18CC5800AA9032576C01B058C59408A100482AC94D5F2F4E694A851F2797965000F4DCBE2A7F9287CD6AECDB35638E930800C602
310
89A6FB43DB0D8025516008004FB56F00AA13E8E39E61025B0D608201A04C5C9C7C0350ADE4B96A2E250BC0F8D0934D80D884BF341E760720516005707E22A4D7890E1F303CC09C20A88A10462ACCFD996F26487B26B8A907A9C5B52703D015005A345C9780F7ABA8CE0770A9014B791C5403EE57C83800E0DD04368BA4F285
310
06E4E906CE10005448EBA7D4B44F36B7F60AC9323104BA40C24C10DE2FA1005A20A1663E2D80B90301E0BE7DB05026004002F8FDAF0D00012000FCC75FEA7247C92B00EF49E6024099F798D49B0F8201A0CDBF4D52BB2DB75D967101B8F7017B0DE83BCEDE6DA489EC035C02B8B00B471AE0D207442A1C0002400008000120
310
0004800010000200328083FEF5F63F21B91E45DFD5CE6E0000000049454E44AE426082
  0
ENDSEC
  0
EOF
