  0
SECTION
  2
HEADER
  9
$ACADVER
  1
AC1027
  9
$ACADMAINTVER
 70
   125
  9
$DWGCODEPAGE
  3
ANSI_932
  9
$LASTSAVEDBY
  1
yasukiyo.ogawa
  9
$REQUIREDVERSIONS
160
                 0
  9
$INSBASE
 10
0.0
 20
0.0
 30
0.0
  9
$EXTMIN
 10
0.0
 20
0.0
 30
0.0
  9
$EXTMAX
 10
5250.0
 20
7375.0
 30
0.0
  9
$LIMMIN
 10
0.0
 20
0.0
  9
$LIMMAX
 10
297.0
 20
210.0
  9
$ORTHOMODE
 70
     1
  9
$REGENMODE
 70
     1
  9
$FILLMODE
 70
     0
  9
$QTEXTMODE
 70
     0
  9
$MIRRTEXT
 70
     1
  9
$LTSCALE
 40
100.0
  9
$ATTMODE
 70
     1
  9
$TEXTSIZE
 40
180.0
  9
$TRACEWID
 40
0.05
  9
$TEXTSTYLE
  7
STANDARD
  9
$CLAYER
  8
3
  9
$CELTYPE
  6
BYLAYER
  9
$CECOLOR
 62
   256
  9
$CELTSCALE
 40
1.0
  9
$DISPSILH
 70
     0
  9
$DIMSCALE
 40
25.0
  9
$DIMASZ
 40
2.0
  9
$DIMEXO
 40
0.5
  9
$DIMDLI
 40
10.0
  9
$DIMRND
 40
0.0
  9
$DIMDLE
 40
0.0
  9
$DIMEXE
 40
1.0
  9
$DIMTP
 40
1.0
  9
$DIMTM
 40
1.0
  9
$DIMTXT
 40
3.0
  9
$DIMCEN
 40
0.0
  9
$DIMTSZ
 40
0.0
  9
$DIMTOL
 70
     0
  9
$DIMLIM
 70
     0
  9
$DIMTIH
 70
     0
  9
$DIMTOH
 70
     0
  9
$DIMSE1
 70
     0
  9
$DIMSE2
 70
     0
  9
$DIMTAD
 70
     1
  9
$DIMZIN
 70
     8
  9
$DIMBLK
  1

  9
$DIMASO
 70
     1
  9
$DIMSHO
 70
     1
  9
$DIMPOST
  1
(<>)
  9
$DIMAPOST
  1

  9
$DIMALT
 70
     0
  9
$DIMALTD
 70
     2
  9
$DIMALTF
 40
0.039
  9
$DIMLFAC
 40
1.0
  9
$DIMTOFL
 70
     1
  9
$DIMTVP
 40
0.0
  9
$DIMTIX
 70
     0
  9
$DIMSOXD
 70
     0
  9
$DIMSAH
 70
     1
  9
$DIMBLK1
  1
OPEN
  9
$DIMBLK2
  1
OPEN
  9
$DIMSTYLE
  2
IGA
  9
$DIMCLRD
 70
     0
  9
$DIMCLRE
 70
     0
  9
$DIMCLRT
 70
     0
  9
$DIMTFAC
 40
10.0
  9
$DIMGAP
 40
1.0
  9
$DIMJUST
 70
     0
  9
$DIMSD1
 70
     0
  9
$DIMSD2
 70
     0
  9
$DIMTOLJ
 70
     1
  9
$DIMTZIN
 70
     8
  9
$DIMALTZ
 70
     0
  9
$DIMALTTZ
 70
     0
  9
$DIMUPT
 70
     0
  9
$DIMDEC
 70
     0
  9
$DIMTDEC
 70
     0
  9
$DIMALTU
 70
     2
  9
$DIMALTTD
 70
     2
  9
$DIMTXSTY
  7
STANDARD
  9
$DIMAUNIT
 70
     0
  9
$DIMADEC
 70
     0
  9
$DIMALTRND
 40
0.0
  9
$DIMAZIN
 70
     0
  9
$DIMDSEP
 70
    46
  9
$DIMATFIT
 70
     3
  9
$DIMFRAC
 70
     0
  9
$DIMLDRBLK
  1
OPEN
  9
$DIMLUNIT
 70
     2
  9
$DIMLWD
 70
    -2
  9
$DIMLWE
 70
    -2
  9
$DIMTMOVE
 70
     2
  9
$DIMFXL
 40
1.0
  9
$DIMFXLON
 70
     0
  9
$DIMJOGANG
 40
0.7853981633974483
  9
$DIMTFILL
 70
     0
  9
$DIMTFILLCLR
 70
     0
  9
$DIMARCSYM
 70
     0
  9
$DIMLTYPE
  6

  9
$DIMLTEX1
  6

  9
$DIMLTEX2
  6

  9
$DIMTXTDIRECTION
 70
     0
  9
$LUNITS
 70
     2
  9
$LUPREC
 70
     3
  9
$SKETCHINC
 40
0.1
  9
$FILLETRAD
 40
50.0
  9
$AUNITS
 70
     0
  9
$AUPREC
 70
     0
  9
$MENU
  1
acad
  9
$ELEVATION
 40
0.0
  9
$PELEVATION
 40
0.0
  9
$THICKNESS
 40
0.0
  9
$LIMCHECK
 70
     0
  9
$CHAMFERA
 40
0.5
  9
$CHAMFERB
 40
0.5
  9
$CHAMFERC
 40
20.0
  9
$CHAMFERD
 40
0.0
  9
$SKPOLY
 70
     0
  9
$TDCREATE
 40
2451381.500023148
  9
$TDUCREATE
 40
2451381.125032986
  9
$TDUPDATE
 40
2460217.572395833
  9
$TDUUPDATE
 40
2460217.197400301
  9
$TDINDWG
 40
0.0891370486
  9
$TDUSRTIMER
 40
0.0891370486
  9
$USRTIMER
 70
     1
  9
$ANGBASE
 50
0.0
  9
$ANGDIR
 70
     0
  9
$PDMODE
 70
     0
  9
$PDSIZE
 40
0.0
  9
$PLINEWID
 40
0.0
  9
$SPLFRAME
 70
     0
  9
$SPLINETYPE
 70
     6
  9
$SPLINESEGS
 70
     8
  9
$HANDSEED
  5
8114
  9
$SURFTAB1
 70
     6
  9
$SURFTAB2
 70
     6
  9
$SURFTYPE
 70
     6
  9
$SURFU
 70
     6
  9
$SURFV
 70
     6
  9
$UCSBASE
  2

  9
$UCSNAME
  2

  9
$UCSORG
 10
0.0
 20
0.0
 30
0.0
  9
$UCSXDIR
 10
1.0
 20
0.0
 30
0.0
  9
$UCSYDIR
 10
0.0
 20
1.0
 30
0.0
  9
$UCSORTHOREF
  2

  9
$UCSORTHOVIEW
 70
     0
  9
$UCSORGTOP
 10
0.0
 20
0.0
 30
0.0
  9
$UCSORGBOTTOM
 10
0.0
 20
0.0
 30
0.0
  9
$UCSORGLEFT
 10
0.0
 20
0.0
 30
0.0
  9
$UCSORGRIGHT
 10
0.0
 20
0.0
 30
0.0
  9
$UCSORGFRONT
 10
0.0
 20
0.0
 30
0.0
  9
$UCSORGBACK
 10
0.0
 20
0.0
 30
0.0
  9
$PUCSBASE
  2

  9
$PUCSNAME
  2

  9
$PUCSORG
 10
0.0
 20
0.0
 30
0.0
  9
$PUCSXDIR
 10
1.0
 20
0.0
 30
0.0
  9
$PUCSYDIR
 10
0.0
 20
1.0
 30
0.0
  9
$PUCSORTHOREF
  2

  9
$PUCSORTHOVIEW
 70
     0
  9
$PUCSORGTOP
 10
0.0
 20
0.0
 30
0.0
  9
$PUCSORGBOTTOM
 10
0.0
 20
0.0
 30
0.0
  9
$PUCSORGLEFT
 10
0.0
 20
0.0
 30
0.0
  9
$PUCSORGRIGHT
 10
0.0
 20
0.0
 30
0.0
  9
$PUCSORGFRONT
 10
0.0
 20
0.0
 30
0.0
  9
$PUCSORGBACK
 10
0.0
 20
0.0
 30
0.0
  9
$USERI1
 70
     0
  9
$USERI2
 70
     0
  9
$USERI3
 70
     0
  9
$USERI4
 70
     0
  9
$USERI5
 70
     0
  9
$USERR1
 40
0.0
  9
$USERR2
 40
0.0
  9
$USERR3
 40
0.0
  9
$USERR4
 40
0.0
  9
$USERR5
 40
0.0
  9
$WORLDVIEW
 70
     1
  9
$SHADEDGE
 70
     3
  9
$SHADEDIF
 70
    70
  9
$TILEMODE
 70
     1
  9
$MAXACTVP
 70
    16
  9
$PINSBASE
 10
0.0
 20
0.0
 30
0.0
  9
$PLIMCHECK
 70
     0
  9
$PEXTMIN
 10
1.000000000000000E+20
 20
1.000000000000000E+20
 30
1.000000000000000E+20
  9
$PEXTMAX
 10
-1.000000000000000E+20
 20
-1.000000000000000E+20
 30
-1.000000000000000E+20
  9
$PLIMMIN
 10
0.0
 20
0.0
  9
$PLIMMAX
 10
12.0
 20
9.0
  9
$UNITMODE
 70
     0
  9
$VISRETAIN
 70
     0
  9
$PLINEGEN
 70
     0
  9
$PSLTSCALE
 70
     1
  9
$TREEDEPTH
 70
  3020
  9
$CMLSTYLE
  2
STANDARD
  9
$CMLJUST
 70
     0
  9
$CMLSCALE
 40
20.0
  9
$PROXYGRAPHICS
 70
     1
  9
$MEASUREMENT
 70
     1
  9
$CELWEIGHT
370
    -1
  9
$ENDCAPS
280
     0
  9
$JOINSTYLE
280
     0
  9
$LWDISPLAY
290
     0
  9
$INSUNITS
 70
     0
  9
$HYPERLINKBASE
  1

  9
$STYLESHEET
  1

  9
$XEDIT
290
     1
  9
$CEPSNTYPE
380
     0
  9
$PSTYLEMODE
290
     1
  9
$FINGERPRINTGUID
  2
{0AF4D0BB-30BB-448B-A591-1DEC581E2619}
  9
$VERSIONGUID
  2
{3EAAC65C-0A1C-407C-A4AA-6A39C54D6605}
  9
$EXTNAMES
290
     1
  9
$PSVPSCALE
 40
0.0
  9
$OLESTARTUP
290
     0
  9
$SORTENTS
280
   127
  9
$INDEXCTL
280
     0
  9
$HIDETEXT
280
     0
  9
$XCLIPFRAME
280
     2
  9
$HALOGAP
280
     0
  9
$OBSCOLOR
 70
   257
  9
$OBSLTYPE
280
     0
  9
$INTERSECTIONDISPLAY
280
     0
  9
$INTERSECTIONCOLOR
 70
   257
  9
$DIMASSOC
280
     1
  9
$PROJECTNAME
  1

  9
$CAMERADISPLAY
290
     0
  9
$LENSLENGTH
 40
50.0
  9
$CAMERAHEIGHT
 40
0.0
  9
$STEPSPERSEC
 40
2.0
  9
$STEPSIZE
 40
6.0
  9
$3DDWFPREC
 40
2.0
  9
$PSOLWIDTH
 40
0.25
  9
$PSOLHEIGHT
 40
4.0
  9
$LOFTANG1
 40
1.570796326794896
  9
$LOFTANG2
 40
1.570796326794896
  9
$LOFTMAG1
 40
0.0
  9
$LOFTMAG2
 40
0.0
  9
$LOFTPARAM
 70
     7
  9
$LOFTNORMALS
280
     1
  9
$LATITUDE
 40
37.795
  9
$LONGITUDE
 40
-122.394
  9
$NORTHDIRECTION
 40
0.0
  9
$TIMEZONE
 70
 -8000
  9
$LIGHTGLYPHDISPLAY
280
     1
  9
$TILEMODELIGHTSYNCH
280
     1
  9
$CMATERIAL
347
8055
  9
$SOLIDHIST
280
     0
  9
$SHOWHIST
280
     1
  9
$DWFFRAME
280
     2
  9
$DGNFRAME
280
     0
  9
$REALWORLDSCALE
290
     1
  9
$INTERFERECOLOR
 62
     1
  9
$INTERFEREOBJVS
345
8077
  9
$INTERFEREVPVS
346
8074
  9
$CSHADOW
280
     0
  9
$SHADOWPLANELOCATION
 40
0.0
  0
ENDSEC
  0
SECTION
  2
CLASSES
  0
CLASS
  1
ACDBDICTIONARYWDFLT
  2
AcDbDictionaryWithDefault
  3
ObjectDBX Classes
 90
        0
 91
        1
280
     0
281
     0
  0
CLASS
  1
MATERIAL
  2
AcDbMaterial
  3
ObjectDBX Classes
 90
     1153
 91
        3
280
     0
281
     0
  0
CLASS
  1
VISUALSTYLE
  2
AcDbVisualStyle
  3
ObjectDBX Classes
 90
     4095
 91
       24
280
     0
281
     0
  0
CLASS
  1
TABLESTYLE
  2
AcDbTableStyle
  3
ObjectDBX Classes
 90
     4095
 91
        1
280
     0
281
     0
  0
CLASS
  1
SCALE
  2
AcDbScale
  3
ObjectDBX Classes
 90
     1153
 91
       17
280
     0
281
     0
  0
CLASS
  1
MLEADERSTYLE
  2
AcDbMLeaderStyle
  3
ACDB_MLEADERSTYLE_CLASS
 90
     4095
 91
        1
280
     0
281
     0
  0
CLASS
  1
ACDBSECTIONVIEWSTYLE
  2
AcDbSectionViewStyle
  3
ObjectDBX Classes
 90
     1025
 91
        1
280
     0
281
     0
  0
CLASS
  1
ACDBDETAILVIEWSTYLE
  2
AcDbDetailViewStyle
  3
ObjectDBX Classes
 90
     1025
 91
        1
280
     0
281
     0
  0
CLASS
  1
DICTIONARYVAR
  2
AcDbDictionaryVar
  3
ObjectDBX Classes
 90
        0
 91
       10
280
     0
281
     0
  0
CLASS
  1
CELLSTYLEMAP
  2
AcDbCellStyleMap
  3
ObjectDBX Classes
 90
     1152
 91
        1
280
     0
281
     0
  0
ENDSEC
  0
SECTION
  2
TABLES
  0
TABLE
  2
VPORT
  5
8
330
0
100
AcDbSymbolTable
 70
     1
1001
ACAD
1000
DbSaveVer
1071
      278
  0
VPORT
  5
8052
330
8
100
AcDbSymbolTableRecord
100
AcDbViewportTableRecord
  2
*Active
 70
     0
 10
0.0
 20
0.0
 11
1.0
 21
1.0
 12
3367.641899159945
 22
3687.500017171259
 13
0.0
 23
0.0
 14
10.0
 24
10.0
 15
10.0
 25
10.0
 16
0.0
 26
0.0
 36
1.0
 17
0.0
 27
0.0
 37
0.0
 40
7422.678203440799
 41
2.250314465408805
 42
50.0
 43
0.0
 44
0.0
 50
0.0
 51
0.0
 71
     0
 72
   100
 73
     1
 74
     0
 75
     0
 76
     0
 77
     0
 78
     0
281
     0
 65
     1
110
0.0
120
0.0
130
0.0
111
1.0
121
0.0
131
0.0
112
0.0
122
1.0
132
0.0
 79
     0
146
0.0
348
8073
 60
     3
 61
     5
292
     1
282
     1
141
0.0
142
0.0
 63
   250
421
  3355443
1001
ACAD_NAV_VCDISPLAY
1070
     3
  0
ENDTAB
  0
TABLE
  2
LTYPE
  5
5
330
0
100
AcDbSymbolTable
 70
     2
  0
LTYPE
  5
13
330
5
100
AcDbSymbolTableRecord
100
AcDbLinetypeTableRecord
  2
BYBLOCK
 70
     0
  3

 72
    65
 73
     0
 40
0.0
  0
LTYPE
  5
14
330
5
100
AcDbSymbolTableRecord
100
AcDbLinetypeTableRecord
  2
BYLAYER
 70
     0
  3

 72
    65
 73
     0
 40
0.0
  0
LTYPE
  5
15
330
5
100
AcDbSymbolTableRecord
100
AcDbLinetypeTableRecord
  2
CONTINUOUS
 70
     0
  3
Solid line
 72
    65
 73
     0
 40
0.0
  0
LTYPE
  5
1F
330
5
100
AcDbSymbolTableRecord
100
AcDbLinetypeTableRecord
  2
CENTER
 70
     0
  3
____ _ ____ _ ____ _ ____ _ ____ _ ____ _ ____ 
 72
    65
 73
     4
 40
2.0
 49
1.25
 74
     0
 49
-0.25
 74
     0
 49
0.25
 74
     0
 49
-0.25
 74
     0
  0
ENDTAB
  0
TABLE
  2
LAYER
  5
2
102
{ACAD_XDICTIONARY
360
80EA
102
}
330
0
100
AcDbSymbolTable
 70
     6
  0
LAYER
  5
F
102
{ACAD_XDICTIONARY
360
80DD
102
}
330
2
100
AcDbSymbolTableRecord
100
AcDbLayerTableRecord
  2
0
 70
     0
 62
     7
  6
CONTINUOUS
370
    -3
390
7FF7
347
8065
348
0
  0
LAYER
  5
31
102
{ACAD_XDICTIONARY
360
80DF
102
}
330
2
100
AcDbSymbolTableRecord
100
AcDbLayerTableRecord
  2
3
 70
     0
 62
     2
  6
CONTINUOUS
370
    -3
390
7FF7
347
8065
348
0
  0
LAYER
  5
76D0
102
{ACAD_XDICTIONARY
360
80E1
102
}
330
2
100
AcDbSymbolTableRecord
100
AcDbLayerTableRecord
  2
2
 70
     0
 62
     3
  6
CENTER
370
    -3
390
7FF7
347
8065
348
0
  0
LAYER
  5
76D1
102
{ACAD_XDICTIONARY
360
80E3
102
}
330
2
100
AcDbSymbolTableRecord
100
AcDbLayerTableRecord
  2
1
 70
     0
 62
     4
  6
CONTINUOUS
370
    -3
390
7FF7
347
8065
348
0
  0
LAYER
  5
76D2
102
{ACAD_XDICTIONARY
360
80E5
102
}
330
2
100
AcDbSymbolTableRecord
100
AcDbLayerTableRecord
  2
4
 70
     0
 62
     7
  6
CONTINUOUS
370
    -3
390
7FF7
347
8065
348
0
  0
LAYER
  5
7B3A
330
2
100
AcDbSymbolTableRecord
100
AcDbLayerTableRecord
  2
DEFPOINTS
 70
     0
 62
     7
  6
CONTINUOUS
290
     0
370
    -3
390
7FF7
347
8065
348
0
  0
ENDTAB
  0
TABLE
  2
STYLE
  5
3
330
0
100
AcDbSymbolTable
 70
     1
  0
STYLE
  5
10
330
3
100
AcDbSymbolTableRecord
100
AcDbTextStyleTableRecord
  2
STANDARD
 70
     0
 40
0.0
 41
1.0
 50
0.0
 71
     0
 42
180.0
  3
simplex.shx
  4
extfont.shx
  0
ENDTAB
  0
TABLE
  2
VIEW
  5
6
330
0
100
AcDbSymbolTable
 70
     0
  0
ENDTAB
  0
TABLE
  2
UCS
  5
7
330
0
100
AcDbSymbolTable
 70
     0
  0
ENDTAB
  0
TABLE
  2
APPID
  5
9
330
0
100
AcDbSymbolTable
 70
     4
  0
APPID
  5
11
330
9
100
AcDbSymbolTableRecord
100
AcDbRegAppTableRecord
  2
ACAD
 70
     0
  0
APPID
  5
80A4
330
9
100
AcDbSymbolTableRecord
100
AcDbRegAppTableRecord
  2
AcadAnnoMonitorAlertIconDisabled
 70
     0
  0
APPID
  5
80A5
330
9
100
AcDbSymbolTableRecord
100
AcDbRegAppTableRecord
  2
ACAD_EXEMPT_FROM_CAD_STANDARDS
 70
     0
  0
APPID
  5
80F0
330
9
100
AcDbSymbolTableRecord
100
AcDbRegAppTableRecord
  2
ACAD_NAV_VCDISPLAY
 70
     0
  0
ENDTAB
  0
TABLE
  2
DIMSTYLE
  5
A
330
0
100
AcDbSymbolTable
 70
     2
100
AcDbDimStyleTable
 71
     1
340
1D
  0
DIMSTYLE
105
1D
102
{ACAD_REACTORS
330
7CBF
330
7FE2
330
7FEF
102
}
330
A
100
AcDbSymbolTableRecord
100
AcDbDimStyleTableRecord
  2
IGA
 70
     0
 40
2.0
 41
2.0
 42
0.5
 43
10.0
 44
1.0
 47
1.0
 48
1.0
 73
     0
 74
     0
 77
     1
 78
     8
140
3.0
141
0.0
143
0.03937
146
10.0
147
1.0
173
     1
271
     1
272
     0
279
     2
284
     8
340
10
341
79FC
343
79FC
344
79FC
  0
DIMSTYLE
105
7B3C
102
{ACAD_REACTORS
330
7C74
330
7C75
330
7C76
330
7C7C
330
7C7D
330
7C91
330
7CA6
330
7CB0
330
7CB1
330
7CB2
330
7CB3
330
7CB4
330
7CB5
330
7CC0
330
7CC1
330
7CE6
330
7CE8
330
7CE9
330
7CF6
102
}
330
A
100
AcDbSymbolTableRecord
100
AcDbDimStyleTableRecord
  2
MATSU
 70
     0
 41
2.0
 42
1.0
 43
10.0
 44
1.0
 73
     0
 74
     0
 77
     1
 78
     8
140
3.0
141
0.0
143
0.03937
147
0.5
172
     1
173
     1
176
   256
177
   256
178
   256
284
     8
289
     0
340
10
341
79FC
343
79FC
344
79FC
  0
ENDTAB
  0
TABLE
  2
BLOCK_RECORD
  5
1
330
0
100
AcDbSymbolTable
 70
    26
  0
BLOCK_RECORD
  5
19
102
{ACAD_XDICTIONARY
360
8025
102
}
330
1
100
AcDbSymbolTableRecord
100
AcDbBlockTableRecord
  2
*MODEL_SPACE
340
7FFA
 70
     0
280
     1
281
     0
  0
BLOCK_RECORD
  5
16
102
{ACAD_XDICTIONARY
360
8023
102
}
330
1
100
AcDbSymbolTableRecord
100
AcDbBlockTableRecord
  2
*PAPER_SPACE
340
7FFB
 70
     0
280
     1
281
     0
  0
BLOCK_RECORD
  5
79FC
330
1
100
AcDbSymbolTableRecord
100
AcDbBlockTableRecord
  2
_OPEN
340
0
102
{BLKREFS
331
7FE8
331
7FE9
331
8033
331
803A
331
803B
331
7EB8
331
7F11
331
7F12
331
7F1C
331
7F1D
331
7E1D
331
7E1E
331
7E28
331
7E29
331
7E33
331
7E34
331
7E3E
331
7E3F
331
7E49
331
7E4A
331
7E5F
331
7E60
331
7E75
331
7E76
331
7E80
331
7E81
331
7E8B
331
7E8C
331
7E96
331
7E97
331
7EA1
331
7EA2
331
7EAC
331
7EAD
331
7EB7
331
8042
331
8043
331
80CE
331
80CF
331
80D7
331
80D8
102
}
 70
     0
280
     1
281
     0
  0
BLOCK_RECORD
  5
7A0A
330
1
100
AcDbSymbolTableRecord
100
AcDbBlockTableRecord
  2
YA_N
340
0
102
{BLKREFS
331
7C1D
331
7C3C
102
}
 70
     0
280
     1
281
     0
  0
BLOCK_RECORD
  5
7CF7
330
1
100
AcDbSymbolTableRecord
100
AcDbBlockTableRecord
  2
*D2
340
0
 70
     0
280
     1
281
     0
  0
BLOCK_RECORD
  5
7D03
330
1
100
AcDbSymbolTableRecord
100
AcDbBlockTableRecord
  2
*D3
340
0
 70
     0
280
     1
281
     0
  0
BLOCK_RECORD
  5
7D0F
330
1
100
AcDbSymbolTableRecord
100
AcDbBlockTableRecord
  2
*D4
340
0
 70
     0
280
     1
281
     0
  0
BLOCK_RECORD
  5
7D1B
330
1
100
AcDbSymbolTableRecord
100
AcDbBlockTableRecord
  2
*D5
340
0
 70
     0
280
     1
281
     0
  0
BLOCK_RECORD
  5
7D27
330
1
100
AcDbSymbolTableRecord
100
AcDbBlockTableRecord
  2
*D6
340
0
 70
     0
280
     1
281
     0
  0
BLOCK_RECORD
  5
7D3F
330
1
100
AcDbSymbolTableRecord
100
AcDbBlockTableRecord
  2
*D7
340
0
 70
     0
280
     1
281
     0
  0
BLOCK_RECORD
  5
7D57
330
1
100
AcDbSymbolTableRecord
100
AcDbBlockTableRecord
  2
*D8
340
0
 70
     0
280
     1
281
     0
  0
BLOCK_RECORD
  5
7D63
330
1
100
AcDbSymbolTableRecord
100
AcDbBlockTableRecord
  2
*D9
340
0
 70
     0
280
     1
281
     0
  0
BLOCK_RECORD
  5
7D6F
330
1
100
AcDbSymbolTableRecord
100
AcDbBlockTableRecord
  2
*D10
340
0
 70
     0
280
     1
281
     0
  0
BLOCK_RECORD
  5
7D7B
330
1
100
AcDbSymbolTableRecord
100
AcDbBlockTableRecord
  2
*D11
340
0
 70
     0
280
     1
281
     0
  0
BLOCK_RECORD
  5
7D87
330
1
100
AcDbSymbolTableRecord
100
AcDbBlockTableRecord
  2
*D12
340
0
 70
     0
280
     1
281
     0
  0
BLOCK_RECORD
  5
7D93
330
1
100
AcDbSymbolTableRecord
100
AcDbBlockTableRecord
  2
*D13
340
0
 70
     0
280
     1
281
     0
  0
BLOCK_RECORD
  5
7D9F
330
1
100
AcDbSymbolTableRecord
100
AcDbBlockTableRecord
  2
*D14
340
0
 70
     0
280
     1
281
     0
  0
BLOCK_RECORD
  5
7DB9
330
1
100
AcDbSymbolTableRecord
100
AcDbBlockTableRecord
  2
*D15
340
0
 70
     0
280
     1
281
     0
  0
BLOCK_RECORD
  5
7DC7
330
1
100
AcDbSymbolTableRecord
100
AcDbBlockTableRecord
  2
*D16
340
0
 70
     0
280
     1
281
     0
  0
BLOCK_RECORD
  5
7DD3
330
1
100
AcDbSymbolTableRecord
100
AcDbBlockTableRecord
  2
*D17
340
0
 70
     0
280
     1
281
     0
  0
BLOCK_RECORD
  5
7DDF
330
1
100
AcDbSymbolTableRecord
100
AcDbBlockTableRecord
  2
*D18
340
0
 70
     0
280
     1
281
     0
  0
BLOCK_RECORD
  5
7DF6
330
1
100
AcDbSymbolTableRecord
100
AcDbBlockTableRecord
  2
*D19
340
0
 70
     0
280
     1
281
     0
  0
BLOCK_RECORD
  5
7E01
330
1
100
AcDbSymbolTableRecord
100
AcDbBlockTableRecord
  2
*D20
340
0
 70
     0
280
     1
281
     0
  0
BLOCK_RECORD
  5
7E0D
330
1
100
AcDbSymbolTableRecord
100
AcDbBlockTableRecord
  2
*D21
340
0
 70
     0
280
     1
281
     0
  0
BLOCK_RECORD
  5
7F7D
330
1
100
AcDbSymbolTableRecord
100
AcDbBlockTableRecord
  2
_DOT
340
0
102
{BLKREFS
331
8032
102
}
 70
     0
280
     1
281
     0
  0
BLOCK_RECORD
  5
7FD4
330
1
100
AcDbSymbolTableRecord
100
AcDbBlockTableRecord
  2
_NONE
340
0
 70
     0
280
     1
281
     0
  0
BLOCK_RECORD
  5
7FD8
330
1
100
AcDbSymbolTableRecord
100
AcDbBlockTableRecord
  2
*D24
340
0
 70
     0
280
     1
281
     0
  0
BLOCK_RECORD
  5
7FE3
330
1
100
AcDbSymbolTableRecord
100
AcDbBlockTableRecord
  2
*D25
340
0
 70
     0
280
     1
281
     0
  0
ENDTAB
  0
ENDSEC
  0
SECTION
  2
BLOCKS
  0
BLOCK
  5
1A
330
19
100
AcDbEntity
  8
0
100
AcDbBlockBegin
  2
*MODEL_SPACE
 70
     0
 10
0.0
 20
0.0
 30
0.0
  3
*MODEL_SPACE
  1

  0
ENDBLK
  5
1B
330
19
100
AcDbEntity
  8
0
100
AcDbBlockEnd
  0
BLOCK
  5
17
330
16
100
AcDbEntity
 67
     1
  8
0
100
AcDbBlockBegin
  2
*PAPER_SPACE
 70
     0
 10
0.0
 20
0.0
 30
0.0
  3
*PAPER_SPACE
  1

  0
ENDBLK
  5
18
330
16
100
AcDbEntity
 67
     1
  8
0
100
AcDbBlockEnd
  0
BLOCK
  5
7A00
330
79FC
100
AcDbEntity
  8
0
100
AcDbBlockBegin
  2
_OPEN
 70
     0
 10
0.0
 20
0.0
 30
0.0
  3
_OPEN
  1

  0
LINE
  5
79FD
330
79FC
100
AcDbEntity
  8
0
  6
ByBlock
 62
     0
100
AcDbLine
 10
-1.0
 20
0.1666666666666666
 30
0.0
 11
0.0
 21
0.0
 31
0.0
  0
LINE
  5
79FE
330
79FC
100
AcDbEntity
  8
0
  6
ByBlock
 62
     0
100
AcDbLine
 10
0.0
 20
0.0
 30
0.0
 11
-1.0
 21
-0.1666666666666666
 31
0.0
  0
LINE
  5
79FF
330
79FC
100
AcDbEntity
  8
0
  6
ByBlock
 62
     0
100
AcDbLine
 10
0.0
 20
0.0
 30
0.0
 11
-1.0
 21
0.0
 31
0.0
  0
ENDBLK
  5
7A01
330
79FC
100
AcDbEntity
  8
0
100
AcDbBlockEnd
  0
BLOCK
  5
7A0B
330
7A0A
100
AcDbEntity
  8
0
100
AcDbBlockBegin
  2
YA_N
 70
     0
 10
0.0
 20
0.0
 30
0.0
  3
YA_N
  1

  0
ENDBLK
  5
7A0C
330
7A0A
100
AcDbEntity
  8
0
100
AcDbBlockEnd
  0
BLOCK
  5
7E19
330
7CF7
100
AcDbEntity
  8
0
100
AcDbBlockBegin
  2
*D2
 70
     1
 10
0.0
 20
0.0
 30
0.0
  3
*D2
  1

  0
LINE
  5
7E1A
330
7CF7
100
AcDbEntity
  8
0
  6
ByBlock
440
 16777216
100
AcDbLine
 10
133.4473351636761
 20
-181.9023735498794
 30
0.0
 11
133.4473351636761
 21
-334.4341727526062
 31
0.0
  0
LINE
  5
7E1B
330
7CF7
100
AcDbEntity
  8
0
  6
ByBlock
440
 16777216
100
AcDbLine
 10
-266.5526648363238
 20
-181.9023735498794
 30
0.0
 11
-266.5526648363238
 21
-334.4341727526062
 31
0.0
  0
LINE
  5
7E1C
330
7CF7
100
AcDbEntity
  8
0
  6
ByBlock
440
 16777216
100
AcDbLine
 10
83.44733516367615
 20
-309.4341727526062
 30
0.0
 11
-216.5526648363238
 21
-309.4341727526062
 31
0.0
  0
INSERT
  5
7E1D
330
7CF7
100
AcDbEntity
  8
0
  6
ByBlock
440
 16777216
100
AcDbBlockReference
  2
_OPEN
 10
133.4473351636761
 20
-309.4341727526062
 30
0.0
 41
50.0
 42
50.0
 43
50.0
  0
INSERT
  5
7E1E
330
7CF7
100
AcDbEntity
  8
0
  6
ByBlock
440
 16777216
100
AcDbBlockReference
  2
_OPEN
 10
-266.5526648363238
 20
-309.4341727526062
 30
0.0
 41
50.0
 42
50.0
 43
50.0
 50
180.0
  0
MTEXT
  5
7E1F
330
7CF7
100
AcDbEntity
  8
0
  6
ByBlock
440
 16777216
100
AcDbMText
 10
-66.55266483632385
 20
-259.4341727526062
 30
0.0
 40
75.0
 41
0.0
 46
0.0
 71
     5
 72
     5
  1
\A1;400
 73
     1
 44
1.0
  0
POINT
  5
7E20
330
7CF7
100
AcDbEntity
  8
DEFPOINTS
  6
ByBlock
 62
     0
440
 16777216
100
AcDbPoint
 10
133.4473351636761
 20
-156.9023735498794
 30
0.0
  0
POINT
  5
7E21
330
7CF7
100
AcDbEntity
  8
DEFPOINTS
  6
ByBlock
 62
     0
440
 16777216
100
AcDbPoint
 10
-266.5526648363238
 20
-156.9023735498794
 30
0.0
  0
POINT
  5
7E22
330
7CF7
100
AcDbEntity
  8
DEFPOINTS
  6
ByBlock
 62
     0
440
 16777216
100
AcDbPoint
 10
-266.5526648363238
 20
-309.4341727526062
 30
0.0
  0
ENDBLK
  5
7E23
330
7CF7
100
AcDbEntity
  8
0
100
AcDbBlockEnd
  0
BLOCK
  5
7E24
330
7D03
100
AcDbEntity
  8
0
100
AcDbBlockBegin
  2
*D3
 70
     1
 10
0.0
 20
0.0
 30
0.0
  3
*D3
  1

  0
LINE
  5
7E25
330
7D03
100
AcDbEntity
  8
0
  6
ByBlock
440
 16777216
100
AcDbLine
 10
811.447335163676
 20
1053.09762645012
 30
0.0
 11
811.447335163676
 21
1203.05544836713
 31
0.0
  0
LINE
  5
7E26
330
7D03
100
AcDbEntity
  8
0
  6
ByBlock
440
 16777216
100
AcDbLine
 10
161.4473351636761
 20
1053.09762645012
 30
0.0
 11
161.4473351636761
 21
1203.05544836713
 31
0.0
  0
LINE
  5
7E27
330
7D03
100
AcDbEntity
  8
0
  6
ByBlock
440
 16777216
100
AcDbLine
 10
761.4473351636761
 20
1178.05544836713
 30
0.0
 11
211.4473351636761
 21
1178.05544836713
 31
0.0
  0
INSERT
  5
7E28
330
7D03
100
AcDbEntity
  8
0
  6
ByBlock
440
 16777216
100
AcDbBlockReference
  2
_OPEN
 10
811.447335163676
 20
1178.05544836713
 30
0.0
 41
50.0
 42
50.0
 43
50.0
  0
INSERT
  5
7E29
330
7D03
100
AcDbEntity
  8
0
  6
ByBlock
440
 16777216
100
AcDbBlockReference
  2
_OPEN
 10
161.4473351636761
 20
1178.05544836713
 30
0.0
 41
50.0
 42
50.0
 43
50.0
 50
180.0
  0
MTEXT
  5
7E2A
330
7D03
100
AcDbEntity
  8
0
  6
ByBlock
440
 16777216
100
AcDbMText
 10
486.4473351636761
 20
1228.05544836713
 30
0.0
 40
75.0
 41
0.0
 46
0.0
 71
     5
 72
     5
  1
\A1;650
 73
     1
 44
1.0
  0
POINT
  5
7E2B
330
7D03
100
AcDbEntity
  8
DEFPOINTS
  6
ByBlock
 62
     0
440
 16777216
100
AcDbPoint
 10
811.447335163676
 20
1028.09762645012
 30
0.0
  0
POINT
  5
7E2C
330
7D03
100
AcDbEntity
  8
DEFPOINTS
  6
ByBlock
 62
     0
440
 16777216
100
AcDbPoint
 10
161.4473351636761
 20
1028.09762645012
 30
0.0
  0
POINT
  5
7E2D
330
7D03
100
AcDbEntity
  8
DEFPOINTS
  6
ByBlock
 62
     0
440
 16777216
100
AcDbPoint
 10
161.4473351636761
 20
1178.05544836713
 30
0.0
  0
ENDBLK
  5
7E2E
330
7D03
100
AcDbEntity
  8
0
100
AcDbBlockEnd
  0
BLOCK
  5
7E2F
330
7D0F
100
AcDbEntity
  8
0
100
AcDbBlockBegin
  2
*D4
 70
     1
 10
0.0
 20
0.0
 30
0.0
  3
*D4
  1

  0
LINE
  5
7E30
330
7D0F
100
AcDbEntity
  8
0
  6
ByBlock
440
 16777216
100
AcDbLine
 10
811.447335163676
 20
1053.09762645012
 30
0.0
 11
811.447335163676
 21
1352.599292570813
 31
0.0
  0
LINE
  5
7E31
330
7D0F
100
AcDbEntity
  8
0
  6
ByBlock
440
 16777216
100
AcDbLine
 10
133.4473351636761
 20
1099.990599553116
 30
0.0
 11
133.4473351636761
 21
1352.599292570813
 31
0.0
  0
LINE
  5
7E32
330
7D0F
100
AcDbEntity
  8
0
  6
ByBlock
440
 16777216
100
AcDbLine
 10
761.4473351636761
 20
1327.599292570813
 30
0.0
 11
183.4473351636761
 21
1327.599292570813
 31
0.0
  0
INSERT
  5
7E33
330
7D0F
100
AcDbEntity
  8
0
  6
ByBlock
440
 16777216
100
AcDbBlockReference
  2
_OPEN
 10
811.447335163676
 20
1327.599292570813
 30
0.0
 41
50.0
 42
50.0
 43
50.0
  0
INSERT
  5
7E34
330
7D0F
100
AcDbEntity
  8
0
  6
ByBlock
440
 16777216
100
AcDbBlockReference
  2
_OPEN
 10
133.4473351636761
 20
1327.599292570813
 30
0.0
 41
50.0
 42
50.0
 43
50.0
 50
180.0
  0
MTEXT
  5
7E35
330
7D0F
100
AcDbEntity
  8
0
  6
ByBlock
440
 16777216
100
AcDbMText
 10
472.4473351636761
 20
1377.599292570813
 30
0.0
 40
75.0
 41
0.0
 46
0.0
 71
     5
 72
     5
  1
\A1;678
 73
     1
 44
1.0
  0
POINT
  5
7E36
330
7D0F
100
AcDbEntity
  8
DEFPOINTS
  6
ByBlock
 62
     0
440
 16777216
100
AcDbPoint
 10
811.447335163676
 20
1028.09762645012
 30
0.0
  0
POINT
  5
7E37
330
7D0F
100
AcDbEntity
  8
DEFPOINTS
  6
ByBlock
 62
     0
440
 16777216
100
AcDbPoint
 10
133.4473351636761
 20
1074.990599553116
 30
0.0
  0
POINT
  5
7E38
330
7D0F
100
AcDbEntity
  8
DEFPOINTS
  6
ByBlock
 62
     0
440
 16777216
100
AcDbPoint
 10
133.4473351636761
 20
1327.599292570813
 30
0.0
  0
ENDBLK
  5
7E39
330
7D0F
100
AcDbEntity
  8
0
100
AcDbBlockEnd
  0
BLOCK
  5
7E3A
330
7D1B
100
AcDbEntity
  8
0
100
AcDbBlockBegin
  2
*D5
 70
     1
 10
0.0
 20
0.0
 30
0.0
  3
*D5
  1

  0
LINE
  5
7E3B
330
7D1B
100
AcDbEntity
  8
0
  6
ByBlock
440
 16777216
100
AcDbLine
 10
1985.296193483282
 20
-181.9023735498794
 30
0.0
 11
1985.296193483282
 21
-333.8887935258081
 31
0.0
  0
LINE
  5
7E3C
330
7D1B
100
AcDbEntity
  8
0
  6
ByBlock
440
 16777216
100
AcDbLine
 10
2567.296193483283
 20
-181.9023735498794
 30
0.0
 11
2567.296193483283
 21
-333.8887935258081
 31
0.0
  0
LINE
  5
7E3D
330
7D1B
100
AcDbEntity
  8
0
  6
ByBlock
440
 16777216
100
AcDbLine
 10
2035.296193483283
 20
-308.8887935258081
 30
0.0
 11
2517.296193483283
 21
-308.8887935258081
 31
0.0
  0
INSERT
  5
7E3E
330
7D1B
100
AcDbEntity
  8
0
  6
ByBlock
440
 16777216
100
AcDbBlockReference
  2
_OPEN
 10
1985.296193483282
 20
-308.8887935258081
 30
0.0
 41
50.0
 42
50.0
 43
50.0
 50
180.0
  0
INSERT
  5
7E3F
330
7D1B
100
AcDbEntity
  8
0
  6
ByBlock
440
 16777216
100
AcDbBlockReference
  2
_OPEN
 10
2567.296193483283
 20
-308.8887935258081
 30
0.0
 41
50.0
 42
50.0
 43
50.0
  0
MTEXT
  5
7E40
330
7D1B
100
AcDbEntity
  8
0
  6
ByBlock
440
 16777216
100
AcDbMText
 10
2276.296193483283
 20
-258.8887935258081
 30
0.0
 40
75.0
 41
0.0
 46
0.0
 71
     5
 72
     5
  1
\A1;582
 73
     1
 44
1.0
  0
POINT
  5
7E41
330
7D1B
100
AcDbEntity
  8
DEFPOINTS
  6
ByBlock
 62
     0
440
 16777216
100
AcDbPoint
 10
1985.296193483282
 20
-156.9023735498794
 30
0.0
  0
POINT
  5
7E42
330
7D1B
100
AcDbEntity
  8
DEFPOINTS
  6
ByBlock
 62
     0
440
 16777216
100
AcDbPoint
 10
2567.296193483283
 20
-156.9023735498794
 30
0.0
  0
POINT
  5
7E43
330
7D1B
100
AcDbEntity
  8
DEFPOINTS
  6
ByBlock
 62
     0
440
 16777216
100
AcDbPoint
 10
2567.296193483283
 20
-308.8887935258081
 30
0.0
  0
ENDBLK
  5
7E44
330
7D1B
100
AcDbEntity
  8
0
100
AcDbBlockEnd
  0
BLOCK
  5
7E45
330
7D27
100
AcDbEntity
  8
0
100
AcDbBlockBegin
  2
*D6
 70
     1
 10
0.0
 20
0.0
 30
0.0
  3
*D6
  1

  0
LINE
  5
7E46
330
7D27
100
AcDbEntity
  8
0
  6
ByBlock
440
 16777216
100
AcDbLine
 10
2567.296193483283
 20
-181.9023735498794
 30
0.0
 11
2567.296193483283
 21
-333.8887935258081
 31
0.0
  0
LINE
  5
7E47
330
7D27
100
AcDbEntity
  8
0
  6
ByBlock
440
 16777216
100
AcDbLine
 10
3045.296193483283
 20
-181.9023735498794
 30
0.0
 11
3045.296193483283
 21
-333.8887935258081
 31
0.0
  0
LINE
  5
7E48
330
7D27
100
AcDbEntity
  8
0
  6
ByBlock
440
 16777216
100
AcDbLine
 10
2617.296193483283
 20
-308.8887935258081
 30
0.0
 11
2995.296193483283
 21
-308.8887935258081
 31
0.0
  0
INSERT
  5
7E49
330
7D27
100
AcDbEntity
  8
0
  6
ByBlock
440
 16777216
100
AcDbBlockReference
  2
_OPEN
 10
2567.296193483283
 20
-308.8887935258081
 30
0.0
 41
50.0
 42
50.0
 43
50.0
 50
180.0
  0
INSERT
  5
7E4A
330
7D27
100
AcDbEntity
  8
0
  6
ByBlock
440
 16777216
100
AcDbBlockReference
  2
_OPEN
 10
3045.296193483283
 20
-308.8887935258081
 30
0.0
 41
50.0
 42
50.0
 43
50.0
  0
MTEXT
  5
7E4B
330
7D27
100
AcDbEntity
  8
0
  6
ByBlock
440
 16777216
100
AcDbMText
 10
2806.296193483283
 20
-258.8887935258081
 30
0.0
 40
75.0
 41
0.0
 46
0.0
 71
     5
 72
     5
  1
\A1;478
 73
     1
 44
1.0
  0
POINT
  5
7E4C
330
7D27
100
AcDbEntity
  8
DEFPOINTS
  6
ByBlock
 62
     0
440
 16777216
100
AcDbPoint
 10
2567.296193483283
 20
-156.9023735498794
 30
0.0
  0
POINT
  5
7E4D
330
7D27
100
AcDbEntity
  8
DEFPOINTS
  6
ByBlock
 62
     0
440
 16777216
100
AcDbPoint
 10
3045.296193483283
 20
-156.9023735498794
 30
0.0
  0
POINT
  5
7E4E
330
7D27
100
AcDbEntity
  8
DEFPOINTS
  6
ByBlock
 62
     0
440
 16777216
100
AcDbPoint
 10
3045.296193483283
 20
-308.8887935258081
 30
0.0
  0
ENDBLK
  5
7E4F
330
7D27
100
AcDbEntity
  8
0
100
AcDbBlockEnd
  0
BLOCK
  5
7E5B
330
7D3F
100
AcDbEntity
  8
0
100
AcDbBlockBegin
  2
*D7
 70
     1
 10
0.0
 20
0.0
 30
0.0
  3
*D7
  1

  0
LINE
  5
7E5C
330
7D3F
100
AcDbEntity
  8
0
  6
ByBlock
440
 16777216
100
AcDbLine
 10
1283.447335163676
 20
-181.9023735498794
 30
0.0
 11
1283.447335163676
 21
-334.9504822279541
 31
0.0
  0
LINE
  5
7E5D
330
7D3F
100
AcDbEntity
  8
0
  6
ByBlock
440
 16777216
100
AcDbLine
 10
133.4473351636761
 20
-181.9023735498794
 30
0.0
 11
133.4473351636761
 21
-334.9504822279541
 31
0.0
  0
LINE
  5
7E5E
330
7D3F
100
AcDbEntity
  8
0
  6
ByBlock
440
 16777216
100
AcDbLine
 10
1233.447335163676
 20
-309.9504822279541
 30
0.0
 11
183.4473351636761
 21
-309.9504822279541
 31
0.0
  0
INSERT
  5
7E5F
330
7D3F
100
AcDbEntity
  8
0
  6
ByBlock
440
 16777216
100
AcDbBlockReference
  2
_OPEN
 10
1283.447335163676
 20
-309.9504822279541
 30
0.0
 41
50.0
 42
50.0
 43
50.0
  0
INSERT
  5
7E60
330
7D3F
100
AcDbEntity
  8
0
  6
ByBlock
440
 16777216
100
AcDbBlockReference
  2
_OPEN
 10
133.4473351636761
 20
-309.9504822279541
 30
0.0
 41
50.0
 42
50.0
 43
50.0
 50
180.0
  0
MTEXT
  5
7E61
330
7D3F
100
AcDbEntity
  8
0
  6
ByBlock
440
 16777216
100
AcDbMText
 10
708.4473351636761
 20
-259.9504822279541
 30
0.0
 40
75.0
 41
0.0
 46
0.0
 71
     5
 72
     5
  1
\A1;1150
 73
     1
 44
1.0
  0
POINT
  5
7E62
330
7D3F
100
AcDbEntity
  8
DEFPOINTS
  6
ByBlock
 62
     0
440
 16777216
100
AcDbPoint
 10
1283.447335163676
 20
-156.9023735498794
 30
0.0
  0
POINT
  5
7E63
330
7D3F
100
AcDbEntity
  8
DEFPOINTS
  6
ByBlock
 62
     0
440
 16777216
100
AcDbPoint
 10
133.4473351636761
 20
-156.9023735498794
 30
0.0
  0
POINT
  5
7E64
330
7D3F
100
AcDbEntity
  8
DEFPOINTS
  6
ByBlock
 62
     0
440
 16777216
100
AcDbPoint
 10
133.4473351636761
 20
-309.9504822279541
 30
0.0
  0
ENDBLK
  5
7E65
330
7D3F
100
AcDbEntity
  8
0
100
AcDbBlockEnd
  0
BLOCK
  5
7E71
330
7D57
100
AcDbEntity
  8
0
100
AcDbBlockBegin
  2
*D8
 70
     1
 10
0.0
 20
0.0
 30
0.0
  3
*D8
  1

  0
LINE
  5
7E72
330
7D57
100
AcDbEntity
  8
0
  6
ByBlock
440
 16777216
100
AcDbLine
 10
2142.296193483282
 20
1053.09762645012
 30
0.0
 11
2142.296193483282
 21
1166.275246436373
 31
0.0
  0
LINE
  5
7E73
330
7D57
100
AcDbEntity
  8
0
  6
ByBlock
440
 16777216
100
AcDbLine
 10
2992.296193483283
 20
1053.09762645012
 30
0.0
 11
2992.296193483283
 21
1166.275246436373
 31
0.0
  0
LINE
  5
7E74
330
7D57
100
AcDbEntity
  8
0
  6
ByBlock
440
 16777216
100
AcDbLine
 10
2192.296193483282
 20
1141.275246436373
 30
0.0
 11
2942.296193483283
 21
1141.275246436373
 31
0.0
  0
INSERT
  5
7E75
330
7D57
100
AcDbEntity
  8
0
  6
ByBlock
440
 16777216
100
AcDbBlockReference
  2
_OPEN
 10
2142.296193483282
 20
1141.275246436373
 30
0.0
 41
50.0
 42
50.0
 43
50.0
 50
180.0
  0
INSERT
  5
7E76
330
7D57
100
AcDbEntity
  8
0
  6
ByBlock
440
 16777216
100
AcDbBlockReference
  2
_OPEN
 10
2992.296193483283
 20
1141.275246436373
 30
0.0
 41
50.0
 42
50.0
 43
50.0
  0
MTEXT
  5
7E77
330
7D57
100
AcDbEntity
  8
0
  6
ByBlock
440
 16777216
100
AcDbMText
 10
2567.296193483283
 20
1191.275246436373
 30
0.0
 40
75.0
 41
0.0
 46
0.0
 71
     5
 72
     5
  1
\A1;850
 73
     1
 44
1.0
  0
POINT
  5
7E78
330
7D57
100
AcDbEntity
  8
DEFPOINTS
  6
ByBlock
 62
     0
440
 16777216
100
AcDbPoint
 10
2142.296193483282
 20
1028.09762645012
 30
0.0
  0
POINT
  5
7E79
330
7D57
100
AcDbEntity
  8
DEFPOINTS
  6
ByBlock
 62
     0
440
 16777216
100
AcDbPoint
 10
2992.296193483283
 20
1028.09762645012
 30
0.0
  0
POINT
  5
7E7A
330
7D57
100
AcDbEntity
  8
DEFPOINTS
  6
ByBlock
 62
     0
440
 16777216
100
AcDbPoint
 10
2992.296193483283
 20
1141.275246436373
 30
0.0
  0
ENDBLK
  5
7E7B
330
7D57
100
AcDbEntity
  8
0
100
AcDbBlockEnd
  0
BLOCK
  5
7E7C
330
7D63
100
AcDbEntity
  8
0
100
AcDbBlockBegin
  2
*D9
 70
     1
 10
0.0
 20
0.0
 30
0.0
  3
*D9
  1

  0
LINE
  5
7E7D
330
7D63
100
AcDbEntity
  8
0
  6
ByBlock
440
 16777216
100
AcDbLine
 10
-291.5526648363238
 20
2129.414968530634
 30
0.0
 11
-590.1907481463858
 21
2129.414968530634
 31
0.0
  0
LINE
  5
7E7E
330
7D63
100
AcDbEntity
  8
0
  6
ByBlock
440
 16777216
100
AcDbLine
 10
-291.5526648363243
 20
3189.414968530635
 30
0.0
 11
-590.1907481463858
 21
3189.414968530635
 31
0.0
  0
LINE
  5
7E7F
330
7D63
100
AcDbEntity
  8
0
  6
ByBlock
440
 16777216
100
AcDbLine
 10
-565.1907481463858
 20
2179.414968530633
 30
0.0
 11
-565.1907481463858
 21
3139.414968530635
 31
0.0
  0
INSERT
  5
7E80
330
7D63
100
AcDbEntity
  8
0
  6
ByBlock
440
 16777216
100
AcDbBlockReference
  2
_OPEN
 10
-565.1907481463858
 20
2129.414968530634
 30
0.0
 41
50.0
 42
50.0
 43
50.0
 50
270.0
  0
INSERT
  5
7E81
330
7D63
100
AcDbEntity
  8
0
  6
ByBlock
440
 16777216
100
AcDbBlockReference
  2
_OPEN
 10
-565.1907481463858
 20
3189.414968530635
 30
0.0
 41
50.0
 42
50.0
 43
50.0
 50
90.0
  0
MTEXT
  5
7E82
330
7D63
100
AcDbEntity
  8
0
  6
ByBlock
440
 16777216
100
AcDbMText
 10
-615.1907481463858
 20
2659.414968530634
 30
0.0
 40
75.0
 41
0.0
 46
0.0
 71
     5
 72
     5
  1
\A1;1060
 11
0.0
 21
1.0
 31
0.0
 73
     1
 44
1.0
  0
POINT
  5
7E83
330
7D63
100
AcDbEntity
  8
DEFPOINTS
  6
ByBlock
 62
     0
440
 16777216
100
AcDbPoint
 10
-266.5526648363238
 20
2129.414968530634
 30
0.0
  0
POINT
  5
7E84
330
7D63
100
AcDbEntity
  8
DEFPOINTS
  6
ByBlock
 62
     0
440
 16777216
100
AcDbPoint
 10
-266.5526648363243
 20
3189.414968530635
 30
0.0
  0
POINT
  5
7E85
330
7D63
100
AcDbEntity
  8
DEFPOINTS
  6
ByBlock
 62
     0
440
 16777216
100
AcDbPoint
 10
-565.1907481463858
 20
3189.414968530635
 30
0.0
  0
ENDBLK
  5
7E86
330
7D63
100
AcDbEntity
  8
0
100
AcDbBlockEnd
  0
BLOCK
  5
7E87
330
7D6F
100
AcDbEntity
  8
0
100
AcDbBlockBegin
  2
*D10
 70
     1
 10
0.0
 20
0.0
 30
0.0
  3
*D10
  1

  0
LINE
  5
7E88
330
7D6F
100
AcDbEntity
  8
0
  6
ByBlock
440
 16777216
100
AcDbLine
 10
533.4473351636761
 20
3214.414968530635
 30
0.0
 11
533.4473351636761
 21
3345.608916875219
 31
0.0
  0
LINE
  5
7E89
330
7D6F
100
AcDbEntity
  8
0
  6
ByBlock
440
 16777216
100
AcDbLine
 10
-266.5526648363243
 20
3214.414968530635
 30
0.0
 11
-266.5526648363243
 21
3345.608916875219
 31
0.0
  0
LINE
  5
7E8A
330
7D6F
100
AcDbEntity
  8
0
  6
ByBlock
440
 16777216
100
AcDbLine
 10
483.4473351636761
 20
3320.608916875219
 30
0.0
 11
-216.5526648363243
 21
3320.608916875219
 31
0.0
  0
INSERT
  5
7E8B
330
7D6F
100
AcDbEntity
  8
0
  6
ByBlock
440
 16777216
100
AcDbBlockReference
  2
_OPEN
 10
533.4473351636761
 20
3320.608916875219
 30
0.0
 41
50.0
 42
50.0
 43
50.0
  0
INSERT
  5
7E8C
330
7D6F
100
AcDbEntity
  8
0
  6
ByBlock
440
 16777216
100
AcDbBlockReference
  2
_OPEN
 10
-266.5526648363243
 20
3320.608916875219
 30
0.0
 41
50.0
 42
50.0
 43
50.0
 50
180.0
  0
MTEXT
  5
7E8D
330
7D6F
100
AcDbEntity
  8
0
  6
ByBlock
440
 16777216
100
AcDbMText
 10
133.4473351636759
 20
3370.608916875219
 30
0.0
 40
75.0
 41
0.0
 46
0.0
 71
     5
 72
     5
  1
\A1;800
 73
     1
 44
1.0
  0
POINT
  5
7E8E
330
7D6F
100
AcDbEntity
  8
DEFPOINTS
  6
ByBlock
 62
     0
440
 16777216
100
AcDbPoint
 10
533.4473351636761
 20
3189.414968530634
 30
0.0
  0
POINT
  5
7E8F
330
7D6F
100
AcDbEntity
  8
DEFPOINTS
  6
ByBlock
 62
     0
440
 16777216
100
AcDbPoint
 10
-266.5526648363243
 20
3189.414968530635
 30
0.0
  0
POINT
  5
7E90
330
7D6F
100
AcDbEntity
  8
DEFPOINTS
  6
ByBlock
 62
     0
440
 16777216
100
AcDbPoint
 10
-266.5526648363243
 20
3320.608916875219
 30
0.0
  0
ENDBLK
  5
7E91
330
7D6F
100
AcDbEntity
  8
0
100
AcDbBlockEnd
  0
BLOCK
  5
7E92
330
7D7B
100
AcDbEntity
  8
0
100
AcDbBlockBegin
  2
*D11
 70
     1
 10
0.0
 20
0.0
 30
0.0
  3
*D11
  1

  0
LINE
  5
7E93
330
7D7B
100
AcDbEntity
  8
0
  6
ByBlock
440
 16777216
100
AcDbLine
 10
1308.447335163676
 20
2779.414968530633
 30
0.0
 11
1502.291693822137
 21
2779.414968530633
 31
0.0
  0
LINE
  5
7E94
330
7D7B
100
AcDbEntity
  8
0
  6
ByBlock
440
 16777216
100
AcDbLine
 10
1308.447335163676
 20
2129.414968530633
 30
0.0
 11
1502.291693822137
 21
2129.414968530633
 31
0.0
  0
LINE
  5
7E95
330
7D7B
100
AcDbEntity
  8
0
  6
ByBlock
440
 16777216
100
AcDbLine
 10
1477.291693822137
 20
2729.414968530633
 30
0.0
 11
1477.291693822137
 21
2179.414968530632
 31
0.0
  0
INSERT
  5
7E96
330
7D7B
100
AcDbEntity
  8
0
  6
ByBlock
440
 16777216
100
AcDbBlockReference
  2
_OPEN
 10
1477.291693822137
 20
2779.414968530633
 30
0.0
 41
50.0
 42
50.0
 43
50.0
 50
90.0
  0
INSERT
  5
7E97
330
7D7B
100
AcDbEntity
  8
0
  6
ByBlock
440
 16777216
100
AcDbBlockReference
  2
_OPEN
 10
1477.291693822137
 20
2129.414968530633
 30
0.0
 41
50.0
 42
50.0
 43
50.0
 50
270.0
  0
MTEXT
  5
7E98
330
7D7B
100
AcDbEntity
  8
0
  6
ByBlock
440
 16777216
100
AcDbMText
 10
1427.291693822137
 20
2454.414968530633
 30
0.0
 40
75.0
 41
0.0
 46
0.0
 71
     5
 72
     5
  1
\A1;650
 11
0.0
 21
1.0
 31
0.0
 73
     1
 44
1.0
  0
POINT
  5
7E99
330
7D7B
100
AcDbEntity
  8
DEFPOINTS
  6
ByBlock
 62
     0
440
 16777216
100
AcDbPoint
 10
1283.447335163677
 20
2779.414968530633
 30
0.0
  0
POINT
  5
7E9A
330
7D7B
100
AcDbEntity
  8
DEFPOINTS
  6
ByBlock
 62
     0
440
 16777216
100
AcDbPoint
 10
1283.447335163676
 20
2129.414968530633
 30
0.0
  0
POINT
  5
7E9B
330
7D7B
100
AcDbEntity
  8
DEFPOINTS
  6
ByBlock
 62
     0
440
 16777216
100
AcDbPoint
 10
1477.291693822137
 20
2129.414968530633
 30
0.0
  0
ENDBLK
  5
7E9C
330
7D7B
100
AcDbEntity
  8
0
100
AcDbBlockEnd
  0
BLOCK
  5
7E9D
330
7D87
100
AcDbEntity
  8
0
100
AcDbBlockBegin
  2
*D12
 70
     1
 10
0.0
 20
0.0
 30
0.0
  3
*D12
  1

  0
LINE
  5
7E9E
330
7D87
100
AcDbEntity
  8
0
  6
ByBlock
440
 16777216
100
AcDbLine
 10
1283.447335163676
 20
2104.414968530633
 30
0.0
 11
1283.447335163676
 21
1708.503006503273
 31
0.0
  0
LINE
  5
7E9F
330
7D87
100
AcDbEntity
  8
0
  6
ByBlock
440
 16777216
100
AcDbLine
 10
-266.5526648363238
 20
2104.414968530633
 30
0.0
 11
-266.5526648363238
 21
1708.503006503273
 31
0.0
  0
LINE
  5
7EA0
330
7D87
100
AcDbEntity
  8
0
  6
ByBlock
440
 16777216
100
AcDbLine
 10
1233.447335163676
 20
1733.503006503273
 30
0.0
 11
-216.5526648363238
 21
1733.503006503273
 31
0.0
  0
INSERT
  5
7EA1
330
7D87
100
AcDbEntity
  8
0
  6
ByBlock
440
 16777216
100
AcDbBlockReference
  2
_OPEN
 10
1283.447335163676
 20
1733.503006503273
 30
0.0
 41
50.0
 42
50.0
 43
50.0
  0
INSERT
  5
7EA2
330
7D87
100
AcDbEntity
  8
0
  6
ByBlock
440
 16777216
100
AcDbBlockReference
  2
_OPEN
 10
-266.5526648363238
 20
1733.503006503273
 30
0.0
 41
50.0
 42
50.0
 43
50.0
 50
180.0
  0
MTEXT
  5
7EA3
330
7D87
100
AcDbEntity
  8
0
  6
ByBlock
440
 16777216
100
AcDbMText
 10
508.4473351636761
 20
1783.503006503273
 30
0.0
 40
75.0
 41
0.0
 46
0.0
 71
     5
 72
     5
  1
\A1;1550
 73
     1
 44
1.0
  0
POINT
  5
7EA4
330
7D87
100
AcDbEntity
  8
DEFPOINTS
  6
ByBlock
 62
     0
440
 16777216
100
AcDbPoint
 10
1283.447335163676
 20
2129.414968530633
 30
0.0
  0
POINT
  5
7EA5
330
7D87
100
AcDbEntity
  8
DEFPOINTS
  6
ByBlock
 62
     0
440
 16777216
100
AcDbPoint
 10
-266.5526648363238
 20
2129.414968530634
 30
0.0
  0
POINT
  5
7EA6
330
7D87
100
AcDbEntity
  8
DEFPOINTS
  6
ByBlock
 62
     0
440
 16777216
100
AcDbPoint
 10
-266.5526648363238
 20
1733.503006503273
 30
0.0
  0
ENDBLK
  5
7EA7
330
7D87
100
AcDbEntity
  8
0
100
AcDbBlockEnd
  0
BLOCK
  5
7EA8
330
7D93
100
AcDbEntity
  8
0
100
AcDbBlockBegin
  2
*D13
 70
     1
 10
0.0
 20
0.0
 30
0.0
  3
*D13
  1

  0
LINE
  5
7EA9
330
7D93
100
AcDbEntity
  8
0
  6
ByBlock
440
 16777216
100
AcDbLine
 10
1283.447335163677
 20
2804.414968530633
 30
0.0
 11
1283.447335163677
 21
3345.608916875219
 31
0.0
  0
LINE
  5
7EAA
330
7D93
100
AcDbEntity
  8
0
  6
ByBlock
440
 16777216
100
AcDbLine
 10
533.4473351636761
 20
3214.414968530635
 30
0.0
 11
533.4473351636761
 21
3345.608916875219
 31
0.0
  0
LINE
  5
7EAB
330
7D93
100
AcDbEntity
  8
0
  6
ByBlock
440
 16777216
100
AcDbLine
 10
1233.447335163676
 20
3320.608916875219
 30
0.0
 11
583.4473351636761
 21
3320.608916875219
 31
0.0
  0
INSERT
  5
7EAC
330
7D93
100
AcDbEntity
  8
0
  6
ByBlock
440
 16777216
100
AcDbBlockReference
  2
_OPEN
 10
1283.447335163677
 20
3320.608916875219
 30
0.0
 41
50.0
 42
50.0
 43
50.0
  0
INSERT
  5
7EAD
330
7D93
100
AcDbEntity
  8
0
  6
ByBlock
440
 16777216
100
AcDbBlockReference
  2
_OPEN
 10
533.4473351636761
 20
3320.608916875219
 30
0.0
 41
50.0
 42
50.0
 43
50.0
 50
180.0
  0
MTEXT
  5
7EAE
330
7D93
100
AcDbEntity
  8
0
  6
ByBlock
440
 16777216
100
AcDbMText
 10
908.4473351636763
 20
3370.608916875219
 30
0.0
 40
75.0
 41
0.0
 46
0.0
 71
     5
 72
     5
  1
\A1;750
 73
     1
 44
1.0
  0
POINT
  5
7EAF
330
7D93
100
AcDbEntity
  8
DEFPOINTS
  6
ByBlock
 62
     0
440
 16777216
100
AcDbPoint
 10
1283.447335163677
 20
2779.414968530633
 30
0.0
  0
POINT
  5
7EB0
330
7D93
100
AcDbEntity
  8
DEFPOINTS
  6
ByBlock
 62
     0
440
 16777216
100
AcDbPoint
 10
533.4473351636761
 20
3189.414968530634
 30
0.0
  0
POINT
  5
7EB1
330
7D93
100
AcDbEntity
  8
DEFPOINTS
  6
ByBlock
 62
     0
440
 16777216
100
AcDbPoint
 10
533.4473351636761
 20
3320.608916875219
 30
0.0
  0
ENDBLK
  5
7EB2
330
7D93
100
AcDbEntity
  8
0
100
AcDbBlockEnd
  0
BLOCK
  5
7EB3
330
7D9F
100
AcDbEntity
  8
0
100
AcDbBlockBegin
  2
*D14
 70
     1
 10
0.0
 20
0.0
 30
0.0
  3
*D14
  1

  0
LINE
  5
7EB4
330
7D9F
100
AcDbEntity
  8
0
  6
ByBlock
440
 16777216
100
AcDbLine
 10
-398.4456379393196
 20
568.0976264501205
 30
0.0
 11
-651.7546214553731
 21
568.0976264501205
 31
0.0
  0
LINE
  5
7EB5
330
7D9F
100
AcDbEntity
  8
0
  6
ByBlock
440
 16777216
100
AcDbLine
 10
-291.5526648363238
 20
-11.90237354987948
 30
0.0
 11
-651.7546214553731
 21
-11.90237354987948
 31
0.0
  0
LINE
  5
7EB6
330
7D9F
100
AcDbEntity
  8
0
  6
ByBlock
440
 16777216
100
AcDbLine
 10
-626.7546214553731
 20
518.0976264501205
 30
0.0
 11
-626.7546214553731
 21
38.09762645012052
 31
0.0
  0
INSERT
  5
7EB7
330
7D9F
100
AcDbEntity
  8
0
  6
ByBlock
440
 16777216
100
AcDbBlockReference
  2
_OPEN
 10
-626.7546214553731
 20
568.0976264501205
 30
0.0
 41
50.0
 42
50.0
 43
50.0
 50
90.0
  0
INSERT
  5
7EB8
330
7D9F
100
AcDbEntity
  8
0
  6
ByBlock
440
 16777216
100
AcDbBlockReference
  2
_OPEN
 10
-626.7546214553731
 20
-11.90237354987948
 30
0.0
 41
50.0
 42
50.0
 43
50.0
 50
270.0
  0
MTEXT
  5
7EB9
330
7D9F
100
AcDbEntity
  8
0
  6
ByBlock
440
 16777216
100
AcDbMText
 10
-676.7546214553731
 20
278.0976264501205
 30
0.0
 40
75.0
 41
0.0
 46
0.0
 71
     5
 72
     5
  1
\A1;580
 11
0.0
 21
1.0
 31
0.0
 73
     1
 44
1.0
  0
POINT
  5
7EBA
330
7D9F
100
AcDbEntity
  8
DEFPOINTS
  6
ByBlock
 62
     0
440
 16777216
100
AcDbPoint
 10
-373.4456379393196
 20
568.0976264501205
 30
0.0
  0
POINT
  5
7EBB
330
7D9F
100
AcDbEntity
  8
DEFPOINTS
  6
ByBlock
 62
     0
440
 16777216
100
AcDbPoint
 10
-266.5526648363238
 20
-11.90237354987948
 30
0.0
  0
POINT
  5
7EBC
330
7D9F
100
AcDbEntity
  8
DEFPOINTS
  6
ByBlock
 62
     0
440
 16777216
100
AcDbPoint
 10
-626.7546214553731
 20
-11.90237354987948
 30
0.0
  0
ENDBLK
  5
7EBD
330
7D9F
100
AcDbEntity
  8
0
100
AcDbBlockEnd
  0
BLOCK
  5
7F94
330
7DB9
100
AcDbEntity
  8
0
100
AcDbBlockBegin
  2
*D15
 70
     1
 10
0.0
 20
0.0
 30
0.0
  3
*D15
  1

  0
LINE
  5
802D
330
7DB9
100
AcDbEntity
  8
3
 62
     0
440
 16777216
100
AcDbLine
 10
1184.561140573666
 20
2031.058258225085
 30
0.0
 11
811.8591839546169
 21
2031.058258225085
 31
0.0
  0
LINE
  5
802E
330
7DB9
100
AcDbEntity
  8
3
 62
     0
440
 16777216
100
AcDbLine
 10
1184.561140573666
 20
1931.058258225084
 30
0.0
 11
811.8591839546169
 21
1931.058258225084
 31
0.0
  0
LINE
  5
802F
330
7DB9
100
AcDbEntity
  8
3
 62
     0
440
 16777216
100
AcDbLine
 10
836.8591839546169
 20
2081.058258225084
 30
0.0
 11
836.8591839546169
 21
2131.058258225085
 31
0.0
  0
LINE
  5
8030
330
7DB9
100
AcDbEntity
  8
3
 62
     0
440
 16777216
100
AcDbLine
 10
836.8591839546169
 20
1881.058258225084
 30
0.0
 11
836.8591839546169
 21
1602.486829653656
 31
0.0
  0
LINE
  5
8031
330
7DB9
100
AcDbEntity
  8
3
 62
     0
440
 16777216
100
AcDbLine
 10
836.8591839546169
 20
2031.058258225085
 30
0.0
 11
836.8591839546169
 21
1931.058258225084
 31
0.0
  0
INSERT
  5
8032
330
7DB9
100
AcDbEntity
  8
3
 62
     0
440
 16777216
100
AcDbBlockReference
  2
_DOT
 10
836.8591839546169
 20
2031.058258225085
 30
0.0
 41
50.0
 42
50.0
 43
50.0
 50
270.0
  0
INSERT
  5
8033
330
7DB9
100
AcDbEntity
  8
3
 62
     0
440
 16777216
100
AcDbBlockReference
  2
_OPEN
 10
836.8591839546169
 20
1931.058258225084
 30
0.0
 41
50.0
 42
50.0
 43
50.0
 50
90.0
  0
MTEXT
  5
8034
330
7DB9
100
AcDbEntity
  8
3
 62
     0
440
 16777216
100
AcDbMText
 10
774.3591839546167
 20
1716.77254393937
 30
0.0
 40
75.0
 41
0.0
 46
0.0
 71
     5
 72
     5
  1
\A1;100
 11
0.0000000000000001
 21
1.0
 31
0.0
 73
     1
 44
1.0
  0
POINT
  5
8035
330
7DB9
100
AcDbEntity
  8
DEFPOINTS
 62
     0
440
 16777216
100
AcDbPoint
 10
1197.061140573666
 20
2031.058258225085
 30
0.0
  0
POINT
  5
8036
330
7DB9
100
AcDbEntity
  8
DEFPOINTS
 62
     0
440
 16777216
100
AcDbPoint
 10
1197.061140573666
 20
1931.058258225084
 30
0.0
  0
POINT
  5
8037
330
7DB9
100
AcDbEntity
  8
DEFPOINTS
 62
     0
440
 16777216
100
AcDbPoint
 10
836.8591839546169
 20
1931.058258225084
 30
0.0
  0
ENDBLK
  5
7FA0
330
7DB9
100
AcDbEntity
  8
0
100
AcDbBlockEnd
  0
BLOCK
  5
7ED8
330
7DC7
100
AcDbEntity
  8
0
100
AcDbBlockBegin
  2
*D16
 70
     1
 10
0.0
 20
0.0
 30
0.0
  3
*D16
  1

  0
LINE
  5
80CB
330
7DC7
100
AcDbEntity
  8
3
440
 16777216
370
    -2
100
AcDbLine
 10
4402.893601721877
 20
2649.458258225084
 30
0.0
 11
4402.893601721877
 21
3443.868072071111
 31
0.0
  0
LINE
  5
80CC
330
7DC7
100
AcDbEntity
  8
3
440
 16777216
370
    -2
100
AcDbLine
 10
3832.893601721877
 20
3344.681022808686
 30
0.0
 11
3832.893601721877
 21
3443.868072071111
 31
0.0
  0
LINE
  5
80CD
330
7DC7
100
AcDbEntity
  8
3
440
 16777216
370
    -2
100
AcDbLine
 10
4352.893601721877
 20
3418.868072071111
 30
0.0
 11
3882.893601721877
 21
3418.868072071111
 31
0.0
  0
INSERT
  5
80CE
330
7DC7
100
AcDbEntity
  8
3
440
 16777216
370
    -2
100
AcDbBlockReference
  2
_OPEN
 10
4402.893601721877
 20
3418.868072071111
 30
0.0
 41
50.0
 42
50.0
 43
50.0
  0
INSERT
  5
80CF
330
7DC7
100
AcDbEntity
  8
3
440
 16777216
370
    -2
100
AcDbBlockReference
  2
_OPEN
 10
3832.893601721877
 20
3418.868072071111
 30
0.0
 41
50.0
 42
50.0
 43
50.0
 50
180.0
  0
MTEXT
  5
80D0
330
7DC7
100
AcDbEntity
  8
3
440
 16777216
100
AcDbMText
 10
4117.893601721877
 20
3488.510929213968
 30
0.0
 40
75.0
 41
0.0
 46
0.0
 71
     5
 72
     1
  1
\A1;(570)
 73
     1
 44
1.0
  0
POINT
  5
80D1
330
7DC7
100
AcDbEntity
  8
DEFPOINTS
 62
     0
440
 16777216
100
AcDbPoint
 10
4402.893601721877
 20
2624.458258225085
 30
0.0
  0
POINT
  5
80D2
330
7DC7
100
AcDbEntity
  8
DEFPOINTS
 62
     0
440
 16777216
100
AcDbPoint
 10
3832.893601721877
 20
3319.681022808686
 30
0.0
  0
POINT
  5
80D3
330
7DC7
100
AcDbEntity
  8
DEFPOINTS
 62
     0
440
 16777216
100
AcDbPoint
 10
3832.893601721877
 20
3418.868072071111
 30
0.0
  0
ENDBLK
  5
7EE2
330
7DC7
100
AcDbEntity
  8
0
100
AcDbBlockEnd
  0
BLOCK
  5
7FC1
330
7DD3
100
AcDbEntity
  8
0
100
AcDbBlockBegin
  2
*D17
 70
     1
 10
0.0
 20
0.0
 30
0.0
  3
*D17
  1

  0
LINE
  5
80D4
330
7DD3
100
AcDbEntity
  8
3
440
 16777216
370
    -2
100
AcDbLine
 10
3832.893601721877
 20
3344.681022808686
 30
0.0
 11
3832.893601721877
 21
3443.868072071111
 31
0.0
  0
LINE
  5
80D5
330
7DD3
100
AcDbEntity
  8
3
440
 16777216
370
    -2
100
AcDbLine
 10
3032.893601721878
 20
2823.058258225085
 30
0.0
 11
3032.893601721878
 21
3443.868072071111
 31
0.0
  0
LINE
  5
80D6
330
7DD3
100
AcDbEntity
  8
3
440
 16777216
370
    -2
100
AcDbLine
 10
3782.893601721877
 20
3418.868072071111
 30
0.0
 11
3082.893601721878
 21
3418.868072071111
 31
0.0
  0
INSERT
  5
80D7
330
7DD3
100
AcDbEntity
  8
3
440
 16777216
370
    -2
100
AcDbBlockReference
  2
_OPEN
 10
3832.893601721877
 20
3418.868072071111
 30
0.0
 41
50.0
 42
50.0
 43
50.0
  0
INSERT
  5
80D8
330
7DD3
100
AcDbEntity
  8
3
440
 16777216
370
    -2
100
AcDbBlockReference
  2
_OPEN
 10
3032.893601721878
 20
3418.868072071111
 30
0.0
 41
50.0
 42
50.0
 43
50.0
 50
180.0
  0
MTEXT
  5
80D9
330
7DD3
100
AcDbEntity
  8
3
440
 16777216
100
AcDbMText
 10
3432.893601721878
 20
3488.510929213968
 30
0.0
 40
75.0
 41
0.0
 46
0.0
 71
     5
 72
     1
  1
\A1;(800)
 73
     1
 44
1.0
  0
POINT
  5
80DA
330
7DD3
100
AcDbEntity
  8
DEFPOINTS
 62
     0
440
 16777216
100
AcDbPoint
 10
3832.893601721877
 20
3319.681022808686
 30
0.0
  0
POINT
  5
80DB
330
7DD3
100
AcDbEntity
  8
DEFPOINTS
 62
     0
440
 16777216
100
AcDbPoint
 10
3032.893601721878
 20
2798.058258225085
 30
0.0
  0
POINT
  5
80DC
330
7DD3
100
AcDbEntity
  8
DEFPOINTS
 62
     0
440
 16777216
100
AcDbPoint
 10
3032.893601721878
 20
3418.868072071111
 30
0.0
  0
ENDBLK
  5
7FCB
330
7DD3
100
AcDbEntity
  8
0
100
AcDbBlockEnd
  0
BLOCK
  5
7EEE
330
7DDF
100
AcDbEntity
  8
0
100
AcDbBlockBegin
  2
*D18
 70
     1
 10
0.0
 20
0.0
 30
0.0
  3
*D18
  1

  0
LINE
  5
8038
330
7DDF
100
AcDbEntity
  8
3
440
 16777216
100
AcDbLine
 10
1558.061140573666
 20
3108.058258225085
 30
0.0
 11
811.8591839546169
 21
3108.058258225085
 31
0.0
  0
LINE
  5
8039
330
7DDF
100
AcDbEntity
  8
3
440
 16777216
100
AcDbLine
 10
836.8591839546169
 20
2698.058258225085
 30
0.0
 11
836.8591839546169
 21
3058.058258225085
 31
0.0
  0
INSERT
  5
803A
330
7DDF
100
AcDbEntity
  8
3
440
 16777216
100
AcDbBlockReference
  2
_OPEN
 10
836.8591839546169
 20
2648.058258225085
 30
0.0
 41
50.0
 42
50.0
 43
50.0
 50
270.0
  0
INSERT
  5
803B
330
7DDF
100
AcDbEntity
  8
3
440
 16777216
100
AcDbBlockReference
  2
_OPEN
 10
836.8591839546169
 20
3108.058258225085
 30
0.0
 41
50.0
 42
50.0
 43
50.0
 50
90.0
  0
MTEXT
  5
803C
330
7DDF
100
AcDbEntity
  8
3
440
 16777216
100
AcDbMText
 10
786.8591839546166
 20
2878.058258225085
 30
0.0
 40
75.0
 41
0.0
 46
0.0
 71
     5
 72
     5
  1
\A1;460
 11
0.0000000000000001
 21
1.0
 31
0.0
 73
     1
 44
1.0
  0
POINT
  5
803D
330
7DDF
100
AcDbEntity
  8
DEFPOINTS
 62
     0
440
 16777216
100
AcDbPoint
 10
1090.16816747067
 20
2648.058258225085
 30
0.0
  0
POINT
  5
803E
330
7DDF
100
AcDbEntity
  8
DEFPOINTS
 62
     0
440
 16777216
100
AcDbPoint
 10
1583.061140573666
 20
3108.058258225085
 30
0.0
  0
POINT
  5
803F
330
7DDF
100
AcDbEntity
  8
DEFPOINTS
 62
     0
440
 16777216
100
AcDbPoint
 10
836.8591839546169
 20
3108.058258225085
 30
0.0
  0
ENDBLK
  5
7EF7
330
7DDF
100
AcDbEntity
  8
0
100
AcDbBlockEnd
  0
BLOCK
  5
7F03
330
7DF6
100
AcDbEntity
  8
0
100
AcDbBlockBegin
  2
*D19
 70
     1
 10
0.0
 20
0.0
 30
0.0
  3
*D19
  1

  0
LINE
  5
8040
330
7DF6
100
AcDbEntity
  8
3
440
 16777216
100
AcDbLine
 10
1143.061140573666
 20
2626.058258225084
 30
0.0
 11
1143.061140573666
 21
3432.559924345778
 31
0.0
  0
LINE
  5
8041
330
7DF6
100
AcDbEntity
  8
3
440
 16777216
100
AcDbLine
 10
1547.061140573666
 20
3407.559924345778
 30
0.0
 11
1193.061140573666
 21
3407.559924345778
 31
0.0
  0
INSERT
  5
8042
330
7DF6
100
AcDbEntity
  8
3
440
 16777216
100
AcDbBlockReference
  2
_OPEN
 10
1597.061140573666
 20
3407.559924345778
 30
0.0
 41
50.0
 42
50.0
 43
50.0
  0
INSERT
  5
8043
330
7DF6
100
AcDbEntity
  8
3
440
 16777216
100
AcDbBlockReference
  2
_OPEN
 10
1143.061140573666
 20
3407.559924345778
 30
0.0
 41
50.0
 42
50.0
 43
50.0
 50
180.0
  0
MTEXT
  5
8044
330
7DF6
100
AcDbEntity
  8
3
440
 16777216
100
AcDbMText
 10
1370.061140573666
 20
3457.559924345777
 30
0.0
 40
75.0
 41
0.0
 46
0.0
 71
     5
 72
     5
  1
\A1;454
 73
     1
 44
1.0
  0
POINT
  5
8045
330
7DF6
100
AcDbEntity
  8
DEFPOINTS
 62
     0
440
 16777216
100
AcDbPoint
 10
1597.061140573666
 20
3154.951231328081
 30
0.0
  0
POINT
  5
8046
330
7DF6
100
AcDbEntity
  8
DEFPOINTS
 62
     0
440
 16777216
100
AcDbPoint
 10
1143.061140573666
 20
2601.058258225084
 30
0.0
  0
POINT
  5
8047
330
7DF6
100
AcDbEntity
  8
DEFPOINTS
 62
     0
440
 16777216
100
AcDbPoint
 10
1143.061140573666
 20
3407.559924345778
 30
0.0
  0
ENDBLK
  5
7F0C
330
7DF6
100
AcDbEntity
  8
0
100
AcDbBlockEnd
  0
BLOCK
  5
7F0D
330
7E01
100
AcDbEntity
  8
0
100
AcDbBlockBegin
  2
*D20
 70
     1
 10
0.0
 20
0.0
 30
0.0
  3
*D20
  1

  0
LINE
  5
7F0E
330
7E01
100
AcDbEntity
  8
0
  6
ByBlock
440
 16777216
100
AcDbLine
 10
-320.5526648363238
 20
546.0976264501205
 30
0.0
 11
-320.5526648363238
 21
1486.245752267439
 31
0.0
  0
LINE
  5
7F0F
330
7E01
100
AcDbEntity
  8
0
  6
ByBlock
440
 16777216
100
AcDbLine
 10
1283.447335163676
 20
113.0976264501205
 30
0.0
 11
1283.447335163676
 21
1486.245752267439
 31
0.0
  0
LINE
  5
7F10
330
7E01
100
AcDbEntity
  8
0
  6
ByBlock
440
 16777216
100
AcDbLine
 10
-270.5526648363238
 20
1461.245752267439
 30
0.0
 11
1233.447335163676
 21
1461.245752267439
 31
0.0
  0
INSERT
  5
7F11
330
7E01
100
AcDbEntity
  8
0
  6
ByBlock
440
 16777216
100
AcDbBlockReference
  2
_OPEN
 10
-320.5526648363238
 20
1461.245752267439
 30
0.0
 41
50.0
 42
50.0
 43
50.0
 50
180.0
  0
INSERT
  5
7F12
330
7E01
100
AcDbEntity
  8
0
  6
ByBlock
440
 16777216
100
AcDbBlockReference
  2
_OPEN
 10
1283.447335163676
 20
1461.245752267439
 30
0.0
 41
50.0
 42
50.0
 43
50.0
  0
MTEXT
  5
7F13
330
7E01
100
AcDbEntity
  8
0
  6
ByBlock
440
 16777216
100
AcDbMText
 10
481.4473351636761
 20
1511.245752267439
 30
0.0
 40
75.0
 41
0.0
 46
0.0
 71
     5
 72
     5
  1
\A1;1604
 73
     1
 44
1.0
  0
POINT
  5
7F14
330
7E01
100
AcDbEntity
  8
DEFPOINTS
  6
ByBlock
 62
     0
440
 16777216
100
AcDbPoint
 10
-320.5526648363238
 20
521.0976264501205
 30
0.0
  0
POINT
  5
7F15
330
7E01
100
AcDbEntity
  8
DEFPOINTS
  6
ByBlock
 62
     0
440
 16777216
100
AcDbPoint
 10
1283.447335163676
 20
88.09762645012051
 30
0.0
  0
POINT
  5
7F16
330
7E01
100
AcDbEntity
  8
DEFPOINTS
  6
ByBlock
 62
     0
440
 16777216
100
AcDbPoint
 10
1283.447335163676
 20
1461.245752267439
 30
0.0
  0
ENDBLK
  5
7F17
330
7E01
100
AcDbEntity
  8
0
100
AcDbBlockEnd
  0
BLOCK
  5
7F18
330
7E0D
100
AcDbEntity
  8
0
100
AcDbBlockBegin
  2
*D21
 70
     1
 10
0.0
 20
0.0
 30
0.0
  3
*D21
  1

  0
LINE
  5
7F19
330
7E0D
100
AcDbEntity
  8
0
  6
ByBlock
440
 16777216
100
AcDbLine
 10
3017.296193483283
 20
883.0976264501204
 30
0.0
 11
3252.59222278256
 21
883.0976264501204
 31
0.0
  0
LINE
  5
7F1A
330
7E0D
100
AcDbEntity
  8
0
  6
ByBlock
440
 16777216
100
AcDbLine
 10
3017.296193483283
 20
253.0976264501205
 30
0.0
 11
3252.59222278256
 21
253.0976264501205
 31
0.0
  0
LINE
  5
7F1B
330
7E0D
100
AcDbEntity
  8
0
  6
ByBlock
440
 16777216
100
AcDbLine
 10
3227.59222278256
 20
833.0976264501204
 30
0.0
 11
3227.59222278256
 21
303.0976264501205
 31
0.0
  0
INSERT
  5
7F1C
330
7E0D
100
AcDbEntity
  8
0
  6
ByBlock
440
 16777216
100
AcDbBlockReference
  2
_OPEN
 10
3227.59222278256
 20
883.0976264501204
 30
0.0
 41
50.0
 42
50.0
 43
50.0
 50
90.0
  0
INSERT
  5
7F1D
330
7E0D
100
AcDbEntity
  8
0
  6
ByBlock
440
 16777216
100
AcDbBlockReference
  2
_OPEN
 10
3227.59222278256
 20
253.0976264501205
 30
0.0
 41
50.0
 42
50.0
 43
50.0
 50
270.0
  0
MTEXT
  5
7F1E
330
7E0D
100
AcDbEntity
  8
0
  6
ByBlock
440
 16777216
100
AcDbMText
 10
3177.59222278256
 20
568.0976264501205
 30
0.0
 40
75.0
 41
0.0
 46
0.0
 71
     5
 72
     5
  1
\A1;φ630
 11
0.0
 21
1.0
 31
0.0
 73
     1
 44
1.0
  0
POINT
  5
7F1F
330
7E0D
100
AcDbEntity
  8
DEFPOINTS
  6
ByBlock
 62
     0
440
 16777216
100
AcDbPoint
 10
2992.296193483283
 20
883.0976264501204
 30
0.0
  0
POINT
  5
7F20
330
7E0D
100
AcDbEntity
  8
DEFPOINTS
  6
ByBlock
 62
     0
440
 16777216
100
AcDbPoint
 10
2992.296193483283
 20
253.0976264501205
 30
0.0
  0
POINT
  5
7F21
330
7E0D
100
AcDbEntity
  8
DEFPOINTS
  6
ByBlock
 62
     0
440
 16777216
100
AcDbPoint
 10
3227.59222278256
 20
253.0976264501205
 30
0.0
  0
ENDBLK
  5
7F22
330
7E0D
100
AcDbEntity
  8
0
100
AcDbBlockEnd
  0
BLOCK
  5
7F83
330
7F7D
100
AcDbEntity
  8
0
100
AcDbBlockBegin
  2
_DOT
 70
     0
 10
0.0
 20
0.0
 30
0.0
  3
_DOT
  1

  0
LWPOLYLINE
  5
7F7E
330
7F7D
100
AcDbEntity
  8
0
  6
ByBlock
 62
     0
100
AcDbPolyline
 90
        2
 70
     1
 43
0.25
 10
-0.125
 20
0.0
 42
1.0
 10
0.125
 20
0.0
 42
1.0
  0
LINE
  5
7F82
330
7F7D
100
AcDbEntity
  8
0
  6
ByBlock
 62
     0
100
AcDbLine
 10
-0.25
 20
0.0
 30
0.0
 11
-1.0
 21
0.0
 31
0.0
  0
ENDBLK
  5
7F84
330
7F7D
100
AcDbEntity
  8
0
100
AcDbBlockEnd
  0
BLOCK
  5
7FD5
330
7FD4
100
AcDbEntity
  8
0
100
AcDbBlockBegin
  2
_NONE
 70
     0
 10
0.0
 20
0.0
 30
0.0
  3
_NONE
  1

  0
CIRCLE
  5
7FD6
330
7FD4
100
AcDbEntity
  8
0
  6
ByBlock
 62
     0
100
AcDbCircle
 10
0.0
 20
0.0
 30
0.0
 40
0.25
  0
ENDBLK
  5
7FD7
330
7FD4
100
AcDbEntity
  8
0
100
AcDbBlockEnd
  0
BLOCK
  5
7FD9
330
7FD8
100
AcDbEntity
  8
0
100
AcDbBlockBegin
  2
*D24
 70
     1
 10
0.0
 20
0.0
 30
0.0
  3
*D24
  1

  0
LINE
  5
7FDA
330
7FD8
100
AcDbEntity
  8
0
  6
ByBlock
 62
     0
440
 16777216
100
AcDbLine
 10
839.1100781238419
 20
2031.058258225085
 30
0.0
 11
839.1100781238419
 21
2031.058258225085
 31
0.0
  0
LINE
  5
7FDB
330
7FD8
100
AcDbEntity
  8
0
  6
ByBlock
 62
     0
440
 16777216
100
AcDbLine
 10
839.1100781238419
 20
2068.058258225085
 30
0.0
 11
839.1100781238419
 21
2168.058258225085
 31
0.0
  0
MTEXT
  5
7FDC
330
7FD8
100
AcDbEntity
  8
0
  6
ByBlock
 62
     0
440
 16777216
100
AcDbMText
 10
719.4672209809848
 20
2049.558258225085
 30
0.0
 40
75.0
 41
0.0
 46
0.0
 71
     5
 72
     5
  1
\A1;(37)
 11
0.0
 21
1.0
 31
0.0
 73
     1
 44
1.0
  0
LINE
  5
7FDD
330
7FD8
100
AcDbEntity
  8
0
  6
ByBlock
 62
     0
440
 16777216
100
AcDbLine
 10
839.1100781238419
 20
2031.058258225085
 30
0.0
 11
839.1100781238419
 21
2068.058258225085
 31
0.0
  0
POINT
  5
7FDE
330
7FD8
100
AcDbEntity
  8
DEFPOINTS
  6
ByBlock
 62
     0
440
 16777216
100
AcDbPoint
 10
1197.061140573666
 20
2031.058258225085
 30
0.0
  0
POINT
  5
7FDF
330
7FD8
100
AcDbEntity
  8
DEFPOINTS
  6
ByBlock
 62
     0
440
 16777216
100
AcDbPoint
 10
1197.061140573666
 20
2068.058258225085
 30
0.0
  0
POINT
  5
7FE0
330
7FD8
100
AcDbEntity
  8
DEFPOINTS
  6
ByBlock
 62
     0
440
 16777216
100
AcDbPoint
 10
839.1100781238419
 20
2068.058258225085
 30
0.0
  0
ENDBLK
  5
7FE1
330
7FD8
100
AcDbEntity
  8
0
100
AcDbBlockEnd
  0
BLOCK
  5
7FE4
330
7FE3
100
AcDbEntity
  8
0
100
AcDbBlockBegin
  2
*D25
 70
     1
 10
0.0
 20
0.0
 30
0.0
  3
*D25
  1

  0
LINE
  5
7FE5
330
7FE3
100
AcDbEntity
  8
0
  6
ByBlock
 62
     0
440
 16777216
100
AcDbLine
 10
1570.561140573666
 20
3108.058258225085
 30
0.0
 11
597.3074353805604
 21
3108.058258225085
 31
0.0
  0
LINE
  5
7FE6
330
7FE3
100
AcDbEntity
  8
0
  6
ByBlock
 62
     0
440
 16777216
100
AcDbLine
 10
1184.561140573666
 20
1931.058258225084
 30
0.0
 11
597.3074353805604
 21
1931.058258225084
 31
0.0
  0
LINE
  5
7FE7
330
7FE3
100
AcDbEntity
  8
0
  6
ByBlock
 62
     0
440
 16777216
100
AcDbLine
 10
622.3074353805604
 20
3058.058258225085
 30
0.0
 11
622.3074353805604
 21
1981.058258225084
 31
0.0
  0
INSERT
  5
7FE8
330
7FE3
100
AcDbEntity
  8
0
  6
ByBlock
 62
     0
440
 16777216
100
AcDbBlockReference
  2
_OPEN
 10
622.3074353805604
 20
3108.058258225085
 30
0.0
 41
50.0
 42
50.0
 43
50.0
 50
90.0
  0
INSERT
  5
7FE9
330
7FE3
100
AcDbEntity
  8
0
  6
ByBlock
 62
     0
440
 16777216
100
AcDbBlockReference
  2
_OPEN
 10
622.3074353805604
 20
1931.058258225084
 30
0.0
 41
50.0
 42
50.0
 43
50.0
 50
270.0
  0
MTEXT
  5
7FEA
330
7FE3
100
AcDbEntity
  8
0
  6
ByBlock
 62
     0
440
 16777216
100
AcDbMText
 10
540.1645782377033
 20
2519.558258225085
 30
0.0
 40
75.0
 41
0.0
 46
0.0
 71
     5
 72
     5
  1
\A1;(1177)
 11
0.0
 21
1.0
 31
0.0
 73
     1
 44
1.0
  0
POINT
  5
7FEB
330
7FE3
100
AcDbEntity
  8
DEFPOINTS
  6
ByBlock
 62
     0
440
 16777216
100
AcDbPoint
 10
1583.061140573666
 20
3108.058258225085
 30
0.0
  0
POINT
  5
7FEC
330
7FE3
100
AcDbEntity
  8
DEFPOINTS
  6
ByBlock
 62
     0
440
 16777216
100
AcDbPoint
 10
1197.061140573666
 20
1931.058258225084
 30
0.0
  0
POINT
  5
7FED
330
7FE3
100
AcDbEntity
  8
DEFPOINTS
  6
ByBlock
 62
     0
440
 16777216
100
AcDbPoint
 10
622.3074353805604
 20
1931.058258225084
 30
0.0
  0
ENDBLK
  5
7FEE
330
7FE3
100
AcDbEntity
  8
0
100
AcDbBlockEnd
  0
ENDSEC
  0
SECTION
  2
ENTITIES
  0
INSERT
  5
7C1D
330
19
100
AcDbEntity
  8
0
100
AcDbBlockReference
  2
YA_N
 10
6.0
 20
5.0
 30
0.0
  0
LINE
  5
7C1F
330
19
100
AcDbEntity
  8
2
100
AcDbLine
 10
2299.402063718368
 20
2648.058258225085
 30
0.0
 11
1090.16816747067
 21
2648.058258225085
 31
0.0
  0
LINE
  5
7C20
330
19
100
AcDbEntity
  8
2
100
AcDbLine
 10
1597.061140573666
 20
3130.907353164774
 30
0.0
 11
1597.061140573666
 21
1931.058258225084
 31
0.0
  0
ARC
  5
7C21
330
19
100
AcDbEntity
  8
1
100
AcDbCircle
 10
1644.061140573666
 20
2695.058258225085
 30
0.0
 40
595.0
100
AcDbArc
 50
297.6604498993008
 51
355.4693949573174
  0
ARC
  5
7C22
330
19
100
AcDbEntity
  8
1
100
AcDbCircle
 10
1644.061140573666
 20
2601.058258225084
 30
0.0
 40
501.0
100
AcDbArc
 50
174.6170313501186
 51
239.7996190097056
  0
ARC
  5
7C23
330
19
100
AcDbEntity
  8
1
100
AcDbCircle
 10
1559.061140573666
 20
2610.058258225084
 30
0.0
 40
416.0
100
AcDbArc
 50
84.75894493870328
 51
174.7589449387033
  0
ARC
  5
7C24
330
19
100
AcDbEntity
  8
1
100
AcDbCircle
 10
1559.061140573666
 20
2686.058258225085
 30
0.0
 40
340.0
100
AcDbArc
 50
78.80681639431617
 51
83.58294685697133
  0
LINE
  5
7C25
330
19
100
AcDbEntity
  8
1
100
AcDbLine
 10
2317.061140573667
 20
3108.058258225085
 30
0.0
 11
1583.061140573666
 21
3108.058258225085
 31
0.0
  0
LINE
  5
7C26
330
19
100
AcDbEntity
  8
1
100
AcDbLine
 10
2275.061140573666
 20
3108.058258225085
 30
0.0
 11
2237.201933303351
 21
2648.058258225085
 31
0.0
  0
LINE
  5
7C27
330
19
100
AcDbEntity
  8
1
100
AcDbLine
 10
1625.061140573666
 20
3019.590865326699
 30
0.0
 11
1625.061140573666
 21
3108.058258225085
 31
0.0
  0
LINE
  5
7C28
330
19
100
AcDbEntity
  8
1
100
AcDbLine
 10
2271.769035593639
 20
3068.058258225085
 30
0.0
 11
1625.061140573666
 21
3068.058258225085
 31
0.0
  0
LINE
  5
7C29
330
19
100
AcDbEntity
  8
1
100
AcDbLine
 10
2317.061140573667
 20
3105.058258225085
 30
0.0
 11
2317.061140573667
 21
3108.058258225085
 31
0.0
  0
LINE
  5
7C2A
330
19
100
AcDbEntity
  8
1
100
AcDbLine
 10
1583.061140573666
 20
3105.058258225085
 30
0.0
 11
1583.061140573666
 21
3108.058258225085
 31
0.0
  0
LINE
  5
7C2B
330
19
100
AcDbEntity
  8
1
100
AcDbLine
 10
2317.061140573667
 20
3105.058258225085
 30
0.0
 11
1583.061140573666
 21
3105.058258225085
 31
0.0
  0
LINE
  5
7C2C
330
19
100
AcDbEntity
  8
1
100
AcDbLine
 10
2747.061140573666
 20
2168.058258225085
 30
0.0
 11
1197.061140573666
 21
2168.058258225085
 31
0.0
  0
LINE
  5
7C2D
330
19
100
AcDbEntity
  8
1
100
AcDbLine
 10
2747.061140573666
 20
2068.058258225085
 30
0.0
 11
1197.061140573666
 21
2068.058258225085
 31
0.0
1001
ACAD
1000
ASC_BOUNDS
1002
{
1070
    19
1002
}
  0
LINE
  5
7C2E
330
19
100
AcDbEntity
  8
1
100
AcDbLine
 10
1197.061140573666
 20
2168.058258225085
 30
0.0
 11
1197.061140573666
 21
2068.058258225085
 31
0.0
  0
LINE
  5
7C2F
330
19
100
AcDbEntity
  8
1
100
AcDbLine
 10
2747.061140573666
 20
2168.058258225085
 30
0.0
 11
2747.061140573666
 21
2068.058258225085
 31
0.0
  0
LINE
  5
7C30
330
19
100
AcDbEntity
  8
2
100
AcDbLine
 10
2447.061140573666
 20
2505.503213378423
 30
0.0
 11
2447.061140573667
 21
1931.058258225084
 31
0.0
  0
LINE
  5
7C31
330
19
100
AcDbEntity
  8
2
100
AcDbLine
 10
3832.893601721877
 20
3199.951897274594
 30
0.0
 11
3832.893601721875
 21
1931.058258225084
 31
0.0
  0
LINE
  5
7C32
330
19
100
AcDbEntity
  8
2
100
AcDbLine
 10
3111.795477526237
 20
2648.058258225085
 30
0.0
 11
4371.015173193862
 21
2648.058258225085
 31
0.0
  0
LINE
  5
7C33
330
19
100
AcDbEntity
  8
1
100
AcDbLine
 10
3250.893601721877
 20
2068.058258225085
 30
0.0
 11
4310.893601721878
 21
2068.058258225085
 31
0.0
1001
ACAD
1000
ASC_BOUNDS
1002
{
1070
    19
1002
}
  0
LINE
  5
7C34
330
19
100
AcDbEntity
  8
1
100
AcDbLine
 10
3250.893601721877
 20
2168.058258225085
 30
0.0
 11
4310.893601721878
 21
2168.058258225085
 31
0.0
  0
LINE
  5
7C35
330
19
100
AcDbEntity
  8
1
100
AcDbLine
 10
3250.893601721877
 20
2168.058258225085
 30
0.0
 11
3250.893601721877
 21
2068.058258225085
 31
0.0
  0
LINE
  5
7C36
330
19
100
AcDbEntity
  8
1
100
AcDbLine
 10
4310.893601721877
 20
2168.058258225085
 30
0.0
 11
4310.893601721877
 21
2068.058258225085
 31
0.0
  0
LINE
  5
7C37
330
19
100
AcDbEntity
  8
1
100
AcDbLine
 10
4257.893601721877
 20
3108.058258225085
 30
0.0
 11
4257.893601721877
 21
2676.058258225085
 31
0.0
  0
LINE
  5
7C38
330
19
100
AcDbEntity
  8
1
100
AcDbLine
 10
3367.893601721877
 20
3108.058258225085
 30
0.0
 11
4297.893601721876
 21
3108.058258225085
 31
0.0
  0
LINE
  5
7C39
330
19
100
AcDbEntity
  8
1
100
AcDbLine
 10
4257.893601721877
 20
2676.058258225085
 30
0.0
 11
4257.893601721877
 21
2168.058258225085
 31
0.0
  0
LINE
  5
7C3A
330
19
100
AcDbEntity
  8
2
100
AcDbLine
 10
1597.061140573666
 20
5310.394313814466
 30
0.0
 11
1597.061140573666
 21
3884.324264962849
 31
0.0
  0
LINE
  5
7C3B
330
19
100
AcDbEntity
  8
2
100
AcDbLine
 10
2275.061140573666
 20
4791.375600305597
 30
0.0
 11
1083.457294837601
 21
4791.375600305598
 31
0.0
  0
INSERT
  5
7C3C
330
19
100
AcDbEntity
  8
0
100
AcDbBlockReference
  2
YA_N
 10
-1221.011981710642
 20
-542.7332483964637
 30
0.0
 41
15.0
 42
15.0
 43
15.0
  0
LINE
  5
7C3E
330
19
100
AcDbEntity
  8
1
100
AcDbLine
 10
2747.061140573666
 20
1931.058258225084
 30
0.0
 11
1197.061140573666
 21
1931.058258225084
 31
0.0
  0
LINE
  5
7C3F
330
19
100
AcDbEntity
  8
1
100
AcDbLine
 10
2747.061140573666
 20
2031.058258225085
 30
0.0
 11
1197.061140573666
 21
2031.058258225085
 31
0.0
1001
ACAD
1000
ASC_BOUNDS
1002
{
1070
    19
1002
}
  0
LINE
  5
7C40
330
19
100
AcDbEntity
  8
1
100
AcDbLine
 10
2747.061140573666
 20
2031.058258225085
 30
0.0
 11
2747.061140573666
 21
1931.058258225084
 31
0.0
  0
LINE
  5
7C41
330
19
100
AcDbEntity
  8
1
100
AcDbLine
 10
1197.061140573666
 20
2031.058258225085
 30
0.0
 11
1197.061140573666
 21
1931.058258225084
 31
0.0
  0
ARC
  5
7C42
330
19
100
AcDbEntity
  8
1
100
AcDbCircle
 10
2447.061140573666
 20
2385.058258225084
 30
0.0
 40
142.5
100
AcDbArc
 50
180.0
 51
244.7254
  0
ARC
  5
7C43
330
19
100
AcDbEntity
  8
1
100
AcDbCircle
 10
2447.061140573666
 20
2385.058258225084
 30
0.0
 40
142.5
100
AcDbArc
 50
295.0012
 51
180.0
  0
LINE
  5
7C44
330
19
100
AcDbEntity
  8
2
100
AcDbLine
 10
2447.061140573666
 20
2578.456258225085
 30
0.0
 11
2447.061140573666
 21
2254.842258225084
 31
0.0
  0
LINE
  5
7C45
330
19
100
AcDbEntity
  8
1
100
AcDbLine
 10
2386.519740573666
 20
2256.058258225085
 30
0.0
 11
2507.602440573666
 21
2256.058258225085
 31
0.0
  0
LINE
  5
7C46
330
19
100
AcDbEntity
  8
1
100
AcDbLine
 10
2534.524140573666
 20
2272.565758225084
 30
0.0
 11
2538.152940573667
 21
2268.936958225085
 31
0.0
  0
LINE
  5
7C47
330
19
100
AcDbEntity
  8
1
100
AcDbLine
 10
2566.543940573666
 20
2307.308858225084
 30
0.0
 11
2577.061140573666
 21
2268.058258225085
 31
0.0
  0
LINE
  5
7C48
330
19
100
AcDbEntity
  8
1
100
AcDbLine
 10
2540.274240573666
 20
2268.058258225085
 30
0.0
 11
2575.061140573666
 21
2268.058258225085
 31
0.0
  0
ARC
  5
7C49
330
19
100
AcDbEntity
  8
1
100
AcDbCircle
 10
2575.061140573666
 20
2266.058258225084
 30
0.0
 40
2.0
100
AcDbArc
 50
0.0
 51
90.0
  0
LINE
  5
7C4A
330
19
100
AcDbEntity
  8
1
100
AcDbLine
 10
2577.061140573666
 20
2267.860858225084
 30
0.0
 11
2577.061140573666
 21
2253.058258225085
 31
0.0
  0
ARC
  5
7C4E
330
19
100
AcDbEntity
  8
1
100
AcDbCircle
 10
2540.274240573666
 20
2271.058258225085
 30
0.0
 40
3.0
100
AcDbArc
 50
225.0004
 51
270.0
  0
ARC
  5
7C4F
330
19
100
AcDbEntity
  8
1
100
AcDbCircle
 10
2522.061140573666
 20
2260.987258225085
 30
0.0
 40
4.9999
100
AcDbArc
 50
0.0
 51
45.0005
  0
LINE
  5
7C50
330
19
100
AcDbEntity
  8
1
100
AcDbLine
 10
2525.940940573666
 20
2264.178458225084
 30
0.0
 11
2524.570040573666
 21
2265.549358225085
 31
0.0
  0
LINE
  5
7C51
330
19
100
AcDbEntity
  8
1
100
AcDbLine
 10
2527.061140573666
 20
2253.058258225085
 30
0.0
 11
2527.061140573666
 21
2260.987258225085
 31
0.0
  0
LINE
  5
7C52
330
19
100
AcDbEntity
  8
1
100
AcDbLine
 10
2327.535540573666
 20
2307.149558225085
 30
0.0
 11
2317.061140573667
 21
2268.058258225085
 31
0.0
  0
LINE
  5
7C53
330
19
100
AcDbEntity
  8
1
100
AcDbLine
 10
2353.847940573666
 20
2268.058258225085
 30
0.0
 11
2319.061140573666
 21
2268.058258225085
 31
0.0
  0
ARC
  5
7C54
330
19
100
AcDbEntity
  8
1
100
AcDbCircle
 10
2372.061040573666
 20
2260.987258225085
 30
0.0
 40
4.9999
100
AcDbArc
 50
134.9995
 51
180.0
  0
LINE
  5
7C55
330
19
100
AcDbEntity
  8
1
100
AcDbLine
 10
2368.685940573667
 20
2264.683258225085
 30
0.0
 11
2369.487940573666
 21
2265.485258225084
 31
0.0
  0
LINE
  5
7C56
330
19
100
AcDbEntity
  8
1
100
AcDbLine
 10
2367.061140573667
 20
2253.058258225085
 30
0.0
 11
2367.061140573667
 21
2260.987258225085
 31
0.0
  0
ARC
  5
7C57
330
19
100
AcDbEntity
  8
1
100
AcDbCircle
 10
2353.847940573666
 20
2271.058258225085
 30
0.0
 40
3.0
100
AcDbArc
 50
270.0
 51
315.0
  0
LINE
  5
7C58
330
19
100
AcDbEntity
  8
1
100
AcDbLine
 10
2359.716840573667
 20
2272.684458225085
 30
0.0
 11
2355.969240573666
 21
2268.936958225085
 31
0.0
  0
ARC
  5
7C5C
330
19
100
AcDbEntity
  8
1
100
AcDbCircle
 10
2319.061140573666
 20
2266.058258225084
 30
0.0
 40
2.0
100
AcDbArc
 50
90.0
 51
180.0
  0
LINE
  5
7C5D
330
19
100
AcDbEntity
  8
1
100
AcDbLine
 10
2317.061140573667
 20
2267.860858225084
 30
0.0
 11
2317.061140573667
 21
2253.058258225085
 31
0.0
  0
LINE
  5
7C5E
330
19
100
AcDbEntity
  8
2
100
AcDbLine
 10
2626.731259748931
 20
2385.058258225084
 30
0.0
 11
2278.560375048006
 21
2385.058258225084
 31
0.0
  0
LINE
  5
7C5F
330
19
100
AcDbEntity
  8
1
100
AcDbLine
 10
2447.061140573666
 20
2526.615258225084
 30
0.0
 11
2447.061040573666
 21
2532.471258225085
 31
0.0
  0
LINE
  5
7C60
330
19
100
AcDbEntity
  8
1
100
AcDbLine
 10
2247.061140573666
 20
2208.058258225085
 30
0.0
 11
2247.061140573666
 21
2168.058258225085
 31
0.0
  0
LINE
  5
7C61
330
19
100
AcDbEntity
  8
1
100
AcDbLine
 10
2647.061140573666
 20
2208.058258225085
 30
0.0
 11
2647.061140573666
 21
2168.058258225085
 31
0.0
  0
LINE
  5
7C62
330
19
100
AcDbEntity
  8
1
100
AcDbLine
 10
2647.061140573666
 20
2208.058258225085
 30
0.0
 11
2247.061140573666
 21
2208.058258225085
 31
0.0
  0
LINE
  5
7C64
330
19
100
AcDbEntity
  8
1
100
AcDbLine
 10
2610.896797187461
 20
2253.058258225085
 30
0.0
 11
2497.061140573666
 21
2253.058258225085
 31
0.0
  0
LINE
  5
7C65
330
19
100
AcDbEntity
  8
1
100
AcDbLine
 10
2622.061140573666
 20
2208.058258225085
 30
0.0
 11
2610.896797187461
 21
2253.058258225085
 31
0.0
  0
LINE
  5
7C66
330
19
100
AcDbEntity
  8
1
100
AcDbLine
 10
2272.061140573666
 20
2208.058258225085
 30
0.0
 11
2284.438629182339
 21
2253.058258225085
 31
0.0
  0
LINE
  5
7C67
330
19
100
AcDbEntity
  8
1
100
AcDbLine
 10
2497.061140573666
 20
2248.058258225085
 30
0.0
 11
2397.061140573666
 21
2248.058258225085
 31
0.0
  0
LINE
  5
7C69
330
19
100
AcDbEntity
  8
1
100
AcDbLine
 10
2397.061140573666
 20
2253.058258225085
 30
0.0
 11
2397.061140573666
 21
2248.058258225085
 31
0.0
  0
LINE
  5
7C6A
330
19
100
AcDbEntity
  8
1
100
AcDbLine
 10
2497.061140573666
 20
2253.058258225085
 30
0.0
 11
2497.061140573666
 21
2248.058258225085
 31
0.0
  0
LINE
  5
7C6B
330
19
100
AcDbEntity
  8
1
100
AcDbLine
 10
2397.061140573666
 20
2253.058258225085
 30
0.0
 11
2284.438629182339
 21
2253.058258225085
 31
0.0
  0
LINE
  5
7C70
330
19
100
AcDbEntity
  8
1
100
AcDbLine
 10
3250.893601721877
 20
2031.058258225085
 30
0.0
 11
4310.893601721877
 21
2031.058258225085
 31
0.0
1001
ACAD
1000
ASC_BOUNDS
1002
{
1070
    19
1002
}
  0
LINE
  5
7C71
330
19
100
AcDbEntity
  8
1
100
AcDbLine
 10
3250.893601721877
 20
1931.058258225084
 30
0.0
 11
4310.893601721876
 21
1931.058258225084
 31
0.0
  0
LINE
  5
7C72
330
19
100
AcDbEntity
  8
1
100
AcDbLine
 10
3250.893601721877
 20
2031.058258225085
 30
0.0
 11
3250.893601721877
 21
1931.058258225084
 31
0.0
  0
LINE
  5
7C73
330
19
100
AcDbEntity
  8
1
100
AcDbLine
 10
4310.893601721877
 20
2031.058258225085
 30
0.0
 11
4310.893601721877
 21
1931.058258225084
 31
0.0
  0
DIMENSION
  5
7C74
330
19
100
AcDbEntity
  8
3
100
AcDbDimension
280
     0
  2
*D2
 10
1197.061140573666
 20
1778.526459022358
 30
0.0
 11
1397.061140573666
 21
1828.526459022358
 31
0.0
 12
1463.61380540999
 22
2087.960631774964
 32
0.0
 70
    32
 71
     5
 42
-1.0
 73
     0
 74
     0
 75
     0
  3
MATSU
100
AcDbAlignedDimension
 13
1597.061140573666
 23
1931.058258225084
 33
0.0
 14
1197.061140573666
 24
1931.058258225084
 34
0.0
100
AcDbRotatedDimension
1001
ACAD
1000
DSTYLE
1002
{
1070
    40
1040
25.0
1002
}
  0
DIMENSION
  5
7C75
330
19
100
AcDbEntity
  8
3
100
AcDbDimension
280
     0
  2
*D3
 10
1625.061140573666
 20
3258.016080142095
 30
0.0
 11
1950.061140573666
 21
3308.016080142095
 31
0.0
 12
1463.61380540999
 22
2079.960631774964
 32
0.0
 70
    32
 71
     5
 42
-1.0
 73
     0
 74
     0
 75
     0
  3
MATSU
100
AcDbAlignedDimension
 13
2275.061140573666
 23
3108.058258225085
 33
0.0
 14
1625.061140573666
 24
3108.058258225085
 34
0.0
 50
180.0
100
AcDbRotatedDimension
1001
ACAD
1000
DSTYLE
1002
{
1070
    40
1040
25.0
1002
}
  0
DIMENSION
  5
7C76
330
19
100
AcDbEntity
  8
3
100
AcDbDimension
280
     0
  2
*D4
 10
1597.061140573666
 20
3407.559924345778
 30
0.0
 11
1936.061140573666
 21
3457.559924345777
 31
0.0
 12
1463.61380540999
 22
2079.960631774964
 32
0.0
 70
    32
 71
     5
 42
-1.0
 73
     0
 74
     0
 75
     0
  3
MATSU
100
AcDbAlignedDimension
 13
2275.061140573666
 23
3108.058258225085
 33
0.0
 14
1597.061140573666
 24
3154.951231328081
 34
0.0
 50
180.0
100
AcDbRotatedDimension
1001
ACAD
1000
DSTYLE
1002
{
1070
    40
1040
25.0
1002
}
  0
POINT
  5
7C77
330
19
100
AcDbEntity
  8
1
100
AcDbPoint
 10
1197.061140573666
 20
1931.058258225084
 30
0.0
  0
POINT
  5
7C78
330
19
100
AcDbEntity
  8
1
100
AcDbPoint
 10
1197.061140573666
 20
2068.058258225085
 30
0.0
  0
LINE
  5
7C7A
330
19
100
AcDbEntity
  8
1
100
AcDbLine
 10
3407.893601721877
 20
3108.058258225085
 30
0.0
 11
3407.893601721877
 21
2676.058258225085
 31
0.0
  0
LINE
  5
7C7B
330
19
100
AcDbEntity
  8
1
100
AcDbLine
 10
3407.893601721877
 20
2676.058258225085
 30
0.0
 11
3407.893601721877
 21
2527.558258225085
 31
0.0
  0
DIMENSION
  5
7C7C
330
19
100
AcDbEntity
  8
3
100
AcDbDimension
280
     0
  2
*D5
 10
3832.893601721877
 20
1779.071838249156
 30
0.0
 11
3541.893601721878
 21
1829.071838249156
 31
0.0
 12
1265.597408238595
 22
2087.960631774964
 32
0.0
 70
    32
 71
     5
 42
-1.0
 73
     0
 74
     0
 75
     0
  3
MATSU
100
AcDbAlignedDimension
 13
3250.893601721877
 23
1931.058258225084
 33
0.0
 14
3832.893601721877
 24
1931.058258225084
 34
0.0
100
AcDbRotatedDimension
1001
ACAD
1000
DSTYLE
1002
{
1070
    40
1040
25.0
1002
}
  0
DIMENSION
  5
7C7D
330
19
100
AcDbEntity
  8
3
100
AcDbDimension
280
     0
  2
*D6
 10
4310.893601721877
 20
1779.071838249156
 30
0.0
 11
4071.893601721877
 21
1829.071838249156
 31
0.0
 12
1265.597408238595
 22
2087.960631774964
 32
0.0
 70
    32
 71
     5
 42
-1.0
 73
     0
 74
     0
 75
     0
  3
MATSU
100
AcDbAlignedDimension
 13
3832.893601721877
 23
1931.058258225084
 33
0.0
 14
4310.893601721877
 24
1931.058258225084
 34
0.0
100
AcDbRotatedDimension
1001
ACAD
1000
DSTYLE
1002
{
1070
    40
1040
25.0
1002
}
  0
LINE
  5
7C7F
330
19
100
AcDbEntity
  8
1
100
AcDbLine
 10
3249.893601721878
 20
2673.058258225085
 30
0.0
 11
3249.893601721878
 21
2623.058258225085
 31
0.0
  0
LINE
  5
7C80
330
19
100
AcDbEntity
  8
1
100
AcDbLine
 10
3209.893601721877
 20
2669.058258225085
 30
0.0
 11
3249.893601721878
 21
2669.058258225085
 31
0.0
  0
LINE
  5
7C81
330
19
100
AcDbEntity
  8
1
100
AcDbLine
 10
3209.893601721877
 20
2627.058258225085
 30
0.0
 11
3249.893601721878
 21
2627.058258225085
 31
0.0
  0
LINE
  5
7C82
330
19
100
AcDbEntity
  8
1
100
AcDbLine
 10
3249.893601721878
 20
2673.058258225085
 30
0.0
 11
3407.893601721877
 21
2673.058258225084
 31
0.0
  0
LINE
  5
7C83
330
19
100
AcDbEntity
  8
1
100
AcDbLine
 10
3249.893601721878
 20
2623.058258225085
 30
0.0
 11
3407.893601721877
 21
2623.058258225085
 31
0.0
  0
LINE
  5
7C84
330
19
100
AcDbEntity
  8
1
100
AcDbLine
 10
3395.593601721877
 20
2617.058258225084
 30
0.0
 11
3395.593601721877
 21
2527.558258225085
 31
0.0
  0
LINE
  5
7C85
330
19
100
AcDbEntity
  8
1
100
AcDbLine
 10
3270.593601721877
 20
2607.058258225085
 30
0.0
 11
3270.593601721877
 21
2527.558258225085
 31
0.0
  0
LINE
  5
7C86
330
19
100
AcDbEntity
  8
1
100
AcDbLine
 10
3280.593601721877
 20
2617.058258225084
 30
0.0
 11
3355.593601721877
 21
2617.058258225084
 31
0.0
  0
ARC
  5
7C87
330
19
100
AcDbEntity
  8
1
100
AcDbCircle
 10
3280.593601721877
 20
2607.058258225085
 30
0.0
 40
10.0
100
AcDbArc
 50
90.0
 51
180.0
  0
LINE
  5
7C88
330
19
100
AcDbEntity
  8
1
100
AcDbLine
 10
3355.593601721877
 20
2617.058258225085
 30
0.0
 11
3395.593601721877
 21
2617.058258225084
 31
0.0
  0
LINE
  5
7C89
330
19
100
AcDbEntity
  8
1
100
AcDbLine
 10
4312.893601721877
 20
2634.458258225084
 30
0.0
 11
4312.893601721877
 21
2514.458258225084
 31
0.0
  0
LINE
  5
7C8A
330
19
100
AcDbEntity
  8
1
100
AcDbLine
 10
4402.893601721877
 20
2624.458258225085
 30
0.0
 11
4402.893601721877
 21
2524.458258225084
 31
0.0
  0
LINE
  5
7C8B
330
19
100
AcDbEntity
  8
1
100
AcDbLine
 10
4312.893601721877
 20
2634.458258225084
 30
0.0
 11
4352.693601721878
 21
2634.458258225084
 31
0.0
  0
LINE
  5
7C8C
330
19
100
AcDbEntity
  8
1
100
AcDbLine
 10
4312.893601721877
 20
2514.458258225084
 30
0.0
 11
4352.693601721878
 21
2514.458258225084
 31
0.0
  0
ARC
  5
7C8D
330
19
100
AcDbEntity
  8
1
100
AcDbCircle
 10
4392.893601721877
 20
2624.458258225085
 30
0.0
 40
10.0
100
AcDbArc
 50
0.0
 51
90.0
  0
ARC
  5
7C8E
330
19
100
AcDbEntity
  8
1
100
AcDbCircle
 10
4392.893601721877
 20
2524.458258225084
 30
0.0
 40
10.0
100
AcDbArc
 50
270.0
 51
0.0
  0
LINE
  5
7C8F
330
19
100
AcDbEntity
  8
1
100
AcDbLine
 10
4352.693601721878
 20
2514.458258225084
 30
0.0
 11
4392.893601721877
 21
2514.458258225084
 31
0.0
  0
LINE
  5
7C90
330
19
100
AcDbEntity
  8
1
100
AcDbLine
 10
4352.693601721878
 20
2634.458258225084
 30
0.0
 11
4392.893601721877
 21
2634.458258225084
 31
0.0
  0
DIMENSION
  5
7C91
330
19
100
AcDbEntity
  8
3
100
AcDbDimension
280
     0
  2
*D7
 10
1597.061140573666
 20
1778.01014954701
 30
0.0
 11
2172.061140573666
 21
1828.01014954701
 31
0.0
 12
1463.61380540999
 22
2087.960631774964
 32
0.0
 70
    32
 71
     5
 42
-1.0
 73
     0
 74
     0
 75
     0
  3
MATSU
100
AcDbAlignedDimension
 13
2747.061140573666
 23
1931.058258225084
 33
0.0
 14
1597.061140573666
 24
1931.058258225084
 34
0.0
100
AcDbRotatedDimension
1001
ACAD
1000
DSTYLE
1002
{
1070
    40
1040
25.0
1002
}
  0
CIRCLE
  5
7C93
330
19
100
AcDbEntity
  8
1
100
AcDbCircle
 10
2447.061140573666
 20
2385.058258225084
 30
0.0
 40
79.0
  0
CIRCLE
  5
7C94
330
19
100
AcDbEntity
  8
1
100
AcDbCircle
 10
1597.061140573666
 20
2648.058258225085
 30
0.0
 40
88.9
  0
ARC
  5
7C95
330
19
100
AcDbEntity
  8
1
100
AcDbCircle
 10
1597.061140573666
 20
2648.058258225085
 30
0.0
 40
150.0
100
AcDbArc
 50
77.52830244339076
 51
257.5283024433907
  0
ARC
  5
7C96
330
19
100
AcDbEntity
  8
1
100
AcDbCircle
 10
2447.061140573666
 20
2385.058258225084
 30
0.0
 40
150.0
100
AcDbArc
 50
257.5283024433907
 51
77.52830244339076
  0
LINE
  5
7C97
330
19
100
AcDbEntity
  8
1
100
AcDbLine
 10
1629.454739444965
 20
2794.518678653832
 30
0.0
 11
2479.454739444966
 21
2531.518678653832
 31
0.0
  0
LINE
  5
7C98
330
19
100
AcDbEntity
  8
1
100
AcDbLine
 10
1617.245639240555
 20
2734.636523474316
 30
0.0
 11
2464.997871672477
 21
2461.995074363322
 31
0.0
  0
LINE
  5
7C99
330
19
100
AcDbEntity
  8
1
100
AcDbLine
 10
1578.850909698038
 20
2561.043331393786
 30
0.0
 11
2430.878820672939
 21
2307.733407610094
 31
0.0
  0
LINE
  5
7C9A
330
19
100
AcDbEntity
  8
1
100
AcDbLine
 10
1564.667541702367
 20
2501.597837796337
 30
0.0
 11
2414.667541702367
 21
2238.597837796338
 31
0.0
  0
LINE
  5
7C9B
330
19
100
AcDbEntity
  8
1
100
AcDbLine
 10
3127.893601721878
 20
2736.958258225085
 30
0.0
 11
3127.893601721876
 21
2306.058258225085
 31
0.0
  0
LINE
  5
7C9C
330
19
100
AcDbEntity
  8
1
100
AcDbLine
 10
3209.893601721878
 20
2736.958258225085
 30
0.0
 11
3209.893601721875
 21
2306.058258225085
 31
0.0
  0
LINE
  5
7C9D
330
19
100
AcDbEntity
  8
1
100
AcDbLine
 10
3127.893601721878
 20
2736.958258225085
 30
0.0
 11
3209.893601721878
 21
2736.958258225085
 31
0.0
  0
LINE
  5
7C9E
330
19
100
AcDbEntity
  8
1
100
AcDbLine
 10
3127.893601721877
 20
2484.158258225085
 30
0.0
 11
3209.893601721877
 21
2484.158258225085
 31
0.0
  0
LINE
  5
7C9F
330
19
100
AcDbEntity
  8
1
100
AcDbLine
 10
3127.893601721877
 20
2539.058258225085
 30
0.0
 11
3209.893601721877
 21
2539.058258225085
 31
0.0
  0
LINE
  5
7CA0
330
19
100
AcDbEntity
  8
1
100
AcDbLine
 10
3127.893601721876
 20
2306.058258225085
 30
0.0
 11
3209.893601721875
 21
2306.058258225085
 31
0.0
  0
LINE
  5
7CA1
330
19
100
AcDbEntity
  8
1
100
AcDbLine
 10
3032.893601721878
 20
2798.058258225085
 30
0.0
 11
3032.893601721876
 21
2235.058258225084
 31
0.0
  0
LINE
  5
7CA2
330
19
100
AcDbEntity
  8
1
100
AcDbLine
 10
3257.893601721877
 20
2798.058258225085
 30
0.0
 11
3257.893601721878
 21
2778.058258225085
 31
0.0
  0
LINE
  5
7CA3
330
19
100
AcDbEntity
  8
1
100
AcDbLine
 10
3032.893601721878
 20
2798.058258225085
 30
0.0
 11
3257.893601721877
 21
2798.058258225085
 31
0.0
  0
LINE
  5
7CA4
330
19
100
AcDbEntity
  8
1
100
AcDbLine
 10
3032.893601721876
 20
2235.058258225084
 30
0.0
 11
3257.893601721876
 21
2235.058258225084
 31
0.0
  0
LINE
  5
7CA5
330
19
100
AcDbEntity
  8
1
100
AcDbLine
 10
3257.893601721876
 20
2255.058258225085
 30
0.0
 11
3257.893601721876
 21
2235.058258225084
 31
0.0
  0
DIMENSION
  5
7CA6
330
19
100
AcDbEntity
  8
3
100
AcDbDimension
280
     0
  2
*D8
 10
4257.893601721877
 20
3221.235878211337
 30
0.0
 11
3832.893601721877
 21
3271.235878211337
 31
0.0
 12
1265.597408238595
 22
2079.960631774964
 32
0.0
 70
    32
 71
     5
 42
-1.0
 73
     0
 74
     0
 75
     0
  3
MATSU
100
AcDbAlignedDimension
 13
3407.893601721877
 23
3108.058258225085
 33
0.0
 14
4257.893601721877
 24
3108.058258225085
 34
0.0
100
AcDbRotatedDimension
1001
ACAD
1000
DSTYLE
1002
{
1070
    40
1040
25.0
1002
}
  0
POINT
  5
7CA7
330
19
100
AcDbEntity
  8
1
100
AcDbPoint
 10
3032.893601721878
 20
2798.058258225085
 30
0.0
  0
POINT
  5
7CA8
330
19
100
AcDbEntity
  8
1
100
AcDbPoint
 10
4402.893601721877
 20
2624.458258225085
 30
0.0
  0
LINE
  5
7CA9
330
19
100
AcDbEntity
  8
2
100
AcDbLine
 10
2447.061140573666
 20
4657.788081323672
 30
0.0
 11
2447.061140573666
 21
3966.897005733748
 31
0.0
  0
LINE
  5
7CAA
330
19
100
AcDbEntity
  8
1
100
AcDbLine
 10
1997.061140573666
 20
5269.375600305599
 30
0.0
 11
1197.061140573665
 21
5269.375600305599
 31
0.0
  0
LINE
  5
7CAB
330
19
100
AcDbEntity
  8
1
100
AcDbLine
 10
2747.061140573666
 20
4209.375600305597
 30
0.0
 11
1197.061140573666
 21
4209.375600305597
 31
0.0
  0
LINE
  5
7CAC
330
19
100
AcDbEntity
  8
1
100
AcDbLine
 10
1197.061140573666
 20
5269.375600305599
 30
0.0
 11
1197.061140573666
 21
5216.375600305597
 31
0.0
  0
LINE
  5
7CAD
330
19
100
AcDbEntity
  8
1
100
AcDbLine
 10
1997.061140573666
 20
5269.375600305597
 30
0.0
 11
1997.061140573666
 21
5216.375600305597
 31
0.0
  0
LINE
  5
7CAE
330
19
100
AcDbEntity
  8
1
100
AcDbLine
 10
2747.061140573666
 20
4859.375600305597
 30
0.0
 11
2747.061140573666
 21
4209.375600305597
 31
0.0
  0
LINE
  5
7CAF
330
19
100
AcDbEntity
  8
1
100
AcDbLine
 10
2747.061140573667
 20
4859.375600305597
 30
0.0
 11
2275.061140573666
 21
4859.375600305597
 31
0.0
  0
DIMENSION
  5
7CB0
330
19
100
AcDbEntity
  8
3
100
AcDbDimension
280
     0
  2
*D9
 10
898.4230572636043
 20
5269.375600305599
 30
0.0
 11
848.4230572636043
 21
4739.375600305598
 31
0.0
 12
1463.61380540999
 22
2079.960631774964
 32
0.0
 70
    32
 71
     5
 42
-1.0
 73
     0
 74
     0
 75
     0
  3
MATSU
100
AcDbAlignedDimension
 13
1197.061140573666
 23
4209.375600305597
 33
0.0
 14
1197.061140573665
 24
5269.375600305599
 34
0.0
 50
270.0
100
AcDbRotatedDimension
1001
ACAD
1000
DSTYLE
1002
{
1070
    40
1040
25.0
1002
}
  0
DIMENSION
  5
7CB1
330
19
100
AcDbEntity
  8
3
100
AcDbDimension
280
     0
  2
*D10
 10
1197.061140573665
 20
5400.569548650183
 30
0.0
 11
1597.061140573666
 21
5450.569548650182
 31
0.0
 12
1463.61380540999
 22
2079.960631774964
 32
0.0
 70
    32
 71
     5
 42
-1.0
 73
     0
 74
     0
 75
     0
  3
MATSU
100
AcDbAlignedDimension
 13
1997.061140573666
 23
5269.375600305599
 33
0.0
 14
1197.061140573665
 24
5269.375600305599
 34
0.0
100
AcDbRotatedDimension
1001
ACAD
1000
DSTYLE
1002
{
1070
    40
1040
25.0
1002
}
  0
DIMENSION
  5
7CB2
330
19
100
AcDbEntity
  8
3
100
AcDbDimension
280
     0
  2
*D11
 10
2940.905499232128
 20
4209.375600305597
 30
0.0
 11
2890.905499232128
 21
4534.375600305597
 31
0.0
 12
1463.61380540999
 22
2079.960631774964
 32
0.0
 70
    32
 71
     5
 42
-1.0
 73
     0
 74
     0
 75
     0
  3
MATSU
100
AcDbAlignedDimension
 13
2747.061140573667
 23
4859.375600305597
 33
0.0
 14
2747.061140573666
 24
4209.375600305597
 34
0.0
 50
270.0
100
AcDbRotatedDimension
1001
ACAD
1000
DSTYLE
1002
{
1070
    40
1040
25.0
1002
}
  0
DIMENSION
  5
7CB3
330
19
100
AcDbEntity
  8
3
100
AcDbDimension
280
     0
  2
*D12
 10
1197.061140573666
 20
3813.463638278238
 30
0.0
 11
1972.061140573666
 21
3813.463638278238
 31
0.0
 12
1463.61380540999
 22
2079.960631774964
 32
0.0
 70
   160
 71
     5
 42
-1.0
 73
     0
 74
     0
 75
     0
  3
MATSU
100
AcDbAlignedDimension
 13
2747.061140573666
 23
4209.375600305597
 33
0.0
 14
1197.061140573666
 24
4209.375600305597
 34
0.0
100
AcDbRotatedDimension
1001
ACAD
1000
DSTYLE
1002
{
1070
    40
1040
25.0
1002
}
  0
DIMENSION
  5
7CB4
330
19
100
AcDbEntity
  8
3
100
AcDbDimension
280
     0
  2
*D13
 10
1997.061140573666
 20
5400.569548650183
 30
0.0
 11
2372.061140573666
 21
5450.569548650182
 31
0.0
 12
1463.61380540999
 22
2079.960631774964
 32
0.0
 70
    32
 71
     5
 42
-1.0
 73
     0
 74
     0
 75
     0
  3
MATSU
100
AcDbAlignedDimension
 13
2747.061140573667
 23
4859.375600305597
 33
0.0
 14
1997.061140573666
 24
5269.375600305599
 34
0.0
100
AcDbRotatedDimension
1001
ACAD
1000
DSTYLE
1002
{
1070
    40
1040
25.0
1002
}
  0
DIMENSION
  5
7CB5
330
19
100
AcDbEntity
  8
3
100
AcDbDimension
280
     0
  2
*D14
 10
836.8591839546169
 20
2068.058258225085
 30
0.0
 11
786.859183954617
 21
2358.058258225085
 31
0.0
 12
1463.61380540999
 22
2079.960631774964
 32
0.0
 70
    32
 71
     5
 42
-1.0
 73
     0
 74
     0
 75
     0
  3
MATSU
100
AcDbAlignedDimension
 13
1090.16816747067
 23
2648.058258225085
 33
0.0
 14
1197.061140573666
 24
2068.058258225085
 34
0.0
 50
270.0
100
AcDbRotatedDimension
1001
ACAD
1000
DSTYLE
1002
{
1070
    40
1040
25.0
1002
}
  0
POINT
  5
7CB6
330
19
100
AcDbEntity
  8
1
100
AcDbPoint
 10
1197.061140573666
 20
2031.058258225085
 30
0.0
  0
POINT
  5
7CB7
330
19
100
AcDbEntity
  8
1
100
AcDbPoint
 10
1197.061140573666
 20
1931.058258225084
 30
0.0
  0
POINT
  5
7CB9
330
19
100
AcDbEntity
  8
1
100
AcDbPoint
 10
1197.061140573666
 20
2031.058258225085
 30
0.0
  0
POINT
  5
7CBA
330
19
100
AcDbEntity
  8
1
100
AcDbPoint
 10
1197.061140573666
 20
2068.058258225085
 30
0.0
  0
CIRCLE
  5
7CBC
330
19
100
AcDbEntity
  8
1
100
AcDbCircle
 10
1597.061140573666
 20
2648.058258225085
 30
0.0
 40
315.0
  0
CIRCLE
  5
7CBD
330
19
100
AcDbEntity
  8
1
100
AcDbCircle
 10
1597.061140573666
 20
2648.058258225085
 30
0.0
 40
355.0
  0
DIMENSION
  5
7CBF
330
19
100
AcDbEntity
  8
3
100
AcDbDimension
280
     0
  2
*D15
 10
836.8591839546169
 20
1931.058258225084
 30
0.0
 11
774.3591839546167
 21
1716.77254393937
 31
0.0
 70
    32
 71
     5
 42
-1.0
 73
     0
 74
     0
 75
     0
  3
IGA
100
AcDbAlignedDimension
 13
1197.061140573666
 23
2031.058258225085
 33
0.0
 14
1197.061140573666
 24
1931.058258225084
 34
0.0
 50
270.0
100
AcDbRotatedDimension
1001
ACAD
1000
DSTYLE
1002
{
1070
   287
1070
     3
1070
    40
1040
25.0
1070
   143
1040
0.039
1070
   172
1070
     1
1070
   271
1070
     0
1070
   279
1070
     0
1070
   288
1070
     1
1070
     6
1000
DOT
1002
}
  0
DIMENSION
  5
7CC0
330
19
100
AcDbEntity
  8
3
100
AcDbDimension
280
     0
  2
*D16
 10
3832.893601721877
 20
3418.868072071111
 30
0.0
 11
4117.893601721877
 21
3488.510929213968
 31
0.0
 70
    32
  1
(<>)
 71
     5
 42
570.0000000000004
 73
     0
 74
     0
 75
     0
  3
MATSU
100
AcDbAlignedDimension
 13
4402.893601721877
 23
2624.458258225085
 33
0.0
 14
3832.893601721877
 24
3319.681022808686
 34
0.0
100
AcDbRotatedDimension
1001
ACAD
1000
DSTYLE
1002
{
1070
    40
1040
25.0
1002
}
  0
DIMENSION
  5
7CC1
330
19
100
AcDbEntity
  8
3
100
AcDbDimension
280
     0
  2
*D17
 10
3032.893601721878
 20
3418.868072071111
 30
0.0
 11
3432.893601721878
 21
3488.510929213968
 31
0.0
 70
    32
  1
(<>)
 71
     5
 42
799.9999999999995
 73
     0
 74
     0
 75
     0
  3
MATSU
100
AcDbAlignedDimension
 13
3832.893601721877
 23
3319.681022808686
 33
0.0
 14
3032.893601721878
 24
2798.058258225085
 34
0.0
100
AcDbRotatedDimension
1001
ACAD
1000
DSTYLE
1002
{
1070
    40
1040
25.0
1002
}
  0
LINE
  5
7CC2
330
19
100
AcDbEntity
  8
1
100
AcDbLine
 10
2275.061140573666
 20
5216.375600305597
 30
0.0
 11
1143.061140573666
 21
5216.375600305597
 31
0.0
  0
LINE
  5
7CC3
330
19
100
AcDbEntity
  8
1
100
AcDbLine
 10
2275.061140573666
 20
4366.375600305597
 30
0.0
 11
1143.061140573666
 21
4366.375600305598
 31
0.0
  0
LINE
  5
7CC4
330
19
100
AcDbEntity
  8
1
100
AcDbLine
 10
2304.561140573667
 20
4573.375600305597
 30
0.0
 11
2304.561140573667
 21
4173.375600305597
 31
0.0
  0
LINE
  5
7CC5
330
19
100
AcDbEntity
  8
1
100
AcDbLine
 10
2589.561140573666
 20
4573.375600305597
 30
0.0
 11
2589.561140573666
 21
4173.375600305597
 31
0.0
  0
LINE
  5
7CC6
330
19
100
AcDbEntity
  8
1
100
AcDbLine
 10
2597.061140573666
 20
3991.375600305597
 30
0.0
 11
1447.061140573666
 21
3991.375600305598
 31
0.0
  0
LINE
  5
7CC7
330
19
100
AcDbEntity
  8
1
100
AcDbLine
 10
2597.061140573666
 20
4216.375600305597
 30
0.0
 11
1447.061140573666
 21
4216.375600305598
 31
0.0
  0
LINE
  5
7CC8
330
19
100
AcDbEntity
  8
1
100
AcDbLine
 10
1447.061140573666
 20
3991.375600305598
 30
0.0
 11
1447.061140573666
 21
4216.375600305598
 31
0.0
  0
LINE
  5
7CC9
330
19
100
AcDbEntity
  8
1
100
AcDbLine
 10
2597.061140573666
 20
3991.375600305597
 30
0.0
 11
2597.061140573666
 21
4216.375600305597
 31
0.0
  0
LINE
  5
7CCA
330
19
100
AcDbEntity
  8
1
100
AcDbLine
 10
2368.061140573666
 20
4168.375600305597
 30
0.0
 11
2368.061140573666
 21
4086.375600305596
 31
0.0
  0
LINE
  5
7CCB
330
19
100
AcDbEntity
  8
1
100
AcDbLine
 10
2526.061140573667
 20
4168.375600305597
 30
0.0
 11
2526.061140573667
 21
4086.375600305596
 31
0.0
  0
LINE
  5
7CCC
330
19
100
AcDbEntity
  8
1
100
AcDbLine
 10
1508.061140573666
 20
4168.375600305597
 30
0.0
 11
1508.061140573666
 21
4086.375600305597
 31
0.0
  0
LINE
  5
7CCD
330
19
100
AcDbEntity
  8
1
100
AcDbLine
 10
1686.061140573666
 20
4168.375600305597
 30
0.0
 11
1686.061140573666
 21
4086.375600305597
 31
0.0
  0
LINE
  5
7CCE
330
19
100
AcDbEntity
  8
1
100
AcDbLine
 10
2526.061140573667
 20
4168.375600305597
 30
0.0
 11
2368.061140573666
 21
4168.375600305597
 31
0.0
  0
LINE
  5
7CCF
330
19
100
AcDbEntity
  8
1
100
AcDbLine
 10
2526.061140573667
 20
4086.375600305597
 30
0.0
 11
2368.061140573666
 21
4086.375600305596
 31
0.0
  0
LINE
  5
7CD0
330
19
100
AcDbEntity
  8
1
100
AcDbLine
 10
1686.061140573666
 20
4168.375600305597
 30
0.0
 11
1508.061140573666
 21
4168.375600305597
 31
0.0
  0
LINE
  5
7CD1
330
19
100
AcDbEntity
  8
1
100
AcDbLine
 10
1686.061140573666
 20
4086.375600305597
 30
0.0
 11
1508.061140573666
 21
4086.375600305597
 31
0.0
  0
LINE
  5
7CD2
330
19
100
AcDbEntity
  8
1
100
AcDbLine
 10
1572.061140573666
 20
4366.375600305597
 30
0.0
 11
1572.061140573666
 21
4168.375600305597
 31
0.0
  0
LINE
  5
7CD3
330
19
100
AcDbEntity
  8
1
100
AcDbLine
 10
1622.061140573666
 20
4366.375600305597
 30
0.0
 11
1622.061140573666
 21
4168.375600305597
 31
0.0
  0
LINE
  5
7CD4
330
19
100
AcDbEntity
  8
1
100
AcDbLine
 10
2589.561140573666
 20
4573.375600305597
 30
0.0
 11
2304.561140573667
 21
4573.375600305597
 31
0.0
  0
LINE
  5
7CD5
330
19
100
AcDbEntity
  8
1
100
AcDbLine
 10
2589.561140573668
 20
4173.375600305597
 30
0.0
 11
2304.561140573667
 21
4173.375600305597
 31
0.0
  0
LINE
  5
7CD6
330
19
100
AcDbEntity
  8
1
100
AcDbLine
 10
2428.061140573666
 20
4173.375600305597
 30
0.0
 11
2428.061140573666
 21
4168.375600305597
 31
0.0
  0
LINE
  5
7CD7
330
19
100
AcDbEntity
  8
1
100
AcDbLine
 10
2466.061140573666
 20
4173.375600305597
 30
0.0
 11
2466.061140573666
 21
4168.375600305597
 31
0.0
  0
LINE
  5
7CD8
330
19
100
AcDbEntity
  8
1
100
AcDbLine
 10
3214.893601721876
 20
2242.558258225085
 30
0.0
 11
3214.893601721877
 21
2527.558258225085
 31
0.0
  0
LINE
  5
7CD9
330
19
100
AcDbEntity
  8
1
100
AcDbLine
 10
3214.893601721876
 20
2242.558258225085
 30
0.0
 11
3614.893601721876
 21
2242.558258225085
 31
0.0
  0
LINE
  5
7CDA
330
19
100
AcDbEntity
  8
1
100
AcDbLine
 10
3214.893601721877
 20
2527.558258225085
 30
0.0
 11
3614.893601721877
 21
2527.558258225085
 31
0.0
  0
LINE
  5
7CDB
330
19
100
AcDbEntity
  8
2
100
AcDbLine
 10
3026.562282732038
 20
2385.058258225084
 30
0.0
 11
3614.893601721876
 21
2385.058258225084
 31
0.0
  0
LINE
  5
7CDC
330
19
100
AcDbEntity
  8
1
100
AcDbLine
 10
3209.893601721875
 20
2404.058258225085
 30
0.0
 11
3214.893601721876
 21
2404.058258225085
 31
0.0
  0
LINE
  5
7CDD
330
19
100
AcDbEntity
  8
1
100
AcDbLine
 10
3209.893601721875
 20
2366.058258225085
 30
0.0
 11
3214.893601721876
 21
2366.058258225085
 31
0.0
  0
LINE
  5
7CDE
330
19
100
AcDbEntity
  8
1
100
AcDbLine
 10
3395.593601721877
 20
2527.558258225085
 30
0.0
 11
3407.893601721877
 21
2527.558258225085
 31
0.0
  0
LINE
  5
7CE5
330
19
100
AcDbEntity
  8
1
100
AcDbLine
 10
1197.061140573666
 20
4366.375600305598
 30
0.0
 11
1197.061140573666
 21
4209.375600305597
 31
0.0
  0
DIMENSION
  5
7CE6
330
19
100
AcDbEntity
  8
3
100
AcDbDimension
280
     0
  2
*D18
 10
836.8591839546169
 20
3108.058258225085
 30
0.0
 11
786.8591839546166
 21
2878.058258225085
 31
0.0
 70
    32
 71
     5
 42
-1.0
 73
     0
 74
     0
 75
     0
  3
MATSU
100
AcDbAlignedDimension
 13
1090.16816747067
 23
2648.058258225085
 33
0.0
 14
1583.061140573666
 24
3108.058258225085
 34
0.0
 50
270.0
100
AcDbRotatedDimension
1001
ACAD
1000
DSTYLE
1002
{
1070
   287
1070
     4
1070
    40
1040
25.0
1070
    75
1070
     1
1070
   279
1070
     1
1070
   289
1070
     3
1002
}
  0
DIMENSION
  5
7CE8
330
19
100
AcDbEntity
  8
3
100
AcDbDimension
280
     0
  2
*D19
 10
1143.061140573666
 20
3407.559924345778
 30
0.0
 11
1370.061140573666
 21
3457.559924345777
 31
0.0
 70
    32
 71
     5
 42
-1.0
 73
     0
 74
     0
 75
     0
  3
MATSU
100
AcDbAlignedDimension
 13
1597.061140573666
 23
3154.951231328081
 33
0.0
 14
1143.061140573666
 24
2601.058258225084
 34
0.0
100
AcDbRotatedDimension
1001
ACAD
1000
DSTYLE
1002
{
1070
   287
1070
     4
1070
    40
1040
25.0
1070
    75
1070
     1
1070
   279
1070
     1
1070
   289
1070
     3
1002
}
  0
DIMENSION
  5
7CE9
330
19
100
AcDbEntity
  8
3
100
AcDbDimension
280
     0
  2
*D20
 10
2747.061140573666
 20
3541.206384042403
 30
0.0
 11
1945.061140573666
 21
3591.206384042403
 31
0.0
 12
1463.61380540999
 22
2079.960631774964
 32
0.0
 70
    32
 71
     5
 42
-1.0
 73
     0
 74
     0
 75
     0
  3
MATSU
100
AcDbAlignedDimension
 13
1143.061140573666
 23
2601.058258225084
 33
0.0
 14
2747.061140573666
 24
2168.058258225085
 34
0.0
100
AcDbRotatedDimension
1001
ACAD
1000
DSTYLE
1002
{
1070
    40
1040
25.0
1002
}
  0
LINE
  5
7CEA
330
19
100
AcDbEntity
  8
1
100
AcDbLine
 10
3367.893601721877
 20
3108.058258225085
 30
0.0
 11
3367.893601721877
 21
3105.058258225085
 31
0.0
  0
LINE
  5
7CEB
330
19
100
AcDbEntity
  8
1
100
AcDbLine
 10
4297.893601721877
 20
3108.058258225085
 30
0.0
 11
4297.893601721877
 21
3105.058258225085
 31
0.0
  0
LINE
  5
7CEC
330
19
100
AcDbEntity
  8
1
100
AcDbLine
 10
3367.893601721877
 20
3105.058258225085
 30
0.0
 11
4297.893601721876
 21
3105.058258225085
 31
0.0
  0
LINE
  5
7CED
330
19
100
AcDbEntity
  8
1
100
AcDbLine
 10
2275.061140573666
 20
5216.375600305597
 30
0.0
 11
2275.061140573666
 21
4366.375600305597
 31
0.0
  0
LINE
  5
7CEE
330
19
100
AcDbEntity
  8
1
100
AcDbLine
 10
1143.061140573666
 20
5216.375600305597
 30
0.0
 11
1143.061140573666
 21
4366.375600305598
 31
0.0
  0
LINE
  5
7CEF
330
19
100
AcDbEntity
  8
1
100
AcDbLine
 10
1625.061140573666
 20
5216.375600305597
 30
0.0
 11
1625.061140573666
 21
4366.375600305597
 31
0.0
  0
LINE
  5
7CF0
330
19
100
AcDbEntity
  8
1
100
AcDbLine
 10
1625.061140573666
 20
5216.375600305597
 30
0.0
 11
2275.061140573666
 21
4366.375600305597
 31
0.0
  0
LINE
  5
7CF1
330
19
100
AcDbEntity
  8
1
100
AcDbLine
 10
2275.061140573666
 20
5216.375600305597
 30
0.0
 11
1625.061140573666
 21
4366.375600305597
 31
0.0
  0
LINE
  5
7CF2
330
19
100
AcDbEntity
  8
1
100
AcDbLine
 10
3614.893601721876
 20
2242.558258225083
 30
0.0
 11
3614.893601721877
 21
2527.558258225083
 31
0.0
  0
LINE
  5
7CF3
330
19
100
AcDbEntity
  8
1
100
AcDbLine
 10
3286.066906556378
 20
2208.058258225085
 30
0.0
 11
3569.989263643701
 21
2208.058258225085
 31
0.0
  0
LINE
  5
7CF4
330
19
100
AcDbEntity
  8
1
100
AcDbLine
 10
3569.9892636437
 20
2242.558258225085
 30
0.0
 11
3569.989263643701
 21
2168.058258225085
 31
0.0
  0
LINE
  5
7CF5
330
19
100
AcDbEntity
  8
1
100
AcDbLine
 10
3286.066906556378
 20
2242.558258225085
 30
0.0
 11
3286.066906556378
 21
2168.058258225085
 31
0.0
  0
DIMENSION
  5
7CF6
330
19
100
AcDbEntity
  8
3
100
AcDbDimension
280
     0
  2
*D21
 10
4493.189631021154
 20
2333.058258225085
 30
0.0
 11
4443.189631021154
 21
2648.058258225085
 31
0.0
 12
1265.597408238595
 22
2079.960631774964
 32
0.0
 70
    32
 71
     5
 42
-1.0
 73
     0
 74
     0
 75
     0
  3
MATSU
100
AcDbAlignedDimension
 13
4257.893601721877
 23
2963.058258225085
 33
0.0
 14
4257.893601721877
 24
2333.058258225085
 34
0.0
 50
90.0
100
AcDbRotatedDimension
1001
ACAD
1000
DSTYLE
1002
{
1070
    40
1040
25.0
1070
     3
1000
φ<>
1002
}
  0
LINE
  5
7F23
330
19
100
AcDbEntity
  8
4
100
AcDbLine
 10
4625.0
 20
1250.0
 30
0.0
 11
4625.0
 21
750.0
 31
0.0
  0
LINE
  5
7F24
330
19
100
AcDbEntity
  8
4
100
AcDbLine
 10
2875.0
 20
1250.0
 30
0.0
 11
2875.0
 21
750.0
 31
0.0
  0
LINE
  5
7F25
330
19
100
AcDbEntity
  8
4
100
AcDbLine
 10
1625.0
 20
1250.0
 30
0.0
 11
1625.0
 21
750.0
 31
0.0
  0
LINE
  5
7F28
330
19
100
AcDbEntity
  8
4
100
AcDbLine
 10
1625.0
 20
750.0
 30
0.0
 11
4625.0
 21
750.0
 31
0.0
  0
LINE
  5
7F29
330
19
100
AcDbEntity
  8
4
100
AcDbLine
 10
1625.0
 20
1000.0
 30
0.0
 11
4625.0
 21
1000.0
 31
0.0
  0
TEXT
  5
7F2A
330
19
100
AcDbEntity
  8
4
100
AcDbText
 10
1721.255202117254
 20
1078.857564666532
 30
0.0
 40
125.0
  1
機器名称
100
AcDbText
  0
TEXT
  5
7F2B
330
19
100
AcDbEntity
  8
4
100
AcDbText
 10
1715.645265061994
 20
804.1128918300273
 30
0.0
 40
125.0
  1
機器型番
100
AcDbText
  0
TEXT
  5
7F2C
330
19
100
AcDbEntity
  8
4
100
AcDbText
 10
2945.446337526229
 20
1052.276810590358
 30
0.0
 40
100.0
  1
ミツヤリミットロードファン
100
AcDbText
  0
TEXT
  5
7F2D
330
19
100
AcDbEntity
  8
4
100
AcDbText
 10
2966.636238963701
 20
792.8989606998584
 30
0.0
 40
125.0
  1
LL#4-5
100
AcDbText
  0
TEXT
  5
7F2F
330
19
100
AcDbEntity
  8
4
100
AcDbText
 10
1931.937108597263
 20
5958.572103331289
 30
0.0
 40
135.0
  1
床置防振ベット
100
AcDbText
  0
TEXT
  5
7F30
330
19
100
AcDbEntity
  8
4
100
AcDbText
 10
790.4189833236159
 20
6334.702440498245
 30
0.0
 40
180.0
  1
遠心式両吸込両持リミットロードファン
100
AcDbText
  0
LINE
  5
7F31
330
19
100
AcDbEntity
  8
4
100
AcDbLine
 10
625.0
 20
6173.521885662012
 30
0.0
 11
4625.0
 21
6173.521885662012
 31
0.0
  0
LINE
  5
7F32
330
19
100
AcDbEntity
  8
4
100
AcDbLine
 10
625.0
 20
6673.521885662012
 30
0.0
 11
4625.0
 21
6673.521885662012
 31
0.0
  0
LINE
  5
7F33
330
19
100
AcDbEntity
  8
4
100
AcDbLine
 10
1625.0
 20
1250.0
 30
0.0
 11
4625.0
 21
1250.0
 31
0.0
  0
LINE
  5
7F34
330
19
100
AcDbEntity
  8
4
100
AcDbLine
 10
625.0
 20
6673.521885662012
 30
0.0
 11
625.0
 21
6173.521885662012
 31
0.0
  0
TEXT
  5
7F35
330
19
100
AcDbEntity
  8
4
100
AcDbText
 10
842.2900279905078
 20
5955.798693865858
 30
0.0
 40
135.0
  1
左回転上向
100
AcDbText
  0
TEXT
  5
7F36
330
19
100
AcDbEntity
  8
4
100
AcDbText
 10
3672.423898123225
 20
6765.152703738272
 30
0.0
 40
140.0
  1
No.
100
AcDbText
  0
TEXT
  5
7F37
330
19
100
AcDbEntity
  8
4
100
AcDbText
 10
3278.240156500033
 20
5958.572103331289
 30
0.0
 40
135.0
  1
縮尺：1/25
100
AcDbText
  0
LINE
  5
7F38
330
19
100
AcDbEntity
  8
4
100
AcDbLine
 10
4625.0
 20
6673.521885662012
 30
0.0
 11
4625.0
 21
6173.521885662012
 31
0.0
  0
LINE
  5
7F39
330
19
100
AcDbEntity
  8
4
100
AcDbLine
 10
5250.0
 20
7375.0
 30
0.0
 11
5250.0
 21
7375.0
 31
0.0
  0
LINE
  5
7F3A
330
19
100
AcDbEntity
  8
4
100
AcDbLine
 10
3601.543555899662
 20
6703.158957813503
 30
0.0
 11
3601.543555899662
 21
6966.630653874381
 31
0.0
  0
LINE
  5
7F3B
330
19
100
AcDbEntity
  8
4
100
AcDbLine
 10
3601.543555899662
 20
6966.630653874381
 30
0.0
 11
4625.0
 21
6966.630653874381
 31
0.0
  0
LINE
  5
7F3C
330
19
100
AcDbEntity
  8
4
100
AcDbLine
 10
4625.0
 20
6966.630653874381
 30
0.0
 11
4625.0
 21
6703.158957813503
 31
0.0
  0
LINE
  5
7F3D
330
19
100
AcDbEntity
  8
4
100
AcDbLine
 10
4625.0
 20
6703.158957813503
 30
0.0
 11
3601.543555899662
 21
6703.158957813503
 31
0.0
  0
LINE
  5
7F3E
330
19
100
AcDbEntity
  8
4
100
AcDbLine
 10
0.0
 20
0.0
 30
0.0
 11
0.0
 21
7375.0
 31
0.0
  0
LINE
  5
7F3F
330
19
100
AcDbEntity
  8
4
100
AcDbLine
 10
0.0
 20
7375.0
 30
0.0
 11
5250.0
 21
7375.0
 31
0.0
  0
LINE
  5
7F40
330
19
100
AcDbEntity
  8
4
100
AcDbLine
 10
5250.0
 20
7375.0
 30
0.0
 11
5250.0
 21
0.0
 31
0.0
  0
LINE
  5
7F41
330
19
100
AcDbEntity
  8
4
100
AcDbLine
 10
5250.0
 20
0.0
 30
0.0
 11
0.0
 21
0.0
 31
0.0
  0
DIMENSION
  5
7FE2
330
19
100
AcDbEntity
  8
3
100
AcDbDimension
280
     0
  2
*D24
 10
839.1100781238419
 20
2068.058258225085
 30
0.0
 11
719.4672209809848
 21
2049.558258225085
 31
0.0
 70
    32
 71
     5
 42
-1.0
 73
     0
 74
     0
 75
     0
  3
IGA
100
AcDbAlignedDimension
 13
1197.061140573666
 23
2031.058258225085
 33
0.0
 14
1197.061140573666
 24
2068.058258225085
 34
0.0
 50
90.0
100
AcDbRotatedDimension
1001
ACAD
1000
DSTYLE
1002
{
1070
   172
1070
     1
1070
    76
1070
     1
1070
    75
1070
     1
1070
    40
1040
25.0
1070
     3
1000
(<>)
1070
   271
1070
     0
1070
     7
1000
_NONE
1070
     6
1000
_NONE
1070
   143
1040
0.039
1002
}
  0
DIMENSION
  5
7FEF
330
19
100
AcDbEntity
  8
3
100
AcDbDimension
280
     0
  2
*D25
 10
622.3074353805604
 20
1931.058258225084
 30
0.0
 11
540.1645782377033
 21
2519.558258225085
 31
0.0
 70
    32
 71
     5
 42
-1.0
 73
     0
 74
     0
 75
     0
  3
IGA
100
AcDbAlignedDimension
 13
1583.061140573666
 23
3108.058258225085
 33
0.0
 14
1197.061140573666
 24
1931.058258225084
 34
0.0
 50
90.0
100
AcDbRotatedDimension
1001
ACAD
1000
DSTYLE
1002
{
1070
   172
1070
     1
1070
    40
1040
25.0
1070
     3
1000
(<>)
1070
   271
1070
     0
1070
   143
1040
0.039
1002
}
  0
ENDSEC
  0
SECTION
  2
OBJECTS
  0
DICTIONARY
  5
C
330
0
100
AcDbDictionary
281
     1
  3
ACAD_CIP_PREVIOUS_PRODUCT_INFO
350
80A3
  3
ACAD_COLOR
350
8086
  3
ACAD_DETAILVIEWSTYLE
350
809F
  3
ACAD_GROUP
350
D
  3
ACAD_LAYOUT
350
7FF8
  3
ACAD_MATERIAL
350
8054
  3
ACAD_MLEADERSTYLE
350
809B
  3
ACAD_MLINESTYLE
350
E
  3
ACAD_PLOTSETTINGS
350
7FF9
  3
ACAD_PLOTSTYLENAME
350
7FF6
  3
ACAD_SCALELIST
350
8089
  3
ACAD_SECTIONVIEWSTYLE
350
809D
  3
ACAD_TABLESTYLE
350
8087
  3
ACAD_VISUALSTYLE
350
806D
  3
ACDB_RECOMPOSE_DATA
350
8107
  3
AcDbVariableDictionary
350
80F6
  3
AcDsDecomposeData
350
810D
  0
DICTIONARY
  5
80EA
330
2
100
AcDbDictionary
280
     1
281
     1
  3
ACAD_LAYERSTATES
360
80EB
  0
DICTIONARY
  5
80DD
330
F
100
AcDbDictionary
280
     1
281
     1
  3
ADSK_XREC_LAYER_RECONCILED
360
80DE
  0
DICTIONARY
  5
80DF
330
31
100
AcDbDictionary
280
     1
281
     1
  3
ADSK_XREC_LAYER_RECONCILED
360
80E0
  0
DICTIONARY
  5
80E1
330
76D0
100
AcDbDictionary
280
     1
281
     1
  3
ADSK_XREC_LAYER_RECONCILED
360
80E2
  0
DICTIONARY
  5
80E3
330
76D1
100
AcDbDictionary
280
     1
281
     1
  3
ADSK_XREC_LAYER_RECONCILED
360
80E4
  0
DICTIONARY
  5
80E5
330
76D2
100
AcDbDictionary
280
     1
281
     1
  3
ADSK_XREC_LAYER_RECONCILED
360
80E6
  0
DICTIONARY
  5
8025
330
19
100
AcDbDictionary
280
     1
281
     1
  3
ACAD_LAYOUTSELFREF
360
8026
  0
DICTIONARY
  5
8023
330
16
100
AcDbDictionary
280
     1
281
     1
  3
ACAD_LAYOUTSELFREF
360
8024
  0
XRECORD
  5
80A3
102
{ACAD_REACTORS
330
C
102
}
330
C
100
AcDbXrecord
280
     1
300
ACDLT
300
2023
300

  0
DICTIONARY
  5
8086
102
{ACAD_REACTORS
330
C
102
}
330
C
100
AcDbDictionary
281
     1
  0
DICTIONARY
  5
809F
102
{ACAD_REACTORS
330
C
102
}
330
C
100
AcDbDictionary
281
     1
  3
Metric50
350
80A0
  0
DICTIONARY
  5
D
102
{ACAD_REACTORS
330
C
102
}
330
C
100
AcDbDictionary
281
     1
  0
DICTIONARY
  5
7FF8
102
{ACAD_REACTORS
330
C
102
}
330
C
100
AcDbDictionary
281
     1
  3
Model
350
7FFA
  3
ﾚｲｱｳﾄ1
350
7FFB
  0
DICTIONARY
  5
8054
102
{ACAD_REACTORS
330
C
102
}
330
C
100
AcDbDictionary
281
     1
  3
ByBlock
350
805D
  3
ByLayer
350
8055
  3
Global
350
8065
  0
DICTIONARY
  5
809B
102
{ACAD_REACTORS
330
C
102
}
330
C
100
AcDbDictionary
281
     1
  3
Standard
350
809C
  0
DICTIONARY
  5
E
102
{ACAD_REACTORS
330
C
102
}
330
C
100
AcDbDictionary
281
     1
  3
STANDARD
350
1C
  0
DICTIONARY
  5
7FF9
102
{ACAD_REACTORS
330
C
102
}
330
C
100
AcDbDictionary
281
     1
  0
ACDBDICTIONARYWDFLT
  5
7FF6
102
{ACAD_REACTORS
330
C
102
}
330
C
100
AcDbDictionary
281
     1
  3
Normal
350
7FF7
100
AcDbDictionaryWithDefault
340
7FF7
  0
DICTIONARY
  5
8089
102
{ACAD_REACTORS
330
C
102
}
330
C
100
AcDbDictionary
281
     1
  3
A0
350
808A
  3
A1
350
808B
  3
A2
350
808C
  3
A3
350
808D
  3
A4
350
808E
  3
A5
350
808F
  3
A6
350
8090
  3
A7
350
8091
  3
A8
350
8092
  3
A9
350
8093
  3
B0
350
8094
  3
B1
350
8095
  3
B2
350
8096
  3
B3
350
8097
  3
B4
350
8098
  3
B5
350
8099
  3
B6
350
809A
  0
DICTIONARY
  5
809D
102
{ACAD_REACTORS
330
C
102
}
330
C
100
AcDbDictionary
281
     1
  3
Metric50
350
809E
  0
DICTIONARY
  5
8087
102
{ACAD_REACTORS
330
C
102
}
330
C
100
AcDbDictionary
281
     1
  3
Standard
350
8088
  0
DICTIONARY
  5
806D
102
{ACAD_REACTORS
330
C
102
}
330
C
100
AcDbDictionary
281
     1
  3
2dWireframe
350
8073
  3
Basic
350
8072
  3
Brighten
350
8079
  3
ColorChange
350
807D
  3
Conceptual
350
8076
  3
Dim
350
8078
  3
EdgeColorOff
350
8085
  3
Facepattern
350
807C
  3
Flat
350
806E
  3
FlatWithEdges
350
806F
  3
Gouraud
350
8070
  3
GouraudWithEdges
350
8071
  3
Hidden
350
8075
  3
JitterOff
350
8083
  3
Linepattern
350
807B
  3
OverhangOff
350
8084
  3
Realistic
350
8077
  3
Shaded
350
8082
  3
Shaded with edges
350
8081
  3
Shades of Gray
350
807E
  3
Sketchy
350
807F
  3
Thicken
350
807A
  3
Wireframe
350
8074
  3
X-Ray
350
8080
  0
XRECORD
  5
8107
102
{ACAD_REACTORS
330
C
102
}
330
C
100
AcDbXrecord
280
     1
 90
        1
330
7CE6
330
7CE8
330
8088
  0
DICTIONARY
  5
80F6
102
{ACAD_REACTORS
330
C
102
}
330
C
100
AcDbDictionary
281
     1
  3
CANNOSCALE
350
80FC
  3
CMLEADERSTYLE
350
80F8
  3
CTABLESTYLE
350
80F7
  3
CVIEWDETAILSTYLE
350
80F9
  3
CVIEWSECTIONSTYLE
350
80FA
  3
LAYEREVAL
350
80FE
  3
LAYERNOTIFY
350
80FF
  3
LIGHTINGUNITS
350
80FD
  3
MARKUPASSISTMODE
350
8104
  3
MSLTSCALE
350
80FB
  0
DICTIONARY
  5
810D
102
{ACAD_REACTORS
330
C
102
}
330
C
100
AcDbDictionary
281
     1
  3
AcDsRecords
350
810F
  3
AcDsSchemas
350
810E
1001
ACAD
1070
     2
  0
DICTIONARY
  5
80EB
102
{ACAD_REACTORS
330
80EA
102
}
330
80EA
100
AcDbDictionary
281
     1
  0
XRECORD
  5
80DE
102
{ACAD_REACTORS
330
80DD
102
}
330
80DD
100
AcDbXrecord
280
     1
290
     1
  0
XRECORD
  5
80E0
102
{ACAD_REACTORS
330
80DF
102
}
330
80DF
100
AcDbXrecord
280
     1
290
     1
  0
XRECORD
  5
80E2
102
{ACAD_REACTORS
330
80E1
102
}
330
80E1
100
AcDbXrecord
280
     1
290
     1
  0
XRECORD
  5
80E4
102
{ACAD_REACTORS
330
80E3
102
}
330
80E3
100
AcDbXrecord
280
     1
290
     1
  0
XRECORD
  5
80E6
102
{ACAD_REACTORS
330
80E5
102
}
330
80E5
100
AcDbXrecord
280
     1
290
     1
  0
XRECORD
  5
8026
102
{ACAD_REACTORS
330
8025
102
}
330
8025
100
AcDbXrecord
280
     1
340
19
  0
XRECORD
  5
8024
102
{ACAD_REACTORS
330
8023
102
}
330
8023
100
AcDbXrecord
280
     1
340
16
  0
ACDBDETAILVIEWSTYLE
  5
80A0
102
{ACAD_XDICTIONARY
360
8112
102
}
102
{ACAD_REACTORS
330
809F
102
}
330
809F
100
AcDbModelDocViewStyle
 70
     0
  3
Metric50
290
     0
100
AcDbDetailViewStyle
 70
     0
 71
     0
 90
        3
 71
     1
340
10
 62
   256
 40
5.0
340
0
 62
   256
 40
5.0
300

 40
0.0
280
     1
 71
     2
340
15
 90
       25
 62
   256
 71
     3
340
10
 62
   256
 40
5.0
 90
        0
 40
15.0
 90
        1
300
%<\AcVar ViewDetailId>% (%<\AcVar ViewScale \f "%sn">%)
 71
     4
340
15
 90
       25
 62
   256
340
15
 90
       25
 62
   256
280
     0
  0
LAYOUT
  5
7FFA
102
{ACAD_REACTORS
330
7FF8
102
}
330
7FF8
100
AcDbPlotSettings
  1

  2
EPSON LP-9300
  4

  6

 40
0.0
 41
0.0
 42
0.0
 43
0.0
 44
0.0
 45
0.0
 46
0.0
 47
0.0
 48
0.0
 49
0.0
140
0.0
141
0.0
142
1.0
143
1.0
 70
  1712
 72
     0
 73
     0
 74
     0
  7

 75
     0
147
1.0
 76
     0
 77
     2
 78
   300
148
0.0
149
0.0
100
AcDbLayout
  1
Model
 70
     1
 71
     0
 10
0.0
 20
0.0
 11
12.0
 21
9.0
 12
0.0
 22
0.0
 32
0.0
 14
0.0
 24
0.0
 34
0.0
 15
0.0
 25
0.0
 35
0.0
146
0.0
 13
0.0
 23
0.0
 33
0.0
 16
1.0
 26
0.0
 36
0.0
 17
0.0
 27
1.0
 37
0.0
 76
     0
330
19
331
8052
  0
LAYOUT
  5
7FFB
102
{ACAD_REACTORS
330
7FF8
102
}
330
7FF8
100
AcDbPlotSettings
  1

  2
EPSON LP-9300
  4

  6

 40
0.0
 41
0.0
 42
0.0
 43
0.0
 44
0.0
 45
0.0
 46
0.0
 47
0.0
 48
0.0
 49
0.0
140
0.0
141
0.0
142
1.0
143
1.0
 70
   688
 72
     0
 73
     0
 74
     5
  7

 75
    16
147
1.0
 76
     0
 77
     2
 78
   300
148
0.0
149
0.0
100
AcDbLayout
  1
ﾚｲｱｳﾄ1
 70
     1
 71
     1
 10
0.0
 20
0.0
 11
12.0
 21
9.0
 12
0.0
 22
0.0
 32
0.0
 14
1.000000000000000E+20
 24
1.000000000000000E+20
 34
1.000000000000000E+20
 15
-1.000000000000000E+20
 25
-1.000000000000000E+20
 35
-1.000000000000000E+20
146
0.0
 13
0.0
 23
0.0
 33
0.0
 16
1.0
 26
0.0
 36
0.0
 17
0.0
 27
1.0
 37
0.0
 76
     0
330
16
  0
MATERIAL
  5
805D
102
{ACAD_XDICTIONARY
360
805E
102
}
102
{ACAD_REACTORS
330
8054
102
}
330
8054
100
AcDbMaterial
  1
ByBlock
 72
     0
 43
0.0208333333333333
 43
0.0
 43
0.0
 43
0.0
 43
0.0
 43
0.0208333333333333
 43
0.0
 43
0.0
 43
0.0
 43
0.0
 43
1.0
 43
0.0
 43
0.0
 43
0.0
 43
0.0
 43
1.0
 77
     0
 47
0.0208333333333333
 47
0.0
 47
0.0
 47
0.0
 47
0.0
 47
0.0208333333333333
 47
0.0
 47
0.0
 47
0.0
 47
0.0
 47
1.0
 47
0.0
 47
0.0
 47
0.0
 47
0.0
 47
1.0
171
     0
 49
0.0208333333333333
 49
0.0
 49
0.0
 49
0.0
 49
0.0
 49
0.0208333333333333
 49
0.0
 49
0.0
 49
0.0
 49
0.0
 49
1.0
 49
0.0
 49
0.0
 49
0.0
 49
0.0
 49
1.0
175
     0
142
0.0208333333333333
142
0.0
142
0.0
142
0.0
142
0.0
142
0.0208333333333333
142
0.0
142
0.0
142
0.0
142
0.0
142
1.0
142
0.0
142
0.0
142
0.0
142
0.0
142
1.0
179
     0
144
0.0208333333333333
144
0.0
144
0.0
144
0.0
144
0.0
144
0.0208333333333333
144
0.0
144
0.0
144
0.0
144
0.0
144
1.0
144
0.0
144
0.0
144
0.0
144
0.0
144
1.0
147
0.0208333333333333
147
0.0
147
0.0
147
0.0
147
0.0
147
0.0208333333333333
147
0.0
147
0.0
147
0.0
147
0.0
147
1.0
147
0.0
147
0.0
147
0.0
147
0.0
147
1.0
  0
MATERIAL
  5
8055
102
{ACAD_XDICTIONARY
360
8056
102
}
102
{ACAD_REACTORS
330
8054
102
}
330
8054
100
AcDbMaterial
  1
ByLayer
 72
     0
 43
0.0208333333333333
 43
0.0
 43
0.0
 43
0.0
 43
0.0
 43
0.0208333333333333
 43
0.0
 43
0.0
 43
0.0
 43
0.0
 43
1.0
 43
0.0
 43
0.0
 43
0.0
 43
0.0
 43
1.0
 77
     0
 47
0.0208333333333333
 47
0.0
 47
0.0
 47
0.0
 47
0.0
 47
0.0208333333333333
 47
0.0
 47
0.0
 47
0.0
 47
0.0
 47
1.0
 47
0.0
 47
0.0
 47
0.0
 47
0.0
 47
1.0
171
     0
 49
0.0208333333333333
 49
0.0
 49
0.0
 49
0.0
 49
0.0
 49
0.0208333333333333
 49
0.0
 49
0.0
 49
0.0
 49
0.0
 49
1.0
 49
0.0
 49
0.0
 49
0.0
 49
0.0
 49
1.0
175
     0
142
0.0208333333333333
142
0.0
142
0.0
142
0.0
142
0.0
142
0.0208333333333333
142
0.0
142
0.0
142
0.0
142
0.0
142
1.0
142
0.0
142
0.0
142
0.0
142
0.0
142
1.0
179
     0
144
0.0208333333333333
144
0.0
144
0.0
144
0.0
144
0.0
144
0.0208333333333333
144
0.0
144
0.0
144
0.0
144
0.0
144
1.0
144
0.0
144
0.0
144
0.0
144
0.0
144
1.0
147
0.0208333333333333
147
0.0
147
0.0
147
0.0
147
0.0
147
0.0208333333333333
147
0.0
147
0.0
147
0.0
147
0.0
147
1.0
147
0.0
147
0.0
147
0.0
147
0.0
147
1.0
  0
MATERIAL
  5
8065
102
{ACAD_XDICTIONARY
360
8066
102
}
102
{ACAD_REACTORS
330
8054
102
}
330
8054
100
AcDbMaterial
  1
Global
 72
     0
 43
0.0208333333333333
 43
0.0
 43
0.0
 43
0.0
 43
0.0
 43
0.0208333333333333
 43
0.0
 43
0.0
 43
0.0
 43
0.0
 43
1.0
 43
0.0
 43
0.0
 43
0.0
 43
0.0
 43
1.0
 77
     0
 47
0.0208333333333333
 47
0.0
 47
0.0
 47
0.0
 47
0.0
 47
0.0208333333333333
 47
0.0
 47
0.0
 47
0.0
 47
0.0
 47
1.0
 47
0.0
 47
0.0
 47
0.0
 47
0.0
 47
1.0
171
     0
 49
0.0208333333333333
 49
0.0
 49
0.0
 49
0.0
 49
0.0
 49
0.0208333333333333
 49
0.0
 49
0.0
 49
0.0
 49
0.0
 49
1.0
 49
0.0
 49
0.0
 49
0.0
 49
0.0
 49
1.0
175
     0
142
0.0208333333333333
142
0.0
142
0.0
142
0.0
142
0.0
142
0.0208333333333333
142
0.0
142
0.0
142
0.0
142
0.0
142
1.0
142
0.0
142
0.0
142
0.0
142
0.0
142
1.0
179
     0
144
0.0208333333333333
144
0.0
144
0.0
144
0.0
144
0.0
144
0.0208333333333333
144
0.0
144
0.0
144
0.0
144
0.0
144
1.0
144
0.0
144
0.0
144
0.0
144
0.0
144
1.0
147
0.0208333333333333
147
0.0
147
0.0
147
0.0
147
0.0
147
0.0208333333333333
147
0.0
147
0.0
147
0.0
147
0.0
147
1.0
147
0.0
147
0.0
147
0.0
147
0.0
147
1.0
  0
MLEADERSTYLE
  5
809C
102
{ACAD_REACTORS
330
809B
102
}
330
809B
100
AcDbMLeaderStyle
179
     2
170
     2
171
     1
172
     0
 90
        2
 40
0.0
 41
0.0
173
     1
 91
-1056964608
340
13
 92
       -2
290
     1
 42
2.0
291
     1
 43
0.36
  3
Standard
 44
4.0
300

342
10
174
     1
178
     6
175
     1
176
     0
 93
-1056964608
 45
4.0
292
     0
297
     0
 46
4.0
 94
-1056964608
 47
1.0
 49
1.0
140
1.0
293
     1
141
0.0
294
     1
177
     0
142
1.0
295
     0
296
     0
143
0.125
271
     0
272
     9
273
     9
298
     1
  0
MLINESTYLE
  5
1C
102
{ACAD_REACTORS
330
E
102
}
330
E
100
AcDbMlineStyle
  2
STANDARD
 70
     0
  3

 62
     0
 51
90.0
 52
90.0
 71
     2
 49
0.5
 62
   256
  6
BYLAYER
 49
-0.5
 62
   256
  6
BYLAYER
  0
ACDBPLACEHOLDER
  5
7FF7
102
{ACAD_REACTORS
330
7FF6
102
}
330
7FF6
  0
SCALE
  5
808A
102
{ACAD_REACTORS
330
8089
102
}
330
8089
100
AcDbScale
 70
     0
300
1:1
140
1.0
141
1.0
290
     1
  0
SCALE
  5
808B
102
{ACAD_REACTORS
330
8089
102
}
330
8089
100
AcDbScale
 70
     0
300
1:2
140
1.0
141
2.0
290
     0
  0
SCALE
  5
808C
102
{ACAD_REACTORS
330
8089
102
}
330
8089
100
AcDbScale
 70
     0
300
1:4
140
1.0
141
4.0
290
     0
  0
SCALE
  5
808D
102
{ACAD_REACTORS
330
8089
102
}
330
8089
100
AcDbScale
 70
     0
300
1:5
140
1.0
141
5.0
290
     0
  0
SCALE
  5
808E
102
{ACAD_REACTORS
330
8089
102
}
330
8089
100
AcDbScale
 70
     0
300
1:8
140
1.0
141
8.0
290
     0
  0
SCALE
  5
808F
102
{ACAD_REACTORS
330
8089
102
}
330
8089
100
AcDbScale
 70
     0
300
1:10
140
1.0
141
10.0
290
     0
  0
SCALE
  5
8090
102
{ACAD_REACTORS
330
8089
102
}
330
8089
100
AcDbScale
 70
     0
300
1:16
140
1.0
141
16.0
290
     0
  0
SCALE
  5
8091
102
{ACAD_REACTORS
330
8089
102
}
330
8089
100
AcDbScale
 70
     0
300
1:20
140
1.0
141
20.0
290
     0
  0
SCALE
  5
8092
102
{ACAD_REACTORS
330
8089
102
}
330
8089
100
AcDbScale
 70
     0
300
1:30
140
1.0
141
30.0
290
     0
  0
SCALE
  5
8093
102
{ACAD_REACTORS
330
8089
102
}
330
8089
100
AcDbScale
 70
     0
300
1:40
140
1.0
141
40.0
290
     0
  0
SCALE
  5
8094
102
{ACAD_REACTORS
330
8089
102
}
330
8089
100
AcDbScale
 70
     0
300
1:50
140
1.0
141
50.0
290
     0
  0
SCALE
  5
8095
102
{ACAD_REACTORS
330
8089
102
}
330
8089
100
AcDbScale
 70
     0
300
1:100
140
1.0
141
100.0
290
     0
  0
SCALE
  5
8096
102
{ACAD_REACTORS
330
8089
102
}
330
8089
100
AcDbScale
 70
     0
300
2:1
140
2.0
141
1.0
290
     0
  0
SCALE
  5
8097
102
{ACAD_REACTORS
330
8089
102
}
330
8089
100
AcDbScale
 70
     0
300
4:1
140
4.0
141
1.0
290
     0
  0
SCALE
  5
8098
102
{ACAD_REACTORS
330
8089
102
}
330
8089
100
AcDbScale
 70
     0
300
8:1
140
8.0
141
1.0
290
     0
  0
SCALE
  5
8099
102
{ACAD_REACTORS
330
8089
102
}
330
8089
100
AcDbScale
 70
     0
300
10:1
140
10.0
141
1.0
290
     0
  0
SCALE
  5
809A
102
{ACAD_REACTORS
330
8089
102
}
330
8089
100
AcDbScale
 70
     0
300
100:1
140
100.0
141
1.0
290
     0
  0
ACDBSECTIONVIEWSTYLE
  5
809E
102
{ACAD_XDICTIONARY
360
8110
102
}
102
{ACAD_REACTORS
330
809D
102
}
330
809D
100
AcDbModelDocViewStyle
 70
     0
  3
Metric50
290
     0
100
AcDbSectionViewStyle
 70
     0
 71
     0
 90
      102
 71
     1
340
10
 62
   256
 40
5.0
340
0
340
0
 62
   256
 40
5.0
300
I, O, Q, S, X, Z
 40
10.0
 90
        0
 40
2.5
 90
        0
 71
     2
340
15
 90
       25
 62
   256
340
15
 90
       50
 62
   256
 40
5.0
 40
2.5
 40
5.0
 71
     3
340
10
 62
   256
 40
5.0
 90
        0
 40
15.0
 90
        1
300
%<\AcVar ViewSectionStartId>%-%<\AcVar ViewSectionEndId>% (%<\AcVar ViewScale \f "%sn">%)
 71
     4
 62
   256
 62
   257
300
ANSI31
 40
1.0
 90
        0
290
     0
290
     0
 90
        6
 40
0.0
 40
1.570796326794896
 40
0.2617993877991494
 40
1.308996938995747
 40
-0.2617993877991494
 40
1.832595714594046
  0
TABLESTYLE
  5
8088
102
{ACAD_XDICTIONARY
360
8105
102
}
102
{ACAD_REACTORS
330
8087
102
}
330
8087
100
AcDbTableStyle
280
     0
  3
Standard
 70
     0
 71
     0
 40
1.5
 41
1.5
280
     0
281
     0
  7
STANDARD
140
4.5
170
     2
 62
     0
 63
     7
283
     0
 90
      512
 91
        0
  1

274
    -2
284
     1
 64
     0
275
    -2
285
     1
 65
     0
276
    -2
286
     1
 66
     0
277
    -2
287
     1
 67
     0
278
    -2
288
     1
 68
     0
279
    -2
289
     1
 69
     0
  7
STANDARD
140
6.0
170
     5
 62
     0
 63
     7
283
     0
 90
      512
 91
        0
  1

274
    -2
284
     1
 64
     0
275
    -2
285
     1
 65
     0
276
    -2
286
     1
 66
     0
277
    -2
287
     1
 67
     0
278
    -2
288
     1
 68
     0
279
    -2
289
     1
 69
     0
  7
STANDARD
140
4.5
170
     5
 62
     0
 63
     7
283
     0
 90
      512
 91
        0
  1

274
    -2
284
     1
 64
     0
275
    -2
285
     1
 65
     0
276
    -2
286
     1
 66
     0
277
    -2
287
     1
 67
     0
278
    -2
288
     1
 68
     0
279
    -2
289
     1
 69
     0
  0
VISUALSTYLE
  5
8073
102
{ACAD_REACTORS
330
806D
102
}
330
806D
100
AcDbVisualStyle
  2
2dWireframe
 70
     4
177
     3
291
     0
 70
    58
 90
        0
176
     1
 90
        2
176
     1
 90
        0
176
     1
 90
        0
176
     1
 40
0.6
176
     1
 40
30.0
176
     1
 62
     7
420
 16777215
176
     1
 90
        1
176
     1
 90
        4
176
     1
 62
     7
176
     1
 62
   257
176
     1
 90
        1
176
     1
 90
        1
176
     1
 40
1.0
176
     1
 90
        0
176
     1
 62
   257
176
     1
 40
1.0
176
     1
 90
        1
176
     1
 90
        6
176
     1
 90
        2
176
     1
 62
     7
176
     1
 90
        5
176
     1
 90
        0
176
     1
 90
        0
176
     1
290
     0
176
     1
 90
        1
176
     1
 40
0.0
176
     1
 90
        0
176
     1
290
     1
176
     1
290
     1
176
     1
290
     0
176
     1
290
     0
176
     1
290
     0
176
     1
290
     0
176
     1
290
     0
176
     1
290
     0
176
     1
290
     0
176
     1
 90
       50
176
     1
 40
0.0
176
     1
 40
1.0
176
     1
 90
        0
176
     1
 62
    18
420
        0
176
     1
 90
       50
176
     1
 90
        3
176
     1
 62
     5
420
      255
176
     1
290
     0
176
     1
 90
       50
176
     1
 90
       50
176
     1
 90
       50
176
     1
290
     0
176
     1
 90
       50
176
     1
 62
   256
176
     0
 40
1.0
176
     0
 90
        2
176
     1
  1
strokes_ogs.tif
176
     1
290
     0
176
     1
 40
1.0
176
     1
 40
1.0
176
     1
1001
ACAD
1000
AcDbSavedByObjectVersion
1070
     0
  0
VISUALSTYLE
  5
8072
102
{ACAD_REACTORS
330
806D
102
}
330
806D
100
AcDbVisualStyle
  2
Basic
 70
     7
177
     3
291
     1
 70
    58
 90
        1
176
     1
 90
        0
176
     1
 90
        1
176
     1
 90
        0
176
     1
 40
0.6
176
     1
 40
30.0
176
     1
 62
     7
420
 16777215
176
     1
 90
        0
176
     1
 90
        4
176
     1
 62
     7
176
     1
 62
   257
176
     1
 90
        1
176
     1
 90
        1
176
     1
 40
1.0
176
     1
 90
        8
176
     1
 62
     7
176
     1
 40
1.0
176
     1
 90
        1
176
     1
 90
        6
176
     1
 90
        2
176
     1
 62
     7
176
     1
 90
        5
176
     1
 90
        0
176
     1
 90
        0
176
     1
290
     0
176
     1
 90
        1
176
     1
 40
0.0
176
     1
 90
        0
176
     1
290
     0
176
     1
290
     1
176
     1
290
     1
176
     1
290
     0
176
     1
290
     0
176
     1
290
     0
176
     1
290
     0
176
     1
290
     0
176
     1
290
     0
176
     1
 90
       50
176
     1
 40
0.0
176
     1
 40
1.0
176
     1
 90
        0
176
     1
 62
    18
420
        0
176
     1
 90
       50
176
     1
 90
        3
176
     1
 62
     5
420
      255
176
     1
290
     0
176
     1
 90
       50
176
     1
 90
       50
176
     1
 90
       50
176
     1
290
     0
176
     1
 90
       50
176
     1
 62
   256
176
     0
 40
1.0
176
     0
 90
        2
176
     1
  1
strokes_ogs.tif
176
     1
290
     0
176
     1
 40
1.0
176
     1
 40
1.0
176
     1
1001
ACAD
1000
AcDbSavedByObjectVersion
1070
     0
  0
VISUALSTYLE
  5
8079
102
{ACAD_REACTORS
330
806D
102
}
330
806D
100
AcDbVisualStyle
  2
Brighten
 70
    12
177
     3
291
     1
 70
    58
 90
        2
176
     1
 90
        2
176
     1
 90
        0
176
     1
 90
        0
176
     1
 40
0.6
176
     1
 40
30.0
176
     1
 62
     7
420
 16777215
176
     1
 90
        1
176
     1
 90
        4
176
     1
 62
     7
176
     1
 62
   257
176
     1
 90
        1
176
     1
 90
        1
176
     1
 40
1.0
176
     1
 90
        8
176
     1
 62
     7
176
     1
 40
1.0
176
     1
 90
        1
176
     1
 90
        6
176
     1
 90
        2
176
     1
 62
     7
176
     1
 90
        5
176
     1
 90
        0
176
     1
 90
        0
176
     1
290
     0
176
     1
 90
        1
176
     1
 40
50.0
176
     1
 90
        0
176
     1
290
     0
176
     1
290
     1
176
     1
290
     1
176
     1
290
     0
176
     1
290
     0
176
     1
290
     0
176
     1
290
     0
176
     1
290
     0
176
     1
290
     0
176
     1
 90
       50
176
     1
 40
0.0
176
     1
 40
1.0
176
     1
 90
        0
176
     1
 62
    18
420
        0
176
     1
 90
       50
176
     1
 90
        3
176
     1
 62
     5
420
      255
176
     1
290
     0
176
     1
 90
       50
176
     1
 90
       50
176
     1
 90
       50
176
     1
290
     0
176
     1
 90
       50
176
     1
 62
   256
176
     0
 40
1.0
176
     0
 90
        2
176
     1
  1
strokes_ogs.tif
176
     1
290
     0
176
     1
 40
1.0
176
     1
 40
1.0
176
     1
1001
ACAD
1000
AcDbSavedByObjectVersion
1070
     0
  0
VISUALSTYLE
  5
807D
102
{ACAD_REACTORS
330
806D
102
}
330
806D
100
AcDbVisualStyle
  2
ColorChange
 70
    16
177
     3
291
     1
 70
    58
 90
        2
176
     1
 90
        2
176
     1
 90
        3
176
     1
 90
        0
176
     1
 40
0.6
176
     1
 40
30.0
176
     1
 62
     8
420
  8421504
176
     1
 90
        1
176
     1
 90
        4
176
     1
 62
     7
176
     1
 62
   257
176
     1
 90
        1
176
     1
 90
        1
176
     1
 40
1.0
176
     1
 90
        8
176
     1
 62
     8
420
  8421504
176
     1
 40
1.0
176
     1
 90
        1
176
     1
 90
        6
176
     1
 90
        2
176
     1
 62
     7
176
     1
 90
        5
176
     1
 90
        0
176
     1
 90
        0
176
     1
290
     0
176
     1
 90
        1
176
     1
 40
0.0
176
     1
 90
        0
176
     1
290
     0
176
     1
290
     1
176
     1
290
     1
176
     1
290
     0
176
     1
290
     0
176
     1
290
     0
176
     1
290
     0
176
     1
290
     0
176
     1
290
     0
176
     1
 90
       50
176
     1
 40
0.0
176
     1
 40
1.0
176
     1
 90
        0
176
     1
 62
    18
420
        0
176
     1
 90
       50
176
     1
 90
        3
176
     1
 62
     5
420
      255
176
     1
290
     0
176
     1
 90
       50
176
     1
 90
       50
176
     1
 90
       50
176
     1
290
     0
176
     1
 90
       50
176
     1
 62
   256
176
     0
 40
1.0
176
     0
 90
        2
176
     1
  1
strokes_ogs.tif
176
     1
290
     0
176
     1
 40
1.0
176
     1
 40
1.0
176
     1
1001
ACAD
1000
AcDbSavedByObjectVersion
1070
     0
  0
VISUALSTYLE
  5
8076
102
{ACAD_REACTORS
330
806D
102
}
330
806D
100
AcDbVisualStyle
  2
Conceptual
 70
     9
177
     3
291
     0
 70
    58
 90
        3
176
     1
 90
        2
176
     1
 90
        0
176
     1
 90
        0
176
     1
 40
0.6
176
     1
 40
30.0
176
     1
 62
     7
420
 16777215
176
     1
 90
        2
176
     1
 90
        2
176
     1
 62
     7
176
     1
 62
   257
176
     1
 90
        1
176
     1
 90
        1
176
     1
 40
179.0
176
     1
 90
        8
176
     1
 62
     7
176
     1
 40
1.0
176
     1
 90
        1
176
     1
 90
        6
176
     1
 90
        2
176
     1
 62
     7
176
     1
 90
        3
176
     1
 90
        0
176
     1
 90
        0
176
     1
290
     0
176
     1
 90
        1
176
     1
 40
0.0
176
     1
 90
        0
176
     1
290
     0
176
     1
290
     1
176
     1
290
     1
176
     1
290
     0
176
     1
290
     0
176
     1
290
     0
176
     1
290
     0
176
     1
290
     0
176
     1
290
     0
176
     1
 90
       50
176
     1
 40
0.0
176
     1
 40
1.0
176
     1
 90
        0
176
     1
 62
    18
420
        0
176
     1
 90
       50
176
     1
 90
        3
176
     1
 62
     5
420
      255
176
     1
290
     0
176
     1
 90
       50
176
     1
 90
       50
176
     1
 90
       50
176
     1
290
     0
176
     1
 90
       50
176
     1
 62
   256
176
     0
 40
1.0
176
     0
 90
        2
176
     1
  1
strokes_ogs.tif
176
     1
290
     0
176
     1
 40
1.0
176
     1
 40
1.0
176
     1
1001
ACAD
1000
AcDbSavedByObjectVersion
1070
     0
  0
VISUALSTYLE
  5
8078
102
{ACAD_REACTORS
330
806D
102
}
330
806D
100
AcDbVisualStyle
  2
Dim
 70
    11
177
     3
291
     1
 70
    58
 90
        2
176
     1
 90
        2
176
     1
 90
        0
176
     1
 90
        0
176
     1
 40
0.6
176
     1
 40
30.0
176
     1
 62
     7
420
 16777215
176
     1
 90
        1
176
     1
 90
        4
176
     1
 62
     7
176
     1
 62
   257
176
     1
 90
        1
176
     1
 90
        1
176
     1
 40
1.0
176
     1
 90
        8
176
     1
 62
     7
176
     1
 40
1.0
176
     1
 90
        1
176
     1
 90
        6
176
     1
 90
        2
176
     1
 62
     7
176
     1
 90
        5
176
     1
 90
        0
176
     1
 90
        0
176
     1
290
     0
176
     1
 90
        1
176
     1
 40
-50.0
176
     1
 90
        0
176
     1
290
     0
176
     1
290
     1
176
     1
290
     1
176
     1
290
     0
176
     1
290
     0
176
     1
290
     0
176
     1
290
     0
176
     1
290
     0
176
     1
290
     0
176
     1
 90
       50
176
     1
 40
0.0
176
     1
 40
1.0
176
     1
 90
        0
176
     1
 62
    18
420
        0
176
     1
 90
       50
176
     1
 90
        3
176
     1
 62
     5
420
      255
176
     1
290
     0
176
     1
 90
       50
176
     1
 90
       50
176
     1
 90
       50
176
     1
290
     0
176
     1
 90
       50
176
     1
 62
   256
176
     0
 40
1.0
176
     0
 90
        2
176
     1
  1
strokes_ogs.tif
176
     1
290
     0
176
     1
 40
1.0
176
     1
 40
1.0
176
     1
1001
ACAD
1000
AcDbSavedByObjectVersion
1070
     0
  0
VISUALSTYLE
  5
8085
102
{ACAD_REACTORS
330
806D
102
}
330
806D
100
AcDbVisualStyle
  2
EdgeColorOff
 70
    22
177
     3
291
     1
 70
    58
 90
        2
176
     0
 90
        2
176
     0
 90
        0
176
     0
 90
        0
176
     0
 40
0.6
176
     0
 40
30.0
176
     0
 62
     7
420
 16777215
176
     0
 90
        1
176
     0
 90
        4
176
     0
 62
     7
176
     0
 62
   257
176
     0
 90
        1
176
     0
 90
        1
176
     0
 40
1.0
176
     0
 90
        8
176
     2
 62
     7
176
     0
 40
1.0
176
     0
 90
        1
176
     0
 90
        6
176
     0
 90
        2
176
     0
 62
     7
176
     0
 90
        5
176
     0
 90
        0
176
     0
 90
        0
176
     0
290
     0
176
     0
 90
        1
176
     0
 40
0.0
176
     0
 90
        0
176
     0
290
     0
176
     0
290
     1
176
     0
290
     1
176
     0
290
     0
176
     0
290
     0
176
     0
290
     0
176
     0
290
     0
176
     0
290
     0
176
     0
290
     0
176
     0
 90
       50
176
     0
 40
0.0
176
     0
 40
1.0
176
     0
 90
        0
176
     0
 62
    18
420
        0
176
     0
 90
       50
176
     0
 90
        3
176
     0
 62
     5
420
      255
176
     0
290
     0
176
     0
 90
       50
176
     0
 90
       50
176
     0
 90
       50
176
     0
290
     0
176
     0
 90
       50
176
     0
 62
   256
176
     0
 40
1.0
176
     0
 90
        2
176
     0
  1
strokes_ogs.tif
176
     0
290
     0
176
     0
 40
1.0
176
     0
 40
1.0
176
     0
1001
ACAD
1000
AcDbSavedByObjectVersion
1070
     0
  0
VISUALSTYLE
  5
807C
102
{ACAD_REACTORS
330
806D
102
}
330
806D
100
AcDbVisualStyle
  2
Facepattern
 70
    15
177
     3
291
     1
 70
    58
 90
        2
176
     1
 90
        2
176
     1
 90
        0
176
     1
 90
        0
176
     1
 40
0.6
176
     1
 40
30.0
176
     1
 62
     7
420
 16777215
176
     1
 90
        1
176
     1
 90
        4
176
     1
 62
     7
176
     1
 62
   257
176
     1
 90
        1
176
     1
 90
        1
176
     1
 40
1.0
176
     1
 90
        8
176
     1
 62
     7
176
     1
 40
1.0
176
     1
 90
        1
176
     1
 90
        6
176
     1
 90
        2
176
     1
 62
     7
176
     1
 90
        5
176
     1
 90
        0
176
     1
 90
        0
176
     1
290
     0
176
     1
 90
        1
176
     1
 40
0.0
176
     1
 90
        0
176
     1
290
     0
176
     1
290
     1
176
     1
290
     1
176
     1
290
     0
176
     1
290
     0
176
     1
290
     0
176
     1
290
     0
176
     1
290
     0
176
     1
290
     0
176
     1
 90
       50
176
     1
 40
0.0
176
     1
 40
1.0
176
     1
 90
        0
176
     1
 62
    18
420
        0
176
     1
 90
       50
176
     1
 90
        3
176
     1
 62
     5
420
      255
176
     1
290
     0
176
     1
 90
       50
176
     1
 90
       50
176
     1
 90
       50
176
     1
290
     0
176
     1
 90
       50
176
     1
 62
   256
176
     0
 40
1.0
176
     0
 90
        2
176
     1
  1
strokes_ogs.tif
176
     1
290
     0
176
     1
 40
1.0
176
     1
 40
1.0
176
     1
1001
ACAD
1000
AcDbSavedByObjectVersion
1070
     0
  0
VISUALSTYLE
  5
806E
102
{ACAD_REACTORS
330
806D
102
}
330
806D
100
AcDbVisualStyle
  2
Flat
 70
     0
177
     3
291
     1
 70
    58
 90
        2
176
     1
 90
        1
176
     1
 90
        1
176
     1
 90
        2
176
     1
 40
0.6
176
     1
 40
30.0
176
     1
 62
     7
420
 16777215
176
     1
 90
        0
176
     1
 90
        0
176
     1
 62
     7
176
     1
 62
   257
176
     1
 90
        1
176
     1
 90
        1
176
     1
 40
1.0
176
     1
 90
        8
176
     1
 62
     7
176
     1
 40
1.0
176
     1
 90
        1
176
     1
 90
        6
176
     1
 90
        2
176
     1
 62
     7
176
     1
 90
        5
176
     1
 90
        0
176
     1
 90
        0
176
     1
290
     0
176
     1
 90
       13
176
     1
 40
0.0
176
     1
 90
        0
176
     1
290
     0
176
     1
290
     1
176
     1
290
     1
176
     1
290
     0
176
     1
290
     0
176
     1
290
     0
176
     1
290
     0
176
     1
290
     0
176
     1
290
     0
176
     1
 90
       50
176
     1
 40
0.0
176
     1
 40
1.0
176
     1
 90
        0
176
     1
 62
    18
420
        0
176
     1
 90
       50
176
     1
 90
        3
176
     1
 62
     5
420
      255
176
     1
290
     0
176
     1
 90
       50
176
     1
 90
       50
176
     1
 90
       50
176
     1
290
     0
176
     1
 90
       50
176
     1
 62
   256
176
     0
 40
1.0
176
     0
 90
        2
176
     1
  1
strokes_ogs.tif
176
     1
290
     0
176
     1
 40
1.0
176
     1
 40
1.0
176
     1
1001
ACAD
1000
AcDbSavedByObjectVersion
1070
     0
  0
VISUALSTYLE
  5
806F
102
{ACAD_REACTORS
330
806D
102
}
330
806D
100
AcDbVisualStyle
  2
FlatWithEdges
 70
     1
177
     3
291
     1
 70
    58
 90
        2
176
     1
 90
        1
176
     1
 90
        1
176
     1
 90
        2
176
     1
 40
0.6
176
     1
 40
30.0
176
     1
 62
     7
420
 16777215
176
     1
 90
        1
176
     1
 90
        0
176
     1
 62
     7
176
     1
 62
   257
176
     1
 90
        1
176
     1
 90
        1
176
     1
 40
1.0
176
     1
 90
        0
176
     1
 62
   257
176
     1
 40
1.0
176
     1
 90
        1
176
     1
 90
        6
176
     1
 90
        2
176
     1
 62
     7
176
     1
 90
        5
176
     1
 90
        0
176
     1
 90
        0
176
     1
290
     0
176
     1
 90
       13
176
     1
 40
0.0
176
     1
 90
        0
176
     1
290
     0
176
     1
290
     1
176
     1
290
     1
176
     1
290
     0
176
     1
290
     0
176
     1
290
     0
176
     1
290
     0
176
     1
290
     0
176
     1
290
     0
176
     1
 90
       50
176
     1
 40
0.0
176
     1
 40
1.0
176
     1
 90
        0
176
     1
 62
    18
420
        0
176
     1
 90
       50
176
     1
 90
        3
176
     1
 62
     5
420
      255
176
     1
290
     0
176
     1
 90
       50
176
     1
 90
       50
176
     1
 90
       50
176
     1
290
     0
176
     1
 90
       50
176
     1
 62
   256
176
     0
 40
1.0
176
     0
 90
        2
176
     1
  1
strokes_ogs.tif
176
     1
290
     0
176
     1
 40
1.0
176
     1
 40
1.0
176
     1
1001
ACAD
1000
AcDbSavedByObjectVersion
1070
     0
  0
VISUALSTYLE
  5
8070
102
{ACAD_REACTORS
330
806D
102
}
330
806D
100
AcDbVisualStyle
  2
Gouraud
 70
     2
177
     3
291
     1
 70
    58
 90
        2
176
     1
 90
        2
176
     1
 90
        1
176
     1
 90
        2
176
     1
 40
0.6
176
     1
 40
30.0
176
     1
 62
     7
420
 16777215
176
     1
 90
        0
176
     1
 90
        0
176
     1
 62
     7
176
     1
 62
   257
176
     1
 90
        1
176
     1
 90
        1
176
     1
 40
1.0
176
     1
 90
        0
176
     1
 62
     7
176
     1
 40
1.0
176
     1
 90
        1
176
     1
 90
        6
176
     1
 90
        2
176
     1
 62
     7
176
     1
 90
        5
176
     1
 90
        0
176
     1
 90
        0
176
     1
290
     0
176
     1
 90
       13
176
     1
 40
0.0
176
     1
 90
        0
176
     1
290
     0
176
     1
290
     1
176
     1
290
     1
176
     1
290
     0
176
     1
290
     0
176
     1
290
     0
176
     1
290
     0
176
     1
290
     0
176
     1
290
     0
176
     1
 90
       50
176
     1
 40
0.0
176
     1
 40
1.0
176
     1
 90
        0
176
     1
 62
    18
420
        0
176
     1
 90
       50
176
     1
 90
        3
176
     1
 62
     5
420
      255
176
     1
290
     0
176
     1
 90
       50
176
     1
 90
       50
176
     1
 90
       50
176
     1
290
     0
176
     1
 90
       50
176
     1
 62
   256
176
     0
 40
1.0
176
     0
 90
        2
176
     1
  1
strokes_ogs.tif
176
     1
290
     0
176
     1
 40
1.0
176
     1
 40
1.0
176
     1
1001
ACAD
1000
AcDbSavedByObjectVersion
1070
     0
  0
VISUALSTYLE
  5
8071
102
{ACAD_REACTORS
330
806D
102
}
330
806D
100
AcDbVisualStyle
  2
GouraudWithEdges
 70
     3
177
     3
291
     1
 70
    58
 90
        2
176
     1
 90
        2
176
     1
 90
        1
176
     1
 90
        2
176
     1
 40
0.6
176
     1
 40
30.0
176
     1
 62
     7
420
 16777215
176
     1
 90
        1
176
     1
 90
        0
176
     1
 62
     7
176
     1
 62
   257
176
     1
 90
        1
176
     1
 90
        1
176
     1
 40
1.0
176
     1
 90
        0
176
     1
 62
   257
176
     1
 40
1.0
176
     1
 90
        1
176
     1
 90
        6
176
     1
 90
        2
176
     1
 62
     7
176
     1
 90
        5
176
     1
 90
        0
176
     1
 90
        0
176
     1
290
     0
176
     1
 90
       13
176
     1
 40
0.0
176
     1
 90
        0
176
     1
290
     0
176
     1
290
     1
176
     1
290
     1
176
     1
290
     0
176
     1
290
     0
176
     1
290
     0
176
     1
290
     0
176
     1
290
     0
176
     1
290
     0
176
     1
 90
       50
176
     1
 40
0.0
176
     1
 40
1.0
176
     1
 90
        0
176
     1
 62
    18
420
        0
176
     1
 90
       50
176
     1
 90
        3
176
     1
 62
     5
420
      255
176
     1
290
     0
176
     1
 90
       50
176
     1
 90
       50
176
     1
 90
       50
176
     1
290
     0
176
     1
 90
       50
176
     1
 62
   256
176
     0
 40
1.0
176
     0
 90
        2
176
     1
  1
strokes_ogs.tif
176
     1
290
     0
176
     1
 40
1.0
176
     1
 40
1.0
176
     1
1001
ACAD
1000
AcDbSavedByObjectVersion
1070
     0
  0
VISUALSTYLE
  5
8075
102
{ACAD_REACTORS
330
806D
102
}
330
806D
100
AcDbVisualStyle
  2
Hidden
 70
     6
177
     3
291
     0
 70
    58
 90
        1
176
     1
 90
        2
176
     1
 90
        2
176
     1
 90
        0
176
     1
 40
0.6
176
     1
 40
30.0
176
     1
 62
     7
420
 16777215
176
     1
 90
        2
176
     1
 90
        2
176
     1
 62
     7
176
     1
 62
   257
176
     1
 90
        2
176
     1
 90
        1
176
     1
 40
40.0
176
     1
 90
        0
176
     1
 62
   257
176
     1
 40
1.0
176
     1
 90
        1
176
     1
 90
        6
176
     1
 90
        2
176
     1
 62
     7
176
     1
 90
        3
176
     1
 90
        0
176
     1
 90
        0
176
     1
290
     0
176
     1
 90
        1
176
     1
 40
0.0
176
     1
 90
        0
176
     1
290
     0
176
     1
290
     1
176
     1
290
     1
176
     1
290
     0
176
     1
290
     0
176
     1
290
     0
176
     1
290
     0
176
     1
290
     0
176
     1
290
     0
176
     1
 90
       50
176
     1
 40
0.0
176
     1
 40
1.0
176
     1
 90
        0
176
     1
 62
    18
420
        0
176
     1
 90
       50
176
     1
 90
        3
176
     1
 62
     5
420
      255
176
     1
290
     0
176
     1
 90
       50
176
     1
 90
       50
176
     1
 90
       50
176
     1
290
     0
176
     1
 90
       50
176
     1
 62
   256
176
     0
 40
1.0
176
     0
 90
        2
176
     1
  1
strokes_ogs.tif
176
     1
290
     0
176
     1
 40
1.0
176
     1
 40
1.0
176
     1
1001
ACAD
1000
AcDbSavedByObjectVersion
1070
     0
  0
VISUALSTYLE
  5
8083
102
{ACAD_REACTORS
330
806D
102
}
330
806D
100
AcDbVisualStyle
  2
JitterOff
 70
    20
177
     3
291
     1
 70
    58
 90
        2
176
     0
 90
        2
176
     0
 90
        0
176
     0
 90
        0
176
     0
 40
0.6
176
     0
 40
30.0
176
     0
 62
     7
420
 16777215
176
     0
 90
        1
176
     0
 90
        4
176
     0
 62
     7
176
     0
 62
   257
176
     0
 90
        1
176
     0
 90
        1
176
     0
 40
1.0
176
     0
 90
       10
176
     2
 62
     7
176
     0
 40
1.0
176
     0
 90
        1
176
     0
 90
        6
176
     0
 90
        2
176
     0
 62
     7
176
     0
 90
        5
176
     0
 90
        0
176
     0
 90
        0
176
     0
290
     0
176
     0
 90
        1
176
     0
 40
0.0
176
     0
 90
        0
176
     0
290
     0
176
     0
290
     1
176
     0
290
     1
176
     0
290
     0
176
     0
290
     0
176
     0
290
     0
176
     0
290
     0
176
     0
290
     0
176
     0
290
     0
176
     0
 90
       50
176
     0
 40
0.0
176
     0
 40
1.0
176
     0
 90
        0
176
     0
 62
    18
420
        0
176
     0
 90
       50
176
     0
 90
        3
176
     0
 62
     5
420
      255
176
     0
290
     0
176
     0
 90
       50
176
     0
 90
       50
176
     0
 90
       50
176
     0
290
     0
176
     0
 90
       50
176
     0
 62
   256
176
     0
 40
1.0
176
     0
 90
        2
176
     0
  1
strokes_ogs.tif
176
     0
290
     0
176
     0
 40
1.0
176
     0
 40
1.0
176
     0
1001
ACAD
1000
AcDbSavedByObjectVersion
1070
     0
  0
VISUALSTYLE
  5
807B
102
{ACAD_REACTORS
330
806D
102
}
330
806D
100
AcDbVisualStyle
  2
Linepattern
 70
    14
177
     3
291
     1
 70
    58
 90
        2
176
     1
 90
        2
176
     1
 90
        0
176
     1
 90
        0
176
     1
 40
0.6
176
     1
 40
30.0
176
     1
 62
     7
420
 16777215
176
     1
 90
        1
176
     1
 90
        4
176
     1
 62
     7
176
     1
 62
   257
176
     1
 90
        7
176
     1
 90
        7
176
     1
 40
1.0
176
     1
 90
        8
176
     1
 62
     7
176
     1
 40
1.0
176
     1
 90
        1
176
     1
 90
        6
176
     1
 90
        2
176
     1
 62
     7
176
     1
 90
        5
176
     1
 90
        0
176
     1
 90
        0
176
     1
290
     0
176
     1
 90
        1
176
     1
 40
0.0
176
     1
 90
        0
176
     1
290
     0
176
     1
290
     1
176
     1
290
     1
176
     1
290
     0
176
     1
290
     0
176
     1
290
     0
176
     1
290
     0
176
     1
290
     0
176
     1
290
     0
176
     1
 90
       50
176
     1
 40
0.0
176
     1
 40
1.0
176
     1
 90
        0
176
     1
 62
    18
420
        0
176
     1
 90
       50
176
     1
 90
        3
176
     1
 62
     5
420
      255
176
     1
290
     0
176
     1
 90
       50
176
     1
 90
       50
176
     1
 90
       50
176
     1
290
     0
176
     1
 90
       50
176
     1
 62
   256
176
     0
 40
1.0
176
     0
 90
        2
176
     1
  1
strokes_ogs.tif
176
     1
290
     0
176
     1
 40
1.0
176
     1
 40
1.0
176
     1
1001
ACAD
1000
AcDbSavedByObjectVersion
1070
     0
  0
VISUALSTYLE
  5
8084
102
{ACAD_REACTORS
330
806D
102
}
330
806D
100
AcDbVisualStyle
  2
OverhangOff
 70
    21
177
     3
291
     1
 70
    58
 90
        2
176
     0
 90
        2
176
     0
 90
        0
176
     0
 90
        0
176
     0
 40
0.6
176
     0
 40
30.0
176
     0
 62
     7
420
 16777215
176
     0
 90
        1
176
     0
 90
        4
176
     0
 62
     7
176
     0
 62
   257
176
     0
 90
        1
176
     0
 90
        1
176
     0
 40
1.0
176
     0
 90
        9
176
     2
 62
     7
176
     0
 40
1.0
176
     0
 90
        1
176
     0
 90
        6
176
     0
 90
        2
176
     0
 62
     7
176
     0
 90
        5
176
     0
 90
        0
176
     0
 90
        0
176
     0
290
     0
176
     0
 90
        1
176
     0
 40
0.0
176
     0
 90
        0
176
     0
290
     0
176
     0
290
     1
176
     0
290
     1
176
     0
290
     0
176
     0
290
     0
176
     0
290
     0
176
     0
290
     0
176
     0
290
     0
176
     0
290
     0
176
     0
 90
       50
176
     0
 40
0.0
176
     0
 40
1.0
176
     0
 90
        0
176
     0
 62
    18
420
        0
176
     0
 90
       50
176
     0
 90
        3
176
     0
 62
     5
420
      255
176
     0
290
     0
176
     0
 90
       50
176
     0
 90
       50
176
     0
 90
       50
176
     0
290
     0
176
     0
 90
       50
176
     0
 62
   256
176
     0
 40
1.0
176
     0
 90
        2
176
     0
  1
strokes_ogs.tif
176
     0
290
     0
176
     0
 40
1.0
176
     0
 40
1.0
176
     0
1001
ACAD
1000
AcDbSavedByObjectVersion
1070
     0
  0
VISUALSTYLE
  5
8077
102
{ACAD_REACTORS
330
806D
102
}
330
806D
100
AcDbVisualStyle
  2
Realistic
 70
     8
177
     3
291
     0
 70
    58
 90
        2
176
     1
 90
        3
176
     1
 90
        0
176
     1
 90
        2
176
     1
 40
0.6
176
     1
 40
30.0
176
     1
 62
     7
420
 16777215
176
     1
 90
        0
176
     1
 90
        0
176
     1
 62
     7
176
     1
 62
   257
176
     1
 90
        1
176
     1
 90
        1
176
     1
 40
1.0
176
     1
 90
        8
176
     1
 62
   257
176
     1
 40
1.0
176
     1
 90
        1
176
     1
 90
        6
176
     1
 90
        2
176
     1
 62
     7
176
     1
 90
        3
176
     1
 90
        0
176
     1
 90
        0
176
     1
290
     0
176
     1
 90
       13
176
     1
 40
0.0
176
     1
 90
        0
176
     1
290
     0
176
     1
290
     1
176
     1
290
     1
176
     1
290
     0
176
     1
290
     0
176
     1
290
     0
176
     1
290
     0
176
     1
290
     0
176
     1
290
     0
176
     1
 90
       50
176
     1
 40
0.0
176
     1
 40
1.0
176
     1
 90
        0
176
     1
 62
    18
420
        0
176
     1
 90
       50
176
     1
 90
        3
176
     1
 62
     5
420
      255
176
     1
290
     0
176
     1
 90
       50
176
     1
 90
       50
176
     1
 90
       50
176
     1
290
     0
176
     1
 90
       50
176
     1
 62
   256
176
     0
 40
1.0
176
     0
 90
        2
176
     1
  1
strokes_ogs.tif
176
     1
290
     0
176
     1
 40
1.0
176
     1
 40
1.0
176
     1
1001
ACAD
1000
AcDbSavedByObjectVersion
1070
     0
  0
VISUALSTYLE
  5
8082
102
{ACAD_REACTORS
330
806D
102
}
330
806D
100
AcDbVisualStyle
  2
Shaded
 70
    27
177
     3
291
     0
 70
    58
 90
        2
176
     1
 90
        2
176
     1
 90
        1
176
     1
 90
        2
176
     1
 40
0.6
176
     1
 40
30.0
176
     1
 62
     7
420
 16777215
176
     1
 90
        0
176
     1
 90
        4
176
     1
 62
     7
176
     1
 62
   257
176
     1
 90
        1
176
     1
 90
        1
176
     1
 40
1.0
176
     1
 90
        8
176
     1
 62
   257
176
     1
 40
1.0
176
     1
 90
        1
176
     1
 90
        6
176
     1
 90
        2
176
     1
 62
     8
420
  7895160
176
     1
 90
        3
176
     1
 90
        0
176
     1
 90
        0
176
     1
290
     0
176
     1
 90
        5
176
     1
 40
0.0
176
     1
 90
        0
176
     1
290
     0
176
     1
290
     1
176
     1
290
     1
176
     1
290
     0
176
     1
290
     0
176
     1
290
     0
176
     1
290
     0
176
     1
290
     0
176
     1
290
     0
176
     1
 90
       50
176
     1
 40
0.0
176
     1
 40
1.0
176
     1
 90
        0
176
     1
 62
    18
420
        0
176
     1
 90
       50
176
     1
 90
        3
176
     1
 62
     5
420
      255
176
     1
290
     0
176
     1
 90
       50
176
     1
 90
       50
176
     1
 90
       50
176
     1
290
     0
176
     1
 90
       50
176
     1
 62
   256
176
     0
 40
1.0
176
     0
 90
        2
176
     1
  1
strokes_ogs.tif
176
     1
290
     0
176
     1
 40
1.0
176
     1
 40
1.0
176
     1
1001
ACAD
1000
AcDbSavedByObjectVersion
1070
     0
  0
VISUALSTYLE
  5
8081
102
{ACAD_REACTORS
330
806D
102
}
330
806D
100
AcDbVisualStyle
  2
Shaded with edges
 70
    26
177
     3
291
     0
 70
    58
 90
        2
176
     1
 90
        2
176
     1
 90
        1
176
     1
 90
        2
176
     1
 40
0.6
176
     1
 40
30.0
176
     1
 62
     7
420
 16777215
176
     1
 90
        1
176
     1
 90
        2
176
     1
 62
     7
176
     1
 62
   257
176
     1
 90
        2
176
     1
 90
        1
176
     1
 40
1.0
176
     1
 90
        8
176
     1
 62
   257
176
     1
 40
1.0
176
     1
 90
        1
176
     1
 90
        6
176
     1
 90
        2
176
     1
 62
     7
176
     1
 90
        3
176
     1
 90
        0
176
     1
 90
        0
176
     1
290
     0
176
     1
 90
        5
176
     1
 40
0.0
176
     1
 90
        0
176
     1
290
     0
176
     1
290
     1
176
     1
290
     1
176
     1
290
     0
176
     1
290
     0
176
     1
290
     0
176
     1
290
     0
176
     1
290
     0
176
     1
290
     0
176
     1
 90
       50
176
     1
 40
0.0
176
     1
 40
1.0
176
     1
 90
        0
176
     1
 62
    18
420
        0
176
     1
 90
       50
176
     1
 90
        3
176
     1
 62
     5
420
      255
176
     1
290
     0
176
     1
 90
       50
176
     1
 90
       50
176
     1
 90
       50
176
     1
290
     0
176
     1
 90
       50
176
     1
 62
   256
176
     0
 40
1.0
176
     0
 90
        2
176
     1
  1
strokes_ogs.tif
176
     1
290
     0
176
     1
 40
1.0
176
     1
 40
1.0
176
     1
1001
ACAD
1000
AcDbSavedByObjectVersion
1070
     0
  0
VISUALSTYLE
  5
807E
102
{ACAD_REACTORS
330
806D
102
}
330
806D
100
AcDbVisualStyle
  2
Shades of Gray
 70
    23
177
     3
291
     0
 70
    58
 90
        2
176
     1
 90
        2
176
     1
 90
        3
176
     1
 90
        0
176
     1
 40
0.6
176
     1
 40
30.0
176
     1
 62
     7
420
 16777215
176
     1
 90
        2
176
     1
 90
        2
176
     1
 62
     7
176
     1
 62
     7
176
     1
 90
        1
176
     1
 90
        1
176
     1
 40
40.0
176
     1
 90
        8
176
     1
 62
     7
176
     1
 40
1.0
176
     1
 90
        1
176
     1
 90
        6
176
     1
 90
        2
176
     1
 62
     7
176
     1
 90
        3
176
     1
 90
        0
176
     1
 90
        0
176
     1
290
     0
176
     1
 90
        1
176
     1
 40
0.0
176
     1
 90
        0
176
     1
290
     0
176
     1
290
     1
176
     1
290
     1
176
     1
290
     0
176
     1
290
     0
176
     1
290
     0
176
     1
290
     0
176
     1
290
     0
176
     1
290
     0
176
     1
 90
       50
176
     1
 40
0.0
176
     1
 40
1.0
176
     1
 90
        0
176
     1
 62
    18
420
        0
176
     1
 90
       50
176
     1
 90
        3
176
     1
 62
     5
420
      255
176
     1
290
     0
176
     1
 90
       50
176
     1
 90
       50
176
     1
 90
       50
176
     1
290
     0
176
     1
 90
       50
176
     1
 62
   256
176
     0
 40
1.0
176
     0
 90
        2
176
     1
  1
strokes_ogs.tif
176
     1
290
     0
176
     1
 40
1.0
176
     1
 40
1.0
176
     1
1001
ACAD
1000
AcDbSavedByObjectVersion
1070
     0
  0
VISUALSTYLE
  5
807F
102
{ACAD_REACTORS
330
806D
102
}
330
806D
100
AcDbVisualStyle
  2
Sketchy
 70
    24
177
     3
291
     0
 70
    58
 90
        1
176
     1
 90
        2
176
     1
 90
        2
176
     1
 90
        0
176
     1
 40
0.6
176
     1
 40
30.0
176
     1
 62
     7
420
 16777215
176
     1
 90
        2
176
     1
 90
        2
176
     1
 62
     7
176
     1
 62
     7
176
     1
 90
        1
176
     1
 90
        1
176
     1
 40
40.0
176
     1
 90
       11
176
     1
 62
     7
176
     1
 40
1.0
176
     1
 90
        1
176
     1
 90
        6
176
     1
 90
        2
176
     1
 62
     7
176
     1
 90
        6
176
     1
 90
        0
176
     1
 90
        0
176
     1
290
     0
176
     1
 90
        1
176
     1
 40
0.0
176
     1
 90
        0
176
     1
290
     0
176
     1
290
     1
176
     1
290
     1
176
     1
290
     0
176
     1
290
     0
176
     1
290
     0
176
     1
290
     0
176
     1
290
     0
176
     1
290
     0
176
     1
 90
       50
176
     1
 40
0.0
176
     1
 40
1.0
176
     1
 90
        0
176
     1
 62
    18
420
        0
176
     1
 90
       50
176
     1
 90
        3
176
     1
 62
     5
420
      255
176
     1
290
     0
176
     1
 90
       50
176
     1
 90
       50
176
     1
 90
       50
176
     1
290
     0
176
     1
 90
       50
176
     1
 62
   256
176
     0
 40
1.0
176
     0
 90
        2
176
     1
  1
strokes_ogs.tif
176
     1
290
     0
176
     1
 40
1.0
176
     1
 40
1.0
176
     1
1001
ACAD
1000
AcDbSavedByObjectVersion
1070
     0
  0
VISUALSTYLE
  5
807A
102
{ACAD_REACTORS
330
806D
102
}
330
806D
100
AcDbVisualStyle
  2
Thicken
 70
    13
177
     3
291
     1
 70
    58
 90
        2
176
     1
 90
        2
176
     1
 90
        0
176
     1
 90
        0
176
     1
 40
0.6
176
     1
 40
30.0
176
     1
 62
     7
420
 16777215
176
     1
 90
        1
176
     1
 90
        4
176
     1
 62
     7
176
     1
 62
   257
176
     1
 90
        1
176
     1
 90
        1
176
     1
 40
1.0
176
     1
 90
       12
176
     1
 62
     7
176
     1
 40
1.0
176
     1
 90
        1
176
     1
 90
        6
176
     1
 90
        2
176
     1
 62
     7
176
     1
 90
        5
176
     1
 90
        0
176
     1
 90
        0
176
     1
290
     0
176
     1
 90
        1
176
     1
 40
0.0
176
     1
 90
        0
176
     1
290
     0
176
     1
290
     1
176
     1
290
     1
176
     1
290
     0
176
     1
290
     0
176
     1
290
     0
176
     1
290
     0
176
     1
290
     0
176
     1
290
     0
176
     1
 90
       50
176
     1
 40
0.0
176
     1
 40
1.0
176
     1
 90
        0
176
     1
 62
    18
420
        0
176
     1
 90
       50
176
     1
 90
        3
176
     1
 62
     5
420
      255
176
     1
290
     0
176
     1
 90
       50
176
     1
 90
       50
176
     1
 90
       50
176
     1
290
     0
176
     1
 90
       50
176
     1
 62
   256
176
     0
 40
1.0
176
     0
 90
        2
176
     1
  1
strokes_ogs.tif
176
     1
290
     0
176
     1
 40
1.0
176
     1
 40
1.0
176
     1
1001
ACAD
1000
AcDbSavedByObjectVersion
1070
     0
  0
VISUALSTYLE
  5
8074
102
{ACAD_REACTORS
330
806D
102
}
330
806D
100
AcDbVisualStyle
  2
Wireframe
 70
     5
177
     3
291
     0
 70
    58
 90
        0
176
     1
 90
        2
176
     1
 90
        0
176
     1
 90
        0
176
     1
 40
0.6
176
     1
 40
30.0
176
     1
 62
     7
420
 16777215
176
     1
 90
        1
176
     1
 90
        4
176
     1
 62
     7
176
     1
 62
   257
176
     1
 90
        1
176
     1
 90
        1
176
     1
 40
1.0
176
     1
 90
        0
176
     1
 62
   257
176
     1
 40
1.0
176
     1
 90
        1
176
     1
 90
        6
176
     1
 90
        2
176
     1
 62
     7
176
     1
 90
        3
176
     1
 90
        0
176
     1
 90
        0
176
     1
290
     0
176
     1
 90
        1
176
     1
 40
0.0
176
     1
 90
        0
176
     1
290
     0
176
     1
290
     1
176
     1
290
     1
176
     1
290
     0
176
     1
290
     0
176
     1
290
     0
176
     1
290
     0
176
     1
290
     0
176
     1
290
     0
176
     1
 90
       50
176
     1
 40
0.0
176
     1
 40
1.0
176
     1
 90
        0
176
     1
 62
    18
420
        0
176
     1
 90
       50
176
     1
 90
        3
176
     1
 62
     5
420
      255
176
     1
290
     0
176
     1
 90
       50
176
     1
 90
       50
176
     1
 90
       50
176
     1
290
     0
176
     1
 90
       50
176
     1
 62
   256
176
     0
 40
1.0
176
     0
 90
        2
176
     1
  1
strokes_ogs.tif
176
     1
290
     0
176
     1
 40
1.0
176
     1
 40
1.0
176
     1
1001
ACAD
1000
AcDbSavedByObjectVersion
1070
     0
  0
VISUALSTYLE
  5
8080
102
{ACAD_REACTORS
330
806D
102
}
330
806D
100
AcDbVisualStyle
  2
X-Ray
 70
    25
177
     3
291
     0
 70
    58
 90
        2
176
     1
 90
        2
176
     1
 90
        1
176
     1
 90
        1
176
     1
 40
0.5
176
     1
 40
30.0
176
     1
 62
     7
420
 16777215
176
     1
 90
        1
176
     1
 90
        0
176
     1
 62
     7
176
     1
 62
   257
176
     1
 90
        1
176
     1
 90
        1
176
     1
 40
1.0
176
     1
 90
        8
176
     1
 62
     7
176
     1
 40
1.0
176
     1
 90
        1
176
     1
 90
        6
176
     1
 90
        2
176
     1
 62
     7
176
     1
 90
        3
176
     1
 90
        0
176
     1
 90
        0
176
     1
290
     0
176
     1
 90
       13
176
     1
 40
0.0
176
     1
 90
        0
176
     1
290
     0
176
     1
290
     1
176
     1
290
     1
176
     1
290
     0
176
     1
290
     0
176
     1
290
     0
176
     1
290
     0
176
     1
290
     0
176
     1
290
     0
176
     1
 90
       50
176
     1
 40
0.0
176
     1
 40
1.0
176
     1
 90
        0
176
     1
 62
    18
420
        0
176
     1
 90
       50
176
     1
 90
        3
176
     1
 62
     5
420
      255
176
     1
290
     0
176
     1
 90
       50
176
     1
 90
       50
176
     1
 90
       50
176
     1
290
     0
176
     1
 90
       50
176
     1
 62
   256
176
     0
 40
1.0
176
     0
 90
        2
176
     1
  1
strokes_ogs.tif
176
     1
290
     0
176
     1
 40
1.0
176
     1
 40
1.0
176
     1
1001
ACAD
1000
AcDbSavedByObjectVersion
1070
     0
  0
DICTIONARYVAR
  5
80FC
102
{ACAD_REACTORS
330
80F6
102
}
330
80F6
100
DictionaryVariables
280
     0
  1
1:1
  0
DICTIONARYVAR
  5
80F8
102
{ACAD_REACTORS
330
80F6
102
}
330
80F6
100
DictionaryVariables
280
     0
  1
STANDARD
  0
DICTIONARYVAR
  5
80F7
102
{ACAD_REACTORS
330
80F6
102
}
330
80F6
100
DictionaryVariables
280
     0
  1
STANDARD
  0
DICTIONARYVAR
  5
80F9
102
{ACAD_REACTORS
330
80F6
102
}
330
80F6
100
DictionaryVariables
280
     0
  1
Metric50
  0
DICTIONARYVAR
  5
80FA
102
{ACAD_REACTORS
330
80F6
102
}
330
80F6
100
DictionaryVariables
280
     0
  1
Metric50
  0
DICTIONARYVAR
  5
80FE
102
{ACAD_REACTORS
330
80F6
102
}
330
80F6
100
DictionaryVariables
280
     0
  1
1
  0
DICTIONARYVAR
  5
80FF
102
{ACAD_REACTORS
330
80F6
102
}
330
80F6
100
DictionaryVariables
280
     0
  1
15
  0
DICTIONARYVAR
  5
80FD
102
{ACAD_REACTORS
330
80F6
102
}
330
80F6
100
DictionaryVariables
280
     0
  1
0
  0
DICTIONARYVAR
  5
8104
102
{ACAD_REACTORS
330
80F6
102
}
330
80F6
100
DictionaryVariables
280
     0
  1
0
  0
DICTIONARYVAR
  5
80FB
102
{ACAD_REACTORS
330
80F6
102
}
330
80F6
100
DictionaryVariables
280
     0
  1
0
  0
DICTIONARY
  5
810F
102
{ACAD_REACTORS
330
810D
102
}
330
810D
100
AcDbDictionary
281
     1
  0
DICTIONARY
  5
810E
102
{ACAD_REACTORS
330
810D
102
}
330
810D
100
AcDbDictionary
281
     1
  3
2042110378624
350
8108
  3
2042110378640
350
8109
  3
2042110378656
350
810A
  3
2042110378672
350
810B
  3
2042110378688
350
810C
  0
DICTIONARY
  5
8112
330
80A0
100
AcDbDictionary
280
     1
281
     1
  3
ACAD_XREC_ROUNDTRIP
360
8113
  0
DICTIONARY
  5
805E
330
805D
100
AcDbDictionary
280
     1
281
     1
  3
BUMPTILE
360
8060
  3
DIFFUSETILE
360
805F
  3
OPACITYTILE
360
8063
  3
REFLECTIONTILE
360
8062
  3
REFRACTIONTILE
360
8064
  3
SPECULARTILE
360
8061
  0
DICTIONARY
  5
8056
330
8055
100
AcDbDictionary
280
     1
281
     1
  3
BUMPTILE
360
8058
  3
DIFFUSETILE
360
8057
  3
OPACITYTILE
360
805B
  3
REFLECTIONTILE
360
805A
  3
REFRACTIONTILE
360
805C
  3
SPECULARTILE
360
8059
  0
DICTIONARY
  5
8066
330
8065
100
AcDbDictionary
280
     1
281
     1
  3
BUMPTILE
360
8068
  3
DIFFUSETILE
360
8067
  3
OPACITYTILE
360
806B
  3
REFLECTIONTILE
360
806A
  3
REFRACTIONTILE
360
806C
  3
SPECULARTILE
360
8069
  0
DICTIONARY
  5
8110
330
809E
100
AcDbDictionary
280
     1
281
     1
  3
ACAD_XREC_ROUNDTRIP
360
8111
  0
DICTIONARY
  5
8105
330
8088
100
AcDbDictionary
280
     1
281
     1
  3
ACAD_ROUNDTRIP_2008_TABLESTYLE_CELLSTYLEMAP
360
8106
  0
XRECORD
  5
8108
102
{ACAD_REACTORS
330
810E
102
}
330
810E
100
AcDbXrecord
280
     1
  1
AcDb_Thumbnail_Schema
102
{ATTRRECORD
341
8109
  2
AcDbDs::TreatedAsObjectData
280
     1
291
     1
102
ATTRRECORD}
102
{ATTRRECORD
341
810A
  2
AcDbDs::Legacy
280
     1
291
     1
102
ATTRRECORD}
  2
AcDbDs::ID
280
    10
 91
        8
102
{ATTRRECORD
341
810B
  2
AcDs:Indexable
280
     1
291
     1
102
ATTRRECORD}
102
{ATTRRECORD
341
810C
  2
AcDbDs::HandleAttribute
280
     7
282
     1
102
ATTRRECORD}
  2
Thumbnail_Data
280
    15
 91
        0
  0
XRECORD
  5
8109
102
{ACAD_REACTORS
330
810E
102
}
330
810E
100
AcDbXrecord
280
     1
  1
AcDbDs::TreatedAsObjectDataSchema
  2
AcDbDs::TreatedAsObjectData
280
     1
 91
        0
  0
XRECORD
  5
810A
102
{ACAD_REACTORS
330
810E
102
}
330
810E
100
AcDbXrecord
280
     1
  1
AcDbDs::LegacySchema
  2
AcDbDs::Legacy
280
     1
 91
        0
  0
XRECORD
  5
810B
102
{ACAD_REACTORS
330
810E
102
}
330
810E
100
AcDbXrecord
280
     1
  1
AcDbDs::IndexedPropertySchema
  2
AcDs:Indexable
280
     1
 91
        0
  0
XRECORD
  5
810C
102
{ACAD_REACTORS
330
810E
102
}
330
810E
100
AcDbXrecord
280
     1
  1
AcDbDs::HandleAttributeSchema
  2
AcDbDs::HandleAttribute
280
     7
 91
        1
284
     1
  0
XRECORD
  5
8113
102
{ACAD_REACTORS
330
8112
102
}
330
8112
100
AcDbXrecord
280
     1
102
DISPLAYNAME
  1
Metric50
102
FLAGS
 90
        0
  0
XRECORD
  5
8060
102
{ACAD_REACTORS
330
805E
102
}
330
805E
100
AcDbXrecord
280
     1
270
     1
271
     1
  0
XRECORD
  5
805F
102
{ACAD_REACTORS
330
805E
102
}
330
805E
100
AcDbXrecord
280
     1
270
     1
271
     1
  0
XRECORD
  5
8063
102
{ACAD_REACTORS
330
805E
102
}
330
805E
100
AcDbXrecord
280
     1
270
     1
271
     1
  0
XRECORD
  5
8062
102
{ACAD_REACTORS
330
805E
102
}
330
805E
100
AcDbXrecord
280
     1
270
     1
271
     1
  0
XRECORD
  5
8064
102
{ACAD_REACTORS
330
805E
102
}
330
805E
100
AcDbXrecord
280
     1
270
     1
271
     1
  0
XRECORD
  5
8061
102
{ACAD_REACTORS
330
805E
102
}
330
805E
100
AcDbXrecord
280
     1
270
     1
271
     1
  0
XRECORD
  5
8058
102
{ACAD_REACTORS
330
8056
102
}
330
8056
100
AcDbXrecord
280
     1
270
     1
271
     1
  0
XRECORD
  5
8057
102
{ACAD_REACTORS
330
8056
102
}
330
8056
100
AcDbXrecord
280
     1
270
     1
271
     1
  0
XRECORD
  5
805B
102
{ACAD_REACTORS
330
8056
102
}
330
8056
100
AcDbXrecord
280
     1
270
     1
271
     1
  0
XRECORD
  5
805A
102
{ACAD_REACTORS
330
8056
102
}
330
8056
100
AcDbXrecord
280
     1
270
     1
271
     1
  0
XRECORD
  5
805C
102
{ACAD_REACTORS
330
8056
102
}
330
8056
100
AcDbXrecord
280
     1
270
     1
271
     1
  0
XRECORD
  5
8059
102
{ACAD_REACTORS
330
8056
102
}
330
8056
100
AcDbXrecord
280
     1
270
     1
271
     1
  0
XRECORD
  5
8068
102
{ACAD_REACTORS
330
8066
102
}
330
8066
100
AcDbXrecord
280
     1
270
     1
271
     1
  0
XRECORD
  5
8067
102
{ACAD_REACTORS
330
8066
102
}
330
8066
100
AcDbXrecord
280
     1
270
     1
271
     1
  0
XRECORD
  5
806B
102
{ACAD_REACTORS
330
8066
102
}
330
8066
100
AcDbXrecord
280
     1
270
     1
271
     1
  0
XRECORD
  5
806A
102
{ACAD_REACTORS
330
8066
102
}
330
8066
100
AcDbXrecord
280
     1
270
     1
271
     1
  0
XRECORD
  5
806C
102
{ACAD_REACTORS
330
8066
102
}
330
8066
100
AcDbXrecord
280
     1
270
     1
271
     1
  0
XRECORD
  5
8069
102
{ACAD_REACTORS
330
8066
102
}
330
8066
100
AcDbXrecord
280
     1
270
     1
271
     1
  0
XRECORD
  5
8111
102
{ACAD_REACTORS
330
8110
102
}
330
8110
100
AcDbXrecord
280
     1
102
DISPLAYNAME
  1
Metric50
102
FLAGS
 90
        0
  0
CELLSTYLEMAP
  5
8106
102
{ACAD_REACTORS
330
8105
102
}
330
8105
100
AcDbCellStyleMap
 90
        3
300
CELLSTYLE
  1
TABLEFORMAT_BEGIN
 90
        5
170
     1
 91
        0
 92
    32768
 62
   257
 93
        1
300
CONTENTFORMAT
  1
CONTENTFORMAT_BEGIN
 90
        0
 91
        0
 92
      512
 93
        0
300

 40
0.0
140
1.0
 94
        5
 62
     0
340
10
144
6.0
309
CONTENTFORMAT_END
171
     1
301
MARGIN
  1
CELLMARGIN_BEGIN
 40
1.5
 40
1.5
 40
1.5
 40
1.5
 40
4.5
 40
4.5
309
CELLMARGIN_END
 94
        6
 95
        1
302
GRIDFORMAT
  1
GRIDFORMAT_BEGIN
 90
        0
 91
        1
 62
     0
 92
       -2
340
0
 93
        0
 40
1.125
309
GRIDFORMAT_END
 95
        2
302
GRIDFORMAT
  1
GRIDFORMAT_BEGIN
 90
        0
 91
        1
 62
     0
 92
       -2
340
0
 93
        0
 40
1.125
309
GRIDFORMAT_END
 95
        4
302
GRIDFORMAT
  1
GRIDFORMAT_BEGIN
 90
        0
 91
        1
 62
     0
 92
       -2
340
0
 93
        0
 40
1.125
309
GRIDFORMAT_END
 95
        8
302
GRIDFORMAT
  1
GRIDFORMAT_BEGIN
 90
        0
 91
        1
 62
     0
 92
       -2
340
0
 93
        0
 40
1.125
309
GRIDFORMAT_END
 95
       16
302
GRIDFORMAT
  1
GRIDFORMAT_BEGIN
 90
        0
 91
        1
 62
     0
 92
       -2
340
0
 93
        0
 40
1.125
309
GRIDFORMAT_END
 95
       32
302
GRIDFORMAT
  1
GRIDFORMAT_BEGIN
 90
        0
 91
        1
 62
     0
 92
       -2
340
0
 93
        0
 40
1.125
309
GRIDFORMAT_END
309
TABLEFORMAT_END
  1
CELLSTYLE_BEGIN
 90
        1
 91
        1
300
_TITLE
309
CELLSTYLE_END
300
CELLSTYLE
  1
TABLEFORMAT_BEGIN
 90
        5
170
     1
 91
        0
 92
        0
 62
   257
 93
        1
300
CONTENTFORMAT
  1
CONTENTFORMAT_BEGIN
 90
        0
 91
        0
 92
      512
 93
        0
300

 40
0.0
140
1.0
 94
        5
 62
     0
340
10
144
4.5
309
CONTENTFORMAT_END
171
     1
301
MARGIN
  1
CELLMARGIN_BEGIN
 40
1.5
 40
1.5
 40
1.5
 40
1.5
 40
4.5
 40
4.5
309
CELLMARGIN_END
 94
        6
 95
        1
302
GRIDFORMAT
  1
GRIDFORMAT_BEGIN
 90
        0
 91
        1
 62
     0
 92
       -2
340
0
 93
        0
 40
1.125
309
GRIDFORMAT_END
 95
        2
302
GRIDFORMAT
  1
GRIDFORMAT_BEGIN
 90
        0
 91
        1
 62
     0
 92
       -2
340
0
 93
        0
 40
1.125
309
GRIDFORMAT_END
 95
        4
302
GRIDFORMAT
  1
GRIDFORMAT_BEGIN
 90
        0
 91
        1
 62
     0
 92
       -2
340
0
 93
        0
 40
1.125
309
GRIDFORMAT_END
 95
        8
302
GRIDFORMAT
  1
GRIDFORMAT_BEGIN
 90
        0
 91
        1
 62
     0
 92
       -2
340
0
 93
        0
 40
1.125
309
GRIDFORMAT_END
 95
       16
302
GRIDFORMAT
  1
GRIDFORMAT_BEGIN
 90
        0
 91
        1
 62
     0
 92
       -2
340
0
 93
        0
 40
1.125
309
GRIDFORMAT_END
 95
       32
302
GRIDFORMAT
  1
GRIDFORMAT_BEGIN
 90
        0
 91
        1
 62
     0
 92
       -2
340
0
 93
        0
 40
1.125
309
GRIDFORMAT_END
309
TABLEFORMAT_END
  1
CELLSTYLE_BEGIN
 90
        2
 91
        1
300
_HEADER
309
CELLSTYLE_END
300
CELLSTYLE
  1
TABLEFORMAT_BEGIN
 90
        5
170
     1
 91
        0
 92
        0
 62
   257
 93
        1
300
CONTENTFORMAT
  1
CONTENTFORMAT_BEGIN
 90
        0
 91
        0
 92
      512
 93
        0
300

 40
0.0
140
1.0
 94
        2
 62
     0
340
10
144
4.5
309
CONTENTFORMAT_END
171
     1
301
MARGIN
  1
CELLMARGIN_BEGIN
 40
1.5
 40
1.5
 40
1.5
 40
1.5
 40
4.5
 40
4.5
309
CELLMARGIN_END
 94
        6
 95
        1
302
GRIDFORMAT
  1
GRIDFORMAT_BEGIN
 90
        0
 91
        1
 62
     0
 92
       -2
340
0
 93
        0
 40
1.125
309
GRIDFORMAT_END
 95
        2
302
GRIDFORMAT
  1
GRIDFORMAT_BEGIN
 90
        0
 91
        1
 62
     0
 92
       -2
340
0
 93
        0
 40
1.125
309
GRIDFORMAT_END
 95
        4
302
GRIDFORMAT
  1
GRIDFORMAT_BEGIN
 90
        0
 91
        1
 62
     0
 92
       -2
340
0
 93
        0
 40
1.125
309
GRIDFORMAT_END
 95
        8
302
GRIDFORMAT
  1
GRIDFORMAT_BEGIN
 90
        0
 91
        1
 62
     0
 92
       -2
340
0
 93
        0
 40
1.125
309
GRIDFORMAT_END
 95
       16
302
GRIDFORMAT
  1
GRIDFORMAT_BEGIN
 90
        0
 91
        1
 62
     0
 92
       -2
340
0
 93
        0
 40
1.125
309
GRIDFORMAT_END
 95
       32
302
GRIDFORMAT
  1
GRIDFORMAT_BEGIN
 90
        0
 91
        1
 62
     0
 92
       -2
340
0
 93
        0
 40
1.125
309
GRIDFORMAT_END
309
TABLEFORMAT_END
  1
CELLSTYLE_BEGIN
 90
        3
 91
        2
300
_DATA
309
CELLSTYLE_END
  0
ENDSEC
  0
SECTION
  2
ACDSDATA
 70
     2
 71
     8
  0
ACDSSCHEMA
 90
        0
  1
AcDb_Thumbnail_Schema
  2
AcDbDs::ID
280
    10
 91
        8
  2
Thumbnail_Data
280
    15
 91
        0
101
ACDSRECORD
 95
        0
 90
        1
  2
AcDbDs::TreatedAsObjectData
280
     1
291
     1
101
ACDSRECORD
 95
        0
 90
        2
  2
AcDbDs::Legacy
280
     1
291
     1
101
ACDSRECORD
  1
AcDbDs::ID
 90
        3
  2
AcDs:Indexable
280
     1
291
     1
101
ACDSRECORD
  1
AcDbDs::ID
 90
        4
  2
AcDbDs::HandleAttribute
280
     7
282
     1
  0
ACDSSCHEMA
 90
        1
  1
AcDbDs::TreatedAsObjectDataSchema
  2
AcDbDs::TreatedAsObjectData
280
     1
 91
        0
  0
ACDSSCHEMA
 90
        2
  1
AcDbDs::LegacySchema
  2
AcDbDs::Legacy
280
     1
 91
        0
  0
ACDSSCHEMA
 90
        3
  1
AcDbDs::IndexedPropertySchema
  2
AcDs:Indexable
280
     1
 91
        0
  0
ACDSSCHEMA
 90
        4
  1
AcDbDs::HandleAttributeSchema
  2
AcDbDs::HandleAttribute
280
     7
 91
        1
284
     1
  0
ACDSRECORD
 90
        0
  2
AcDbDs::ID
280
    10
320
7FFA
  2
Thumbnail_Data
280
    15
 94
     1708
310
89504E470D0A1A0A0000000D49484452000001000000007C0803000000B13B9E5A00000300504C5445000000000000C8C8C80000000000000000000000000000000000000000000000000000330000660000990000CC0000FF0033000033330033660033990033CC0033FF0066000066330066660066990066CC0066FF0099
310
000099330099660099990099CC0099FF00CC0000CC3300CC6600CC9900CCCC00CCFF00FF0000FF3300FF6600FF9900FFCC00FFFF3300003300333300663300993300CC3300FF3333003333333333663333993333CC3333FF3366003366333366663366993366CC3366FF3399003399333399663399993399CC3399FF33CC00
310
33CC3333CC6633CC9933CCCC33CCFF33FF0033FF3333FF6633FF9933FFCC33FFFF6600006600336600666600996600CC6600FF6633006633336633666633996633CC6633FF6666006666336666666666996666CC6666FF6699006699336699666699996699CC6699FF66CC0066CC3366CC6666CC9966CCCC66CCFF66FF0066
310
FF3366FF6666FF9966FFCC66FFFF9900009900339900669900999900CC9900FF9933009933339933669933999933CC9933FF9966009966339966669966999966CC9966FF9999009999339999669999999999CC9999FF99CC0099CC3399CC6699CC9999CCCC99CCFF99FF0099FF3399FF6699FF9999FFCC99FFFFCC0000CC00
310
33CC0066CC0099CC00CCCC00FFCC3300CC3333CC3366CC3399CC33CCCC33FFCC6600CC6633CC6666CC6699CC66CCCC66FFCC9900CC9933CC9966CC9999CC99CCCC99FFCCCC00CCCC33CCCC66CCCC99CCCCCCCCCCFFCCFF00CCFF33CCFF66CCFF99CCFFCCCCFFFFFF0000FF0033FF0066FF0099FF00CCFF00FFFF3300FF3333
310
FF3366FF3399FF33CCFF33FFFF6600FF6633FF6666FF6699FF66CCFF66FFFF9900FF9933FF9966FF9999FF99CCFF99FFFFCC00FFCC33FFCC66FFCC99FFCCCCFFCCFFFFFF00FFFF33FFFF66FFFF99FFFFCCFFFFFF0000000D0D0D1A1A1A2828283535354343435050505D5D5D6B6B6B787878868686939393A1A1A1AEAEAEBB
310
BBBBC9C9C9D6D6D6E4E4E4F1F1F1FFFFFF00000000000000000000000000000000000000000000000000000000000008F1915C000003674944415478DAED9D5176EC200886598E2FEC7F336EC3F7DB890868489A9E33ED1D017B9A9A642667F8F2838A3603F00BA5FD52815D4ADBEAB209200124800490003EE793DE347E51
310
002C6F6F2115101E408B0C60F182BD01BC7504B025800FBB5802F80F0048C74AD26DAAC310797FAD780E1DF40000BAD1206603ED8E98D71AF500DAA8421B5B170A80ABF8460AE8B68A02D4092F2E303A794DFBC4BD6D2D8360F603020E86BE7589FD004CB1DFD08578FB78956E075D01682680D115104CB0847F27009A0580
310
5A8A7114F8C71180B7BD3F73820920012480049000B60650BF8ABDE31F40BD2E41003CDBF10880EE33AA120DC0D7068D1205C06121595BD86C880A60D4B89200A201E85584B80086F15100F49E8E0640F18FDBC4A77DA19D01142CBD206FCA50003E15813B0584052031A08404A05A810EC0790CB8EE07507F382E809702E2
310
0198C602910098A3C142B120000092800800200C809A00D684D05CAAFB183007022581BE1B28299A00CCA620545ABCCC074B8C84C802609D0D89022067862E4A14009F7BD93FFFA4F5C7D3C209C00180FA2008AA1D333AEE0D40D643ACB60501707DE7EB8D403C2940FE90651300BBC97408E0657AA5ED0580451CEE00D82E
310
603A8A4B0067A1D7C54378C8E401C039AC9D170A098073B2687F00E3A65B169E15809302D083026866EC65CA62374403C0F6E353006B4F606F00487361C01A78A4004F00B07BC1BA3CA003A0330E0170104499113E0340B0016CEE02AAC7D70160E1497103003B871700953BBE47FB5FCAF1FB5A1D7494620028BA206EAF80
310
C505280022DFEF32BBC0AA0074E10263727804C1E1015CD30AE84718003A00306EE2304D7A0307131400D21216A9EE1F0318C021FD224D215254386CE4C583C513804901806A725479C18D025CF50465751CC0E4F3BC84C888010E72823ADBB398C606CFF3C6E00C00A775CCC521450FFAAFFFA9C64742E412000606801100
310
40550E6D2D9058F303F22A870AB074C0B9413962A604F75D26270DA2A4C28DE47FD553267D1CE501C03423783BFFF5EDDA91CD014C77FBAC107DCE9E18DA1CC0DB3D6B1B00101CC0E75F36012480049000FEEE93867FA2E4CF2D0B016079BAA27A0EAF3F00607C6DD26C7253CF976CAE15103306D80A80F1AD02770FD2F41C
310
034202B8F08B400AC8274B67573801248004900012400248000920012400670036FAEAED7F7D21159ECFCD8A4B0000000049454E44AE426082
  0
ENDSEC
  0
EOF
