  0
SECTION
  2
HEADER
  9
$ACADVER
  1
AC1027
  9
$ACADMAINTVER
 70
   125
  9
$DWGCODEPAGE
  3
ANSI_932
  9
$LASTSAVEDBY
  1
yasukiyo.ogawa
  9
$REQUIREDVERSIONS
160
                 0
  9
$INSBASE
 10
0.0
 20
0.0
 30
0.0
  9
$EXTMIN
 10
0.0
 20
0.0
 30
0.0
  9
$EXTMAX
 10
5250.0
 20
7375.0
 30
0.0
  9
$LIMMIN
 10
0.0
 20
0.0
  9
$LIMMAX
 10
297.0
 20
210.0
  9
$ORTHOMODE
 70
     1
  9
$REGENMODE
 70
     1
  9
$FILLMODE
 70
     0
  9
$QTEXTMODE
 70
     0
  9
$MIRRTEXT
 70
     1
  9
$LTSCALE
 40
100.0
  9
$ATTMODE
 70
     1
  9
$TEXTSIZE
 40
180.0
  9
$TRACEWID
 40
0.05
  9
$TEXTSTYLE
  7
STANDARD
  9
$CLAYER
  8
3
  9
$CELTYPE
  6
BYLAYER
  9
$CECOLOR
 62
   256
  9
$CELTSCALE
 40
1.0
  9
$DISPSILH
 70
     0
  9
$DIMSCALE
 40
25.0
  9
$DIMASZ
 40
2.0
  9
$DIMEXO
 40
0.5
  9
$DIMDLI
 40
10.0
  9
$DIMRND
 40
0.0
  9
$DIMDLE
 40
0.0
  9
$DIMEXE
 40
1.0
  9
$DIMTP
 40
1.0
  9
$DIMTM
 40
1.0
  9
$DIMTXT
 40
3.0
  9
$DIMCEN
 40
0.0
  9
$DIMTSZ
 40
0.0
  9
$DIMTOL
 70
     0
  9
$DIMLIM
 70
     0
  9
$DIMTIH
 70
     0
  9
$DIMTOH
 70
     0
  9
$DIMSE1
 70
     0
  9
$DIMSE2
 70
     0
  9
$DIMTAD
 70
     1
  9
$DIMZIN
 70
     8
  9
$DIMBLK
  1

  9
$DIMASO
 70
     1
  9
$DIMSHO
 70
     1
  9
$DIMPOST
  1

  9
$DIMAPOST
  1

  9
$DIMALT
 70
     0
  9
$DIMALTD
 70
     2
  9
$DIMALTF
 40
0.039
  9
$DIMLFAC
 40
1.0
  9
$DIMTOFL
 70
     1
  9
$DIMTVP
 40
0.0
  9
$DIMTIX
 70
     0
  9
$DIMSOXD
 70
     0
  9
$DIMSAH
 70
     1
  9
$DIMBLK1
  1
OPEN
  9
$DIMBLK2
  1
OPEN
  9
$DIMSTYLE
  2
IGA
  9
$DIMCLRD
 70
     0
  9
$DIMCLRE
 70
     0
  9
$DIMCLRT
 70
     0
  9
$DIMTFAC
 40
10.0
  9
$DIMGAP
 40
1.0
  9
$DIMJUST
 70
     0
  9
$DIMSD1
 70
     0
  9
$DIMSD2
 70
     0
  9
$DIMTOLJ
 70
     1
  9
$DIMTZIN
 70
     8
  9
$DIMALTZ
 70
     0
  9
$DIMALTTZ
 70
     0
  9
$DIMUPT
 70
     0
  9
$DIMDEC
 70
     0
  9
$DIMTDEC
 70
     0
  9
$DIMALTU
 70
     2
  9
$DIMALTTD
 70
     2
  9
$DIMTXSTY
  7
STANDARD
  9
$DIMAUNIT
 70
     0
  9
$DIMADEC
 70
     0
  9
$DIMALTRND
 40
0.0
  9
$DIMAZIN
 70
     0
  9
$DIMDSEP
 70
    46
  9
$DIMATFIT
 70
     3
  9
$DIMFRAC
 70
     0
  9
$DIMLDRBLK
  1
OPEN
  9
$DIMLUNIT
 70
     2
  9
$DIMLWD
 70
    -2
  9
$DIMLWE
 70
    -2
  9
$DIMTMOVE
 70
     2
  9
$DIMFXL
 40
1.0
  9
$DIMFXLON
 70
     0
  9
$DIMJOGANG
 40
0.7853981633974483
  9
$DIMTFILL
 70
     0
  9
$DIMTFILLCLR
 70
     0
  9
$DIMARCSYM
 70
     0
  9
$DIMLTYPE
  6

  9
$DIMLTEX1
  6

  9
$DIMLTEX2
  6

  9
$DIMTXTDIRECTION
 70
     0
  9
$LUNITS
 70
     2
  9
$LUPREC
 70
     3
  9
$SKETCHINC
 40
0.1
  9
$FILLETRAD
 40
50.0
  9
$AUNITS
 70
     0
  9
$AUPREC
 70
     0
  9
$MENU
  1
acad
  9
$ELEVATION
 40
0.0
  9
$PELEVATION
 40
0.0
  9
$THICKNESS
 40
0.0
  9
$LIMCHECK
 70
     0
  9
$CHAMFERA
 40
0.5
  9
$CHAMFERB
 40
0.5
  9
$CHAMFERC
 40
20.0
  9
$CHAMFERD
 40
0.0
  9
$SKPOLY
 70
     0
  9
$TDCREATE
 40
2451381.467476852
  9
$TDUCREATE
 40
2451381.092478241
  9
$TDUPDATE
 40
2460217.569837963
  9
$TDUUPDATE
 40
2460217.194843484
  9
$TDINDWG
 40
0.0302893171
  9
$TDUSRTIMER
 40
0.0302893171
  9
$USRTIMER
 70
     1
  9
$ANGBASE
 50
0.0
  9
$ANGDIR
 70
     0
  9
$PDMODE
 70
     0
  9
$PDSIZE
 40
0.0
  9
$PLINEWID
 40
0.0
  9
$SPLFRAME
 70
     0
  9
$SPLINETYPE
 70
     6
  9
$SPLINESEGS
 70
     8
  9
$HANDSEED
  5
82C9
  9
$SURFTAB1
 70
     6
  9
$SURFTAB2
 70
     6
  9
$SURFTYPE
 70
     6
  9
$SURFU
 70
     6
  9
$SURFV
 70
     6
  9
$UCSBASE
  2

  9
$UCSNAME
  2

  9
$UCSORG
 10
0.0
 20
0.0
 30
0.0
  9
$UCSXDIR
 10
1.0
 20
0.0
 30
0.0
  9
$UCSYDIR
 10
0.0
 20
1.0
 30
0.0
  9
$UCSORTHOREF
  2

  9
$UCSORTHOVIEW
 70
     0
  9
$UCSORGTOP
 10
0.0
 20
0.0
 30
0.0
  9
$UCSORGBOTTOM
 10
0.0
 20
0.0
 30
0.0
  9
$UCSORGLEFT
 10
0.0
 20
0.0
 30
0.0
  9
$UCSORGRIGHT
 10
0.0
 20
0.0
 30
0.0
  9
$UCSORGFRONT
 10
0.0
 20
0.0
 30
0.0
  9
$UCSORGBACK
 10
0.0
 20
0.0
 30
0.0
  9
$PUCSBASE
  2

  9
$PUCSNAME
  2

  9
$PUCSORG
 10
0.0
 20
0.0
 30
0.0
  9
$PUCSXDIR
 10
1.0
 20
0.0
 30
0.0
  9
$PUCSYDIR
 10
0.0
 20
1.0
 30
0.0
  9
$PUCSORTHOREF
  2

  9
$PUCSORTHOVIEW
 70
     0
  9
$PUCSORGTOP
 10
0.0
 20
0.0
 30
0.0
  9
$PUCSORGBOTTOM
 10
0.0
 20
0.0
 30
0.0
  9
$PUCSORGLEFT
 10
0.0
 20
0.0
 30
0.0
  9
$PUCSORGRIGHT
 10
0.0
 20
0.0
 30
0.0
  9
$PUCSORGFRONT
 10
0.0
 20
0.0
 30
0.0
  9
$PUCSORGBACK
 10
0.0
 20
0.0
 30
0.0
  9
$USERI1
 70
     0
  9
$USERI2
 70
     0
  9
$USERI3
 70
     0
  9
$USERI4
 70
     0
  9
$USERI5
 70
     0
  9
$USERR1
 40
0.0
  9
$USERR2
 40
0.0
  9
$USERR3
 40
0.0
  9
$USERR4
 40
0.0
  9
$USERR5
 40
0.0
  9
$WORLDVIEW
 70
     1
  9
$SHADEDGE
 70
     3
  9
$SHADEDIF
 70
    70
  9
$TILEMODE
 70
     1
  9
$MAXACTVP
 70
    16
  9
$PINSBASE
 10
0.0
 20
0.0
 30
0.0
  9
$PLIMCHECK
 70
     0
  9
$PEXTMIN
 10
1.000000000000000E+20
 20
1.000000000000000E+20
 30
1.000000000000000E+20
  9
$PEXTMAX
 10
-1.000000000000000E+20
 20
-1.000000000000000E+20
 30
-1.000000000000000E+20
  9
$PLIMMIN
 10
0.0
 20
0.0
  9
$PLIMMAX
 10
12.0
 20
9.0
  9
$UNITMODE
 70
     0
  9
$VISRETAIN
 70
     0
  9
$PLINEGEN
 70
     0
  9
$PSLTSCALE
 70
     1
  9
$TREEDEPTH
 70
  3020
  9
$CMLSTYLE
  2
STANDARD
  9
$CMLJUST
 70
     0
  9
$CMLSCALE
 40
20.0
  9
$PROXYGRAPHICS
 70
     1
  9
$MEASUREMENT
 70
     1
  9
$CELWEIGHT
370
    -1
  9
$ENDCAPS
280
     0
  9
$JOINSTYLE
280
     0
  9
$LWDISPLAY
290
     0
  9
$INSUNITS
 70
     0
  9
$HYPERLINKBASE
  1

  9
$STYLESHEET
  1

  9
$XEDIT
290
     1
  9
$CEPSNTYPE
380
     0
  9
$PSTYLEMODE
290
     1
  9
$FINGERPRINTGUID
  2
{64E64C98-EC81-4EDE-A6E9-8BC2B2828A38}
  9
$VERSIONGUID
  2
{5D035D87-4741-4B2B-8D2A-6CCD5CA83C07}
  9
$EXTNAMES
290
     1
  9
$PSVPSCALE
 40
0.0
  9
$OLESTARTUP
290
     0
  9
$SORTENTS
280
   127
  9
$INDEXCTL
280
     0
  9
$HIDETEXT
280
     0
  9
$XCLIPFRAME
280
     2
  9
$HALOGAP
280
     0
  9
$OBSCOLOR
 70
   257
  9
$OBSLTYPE
280
     0
  9
$INTERSECTIONDISPLAY
280
     0
  9
$INTERSECTIONCOLOR
 70
   257
  9
$DIMASSOC
280
     1
  9
$PROJECTNAME
  1

  9
$CAMERADISPLAY
290
     0
  9
$LENSLENGTH
 40
50.0
  9
$CAMERAHEIGHT
 40
0.0
  9
$STEPSPERSEC
 40
2.0
  9
$STEPSIZE
 40
6.0
  9
$3DDWFPREC
 40
2.0
  9
$PSOLWIDTH
 40
0.25
  9
$PSOLHEIGHT
 40
4.0
  9
$LOFTANG1
 40
1.570796326794896
  9
$LOFTANG2
 40
1.570796326794896
  9
$LOFTMAG1
 40
0.0
  9
$LOFTMAG2
 40
0.0
  9
$LOFTPARAM
 70
     7
  9
$LOFTNORMALS
280
     1
  9
$LATITUDE
 40
37.795
  9
$LONGITUDE
 40
-122.394
  9
$NORTHDIRECTION
 40
0.0
  9
$TIMEZONE
 70
 -8000
  9
$LIGHTGLYPHDISPLAY
280
     1
  9
$TILEMODELIGHTSYNCH
280
     1
  9
$CMATERIAL
347
820A
  9
$SOLIDHIST
280
     0
  9
$SHOWHIST
280
     1
  9
$DWFFRAME
280
     2
  9
$DGNFRAME
280
     0
  9
$REALWORLDSCALE
290
     1
  9
$INTERFERECOLOR
 62
     1
  9
$INTERFEREOBJVS
345
822C
  9
$INTERFEREVPVS
346
8229
  9
$CSHADOW
280
     0
  9
$SHADOWPLANELOCATION
 40
0.0
  0
ENDSEC
  0
SECTION
  2
CLASSES
  0
CLASS
  1
ACDBDICTIONARYWDFLT
  2
AcDbDictionaryWithDefault
  3
ObjectDBX Classes
 90
        0
 91
        1
280
     0
281
     0
  0
CLASS
  1
MATERIAL
  2
AcDbMaterial
  3
ObjectDBX Classes
 90
     1153
 91
        3
280
     0
281
     0
  0
CLASS
  1
VISUALSTYLE
  2
AcDbVisualStyle
  3
ObjectDBX Classes
 90
     4095
 91
       24
280
     0
281
     0
  0
CLASS
  1
TABLESTYLE
  2
AcDbTableStyle
  3
ObjectDBX Classes
 90
     4095
 91
        1
280
     0
281
     0
  0
CLASS
  1
SCALE
  2
AcDbScale
  3
ObjectDBX Classes
 90
     1153
 91
       17
280
     0
281
     0
  0
CLASS
  1
MLEADERSTYLE
  2
AcDbMLeaderStyle
  3
ACDB_MLEADERSTYLE_CLASS
 90
     4095
 91
        1
280
     0
281
     0
  0
CLASS
  1
ACDBSECTIONVIEWSTYLE
  2
AcDbSectionViewStyle
  3
ObjectDBX Classes
 90
     1025
 91
        1
280
     0
281
     0
  0
CLASS
  1
ACDBDETAILVIEWSTYLE
  2
AcDbDetailViewStyle
  3
ObjectDBX Classes
 90
     1025
 91
        1
280
     0
281
     0
  0
CLASS
  1
DICTIONARYVAR
  2
AcDbDictionaryVar
  3
ObjectDBX Classes
 90
        0
 91
       10
280
     0
281
     0
  0
CLASS
  1
CELLSTYLEMAP
  2
AcDbCellStyleMap
  3
ObjectDBX Classes
 90
     1152
 91
        1
280
     0
281
     0
  0
ENDSEC
  0
SECTION
  2
TABLES
  0
TABLE
  2
VPORT
  5
8
330
0
100
AcDbSymbolTable
 70
     1
1001
ACAD
1000
DbSaveVer
1071
      278
  0
VPORT
  5
8207
330
8
100
AcDbSymbolTableRecord
100
AcDbViewportTableRecord
  2
*Active
 70
     0
 10
0.0
 20
0.0
 11
1.0
 21
1.0
 12
3367.641899159945
 22
3687.500017171259
 13
0.0
 23
0.0
 14
10.0
 24
10.0
 15
10.0
 25
10.0
 16
0.0
 26
0.0
 36
1.0
 17
0.0
 27
0.0
 37
0.0
 40
7422.678203440799
 41
2.250314465408805
 42
50.0
 43
0.0
 44
0.0
 50
0.0
 51
0.0
 71
     0
 72
   100
 73
     1
 74
     0
 75
     0
 76
     0
 77
     0
 78
     0
281
     0
 65
     1
110
0.0
120
0.0
130
0.0
111
1.0
121
0.0
131
0.0
112
0.0
122
1.0
132
0.0
 79
     0
146
0.0
348
8228
 60
     3
 61
     5
292
     1
282
     1
141
0.0
142
0.0
 63
   250
421
  3355443
1001
ACAD_NAV_VCDISPLAY
1070
     3
  0
ENDTAB
  0
TABLE
  2
LTYPE
  5
5
330
0
100
AcDbSymbolTable
 70
     2
  0
LTYPE
  5
13
330
5
100
AcDbSymbolTableRecord
100
AcDbLinetypeTableRecord
  2
BYBLOCK
 70
     0
  3

 72
    65
 73
     0
 40
0.0
  0
LTYPE
  5
14
330
5
100
AcDbSymbolTableRecord
100
AcDbLinetypeTableRecord
  2
BYLAYER
 70
     0
  3

 72
    65
 73
     0
 40
0.0
  0
LTYPE
  5
15
330
5
100
AcDbSymbolTableRecord
100
AcDbLinetypeTableRecord
  2
CONTINUOUS
 70
     0
  3
Solid line
 72
    65
 73
     0
 40
0.0
  0
LTYPE
  5
1F
330
5
100
AcDbSymbolTableRecord
100
AcDbLinetypeTableRecord
  2
CENTER
 70
     0
  3
____ _ ____ _ ____ _ ____ _ ____ _ ____ _ ____ 
 72
    65
 73
     4
 40
2.0
 49
1.25
 74
     0
 49
-0.25
 74
     0
 49
0.25
 74
     0
 49
-0.25
 74
     0
  0
ENDTAB
  0
TABLE
  2
LAYER
  5
2
102
{ACAD_XDICTIONARY
360
829F
102
}
330
0
100
AcDbSymbolTable
 70
     6
  0
LAYER
  5
F
102
{ACAD_XDICTIONARY
360
8292
102
}
330
2
100
AcDbSymbolTableRecord
100
AcDbLayerTableRecord
  2
0
 70
     0
 62
     7
  6
CONTINUOUS
370
    -3
390
81AD
347
821A
348
0
  0
LAYER
  5
31
102
{ACAD_XDICTIONARY
360
8294
102
}
330
2
100
AcDbSymbolTableRecord
100
AcDbLayerTableRecord
  2
3
 70
     0
 62
     2
  6
CONTINUOUS
370
    -3
390
81AD
347
821A
348
0
  0
LAYER
  5
76D0
102
{ACAD_XDICTIONARY
360
8296
102
}
330
2
100
AcDbSymbolTableRecord
100
AcDbLayerTableRecord
  2
2
 70
     0
 62
     3
  6
CENTER
370
    -3
390
81AD
347
821A
348
0
  0
LAYER
  5
76D1
102
{ACAD_XDICTIONARY
360
8298
102
}
330
2
100
AcDbSymbolTableRecord
100
AcDbLayerTableRecord
  2
1
 70
     0
 62
     4
  6
CONTINUOUS
370
    -3
390
81AD
347
821A
348
0
  0
LAYER
  5
76D2
102
{ACAD_XDICTIONARY
360
829A
102
}
330
2
100
AcDbSymbolTableRecord
100
AcDbLayerTableRecord
  2
4
 70
     0
 62
     7
  6
CONTINUOUS
370
    -3
390
81AD
347
821A
348
0
  0
LAYER
  5
7B47
330
2
100
AcDbSymbolTableRecord
100
AcDbLayerTableRecord
  2
DEFPOINTS
 70
     0
 62
     7
  6
CONTINUOUS
290
     0
370
    -3
390
81AD
347
821A
348
0
  0
ENDTAB
  0
TABLE
  2
STYLE
  5
3
330
0
100
AcDbSymbolTable
 70
     1
  0
STYLE
  5
10
330
3
100
AcDbSymbolTableRecord
100
AcDbTextStyleTableRecord
  2
STANDARD
 70
     0
 40
0.0
 41
1.0
 50
0.0
 71
     0
 42
180.0
  3
simplex.shx
  4
extfont.shx
  0
ENDTAB
  0
TABLE
  2
VIEW
  5
6
330
0
100
AcDbSymbolTable
 70
     0
  0
ENDTAB
  0
TABLE
  2
UCS
  5
7
330
0
100
AcDbSymbolTable
 70
     0
  0
ENDTAB
  0
TABLE
  2
APPID
  5
9
330
0
100
AcDbSymbolTable
 70
     4
  0
APPID
  5
11
330
9
100
AcDbSymbolTableRecord
100
AcDbRegAppTableRecord
  2
ACAD
 70
     0
  0
APPID
  5
8259
330
9
100
AcDbSymbolTableRecord
100
AcDbRegAppTableRecord
  2
AcadAnnoMonitorAlertIconDisabled
 70
     0
  0
APPID
  5
825A
330
9
100
AcDbSymbolTableRecord
100
AcDbRegAppTableRecord
  2
ACAD_EXEMPT_FROM_CAD_STANDARDS
 70
     0
  0
APPID
  5
82A5
330
9
100
AcDbSymbolTableRecord
100
AcDbRegAppTableRecord
  2
ACAD_NAV_VCDISPLAY
 70
     0
  0
ENDTAB
  0
TABLE
  2
DIMSTYLE
  5
A
330
0
100
AcDbSymbolTable
 70
     2
100
AcDbDimStyleTable
 71
     1
340
1D
  0
DIMSTYLE
105
1D
102
{ACAD_REACTORS
330
7F84
330
7F9C
330
8171
330
817E
330
818B
330
8198
330
81A5
102
}
330
A
100
AcDbSymbolTableRecord
100
AcDbDimStyleTableRecord
  2
IGA
 70
     0
 40
2.0
 41
2.0
 42
0.5
 43
10.0
 44
1.0
 47
1.0
 48
1.0
 73
     0
 74
     0
 77
     1
 78
     8
140
3.0
141
0.0
143
0.03937
146
10.0
147
1.0
173
     1
271
     1
272
     0
279
     2
284
     8
340
10
341
79FC
343
79FC
344
79FC
  0
DIMSTYLE
105
7B49
102
{ACAD_REACTORS
330
7C8E
330
7C8F
330
7CC1
330
7CCB
330
7CCC
330
7CCD
330
7CCE
330
7CCF
330
7CD0
330
7CDC
330
7CDD
330
7CDE
330
7D07
330
7D0A
102
}
330
A
100
AcDbSymbolTableRecord
100
AcDbDimStyleTableRecord
  2
MATSU
 70
     0
 41
2.0
 42
1.0
 43
10.0
 44
1.0
 73
     0
 74
     0
 77
     1
 78
     8
140
3.0
141
0.0
143
0.03937
147
0.5
172
     1
173
     1
176
   256
177
   256
178
   256
284
     8
289
     0
340
10
341
79FC
343
79FC
344
79FC
  0
ENDTAB
  0
TABLE
  2
BLOCK_RECORD
  5
1
330
0
100
AcDbSymbolTable
 70
    24
  0
BLOCK_RECORD
  5
19
102
{ACAD_XDICTIONARY
360
81DB
102
}
330
1
100
AcDbSymbolTableRecord
100
AcDbBlockTableRecord
  2
*MODEL_SPACE
340
81B0
 70
     0
280
     1
281
     0
  0
BLOCK_RECORD
  5
16
102
{ACAD_XDICTIONARY
360
81D9
102
}
330
1
100
AcDbSymbolTableRecord
100
AcDbBlockTableRecord
  2
*PAPER_SPACE
340
81B1
 70
     0
280
     1
281
     0
  0
BLOCK_RECORD
  5
79FC
330
1
100
AcDbSymbolTableRecord
100
AcDbBlockTableRecord
  2
_OPEN
340
0
102
{BLKREFS
331
7ECB
331
7ECC
331
7ED6
331
7ED7
331
7EE1
331
7EE2
331
7EEC
331
7EED
331
7EF7
331
7EF8
331
7F32
331
7F33
331
7F3D
331
7F3E
331
7E68
331
7E69
331
7E73
331
7E74
331
7EB5
331
7EB6
331
7EC0
331
7EC1
331
816A
331
816B
331
8177
331
8178
331
8184
331
8185
331
8191
331
8192
331
819E
331
819F
331
81E5
331
81E6
331
81EE
331
81EF
331
81F7
331
81F8
331
8283
331
8284
331
828C
331
828D
102
}
 70
     0
280
     1
281
     0
  0
BLOCK_RECORD
  5
7D38
330
1
100
AcDbSymbolTableRecord
100
AcDbBlockTableRecord
  2
*D1
340
0
 70
     0
280
     1
281
     0
  0
BLOCK_RECORD
  5
7D44
330
1
100
AcDbSymbolTableRecord
100
AcDbBlockTableRecord
  2
*D2
340
0
 70
     0
280
     1
281
     0
  0
BLOCK_RECORD
  5
7D8C
330
1
100
AcDbSymbolTableRecord
100
AcDbBlockTableRecord
  2
*D3
340
0
 70
     0
280
     1
281
     0
  0
BLOCK_RECORD
  5
7D98
330
1
100
AcDbSymbolTableRecord
100
AcDbBlockTableRecord
  2
*D4
340
0
 70
     0
280
     1
281
     0
  0
BLOCK_RECORD
  5
7DA4
330
1
100
AcDbSymbolTableRecord
100
AcDbBlockTableRecord
  2
*D5
340
0
 70
     0
280
     1
281
     0
  0
BLOCK_RECORD
  5
7DB0
330
1
100
AcDbSymbolTableRecord
100
AcDbBlockTableRecord
  2
*D6
340
0
 70
     0
280
     1
281
     0
  0
BLOCK_RECORD
  5
7DBC
330
1
100
AcDbSymbolTableRecord
100
AcDbBlockTableRecord
  2
*D7
340
0
 70
     0
280
     1
281
     0
  0
BLOCK_RECORD
  5
7DC8
330
1
100
AcDbSymbolTableRecord
100
AcDbBlockTableRecord
  2
*D8
340
0
 70
     0
280
     1
281
     0
  0
BLOCK_RECORD
  5
7DD4
330
1
100
AcDbSymbolTableRecord
100
AcDbBlockTableRecord
  2
*D9
340
0
 70
     0
280
     1
281
     0
  0
BLOCK_RECORD
  5
7DFC
330
1
100
AcDbSymbolTableRecord
100
AcDbBlockTableRecord
  2
*D10
340
0
 70
     0
280
     1
281
     0
  0
BLOCK_RECORD
  5
7E08
330
1
100
AcDbSymbolTableRecord
100
AcDbBlockTableRecord
  2
*D11
340
0
 70
     0
280
     1
281
     0
  0
BLOCK_RECORD
  5
7E14
330
1
100
AcDbSymbolTableRecord
100
AcDbBlockTableRecord
  2
*D12
340
0
 70
     0
280
     1
281
     0
  0
BLOCK_RECORD
  5
7E20
330
1
100
AcDbSymbolTableRecord
100
AcDbBlockTableRecord
  2
*D13
340
0
 70
     0
280
     1
281
     0
  0
BLOCK_RECORD
  5
7E2C
330
1
100
AcDbSymbolTableRecord
100
AcDbBlockTableRecord
  2
*D14
340
0
 70
     0
280
     1
281
     0
  0
BLOCK_RECORD
  5
7F78
330
1
100
AcDbSymbolTableRecord
100
AcDbBlockTableRecord
  2
*D15
340
0
 70
     0
280
     1
281
     0
  0
BLOCK_RECORD
  5
7F90
330
1
100
AcDbSymbolTableRecord
100
AcDbBlockTableRecord
  2
*D16
340
0
 70
     0
280
     1
281
     0
  0
BLOCK_RECORD
  5
80E0
330
1
100
AcDbSymbolTableRecord
100
AcDbBlockTableRecord
  2
_DOT
340
0
 70
     0
280
     1
281
     0
  0
BLOCK_RECORD
  5
8126
330
1
100
AcDbSymbolTableRecord
100
AcDbBlockTableRecord
  2
_NONE
340
0
 70
     0
280
     1
281
     0
  0
BLOCK_RECORD
  5
8165
330
1
100
AcDbSymbolTableRecord
100
AcDbBlockTableRecord
  2
*D19
340
0
 70
     0
280
     1
281
     0
  0
BLOCK_RECORD
  5
8172
330
1
100
AcDbSymbolTableRecord
100
AcDbBlockTableRecord
  2
*D20
340
0
 70
     0
280
     1
281
     0
  0
BLOCK_RECORD
  5
817F
330
1
100
AcDbSymbolTableRecord
100
AcDbBlockTableRecord
  2
*D21
340
0
 70
     0
280
     1
281
     0
  0
BLOCK_RECORD
  5
818C
330
1
100
AcDbSymbolTableRecord
100
AcDbBlockTableRecord
  2
*D22
340
0
 70
     0
280
     1
281
     0
  0
BLOCK_RECORD
  5
8199
330
1
100
AcDbSymbolTableRecord
100
AcDbBlockTableRecord
  2
*D23
340
0
 70
     0
280
     1
281
     0
  0
ENDTAB
  0
ENDSEC
  0
SECTION
  2
BLOCKS
  0
BLOCK
  5
1A
330
19
100
AcDbEntity
  8
0
100
AcDbBlockBegin
  2
*MODEL_SPACE
 70
     0
 10
0.0
 20
0.0
 30
0.0
  3
*MODEL_SPACE
  1

  0
ENDBLK
  5
1B
330
19
100
AcDbEntity
  8
0
100
AcDbBlockEnd
  0
BLOCK
  5
17
330
16
100
AcDbEntity
 67
     1
  8
0
100
AcDbBlockBegin
  2
*PAPER_SPACE
 70
     0
 10
0.0
 20
0.0
 30
0.0
  3
*PAPER_SPACE
  1

  0
ENDBLK
  5
18
330
16
100
AcDbEntity
 67
     1
  8
0
100
AcDbBlockEnd
  0
BLOCK
  5
7A00
330
79FC
100
AcDbEntity
  8
0
100
AcDbBlockBegin
  2
_OPEN
 70
     0
 10
0.0
 20
0.0
 30
0.0
  3
_OPEN
  1

  0
LINE
  5
79FD
330
79FC
100
AcDbEntity
  8
0
  6
ByBlock
 62
     0
100
AcDbLine
 10
-1.0
 20
0.1666666666666666
 30
0.0
 11
0.0
 21
0.0
 31
0.0
  0
LINE
  5
79FE
330
79FC
100
AcDbEntity
  8
0
  6
ByBlock
 62
     0
100
AcDbLine
 10
0.0
 20
0.0
 30
0.0
 11
-1.0
 21
-0.1666666666666666
 31
0.0
  0
LINE
  5
79FF
330
79FC
100
AcDbEntity
  8
0
  6
ByBlock
 62
     0
100
AcDbLine
 10
0.0
 20
0.0
 30
0.0
 11
-1.0
 21
0.0
 31
0.0
  0
ENDBLK
  5
7A01
330
79FC
100
AcDbEntity
  8
0
100
AcDbBlockEnd
  0
BLOCK
  5
7E64
330
7D38
100
AcDbEntity
  8
0
100
AcDbBlockBegin
  2
*D1
 70
     1
 10
0.0
 20
0.0
 30
0.0
  3
*D1
  1

  0
LINE
  5
7E65
330
7D38
100
AcDbEntity
  8
0
  6
ByBlock
440
 16777216
100
AcDbLine
 10
-463.0690644071919
 20
587.8696638555338
 30
0.0
 11
-463.0690644071919
 21
1226.675999078788
 31
0.0
  0
LINE
  5
7E66
330
7D38
100
AcDbEntity
  8
0
  6
ByBlock
440
 16777216
100
AcDbLine
 10
-3.069064407191945
 20
1075.314265847497
 30
0.0
 11
-3.069064407191945
 21
1226.675999078788
 31
0.0
  0
LINE
  5
7E67
330
7D38
100
AcDbEntity
  8
0
  6
ByBlock
440
 16777216
100
AcDbLine
 10
-413.0690644071919
 20
1201.675999078789
 30
0.0
 11
-53.06906440719195
 21
1201.675999078789
 31
0.0
  0
INSERT
  5
7E68
330
7D38
100
AcDbEntity
  8
0
  6
ByBlock
440
 16777216
100
AcDbBlockReference
  2
_OPEN
 10
-463.0690644071919
 20
1201.675999078789
 30
0.0
 41
50.0
 42
50.0
 43
50.0
 50
180.0
  0
INSERT
  5
7E69
330
7D38
100
AcDbEntity
  8
0
  6
ByBlock
440
 16777216
100
AcDbBlockReference
  2
_OPEN
 10
-3.069064407191945
 20
1201.675999078789
 30
0.0
 41
50.0
 42
50.0
 43
50.0
  0
MTEXT
  5
7E6A
330
7D38
100
AcDbEntity
  8
0
  6
ByBlock
440
 16777216
100
AcDbMText
 10
-233.0690644071919
 20
1251.675999078789
 30
0.0
 40
75.0
 41
0.0
 46
0.0
 71
     5
 72
     5
  1
\A1;460
 73
     1
 44
1.0
  0
POINT
  5
7E6B
330
7D38
100
AcDbEntity
  8
DEFPOINTS
  6
ByBlock
 62
     0
440
 16777216
100
AcDbPoint
 10
-463.0690644071919
 20
562.8696638555338
 30
0.0
  0
POINT
  5
7E6C
330
7D38
100
AcDbEntity
  8
DEFPOINTS
  6
ByBlock
 62
     0
440
 16777216
100
AcDbPoint
 10
-3.069064407191945
 20
1050.314265847497
 30
0.0
  0
POINT
  5
7E6D
330
7D38
100
AcDbEntity
  8
DEFPOINTS
  6
ByBlock
 62
     0
440
 16777216
100
AcDbPoint
 10
-3.069064407191945
 20
1201.675999078789
 30
0.0
  0
ENDBLK
  5
7E6E
330
7D38
100
AcDbEntity
  8
0
100
AcDbBlockEnd
  0
BLOCK
  5
7E6F
330
7D44
100
AcDbEntity
  8
0
100
AcDbBlockBegin
  2
*D2
 70
     1
 10
0.0
 20
0.0
 30
0.0
  3
*D2
  1

  0
LINE
  5
7E70
330
7D44
100
AcDbEntity
  8
0
  6
ByBlock
440
 16777216
100
AcDbLine
 10
-3.069064407191945
 20
1075.314265847497
 30
0.0
 11
-3.069064407191945
 21
1226.455552704656
 31
0.0
  0
LINE
  5
7E71
330
7D44
100
AcDbEntity
  8
0
  6
ByBlock
440
 16777216
100
AcDbLine
 10
542.7214727925429
 20
593.0976264501205
 30
0.0
 11
542.7214727925429
 21
1226.455552704656
 31
0.0
  0
LINE
  5
7E72
330
7D44
100
AcDbEntity
  8
0
  6
ByBlock
440
 16777216
100
AcDbLine
 10
46.93093559280805
 20
1201.455552704656
 30
0.0
 11
492.7214727925429
 21
1201.455552704656
 31
0.0
  0
INSERT
  5
7E73
330
7D44
100
AcDbEntity
  8
0
  6
ByBlock
440
 16777216
100
AcDbBlockReference
  2
_OPEN
 10
-3.069064407191945
 20
1201.455552704656
 30
0.0
 41
50.0
 42
50.0
 43
50.0
 50
180.0
  0
INSERT
  5
7E74
330
7D44
100
AcDbEntity
  8
0
  6
ByBlock
440
 16777216
100
AcDbBlockReference
  2
_OPEN
 10
542.7214727925429
 20
1201.455552704656
 30
0.0
 41
50.0
 42
50.0
 43
50.0
  0
MTEXT
  5
7E75
330
7D44
100
AcDbEntity
  8
0
  6
ByBlock
440
 16777216
100
AcDbMText
 10
269.8262041926755
 20
1251.455552704656
 30
0.0
 40
75.0
 41
0.0
 46
0.0
 71
     5
 72
     5
  1
\A1;548
 73
     1
 44
1.0
  0
POINT
  5
7E76
330
7D44
100
AcDbEntity
  8
DEFPOINTS
  6
ByBlock
 62
     0
440
 16777216
100
AcDbPoint
 10
-3.069064407191945
 20
1050.314265847497
 30
0.0
  0
POINT
  5
7E77
330
7D44
100
AcDbEntity
  8
DEFPOINTS
  6
ByBlock
 62
     0
440
 16777216
100
AcDbPoint
 10
542.7214727925429
 20
568.0976264501205
 30
0.0
  0
POINT
  5
7E78
330
7D44
100
AcDbEntity
  8
DEFPOINTS
  6
ByBlock
 62
     0
440
 16777216
100
AcDbPoint
 10
542.7214727925429
 20
1201.455552704656
 30
0.0
  0
ENDBLK
  5
7E79
330
7D44
100
AcDbEntity
  8
0
100
AcDbBlockEnd
  0
BLOCK
  5
7EB1
330
7D8C
100
AcDbEntity
  8
0
100
AcDbBlockBegin
  2
*D3
 70
     1
 10
0.0
 20
0.0
 30
0.0
  3
*D3
  1

  0
LINE
  5
7EB2
330
7D8C
100
AcDbEntity
  8
0
  6
ByBlock
440
 16777216
100
AcDbLine
 10
2142.296193483282
 20
1047.09762645012
 30
0.0
 11
2142.296193483282
 21
1160.275246436373
 31
0.0
  0
LINE
  5
7EB3
330
7D8C
100
AcDbEntity
  8
0
  6
ByBlock
440
 16777216
100
AcDbLine
 10
2992.296193483283
 20
1047.09762645012
 30
0.0
 11
2992.296193483283
 21
1160.275246436373
 31
0.0
  0
LINE
  5
7EB4
330
7D8C
100
AcDbEntity
  8
0
  6
ByBlock
440
 16777216
100
AcDbLine
 10
2192.296193483282
 20
1135.275246436373
 30
0.0
 11
2942.296193483283
 21
1135.275246436373
 31
0.0
  0
INSERT
  5
7EB5
330
7D8C
100
AcDbEntity
  8
0
  6
ByBlock
440
 16777216
100
AcDbBlockReference
  2
_OPEN
 10
2142.296193483282
 20
1135.275246436373
 30
0.0
 41
50.0
 42
50.0
 43
50.0
 50
180.0
  0
INSERT
  5
7EB6
330
7D8C
100
AcDbEntity
  8
0
  6
ByBlock
440
 16777216
100
AcDbBlockReference
  2
_OPEN
 10
2992.296193483283
 20
1135.275246436373
 30
0.0
 41
50.0
 42
50.0
 43
50.0
  0
MTEXT
  5
7EB7
330
7D8C
100
AcDbEntity
  8
0
  6
ByBlock
440
 16777216
100
AcDbMText
 10
2567.296193483283
 20
1185.275246436373
 30
0.0
 40
75.0
 41
0.0
 46
0.0
 71
     5
 72
     5
  1
\A1;850
 73
     1
 44
1.0
  0
POINT
  5
7EB8
330
7D8C
100
AcDbEntity
  8
DEFPOINTS
  6
ByBlock
 62
     0
440
 16777216
100
AcDbPoint
 10
2142.296193483282
 20
1022.09762645012
 30
0.0
  0
POINT
  5
7EB9
330
7D8C
100
AcDbEntity
  8
DEFPOINTS
  6
ByBlock
 62
     0
440
 16777216
100
AcDbPoint
 10
2992.296193483283
 20
1022.09762645012
 30
0.0
  0
POINT
  5
7EBA
330
7D8C
100
AcDbEntity
  8
DEFPOINTS
  6
ByBlock
 62
     0
440
 16777216
100
AcDbPoint
 10
2992.296193483283
 20
1135.275246436373
 30
0.0
  0
ENDBLK
  5
7EBB
330
7D8C
100
AcDbEntity
  8
0
100
AcDbBlockEnd
  0
BLOCK
  5
7EBC
330
7D98
100
AcDbEntity
  8
0
100
AcDbBlockBegin
  2
*D4
 70
     1
 10
0.0
 20
0.0
 30
0.0
  3
*D4
  1

  0
LINE
  5
7EBD
330
7D98
100
AcDbEntity
  8
0
  6
ByBlock
440
 16777216
100
AcDbLine
 10
-428.0690644071919
 20
2129.414968530634
 30
0.0
 11
-726.707147717254
 21
2129.414968530634
 31
0.0
  0
LINE
  5
7EBE
330
7D98
100
AcDbEntity
  8
0
  6
ByBlock
440
 16777216
100
AcDbLine
 10
-428.0690644071929
 20
3189.414968530635
 30
0.0
 11
-726.707147717254
 21
3189.414968530635
 31
0.0
  0
LINE
  5
7EBF
330
7D98
100
AcDbEntity
  8
0
  6
ByBlock
440
 16777216
100
AcDbLine
 10
-701.707147717254
 20
2179.414968530633
 30
0.0
 11
-701.707147717254
 21
3139.414968530635
 31
0.0
  0
INSERT
  5
7EC0
330
7D98
100
AcDbEntity
  8
0
  6
ByBlock
440
 16777216
100
AcDbBlockReference
  2
_OPEN
 10
-701.707147717254
 20
2129.414968530634
 30
0.0
 41
50.0
 42
50.0
 43
50.0
 50
270.0
  0
INSERT
  5
7EC1
330
7D98
100
AcDbEntity
  8
0
  6
ByBlock
440
 16777216
100
AcDbBlockReference
  2
_OPEN
 10
-701.707147717254
 20
3189.414968530635
 30
0.0
 41
50.0
 42
50.0
 43
50.0
 50
90.0
  0
MTEXT
  5
7EC2
330
7D98
100
AcDbEntity
  8
0
  6
ByBlock
440
 16777216
100
AcDbMText
 10
-751.707147717254
 20
2659.414968530634
 30
0.0
 40
75.0
 41
0.0
 46
0.0
 71
     5
 72
     5
  1
\A1;1060
 11
0.0
 21
1.0
 31
0.0
 73
     1
 44
1.0
  0
POINT
  5
7EC3
330
7D98
100
AcDbEntity
  8
DEFPOINTS
  6
ByBlock
 62
     0
440
 16777216
100
AcDbPoint
 10
-403.0690644071919
 20
2129.414968530634
 30
0.0
  0
POINT
  5
7EC4
330
7D98
100
AcDbEntity
  8
DEFPOINTS
  6
ByBlock
 62
     0
440
 16777216
100
AcDbPoint
 10
-403.0690644071929
 20
3189.414968530635
 30
0.0
  0
POINT
  5
7EC5
330
7D98
100
AcDbEntity
  8
DEFPOINTS
  6
ByBlock
 62
     0
440
 16777216
100
AcDbPoint
 10
-701.707147717254
 20
3189.414968530635
 30
0.0
  0
ENDBLK
  5
7EC6
330
7D98
100
AcDbEntity
  8
0
100
AcDbBlockEnd
  0
BLOCK
  5
7EC7
330
7DA4
100
AcDbEntity
  8
0
100
AcDbBlockBegin
  2
*D5
 70
     1
 10
0.0
 20
0.0
 30
0.0
  3
*D5
  1

  0
LINE
  5
7EC8
330
7DA4
100
AcDbEntity
  8
0
  6
ByBlock
440
 16777216
100
AcDbLine
 10
396.9309355928081
 20
3214.414968530635
 30
0.0
 11
396.9309355928081
 21
3515.46792986967
 31
0.0
  0
LINE
  5
7EC9
330
7DA4
100
AcDbEntity
  8
0
  6
ByBlock
440
 16777216
100
AcDbLine
 10
-403.0690644071929
 20
3214.414968530635
 30
0.0
 11
-403.0690644071929
 21
3515.46792986967
 31
0.0
  0
LINE
  5
7ECA
330
7DA4
100
AcDbEntity
  8
0
  6
ByBlock
440
 16777216
100
AcDbLine
 10
346.9309355928081
 20
3490.46792986967
 30
0.0
 11
-353.0690644071929
 21
3490.46792986967
 31
0.0
  0
INSERT
  5
7ECB
330
7DA4
100
AcDbEntity
  8
0
  6
ByBlock
440
 16777216
100
AcDbBlockReference
  2
_OPEN
 10
396.9309355928081
 20
3490.46792986967
 30
0.0
 41
50.0
 42
50.0
 43
50.0
  0
INSERT
  5
7ECC
330
7DA4
100
AcDbEntity
  8
0
  6
ByBlock
440
 16777216
100
AcDbBlockReference
  2
_OPEN
 10
-403.0690644071929
 20
3490.46792986967
 30
0.0
 41
50.0
 42
50.0
 43
50.0
 50
180.0
  0
MTEXT
  5
7ECD
330
7DA4
100
AcDbEntity
  8
0
  6
ByBlock
440
 16777216
100
AcDbMText
 10
-3.069064407192399
 20
3540.46792986967
 30
0.0
 40
75.0
 41
0.0
 46
0.0
 71
     5
 72
     5
  1
\A1;800
 73
     1
 44
1.0
  0
POINT
  5
7ECE
330
7DA4
100
AcDbEntity
  8
DEFPOINTS
  6
ByBlock
 62
     0
440
 16777216
100
AcDbPoint
 10
396.9309355928081
 20
3189.414968530634
 30
0.0
  0
POINT
  5
7ECF
330
7DA4
100
AcDbEntity
  8
DEFPOINTS
  6
ByBlock
 62
     0
440
 16777216
100
AcDbPoint
 10
-403.0690644071929
 20
3189.414968530635
 30
0.0
  0
POINT
  5
7ED0
330
7DA4
100
AcDbEntity
  8
DEFPOINTS
  6
ByBlock
 62
     0
440
 16777216
100
AcDbPoint
 10
-403.0690644071929
 20
3490.46792986967
 30
0.0
  0
ENDBLK
  5
7ED1
330
7DA4
100
AcDbEntity
  8
0
100
AcDbBlockEnd
  0
BLOCK
  5
7ED2
330
7DB0
100
AcDbEntity
  8
0
100
AcDbBlockBegin
  2
*D6
 70
     1
 10
0.0
 20
0.0
 30
0.0
  3
*D6
  1

  0
LINE
  5
7ED3
330
7DB0
100
AcDbEntity
  8
0
  6
ByBlock
440
 16777216
100
AcDbLine
 10
1171.930935592809
 20
2779.414968530633
 30
0.0
 11
1470.988988255438
 21
2779.414968530633
 31
0.0
  0
LINE
  5
7ED4
330
7DB0
100
AcDbEntity
  8
0
  6
ByBlock
440
 16777216
100
AcDbLine
 10
1171.930935592808
 20
2129.414968530633
 30
0.0
 11
1470.988988255438
 21
2129.414968530633
 31
0.0
  0
LINE
  5
7ED5
330
7DB0
100
AcDbEntity
  8
0
  6
ByBlock
440
 16777216
100
AcDbLine
 10
1445.988988255438
 20
2729.414968530633
 30
0.0
 11
1445.988988255438
 21
2179.414968530632
 31
0.0
  0
INSERT
  5
7ED6
330
7DB0
100
AcDbEntity
  8
0
  6
ByBlock
440
 16777216
100
AcDbBlockReference
  2
_OPEN
 10
1445.988988255438
 20
2779.414968530633
 30
0.0
 41
50.0
 42
50.0
 43
50.0
 50
90.0
  0
INSERT
  5
7ED7
330
7DB0
100
AcDbEntity
  8
0
  6
ByBlock
440
 16777216
100
AcDbBlockReference
  2
_OPEN
 10
1445.988988255438
 20
2129.414968530633
 30
0.0
 41
50.0
 42
50.0
 43
50.0
 50
270.0
  0
MTEXT
  5
7ED8
330
7DB0
100
AcDbEntity
  8
0
  6
ByBlock
440
 16777216
100
AcDbMText
 10
1395.988988255438
 20
2454.414968530633
 30
0.0
 40
75.0
 41
0.0
 46
0.0
 71
     5
 72
     5
  1
\A1;650
 11
0.0
 21
1.0
 31
0.0
 73
     1
 44
1.0
  0
POINT
  5
7ED9
330
7DB0
100
AcDbEntity
  8
DEFPOINTS
  6
ByBlock
 62
     0
440
 16777216
100
AcDbPoint
 10
1146.930935592809
 20
2779.414968530633
 30
0.0
  0
POINT
  5
7EDA
330
7DB0
100
AcDbEntity
  8
DEFPOINTS
  6
ByBlock
 62
     0
440
 16777216
100
AcDbPoint
 10
1146.930935592808
 20
2129.414968530633
 30
0.0
  0
POINT
  5
7EDB
330
7DB0
100
AcDbEntity
  8
DEFPOINTS
  6
ByBlock
 62
     0
440
 16777216
100
AcDbPoint
 10
1445.988988255438
 20
2129.414968530633
 30
0.0
  0
ENDBLK
  5
7EDC
330
7DB0
100
AcDbEntity
  8
0
100
AcDbBlockEnd
  0
BLOCK
  5
7EDD
330
7DBC
100
AcDbEntity
  8
0
100
AcDbBlockBegin
  2
*D7
 70
     1
 10
0.0
 20
0.0
 30
0.0
  3
*D7
  1

  0
LINE
  5
7EDE
330
7DBC
100
AcDbEntity
  8
0
  6
ByBlock
440
 16777216
100
AcDbLine
 10
1146.930935592808
 20
2104.414968530633
 30
0.0
 11
1146.930935592808
 21
1708.503006503273
 31
0.0
  0
LINE
  5
7EDF
330
7DBC
100
AcDbEntity
  8
0
  6
ByBlock
440
 16777216
100
AcDbLine
 10
-403.0690644071919
 20
2104.414968530633
 30
0.0
 11
-403.0690644071919
 21
1708.503006503273
 31
0.0
  0
LINE
  5
7EE0
330
7DBC
100
AcDbEntity
  8
0
  6
ByBlock
440
 16777216
100
AcDbLine
 10
1096.930935592808
 20
1733.503006503273
 30
0.0
 11
-353.069064407192
 21
1733.503006503273
 31
0.0
  0
INSERT
  5
7EE1
330
7DBC
100
AcDbEntity
  8
0
  6
ByBlock
440
 16777216
100
AcDbBlockReference
  2
_OPEN
 10
1146.930935592808
 20
1733.503006503273
 30
0.0
 41
50.0
 42
50.0
 43
50.0
  0
INSERT
  5
7EE2
330
7DBC
100
AcDbEntity
  8
0
  6
ByBlock
440
 16777216
100
AcDbBlockReference
  2
_OPEN
 10
-403.0690644071919
 20
1733.503006503273
 30
0.0
 41
50.0
 42
50.0
 43
50.0
 50
180.0
  0
MTEXT
  5
7EE3
330
7DBC
100
AcDbEntity
  8
0
  6
ByBlock
440
 16777216
100
AcDbMText
 10
371.9309355928081
 20
1783.503006503273
 30
0.0
 40
75.0
 41
0.0
 46
0.0
 71
     5
 72
     5
  1
\A1;1550
 73
     1
 44
1.0
  0
POINT
  5
7EE4
330
7DBC
100
AcDbEntity
  8
DEFPOINTS
  6
ByBlock
 62
     0
440
 16777216
100
AcDbPoint
 10
1146.930935592808
 20
2129.414968530633
 30
0.0
  0
POINT
  5
7EE5
330
7DBC
100
AcDbEntity
  8
DEFPOINTS
  6
ByBlock
 62
     0
440
 16777216
100
AcDbPoint
 10
-403.0690644071919
 20
2129.414968530634
 30
0.0
  0
POINT
  5
7EE6
330
7DBC
100
AcDbEntity
  8
DEFPOINTS
  6
ByBlock
 62
     0
440
 16777216
100
AcDbPoint
 10
-403.0690644071919
 20
1733.503006503273
 30
0.0
  0
ENDBLK
  5
7EE7
330
7DBC
100
AcDbEntity
  8
0
100
AcDbBlockEnd
  0
BLOCK
  5
7EE8
330
7DC8
100
AcDbEntity
  8
0
100
AcDbBlockBegin
  2
*D8
 70
     1
 10
0.0
 20
0.0
 30
0.0
  3
*D8
  1

  0
LINE
  5
7EE9
330
7DC8
100
AcDbEntity
  8
0
  6
ByBlock
440
 16777216
100
AcDbLine
 10
1146.930935592809
 20
2804.414968530633
 30
0.0
 11
1146.930935592809
 21
3515.46792986967
 31
0.0
  0
LINE
  5
7EEA
330
7DC8
100
AcDbEntity
  8
0
  6
ByBlock
440
 16777216
100
AcDbLine
 10
396.9309355928081
 20
3214.414968530635
 30
0.0
 11
396.9309355928081
 21
3515.46792986967
 31
0.0
  0
LINE
  5
7EEB
330
7DC8
100
AcDbEntity
  8
0
  6
ByBlock
440
 16777216
100
AcDbLine
 10
1096.930935592809
 20
3490.46792986967
 30
0.0
 11
446.930935592808
 21
3490.46792986967
 31
0.0
  0
INSERT
  5
7EEC
330
7DC8
100
AcDbEntity
  8
0
  6
ByBlock
440
 16777216
100
AcDbBlockReference
  2
_OPEN
 10
1146.930935592809
 20
3490.46792986967
 30
0.0
 41
50.0
 42
50.0
 43
50.0
  0
INSERT
  5
7EED
330
7DC8
100
AcDbEntity
  8
0
  6
ByBlock
440
 16777216
100
AcDbBlockReference
  2
_OPEN
 10
396.9309355928081
 20
3490.46792986967
 30
0.0
 41
50.0
 42
50.0
 43
50.0
 50
180.0
  0
MTEXT
  5
7EEE
330
7DC8
100
AcDbEntity
  8
0
  6
ByBlock
440
 16777216
100
AcDbMText
 10
771.9309355928085
 20
3540.46792986967
 30
0.0
 40
75.0
 41
0.0
 46
0.0
 71
     5
 72
     5
  1
\A1;750
 73
     1
 44
1.0
  0
POINT
  5
7EEF
330
7DC8
100
AcDbEntity
  8
DEFPOINTS
  6
ByBlock
 62
     0
440
 16777216
100
AcDbPoint
 10
1146.930935592809
 20
2779.414968530633
 30
0.0
  0
POINT
  5
7EF0
330
7DC8
100
AcDbEntity
  8
DEFPOINTS
  6
ByBlock
 62
     0
440
 16777216
100
AcDbPoint
 10
396.9309355928081
 20
3189.414968530634
 30
0.0
  0
POINT
  5
7EF1
330
7DC8
100
AcDbEntity
  8
DEFPOINTS
  6
ByBlock
 62
     0
440
 16777216
100
AcDbPoint
 10
396.9309355928081
 20
3490.46792986967
 30
0.0
  0
ENDBLK
  5
7EF2
330
7DC8
100
AcDbEntity
  8
0
100
AcDbBlockEnd
  0
BLOCK
  5
7EF3
330
7DD4
100
AcDbEntity
  8
0
100
AcDbBlockBegin
  2
*D9
 70
     1
 10
0.0
 20
0.0
 30
0.0
  3
*D9
  1

  0
LINE
  5
7EF4
330
7DD4
100
AcDbEntity
  8
0
  6
ByBlock
440
 16777216
100
AcDbLine
 10
-534.9620375101876
 20
568.0976264501205
 30
0.0
 11
-899.2001949903423
 21
568.0976264501205
 31
0.0
  0
LINE
  5
7EF5
330
7DD4
100
AcDbEntity
  8
0
  6
ByBlock
440
 16777216
100
AcDbLine
 10
-428.0690644071919
 20
-231.9023735498795
 30
0.0
 11
-899.2001949903423
 21
-231.9023735498795
 31
0.0
  0
LINE
  5
7EF6
330
7DD4
100
AcDbEntity
  8
0
  6
ByBlock
440
 16777216
100
AcDbLine
 10
-874.2001949903423
 20
518.0976264501205
 30
0.0
 11
-874.2001949903423
 21
-181.9023735498794
 31
0.0
  0
INSERT
  5
7EF7
330
7DD4
100
AcDbEntity
  8
0
  6
ByBlock
440
 16777216
100
AcDbBlockReference
  2
_OPEN
 10
-874.2001949903423
 20
568.0976264501205
 30
0.0
 41
50.0
 42
50.0
 43
50.0
 50
90.0
  0
INSERT
  5
7EF8
330
7DD4
100
AcDbEntity
  8
0
  6
ByBlock
440
 16777216
100
AcDbBlockReference
  2
_OPEN
 10
-874.2001949903423
 20
-231.9023735498795
 30
0.0
 41
50.0
 42
50.0
 43
50.0
 50
270.0
  0
MTEXT
  5
7EF9
330
7DD4
100
AcDbEntity
  8
0
  6
ByBlock
440
 16777216
100
AcDbMText
 10
-924.2001949903423
 20
168.0976264501205
 30
0.0
 40
75.0
 41
0.0
 46
0.0
 71
     5
 72
     5
  1
\A1;800
 11
0.0
 21
1.0
 31
0.0
 73
     1
 44
1.0
  0
POINT
  5
7EFA
330
7DD4
100
AcDbEntity
  8
DEFPOINTS
  6
ByBlock
 62
     0
440
 16777216
100
AcDbPoint
 10
-509.9620375101876
 20
568.0976264501205
 30
0.0
  0
POINT
  5
7EFB
330
7DD4
100
AcDbEntity
  8
DEFPOINTS
  6
ByBlock
 62
     0
440
 16777216
100
AcDbPoint
 10
-403.0690644071919
 20
-231.9023735498795
 30
0.0
  0
POINT
  5
7EFC
330
7DD4
100
AcDbEntity
  8
DEFPOINTS
  6
ByBlock
 62
     0
440
 16777216
100
AcDbPoint
 10
-874.2001949903423
 20
-231.9023735498795
 30
0.0
  0
ENDBLK
  5
7EFD
330
7DD4
100
AcDbEntity
  8
0
100
AcDbBlockEnd
  0
BLOCK
  5
7F18
330
7DFC
100
AcDbEntity
  8
0
100
AcDbBlockBegin
  2
*D10
 70
     1
 10
0.0
 20
0.0
 30
0.0
  3
*D10
  1

  0
LINE
  5
8280
330
7DFC
100
AcDbEntity
  8
3
440
 16777216
370
    -2
100
AcDbLine
 10
4582.895051520366
 20
2765.494503493181
 30
0.0
 11
4582.895051520366
 21
3553.904317339207
 31
0.0
  0
LINE
  5
8281
330
7DFC
100
AcDbEntity
  8
3
440
 16777216
370
    -2
100
AcDbLine
 10
4012.895051520366
 20
3454.717268076782
 30
0.0
 11
4012.895051520366
 21
3553.904317339207
 31
0.0
  0
LINE
  5
8282
330
7DFC
100
AcDbEntity
  8
3
440
 16777216
370
    -2
100
AcDbLine
 10
4532.895051520365
 20
3528.904317339208
 30
0.0
 11
4062.895051520365
 21
3528.904317339208
 31
0.0
  0
INSERT
  5
8283
330
7DFC
100
AcDbEntity
  8
3
440
 16777216
370
    -2
100
AcDbBlockReference
  2
_OPEN
 10
4582.895051520366
 20
3528.904317339208
 30
0.0
 41
50.0
 42
50.0
 43
50.0
  0
INSERT
  5
8284
330
7DFC
100
AcDbEntity
  8
3
440
 16777216
370
    -2
100
AcDbBlockReference
  2
_OPEN
 10
4012.895051520366
 20
3528.904317339208
 30
0.0
 41
50.0
 42
50.0
 43
50.0
 50
180.0
  0
MTEXT
  5
8285
330
7DFC
100
AcDbEntity
  8
3
440
 16777216
100
AcDbMText
 10
4297.895051520366
 20
3598.547174482065
 30
0.0
 40
75.0
 41
0.0
 46
0.0
 71
     5
 72
     1
  1
\A1;(570)
 73
     1
 44
1.0
  0
POINT
  5
8286
330
7DFC
100
AcDbEntity
  8
DEFPOINTS
 62
     0
440
 16777216
100
AcDbPoint
 10
4582.895051520366
 20
2740.494503493181
 30
0.0
  0
POINT
  5
8287
330
7DFC
100
AcDbEntity
  8
DEFPOINTS
 62
     0
440
 16777216
100
AcDbPoint
 10
4012.895051520366
 20
3429.717268076782
 30
0.0
  0
POINT
  5
8288
330
7DFC
100
AcDbEntity
  8
DEFPOINTS
 62
     0
440
 16777216
100
AcDbPoint
 10
4012.895051520366
 20
3528.904317339208
 30
0.0
  0
ENDBLK
  5
7F22
330
7DFC
100
AcDbEntity
  8
0
100
AcDbBlockEnd
  0
BLOCK
  5
8113
330
7E08
100
AcDbEntity
  8
0
100
AcDbBlockBegin
  2
*D11
 70
     1
 10
0.0
 20
0.0
 30
0.0
  3
*D11
  1

  0
LINE
  5
8289
330
7E08
100
AcDbEntity
  8
3
440
 16777216
370
    -2
100
AcDbLine
 10
4012.895051520366
 20
3454.717268076782
 30
0.0
 11
4012.895051520366
 21
3553.904317339207
 31
0.0
  0
LINE
  5
828A
330
7E08
100
AcDbEntity
  8
3
440
 16777216
370
    -2
100
AcDbLine
 10
3212.895051520366
 20
2939.094503493181
 30
0.0
 11
3212.895051520366
 21
3553.904317339207
 31
0.0
  0
LINE
  5
828B
330
7E08
100
AcDbEntity
  8
3
440
 16777216
370
    -2
100
AcDbLine
 10
3962.895051520366
 20
3528.904317339208
 30
0.0
 11
3262.895051520366
 21
3528.904317339208
 31
0.0
  0
INSERT
  5
828C
330
7E08
100
AcDbEntity
  8
3
440
 16777216
370
    -2
100
AcDbBlockReference
  2
_OPEN
 10
4012.895051520366
 20
3528.904317339208
 30
0.0
 41
50.0
 42
50.0
 43
50.0
  0
INSERT
  5
828D
330
7E08
100
AcDbEntity
  8
3
440
 16777216
370
    -2
100
AcDbBlockReference
  2
_OPEN
 10
3212.895051520366
 20
3528.904317339208
 30
0.0
 41
50.0
 42
50.0
 43
50.0
 50
180.0
  0
MTEXT
  5
828E
330
7E08
100
AcDbEntity
  8
3
440
 16777216
100
AcDbMText
 10
3612.895051520367
 20
3598.547174482065
 30
0.0
 40
75.0
 41
0.0
 46
0.0
 71
     5
 72
     1
  1
\A1;(800)
 73
     1
 44
1.0
  0
POINT
  5
828F
330
7E08
100
AcDbEntity
  8
DEFPOINTS
 62
     0
440
 16777216
100
AcDbPoint
 10
4012.895051520366
 20
3429.717268076782
 30
0.0
  0
POINT
  5
8290
330
7E08
100
AcDbEntity
  8
DEFPOINTS
 62
     0
440
 16777216
100
AcDbPoint
 10
3212.895051520366
 20
2914.094503493181
 30
0.0
  0
POINT
  5
8291
330
7E08
100
AcDbEntity
  8
DEFPOINTS
 62
     0
440
 16777216
100
AcDbPoint
 10
3212.895051520366
 20
3528.904317339208
 30
0.0
  0
ENDBLK
  5
811D
330
7E08
100
AcDbEntity
  8
0
100
AcDbBlockEnd
  0
BLOCK
  5
7F2E
330
7E14
100
AcDbEntity
  8
0
100
AcDbBlockBegin
  2
*D12
 70
     1
 10
0.0
 20
0.0
 30
0.0
  3
*D12
  1

  0
LINE
  5
7F2F
330
7E14
100
AcDbEntity
  8
0
  6
ByBlock
440
 16777216
100
AcDbLine
 10
3017.296193483283
 20
883.0976264501204
 30
0.0
 11
3252.521631761363
 21
883.0976264501204
 31
0.0
  0
LINE
  5
7F30
330
7E14
100
AcDbEntity
  8
0
  6
ByBlock
440
 16777216
100
AcDbLine
 10
3017.296193483283
 20
253.0976264501205
 30
0.0
 11
3252.521631761363
 21
253.0976264501205
 31
0.0
  0
LINE
  5
7F31
330
7E14
100
AcDbEntity
  8
0
  6
ByBlock
440
 16777216
100
AcDbLine
 10
3227.521631761363
 20
833.0976264501204
 30
0.0
 11
3227.521631761363
 21
303.0976264501205
 31
0.0
  0
INSERT
  5
7F32
330
7E14
100
AcDbEntity
  8
0
  6
ByBlock
440
 16777216
100
AcDbBlockReference
  2
_OPEN
 10
3227.521631761363
 20
883.0976264501204
 30
0.0
 41
50.0
 42
50.0
 43
50.0
 50
90.0
  0
INSERT
  5
7F33
330
7E14
100
AcDbEntity
  8
0
  6
ByBlock
440
 16777216
100
AcDbBlockReference
  2
_OPEN
 10
3227.521631761363
 20
253.0976264501205
 30
0.0
 41
50.0
 42
50.0
 43
50.0
 50
270.0
  0
MTEXT
  5
7F34
330
7E14
100
AcDbEntity
  8
0
  6
ByBlock
440
 16777216
100
AcDbMText
 10
3177.521631761363
 20
568.0976264501205
 30
0.0
 40
75.0
 41
0.0
 46
0.0
 71
     5
 72
     5
  1
\A1;φ630
 11
0.0
 21
1.0
 31
0.0
 73
     1
 44
1.0
  0
POINT
  5
7F35
330
7E14
100
AcDbEntity
  8
DEFPOINTS
  6
ByBlock
 62
     0
440
 16777216
100
AcDbPoint
 10
2992.296193483283
 20
883.0976264501204
 30
0.0
  0
POINT
  5
7F36
330
7E14
100
AcDbEntity
  8
DEFPOINTS
  6
ByBlock
 62
     0
440
 16777216
100
AcDbPoint
 10
2992.296193483283
 20
253.0976264501205
 30
0.0
  0
POINT
  5
7F37
330
7E14
100
AcDbEntity
  8
DEFPOINTS
  6
ByBlock
 62
     0
440
 16777216
100
AcDbPoint
 10
3227.521631761363
 20
253.0976264501205
 30
0.0
  0
ENDBLK
  5
7F38
330
7E14
100
AcDbEntity
  8
0
100
AcDbBlockEnd
  0
BLOCK
  5
7F39
330
7E20
100
AcDbEntity
  8
0
100
AcDbBlockBegin
  2
*D13
 70
     1
 10
0.0
 20
0.0
 30
0.0
  3
*D13
  1

  0
LINE
  5
7F3A
330
7E20
100
AcDbEntity
  8
0
  6
ByBlock
440
 16777216
100
AcDbLine
 10
-463.0690644071919
 20
587.8696638555338
 30
0.0
 11
-463.0690644071919
 21
1335.07768434741
 31
0.0
  0
LINE
  5
7F3B
330
7E20
100
AcDbEntity
  8
0
  6
ByBlock
440
 16777216
100
AcDbLine
 10
1146.930935592808
 20
-106.9023735498795
 30
0.0
 11
1146.930935592808
 21
1335.07768434741
 31
0.0
  0
LINE
  5
7F3C
330
7E20
100
AcDbEntity
  8
0
  6
ByBlock
440
 16777216
100
AcDbLine
 10
-413.0690644071919
 20
1310.07768434741
 30
0.0
 11
1096.930935592808
 21
1310.07768434741
 31
0.0
  0
INSERT
  5
7F3D
330
7E20
100
AcDbEntity
  8
0
  6
ByBlock
440
 16777216
100
AcDbBlockReference
  2
_OPEN
 10
-463.0690644071919
 20
1310.07768434741
 30
0.0
 41
50.0
 42
50.0
 43
50.0
 50
180.0
  0
INSERT
  5
7F3E
330
7E20
100
AcDbEntity
  8
0
  6
ByBlock
440
 16777216
100
AcDbBlockReference
  2
_OPEN
 10
1146.930935592808
 20
1310.07768434741
 30
0.0
 41
50.0
 42
50.0
 43
50.0
  0
MTEXT
  5
7F3F
330
7E20
100
AcDbEntity
  8
0
  6
ByBlock
440
 16777216
100
AcDbMText
 10
341.930935592808
 20
1360.07768434741
 30
0.0
 40
75.0
 41
0.0
 46
0.0
 71
     5
 72
     5
  1
\A1;1610
 73
     1
 44
1.0
  0
POINT
  5
7F40
330
7E20
100
AcDbEntity
  8
DEFPOINTS
  6
ByBlock
 62
     0
440
 16777216
100
AcDbPoint
 10
-463.0690644071919
 20
562.8696638555338
 30
0.0
  0
POINT
  5
7F41
330
7E20
100
AcDbEntity
  8
DEFPOINTS
  6
ByBlock
 62
     0
440
 16777216
100
AcDbPoint
 10
1146.930935592808
 20
-131.9023735498795
 30
0.0
  0
POINT
  5
7F42
330
7E20
100
AcDbEntity
  8
DEFPOINTS
  6
ByBlock
 62
     0
440
 16777216
100
AcDbPoint
 10
1146.930935592808
 20
1310.07768434741
 30
0.0
  0
ENDBLK
  5
7F43
330
7E20
100
AcDbEntity
  8
0
100
AcDbBlockEnd
  0
BLOCK
  5
7F44
330
7E2C
100
AcDbEntity
  8
0
100
AcDbBlockBegin
  2
*D14
 70
     1
 10
0.0
 20
0.0
 30
0.0
  3
*D14
  1

  0
LINE
  5
81E3
330
7E2C
100
AcDbEntity
  8
3
440
 16777216
100
AcDbLine
 10
1768.154922205946
 20
3218.094503493181
 30
0.0
 11
850.0237916227961
 21
3218.094503493182
 31
0.0
  0
LINE
  5
81E4
330
7E2C
100
AcDbEntity
  8
3
440
 16777216
100
AcDbLine
 10
875.0237916227959
 20
2814.094503493182
 30
0.0
 11
875.0237916227961
 21
3168.094503493182
 31
0.0
  0
INSERT
  5
81E5
330
7E2C
100
AcDbEntity
  8
3
440
 16777216
100
AcDbBlockReference
  2
_OPEN
 10
875.0237916227959
 20
2764.094503493181
 30
0.0
 41
50.0
 42
50.0
 43
50.0
 50
270.0
  0
INSERT
  5
81E6
330
7E2C
100
AcDbEntity
  8
3
440
 16777216
100
AcDbBlockReference
  2
_OPEN
 10
875.0237916227961
 20
3218.094503493182
 30
0.0
 41
50.0
 42
50.0
 43
50.0
 50
90.0
  0
MTEXT
  5
81E7
330
7E2C
100
AcDbEntity
  8
3
440
 16777216
100
AcDbMText
 10
825.0237916227955
 20
2991.094503493182
 30
0.0
 40
75.0
 41
0.0
 46
0.0
 71
     5
 72
     5
  1
\A1;454
 11
0.0000000000000001
 21
1.0
 31
0.0
 73
     1
 44
1.0
  0
POINT
  5
81E8
330
7E2C
100
AcDbEntity
  8
DEFPOINTS
 62
     0
440
 16777216
100
AcDbPoint
 10
1239.261949102951
 20
2764.094503493181
 30
0.0
  0
POINT
  5
81E9
330
7E2C
100
AcDbEntity
  8
DEFPOINTS
 62
     0
440
 16777216
100
AcDbPoint
 10
1793.154922205946
 20
3218.094503493181
 30
0.0
  0
POINT
  5
81EA
330
7E2C
100
AcDbEntity
  8
DEFPOINTS
 62
     0
440
 16777216
100
AcDbPoint
 10
875.0237916227961
 20
3218.094503493182
 30
0.0
  0
ENDBLK
  5
7F4D
330
7E2C
100
AcDbEntity
  8
0
100
AcDbBlockEnd
  0
BLOCK
  5
7F85
330
7F78
100
AcDbEntity
  8
0
100
AcDbBlockBegin
  2
*D15
 70
     1
 10
0.0
 20
0.0
 30
0.0
  3
*D15
  1

  0
LINE
  5
81EB
330
7F78
100
AcDbEntity
  8
3
 62
     0
440
 16777216
100
AcDbLine
 10
1273.654922205947
 20
2736.094503493181
 30
0.0
 11
1108.947829769408
 21
2736.094503493181
 31
0.0
  0
LINE
  5
81EC
330
7F78
100
AcDbEntity
  8
3
 62
     0
440
 16777216
100
AcDbLine
 10
1273.654922205947
 20
2086.094503493181
 30
0.0
 11
1108.947829769408
 21
2086.094503493181
 31
0.0
  0
LINE
  5
81ED
330
7F78
100
AcDbEntity
  8
3
 62
     0
440
 16777216
100
AcDbLine
 10
1133.947829769408
 20
2686.094503493181
 30
0.0
 11
1133.947829769408
 21
2136.094503493181
 31
0.0
  0
INSERT
  5
81EE
330
7F78
100
AcDbEntity
  8
3
 62
     0
440
 16777216
100
AcDbBlockReference
  2
_OPEN
 10
1133.947829769408
 20
2736.094503493181
 30
0.0
 41
50.0
 42
50.0
 43
50.0
 50
90.0
  0
INSERT
  5
81EF
330
7F78
100
AcDbEntity
  8
3
 62
     0
440
 16777216
100
AcDbBlockReference
  2
_OPEN
 10
1133.947829769408
 20
2086.094503493181
 30
0.0
 41
50.0
 42
50.0
 43
50.0
 50
270.0
  0
MTEXT
  5
81F0
330
7F78
100
AcDbEntity
  8
3
 62
     0
440
 16777216
100
AcDbMText
 10
1071.447829769407
 20
2418.863869222882
 30
0.0
 40
75.0
 41
0.0
 46
0.0
 71
     5
 72
     5
  1
\A1;650
 11
0.0000000000000001
 21
1.0
 31
0.0
 73
     1
 44
1.0
  0
POINT
  5
81F1
330
7F78
100
AcDbEntity
  8
DEFPOINTS
 62
     0
440
 16777216
100
AcDbPoint
 10
1286.154922205946
 20
2736.094503493181
 30
0.0
  0
POINT
  5
81F2
330
7F78
100
AcDbEntity
  8
DEFPOINTS
 62
     0
440
 16777216
100
AcDbPoint
 10
1286.154922205946
 20
2086.094503493181
 30
0.0
  0
POINT
  5
81F3
330
7F78
100
AcDbEntity
  8
DEFPOINTS
 62
     0
440
 16777216
100
AcDbPoint
 10
1133.947829769408
 20
2086.094503493181
 30
0.0
  0
ENDBLK
  5
7F8F
330
7F78
100
AcDbEntity
  8
0
100
AcDbBlockEnd
  0
BLOCK
  5
7F91
330
7F90
100
AcDbEntity
  8
0
100
AcDbBlockBegin
  2
*D16
 70
     1
 10
0.0
 20
0.0
 30
0.0
  3
*D16
  1

  0
LINE
  5
81F4
330
7F90
100
AcDbEntity
  8
3
 62
     0
440
 16777216
100
AcDbLine
 10
1226.761949102951
 20
2764.094503493181
 30
0.0
 11
997.7933281581432
 21
2764.094503493181
 31
0.0
  0
LINE
  5
81F5
330
7F90
100
AcDbEntity
  8
3
 62
     0
440
 16777216
100
AcDbLine
 10
1273.654922205947
 20
2086.094503493181
 30
0.0
 11
997.793328158143
 21
2086.094503493182
 31
0.0
  0
LINE
  5
81F6
330
7F90
100
AcDbEntity
  8
3
 62
     0
440
 16777216
100
AcDbLine
 10
1022.793328158143
 20
2714.094503493182
 30
0.0
 11
1022.793328158143
 21
2136.094503493182
 31
0.0
  0
INSERT
  5
81F7
330
7F90
100
AcDbEntity
  8
3
 62
     0
440
 16777216
100
AcDbBlockReference
  2
_OPEN
 10
1022.793328158143
 20
2764.094503493181
 30
0.0
 41
50.0
 42
50.0
 43
50.0
 50
90.0
  0
INSERT
  5
81F8
330
7F90
100
AcDbEntity
  8
3
 62
     0
440
 16777216
100
AcDbBlockReference
  2
_OPEN
 10
1022.793328158143
 20
2086.094503493182
 30
0.0
 41
50.0
 42
50.0
 43
50.0
 50
270.0
  0
MTEXT
  5
81F9
330
7F90
100
AcDbEntity
  8
3
 62
     0
440
 16777216
100
AcDbMText
 10
960.2933281581426
 20
2416.488960797739
 30
0.0
 40
75.0
 41
0.0
 46
0.0
 71
     5
 72
     5
  1
\A1;678
 11
0.0000000000000001
 21
1.0
 31
0.0
 73
     1
 44
1.0
  0
POINT
  5
81FA
330
7F90
100
AcDbEntity
  8
DEFPOINTS
 62
     0
440
 16777216
100
AcDbPoint
 10
1239.261949102951
 20
2764.094503493181
 30
0.0
  0
POINT
  5
81FB
330
7F90
100
AcDbEntity
  8
DEFPOINTS
 62
     0
440
 16777216
100
AcDbPoint
 10
1286.154922205946
 20
2086.094503493181
 30
0.0
  0
POINT
  5
81FC
330
7F90
100
AcDbEntity
  8
DEFPOINTS
 62
     0
440
 16777216
100
AcDbPoint
 10
1022.793328158143
 20
2086.094503493182
 30
0.0
  0
ENDBLK
  5
7F9B
330
7F90
100
AcDbEntity
  8
0
100
AcDbBlockEnd
  0
BLOCK
  5
80E6
330
80E0
100
AcDbEntity
  8
0
100
AcDbBlockBegin
  2
_DOT
 70
     0
 10
0.0
 20
0.0
 30
0.0
  3
_DOT
  1

  0
LWPOLYLINE
  5
80E1
330
80E0
100
AcDbEntity
  8
0
  6
ByBlock
 62
     0
100
AcDbPolyline
 90
        2
 70
     1
 43
0.25
 10
-0.125
 20
0.0
 42
1.0
 10
0.125
 20
0.0
 42
1.0
  0
LINE
  5
80E5
330
80E0
100
AcDbEntity
  8
0
  6
ByBlock
 62
     0
100
AcDbLine
 10
-0.25
 20
0.0
 30
0.0
 11
-1.0
 21
0.0
 31
0.0
  0
ENDBLK
  5
80E7
330
80E0
100
AcDbEntity
  8
0
100
AcDbBlockEnd
  0
BLOCK
  5
8127
330
8126
100
AcDbEntity
  8
0
100
AcDbBlockBegin
  2
_NONE
 70
     0
 10
0.0
 20
0.0
 30
0.0
  3
_NONE
  1

  0
CIRCLE
  5
8128
330
8126
100
AcDbEntity
  8
0
  6
ByBlock
 62
     0
100
AcDbCircle
 10
0.0
 20
0.0
 30
0.0
 40
0.25
  0
ENDBLK
  5
8129
330
8126
100
AcDbEntity
  8
0
100
AcDbBlockEnd
  0
BLOCK
  5
8166
330
8165
100
AcDbEntity
  8
0
100
AcDbBlockBegin
  2
*D19
 70
     1
 10
0.0
 20
0.0
 30
0.0
  3
*D19
  1

  0
LINE
  5
8167
330
8165
100
AcDbEntity
  8
0
  6
ByBlock
 62
     0
440
 16777216
100
AcDbLine
 10
1346.154922205946
 20
1951.594503493181
 30
0.0
 11
1346.154922205946
 21
1788.995190810168
 31
0.0
  0
LINE
  5
8168
330
8165
100
AcDbEntity
  8
0
  6
ByBlock
 62
     0
440
 16777216
100
AcDbLine
 10
1746.154922205947
 20
1951.594503493181
 30
0.0
 11
1746.154922205947
 21
1788.995190810168
 31
0.0
  0
LINE
  5
8169
330
8165
100
AcDbEntity
  8
0
  6
ByBlock
 62
     0
440
 16777216
100
AcDbLine
 10
1396.154922205946
 20
1813.995190810168
 30
0.0
 11
1696.154922205947
 21
1813.995190810168
 31
0.0
  0
INSERT
  5
816A
330
8165
100
AcDbEntity
  8
0
  6
ByBlock
 62
     0
440
 16777216
100
AcDbBlockReference
  2
_OPEN
 10
1346.154922205946
 20
1813.995190810168
 30
0.0
 41
50.0
 42
50.0
 43
50.0
 50
180.0
  0
INSERT
  5
816B
330
8165
100
AcDbEntity
  8
0
  6
ByBlock
 62
     0
440
 16777216
100
AcDbBlockReference
  2
_OPEN
 10
1746.154922205947
 20
1813.995190810168
 30
0.0
 41
50.0
 42
50.0
 43
50.0
  0
MTEXT
  5
816C
330
8165
100
AcDbEntity
  8
0
  6
ByBlock
 62
     0
440
 16777216
100
AcDbMText
 10
1546.154922205947
 20
1876.495190810168
 30
0.0
 40
75.0
 41
0.0
 46
0.0
 71
     5
 72
     5
  1
\A1;400
 73
     1
 44
1.0
  0
POINT
  5
816D
330
8165
100
AcDbEntity
  8
DEFPOINTS
  6
ByBlock
 62
     0
440
 16777216
100
AcDbPoint
 10
1346.154922205946
 20
1964.094503493181
 30
0.0
  0
POINT
  5
816E
330
8165
100
AcDbEntity
  8
DEFPOINTS
  6
ByBlock
 62
     0
440
 16777216
100
AcDbPoint
 10
1746.154922205947
 20
1964.09450349318
 30
0.0
  0
POINT
  5
816F
330
8165
100
AcDbEntity
  8
DEFPOINTS
  6
ByBlock
 62
     0
440
 16777216
100
AcDbPoint
 10
1746.154922205947
 20
1813.995190810168
 30
0.0
  0
ENDBLK
  5
8170
330
8165
100
AcDbEntity
  8
0
100
AcDbBlockEnd
  0
BLOCK
  5
8173
330
8172
100
AcDbEntity
  8
0
100
AcDbBlockBegin
  2
*D20
 70
     1
 10
0.0
 20
0.0
 30
0.0
  3
*D20
  1

  0
LINE
  5
8174
330
8172
100
AcDbEntity
  8
0
  6
ByBlock
 62
     0
440
 16777216
100
AcDbLine
 10
1746.154922205947
 20
1951.594503493181
 30
0.0
 11
1746.154922205947
 21
1788.995190810168
 31
0.0
  0
LINE
  5
8175
330
8172
100
AcDbEntity
  8
0
  6
ByBlock
 62
     0
440
 16777216
100
AcDbLine
 10
2896.154922205947
 20
1951.594503493181
 30
0.0
 11
2896.154922205947
 21
1788.995190810168
 31
0.0
  0
LINE
  5
8176
330
8172
100
AcDbEntity
  8
0
  6
ByBlock
 62
     0
440
 16777216
100
AcDbLine
 10
1796.154922205947
 20
1813.995190810168
 30
0.0
 11
2846.154922205947
 21
1813.995190810168
 31
0.0
  0
INSERT
  5
8177
330
8172
100
AcDbEntity
  8
0
  6
ByBlock
 62
     0
440
 16777216
100
AcDbBlockReference
  2
_OPEN
 10
1746.154922205947
 20
1813.995190810168
 30
0.0
 41
50.0
 42
50.0
 43
50.0
 50
180.0
  0
INSERT
  5
8178
330
8172
100
AcDbEntity
  8
0
  6
ByBlock
 62
     0
440
 16777216
100
AcDbBlockReference
  2
_OPEN
 10
2896.154922205947
 20
1813.995190810168
 30
0.0
 41
50.0
 42
50.0
 43
50.0
  0
MTEXT
  5
8179
330
8172
100
AcDbEntity
  8
0
  6
ByBlock
 62
     0
440
 16777216
100
AcDbMText
 10
2321.154922205947
 20
1876.495190810168
 30
0.0
 40
75.0
 41
0.0
 46
0.0
 71
     5
 72
     5
  1
\A1;1150
 73
     1
 44
1.0
  0
POINT
  5
817A
330
8172
100
AcDbEntity
  8
DEFPOINTS
  6
ByBlock
 62
     0
440
 16777216
100
AcDbPoint
 10
1746.154922205947
 20
1964.09450349318
 30
0.0
  0
POINT
  5
817B
330
8172
100
AcDbEntity
  8
DEFPOINTS
  6
ByBlock
 62
     0
440
 16777216
100
AcDbPoint
 10
2896.154922205947
 20
1964.094503493181
 30
0.0
  0
POINT
  5
817C
330
8172
100
AcDbEntity
  8
DEFPOINTS
  6
ByBlock
 62
     0
440
 16777216
100
AcDbPoint
 10
2896.154922205947
 20
1813.995190810168
 30
0.0
  0
ENDBLK
  5
817D
330
8172
100
AcDbEntity
  8
0
100
AcDbBlockEnd
  0
BLOCK
  5
8180
330
817F
100
AcDbEntity
  8
0
100
AcDbBlockBegin
  2
*D21
 70
     1
 10
0.0
 20
0.0
 30
0.0
  3
*D21
  1

  0
LINE
  5
8181
330
817F
100
AcDbEntity
  8
0
  6
ByBlock
 62
     0
440
 16777216
100
AcDbLine
 10
3430.895051520366
 20
1951.594503493181
 30
0.0
 11
3430.895051520366
 21
1788.995190810168
 31
0.0
  0
LINE
  5
8182
330
817F
100
AcDbEntity
  8
0
  6
ByBlock
 62
     0
440
 16777216
100
AcDbLine
 10
4012.895051520364
 20
1951.594503493181
 30
0.0
 11
4012.895051520364
 21
1788.995190810168
 31
0.0
  0
LINE
  5
8183
330
817F
100
AcDbEntity
  8
0
  6
ByBlock
 62
     0
440
 16777216
100
AcDbLine
 10
3480.895051520366
 20
1813.995190810168
 30
0.0
 11
3962.895051520364
 21
1813.995190810168
 31
0.0
  0
INSERT
  5
8184
330
817F
100
AcDbEntity
  8
0
  6
ByBlock
 62
     0
440
 16777216
100
AcDbBlockReference
  2
_OPEN
 10
3430.895051520366
 20
1813.995190810168
 30
0.0
 41
50.0
 42
50.0
 43
50.0
 50
180.0
  0
INSERT
  5
8185
330
817F
100
AcDbEntity
  8
0
  6
ByBlock
 62
     0
440
 16777216
100
AcDbBlockReference
  2
_OPEN
 10
4012.895051520364
 20
1813.995190810168
 30
0.0
 41
50.0
 42
50.0
 43
50.0
  0
MTEXT
  5
8186
330
817F
100
AcDbEntity
  8
0
  6
ByBlock
 62
     0
440
 16777216
100
AcDbMText
 10
3721.895051520365
 20
1876.495190810168
 30
0.0
 40
75.0
 41
0.0
 46
0.0
 71
     5
 72
     5
  1
\A1;582
 73
     1
 44
1.0
  0
POINT
  5
8187
330
817F
100
AcDbEntity
  8
DEFPOINTS
  6
ByBlock
 62
     0
440
 16777216
100
AcDbPoint
 10
3430.895051520366
 20
1964.094503493181
 30
0.0
  0
POINT
  5
8188
330
817F
100
AcDbEntity
  8
DEFPOINTS
  6
ByBlock
 62
     0
440
 16777216
100
AcDbPoint
 10
4012.895051520364
 20
1964.09450349318
 30
0.0
  0
POINT
  5
8189
330
817F
100
AcDbEntity
  8
DEFPOINTS
  6
ByBlock
 62
     0
440
 16777216
100
AcDbPoint
 10
4012.895051520364
 20
1813.995190810168
 30
0.0
  0
ENDBLK
  5
818A
330
817F
100
AcDbEntity
  8
0
100
AcDbBlockEnd
  0
BLOCK
  5
818D
330
818C
100
AcDbEntity
  8
0
100
AcDbBlockBegin
  2
*D22
 70
     1
 10
0.0
 20
0.0
 30
0.0
  3
*D22
  1

  0
LINE
  5
818E
330
818C
100
AcDbEntity
  8
0
  6
ByBlock
 62
     0
440
 16777216
100
AcDbLine
 10
4012.895051520364
 20
1951.594503493181
 30
0.0
 11
4012.895051520364
 21
1788.995190810168
 31
0.0
  0
LINE
  5
818F
330
818C
100
AcDbEntity
  8
0
  6
ByBlock
 62
     0
440
 16777216
100
AcDbLine
 10
4490.895051520366
 20
1951.594503493181
 30
0.0
 11
4490.895051520366
 21
1788.995190810168
 31
0.0
  0
LINE
  5
8190
330
818C
100
AcDbEntity
  8
0
  6
ByBlock
 62
     0
440
 16777216
100
AcDbLine
 10
4062.895051520364
 20
1813.995190810168
 30
0.0
 11
4440.895051520366
 21
1813.995190810168
 31
0.0
  0
INSERT
  5
8191
330
818C
100
AcDbEntity
  8
0
  6
ByBlock
 62
     0
440
 16777216
100
AcDbBlockReference
  2
_OPEN
 10
4012.895051520364
 20
1813.995190810168
 30
0.0
 41
50.0
 42
50.0
 43
50.0
 50
180.0
  0
INSERT
  5
8192
330
818C
100
AcDbEntity
  8
0
  6
ByBlock
 62
     0
440
 16777216
100
AcDbBlockReference
  2
_OPEN
 10
4490.895051520366
 20
1813.995190810168
 30
0.0
 41
50.0
 42
50.0
 43
50.0
  0
MTEXT
  5
8193
330
818C
100
AcDbEntity
  8
0
  6
ByBlock
 62
     0
440
 16777216
100
AcDbMText
 10
4251.895051520365
 20
1876.495190810168
 30
0.0
 40
75.0
 41
0.0
 46
0.0
 71
     5
 72
     5
  1
\A1;478
 73
     1
 44
1.0
  0
POINT
  5
8194
330
818C
100
AcDbEntity
  8
DEFPOINTS
  6
ByBlock
 62
     0
440
 16777216
100
AcDbPoint
 10
4012.895051520364
 20
1964.09450349318
 30
0.0
  0
POINT
  5
8195
330
818C
100
AcDbEntity
  8
DEFPOINTS
  6
ByBlock
 62
     0
440
 16777216
100
AcDbPoint
 10
4490.895051520366
 20
1964.094503493181
 30
0.0
  0
POINT
  5
8196
330
818C
100
AcDbEntity
  8
DEFPOINTS
  6
ByBlock
 62
     0
440
 16777216
100
AcDbPoint
 10
4490.895051520366
 20
1813.995190810168
 30
0.0
  0
ENDBLK
  5
8197
330
818C
100
AcDbEntity
  8
0
100
AcDbBlockEnd
  0
BLOCK
  5
819A
330
8199
100
AcDbEntity
  8
0
100
AcDbBlockBegin
  2
*D23
 70
     1
 10
0.0
 20
0.0
 30
0.0
  3
*D23
  1

  0
LINE
  5
819B
330
8199
100
AcDbEntity
  8
0
  6
ByBlock
 62
     0
440
 16777216
100
AcDbLine
 10
1755.654922205946
 20
3218.094503493181
 30
0.0
 11
710.8602753002415
 21
3218.094503493181
 31
0.0
  0
LINE
  5
819C
330
8199
100
AcDbEntity
  8
0
  6
ByBlock
 62
     0
440
 16777216
100
AcDbLine
 10
1333.654922205946
 20
1964.094503493181
 30
0.0
 11
710.8602753002415
 21
1964.094503493181
 31
0.0
  0
LINE
  5
819D
330
8199
100
AcDbEntity
  8
0
  6
ByBlock
 62
     0
440
 16777216
100
AcDbLine
 10
735.8602753002415
 20
3168.094503493181
 30
0.0
 11
735.8602753002415
 21
2014.094503493181
 31
0.0
  0
INSERT
  5
819E
330
8199
100
AcDbEntity
  8
0
  6
ByBlock
 62
     0
440
 16777216
100
AcDbBlockReference
  2
_OPEN
 10
735.8602753002415
 20
3218.094503493181
 30
0.0
 41
50.0
 42
50.0
 43
50.0
 50
90.0
  0
INSERT
  5
819F
330
8199
100
AcDbEntity
  8
0
  6
ByBlock
 62
     0
440
 16777216
100
AcDbBlockReference
  2
_OPEN
 10
735.8602753002415
 20
1964.094503493181
 30
0.0
 41
50.0
 42
50.0
 43
50.0
 50
270.0
  0
MTEXT
  5
81A0
330
8199
100
AcDbEntity
  8
0
  6
ByBlock
 62
     0
440
 16777216
100
AcDbMText
 10
673.3602753002415
 20
2591.094503493181
 30
0.0
 40
75.0
 41
0.0
 46
0.0
 71
     5
 72
     5
  1
\A1;1254
 11
0.0
 21
1.0
 31
0.0
 73
     1
 44
1.0
  0
POINT
  5
81A1
330
8199
100
AcDbEntity
  8
DEFPOINTS
  6
ByBlock
 62
     0
440
 16777216
100
AcDbPoint
 10
1768.154922205946
 20
3218.094503493181
 30
0.0
  0
POINT
  5
81A2
330
8199
100
AcDbEntity
  8
DEFPOINTS
  6
ByBlock
 62
     0
440
 16777216
100
AcDbPoint
 10
1346.154922205946
 20
1964.094503493181
 30
0.0
  0
POINT
  5
81A3
330
8199
100
AcDbEntity
  8
DEFPOINTS
  6
ByBlock
 62
     0
440
 16777216
100
AcDbPoint
 10
735.8602753002415
 20
1964.094503493181
 30
0.0
  0
ENDBLK
  5
81A4
330
8199
100
AcDbEntity
  8
0
100
AcDbBlockEnd
  0
ENDSEC
  0
SECTION
  2
ENTITIES
  0
LINE
  5
7C34
330
19
100
AcDbEntity
  8
2
100
AcDbLine
 10
2357.408664511873
 20
2764.094503493181
 30
0.0
 11
1239.261949102951
 21
2764.094503493181
 31
0.0
  0
LINE
  5
7C35
330
19
100
AcDbEntity
  8
2
100
AcDbLine
 10
1746.154922205947
 20
3246.311142890558
 30
0.0
 11
1746.154922205947
 21
1964.09450349318
 31
0.0
  0
ARC
  5
7C36
330
19
100
AcDbEntity
  8
1
100
AcDbCircle
 10
1699.154922205946
 20
2717.094503493181
 30
0.0
 40
595.0
100
AcDbArc
 50
274.5306050426826
 51
4.530605042682585
  0
ARC
  5
7C37
330
19
100
AcDbEntity
  8
1
100
AcDbCircle
 10
1793.154922205946
 20
2717.094503493181
 30
0.0
 40
501.0
100
AcDbArc
 50
5.382968649881315
 51
95.38296864988131
  0
ARC
  5
7C38
330
19
100
AcDbEntity
  8
1
100
AcDbCircle
 10
1784.154922205947
 20
2802.094503493181
 30
0.0
 40
416.0
100
AcDbArc
 50
95.24105506129666
 51
185.2410550612967
  0
ARC
  5
7C39
330
19
100
AcDbEntity
  8
1
100
AcDbCircle
 10
1708.154922205946
 20
2802.094503493181
 30
0.0
 40
340.0
100
AcDbArc
 50
186.4170531430286
 51
191.1931836056838
  0
LINE
  5
7C3A
330
19
100
AcDbEntity
  8
1
100
AcDbLine
 10
1286.154922205946
 20
2044.094503493181
 30
0.0
 11
1286.154922205946
 21
2778.094503493181
 31
0.0
  0
LINE
  5
7C3B
330
19
100
AcDbEntity
  8
1
100
AcDbLine
 10
1286.154922205946
 20
2086.094503493181
 30
0.0
 11
1746.154922205947
 21
2123.953710763496
 31
0.0
  0
LINE
  5
7C3C
330
19
100
AcDbEntity
  8
1
100
AcDbLine
 10
1374.622315104332
 20
2736.094503493181
 30
0.0
 11
1286.154922205946
 21
2736.094503493181
 31
0.0
  0
LINE
  5
7C3D
330
19
100
AcDbEntity
  8
1
100
AcDbLine
 10
1326.154922205946
 20
2089.386608473208
 30
0.0
 11
1326.154922205946
 21
2736.094503493181
 31
0.0
  0
LINE
  5
7C3E
330
19
100
AcDbEntity
  8
1
100
AcDbLine
 10
1289.154922205947
 20
2044.094503493181
 30
0.0
 11
1286.154922205946
 21
2044.094503493181
 31
0.0
  0
LINE
  5
7C3F
330
19
100
AcDbEntity
  8
1
100
AcDbLine
 10
1289.154922205947
 20
2778.094503493181
 30
0.0
 11
1286.154922205946
 21
2778.094503493181
 31
0.0
  0
LINE
  5
7C40
330
19
100
AcDbEntity
  8
1
100
AcDbLine
 10
1289.154922205947
 20
2044.094503493181
 30
0.0
 11
1289.154922205947
 21
2778.094503493181
 31
0.0
  0
LINE
  5
7C41
330
19
100
AcDbEntity
  8
1
100
AcDbLine
 10
2896.154922205947
 20
2064.094503493181
 30
0.0
 11
1346.154922205946
 21
2064.094503493181
 31
0.0
  0
LINE
  5
7C42
330
19
100
AcDbEntity
  8
1
100
AcDbLine
 10
2896.154922205947
 20
1964.094503493181
 30
0.0
 11
1346.154922205946
 21
1964.094503493181
 31
0.0
1001
ACAD
1000
ASC_BOUNDS
1002
{
1070
    19
1002
}
  0
LINE
  5
7C43
330
19
100
AcDbEntity
  8
1
100
AcDbLine
 10
1346.154922205946
 20
2064.094503493181
 30
0.0
 11
1346.154922205946
 21
1964.094503493181
 31
0.0
  0
LINE
  5
7C44
330
19
100
AcDbEntity
  8
1
100
AcDbLine
 10
2896.154922205947
 20
2064.094503493181
 30
0.0
 11
2896.154922205947
 21
1964.094503493181
 31
0.0
  0
LINE
  5
7C45
330
19
100
AcDbEntity
  8
2
100
AcDbLine
 10
2596.154922205947
 20
2406.380689834719
 30
0.0
 11
2596.154922205946
 21
1964.094503493181
 31
0.0
  0
LINE
  5
7C46
330
19
100
AcDbEntity
  8
2
100
AcDbLine
 10
4012.895051520366
 20
3309.98814254269
 30
0.0
 11
4012.895051520364
 21
1964.09450349318
 31
0.0
  0
LINE
  5
7C47
330
19
100
AcDbEntity
  8
2
100
AcDbLine
 10
3291.796927324725
 20
2764.094503493181
 30
0.0
 11
4551.01662299235
 21
2764.094503493181
 31
0.0
  0
LINE
  5
7C48
330
19
100
AcDbEntity
  8
1
100
AcDbLine
 10
3430.895051520366
 20
1964.094503493181
 30
0.0
 11
4490.895051520367
 21
1964.094503493181
 31
0.0
1001
ACAD
1000
ASC_BOUNDS
1002
{
1070
    19
1002
}
  0
LINE
  5
7C49
330
19
100
AcDbEntity
  8
1
100
AcDbLine
 10
3430.895051520366
 20
2064.094503493181
 30
0.0
 11
4490.895051520367
 21
2064.094503493181
 31
0.0
  0
LINE
  5
7C4A
330
19
100
AcDbEntity
  8
1
100
AcDbLine
 10
3430.895051520366
 20
2064.094503493181
 30
0.0
 11
3430.895051520366
 21
1964.094503493181
 31
0.0
  0
LINE
  5
7C4B
330
19
100
AcDbEntity
  8
1
100
AcDbLine
 10
4490.895051520366
 20
2064.094503493181
 30
0.0
 11
4490.895051520366
 21
1964.094503493181
 31
0.0
  0
LINE
  5
7C4C
330
19
100
AcDbEntity
  8
1
100
AcDbLine
 10
4437.895051520366
 20
3218.094503493181
 30
0.0
 11
4437.895051520366
 21
2792.094503493181
 31
0.0
  0
LINE
  5
7C4D
330
19
100
AcDbEntity
  8
1
100
AcDbLine
 10
3587.895051520366
 20
3218.094503493181
 30
0.0
 11
4437.895051520366
 21
3218.094503493181
 31
0.0
  0
LINE
  5
7C4E
330
19
100
AcDbEntity
  8
1
100
AcDbLine
 10
4437.895051520366
 20
2792.094503493181
 30
0.0
 11
4437.895051520366
 21
2086.094503493181
 31
0.0
  0
LINE
  5
7C4F
330
19
100
AcDbEntity
  8
2
100
AcDbLine
 10
1746.154922205947
 20
5426.430559082563
 30
0.0
 11
1746.154922205947
 21
4000.360510230945
 31
0.0
  0
LINE
  5
7C50
330
19
100
AcDbEntity
  8
2
100
AcDbLine
 10
2294.154922205947
 20
4907.411845573694
 30
0.0
 11
1232.551076469881
 21
4907.411845573694
 31
0.0
  0
ARC
  5
7C57
330
19
100
AcDbEntity
  8
1
100
AcDbCircle
 10
2596.154922205947
 20
2285.93573468138
 30
0.0
 40
142.5
100
AcDbArc
 50
180.0
 51
244.7254
  0
ARC
  5
7C58
330
19
100
AcDbEntity
  8
1
100
AcDbCircle
 10
2596.154922205947
 20
2285.93573468138
 30
0.0
 40
142.5
100
AcDbArc
 50
295.0012
 51
180.0
  0
LINE
  5
7C59
330
19
100
AcDbEntity
  8
1
100
AcDbLine
 10
2596.154922205947
 20
2479.33373468138
 30
0.0
 11
2596.154922205947
 21
2155.71973468138
 31
0.0
  0
LINE
  5
7C5A
330
19
100
AcDbEntity
  8
1
100
AcDbLine
 10
2535.613522205947
 20
2156.93573468138
 30
0.0
 11
2656.696222205947
 21
2156.93573468138
 31
0.0
  0
LINE
  5
7C5B
330
19
100
AcDbEntity
  8
1
100
AcDbLine
 10
2683.617922205947
 20
2173.44323468138
 30
0.0
 11
2687.246722205947
 21
2169.81443468138
 31
0.0
  0
LINE
  5
7C5C
330
19
100
AcDbEntity
  8
1
100
AcDbLine
 10
2715.637722205947
 20
2208.186334681379
 30
0.0
 11
2726.154922205947
 21
2168.93573468138
 31
0.0
  0
LINE
  5
7C5D
330
19
100
AcDbEntity
  8
1
100
AcDbLine
 10
2689.368022205947
 20
2168.93573468138
 30
0.0
 11
2724.154922205947
 21
2168.93573468138
 31
0.0
  0
ARC
  5
7C5E
330
19
100
AcDbEntity
  8
1
100
AcDbCircle
 10
2724.154922205947
 20
2166.935734681379
 30
0.0
 40
2.0
100
AcDbArc
 50
0.0
 51
90.0
  0
LINE
  5
7C5F
330
19
100
AcDbEntity
  8
1
100
AcDbLine
 10
2726.154922205947
 20
2168.73833468138
 30
0.0
 11
2726.154922205947
 21
2153.935734681379
 31
0.0
  0
ARC
  5
7C63
330
19
100
AcDbEntity
  8
1
100
AcDbCircle
 10
2689.368022205947
 20
2171.93573468138
 30
0.0
 40
3.0
100
AcDbArc
 50
225.0004
 51
270.0
  0
ARC
  5
7C64
330
19
100
AcDbEntity
  8
1
100
AcDbCircle
 10
2671.154922205947
 20
2161.86473468138
 30
0.0
 40
4.9999
100
AcDbArc
 50
0.0
 51
45.0005
  0
LINE
  5
7C65
330
19
100
AcDbEntity
  8
1
100
AcDbLine
 10
2675.034722205947
 20
2165.05593468138
 30
0.0
 11
2673.663822205947
 21
2166.426834681379
 31
0.0
  0
LINE
  5
7C66
330
19
100
AcDbEntity
  8
1
100
AcDbLine
 10
2676.154922205947
 20
2153.935734681379
 30
0.0
 11
2676.154922205947
 21
2161.86473468138
 31
0.0
  0
LINE
  5
7C67
330
19
100
AcDbEntity
  8
1
100
AcDbLine
 10
2476.629322205947
 20
2208.027034681379
 30
0.0
 11
2466.154922205947
 21
2168.93573468138
 31
0.0
  0
LINE
  5
7C68
330
19
100
AcDbEntity
  8
1
100
AcDbLine
 10
2502.941722205946
 20
2168.93573468138
 30
0.0
 11
2468.154922205947
 21
2168.93573468138
 31
0.0
  0
ARC
  5
7C69
330
19
100
AcDbEntity
  8
1
100
AcDbCircle
 10
2521.154822205946
 20
2161.86473468138
 30
0.0
 40
4.9999
100
AcDbArc
 50
134.9995
 51
180.0
  0
LINE
  5
7C6A
330
19
100
AcDbEntity
  8
1
100
AcDbLine
 10
2517.779722205947
 20
2165.560734681379
 30
0.0
 11
2518.581722205947
 21
2166.36273468138
 31
0.0
  0
LINE
  5
7C6B
330
19
100
AcDbEntity
  8
1
100
AcDbLine
 10
2516.154922205947
 20
2153.935734681379
 30
0.0
 11
2516.154922205947
 21
2161.86473468138
 31
0.0
  0
ARC
  5
7C6C
330
19
100
AcDbEntity
  8
1
100
AcDbCircle
 10
2502.941722205946
 20
2171.93573468138
 30
0.0
 40
3.0
100
AcDbArc
 50
270.0
 51
315.0
  0
LINE
  5
7C6D
330
19
100
AcDbEntity
  8
1
100
AcDbLine
 10
2508.810622205947
 20
2173.56193468138
 30
0.0
 11
2505.063022205947
 21
2169.81443468138
 31
0.0
  0
ARC
  5
7C71
330
19
100
AcDbEntity
  8
1
100
AcDbCircle
 10
2468.154922205947
 20
2166.935734681379
 30
0.0
 40
2.0
100
AcDbArc
 50
90.0
 51
180.0
  0
LINE
  5
7C72
330
19
100
AcDbEntity
  8
1
100
AcDbLine
 10
2466.154922205947
 20
2168.73833468138
 30
0.0
 11
2466.154922205947
 21
2153.935734681379
 31
0.0
  0
LINE
  5
7C73
330
19
100
AcDbEntity
  8
2
100
AcDbLine
 10
2775.825041381211
 20
2285.93573468138
 30
0.0
 11
2427.654156680286
 21
2285.93573468138
 31
0.0
  0
LINE
  5
7C74
330
19
100
AcDbEntity
  8
1
100
AcDbLine
 10
2596.154922205947
 20
2427.49273468138
 30
0.0
 11
2596.154822205946
 21
2433.34873468138
 31
0.0
  0
LINE
  5
7C75
330
19
100
AcDbEntity
  8
1
100
AcDbLine
 10
2396.154922205947
 20
2108.935734681379
 30
0.0
 11
2396.154922205947
 21
2064.094503493181
 31
0.0
  0
LINE
  5
7C76
330
19
100
AcDbEntity
  8
1
100
AcDbLine
 10
2796.154922205947
 20
2108.935734681379
 30
0.0
 11
2796.154922205947
 21
2064.094503493181
 31
0.0
  0
LINE
  5
7C77
330
19
100
AcDbEntity
  8
1
100
AcDbLine
 10
2796.154922205947
 20
2108.935734681379
 30
0.0
 11
2396.154922205947
 21
2108.935734681379
 31
0.0
  0
LINE
  5
7C79
330
19
100
AcDbEntity
  8
1
100
AcDbLine
 10
2759.990578819741
 20
2153.935734681379
 30
0.0
 11
2646.154922205947
 21
2153.935734681379
 31
0.0
  0
LINE
  5
7C7A
330
19
100
AcDbEntity
  8
1
100
AcDbLine
 10
2771.154922205947
 20
2108.935734681379
 30
0.0
 11
2759.990578819741
 21
2153.935734681379
 31
0.0
  0
LINE
  5
7C7B
330
19
100
AcDbEntity
  8
1
100
AcDbLine
 10
2421.154922205947
 20
2108.935734681379
 30
0.0
 11
2433.53241081462
 21
2153.935734681379
 31
0.0
  0
LINE
  5
7C7C
330
19
100
AcDbEntity
  8
1
100
AcDbLine
 10
2646.154922205947
 20
2148.935734681379
 30
0.0
 11
2546.154922205947
 21
2148.935734681379
 31
0.0
  0
LINE
  5
7C7E
330
19
100
AcDbEntity
  8
1
100
AcDbLine
 10
2546.154922205947
 20
2153.935734681379
 30
0.0
 11
2546.154922205947
 21
2148.935734681379
 31
0.0
  0
LINE
  5
7C7F
330
19
100
AcDbEntity
  8
1
100
AcDbLine
 10
2646.154922205947
 20
2153.935734681379
 30
0.0
 11
2646.154922205947
 21
2148.935734681379
 31
0.0
  0
LINE
  5
7C80
330
19
100
AcDbEntity
  8
1
100
AcDbLine
 10
2546.154922205947
 20
2153.935734681379
 30
0.0
 11
2433.53241081462
 21
2153.935734681379
 31
0.0
  0
POINT
  5
7C8D
330
19
100
AcDbEntity
  8
1
100
AcDbPoint
 10
1346.154922205946
 20
1964.094503493181
 30
0.0
  0
DIMENSION
  5
7C8E
330
19
100
AcDbEntity
  8
3
100
AcDbDimension
280
     0
  2
*D1
 10
1746.154922205947
 20
3397.67287612185
 30
0.0
 11
1516.154922205946
 21
3447.67287612185
 31
0.0
 12
1749.223986613138
 22
2195.996877043061
 32
0.0
 70
    32
 71
     5
 42
-1.0
 73
     0
 74
     0
 75
     0
  3
MATSU
100
AcDbAlignedDimension
 13
1286.154922205946
 23
2758.866540898595
 33
0.0
 14
1746.154922205947
 24
3246.311142890558
 34
0.0
100
AcDbRotatedDimension
1001
ACAD
1000
DSTYLE
1002
{
1070
    40
1040
25.0
1002
}
  0
DIMENSION
  5
7C8F
330
19
100
AcDbEntity
  8
3
100
AcDbDimension
280
     0
  2
*D2
 10
2291.945459405682
 20
3397.452429747717
 30
0.0
 11
2019.050190805814
 21
3447.452429747717
 31
0.0
 12
1749.223986613138
 22
2195.996877043061
 32
0.0
 70
    32
  1
548
 71
     5
 42
-1.0
 73
     0
 74
     0
 75
     0
  3
MATSU
100
AcDbAlignedDimension
 13
1746.154922205947
 23
3246.311142890558
 33
0.0
 14
2291.945459405682
 24
2764.094503493181
 34
0.0
100
AcDbRotatedDimension
1001
ACAD
1000
DSTYLE
1002
{
1070
    40
1040
25.0
1002
}
  0
LINE
  5
7C92
330
19
100
AcDbEntity
  8
1
100
AcDbLine
 10
3587.895051520365
 20
3218.094503493181
 30
0.0
 11
3587.895051520365
 21
2792.094503493181
 31
0.0
  0
LINE
  5
7C93
330
19
100
AcDbEntity
  8
1
100
AcDbLine
 10
3587.895051520365
 20
2792.094503493181
 30
0.0
 11
3587.895051520366
 21
2423.594503493181
 31
0.0
  0
LINE
  5
7C97
330
19
100
AcDbEntity
  8
1
100
AcDbLine
 10
3429.895051520367
 20
2789.094503493181
 30
0.0
 11
3429.895051520367
 21
2739.094503493181
 31
0.0
  0
LINE
  5
7C98
330
19
100
AcDbEntity
  8
1
100
AcDbLine
 10
3389.895051520366
 20
2785.094503493181
 30
0.0
 11
3429.895051520367
 21
2785.094503493181
 31
0.0
  0
LINE
  5
7C99
330
19
100
AcDbEntity
  8
1
100
AcDbLine
 10
3389.895051520365
 20
2743.094503493181
 30
0.0
 11
3429.895051520367
 21
2743.094503493181
 31
0.0
  0
LINE
  5
7C9A
330
19
100
AcDbEntity
  8
1
100
AcDbLine
 10
3429.895051520367
 20
2789.094503493181
 30
0.0
 11
3587.895051520365
 21
2789.09450349318
 31
0.0
  0
LINE
  5
7C9B
330
19
100
AcDbEntity
  8
1
100
AcDbLine
 10
3429.895051520367
 20
2739.094503493181
 30
0.0
 11
3587.895051520365
 21
2739.094503493181
 31
0.0
  0
LINE
  5
7C9C
330
19
100
AcDbEntity
  8
1
100
AcDbLine
 10
3575.595051520366
 20
2733.094503493181
 30
0.0
 11
3575.595051520366
 21
2583.094503493181
 31
0.0
  0
LINE
  5
7C9D
330
19
100
AcDbEntity
  8
1
100
AcDbLine
 10
3450.595051520366
 20
2723.094503493181
 30
0.0
 11
3450.595051520366
 21
2593.094503493181
 31
0.0
  0
LINE
  5
7C9E
330
19
100
AcDbEntity
  8
1
100
AcDbLine
 10
3460.595051520365
 20
2733.094503493181
 30
0.0
 11
3535.595051520366
 21
2733.094503493181
 31
0.0
  0
LINE
  5
7C9F
330
19
100
AcDbEntity
  8
1
100
AcDbLine
 10
3460.595051520366
 20
2583.094503493181
 30
0.0
 11
3535.595051520366
 21
2583.094503493181
 31
0.0
  0
ARC
  5
7CA0
330
19
100
AcDbEntity
  8
1
100
AcDbCircle
 10
3460.595051520365
 20
2723.094503493181
 30
0.0
 40
10.0
100
AcDbArc
 50
90.0
 51
180.0
  0
ARC
  5
7CA1
330
19
100
AcDbEntity
  8
1
100
AcDbCircle
 10
3460.595051520366
 20
2593.094503493181
 30
0.0
 40
10.0
100
AcDbArc
 50
180.0
 51
270.0
  0
LINE
  5
7CA2
330
19
100
AcDbEntity
  8
1
100
AcDbLine
 10
3535.595051520366
 20
2733.094503493182
 30
0.0
 11
3575.595051520366
 21
2733.094503493181
 31
0.0
  0
LINE
  5
7CA3
330
19
100
AcDbEntity
  8
1
100
AcDbLine
 10
3535.595051520366
 20
2583.094503493181
 30
0.0
 11
3575.595051520366
 21
2583.094503493181
 31
0.0
  0
LINE
  5
7CA4
330
19
100
AcDbEntity
  8
1
100
AcDbLine
 10
4492.895051520365
 20
2750.494503493181
 30
0.0
 11
4492.895051520365
 21
2630.494503493181
 31
0.0
  0
LINE
  5
7CA5
330
19
100
AcDbEntity
  8
1
100
AcDbLine
 10
4582.895051520366
 20
2740.494503493181
 30
0.0
 11
4582.895051520366
 21
2640.494503493181
 31
0.0
  0
LINE
  5
7CA6
330
19
100
AcDbEntity
  8
1
100
AcDbLine
 10
4492.895051520365
 20
2750.494503493181
 30
0.0
 11
4532.695051520366
 21
2750.494503493181
 31
0.0
  0
LINE
  5
7CA7
330
19
100
AcDbEntity
  8
1
100
AcDbLine
 10
4492.895051520365
 20
2630.494503493181
 30
0.0
 11
4532.695051520366
 21
2630.494503493181
 31
0.0
  0
ARC
  5
7CA8
330
19
100
AcDbEntity
  8
1
100
AcDbCircle
 10
4572.895051520366
 20
2740.494503493181
 30
0.0
 40
10.0
100
AcDbArc
 50
0.0
 51
90.0
  0
ARC
  5
7CA9
330
19
100
AcDbEntity
  8
1
100
AcDbCircle
 10
4572.895051520366
 20
2640.494503493181
 30
0.0
 40
10.0
100
AcDbArc
 50
270.0
 51
0.0
  0
LINE
  5
7CAA
330
19
100
AcDbEntity
  8
1
100
AcDbLine
 10
4532.695051520366
 20
2630.494503493181
 30
0.0
 11
4572.895051520366
 21
2630.494503493181
 31
0.0
  0
LINE
  5
7CAB
330
19
100
AcDbEntity
  8
1
100
AcDbLine
 10
4532.695051520366
 20
2750.494503493181
 30
0.0
 11
4572.895051520366
 21
2750.494503493181
 31
0.0
  0
CIRCLE
  5
7CAE
330
19
100
AcDbEntity
  8
1
100
AcDbCircle
 10
2596.154922205947
 20
2285.93573468138
 30
0.0
 40
79.0
  0
CIRCLE
  5
7CAF
330
19
100
AcDbEntity
  8
1
100
AcDbCircle
 10
1746.154922205947
 20
2764.094503493181
 30
0.0
 40
88.9
  0
ARC
  5
7CB0
330
19
100
AcDbEntity
  8
1
100
AcDbCircle
 10
1746.154922205947
 20
2764.094503493181
 30
0.0
 40
150.0
100
AcDbArc
 50
77.52830244339076
 51
257.5283024433907
  0
ARC
  5
7CB1
330
19
100
AcDbEntity
  8
1
100
AcDbCircle
 10
2596.154922205947
 20
2285.93573468138
 30
0.0
 40
150.0
100
AcDbArc
 50
257.5283024433907
 51
77.52830244339076
  0
LINE
  5
7CB2
330
19
100
AcDbEntity
  8
1
100
AcDbLine
 10
1778.548521077246
 20
2910.554923921928
 30
0.0
 11
2628.548521077246
 21
2432.396155110127
 31
0.0
  0
LINE
  5
7CB3
330
19
100
AcDbEntity
  8
1
100
AcDbLine
 10
1766.339420872835
 20
2850.672768742413
 30
0.0
 11
2614.091653304757
 21
2362.872550819617
 31
0.0
  0
LINE
  5
7CB4
330
19
100
AcDbEntity
  8
1
100
AcDbLine
 10
1727.944691330318
 20
2677.079576661882
 30
0.0
 11
2579.972602305219
 21
2208.61088406639
 31
0.0
  0
LINE
  5
7CB5
330
19
100
AcDbEntity
  8
1
100
AcDbLine
 10
1713.761323334647
 20
2617.634083064434
 30
0.0
 11
2563.761323334647
 21
2139.475314252632
 31
0.0
  0
LINE
  5
7CB6
330
19
100
AcDbEntity
  8
1
100
AcDbLine
 10
3307.895051520366
 20
2852.994503493182
 30
0.0
 11
3307.895051520363
 21
2202.094503493181
 31
0.0
  0
LINE
  5
7CB7
330
19
100
AcDbEntity
  8
1
100
AcDbLine
 10
3389.895051520366
 20
2852.994503493182
 30
0.0
 11
3389.895051520362
 21
2202.094503493181
 31
0.0
  0
LINE
  5
7CB8
330
19
100
AcDbEntity
  8
1
100
AcDbLine
 10
3307.895051520366
 20
2852.994503493182
 30
0.0
 11
3389.895051520366
 21
2852.994503493182
 31
0.0
  0
LINE
  5
7CB9
330
19
100
AcDbEntity
  8
1
100
AcDbLine
 10
3307.895051520365
 20
2675.194503493181
 30
0.0
 11
3389.895051520365
 21
2675.194503493182
 31
0.0
  0
LINE
  5
7CBA
330
19
100
AcDbEntity
  8
1
100
AcDbLine
 10
3307.895051520365
 20
2360.094503493181
 30
0.0
 11
3389.895051520365
 21
2360.094503493181
 31
0.0
  0
LINE
  5
7CBB
330
19
100
AcDbEntity
  8
1
100
AcDbLine
 10
3307.895051520365
 20
2202.094503493181
 30
0.0
 11
3389.895051520363
 21
2202.094503493181
 31
0.0
  0
LINE
  5
7CBC
330
19
100
AcDbEntity
  8
1
100
AcDbLine
 10
3212.895051520366
 20
2914.094503493181
 30
0.0
 11
3212.895051520364
 21
2131.094503493181
 31
0.0
  0
LINE
  5
7CBD
330
19
100
AcDbEntity
  8
1
100
AcDbLine
 10
3437.895051520366
 20
2914.094503493181
 30
0.0
 11
3437.895051520366
 21
2894.094503493181
 31
0.0
  0
LINE
  5
7CBE
330
19
100
AcDbEntity
  8
1
100
AcDbLine
 10
3212.895051520366
 20
2914.094503493181
 30
0.0
 11
3437.895051520366
 21
2914.094503493181
 31
0.0
  0
LINE
  5
7CBF
330
19
100
AcDbEntity
  8
1
100
AcDbLine
 10
3212.895051520364
 20
2131.094503493181
 30
0.0
 11
3437.895051520364
 21
2131.094503493181
 31
0.0
  0
LINE
  5
7CC0
330
19
100
AcDbEntity
  8
1
100
AcDbLine
 10
3437.895051520364
 20
2151.094503493181
 30
0.0
 11
3437.895051520364
 21
2131.094503493181
 31
0.0
  0
DIMENSION
  5
7CC1
330
19
100
AcDbEntity
  8
3
100
AcDbDimension
280
     0
  2
*D3
 10
4437.895051520366
 20
3331.272123479434
 30
0.0
 11
4012.895051520366
 21
3381.272123479434
 31
0.0
 12
1445.598858037083
 22
2195.996877043061
 32
0.0
 70
    32
 71
     5
 42
-1.0
 73
     0
 74
     0
 75
     0
  3
MATSU
100
AcDbAlignedDimension
 13
3587.895051520366
 23
3218.094503493181
 33
0.0
 14
4437.895051520366
 24
3218.094503493181
 34
0.0
100
AcDbRotatedDimension
1001
ACAD
1000
DSTYLE
1002
{
1070
    40
1040
25.0
1002
}
  0
POINT
  5
7CC2
330
19
100
AcDbEntity
  8
1
100
AcDbPoint
 10
3212.895051520366
 20
2914.094503493181
 30
0.0
  0
POINT
  5
7CC3
330
19
100
AcDbEntity
  8
1
100
AcDbPoint
 10
4582.895051520366
 20
2740.494503493181
 30
0.0
  0
LINE
  5
7CC4
330
19
100
AcDbEntity
  8
2
100
AcDbLine
 10
2596.154922205947
 20
4773.824326591768
 30
0.0
 11
2596.154922205947
 21
4082.933251001844
 31
0.0
  0
LINE
  5
7CC5
330
19
100
AcDbEntity
  8
1
100
AcDbLine
 10
2146.154922205947
 20
5385.411845573695
 30
0.0
 11
1346.154922205945
 21
5385.411845573695
 31
0.0
  0
LINE
  5
7CC6
330
19
100
AcDbEntity
  8
1
100
AcDbLine
 10
2896.154922205947
 20
4325.411845573693
 30
0.0
 11
1346.154922205946
 21
4325.411845573693
 31
0.0
  0
LINE
  5
7CC7
330
19
100
AcDbEntity
  8
1
100
AcDbLine
 10
1346.154922205946
 20
5385.411845573695
 30
0.0
 11
1346.154922205946
 21
5332.411845573694
 31
0.0
  0
LINE
  5
7CC8
330
19
100
AcDbEntity
  8
1
100
AcDbLine
 10
2146.154922205947
 20
5385.411845573694
 30
0.0
 11
2146.154922205947
 21
5332.411845573694
 31
0.0
  0
LINE
  5
7CC9
330
19
100
AcDbEntity
  8
1
100
AcDbLine
 10
2896.154922205947
 20
4975.411845573693
 30
0.0
 11
2896.154922205947
 21
4325.411845573693
 31
0.0
  0
LINE
  5
7CCA
330
19
100
AcDbEntity
  8
1
100
AcDbLine
 10
2896.154922205948
 20
4975.411845573693
 30
0.0
 11
2294.154922205947
 21
4975.411845573693
 31
0.0
  0
DIMENSION
  5
7CCB
330
19
100
AcDbEntity
  8
3
100
AcDbDimension
280
     0
  2
*D4
 10
1047.516838895884
 20
5385.411845573695
 30
0.0
 11
997.5168388958845
 21
4855.411845573694
 31
0.0
 12
1749.223986613138
 22
2195.996877043061
 32
0.0
 70
    32
 71
     5
 42
-1.0
 73
     0
 74
     0
 75
     0
  3
MATSU
100
AcDbAlignedDimension
 13
1346.154922205946
 23
4325.411845573693
 33
0.0
 14
1346.154922205945
 24
5385.411845573695
 34
0.0
 50
270.0
100
AcDbRotatedDimension
1001
ACAD
1000
DSTYLE
1002
{
1070
    40
1040
25.0
1002
}
  0
DIMENSION
  5
7CCC
330
19
100
AcDbEntity
  8
3
100
AcDbDimension
280
     0
  2
*D5
 10
1346.154922205945
 20
5686.464806912731
 30
0.0
 11
1746.154922205946
 21
5736.464806912731
 31
0.0
 12
1749.223986613138
 22
2195.996877043061
 32
0.0
 70
    32
 71
     5
 42
-1.0
 73
     0
 74
     0
 75
     0
  3
MATSU
100
AcDbAlignedDimension
 13
2146.154922205947
 23
5385.411845573695
 33
0.0
 14
1346.154922205945
 24
5385.411845573695
 34
0.0
100
AcDbRotatedDimension
1001
ACAD
1000
DSTYLE
1002
{
1070
    40
1040
25.0
1002
}
  0
DIMENSION
  5
7CCD
330
19
100
AcDbEntity
  8
3
100
AcDbDimension
280
     0
  2
*D6
 10
3195.212974868577
 20
4325.411845573693
 30
0.0
 11
3145.212974868577
 21
4650.411845573693
 31
0.0
 12
1749.223986613138
 22
2195.996877043061
 32
0.0
 70
    32
 71
     5
 42
-1.0
 73
     0
 74
     0
 75
     0
  3
MATSU
100
AcDbAlignedDimension
 13
2896.154922205948
 23
4975.411845573693
 33
0.0
 14
2896.154922205947
 24
4325.411845573693
 34
0.0
 50
270.0
100
AcDbRotatedDimension
1001
ACAD
1000
DSTYLE
1002
{
1070
    40
1040
25.0
1002
}
  0
DIMENSION
  5
7CCE
330
19
100
AcDbEntity
  8
3
100
AcDbDimension
280
     0
  2
*D7
 10
1346.154922205946
 20
3929.499883546334
 30
0.0
 11
2121.154922205947
 21
3929.499883546334
 31
0.0
 12
1749.223986613138
 22
2195.996877043061
 32
0.0
 70
   160
 71
     5
 42
-1.0
 73
     0
 74
     0
 75
     0
  3
MATSU
100
AcDbAlignedDimension
 13
2896.154922205947
 23
4325.411845573693
 33
0.0
 14
1346.154922205946
 24
4325.411845573693
 34
0.0
100
AcDbRotatedDimension
1001
ACAD
1000
DSTYLE
1002
{
1070
    40
1040
25.0
1002
}
  0
DIMENSION
  5
7CCF
330
19
100
AcDbEntity
  8
3
100
AcDbDimension
280
     0
  2
*D8
 10
2146.154922205947
 20
5686.464806912731
 30
0.0
 11
2521.154922205947
 21
5736.464806912731
 31
0.0
 12
1749.223986613138
 22
2195.996877043061
 32
0.0
 70
    32
 71
     5
 42
-1.0
 73
     0
 74
     0
 75
     0
  3
MATSU
100
AcDbAlignedDimension
 13
2896.154922205948
 23
4975.411845573693
 33
0.0
 14
2146.154922205947
 24
5385.411845573695
 34
0.0
100
AcDbRotatedDimension
1001
ACAD
1000
DSTYLE
1002
{
1070
    40
1040
25.0
1002
}
  0
DIMENSION
  5
7CD0
330
19
100
AcDbEntity
  8
3
100
AcDbDimension
280
     0
  2
*D9
 10
875.0237916227961
 20
1964.094503493181
 30
0.0
 11
825.0237916227961
 21
2364.094503493181
 31
0.0
 12
1749.223986613138
 22
2195.996877043061
 32
0.0
 70
    32
 71
     5
 42
-1.0
 73
     0
 74
     0
 75
     0
  3
MATSU
100
AcDbAlignedDimension
 13
1239.261949102951
 23
2764.094503493181
 33
0.0
 14
1346.154922205946
 24
1964.094503493181
 34
0.0
 50
270.0
100
AcDbRotatedDimension
1001
ACAD
1000
DSTYLE
1002
{
1070
    40
1040
25.0
1002
}
  0
POINT
  5
7CD6
330
19
100
AcDbEntity
  8
1
100
AcDbPoint
 10
1346.154922205946
 20
1964.094503493181
 30
0.0
  0
CIRCLE
  5
7CD8
330
19
100
AcDbEntity
  8
1
100
AcDbCircle
 10
1746.154922205947
 20
2764.094503493181
 30
0.0
 40
315.0
  0
CIRCLE
  5
7CD9
330
19
100
AcDbEntity
  8
1
100
AcDbCircle
 10
1746.154922205947
 20
2764.094503493181
 30
0.0
 40
355.0
  0
DIMENSION
  5
7CDC
330
19
100
AcDbEntity
  8
3
100
AcDbDimension
280
     0
  2
*D10
 10
4012.895051520366
 20
3528.904317339208
 30
0.0
 11
4297.895051520366
 21
3598.547174482065
 31
0.0
 70
    32
  1
(<>)
 71
     5
 42
570.0000000000004
 73
     0
 74
     0
 75
     0
  3
MATSU
100
AcDbAlignedDimension
 13
4582.895051520366
 23
2740.494503493181
 33
0.0
 14
4012.895051520366
 24
3429.717268076782
 34
0.0
100
AcDbRotatedDimension
1001
ACAD
1000
DSTYLE
1002
{
1070
    40
1040
25.0
1002
}
  0
DIMENSION
  5
7CDD
330
19
100
AcDbEntity
  8
3
100
AcDbDimension
280
     0
  2
*D11
 10
3212.895051520366
 20
3528.904317339208
 30
0.0
 11
3612.895051520367
 21
3598.547174482065
 31
0.0
 70
    32
  1
(<>)
 71
     5
 42
799.9999999999995
 73
     0
 74
     0
 75
     0
  3
MATSU
100
AcDbAlignedDimension
 13
4012.895051520366
 23
3429.717268076782
 33
0.0
 14
3212.895051520366
 24
2914.094503493181
 34
0.0
100
AcDbRotatedDimension
1001
ACAD
1000
DSTYLE
1002
{
1070
    40
1040
25.0
1002
}
  0
DIMENSION
  5
7CDE
330
19
100
AcDbEntity
  8
3
100
AcDbDimension
280
     0
  2
*D12
 10
4673.120489798446
 20
2449.094503493181
 30
0.0
 11
4623.120489798446
 21
2764.094503493181
 31
0.0
 12
1445.598858037083
 22
2195.996877043061
 32
0.0
 70
    32
 71
     5
 42
-1.0
 73
     0
 74
     0
 75
     0
  3
MATSU
100
AcDbAlignedDimension
 13
4437.895051520366
 23
3079.094503493181
 33
0.0
 14
4437.895051520366
 24
2449.094503493181
 34
0.0
 50
90.0
100
AcDbRotatedDimension
1001
ACAD
1000
DSTYLE
1002
{
1070
    40
1040
25.0
1070
     3
1000
φ<>
1002
}
  0
LINE
  5
7CDF
330
19
100
AcDbEntity
  8
1
100
AcDbLine
 10
2294.154922205947
 20
5332.411845573694
 30
0.0
 11
1286.154922205946
 21
5332.411845573694
 31
0.0
  0
LINE
  5
7CE0
330
19
100
AcDbEntity
  8
1
100
AcDbLine
 10
2294.154922205947
 20
4482.411845573693
 30
0.0
 11
1286.154922205946
 21
4482.411845573695
 31
0.0
  0
LINE
  5
7CE1
330
19
100
AcDbEntity
  8
1
100
AcDbLine
 10
1286.154922205946
 20
5372.411845573694
 30
0.0
 11
1286.154922205946
 21
4442.411845573694
 31
0.0
  0
LINE
  5
7CE2
330
19
100
AcDbEntity
  8
1
100
AcDbLine
 10
2294.154922205947
 20
5332.411845573694
 30
0.0
 11
2294.154922205947
 21
4482.411845573693
 31
0.0
  0
LINE
  5
7CE3
330
19
100
AcDbEntity
  8
1
100
AcDbLine
 10
1289.154922205947
 20
5372.411845573694
 30
0.0
 11
1286.154922205946
 21
5372.411845573694
 31
0.0
  0
LINE
  5
7CE4
330
19
100
AcDbEntity
  8
1
100
AcDbLine
 10
1289.154922205947
 20
4442.411845573695
 30
0.0
 11
1286.154922205946
 21
4442.411845573695
 31
0.0
  0
LINE
  5
7CE5
330
19
100
AcDbEntity
  8
1
100
AcDbLine
 10
1289.154922205947
 20
5372.411845573694
 30
0.0
 11
1289.154922205947
 21
4442.411845573694
 31
0.0
  0
LINE
  5
7CE6
330
19
100
AcDbEntity
  8
1
100
AcDbLine
 10
2453.654922205947
 20
4689.411845573693
 30
0.0
 11
2453.654922205947
 21
4289.411845573694
 31
0.0
  0
LINE
  5
7CE7
330
19
100
AcDbEntity
  8
1
100
AcDbLine
 10
2738.654922205947
 20
4689.411845573693
 30
0.0
 11
2738.654922205947
 21
4289.411845573694
 31
0.0
  0
LINE
  5
7CE8
330
19
100
AcDbEntity
  8
1
100
AcDbLine
 10
2746.154922205947
 20
4107.411845573693
 30
0.0
 11
1596.154922205946
 21
4107.411845573694
 31
0.0
  0
LINE
  5
7CE9
330
19
100
AcDbEntity
  8
1
100
AcDbLine
 10
2746.154922205947
 20
4332.411845573694
 30
0.0
 11
1596.154922205946
 21
4332.411845573694
 31
0.0
  0
LINE
  5
7CEA
330
19
100
AcDbEntity
  8
1
100
AcDbLine
 10
1596.154922205946
 20
4107.411845573694
 30
0.0
 11
1596.154922205946
 21
4332.411845573694
 31
0.0
  0
LINE
  5
7CEB
330
19
100
AcDbEntity
  8
1
100
AcDbLine
 10
2746.154922205947
 20
4107.411845573693
 30
0.0
 11
2746.154922205947
 21
4332.411845573694
 31
0.0
  0
LINE
  5
7CEC
330
19
100
AcDbEntity
  8
1
100
AcDbLine
 10
2517.154922205947
 20
4284.411845573693
 30
0.0
 11
2517.154922205947
 21
4202.411845573693
 31
0.0
  0
LINE
  5
7CED
330
19
100
AcDbEntity
  8
1
100
AcDbLine
 10
2675.154922205947
 20
4284.411845573693
 30
0.0
 11
2675.154922205947
 21
4202.411845573693
 31
0.0
  0
LINE
  5
7CEE
330
19
100
AcDbEntity
  8
1
100
AcDbLine
 10
1657.154922205946
 20
4284.411845573695
 30
0.0
 11
1657.154922205946
 21
4202.411845573693
 31
0.0
  0
LINE
  5
7CEF
330
19
100
AcDbEntity
  8
1
100
AcDbLine
 10
1835.154922205947
 20
4284.411845573695
 30
0.0
 11
1835.154922205947
 21
4202.411845573693
 31
0.0
  0
LINE
  5
7CF0
330
19
100
AcDbEntity
  8
1
100
AcDbLine
 10
2675.154922205947
 20
4284.411845573693
 30
0.0
 11
2517.154922205947
 21
4284.411845573693
 31
0.0
  0
LINE
  5
7CF1
330
19
100
AcDbEntity
  8
1
100
AcDbLine
 10
2675.154922205947
 20
4202.411845573693
 30
0.0
 11
2517.154922205947
 21
4202.411845573693
 31
0.0
  0
LINE
  5
7CF2
330
19
100
AcDbEntity
  8
1
100
AcDbLine
 10
1835.154922205947
 20
4284.411845573693
 30
0.0
 11
1657.154922205946
 21
4284.411845573695
 31
0.0
  0
LINE
  5
7CF3
330
19
100
AcDbEntity
  8
1
100
AcDbLine
 10
1835.154922205947
 20
4202.411845573693
 30
0.0
 11
1657.154922205946
 21
4202.411845573695
 31
0.0
  0
LINE
  5
7CF4
330
19
100
AcDbEntity
  8
1
100
AcDbLine
 10
1721.154922205947
 20
4482.411845573694
 30
0.0
 11
1721.154922205947
 21
4284.411845573695
 31
0.0
  0
LINE
  5
7CF5
330
19
100
AcDbEntity
  8
1
100
AcDbLine
 10
1771.154922205947
 20
4482.411845573694
 30
0.0
 11
1771.154922205947
 21
4284.411845573695
 31
0.0
  0
LINE
  5
7CF6
330
19
100
AcDbEntity
  8
1
100
AcDbLine
 10
2738.654922205947
 20
4689.411845573693
 30
0.0
 11
2453.654922205947
 21
4689.411845573693
 31
0.0
  0
LINE
  5
7CF7
330
19
100
AcDbEntity
  8
1
100
AcDbLine
 10
2738.654922205947
 20
4289.411845573694
 30
0.0
 11
2453.654922205948
 21
4289.411845573694
 31
0.0
  0
LINE
  5
7CF8
330
19
100
AcDbEntity
  8
1
100
AcDbLine
 10
2577.154922205947
 20
4289.411845573694
 30
0.0
 11
2577.154922205947
 21
4284.411845573695
 31
0.0
  0
LINE
  5
7CF9
330
19
100
AcDbEntity
  8
1
100
AcDbLine
 10
2615.154922205947
 20
4289.411845573694
 30
0.0
 11
2615.154922205947
 21
4284.411845573695
 31
0.0
  0
LINE
  5
7CFA
330
19
100
AcDbEntity
  8
1
100
AcDbLine
 10
3394.895051520364
 20
2138.594503493181
 30
0.0
 11
3394.895051520365
 21
2423.594503493181
 31
0.0
  0
LINE
  5
7CFB
330
19
100
AcDbEntity
  8
1
100
AcDbLine
 10
3394.895051520364
 20
2138.594503493181
 30
0.0
 11
3794.895051520364
 21
2138.594503493181
 31
0.0
  0
LINE
  5
7CFC
330
19
100
AcDbEntity
  8
1
100
AcDbLine
 10
3394.895051520365
 20
2423.594503493181
 30
0.0
 11
3794.895051520365
 21
2423.594503493181
 31
0.0
  0
LINE
  5
7CFD
330
19
100
AcDbEntity
  8
2
100
AcDbLine
 10
3206.563732530526
 20
2281.094503493181
 30
0.0
 11
3794.895051520365
 21
2281.094503493181
 31
0.0
  0
LINE
  5
7CFE
330
19
100
AcDbEntity
  8
1
100
AcDbLine
 10
3389.895051520364
 20
2300.094503493181
 30
0.0
 11
3394.895051520364
 21
2300.094503493181
 31
0.0
  0
LINE
  5
7CFF
330
19
100
AcDbEntity
  8
1
100
AcDbLine
 10
3389.895051520364
 20
2262.094503493181
 30
0.0
 11
3394.895051520364
 21
2262.094503493181
 31
0.0
  0
LINE
  5
7D00
330
19
100
AcDbEntity
  8
1
100
AcDbLine
 10
3575.595051520365
 20
2423.594503493181
 30
0.0
 11
3587.895051520365
 21
2423.594503493181
 31
0.0
  0
DIMENSION
  5
7D07
330
19
100
AcDbEntity
  8
3
100
AcDbDimension
280
     0
  2
*D13
 10
2896.154922205947
 20
3506.074561390471
 30
0.0
 11
2091.154922205947
 21
3556.074561390471
 31
0.0
 12
1749.223986613138
 22
2195.996877043061
 32
0.0
 70
    32
 71
     5
 42
-1.0
 73
     0
 74
     0
 75
     0
  3
MATSU
100
AcDbAlignedDimension
 13
1286.154922205946
 23
2758.866540898595
 33
0.0
 14
2896.154922205947
 24
2064.094503493181
 34
0.0
100
AcDbRotatedDimension
1001
ACAD
1000
DSTYLE
1002
{
1070
    40
1040
25.0
1002
}
  0
LINE
  5
7D08
330
19
100
AcDbEntity
  8
1
100
AcDbLine
 10
1346.154922205946
 20
4482.411845573695
 30
0.0
 11
1346.154922205946
 21
4325.411845573694
 31
0.0
  0
DIMENSION
  5
7D0A
330
19
100
AcDbEntity
  8
3
100
AcDbDimension
280
     0
  2
*D14
 10
875.0237916227961
 20
3218.094503493182
 30
0.0
 11
825.0237916227955
 21
2991.094503493182
 31
0.0
 70
    32
 71
     5
 42
-1.0
 73
     0
 74
     0
 75
     0
  3
MATSU
100
AcDbAlignedDimension
 13
1239.261949102951
 23
2764.094503493181
 33
0.0
 14
1793.154922205946
 24
3218.094503493181
 34
0.0
 50
90.0
100
AcDbRotatedDimension
1001
ACAD
1000
DSTYLE
1002
{
1070
   287
1070
     4
1070
    40
1040
25.0
1070
    75
1070
     1
1070
   279
1070
     1
1070
   289
1070
     3
1002
}
  0
LINE
  5
7D0C
330
19
100
AcDbEntity
  8
1
100
AcDbLine
 10
3759.791061244603
 20
2086.094503493181
 30
0.0
 11
4437.895051520366
 21
2086.094503493181
 31
0.0
  0
LINE
  5
7D10
330
19
100
AcDbEntity
  8
1
100
AcDbLine
 10
3794.895051520364
 20
2138.59450349318
 30
0.0
 11
3794.895051520365
 21
2423.59450349318
 31
0.0
  0
LINE
  5
7D11
330
19
100
AcDbEntity
  8
1
100
AcDbLine
 10
3759.791061244603
 20
2138.594503493181
 30
0.0
 11
3759.791061244603
 21
2064.094503493181
 31
0.0
  0
LINE
  5
7D12
330
19
100
AcDbEntity
  8
1
100
AcDbLine
 10
3458.897298234614
 20
2138.594503493181
 30
0.0
 11
3458.897298234614
 21
2064.094503493181
 31
0.0
  0
LINE
  5
7D13
330
19
100
AcDbEntity
  8
1
100
AcDbLine
 10
3458.897298234614
 20
2104.094503493181
 30
0.0
 11
3759.791061244603
 21
2104.094503493181
 31
0.0
  0
LINE
  5
7F59
330
19
100
AcDbEntity
  8
4
100
AcDbLine
 10
4625.0
 20
1250.0
 30
0.0
 11
4625.0
 21
750.0
 31
0.0
  0
LINE
  5
7F5A
330
19
100
AcDbEntity
  8
4
100
AcDbLine
 10
2875.0
 20
1250.0
 30
0.0
 11
2875.0
 21
750.0
 31
0.0
  0
LINE
  5
7F5B
330
19
100
AcDbEntity
  8
4
100
AcDbLine
 10
1625.0
 20
1250.0
 30
0.0
 11
1625.0
 21
750.0
 31
0.0
  0
LINE
  5
7F5E
330
19
100
AcDbEntity
  8
4
100
AcDbLine
 10
1625.0
 20
750.0
 30
0.0
 11
4625.0
 21
750.0
 31
0.0
  0
LINE
  5
7F5F
330
19
100
AcDbEntity
  8
4
100
AcDbLine
 10
1625.0
 20
1000.0
 30
0.0
 11
4625.0
 21
1000.0
 31
0.0
  0
TEXT
  5
7F60
330
19
100
AcDbEntity
  8
4
100
AcDbText
 10
1721.255202117254
 20
1078.857564666532
 30
0.0
 40
125.0
  1
機器名称
100
AcDbText
  0
TEXT
  5
7F61
330
19
100
AcDbEntity
  8
4
100
AcDbText
 10
1715.645265061994
 20
804.1128918300273
 30
0.0
 40
125.0
  1
機器型番
100
AcDbText
  0
TEXT
  5
7F62
330
19
100
AcDbEntity
  8
4
100
AcDbText
 10
2948.086555262003
 20
1057.55409020952
 30
0.0
 40
100.0
  1
ミツヤリミットロードファン
100
AcDbText
  0
TEXT
  5
7F63
330
19
100
AcDbEntity
  8
4
100
AcDbText
 10
2966.636238963701
 20
792.8989606998584
 30
0.0
 40
125.0
  1
LL#4-5
100
AcDbText
  0
TEXT
  5
7F65
330
19
100
AcDbEntity
  8
4
100
AcDbText
 10
2024.344740548138
 20
5958.572103331289
 30
0.0
 40
135.0
  1
床置ベット
100
AcDbText
  0
TEXT
  5
7F66
330
19
100
AcDbEntity
  8
4
100
AcDbText
 10
790.4189833236159
 20
6334.702440498245
 30
0.0
 40
180.0
  1
遠心式両吸込両持リミットロードファン
100
AcDbText
  0
LINE
  5
7F67
330
19
100
AcDbEntity
  8
4
100
AcDbLine
 10
625.0
 20
6173.521885662012
 30
0.0
 11
4625.0
 21
6173.521885662012
 31
0.0
  0
LINE
  5
7F68
330
19
100
AcDbEntity
  8
4
100
AcDbLine
 10
625.0
 20
6673.521885662012
 30
0.0
 11
4625.0
 21
6673.521885662012
 31
0.0
  0
LINE
  5
7F69
330
19
100
AcDbEntity
  8
4
100
AcDbLine
 10
1625.0
 20
1250.0
 30
0.0
 11
4625.0
 21
1250.0
 31
0.0
  0
LINE
  5
7F6A
330
19
100
AcDbEntity
  8
4
100
AcDbLine
 10
625.0
 20
6673.521885662012
 30
0.0
 11
625.0
 21
6173.521885662012
 31
0.0
  0
TEXT
  5
7F6B
330
19
100
AcDbEntity
  8
4
100
AcDbText
 10
934.6976599413828
 20
5955.798693865858
 30
0.0
 40
135.0
  1
右回転左横向
100
AcDbText
  0
TEXT
  5
7F6C
330
19
100
AcDbEntity
  8
4
100
AcDbText
 10
3672.423898123225
 20
6765.152703738272
 30
0.0
 40
140.0
  1
No.
100
AcDbText
  0
TEXT
  5
7F6D
330
19
100
AcDbEntity
  8
4
100
AcDbText
 10
3278.240156500033
 20
5958.572103331289
 30
0.0
 40
135.0
  1
縮尺：1/25
100
AcDbText
  0
LINE
  5
7F6E
330
19
100
AcDbEntity
  8
4
100
AcDbLine
 10
4625.0
 20
6673.521885662012
 30
0.0
 11
4625.0
 21
6173.521885662012
 31
0.0
  0
LINE
  5
7F6F
330
19
100
AcDbEntity
  8
4
100
AcDbLine
 10
5250.0
 20
7375.0
 30
0.0
 11
5250.0
 21
7375.0
 31
0.0
  0
LINE
  5
7F70
330
19
100
AcDbEntity
  8
4
100
AcDbLine
 10
3601.543555899662
 20
6703.158957813503
 30
0.0
 11
3601.543555899662
 21
6966.630653874381
 31
0.0
  0
LINE
  5
7F71
330
19
100
AcDbEntity
  8
4
100
AcDbLine
 10
3601.543555899662
 20
6966.630653874381
 30
0.0
 11
4625.0
 21
6966.630653874381
 31
0.0
  0
LINE
  5
7F72
330
19
100
AcDbEntity
  8
4
100
AcDbLine
 10
4625.0
 20
6966.630653874381
 30
0.0
 11
4625.0
 21
6703.158957813503
 31
0.0
  0
LINE
  5
7F73
330
19
100
AcDbEntity
  8
4
100
AcDbLine
 10
4625.0
 20
6703.158957813503
 30
0.0
 11
3601.543555899662
 21
6703.158957813503
 31
0.0
  0
LINE
  5
7F74
330
19
100
AcDbEntity
  8
4
100
AcDbLine
 10
0.0
 20
0.0
 30
0.0
 11
0.0
 21
7375.0
 31
0.0
  0
LINE
  5
7F75
330
19
100
AcDbEntity
  8
4
100
AcDbLine
 10
0.0
 20
7375.0
 30
0.0
 11
5250.0
 21
7375.0
 31
0.0
  0
LINE
  5
7F76
330
19
100
AcDbEntity
  8
4
100
AcDbLine
 10
5250.0
 20
7375.0
 30
0.0
 11
5250.0
 21
0.0
 31
0.0
  0
LINE
  5
7F77
330
19
100
AcDbEntity
  8
4
100
AcDbLine
 10
5250.0
 20
0.0
 30
0.0
 11
0.0
 21
0.0
 31
0.0
  0
DIMENSION
  5
7F84
330
19
100
AcDbEntity
  8
3
100
AcDbDimension
280
     0
  2
*D15
 10
1133.947829769408
 20
2086.094503493181
 30
0.0
 11
1133.947829769407
 21
2418.863869222882
 31
0.0
 70
   160
 71
     5
 42
-1.0
 73
     0
 74
     0
 75
     0
  3
IGA
100
AcDbAlignedDimension
 13
1286.154922205946
 23
2736.094503493181
 33
0.0
 14
1286.154922205946
 24
2086.094503493181
 34
0.0
 50
90.0
100
AcDbRotatedDimension
1001
ACAD
1000
DSTYLE
1002
{
1070
   287
1070
     3
1070
    40
1040
25.0
1070
   143
1040
0.039
1070
   172
1070
     1
1070
   271
1070
     0
1070
   279
1070
     0
1070
   288
1070
     1
1002
}
  0
DIMENSION
  5
7F9C
330
19
100
AcDbEntity
  8
3
100
AcDbDimension
280
     0
  2
*D16
 10
1022.793328158143
 20
2086.094503493182
 30
0.0
 11
1022.793328158142
 21
2416.488960797739
 31
0.0
 70
   160
 71
     5
 42
-1.0
 73
     0
 74
     0
 75
     0
  3
IGA
100
AcDbAlignedDimension
 13
1239.261949102951
 23
2764.094503493181
 33
0.0
 14
1286.154922205946
 24
2086.094503493181
 34
0.0
 50
90.0
100
AcDbRotatedDimension
1001
ACAD
1000
DSTYLE
1002
{
1070
   287
1070
     3
1070
    40
1040
25.0
1070
   143
1040
0.039
1070
   172
1070
     1
1070
   271
1070
     0
1070
   279
1070
     0
1070
   288
1070
     1
1002
}
  0
DIMENSION
  5
8171
330
19
100
AcDbEntity
  8
3
100
AcDbDimension
280
     0
  2
*D19
 10
1746.154922205947
 20
1813.995190810168
 30
0.0
 11
1546.154922205947
 21
1876.495190810168
 31
0.0
 70
    32
 71
     5
 42
-1.0
 73
     0
 74
     0
 75
     0
  3
IGA
100
AcDbAlignedDimension
 13
1346.154922205946
 23
1964.094503493181
 33
0.0
 14
1746.154922205947
 24
1964.09450349318
 34
0.0
100
AcDbRotatedDimension
1001
ACAD
1000
DSTYLE
1002
{
1070
   172
1070
     1
1070
    40
1040
25.0
1070
   271
1070
     0
1070
   143
1040
0.039
1002
}
  0
DIMENSION
  5
817E
330
19
100
AcDbEntity
  8
3
100
AcDbDimension
280
     0
  2
*D20
 10
2896.154922205947
 20
1813.995190810168
 30
0.0
 11
2321.154922205947
 21
1876.495190810168
 31
0.0
 70
    32
 71
     5
 42
-1.0
 73
     0
 74
     0
 75
     0
  3
IGA
100
AcDbAlignedDimension
 13
1746.154922205947
 23
1964.09450349318
 33
0.0
 14
2896.154922205947
 24
1964.094503493181
 34
0.0
100
AcDbRotatedDimension
1001
ACAD
1000
DSTYLE
1002
{
1070
   172
1070
     1
1070
    40
1040
25.0
1070
   271
1070
     0
1070
   143
1040
0.039
1002
}
  0
DIMENSION
  5
818B
330
19
100
AcDbEntity
  8
3
100
AcDbDimension
280
     0
  2
*D21
 10
4012.895051520364
 20
1813.995190810168
 30
0.0
 11
3721.895051520365
 21
1876.495190810168
 31
0.0
 70
    32
 71
     5
 42
-1.0
 73
     0
 74
     0
 75
     0
  3
IGA
100
AcDbAlignedDimension
 13
3430.895051520366
 23
1964.094503493181
 33
0.0
 14
4012.895051520364
 24
1964.09450349318
 34
0.0
100
AcDbRotatedDimension
1001
ACAD
1000
DSTYLE
1002
{
1070
   172
1070
     1
1070
    40
1040
25.0
1070
   271
1070
     0
1070
   143
1040
0.039
1002
}
  0
DIMENSION
  5
8198
330
19
100
AcDbEntity
  8
3
100
AcDbDimension
280
     0
  2
*D22
 10
4490.895051520366
 20
1813.995190810168
 30
0.0
 11
4251.895051520365
 21
1876.495190810168
 31
0.0
 70
    32
 71
     5
 42
-1.0
 73
     0
 74
     0
 75
     0
  3
IGA
100
AcDbAlignedDimension
 13
4012.895051520364
 23
1964.09450349318
 33
0.0
 14
4490.895051520366
 24
1964.094503493181
 34
0.0
100
AcDbRotatedDimension
1001
ACAD
1000
DSTYLE
1002
{
1070
   172
1070
     1
1070
    40
1040
25.0
1070
   271
1070
     0
1070
   143
1040
0.039
1002
}
  0
DIMENSION
  5
81A5
330
19
100
AcDbEntity
  8
3
100
AcDbDimension
280
     0
  2
*D23
 10
735.8602753002415
 20
1964.094503493181
 30
0.0
 11
673.3602753002415
 21
2591.094503493181
 31
0.0
 70
    32
 71
     5
 42
-1.0
 73
     0
 74
     0
 75
     0
  3
IGA
100
AcDbAlignedDimension
 13
1768.154922205946
 23
3218.094503493181
 33
0.0
 14
1346.154922205946
 24
1964.094503493181
 34
0.0
 50
90.0
100
AcDbRotatedDimension
1001
ACAD
1000
DSTYLE
1002
{
1070
   172
1070
     1
1070
    40
1040
25.0
1070
   271
1070
     0
1070
   143
1040
0.039
1002
}
  0
ENDSEC
  0
SECTION
  2
OBJECTS
  0
DICTIONARY
  5
C
330
0
100
AcDbDictionary
281
     1
  3
ACAD_CIP_PREVIOUS_PRODUCT_INFO
350
8258
  3
ACAD_COLOR
350
823B
  3
ACAD_DETAILVIEWSTYLE
350
8254
  3
ACAD_GROUP
350
D
  3
ACAD_LAYOUT
350
81AE
  3
ACAD_MATERIAL
350
8209
  3
ACAD_MLEADERSTYLE
350
8250
  3
ACAD_MLINESTYLE
350
E
  3
ACAD_PLOTSETTINGS
350
81AF
  3
ACAD_PLOTSTYLENAME
350
81AC
  3
ACAD_SCALELIST
350
823E
  3
ACAD_SECTIONVIEWSTYLE
350
8252
  3
ACAD_TABLESTYLE
350
823C
  3
ACAD_VISUALSTYLE
350
8222
  3
ACDB_RECOMPOSE_DATA
350
82BC
  3
AcDbVariableDictionary
350
82AB
  3
AcDsDecomposeData
350
82C2
  0
DICTIONARY
  5
829F
330
2
100
AcDbDictionary
280
     1
281
     1
  3
ACAD_LAYERSTATES
360
82A0
  0
DICTIONARY
  5
8292
330
F
100
AcDbDictionary
280
     1
281
     1
  3
ADSK_XREC_LAYER_RECONCILED
360
8293
  0
DICTIONARY
  5
8294
330
31
100
AcDbDictionary
280
     1
281
     1
  3
ADSK_XREC_LAYER_RECONCILED
360
8295
  0
DICTIONARY
  5
8296
330
76D0
100
AcDbDictionary
280
     1
281
     1
  3
ADSK_XREC_LAYER_RECONCILED
360
8297
  0
DICTIONARY
  5
8298
330
76D1
100
AcDbDictionary
280
     1
281
     1
  3
ADSK_XREC_LAYER_RECONCILED
360
8299
  0
DICTIONARY
  5
829A
330
76D2
100
AcDbDictionary
280
     1
281
     1
  3
ADSK_XREC_LAYER_RECONCILED
360
829B
  0
DICTIONARY
  5
81DB
330
19
100
AcDbDictionary
280
     1
281
     1
  3
ACAD_LAYOUTSELFREF
360
81DC
  0
DICTIONARY
  5
81D9
330
16
100
AcDbDictionary
280
     1
281
     1
  3
ACAD_LAYOUTSELFREF
360
81DA
  0
XRECORD
  5
8258
102
{ACAD_REACTORS
330
C
102
}
330
C
100
AcDbXrecord
280
     1
300
ACDLT
300
2023
300

  0
DICTIONARY
  5
823B
102
{ACAD_REACTORS
330
C
102
}
330
C
100
AcDbDictionary
281
     1
  0
DICTIONARY
  5
8254
102
{ACAD_REACTORS
330
C
102
}
330
C
100
AcDbDictionary
281
     1
  3
Metric50
350
8255
  0
DICTIONARY
  5
D
102
{ACAD_REACTORS
330
C
102
}
330
C
100
AcDbDictionary
281
     1
  0
DICTIONARY
  5
81AE
102
{ACAD_REACTORS
330
C
102
}
330
C
100
AcDbDictionary
281
     1
  3
Model
350
81B0
  3
ﾚｲｱｳﾄ1
350
81B1
  0
DICTIONARY
  5
8209
102
{ACAD_REACTORS
330
C
102
}
330
C
100
AcDbDictionary
281
     1
  3
ByBlock
350
8212
  3
ByLayer
350
820A
  3
Global
350
821A
  0
DICTIONARY
  5
8250
102
{ACAD_REACTORS
330
C
102
}
330
C
100
AcDbDictionary
281
     1
  3
Standard
350
8251
  0
DICTIONARY
  5
E
102
{ACAD_REACTORS
330
C
102
}
330
C
100
AcDbDictionary
281
     1
  3
STANDARD
350
1C
  0
DICTIONARY
  5
81AF
102
{ACAD_REACTORS
330
C
102
}
330
C
100
AcDbDictionary
281
     1
  0
ACDBDICTIONARYWDFLT
  5
81AC
102
{ACAD_REACTORS
330
C
102
}
330
C
100
AcDbDictionary
281
     1
  3
Normal
350
81AD
100
AcDbDictionaryWithDefault
340
81AD
  0
DICTIONARY
  5
823E
102
{ACAD_REACTORS
330
C
102
}
330
C
100
AcDbDictionary
281
     1
  3
A0
350
823F
  3
A1
350
8240
  3
A2
350
8241
  3
A3
350
8242
  3
A4
350
8243
  3
A5
350
8244
  3
A6
350
8245
  3
A7
350
8246
  3
A8
350
8247
  3
A9
350
8248
  3
B0
350
8249
  3
B1
350
824A
  3
B2
350
824B
  3
B3
350
824C
  3
B4
350
824D
  3
B5
350
824E
  3
B6
350
824F
  0
DICTIONARY
  5
8252
102
{ACAD_REACTORS
330
C
102
}
330
C
100
AcDbDictionary
281
     1
  3
Metric50
350
8253
  0
DICTIONARY
  5
823C
102
{ACAD_REACTORS
330
C
102
}
330
C
100
AcDbDictionary
281
     1
  3
Standard
350
823D
  0
DICTIONARY
  5
8222
102
{ACAD_REACTORS
330
C
102
}
330
C
100
AcDbDictionary
281
     1
  3
2dWireframe
350
8228
  3
Basic
350
8227
  3
Brighten
350
822E
  3
ColorChange
350
8232
  3
Conceptual
350
822B
  3
Dim
350
822D
  3
EdgeColorOff
350
823A
  3
Facepattern
350
8231
  3
Flat
350
8223
  3
FlatWithEdges
350
8224
  3
Gouraud
350
8225
  3
GouraudWithEdges
350
8226
  3
Hidden
350
822A
  3
JitterOff
350
8238
  3
Linepattern
350
8230
  3
OverhangOff
350
8239
  3
Realistic
350
822C
  3
Shaded
350
8237
  3
Shaded with edges
350
8236
  3
Shades of Gray
350
8233
  3
Sketchy
350
8234
  3
Thicken
350
822F
  3
Wireframe
350
8229
  3
X-Ray
350
8235
  0
XRECORD
  5
82BC
102
{ACAD_REACTORS
330
C
102
}
330
C
100
AcDbXrecord
280
     1
 90
        1
330
7D0A
330
823D
  0
DICTIONARY
  5
82AB
102
{ACAD_REACTORS
330
C
102
}
330
C
100
AcDbDictionary
281
     1
  3
CANNOSCALE
350
82B1
  3
CMLEADERSTYLE
350
82AD
  3
CTABLESTYLE
350
82AC
  3
CVIEWDETAILSTYLE
350
82AE
  3
CVIEWSECTIONSTYLE
350
82AF
  3
LAYEREVAL
350
82B3
  3
LAYERNOTIFY
350
82B4
  3
LIGHTINGUNITS
350
82B2
  3
MARKUPASSISTMODE
350
82B9
  3
MSLTSCALE
350
82B0
  0
DICTIONARY
  5
82C2
102
{ACAD_REACTORS
330
C
102
}
330
C
100
AcDbDictionary
281
     1
  3
AcDsRecords
350
82C4
  3
AcDsSchemas
350
82C3
1001
ACAD
1070
     2
  0
DICTIONARY
  5
82A0
102
{ACAD_REACTORS
330
829F
102
}
330
829F
100
AcDbDictionary
281
     1
  0
XRECORD
  5
8293
102
{ACAD_REACTORS
330
8292
102
}
330
8292
100
AcDbXrecord
280
     1
290
     1
  0
XRECORD
  5
8295
102
{ACAD_REACTORS
330
8294
102
}
330
8294
100
AcDbXrecord
280
     1
290
     1
  0
XRECORD
  5
8297
102
{ACAD_REACTORS
330
8296
102
}
330
8296
100
AcDbXrecord
280
     1
290
     1
  0
XRECORD
  5
8299
102
{ACAD_REACTORS
330
8298
102
}
330
8298
100
AcDbXrecord
280
     1
290
     1
  0
XRECORD
  5
829B
102
{ACAD_REACTORS
330
829A
102
}
330
829A
100
AcDbXrecord
280
     1
290
     1
  0
XRECORD
  5
81DC
102
{ACAD_REACTORS
330
81DB
102
}
330
81DB
100
AcDbXrecord
280
     1
340
19
  0
XRECORD
  5
81DA
102
{ACAD_REACTORS
330
81D9
102
}
330
81D9
100
AcDbXrecord
280
     1
340
16
  0
ACDBDETAILVIEWSTYLE
  5
8255
102
{ACAD_XDICTIONARY
360
82C7
102
}
102
{ACAD_REACTORS
330
8254
102
}
330
8254
100
AcDbModelDocViewStyle
 70
     0
  3
Metric50
290
     0
100
AcDbDetailViewStyle
 70
     0
 71
     0
 90
        3
 71
     1
340
10
 62
   256
 40
5.0
340
0
 62
   256
 40
5.0
300

 40
0.0
280
     1
 71
     2
340
15
 90
       25
 62
   256
 71
     3
340
10
 62
   256
 40
5.0
 90
        0
 40
15.0
 90
        1
300
%<\AcVar ViewDetailId>% (%<\AcVar ViewScale \f "%sn">%)
 71
     4
340
15
 90
       25
 62
   256
340
15
 90
       25
 62
   256
280
     0
  0
LAYOUT
  5
81B0
102
{ACAD_REACTORS
330
81AE
102
}
330
81AE
100
AcDbPlotSettings
  1

  2
EPSON LP-9300
  4

  6

 40
0.0
 41
0.0
 42
0.0
 43
0.0
 44
0.0
 45
0.0
 46
0.0
 47
0.0
 48
0.0
 49
0.0
140
0.0
141
0.0
142
1.0
143
1.0
 70
  1712
 72
     0
 73
     0
 74
     0
  7

 75
     0
147
1.0
 76
     0
 77
     2
 78
   300
148
0.0
149
0.0
100
AcDbLayout
  1
Model
 70
     1
 71
     0
 10
0.0
 20
0.0
 11
12.0
 21
9.0
 12
0.0
 22
0.0
 32
0.0
 14
0.0
 24
0.0
 34
0.0
 15
0.0
 25
0.0
 35
0.0
146
0.0
 13
0.0
 23
0.0
 33
0.0
 16
1.0
 26
0.0
 36
0.0
 17
0.0
 27
1.0
 37
0.0
 76
     0
330
19
331
8207
  0
LAYOUT
  5
81B1
102
{ACAD_REACTORS
330
81AE
102
}
330
81AE
100
AcDbPlotSettings
  1

  2
EPSON LP-9300
  4

  6

 40
0.0
 41
0.0
 42
0.0
 43
0.0
 44
0.0
 45
0.0
 46
0.0
 47
0.0
 48
0.0
 49
0.0
140
0.0
141
0.0
142
1.0
143
1.0
 70
   688
 72
     0
 73
     0
 74
     5
  7

 75
    16
147
1.0
 76
     0
 77
     2
 78
   300
148
0.0
149
0.0
100
AcDbLayout
  1
ﾚｲｱｳﾄ1
 70
     1
 71
     1
 10
0.0
 20
0.0
 11
12.0
 21
9.0
 12
0.0
 22
0.0
 32
0.0
 14
1.000000000000000E+20
 24
1.000000000000000E+20
 34
1.000000000000000E+20
 15
-1.000000000000000E+20
 25
-1.000000000000000E+20
 35
-1.000000000000000E+20
146
0.0
 13
0.0
 23
0.0
 33
0.0
 16
1.0
 26
0.0
 36
0.0
 17
0.0
 27
1.0
 37
0.0
 76
     0
330
16
  0
MATERIAL
  5
8212
102
{ACAD_XDICTIONARY
360
8213
102
}
102
{ACAD_REACTORS
330
8209
102
}
330
8209
100
AcDbMaterial
  1
ByBlock
 72
     0
 43
0.0208333333333333
 43
0.0
 43
0.0
 43
0.0
 43
0.0
 43
0.0208333333333333
 43
0.0
 43
0.0
 43
0.0
 43
0.0
 43
1.0
 43
0.0
 43
0.0
 43
0.0
 43
0.0
 43
1.0
 77
     0
 47
0.0208333333333333
 47
0.0
 47
0.0
 47
0.0
 47
0.0
 47
0.0208333333333333
 47
0.0
 47
0.0
 47
0.0
 47
0.0
 47
1.0
 47
0.0
 47
0.0
 47
0.0
 47
0.0
 47
1.0
171
     0
 49
0.0208333333333333
 49
0.0
 49
0.0
 49
0.0
 49
0.0
 49
0.0208333333333333
 49
0.0
 49
0.0
 49
0.0
 49
0.0
 49
1.0
 49
0.0
 49
0.0
 49
0.0
 49
0.0
 49
1.0
175
     0
142
0.0208333333333333
142
0.0
142
0.0
142
0.0
142
0.0
142
0.0208333333333333
142
0.0
142
0.0
142
0.0
142
0.0
142
1.0
142
0.0
142
0.0
142
0.0
142
0.0
142
1.0
179
     0
144
0.0208333333333333
144
0.0
144
0.0
144
0.0
144
0.0
144
0.0208333333333333
144
0.0
144
0.0
144
0.0
144
0.0
144
1.0
144
0.0
144
0.0
144
0.0
144
0.0
144
1.0
147
0.0208333333333333
147
0.0
147
0.0
147
0.0
147
0.0
147
0.0208333333333333
147
0.0
147
0.0
147
0.0
147
0.0
147
1.0
147
0.0
147
0.0
147
0.0
147
0.0
147
1.0
  0
MATERIAL
  5
820A
102
{ACAD_XDICTIONARY
360
820B
102
}
102
{ACAD_REACTORS
330
8209
102
}
330
8209
100
AcDbMaterial
  1
ByLayer
 72
     0
 43
0.0208333333333333
 43
0.0
 43
0.0
 43
0.0
 43
0.0
 43
0.0208333333333333
 43
0.0
 43
0.0
 43
0.0
 43
0.0
 43
1.0
 43
0.0
 43
0.0
 43
0.0
 43
0.0
 43
1.0
 77
     0
 47
0.0208333333333333
 47
0.0
 47
0.0
 47
0.0
 47
0.0
 47
0.0208333333333333
 47
0.0
 47
0.0
 47
0.0
 47
0.0
 47
1.0
 47
0.0
 47
0.0
 47
0.0
 47
0.0
 47
1.0
171
     0
 49
0.0208333333333333
 49
0.0
 49
0.0
 49
0.0
 49
0.0
 49
0.0208333333333333
 49
0.0
 49
0.0
 49
0.0
 49
0.0
 49
1.0
 49
0.0
 49
0.0
 49
0.0
 49
0.0
 49
1.0
175
     0
142
0.0208333333333333
142
0.0
142
0.0
142
0.0
142
0.0
142
0.0208333333333333
142
0.0
142
0.0
142
0.0
142
0.0
142
1.0
142
0.0
142
0.0
142
0.0
142
0.0
142
1.0
179
     0
144
0.0208333333333333
144
0.0
144
0.0
144
0.0
144
0.0
144
0.0208333333333333
144
0.0
144
0.0
144
0.0
144
0.0
144
1.0
144
0.0
144
0.0
144
0.0
144
0.0
144
1.0
147
0.0208333333333333
147
0.0
147
0.0
147
0.0
147
0.0
147
0.0208333333333333
147
0.0
147
0.0
147
0.0
147
0.0
147
1.0
147
0.0
147
0.0
147
0.0
147
0.0
147
1.0
  0
MATERIAL
  5
821A
102
{ACAD_XDICTIONARY
360
821B
102
}
102
{ACAD_REACTORS
330
8209
102
}
330
8209
100
AcDbMaterial
  1
Global
 72
     0
 43
0.0208333333333333
 43
0.0
 43
0.0
 43
0.0
 43
0.0
 43
0.0208333333333333
 43
0.0
 43
0.0
 43
0.0
 43
0.0
 43
1.0
 43
0.0
 43
0.0
 43
0.0
 43
0.0
 43
1.0
 77
     0
 47
0.0208333333333333
 47
0.0
 47
0.0
 47
0.0
 47
0.0
 47
0.0208333333333333
 47
0.0
 47
0.0
 47
0.0
 47
0.0
 47
1.0
 47
0.0
 47
0.0
 47
0.0
 47
0.0
 47
1.0
171
     0
 49
0.0208333333333333
 49
0.0
 49
0.0
 49
0.0
 49
0.0
 49
0.0208333333333333
 49
0.0
 49
0.0
 49
0.0
 49
0.0
 49
1.0
 49
0.0
 49
0.0
 49
0.0
 49
0.0
 49
1.0
175
     0
142
0.0208333333333333
142
0.0
142
0.0
142
0.0
142
0.0
142
0.0208333333333333
142
0.0
142
0.0
142
0.0
142
0.0
142
1.0
142
0.0
142
0.0
142
0.0
142
0.0
142
1.0
179
     0
144
0.0208333333333333
144
0.0
144
0.0
144
0.0
144
0.0
144
0.0208333333333333
144
0.0
144
0.0
144
0.0
144
0.0
144
1.0
144
0.0
144
0.0
144
0.0
144
0.0
144
1.0
147
0.0208333333333333
147
0.0
147
0.0
147
0.0
147
0.0
147
0.0208333333333333
147
0.0
147
0.0
147
0.0
147
0.0
147
1.0
147
0.0
147
0.0
147
0.0
147
0.0
147
1.0
  0
MLEADERSTYLE
  5
8251
102
{ACAD_REACTORS
330
8250
102
}
330
8250
100
AcDbMLeaderStyle
179
     2
170
     2
171
     1
172
     0
 90
        2
 40
0.0
 41
0.0
173
     1
 91
-1056964608
340
13
 92
       -2
290
     1
 42
2.0
291
     1
 43
0.36
  3
Standard
 44
4.0
300

342
10
174
     1
178
     6
175
     1
176
     0
 93
-1056964608
 45
4.0
292
     0
297
     0
 46
4.0
 94
-1056964608
 47
1.0
 49
1.0
140
1.0
293
     1
141
0.0
294
     1
177
     0
142
1.0
295
     0
296
     0
143
0.125
271
     0
272
     9
273
     9
298
     1
  0
MLINESTYLE
  5
1C
102
{ACAD_REACTORS
330
E
102
}
330
E
100
AcDbMlineStyle
  2
STANDARD
 70
     0
  3

 62
     0
 51
90.0
 52
90.0
 71
     2
 49
0.5
 62
   256
  6
BYLAYER
 49
-0.5
 62
   256
  6
BYLAYER
  0
ACDBPLACEHOLDER
  5
81AD
102
{ACAD_REACTORS
330
81AC
102
}
330
81AC
  0
SCALE
  5
823F
102
{ACAD_REACTORS
330
823E
102
}
330
823E
100
AcDbScale
 70
     0
300
1:1
140
1.0
141
1.0
290
     1
  0
SCALE
  5
8240
102
{ACAD_REACTORS
330
823E
102
}
330
823E
100
AcDbScale
 70
     0
300
1:2
140
1.0
141
2.0
290
     0
  0
SCALE
  5
8241
102
{ACAD_REACTORS
330
823E
102
}
330
823E
100
AcDbScale
 70
     0
300
1:4
140
1.0
141
4.0
290
     0
  0
SCALE
  5
8242
102
{ACAD_REACTORS
330
823E
102
}
330
823E
100
AcDbScale
 70
     0
300
1:5
140
1.0
141
5.0
290
     0
  0
SCALE
  5
8243
102
{ACAD_REACTORS
330
823E
102
}
330
823E
100
AcDbScale
 70
     0
300
1:8
140
1.0
141
8.0
290
     0
  0
SCALE
  5
8244
102
{ACAD_REACTORS
330
823E
102
}
330
823E
100
AcDbScale
 70
     0
300
1:10
140
1.0
141
10.0
290
     0
  0
SCALE
  5
8245
102
{ACAD_REACTORS
330
823E
102
}
330
823E
100
AcDbScale
 70
     0
300
1:16
140
1.0
141
16.0
290
     0
  0
SCALE
  5
8246
102
{ACAD_REACTORS
330
823E
102
}
330
823E
100
AcDbScale
 70
     0
300
1:20
140
1.0
141
20.0
290
     0
  0
SCALE
  5
8247
102
{ACAD_REACTORS
330
823E
102
}
330
823E
100
AcDbScale
 70
     0
300
1:30
140
1.0
141
30.0
290
     0
  0
SCALE
  5
8248
102
{ACAD_REACTORS
330
823E
102
}
330
823E
100
AcDbScale
 70
     0
300
1:40
140
1.0
141
40.0
290
     0
  0
SCALE
  5
8249
102
{ACAD_REACTORS
330
823E
102
}
330
823E
100
AcDbScale
 70
     0
300
1:50
140
1.0
141
50.0
290
     0
  0
SCALE
  5
824A
102
{ACAD_REACTORS
330
823E
102
}
330
823E
100
AcDbScale
 70
     0
300
1:100
140
1.0
141
100.0
290
     0
  0
SCALE
  5
824B
102
{ACAD_REACTORS
330
823E
102
}
330
823E
100
AcDbScale
 70
     0
300
2:1
140
2.0
141
1.0
290
     0
  0
SCALE
  5
824C
102
{ACAD_REACTORS
330
823E
102
}
330
823E
100
AcDbScale
 70
     0
300
4:1
140
4.0
141
1.0
290
     0
  0
SCALE
  5
824D
102
{ACAD_REACTORS
330
823E
102
}
330
823E
100
AcDbScale
 70
     0
300
8:1
140
8.0
141
1.0
290
     0
  0
SCALE
  5
824E
102
{ACAD_REACTORS
330
823E
102
}
330
823E
100
AcDbScale
 70
     0
300
10:1
140
10.0
141
1.0
290
     0
  0
SCALE
  5
824F
102
{ACAD_REACTORS
330
823E
102
}
330
823E
100
AcDbScale
 70
     0
300
100:1
140
100.0
141
1.0
290
     0
  0
ACDBSECTIONVIEWSTYLE
  5
8253
102
{ACAD_XDICTIONARY
360
82C5
102
}
102
{ACAD_REACTORS
330
8252
102
}
330
8252
100
AcDbModelDocViewStyle
 70
     0
  3
Metric50
290
     0
100
AcDbSectionViewStyle
 70
     0
 71
     0
 90
      102
 71
     1
340
10
 62
   256
 40
5.0
340
0
340
0
 62
   256
 40
5.0
300
I, O, Q, S, X, Z
 40
10.0
 90
        0
 40
2.5
 90
        0
 71
     2
340
15
 90
       25
 62
   256
340
15
 90
       50
 62
   256
 40
5.0
 40
2.5
 40
5.0
 71
     3
340
10
 62
   256
 40
5.0
 90
        0
 40
15.0
 90
        1
300
%<\AcVar ViewSectionStartId>%-%<\AcVar ViewSectionEndId>% (%<\AcVar ViewScale \f "%sn">%)
 71
     4
 62
   256
 62
   257
300
ANSI31
 40
1.0
 90
        0
290
     0
290
     0
 90
        6
 40
0.0
 40
1.570796326794896
 40
0.2617993877991494
 40
1.308996938995747
 40
-0.2617993877991494
 40
1.832595714594046
  0
TABLESTYLE
  5
823D
102
{ACAD_XDICTIONARY
360
82BA
102
}
102
{ACAD_REACTORS
330
823C
102
}
330
823C
100
AcDbTableStyle
280
     0
  3
Standard
 70
     0
 71
     0
 40
1.5
 41
1.5
280
     0
281
     0
  7
STANDARD
140
4.5
170
     2
 62
     0
 63
     7
283
     0
 90
      512
 91
        0
  1

274
    -2
284
     1
 64
     0
275
    -2
285
     1
 65
     0
276
    -2
286
     1
 66
     0
277
    -2
287
     1
 67
     0
278
    -2
288
     1
 68
     0
279
    -2
289
     1
 69
     0
  7
STANDARD
140
6.0
170
     5
 62
     0
 63
     7
283
     0
 90
      512
 91
        0
  1

274
    -2
284
     1
 64
     0
275
    -2
285
     1
 65
     0
276
    -2
286
     1
 66
     0
277
    -2
287
     1
 67
     0
278
    -2
288
     1
 68
     0
279
    -2
289
     1
 69
     0
  7
STANDARD
140
4.5
170
     5
 62
     0
 63
     7
283
     0
 90
      512
 91
        0
  1

274
    -2
284
     1
 64
     0
275
    -2
285
     1
 65
     0
276
    -2
286
     1
 66
     0
277
    -2
287
     1
 67
     0
278
    -2
288
     1
 68
     0
279
    -2
289
     1
 69
     0
  0
VISUALSTYLE
  5
8228
102
{ACAD_REACTORS
330
8222
102
}
330
8222
100
AcDbVisualStyle
  2
2dWireframe
 70
     4
177
     3
291
     0
 70
    58
 90
        0
176
     1
 90
        2
176
     1
 90
        0
176
     1
 90
        0
176
     1
 40
0.6
176
     1
 40
30.0
176
     1
 62
     7
420
 16777215
176
     1
 90
        1
176
     1
 90
        4
176
     1
 62
     7
176
     1
 62
   257
176
     1
 90
        1
176
     1
 90
        1
176
     1
 40
1.0
176
     1
 90
        0
176
     1
 62
   257
176
     1
 40
1.0
176
     1
 90
        1
176
     1
 90
        6
176
     1
 90
        2
176
     1
 62
     7
176
     1
 90
        5
176
     1
 90
        0
176
     1
 90
        0
176
     1
290
     0
176
     1
 90
        1
176
     1
 40
0.0
176
     1
 90
        0
176
     1
290
     1
176
     1
290
     1
176
     1
290
     0
176
     1
290
     0
176
     1
290
     0
176
     1
290
     0
176
     1
290
     0
176
     1
290
     0
176
     1
290
     0
176
     1
 90
       50
176
     1
 40
0.0
176
     1
 40
1.0
176
     1
 90
        0
176
     1
 62
    18
420
        0
176
     1
 90
       50
176
     1
 90
        3
176
     1
 62
     5
420
      255
176
     1
290
     0
176
     1
 90
       50
176
     1
 90
       50
176
     1
 90
       50
176
     1
290
     0
176
     1
 90
       50
176
     1
 62
   256
176
     0
 40
1.0
176
     0
 90
        2
176
     1
  1
strokes_ogs.tif
176
     1
290
     0
176
     1
 40
1.0
176
     1
 40
1.0
176
     1
1001
ACAD
1000
AcDbSavedByObjectVersion
1070
     0
  0
VISUALSTYLE
  5
8227
102
{ACAD_REACTORS
330
8222
102
}
330
8222
100
AcDbVisualStyle
  2
Basic
 70
     7
177
     3
291
     1
 70
    58
 90
        1
176
     1
 90
        0
176
     1
 90
        1
176
     1
 90
        0
176
     1
 40
0.6
176
     1
 40
30.0
176
     1
 62
     7
420
 16777215
176
     1
 90
        0
176
     1
 90
        4
176
     1
 62
     7
176
     1
 62
   257
176
     1
 90
        1
176
     1
 90
        1
176
     1
 40
1.0
176
     1
 90
        8
176
     1
 62
     7
176
     1
 40
1.0
176
     1
 90
        1
176
     1
 90
        6
176
     1
 90
        2
176
     1
 62
     7
176
     1
 90
        5
176
     1
 90
        0
176
     1
 90
        0
176
     1
290
     0
176
     1
 90
        1
176
     1
 40
0.0
176
     1
 90
        0
176
     1
290
     0
176
     1
290
     1
176
     1
290
     1
176
     1
290
     0
176
     1
290
     0
176
     1
290
     0
176
     1
290
     0
176
     1
290
     0
176
     1
290
     0
176
     1
 90
       50
176
     1
 40
0.0
176
     1
 40
1.0
176
     1
 90
        0
176
     1
 62
    18
420
        0
176
     1
 90
       50
176
     1
 90
        3
176
     1
 62
     5
420
      255
176
     1
290
     0
176
     1
 90
       50
176
     1
 90
       50
176
     1
 90
       50
176
     1
290
     0
176
     1
 90
       50
176
     1
 62
   256
176
     0
 40
1.0
176
     0
 90
        2
176
     1
  1
strokes_ogs.tif
176
     1
290
     0
176
     1
 40
1.0
176
     1
 40
1.0
176
     1
1001
ACAD
1000
AcDbSavedByObjectVersion
1070
     0
  0
VISUALSTYLE
  5
822E
102
{ACAD_REACTORS
330
8222
102
}
330
8222
100
AcDbVisualStyle
  2
Brighten
 70
    12
177
     3
291
     1
 70
    58
 90
        2
176
     1
 90
        2
176
     1
 90
        0
176
     1
 90
        0
176
     1
 40
0.6
176
     1
 40
30.0
176
     1
 62
     7
420
 16777215
176
     1
 90
        1
176
     1
 90
        4
176
     1
 62
     7
176
     1
 62
   257
176
     1
 90
        1
176
     1
 90
        1
176
     1
 40
1.0
176
     1
 90
        8
176
     1
 62
     7
176
     1
 40
1.0
176
     1
 90
        1
176
     1
 90
        6
176
     1
 90
        2
176
     1
 62
     7
176
     1
 90
        5
176
     1
 90
        0
176
     1
 90
        0
176
     1
290
     0
176
     1
 90
        1
176
     1
 40
50.0
176
     1
 90
        0
176
     1
290
     0
176
     1
290
     1
176
     1
290
     1
176
     1
290
     0
176
     1
290
     0
176
     1
290
     0
176
     1
290
     0
176
     1
290
     0
176
     1
290
     0
176
     1
 90
       50
176
     1
 40
0.0
176
     1
 40
1.0
176
     1
 90
        0
176
     1
 62
    18
420
        0
176
     1
 90
       50
176
     1
 90
        3
176
     1
 62
     5
420
      255
176
     1
290
     0
176
     1
 90
       50
176
     1
 90
       50
176
     1
 90
       50
176
     1
290
     0
176
     1
 90
       50
176
     1
 62
   256
176
     0
 40
1.0
176
     0
 90
        2
176
     1
  1
strokes_ogs.tif
176
     1
290
     0
176
     1
 40
1.0
176
     1
 40
1.0
176
     1
1001
ACAD
1000
AcDbSavedByObjectVersion
1070
     0
  0
VISUALSTYLE
  5
8232
102
{ACAD_REACTORS
330
8222
102
}
330
8222
100
AcDbVisualStyle
  2
ColorChange
 70
    16
177
     3
291
     1
 70
    58
 90
        2
176
     1
 90
        2
176
     1
 90
        3
176
     1
 90
        0
176
     1
 40
0.6
176
     1
 40
30.0
176
     1
 62
     8
420
  8421504
176
     1
 90
        1
176
     1
 90
        4
176
     1
 62
     7
176
     1
 62
   257
176
     1
 90
        1
176
     1
 90
        1
176
     1
 40
1.0
176
     1
 90
        8
176
     1
 62
     8
420
  8421504
176
     1
 40
1.0
176
     1
 90
        1
176
     1
 90
        6
176
     1
 90
        2
176
     1
 62
     7
176
     1
 90
        5
176
     1
 90
        0
176
     1
 90
        0
176
     1
290
     0
176
     1
 90
        1
176
     1
 40
0.0
176
     1
 90
        0
176
     1
290
     0
176
     1
290
     1
176
     1
290
     1
176
     1
290
     0
176
     1
290
     0
176
     1
290
     0
176
     1
290
     0
176
     1
290
     0
176
     1
290
     0
176
     1
 90
       50
176
     1
 40
0.0
176
     1
 40
1.0
176
     1
 90
        0
176
     1
 62
    18
420
        0
176
     1
 90
       50
176
     1
 90
        3
176
     1
 62
     5
420
      255
176
     1
290
     0
176
     1
 90
       50
176
     1
 90
       50
176
     1
 90
       50
176
     1
290
     0
176
     1
 90
       50
176
     1
 62
   256
176
     0
 40
1.0
176
     0
 90
        2
176
     1
  1
strokes_ogs.tif
176
     1
290
     0
176
     1
 40
1.0
176
     1
 40
1.0
176
     1
1001
ACAD
1000
AcDbSavedByObjectVersion
1070
     0
  0
VISUALSTYLE
  5
822B
102
{ACAD_REACTORS
330
8222
102
}
330
8222
100
AcDbVisualStyle
  2
Conceptual
 70
     9
177
     3
291
     0
 70
    58
 90
        3
176
     1
 90
        2
176
     1
 90
        0
176
     1
 90
        0
176
     1
 40
0.6
176
     1
 40
30.0
176
     1
 62
     7
420
 16777215
176
     1
 90
        2
176
     1
 90
        2
176
     1
 62
     7
176
     1
 62
   257
176
     1
 90
        1
176
     1
 90
        1
176
     1
 40
179.0
176
     1
 90
        8
176
     1
 62
     7
176
     1
 40
1.0
176
     1
 90
        1
176
     1
 90
        6
176
     1
 90
        2
176
     1
 62
     7
176
     1
 90
        3
176
     1
 90
        0
176
     1
 90
        0
176
     1
290
     0
176
     1
 90
        1
176
     1
 40
0.0
176
     1
 90
        0
176
     1
290
     0
176
     1
290
     1
176
     1
290
     1
176
     1
290
     0
176
     1
290
     0
176
     1
290
     0
176
     1
290
     0
176
     1
290
     0
176
     1
290
     0
176
     1
 90
       50
176
     1
 40
0.0
176
     1
 40
1.0
176
     1
 90
        0
176
     1
 62
    18
420
        0
176
     1
 90
       50
176
     1
 90
        3
176
     1
 62
     5
420
      255
176
     1
290
     0
176
     1
 90
       50
176
     1
 90
       50
176
     1
 90
       50
176
     1
290
     0
176
     1
 90
       50
176
     1
 62
   256
176
     0
 40
1.0
176
     0
 90
        2
176
     1
  1
strokes_ogs.tif
176
     1
290
     0
176
     1
 40
1.0
176
     1
 40
1.0
176
     1
1001
ACAD
1000
AcDbSavedByObjectVersion
1070
     0
  0
VISUALSTYLE
  5
822D
102
{ACAD_REACTORS
330
8222
102
}
330
8222
100
AcDbVisualStyle
  2
Dim
 70
    11
177
     3
291
     1
 70
    58
 90
        2
176
     1
 90
        2
176
     1
 90
        0
176
     1
 90
        0
176
     1
 40
0.6
176
     1
 40
30.0
176
     1
 62
     7
420
 16777215
176
     1
 90
        1
176
     1
 90
        4
176
     1
 62
     7
176
     1
 62
   257
176
     1
 90
        1
176
     1
 90
        1
176
     1
 40
1.0
176
     1
 90
        8
176
     1
 62
     7
176
     1
 40
1.0
176
     1
 90
        1
176
     1
 90
        6
176
     1
 90
        2
176
     1
 62
     7
176
     1
 90
        5
176
     1
 90
        0
176
     1
 90
        0
176
     1
290
     0
176
     1
 90
        1
176
     1
 40
-50.0
176
     1
 90
        0
176
     1
290
     0
176
     1
290
     1
176
     1
290
     1
176
     1
290
     0
176
     1
290
     0
176
     1
290
     0
176
     1
290
     0
176
     1
290
     0
176
     1
290
     0
176
     1
 90
       50
176
     1
 40
0.0
176
     1
 40
1.0
176
     1
 90
        0
176
     1
 62
    18
420
        0
176
     1
 90
       50
176
     1
 90
        3
176
     1
 62
     5
420
      255
176
     1
290
     0
176
     1
 90
       50
176
     1
 90
       50
176
     1
 90
       50
176
     1
290
     0
176
     1
 90
       50
176
     1
 62
   256
176
     0
 40
1.0
176
     0
 90
        2
176
     1
  1
strokes_ogs.tif
176
     1
290
     0
176
     1
 40
1.0
176
     1
 40
1.0
176
     1
1001
ACAD
1000
AcDbSavedByObjectVersion
1070
     0
  0
VISUALSTYLE
  5
823A
102
{ACAD_REACTORS
330
8222
102
}
330
8222
100
AcDbVisualStyle
  2
EdgeColorOff
 70
    22
177
     3
291
     1
 70
    58
 90
        2
176
     0
 90
        2
176
     0
 90
        0
176
     0
 90
        0
176
     0
 40
0.6
176
     0
 40
30.0
176
     0
 62
     7
420
 16777215
176
     0
 90
        1
176
     0
 90
        4
176
     0
 62
     7
176
     0
 62
   257
176
     0
 90
        1
176
     0
 90
        1
176
     0
 40
1.0
176
     0
 90
        8
176
     2
 62
     7
176
     0
 40
1.0
176
     0
 90
        1
176
     0
 90
        6
176
     0
 90
        2
176
     0
 62
     7
176
     0
 90
        5
176
     0
 90
        0
176
     0
 90
        0
176
     0
290
     0
176
     0
 90
        1
176
     0
 40
0.0
176
     0
 90
        0
176
     0
290
     0
176
     0
290
     1
176
     0
290
     1
176
     0
290
     0
176
     0
290
     0
176
     0
290
     0
176
     0
290
     0
176
     0
290
     0
176
     0
290
     0
176
     0
 90
       50
176
     0
 40
0.0
176
     0
 40
1.0
176
     0
 90
        0
176
     0
 62
    18
420
        0
176
     0
 90
       50
176
     0
 90
        3
176
     0
 62
     5
420
      255
176
     0
290
     0
176
     0
 90
       50
176
     0
 90
       50
176
     0
 90
       50
176
     0
290
     0
176
     0
 90
       50
176
     0
 62
   256
176
     0
 40
1.0
176
     0
 90
        2
176
     0
  1
strokes_ogs.tif
176
     0
290
     0
176
     0
 40
1.0
176
     0
 40
1.0
176
     0
1001
ACAD
1000
AcDbSavedByObjectVersion
1070
     0
  0
VISUALSTYLE
  5
8231
102
{ACAD_REACTORS
330
8222
102
}
330
8222
100
AcDbVisualStyle
  2
Facepattern
 70
    15
177
     3
291
     1
 70
    58
 90
        2
176
     1
 90
        2
176
     1
 90
        0
176
     1
 90
        0
176
     1
 40
0.6
176
     1
 40
30.0
176
     1
 62
     7
420
 16777215
176
     1
 90
        1
176
     1
 90
        4
176
     1
 62
     7
176
     1
 62
   257
176
     1
 90
        1
176
     1
 90
        1
176
     1
 40
1.0
176
     1
 90
        8
176
     1
 62
     7
176
     1
 40
1.0
176
     1
 90
        1
176
     1
 90
        6
176
     1
 90
        2
176
     1
 62
     7
176
     1
 90
        5
176
     1
 90
        0
176
     1
 90
        0
176
     1
290
     0
176
     1
 90
        1
176
     1
 40
0.0
176
     1
 90
        0
176
     1
290
     0
176
     1
290
     1
176
     1
290
     1
176
     1
290
     0
176
     1
290
     0
176
     1
290
     0
176
     1
290
     0
176
     1
290
     0
176
     1
290
     0
176
     1
 90
       50
176
     1
 40
0.0
176
     1
 40
1.0
176
     1
 90
        0
176
     1
 62
    18
420
        0
176
     1
 90
       50
176
     1
 90
        3
176
     1
 62
     5
420
      255
176
     1
290
     0
176
     1
 90
       50
176
     1
 90
       50
176
     1
 90
       50
176
     1
290
     0
176
     1
 90
       50
176
     1
 62
   256
176
     0
 40
1.0
176
     0
 90
        2
176
     1
  1
strokes_ogs.tif
176
     1
290
     0
176
     1
 40
1.0
176
     1
 40
1.0
176
     1
1001
ACAD
1000
AcDbSavedByObjectVersion
1070
     0
  0
VISUALSTYLE
  5
8223
102
{ACAD_REACTORS
330
8222
102
}
330
8222
100
AcDbVisualStyle
  2
Flat
 70
     0
177
     3
291
     1
 70
    58
 90
        2
176
     1
 90
        1
176
     1
 90
        1
176
     1
 90
        2
176
     1
 40
0.6
176
     1
 40
30.0
176
     1
 62
     7
420
 16777215
176
     1
 90
        0
176
     1
 90
        0
176
     1
 62
     7
176
     1
 62
   257
176
     1
 90
        1
176
     1
 90
        1
176
     1
 40
1.0
176
     1
 90
        8
176
     1
 62
     7
176
     1
 40
1.0
176
     1
 90
        1
176
     1
 90
        6
176
     1
 90
        2
176
     1
 62
     7
176
     1
 90
        5
176
     1
 90
        0
176
     1
 90
        0
176
     1
290
     0
176
     1
 90
       13
176
     1
 40
0.0
176
     1
 90
        0
176
     1
290
     0
176
     1
290
     1
176
     1
290
     1
176
     1
290
     0
176
     1
290
     0
176
     1
290
     0
176
     1
290
     0
176
     1
290
     0
176
     1
290
     0
176
     1
 90
       50
176
     1
 40
0.0
176
     1
 40
1.0
176
     1
 90
        0
176
     1
 62
    18
420
        0
176
     1
 90
       50
176
     1
 90
        3
176
     1
 62
     5
420
      255
176
     1
290
     0
176
     1
 90
       50
176
     1
 90
       50
176
     1
 90
       50
176
     1
290
     0
176
     1
 90
       50
176
     1
 62
   256
176
     0
 40
1.0
176
     0
 90
        2
176
     1
  1
strokes_ogs.tif
176
     1
290
     0
176
     1
 40
1.0
176
     1
 40
1.0
176
     1
1001
ACAD
1000
AcDbSavedByObjectVersion
1070
     0
  0
VISUALSTYLE
  5
8224
102
{ACAD_REACTORS
330
8222
102
}
330
8222
100
AcDbVisualStyle
  2
FlatWithEdges
 70
     1
177
     3
291
     1
 70
    58
 90
        2
176
     1
 90
        1
176
     1
 90
        1
176
     1
 90
        2
176
     1
 40
0.6
176
     1
 40
30.0
176
     1
 62
     7
420
 16777215
176
     1
 90
        1
176
     1
 90
        0
176
     1
 62
     7
176
     1
 62
   257
176
     1
 90
        1
176
     1
 90
        1
176
     1
 40
1.0
176
     1
 90
        0
176
     1
 62
   257
176
     1
 40
1.0
176
     1
 90
        1
176
     1
 90
        6
176
     1
 90
        2
176
     1
 62
     7
176
     1
 90
        5
176
     1
 90
        0
176
     1
 90
        0
176
     1
290
     0
176
     1
 90
       13
176
     1
 40
0.0
176
     1
 90
        0
176
     1
290
     0
176
     1
290
     1
176
     1
290
     1
176
     1
290
     0
176
     1
290
     0
176
     1
290
     0
176
     1
290
     0
176
     1
290
     0
176
     1
290
     0
176
     1
 90
       50
176
     1
 40
0.0
176
     1
 40
1.0
176
     1
 90
        0
176
     1
 62
    18
420
        0
176
     1
 90
       50
176
     1
 90
        3
176
     1
 62
     5
420
      255
176
     1
290
     0
176
     1
 90
       50
176
     1
 90
       50
176
     1
 90
       50
176
     1
290
     0
176
     1
 90
       50
176
     1
 62
   256
176
     0
 40
1.0
176
     0
 90
        2
176
     1
  1
strokes_ogs.tif
176
     1
290
     0
176
     1
 40
1.0
176
     1
 40
1.0
176
     1
1001
ACAD
1000
AcDbSavedByObjectVersion
1070
     0
  0
VISUALSTYLE
  5
8225
102
{ACAD_REACTORS
330
8222
102
}
330
8222
100
AcDbVisualStyle
  2
Gouraud
 70
     2
177
     3
291
     1
 70
    58
 90
        2
176
     1
 90
        2
176
     1
 90
        1
176
     1
 90
        2
176
     1
 40
0.6
176
     1
 40
30.0
176
     1
 62
     7
420
 16777215
176
     1
 90
        0
176
     1
 90
        0
176
     1
 62
     7
176
     1
 62
   257
176
     1
 90
        1
176
     1
 90
        1
176
     1
 40
1.0
176
     1
 90
        0
176
     1
 62
     7
176
     1
 40
1.0
176
     1
 90
        1
176
     1
 90
        6
176
     1
 90
        2
176
     1
 62
     7
176
     1
 90
        5
176
     1
 90
        0
176
     1
 90
        0
176
     1
290
     0
176
     1
 90
       13
176
     1
 40
0.0
176
     1
 90
        0
176
     1
290
     0
176
     1
290
     1
176
     1
290
     1
176
     1
290
     0
176
     1
290
     0
176
     1
290
     0
176
     1
290
     0
176
     1
290
     0
176
     1
290
     0
176
     1
 90
       50
176
     1
 40
0.0
176
     1
 40
1.0
176
     1
 90
        0
176
     1
 62
    18
420
        0
176
     1
 90
       50
176
     1
 90
        3
176
     1
 62
     5
420
      255
176
     1
290
     0
176
     1
 90
       50
176
     1
 90
       50
176
     1
 90
       50
176
     1
290
     0
176
     1
 90
       50
176
     1
 62
   256
176
     0
 40
1.0
176
     0
 90
        2
176
     1
  1
strokes_ogs.tif
176
     1
290
     0
176
     1
 40
1.0
176
     1
 40
1.0
176
     1
1001
ACAD
1000
AcDbSavedByObjectVersion
1070
     0
  0
VISUALSTYLE
  5
8226
102
{ACAD_REACTORS
330
8222
102
}
330
8222
100
AcDbVisualStyle
  2
GouraudWithEdges
 70
     3
177
     3
291
     1
 70
    58
 90
        2
176
     1
 90
        2
176
     1
 90
        1
176
     1
 90
        2
176
     1
 40
0.6
176
     1
 40
30.0
176
     1
 62
     7
420
 16777215
176
     1
 90
        1
176
     1
 90
        0
176
     1
 62
     7
176
     1
 62
   257
176
     1
 90
        1
176
     1
 90
        1
176
     1
 40
1.0
176
     1
 90
        0
176
     1
 62
   257
176
     1
 40
1.0
176
     1
 90
        1
176
     1
 90
        6
176
     1
 90
        2
176
     1
 62
     7
176
     1
 90
        5
176
     1
 90
        0
176
     1
 90
        0
176
     1
290
     0
176
     1
 90
       13
176
     1
 40
0.0
176
     1
 90
        0
176
     1
290
     0
176
     1
290
     1
176
     1
290
     1
176
     1
290
     0
176
     1
290
     0
176
     1
290
     0
176
     1
290
     0
176
     1
290
     0
176
     1
290
     0
176
     1
 90
       50
176
     1
 40
0.0
176
     1
 40
1.0
176
     1
 90
        0
176
     1
 62
    18
420
        0
176
     1
 90
       50
176
     1
 90
        3
176
     1
 62
     5
420
      255
176
     1
290
     0
176
     1
 90
       50
176
     1
 90
       50
176
     1
 90
       50
176
     1
290
     0
176
     1
 90
       50
176
     1
 62
   256
176
     0
 40
1.0
176
     0
 90
        2
176
     1
  1
strokes_ogs.tif
176
     1
290
     0
176
     1
 40
1.0
176
     1
 40
1.0
176
     1
1001
ACAD
1000
AcDbSavedByObjectVersion
1070
     0
  0
VISUALSTYLE
  5
822A
102
{ACAD_REACTORS
330
8222
102
}
330
8222
100
AcDbVisualStyle
  2
Hidden
 70
     6
177
     3
291
     0
 70
    58
 90
        1
176
     1
 90
        2
176
     1
 90
        2
176
     1
 90
        0
176
     1
 40
0.6
176
     1
 40
30.0
176
     1
 62
     7
420
 16777215
176
     1
 90
        2
176
     1
 90
        2
176
     1
 62
     7
176
     1
 62
   257
176
     1
 90
        2
176
     1
 90
        1
176
     1
 40
40.0
176
     1
 90
        0
176
     1
 62
   257
176
     1
 40
1.0
176
     1
 90
        1
176
     1
 90
        6
176
     1
 90
        2
176
     1
 62
     7
176
     1
 90
        3
176
     1
 90
        0
176
     1
 90
        0
176
     1
290
     0
176
     1
 90
        1
176
     1
 40
0.0
176
     1
 90
        0
176
     1
290
     0
176
     1
290
     1
176
     1
290
     1
176
     1
290
     0
176
     1
290
     0
176
     1
290
     0
176
     1
290
     0
176
     1
290
     0
176
     1
290
     0
176
     1
 90
       50
176
     1
 40
0.0
176
     1
 40
1.0
176
     1
 90
        0
176
     1
 62
    18
420
        0
176
     1
 90
       50
176
     1
 90
        3
176
     1
 62
     5
420
      255
176
     1
290
     0
176
     1
 90
       50
176
     1
 90
       50
176
     1
 90
       50
176
     1
290
     0
176
     1
 90
       50
176
     1
 62
   256
176
     0
 40
1.0
176
     0
 90
        2
176
     1
  1
strokes_ogs.tif
176
     1
290
     0
176
     1
 40
1.0
176
     1
 40
1.0
176
     1
1001
ACAD
1000
AcDbSavedByObjectVersion
1070
     0
  0
VISUALSTYLE
  5
8238
102
{ACAD_REACTORS
330
8222
102
}
330
8222
100
AcDbVisualStyle
  2
JitterOff
 70
    20
177
     3
291
     1
 70
    58
 90
        2
176
     0
 90
        2
176
     0
 90
        0
176
     0
 90
        0
176
     0
 40
0.6
176
     0
 40
30.0
176
     0
 62
     7
420
 16777215
176
     0
 90
        1
176
     0
 90
        4
176
     0
 62
     7
176
     0
 62
   257
176
     0
 90
        1
176
     0
 90
        1
176
     0
 40
1.0
176
     0
 90
       10
176
     2
 62
     7
176
     0
 40
1.0
176
     0
 90
        1
176
     0
 90
        6
176
     0
 90
        2
176
     0
 62
     7
176
     0
 90
        5
176
     0
 90
        0
176
     0
 90
        0
176
     0
290
     0
176
     0
 90
        1
176
     0
 40
0.0
176
     0
 90
        0
176
     0
290
     0
176
     0
290
     1
176
     0
290
     1
176
     0
290
     0
176
     0
290
     0
176
     0
290
     0
176
     0
290
     0
176
     0
290
     0
176
     0
290
     0
176
     0
 90
       50
176
     0
 40
0.0
176
     0
 40
1.0
176
     0
 90
        0
176
     0
 62
    18
420
        0
176
     0
 90
       50
176
     0
 90
        3
176
     0
 62
     5
420
      255
176
     0
290
     0
176
     0
 90
       50
176
     0
 90
       50
176
     0
 90
       50
176
     0
290
     0
176
     0
 90
       50
176
     0
 62
   256
176
     0
 40
1.0
176
     0
 90
        2
176
     0
  1
strokes_ogs.tif
176
     0
290
     0
176
     0
 40
1.0
176
     0
 40
1.0
176
     0
1001
ACAD
1000
AcDbSavedByObjectVersion
1070
     0
  0
VISUALSTYLE
  5
8230
102
{ACAD_REACTORS
330
8222
102
}
330
8222
100
AcDbVisualStyle
  2
Linepattern
 70
    14
177
     3
291
     1
 70
    58
 90
        2
176
     1
 90
        2
176
     1
 90
        0
176
     1
 90
        0
176
     1
 40
0.6
176
     1
 40
30.0
176
     1
 62
     7
420
 16777215
176
     1
 90
        1
176
     1
 90
        4
176
     1
 62
     7
176
     1
 62
   257
176
     1
 90
        7
176
     1
 90
        7
176
     1
 40
1.0
176
     1
 90
        8
176
     1
 62
     7
176
     1
 40
1.0
176
     1
 90
        1
176
     1
 90
        6
176
     1
 90
        2
176
     1
 62
     7
176
     1
 90
        5
176
     1
 90
        0
176
     1
 90
        0
176
     1
290
     0
176
     1
 90
        1
176
     1
 40
0.0
176
     1
 90
        0
176
     1
290
     0
176
     1
290
     1
176
     1
290
     1
176
     1
290
     0
176
     1
290
     0
176
     1
290
     0
176
     1
290
     0
176
     1
290
     0
176
     1
290
     0
176
     1
 90
       50
176
     1
 40
0.0
176
     1
 40
1.0
176
     1
 90
        0
176
     1
 62
    18
420
        0
176
     1
 90
       50
176
     1
 90
        3
176
     1
 62
     5
420
      255
176
     1
290
     0
176
     1
 90
       50
176
     1
 90
       50
176
     1
 90
       50
176
     1
290
     0
176
     1
 90
       50
176
     1
 62
   256
176
     0
 40
1.0
176
     0
 90
        2
176
     1
  1
strokes_ogs.tif
176
     1
290
     0
176
     1
 40
1.0
176
     1
 40
1.0
176
     1
1001
ACAD
1000
AcDbSavedByObjectVersion
1070
     0
  0
VISUALSTYLE
  5
8239
102
{ACAD_REACTORS
330
8222
102
}
330
8222
100
AcDbVisualStyle
  2
OverhangOff
 70
    21
177
     3
291
     1
 70
    58
 90
        2
176
     0
 90
        2
176
     0
 90
        0
176
     0
 90
        0
176
     0
 40
0.6
176
     0
 40
30.0
176
     0
 62
     7
420
 16777215
176
     0
 90
        1
176
     0
 90
        4
176
     0
 62
     7
176
     0
 62
   257
176
     0
 90
        1
176
     0
 90
        1
176
     0
 40
1.0
176
     0
 90
        9
176
     2
 62
     7
176
     0
 40
1.0
176
     0
 90
        1
176
     0
 90
        6
176
     0
 90
        2
176
     0
 62
     7
176
     0
 90
        5
176
     0
 90
        0
176
     0
 90
        0
176
     0
290
     0
176
     0
 90
        1
176
     0
 40
0.0
176
     0
 90
        0
176
     0
290
     0
176
     0
290
     1
176
     0
290
     1
176
     0
290
     0
176
     0
290
     0
176
     0
290
     0
176
     0
290
     0
176
     0
290
     0
176
     0
290
     0
176
     0
 90
       50
176
     0
 40
0.0
176
     0
 40
1.0
176
     0
 90
        0
176
     0
 62
    18
420
        0
176
     0
 90
       50
176
     0
 90
        3
176
     0
 62
     5
420
      255
176
     0
290
     0
176
     0
 90
       50
176
     0
 90
       50
176
     0
 90
       50
176
     0
290
     0
176
     0
 90
       50
176
     0
 62
   256
176
     0
 40
1.0
176
     0
 90
        2
176
     0
  1
strokes_ogs.tif
176
     0
290
     0
176
     0
 40
1.0
176
     0
 40
1.0
176
     0
1001
ACAD
1000
AcDbSavedByObjectVersion
1070
     0
  0
VISUALSTYLE
  5
822C
102
{ACAD_REACTORS
330
8222
102
}
330
8222
100
AcDbVisualStyle
  2
Realistic
 70
     8
177
     3
291
     0
 70
    58
 90
        2
176
     1
 90
        3
176
     1
 90
        0
176
     1
 90
        2
176
     1
 40
0.6
176
     1
 40
30.0
176
     1
 62
     7
420
 16777215
176
     1
 90
        0
176
     1
 90
        0
176
     1
 62
     7
176
     1
 62
   257
176
     1
 90
        1
176
     1
 90
        1
176
     1
 40
1.0
176
     1
 90
        8
176
     1
 62
   257
176
     1
 40
1.0
176
     1
 90
        1
176
     1
 90
        6
176
     1
 90
        2
176
     1
 62
     7
176
     1
 90
        3
176
     1
 90
        0
176
     1
 90
        0
176
     1
290
     0
176
     1
 90
       13
176
     1
 40
0.0
176
     1
 90
        0
176
     1
290
     0
176
     1
290
     1
176
     1
290
     1
176
     1
290
     0
176
     1
290
     0
176
     1
290
     0
176
     1
290
     0
176
     1
290
     0
176
     1
290
     0
176
     1
 90
       50
176
     1
 40
0.0
176
     1
 40
1.0
176
     1
 90
        0
176
     1
 62
    18
420
        0
176
     1
 90
       50
176
     1
 90
        3
176
     1
 62
     5
420
      255
176
     1
290
     0
176
     1
 90
       50
176
     1
 90
       50
176
     1
 90
       50
176
     1
290
     0
176
     1
 90
       50
176
     1
 62
   256
176
     0
 40
1.0
176
     0
 90
        2
176
     1
  1
strokes_ogs.tif
176
     1
290
     0
176
     1
 40
1.0
176
     1
 40
1.0
176
     1
1001
ACAD
1000
AcDbSavedByObjectVersion
1070
     0
  0
VISUALSTYLE
  5
8237
102
{ACAD_REACTORS
330
8222
102
}
330
8222
100
AcDbVisualStyle
  2
Shaded
 70
    27
177
     3
291
     0
 70
    58
 90
        2
176
     1
 90
        2
176
     1
 90
        1
176
     1
 90
        2
176
     1
 40
0.6
176
     1
 40
30.0
176
     1
 62
     7
420
 16777215
176
     1
 90
        0
176
     1
 90
        4
176
     1
 62
     7
176
     1
 62
   257
176
     1
 90
        1
176
     1
 90
        1
176
     1
 40
1.0
176
     1
 90
        8
176
     1
 62
   257
176
     1
 40
1.0
176
     1
 90
        1
176
     1
 90
        6
176
     1
 90
        2
176
     1
 62
     8
420
  7895160
176
     1
 90
        3
176
     1
 90
        0
176
     1
 90
        0
176
     1
290
     0
176
     1
 90
        5
176
     1
 40
0.0
176
     1
 90
        0
176
     1
290
     0
176
     1
290
     1
176
     1
290
     1
176
     1
290
     0
176
     1
290
     0
176
     1
290
     0
176
     1
290
     0
176
     1
290
     0
176
     1
290
     0
176
     1
 90
       50
176
     1
 40
0.0
176
     1
 40
1.0
176
     1
 90
        0
176
     1
 62
    18
420
        0
176
     1
 90
       50
176
     1
 90
        3
176
     1
 62
     5
420
      255
176
     1
290
     0
176
     1
 90
       50
176
     1
 90
       50
176
     1
 90
       50
176
     1
290
     0
176
     1
 90
       50
176
     1
 62
   256
176
     0
 40
1.0
176
     0
 90
        2
176
     1
  1
strokes_ogs.tif
176
     1
290
     0
176
     1
 40
1.0
176
     1
 40
1.0
176
     1
1001
ACAD
1000
AcDbSavedByObjectVersion
1070
     0
  0
VISUALSTYLE
  5
8236
102
{ACAD_REACTORS
330
8222
102
}
330
8222
100
AcDbVisualStyle
  2
Shaded with edges
 70
    26
177
     3
291
     0
 70
    58
 90
        2
176
     1
 90
        2
176
     1
 90
        1
176
     1
 90
        2
176
     1
 40
0.6
176
     1
 40
30.0
176
     1
 62
     7
420
 16777215
176
     1
 90
        1
176
     1
 90
        2
176
     1
 62
     7
176
     1
 62
   257
176
     1
 90
        2
176
     1
 90
        1
176
     1
 40
1.0
176
     1
 90
        8
176
     1
 62
   257
176
     1
 40
1.0
176
     1
 90
        1
176
     1
 90
        6
176
     1
 90
        2
176
     1
 62
     7
176
     1
 90
        3
176
     1
 90
        0
176
     1
 90
        0
176
     1
290
     0
176
     1
 90
        5
176
     1
 40
0.0
176
     1
 90
        0
176
     1
290
     0
176
     1
290
     1
176
     1
290
     1
176
     1
290
     0
176
     1
290
     0
176
     1
290
     0
176
     1
290
     0
176
     1
290
     0
176
     1
290
     0
176
     1
 90
       50
176
     1
 40
0.0
176
     1
 40
1.0
176
     1
 90
        0
176
     1
 62
    18
420
        0
176
     1
 90
       50
176
     1
 90
        3
176
     1
 62
     5
420
      255
176
     1
290
     0
176
     1
 90
       50
176
     1
 90
       50
176
     1
 90
       50
176
     1
290
     0
176
     1
 90
       50
176
     1
 62
   256
176
     0
 40
1.0
176
     0
 90
        2
176
     1
  1
strokes_ogs.tif
176
     1
290
     0
176
     1
 40
1.0
176
     1
 40
1.0
176
     1
1001
ACAD
1000
AcDbSavedByObjectVersion
1070
     0
  0
VISUALSTYLE
  5
8233
102
{ACAD_REACTORS
330
8222
102
}
330
8222
100
AcDbVisualStyle
  2
Shades of Gray
 70
    23
177
     3
291
     0
 70
    58
 90
        2
176
     1
 90
        2
176
     1
 90
        3
176
     1
 90
        0
176
     1
 40
0.6
176
     1
 40
30.0
176
     1
 62
     7
420
 16777215
176
     1
 90
        2
176
     1
 90
        2
176
     1
 62
     7
176
     1
 62
     7
176
     1
 90
        1
176
     1
 90
        1
176
     1
 40
40.0
176
     1
 90
        8
176
     1
 62
     7
176
     1
 40
1.0
176
     1
 90
        1
176
     1
 90
        6
176
     1
 90
        2
176
     1
 62
     7
176
     1
 90
        3
176
     1
 90
        0
176
     1
 90
        0
176
     1
290
     0
176
     1
 90
        1
176
     1
 40
0.0
176
     1
 90
        0
176
     1
290
     0
176
     1
290
     1
176
     1
290
     1
176
     1
290
     0
176
     1
290
     0
176
     1
290
     0
176
     1
290
     0
176
     1
290
     0
176
     1
290
     0
176
     1
 90
       50
176
     1
 40
0.0
176
     1
 40
1.0
176
     1
 90
        0
176
     1
 62
    18
420
        0
176
     1
 90
       50
176
     1
 90
        3
176
     1
 62
     5
420
      255
176
     1
290
     0
176
     1
 90
       50
176
     1
 90
       50
176
     1
 90
       50
176
     1
290
     0
176
     1
 90
       50
176
     1
 62
   256
176
     0
 40
1.0
176
     0
 90
        2
176
     1
  1
strokes_ogs.tif
176
     1
290
     0
176
     1
 40
1.0
176
     1
 40
1.0
176
     1
1001
ACAD
1000
AcDbSavedByObjectVersion
1070
     0
  0
VISUALSTYLE
  5
8234
102
{ACAD_REACTORS
330
8222
102
}
330
8222
100
AcDbVisualStyle
  2
Sketchy
 70
    24
177
     3
291
     0
 70
    58
 90
        1
176
     1
 90
        2
176
     1
 90
        2
176
     1
 90
        0
176
     1
 40
0.6
176
     1
 40
30.0
176
     1
 62
     7
420
 16777215
176
     1
 90
        2
176
     1
 90
        2
176
     1
 62
     7
176
     1
 62
     7
176
     1
 90
        1
176
     1
 90
        1
176
     1
 40
40.0
176
     1
 90
       11
176
     1
 62
     7
176
     1
 40
1.0
176
     1
 90
        1
176
     1
 90
        6
176
     1
 90
        2
176
     1
 62
     7
176
     1
 90
        6
176
     1
 90
        0
176
     1
 90
        0
176
     1
290
     0
176
     1
 90
        1
176
     1
 40
0.0
176
     1
 90
        0
176
     1
290
     0
176
     1
290
     1
176
     1
290
     1
176
     1
290
     0
176
     1
290
     0
176
     1
290
     0
176
     1
290
     0
176
     1
290
     0
176
     1
290
     0
176
     1
 90
       50
176
     1
 40
0.0
176
     1
 40
1.0
176
     1
 90
        0
176
     1
 62
    18
420
        0
176
     1
 90
       50
176
     1
 90
        3
176
     1
 62
     5
420
      255
176
     1
290
     0
176
     1
 90
       50
176
     1
 90
       50
176
     1
 90
       50
176
     1
290
     0
176
     1
 90
       50
176
     1
 62
   256
176
     0
 40
1.0
176
     0
 90
        2
176
     1
  1
strokes_ogs.tif
176
     1
290
     0
176
     1
 40
1.0
176
     1
 40
1.0
176
     1
1001
ACAD
1000
AcDbSavedByObjectVersion
1070
     0
  0
VISUALSTYLE
  5
822F
102
{ACAD_REACTORS
330
8222
102
}
330
8222
100
AcDbVisualStyle
  2
Thicken
 70
    13
177
     3
291
     1
 70
    58
 90
        2
176
     1
 90
        2
176
     1
 90
        0
176
     1
 90
        0
176
     1
 40
0.6
176
     1
 40
30.0
176
     1
 62
     7
420
 16777215
176
     1
 90
        1
176
     1
 90
        4
176
     1
 62
     7
176
     1
 62
   257
176
     1
 90
        1
176
     1
 90
        1
176
     1
 40
1.0
176
     1
 90
       12
176
     1
 62
     7
176
     1
 40
1.0
176
     1
 90
        1
176
     1
 90
        6
176
     1
 90
        2
176
     1
 62
     7
176
     1
 90
        5
176
     1
 90
        0
176
     1
 90
        0
176
     1
290
     0
176
     1
 90
        1
176
     1
 40
0.0
176
     1
 90
        0
176
     1
290
     0
176
     1
290
     1
176
     1
290
     1
176
     1
290
     0
176
     1
290
     0
176
     1
290
     0
176
     1
290
     0
176
     1
290
     0
176
     1
290
     0
176
     1
 90
       50
176
     1
 40
0.0
176
     1
 40
1.0
176
     1
 90
        0
176
     1
 62
    18
420
        0
176
     1
 90
       50
176
     1
 90
        3
176
     1
 62
     5
420
      255
176
     1
290
     0
176
     1
 90
       50
176
     1
 90
       50
176
     1
 90
       50
176
     1
290
     0
176
     1
 90
       50
176
     1
 62
   256
176
     0
 40
1.0
176
     0
 90
        2
176
     1
  1
strokes_ogs.tif
176
     1
290
     0
176
     1
 40
1.0
176
     1
 40
1.0
176
     1
1001
ACAD
1000
AcDbSavedByObjectVersion
1070
     0
  0
VISUALSTYLE
  5
8229
102
{ACAD_REACTORS
330
8222
102
}
330
8222
100
AcDbVisualStyle
  2
Wireframe
 70
     5
177
     3
291
     0
 70
    58
 90
        0
176
     1
 90
        2
176
     1
 90
        0
176
     1
 90
        0
176
     1
 40
0.6
176
     1
 40
30.0
176
     1
 62
     7
420
 16777215
176
     1
 90
        1
176
     1
 90
        4
176
     1
 62
     7
176
     1
 62
   257
176
     1
 90
        1
176
     1
 90
        1
176
     1
 40
1.0
176
     1
 90
        0
176
     1
 62
   257
176
     1
 40
1.0
176
     1
 90
        1
176
     1
 90
        6
176
     1
 90
        2
176
     1
 62
     7
176
     1
 90
        3
176
     1
 90
        0
176
     1
 90
        0
176
     1
290
     0
176
     1
 90
        1
176
     1
 40
0.0
176
     1
 90
        0
176
     1
290
     0
176
     1
290
     1
176
     1
290
     1
176
     1
290
     0
176
     1
290
     0
176
     1
290
     0
176
     1
290
     0
176
     1
290
     0
176
     1
290
     0
176
     1
 90
       50
176
     1
 40
0.0
176
     1
 40
1.0
176
     1
 90
        0
176
     1
 62
    18
420
        0
176
     1
 90
       50
176
     1
 90
        3
176
     1
 62
     5
420
      255
176
     1
290
     0
176
     1
 90
       50
176
     1
 90
       50
176
     1
 90
       50
176
     1
290
     0
176
     1
 90
       50
176
     1
 62
   256
176
     0
 40
1.0
176
     0
 90
        2
176
     1
  1
strokes_ogs.tif
176
     1
290
     0
176
     1
 40
1.0
176
     1
 40
1.0
176
     1
1001
ACAD
1000
AcDbSavedByObjectVersion
1070
     0
  0
VISUALSTYLE
  5
8235
102
{ACAD_REACTORS
330
8222
102
}
330
8222
100
AcDbVisualStyle
  2
X-Ray
 70
    25
177
     3
291
     0
 70
    58
 90
        2
176
     1
 90
        2
176
     1
 90
        1
176
     1
 90
        1
176
     1
 40
0.5
176
     1
 40
30.0
176
     1
 62
     7
420
 16777215
176
     1
 90
        1
176
     1
 90
        0
176
     1
 62
     7
176
     1
 62
   257
176
     1
 90
        1
176
     1
 90
        1
176
     1
 40
1.0
176
     1
 90
        8
176
     1
 62
     7
176
     1
 40
1.0
176
     1
 90
        1
176
     1
 90
        6
176
     1
 90
        2
176
     1
 62
     7
176
     1
 90
        3
176
     1
 90
        0
176
     1
 90
        0
176
     1
290
     0
176
     1
 90
       13
176
     1
 40
0.0
176
     1
 90
        0
176
     1
290
     0
176
     1
290
     1
176
     1
290
     1
176
     1
290
     0
176
     1
290
     0
176
     1
290
     0
176
     1
290
     0
176
     1
290
     0
176
     1
290
     0
176
     1
 90
       50
176
     1
 40
0.0
176
     1
 40
1.0
176
     1
 90
        0
176
     1
 62
    18
420
        0
176
     1
 90
       50
176
     1
 90
        3
176
     1
 62
     5
420
      255
176
     1
290
     0
176
     1
 90
       50
176
     1
 90
       50
176
     1
 90
       50
176
     1
290
     0
176
     1
 90
       50
176
     1
 62
   256
176
     0
 40
1.0
176
     0
 90
        2
176
     1
  1
strokes_ogs.tif
176
     1
290
     0
176
     1
 40
1.0
176
     1
 40
1.0
176
     1
1001
ACAD
1000
AcDbSavedByObjectVersion
1070
     0
  0
DICTIONARYVAR
  5
82B1
102
{ACAD_REACTORS
330
82AB
102
}
330
82AB
100
DictionaryVariables
280
     0
  1
1:1
  0
DICTIONARYVAR
  5
82AD
102
{ACAD_REACTORS
330
82AB
102
}
330
82AB
100
DictionaryVariables
280
     0
  1
STANDARD
  0
DICTIONARYVAR
  5
82AC
102
{ACAD_REACTORS
330
82AB
102
}
330
82AB
100
DictionaryVariables
280
     0
  1
STANDARD
  0
DICTIONARYVAR
  5
82AE
102
{ACAD_REACTORS
330
82AB
102
}
330
82AB
100
DictionaryVariables
280
     0
  1
Metric50
  0
DICTIONARYVAR
  5
82AF
102
{ACAD_REACTORS
330
82AB
102
}
330
82AB
100
DictionaryVariables
280
     0
  1
Metric50
  0
DICTIONARYVAR
  5
82B3
102
{ACAD_REACTORS
330
82AB
102
}
330
82AB
100
DictionaryVariables
280
     0
  1
1
  0
DICTIONARYVAR
  5
82B4
102
{ACAD_REACTORS
330
82AB
102
}
330
82AB
100
DictionaryVariables
280
     0
  1
15
  0
DICTIONARYVAR
  5
82B2
102
{ACAD_REACTORS
330
82AB
102
}
330
82AB
100
DictionaryVariables
280
     0
  1
0
  0
DICTIONARYVAR
  5
82B9
102
{ACAD_REACTORS
330
82AB
102
}
330
82AB
100
DictionaryVariables
280
     0
  1
0
  0
DICTIONARYVAR
  5
82B0
102
{ACAD_REACTORS
330
82AB
102
}
330
82AB
100
DictionaryVariables
280
     0
  1
0
  0
DICTIONARY
  5
82C4
102
{ACAD_REACTORS
330
82C2
102
}
330
82C2
100
AcDbDictionary
281
     1
  0
DICTIONARY
  5
82C3
102
{ACAD_REACTORS
330
82C2
102
}
330
82C2
100
AcDbDictionary
281
     1
  3
2041933097424
350
82BD
  3
2041933097440
350
82BE
  3
2041933097456
350
82BF
  3
2041933097472
350
82C0
  3
2041933097488
350
82C1
  0
DICTIONARY
  5
82C7
330
8255
100
AcDbDictionary
280
     1
281
     1
  3
ACAD_XREC_ROUNDTRIP
360
82C8
  0
DICTIONARY
  5
8213
330
8212
100
AcDbDictionary
280
     1
281
     1
  3
BUMPTILE
360
8215
  3
DIFFUSETILE
360
8214
  3
OPACITYTILE
360
8218
  3
REFLECTIONTILE
360
8217
  3
REFRACTIONTILE
360
8219
  3
SPECULARTILE
360
8216
  0
DICTIONARY
  5
820B
330
820A
100
AcDbDictionary
280
     1
281
     1
  3
BUMPTILE
360
820D
  3
DIFFUSETILE
360
820C
  3
OPACITYTILE
360
8210
  3
REFLECTIONTILE
360
820F
  3
REFRACTIONTILE
360
8211
  3
SPECULARTILE
360
820E
  0
DICTIONARY
  5
821B
330
821A
100
AcDbDictionary
280
     1
281
     1
  3
BUMPTILE
360
821D
  3
DIFFUSETILE
360
821C
  3
OPACITYTILE
360
8220
  3
REFLECTIONTILE
360
821F
  3
REFRACTIONTILE
360
8221
  3
SPECULARTILE
360
821E
  0
DICTIONARY
  5
82C5
330
8253
100
AcDbDictionary
280
     1
281
     1
  3
ACAD_XREC_ROUNDTRIP
360
82C6
  0
DICTIONARY
  5
82BA
330
823D
100
AcDbDictionary
280
     1
281
     1
  3
ACAD_ROUNDTRIP_2008_TABLESTYLE_CELLSTYLEMAP
360
82BB
  0
XRECORD
  5
82BD
102
{ACAD_REACTORS
330
82C3
102
}
330
82C3
100
AcDbXrecord
280
     1
  1
AcDb_Thumbnail_Schema
102
{ATTRRECORD
341
82BE
  2
AcDbDs::TreatedAsObjectData
280
     1
291
     1
102
ATTRRECORD}
102
{ATTRRECORD
341
82BF
  2
AcDbDs::Legacy
280
     1
291
     1
102
ATTRRECORD}
  2
AcDbDs::ID
280
    10
 91
        8
102
{ATTRRECORD
341
82C0
  2
AcDs:Indexable
280
     1
291
     1
102
ATTRRECORD}
102
{ATTRRECORD
341
82C1
  2
AcDbDs::HandleAttribute
280
     7
282
     1
102
ATTRRECORD}
  2
Thumbnail_Data
280
    15
 91
        0
  0
XRECORD
  5
82BE
102
{ACAD_REACTORS
330
82C3
102
}
330
82C3
100
AcDbXrecord
280
     1
  1
AcDbDs::TreatedAsObjectDataSchema
  2
AcDbDs::TreatedAsObjectData
280
     1
 91
        0
  0
XRECORD
  5
82BF
102
{ACAD_REACTORS
330
82C3
102
}
330
82C3
100
AcDbXrecord
280
     1
  1
AcDbDs::LegacySchema
  2
AcDbDs::Legacy
280
     1
 91
        0
  0
XRECORD
  5
82C0
102
{ACAD_REACTORS
330
82C3
102
}
330
82C3
100
AcDbXrecord
280
     1
  1
AcDbDs::IndexedPropertySchema
  2
AcDs:Indexable
280
     1
 91
        0
  0
XRECORD
  5
82C1
102
{ACAD_REACTORS
330
82C3
102
}
330
82C3
100
AcDbXrecord
280
     1
  1
AcDbDs::HandleAttributeSchema
  2
AcDbDs::HandleAttribute
280
     7
 91
        1
284
     1
  0
XRECORD
  5
82C8
102
{ACAD_REACTORS
330
82C7
102
}
330
82C7
100
AcDbXrecord
280
     1
102
DISPLAYNAME
  1
Metric50
102
FLAGS
 90
        0
  0
XRECORD
  5
8215
102
{ACAD_REACTORS
330
8213
102
}
330
8213
100
AcDbXrecord
280
     1
270
     1
271
     1
  0
XRECORD
  5
8214
102
{ACAD_REACTORS
330
8213
102
}
330
8213
100
AcDbXrecord
280
     1
270
     1
271
     1
  0
XRECORD
  5
8218
102
{ACAD_REACTORS
330
8213
102
}
330
8213
100
AcDbXrecord
280
     1
270
     1
271
     1
  0
XRECORD
  5
8217
102
{ACAD_REACTORS
330
8213
102
}
330
8213
100
AcDbXrecord
280
     1
270
     1
271
     1
  0
XRECORD
  5
8219
102
{ACAD_REACTORS
330
8213
102
}
330
8213
100
AcDbXrecord
280
     1
270
     1
271
     1
  0
XRECORD
  5
8216
102
{ACAD_REACTORS
330
8213
102
}
330
8213
100
AcDbXrecord
280
     1
270
     1
271
     1
  0
XRECORD
  5
820D
102
{ACAD_REACTORS
330
820B
102
}
330
820B
100
AcDbXrecord
280
     1
270
     1
271
     1
  0
XRECORD
  5
820C
102
{ACAD_REACTORS
330
820B
102
}
330
820B
100
AcDbXrecord
280
     1
270
     1
271
     1
  0
XRECORD
  5
8210
102
{ACAD_REACTORS
330
820B
102
}
330
820B
100
AcDbXrecord
280
     1
270
     1
271
     1
  0
XRECORD
  5
820F
102
{ACAD_REACTORS
330
820B
102
}
330
820B
100
AcDbXrecord
280
     1
270
     1
271
     1
  0
XRECORD
  5
8211
102
{ACAD_REACTORS
330
820B
102
}
330
820B
100
AcDbXrecord
280
     1
270
     1
271
     1
  0
XRECORD
  5
820E
102
{ACAD_REACTORS
330
820B
102
}
330
820B
100
AcDbXrecord
280
     1
270
     1
271
     1
  0
XRECORD
  5
821D
102
{ACAD_REACTORS
330
821B
102
}
330
821B
100
AcDbXrecord
280
     1
270
     1
271
     1
  0
XRECORD
  5
821C
102
{ACAD_REACTORS
330
821B
102
}
330
821B
100
AcDbXrecord
280
     1
270
     1
271
     1
  0
XRECORD
  5
8220
102
{ACAD_REACTORS
330
821B
102
}
330
821B
100
AcDbXrecord
280
     1
270
     1
271
     1
  0
XRECORD
  5
821F
102
{ACAD_REACTORS
330
821B
102
}
330
821B
100
AcDbXrecord
280
     1
270
     1
271
     1
  0
XRECORD
  5
8221
102
{ACAD_REACTORS
330
821B
102
}
330
821B
100
AcDbXrecord
280
     1
270
     1
271
     1
  0
XRECORD
  5
821E
102
{ACAD_REACTORS
330
821B
102
}
330
821B
100
AcDbXrecord
280
     1
270
     1
271
     1
  0
XRECORD
  5
82C6
102
{ACAD_REACTORS
330
82C5
102
}
330
82C5
100
AcDbXrecord
280
     1
102
DISPLAYNAME
  1
Metric50
102
FLAGS
 90
        0
  0
CELLSTYLEMAP
  5
82BB
102
{ACAD_REACTORS
330
82BA
102
}
330
82BA
100
AcDbCellStyleMap
 90
        3
300
CELLSTYLE
  1
TABLEFORMAT_BEGIN
 90
        5
170
     1
 91
        0
 92
    32768
 62
   257
 93
        1
300
CONTENTFORMAT
  1
CONTENTFORMAT_BEGIN
 90
        0
 91
        0
 92
      512
 93
        0
300

 40
0.0
140
1.0
 94
        5
 62
     0
340
10
144
6.0
309
CONTENTFORMAT_END
171
     1
301
MARGIN
  1
CELLMARGIN_BEGIN
 40
1.5
 40
1.5
 40
1.5
 40
1.5
 40
4.5
 40
4.5
309
CELLMARGIN_END
 94
        6
 95
        1
302
GRIDFORMAT
  1
GRIDFORMAT_BEGIN
 90
        0
 91
        1
 62
     0
 92
       -2
340
0
 93
        0
 40
1.125
309
GRIDFORMAT_END
 95
        2
302
GRIDFORMAT
  1
GRIDFORMAT_BEGIN
 90
        0
 91
        1
 62
     0
 92
       -2
340
0
 93
        0
 40
1.125
309
GRIDFORMAT_END
 95
        4
302
GRIDFORMAT
  1
GRIDFORMAT_BEGIN
 90
        0
 91
        1
 62
     0
 92
       -2
340
0
 93
        0
 40
1.125
309
GRIDFORMAT_END
 95
        8
302
GRIDFORMAT
  1
GRIDFORMAT_BEGIN
 90
        0
 91
        1
 62
     0
 92
       -2
340
0
 93
        0
 40
1.125
309
GRIDFORMAT_END
 95
       16
302
GRIDFORMAT
  1
GRIDFORMAT_BEGIN
 90
        0
 91
        1
 62
     0
 92
       -2
340
0
 93
        0
 40
1.125
309
GRIDFORMAT_END
 95
       32
302
GRIDFORMAT
  1
GRIDFORMAT_BEGIN
 90
        0
 91
        1
 62
     0
 92
       -2
340
0
 93
        0
 40
1.125
309
GRIDFORMAT_END
309
TABLEFORMAT_END
  1
CELLSTYLE_BEGIN
 90
        1
 91
        1
300
_TITLE
309
CELLSTYLE_END
300
CELLSTYLE
  1
TABLEFORMAT_BEGIN
 90
        5
170
     1
 91
        0
 92
        0
 62
   257
 93
        1
300
CONTENTFORMAT
  1
CONTENTFORMAT_BEGIN
 90
        0
 91
        0
 92
      512
 93
        0
300

 40
0.0
140
1.0
 94
        5
 62
     0
340
10
144
4.5
309
CONTENTFORMAT_END
171
     1
301
MARGIN
  1
CELLMARGIN_BEGIN
 40
1.5
 40
1.5
 40
1.5
 40
1.5
 40
4.5
 40
4.5
309
CELLMARGIN_END
 94
        6
 95
        1
302
GRIDFORMAT
  1
GRIDFORMAT_BEGIN
 90
        0
 91
        1
 62
     0
 92
       -2
340
0
 93
        0
 40
1.125
309
GRIDFORMAT_END
 95
        2
302
GRIDFORMAT
  1
GRIDFORMAT_BEGIN
 90
        0
 91
        1
 62
     0
 92
       -2
340
0
 93
        0
 40
1.125
309
GRIDFORMAT_END
 95
        4
302
GRIDFORMAT
  1
GRIDFORMAT_BEGIN
 90
        0
 91
        1
 62
     0
 92
       -2
340
0
 93
        0
 40
1.125
309
GRIDFORMAT_END
 95
        8
302
GRIDFORMAT
  1
GRIDFORMAT_BEGIN
 90
        0
 91
        1
 62
     0
 92
       -2
340
0
 93
        0
 40
1.125
309
GRIDFORMAT_END
 95
       16
302
GRIDFORMAT
  1
GRIDFORMAT_BEGIN
 90
        0
 91
        1
 62
     0
 92
       -2
340
0
 93
        0
 40
1.125
309
GRIDFORMAT_END
 95
       32
302
GRIDFORMAT
  1
GRIDFORMAT_BEGIN
 90
        0
 91
        1
 62
     0
 92
       -2
340
0
 93
        0
 40
1.125
309
GRIDFORMAT_END
309
TABLEFORMAT_END
  1
CELLSTYLE_BEGIN
 90
        2
 91
        1
300
_HEADER
309
CELLSTYLE_END
300
CELLSTYLE
  1
TABLEFORMAT_BEGIN
 90
        5
170
     1
 91
        0
 92
        0
 62
   257
 93
        1
300
CONTENTFORMAT
  1
CONTENTFORMAT_BEGIN
 90
        0
 91
        0
 92
      512
 93
        0
300

 40
0.0
140
1.0
 94
        2
 62
     0
340
10
144
4.5
309
CONTENTFORMAT_END
171
     1
301
MARGIN
  1
CELLMARGIN_BEGIN
 40
1.5
 40
1.5
 40
1.5
 40
1.5
 40
4.5
 40
4.5
309
CELLMARGIN_END
 94
        6
 95
        1
302
GRIDFORMAT
  1
GRIDFORMAT_BEGIN
 90
        0
 91
        1
 62
     0
 92
       -2
340
0
 93
        0
 40
1.125
309
GRIDFORMAT_END
 95
        2
302
GRIDFORMAT
  1
GRIDFORMAT_BEGIN
 90
        0
 91
        1
 62
     0
 92
       -2
340
0
 93
        0
 40
1.125
309
GRIDFORMAT_END
 95
        4
302
GRIDFORMAT
  1
GRIDFORMAT_BEGIN
 90
        0
 91
        1
 62
     0
 92
       -2
340
0
 93
        0
 40
1.125
309
GRIDFORMAT_END
 95
        8
302
GRIDFORMAT
  1
GRIDFORMAT_BEGIN
 90
        0
 91
        1
 62
     0
 92
       -2
340
0
 93
        0
 40
1.125
309
GRIDFORMAT_END
 95
       16
302
GRIDFORMAT
  1
GRIDFORMAT_BEGIN
 90
        0
 91
        1
 62
     0
 92
       -2
340
0
 93
        0
 40
1.125
309
GRIDFORMAT_END
 95
       32
302
GRIDFORMAT
  1
GRIDFORMAT_BEGIN
 90
        0
 91
        1
 62
     0
 92
       -2
340
0
 93
        0
 40
1.125
309
GRIDFORMAT_END
309
TABLEFORMAT_END
  1
CELLSTYLE_BEGIN
 90
        3
 91
        2
300
_DATA
309
CELLSTYLE_END
  0
ENDSEC
  0
SECTION
  2
ACDSDATA
 70
     2
 71
     8
  0
ACDSSCHEMA
 90
        0
  1
AcDb_Thumbnail_Schema
  2
AcDbDs::ID
280
    10
 91
        8
  2
Thumbnail_Data
280
    15
 91
        0
101
ACDSRECORD
 95
        0
 90
        1
  2
AcDbDs::TreatedAsObjectData
280
     1
291
     1
101
ACDSRECORD
 95
        0
 90
        2
  2
AcDbDs::Legacy
280
     1
291
     1
101
ACDSRECORD
  1
AcDbDs::ID
 90
        3
  2
AcDs:Indexable
280
     1
291
     1
101
ACDSRECORD
  1
AcDbDs::ID
 90
        4
  2
AcDbDs::HandleAttribute
280
     7
282
     1
  0
ACDSSCHEMA
 90
        1
  1
AcDbDs::TreatedAsObjectDataSchema
  2
AcDbDs::TreatedAsObjectData
280
     1
 91
        0
  0
ACDSSCHEMA
 90
        2
  1
AcDbDs::LegacySchema
  2
AcDbDs::Legacy
280
     1
 91
        0
  0
ACDSSCHEMA
 90
        3
  1
AcDbDs::IndexedPropertySchema
  2
AcDs:Indexable
280
     1
 91
        0
  0
ACDSSCHEMA
 90
        4
  1
AcDbDs::HandleAttributeSchema
  2
AcDbDs::HandleAttribute
280
     7
 91
        1
284
     1
  0
ACDSRECORD
 90
        0
  2
AcDbDs::ID
280
    10
320
81B0
  2
Thumbnail_Data
280
    15
 94
     1688
310
89504E470D0A1A0A0000000D49484452000001000000007C0803000000B13B9E5A00000300504C5445000000000000C8C8C80000000000000000000000000000000000000000000000000000330000660000990000CC0000FF0033000033330033660033990033CC0033FF0066000066330066660066990066CC0066FF0099
310
000099330099660099990099CC0099FF00CC0000CC3300CC6600CC9900CCCC00CCFF00FF0000FF3300FF6600FF9900FFCC00FFFF3300003300333300663300993300CC3300FF3333003333333333663333993333CC3333FF3366003366333366663366993366CC3366FF3399003399333399663399993399CC3399FF33CC00
310
33CC3333CC6633CC9933CCCC33CCFF33FF0033FF3333FF6633FF9933FFCC33FFFF6600006600336600666600996600CC6600FF6633006633336633666633996633CC6633FF6666006666336666666666996666CC6666FF6699006699336699666699996699CC6699FF66CC0066CC3366CC6666CC9966CCCC66CCFF66FF0066
310
FF3366FF6666FF9966FFCC66FFFF9900009900339900669900999900CC9900FF9933009933339933669933999933CC9933FF9966009966339966669966999966CC9966FF9999009999339999669999999999CC9999FF99CC0099CC3399CC6699CC9999CCCC99CCFF99FF0099FF3399FF6699FF9999FFCC99FFFFCC0000CC00
310
33CC0066CC0099CC00CCCC00FFCC3300CC3333CC3366CC3399CC33CCCC33FFCC6600CC6633CC6666CC6699CC66CCCC66FFCC9900CC9933CC9966CC9999CC99CCCC99FFCCCC00CCCC33CCCC66CCCC99CCCCCCCCCCFFCCFF00CCFF33CCFF66CCFF99CCFFCCCCFFFFFF0000FF0033FF0066FF0099FF00CCFF00FFFF3300FF3333
310
FF3366FF3399FF33CCFF33FFFF6600FF6633FF6666FF6699FF66CCFF66FFFF9900FF9933FF9966FF9999FF99CCFF99FFFFCC00FFCC33FFCC66FFCC99FFCCCCFFCCFFFFFF00FFFF33FFFF66FFFF99FFFFCCFFFFFF0000000D0D0D1A1A1A2828283535354343435050505D5D5D6B6B6B787878868686939393A1A1A1AEAEAEBB
310
BBBBC9C9C9D6D6D6E4E4E4F1F1F1FFFFFF00000000000000000000000000000000000000000000000000000000000008F1915C000003534944415478DAED9D5972C3200C86751C5EB8FF65B806EF8DCD2289C8AE3BD34E83F493A631B6E3091FDA588C89FE20D53F4AB44BAA5B5D16000000000000003EE797DE38BF280096
310
AFD79012101E408D0C60D182BD01FC6A0B604B001F763100F807005D8E854857B54D43C8DBB9AC397DA70700D40A4D5C6CEAD961F36AED11401D9B54C77F17124057F6AD4B402B2B4B8038E04505469057A54EDC97ADC208220E08D818FA5625360460DABE59BB8BB834BB6F76027B0420C2006217498BF9DF5E05DE00C8EA
310
AFF22C9A2F57007EE9FBE813F400A0BC929DF10FA05CA728002E3261003CCB0000003804D04C5D16291A80D73BBFA56800FA761A3B0100000000008200283600F689CF1A047B0348392D8925203F130377120000230700CFDAC40EBD408F88030378E500200C00A33528005000003DFC11FB4301A0D000D60E219DDC87C28B
310
211012D0F2813A451700479E6201106E7038C57812F0E60E638D0BA4611429508F10BB020C8EFEE48033009F7A590000800FFAA5C224BE9B4747002E2DBF67007A528C9E2B75E7251D01B88F038A1535A9DDEE00E8D2165B451C01B8AE5B096085140F00B7184EEBB03B004BE37B8FC00500DD57B4BF041455B5399F757B22
310
B001642901BAAFC001009E1D95E300280C400F093C01A0BCC5F6005ADD7715C88F25C0198066018F8D15000F94FA024002C051A251CC15001FD1008A2B00AF571A56C002303BCD5D0198EE3FA5F37D2248A92413809E47943707D083D9E323B74190EE05DFE70AB743AB047801401D00CD30208B61D23B00D91100E2CA6FEE
310
6094F6CE0610ED0FA04533C307A6210B8C600230E280DD014C13484301E4ED02FD434900874B6E224106C0A19ED0072D01FD8CA4E2425700A679E3A6917700D3080A00A73EA4F6D7001C5E9F27113B0240068039612A82047020C446904800C8A3AFC430824E0094EF2649912662DE5AB67D636831822472B39459EF5F4460
310
FB4ED15EDDAA829392003E568C1B2CF79F22233BFA8B35F851E6984899FEC311003D2224B7F894BE7B0E8BB804703D48763F7D08132400000000000000000000606B00E15794FC79C94200900B0DEA7578FD0120E3B14962B5E5B1CAB25F00E16D802D01349E2A70B790A6671B1012C0855E049200AC2C8D50180000000000
310
000000000000000000C019808D1EBDFD05EFCFF89D2B65749E0000000049454E44AE426082
  0
ENDSEC
  0
EOF
