  0
SECTION
  2
HEADER
  9
$ACADVER
  1
AC1009
  9
$INSBASE
 10
0.0
 20
0.0
 30
0.0
  9
$EXTMIN
 10
0.0
 20
0.0
 30
0.0
  9
$EXTMAX
 10
5250.0
 20
7375.0
 30
0.0
  9
$LIMMIN
 10
0.0
 20
0.0
  9
$LIMMAX
 10
297.0
 20
210.0
  9
$ORTHOMODE
 70
     0
  9
$REGENMODE
 70
     1
  9
$FILLMODE
 70
     0
  9
$QTEXTMODE
 70
     0
  9
$MIRRTEXT
 70
     1
  9
$DRAGMODE
 70
     2
  9
$LTSCALE
 40
100.0
  9
$OSMODE
 70
    37
  9
$ATTMODE
 70
     1
  9
$TEXTSIZE
 40
180.0
  9
$TRACEWID
 40
0.05
  9
$TEXTSTYLE
  7
STANDARD
  9
$CLAYER
  8
3
  9
$CELTYPE
  6
BYLAYER
  9
$CECOLOR
 62
   256
  9
$DIMSCALE
 40
25.0
  9
$DIMASZ
 40
2.0
  9
$DIMEXO
 40
0.5
  9
$DIMDLI
 40
10.0
  9
$DIMRND
 40
0.0
  9
$DIMDLE
 40
0.0
  9
$DIMEXE
 40
1.0
  9
$DIMTP
 40
1.0
  9
$DIMTM
 40
1.0
  9
$DIMTXT
 40
3.0
  9
$DIMCEN
 40
0.0
  9
$DIMTSZ
 40
0.0
  9
$DIMTOL
 70
     0
  9
$DIMLIM
 70
     0
  9
$DIMTIH
 70
     0
  9
$DIMTOH
 70
     0
  9
$DIMSE1
 70
     0
  9
$DIMSE2
 70
     0
  9
$DIMTAD
 70
     1
  9
$DIMZIN
 70
     8
  9
$DIMBLK
  1

  9
$DIMASO
 70
     1
  9
$DIMSHO
 70
     1
  9
$DIMPOST
  1
φ<>
  9
$DIMAPOST
  1

  9
$DIMALT
 70
     0
  9
$DIMALTD
 70
     2
  9
$DIMALTF
 40
0.039
  9
$DIMLFAC
 40
1.0
  9
$DIMTOFL
 70
     1
  9
$DIMTVP
 40
0.0
  9
$DIMTIX
 70
     0
  9
$DIMSOXD
 70
     0
  9
$DIMSAH
 70
     1
  9
$DIMBLK1
  1
OPEN
  9
$DIMBLK2
  1
OPEN
  9
$DIMSTYLE
  2
IGA
  9
$DIMCLRD
 70
     0
  9
$DIMCLRE
 70
     0
  9
$DIMCLRT
 70
     0
  9
$DIMTFAC
 40
10.0
  9
$DIMGAP
 40
1.0
  9
$LUNITS
 70
     2
  9
$LUPREC
 70
     3
  9
$SKETCHINC
 40
0.1
  9
$FILLETRAD
 40
50.0
  9
$AUNITS
 70
     0
  9
$AUPREC
 70
     0
  9
$MENU
  1
acad
  9
$ELEVATION
 40
0.0
  9
$PELEVATION
 40
0.0
  9
$THICKNESS
 40
0.0
  9
$LIMCHECK
 70
     0
  9
$BLIPMODE
 70
     0
  9
$CHAMFERA
 40
0.5
  9
$CHAMFERB
 40
0.5
  9
$SKPOLY
 70
     0
  9
$TDCREATE
 40
2451004.5629181708
  9
$TDUPDATE
 40
2454953.6415066081
  9
$TDINDWG
 40
0.0219128935
  9
$TDUSRTIMER
 40
0.0219128935
  9
$USRTIMER
 70
     1
  9
$ANGBASE
 50
0.0
  9
$ANGDIR
 70
     0
  9
$PDMODE
 70
     0
  9
$PDSIZE
 40
0.0
  9
$PLINEWID
 40
0.0
  9
$COORDS
 70
     1
  9
$SPLFRAME
 70
     0
  9
$SPLINETYPE
 70
     6
  9
$SPLINESEGS
 70
     8
  9
$ATTDIA
 70
     0
  9
$ATTREQ
 70
     1
  9
$HANDLING
 70
 10241
  9
$HANDSEED
  5
830C
  9
$SURFTAB1
 70
     6
  9
$SURFTAB2
 70
     6
  9
$SURFTYPE
 70
     6
  9
$SURFU
 70
     6
  9
$SURFV
 70
     6
  9
$UCSNAME
  2

  9
$UCSORG
 10
0.0
 20
0.0
 30
0.0
  9
$UCSXDIR
 10
1.0
 20
0.0
 30
0.0
  9
$UCSYDIR
 10
0.0
 20
1.0
 30
0.0
  9
$PUCSNAME
  2

  9
$PUCSORG
 10
0.0
 20
0.0
 30
0.0
  9
$PUCSXDIR
 10
1.0
 20
0.0
 30
0.0
  9
$PUCSYDIR
 10
0.0
 20
1.0
 30
0.0
  9
$USERI1
 70
     0
  9
$USERI2
 70
     0
  9
$USERI3
 70
     0
  9
$USERI4
 70
     0
  9
$USERI5
 70
     0
  9
$USERR1
 40
0.0
  9
$USERR2
 40
0.0
  9
$USERR3
 40
0.0
  9
$USERR4
 40
0.0
  9
$USERR5
 40
0.0
  9
$WORLDVIEW
 70
     1
  9
$SHADEDGE
 70
     3
  9
$SHADEDIF
 70
    70
  9
$TILEMODE
 70
     1
  9
$MAXACTVP
 70
    16
  9
$PLIMCHECK
 70
     0
  9
$PEXTMIN
 10
1.0000000000000000E+020
 20
1.0000000000000000E+020
 30
1.0000000000000000E+020
  9
$PEXTMAX
 10
-1.0000000000000000E+020
 20
-1.0000000000000000E+020
 30
-1.0000000000000000E+020
  9
$PLIMMIN
 10
0.0
 20
0.0
  9
$PLIMMAX
 10
12.0
 20
9.0
  9
$UNITMODE
 70
     0
  9
$VISRETAIN
 70
     0
  9
$PLINEGEN
 70
     0
  9
$PSLTSCALE
 70
     1
  0
ENDSEC
  0
SECTION
  2
TABLES
  0
TABLE
  2
VPORT
 70
     2
  0
VPORT
  2
*ACTIVE
 70
     0
 10
0.0
 20
0.0
 11
1.0
 21
1.0
 12
4949.9284844675049
 22
857.46064632159323
 13
0.0
 23
0.0
 14
10.0
 24
10.0
 15
10.0
 25
10.0
 16
0.0
 26
0.0
 36
1.0
 17
0.0
 27
0.0
 37
0.0
 40
2166.827377044312
 41
3.1666666666666661
 42
50.0
 43
0.0
 44
0.0
 50
0.0
 51
0.0
 71
     0
 72
   100
 73
     1
 74
     0
 75
     0
 76
     0
 77
     0
 78
     0
  0
ENDTAB
  0
TABLE
  2
LTYPE
 70
     2
  0
LTYPE
  2
CONTINUOUS
 70
     0
  3
Solid line
 72
    65
 73
     0
 40
0.0
  0
LTYPE
  2
CENTER
 70
     0
  3
____ _ ____ _ ____ _ ____ _ ____ _ ____ _ ____ 
 72
    65
 73
     4
 40
2.0
 49
1.25
 49
-0.25
 49
0.25
 49
-0.25
  0
ENDTAB
  0
TABLE
  2
LAYER
 70
     6
  0
LAYER
  2
0
 70
     0
 62
     7
  6
CONTINUOUS
  0
LAYER
  2
3
 70
     0
 62
     2
  6
CONTINUOUS
  0
LAYER
  2
2
 70
     0
 62
     3
  6
CENTER
  0
LAYER
  2
1
 70
     0
 62
     4
  6
CONTINUOUS
  0
LAYER
  2
4
 70
     0
 62
     7
  6
CONTINUOUS
  0
LAYER
  2
DEFPOINTS
 70
     0
 62
     7
  6
CONTINUOUS
  0
ENDTAB
  0
TABLE
  2
STYLE
 70
     1
  0
STYLE
  2
STANDARD
 70
     0
 40
0.0
 41
1.0
 50
0.0
 71
     0
 42
180.0
  3
simplex.shx
  4
extfont.shx
  0
ENDTAB
  0
TABLE
  2
VIEW
 70
     0
  0
ENDTAB
  0
TABLE
  2
UCS
 70
     0
  0
ENDTAB
  0
TABLE
  2
APPID
 70
     1
  0
APPID
  2
ACAD
 70
     0
  0
ENDTAB
  0
TABLE
  2
DIMSTYLE
 70
     1
  0
DIMSTYLE
  2
IGA
 70
     0
  3

  4

  5

  6
OPEN
  7
OPEN
 40
2.0
 41
2.0
 42
0.5
 43
10.0
 44
1.0
 45
0.0
 46
0.0
 47
1.0
 48
1.0
140
3.0
141
0.0
142
0.0
143
0.03937
144
1.0
145
0.0
146
10.0
147
1.0
 71
     0
 72
     0
 73
     0
 74
     0
 75
     0
 76
     0
 77
     1
 78
     8
170
     0
171
     2
172
     0
173
     1
174
     0
175
     0
176
     0
177
     0
178
     0
  0
ENDTAB
  0
ENDSEC
  0
SECTION
  2
BLOCKS
  0
BLOCK
  8
0
  2
$MODEL_SPACE
 70
     0
 10
0.0
 20
0.0
 30
0.0
  3
$MODEL_SPACE
  1

  0
ENDBLK
  5
1B
  8
0
  0
BLOCK
 67
     1
  8
0
  2
$PAPER_SPACE
 70
     0
 10
0.0
 20
0.0
 30
0.0
  3
$PAPER_SPACE
  1

  0
ENDBLK
  5
18
 67
     1
  8
0
  0
BLOCK
  8
0
  2
*D0
 70
     1
 10
0.0
 20
0.0
 30
0.0
  3
*D0
  1

  0
LINE
  5
8249
  8
3
 62
     0
 10
890.8592486212018
 20
3205.495287860294
 30
0.0
 11
890.8592486212018
 21
3518.540766878361
 31
0.0
  0
LINE
  5
824A
  8
3
 62
     0
 10
2050.8592486212019
 20
2120.495287860294
 30
0.0
 11
2050.8592486212019
 21
3518.540766878361
 31
0.0
  0
LINE
  5
824B
  8
3
 62
     0
 10
940.8592486212018
 20
3493.540766878361
 30
0.0
 11
2000.8592486212019
 21
3493.540766878361
 31
0.0
  0
INSERT
  5
824C
  8
3
 62
     0
  2
_OPEN
 10
890.8592486212018
 20
3493.540766878361
 30
0.0
 41
50.0
 42
50.0
 43
50.0
 50
180.0
  0
INSERT
  5
824D
  8
3
 62
     0
  2
_OPEN
 10
2050.8592486212019
 20
3493.540766878361
 30
0.0
 41
50.0
 42
50.0
 43
50.0
  0
TEXT
  8
3
  40
75
  5
82F8
  62
0
  72
0
  71
0
 10
1320.86
 20
3423.29
 30
0.000000
  1
1160
  0
POINT
  5
824F
  8
DEFPOINTS
 62
     0
 10
890.8592486212018
 20
3192.995287860294
 30
0.0
  0
POINT
  5
8250
  8
DEFPOINTS
 62
     0
 10
2050.8592486212019
 20
2107.995287860294
 30
0.0
  0
POINT
  5
8251
  8
DEFPOINTS
 62
     0
 10
2050.8592486212019
 20
3493.540766878361
 30
0.0
  0
ENDBLK
  5
7EBC
  8
0
  0
BLOCK
  8
0
  2
*D1
 70
     1
 10
0.0
 20
0.0
 30
0.0
  3
*D1
  1

  0
LINE
  5
8252
  8
3
 62
     0
 10
890.8592486212018
 20
3205.495287860294
 30
0.0
 11
890.8592486212018
 21
3367.8690129762799
 31
0.0
  0
LINE
  5
8253
  8
3
 62
     0
 10
1350.8592486212019
 20
3229.0461721281758
 30
0.0
 11
1350.8592486212019
 21
3367.8690129762799
 31
0.0
  0
LINE
  5
8254
  8
3
 62
     0
 10
940.8592486212018
 20
3342.8690129762799
 30
0.0
 11
1300.8592486212019
 21
3342.8690129762799
 31
0.0
  0
INSERT
  5
8255
  8
3
 62
     0
  2
_OPEN
 10
890.8592486212018
 20
3342.8690129762799
 30
0.0
 41
50.0
 42
50.0
 43
50.0
 50
180.0
  0
INSERT
  5
8256
  8
3
 62
     0
  2
_OPEN
 10
1350.8592486212019
 20
3342.8690129762799
 30
0.0
 41
50.0
 42
50.0
 43
50.0
  0
TEXT
  8
3
  40
75
  5
82F9
  62
0
  72
0
  71
0
 10
970.859
 20
3272.62
 30
0.000000
  1
460
  0
POINT
  5
8258
  8
DEFPOINTS
 62
     0
 10
890.8592486212018
 20
3192.995287860294
 30
0.0
  0
POINT
  5
8259
  8
DEFPOINTS
 62
     0
 10
1350.8592486212019
 20
3216.5461721281758
 30
0.0
  0
POINT
  5
825A
  8
DEFPOINTS
 62
     0
 10
1350.8592486212019
 20
3342.8690129762799
 30
0.0
  0
ENDBLK
  5
7F1F
  8
0
  0
BLOCK
  8
0
  2
*D2
 70
     1
 10
0.0
 20
0.0
 30
0.0
  3
*D2
  1

  0
LINE
  5
825B
  8
3
 62
     0
 10
824.7166880636978
 20
2472.995287860294
 30
0.0
 11
565.3821005426654
 21
2472.995287860294
 31
0.0
  0
LINE
  5
825C
  8
3
 62
     0
 10
938.35924862120203
 20
1967.995287860294
 30
0.0
 11
565.38210054266517
 21
1967.995287860294
 31
0.0
  0
LINE
  5
825D
  8
3
 62
     0
 10
590.3821005426654
 20
2422.995287860294
 30
0.0
 11
590.38210054266517
 21
2017.995287860294
 31
0.0
  0
INSERT
  5
825E
  8
3
 62
     0
  2
_OPEN
 10
590.3821005426654
 20
2472.995287860294
 30
0.0
 41
50.0
 42
50.0
 43
50.0
 50
90.0
  0
INSERT
  5
825F
  8
3
 62
     0
  2
_OPEN
 10
590.38210054266517
 20
1967.995287860294
 30
0.0
 41
50.0
 42
50.0
 43
50.0
 50
270.0
  0
TEXT
  8
3
  40
75
  5
82FA
  62
0
  72
0
  71
0
 10
377.882
 20
2087.75
 30
0.000000
  1
505
  0
POINT
  5
8261
  8
DEFPOINTS
 62
     0
 10
837.2166880636978
 20
2472.995287860294
 30
0.0
  0
POINT
  5
8262
  8
DEFPOINTS
 62
     0
 10
950.85924862120203
 20
1967.995287860294
 30
0.0
  0
POINT
  5
8263
  8
DEFPOINTS
 62
     0
 10
590.38210054266517
 20
1967.995287860294
 30
0.0
  0
ENDBLK
  5
7EC7
  8
0
  0
BLOCK
  8
0
  2
*D3
 70
     1
 10
0.0
 20
0.0
 30
0.0
  3
*D3
  1

  0
LINE
  5
8264
  8
3
 62
     0
 10
878.3592486212018
 20
3150.995287860294
 30
0.0
 11
565.3821005426654
 21
3150.995287860294
 31
0.0
  0
LINE
  5
8265
  8
3
 62
     0
 10
824.7166880636978
 20
2472.995287860294
 30
0.0
 11
565.38210054266517
 21
2472.995287860294
 31
0.0
  0
LINE
  5
8266
  8
3
 62
     0
 10
590.3821005426654
 20
3100.995287860294
 30
0.0
 11
590.38210054266517
 21
2522.995287860294
 31
0.0
  0
INSERT
  5
8267
  8
3
 62
     0
  2
_OPEN
 10
590.3821005426654
 20
3150.995287860294
 30
0.0
 41
50.0
 42
50.0
 43
50.0
 50
90.0
  0
INSERT
  5
8268
  8
3
 62
     0
  2
_OPEN
 10
590.38210054266517
 20
2472.995287860294
 30
0.0
 41
50.0
 42
50.0
 43
50.0
 50
270.0
  0
TEXT
  8
3
  40
75
  5
82FB
  62
0
  72
0
  71
0
 10
377.882
 20
2679.25
 30
0.000000
  1
678
  0
POINT
  5
826A
  8
DEFPOINTS
 62
     0
 10
890.8592486212018
 20
3150.995287860294
 30
0.0
  0
POINT
  5
826B
  8
DEFPOINTS
 62
     0
 10
837.2166880636978
 20
2472.995287860294
 30
0.0
  0
POINT
  5
826C
  8
DEFPOINTS
 62
     0
 10
590.38210054266517
 20
2472.995287860294
 30
0.0
  0
ENDBLK
  5
7EDD
  8
0
  0
BLOCK
  8
0
  2
*D4
 70
     1
 10
0.0
 20
0.0
 30
0.0
  3
*D4
  1

  0
LINE
  5
826D
  8
3
 62
     0
 10
878.3592486212018
 20
3150.995287860294
 30
0.0
 11
716.9097244549813
 21
3150.995287860294
 31
0.0
  0
LINE
  5
826E
  8
3
 62
     0
 10
878.3592486212018
 20
2500.995287860294
 30
0.0
 11
716.90972445498119
 21
2500.995287860294
 31
0.0
  0
LINE
  5
826F
  8
3
 62
     0
 10
741.9097244549813
 20
3100.995287860294
 30
0.0
 11
741.90972445498119
 21
2550.995287860294
 31
0.0
  0
INSERT
  5
8270
  8
3
 62
     0
  2
_OPEN
 10
741.9097244549813
 20
3150.995287860294
 30
0.0
 41
50.0
 42
50.0
 43
50.0
 50
90.0
  0
INSERT
  5
8271
  8
3
 62
     0
  2
_OPEN
 10
741.90972445498119
 20
2500.995287860294
 30
0.0
 41
50.0
 42
50.0
 43
50.0
 50
270.0
  0
TEXT
  8
3
  40
75
  5
82FC
  62
0
  72
0
  71
0
 10
529.410
 20
2693.25
 30
0.000000
  1
650
  0
POINT
  5
8273
  8
DEFPOINTS
 62
     0
 10
890.8592486212018
 20
3150.995287860294
 30
0.0
  0
POINT
  5
8274
  8
DEFPOINTS
 62
     0
 10
890.8592486212018
 20
2500.995287860294
 30
0.0
  0
POINT
  5
8275
  8
DEFPOINTS
 62
     0
 10
741.90972445498119
 20
2500.995287860294
 30
0.0
  0
ENDBLK
  5
7ED2
  8
0
  0
BLOCK
  8
0
  2
*D5
 70
     1
 10
0.0
 20
0.0
 30
0.0
  3
*D5
  1

  0
LINE
  5
8276
  8
3
 62
     0
 10
1350.8592486212019
 20
3229.0461721281758
 30
0.0
 11
1350.8592486212019
 21
3367.8690129762799
 31
0.0
  0
LINE
  5
8277
  8
3
 62
     0
 10
1896.649785820937
 20
2485.495287860294
 30
0.0
 11
1896.649785820937
 21
3367.8690129762799
 31
0.0
  0
LINE
  5
8278
  8
3
 62
     0
 10
1400.8592486212019
 20
3342.8690129762799
 30
0.0
 11
1846.6497858209359
 21
3342.8690129762799
 31
0.0
  0
INSERT
  5
8279
  8
3
 62
     0
  2
_OPEN
 10
1350.8592486212019
 20
3342.8690129762799
 30
0.0
 41
50.0
 42
50.0
 43
50.0
 50
180.0
  0
INSERT
  5
827A
  8
3
 62
     0
  2
_OPEN
 10
1896.649785820937
 20
3342.8690129762799
 30
0.0
 41
50.0
 42
50.0
 43
50.0
  0
TEXT
  8
3
  40
75
  5
82FD
  62
0
  72
0
  71
0
 10
1473.75
 20
3272.62
 30
0.000000
  1
548
  0
POINT
  5
827C
  8
DEFPOINTS
 62
     0
 10
1350.8592486212019
 20
3216.5461721281758
 30
0.0
  0
POINT
  5
827D
  8
DEFPOINTS
 62
     0
 10
1896.649785820937
 20
2472.995287860294
 30
0.0
  0
POINT
  5
827E
  8
DEFPOINTS
 62
     0
 10
1896.649785820937
 20
3342.8690129762799
 30
0.0
  0
ENDBLK
  5
7F14
  8
0
  0
BLOCK
  8
0
  2
*D6
 70
     1
 10
0.0
 20
0.0
 30
0.0
  3
*D6
  1

  0
LINE
  5
827F
  8
3
 62
     0
 10
1100.8592486212019
 20
4097.2117765064986
 30
0.0
 11
1100.8592486212019
 21
3792.8311002204659
 31
0.0
  0
LINE
  5
8280
  8
3
 62
     0
 10
2030.8592486212019
 20
4097.2117765064986
 30
0.0
 11
2030.8592486212019
 21
3792.8311002204659
 31
0.0
  0
LINE
  5
8281
  8
3
 62
     0
 10
1150.8592486212019
 20
3817.8311002204659
 30
0.0
 11
1980.8592486212019
 21
3817.8311002204659
 31
0.0
  0
INSERT
  5
8282
  8
3
 62
     0
  2
_OPEN
 10
1100.8592486212019
 20
3817.8311002204659
 30
0.0
 41
50.0
 42
50.0
 43
50.0
 50
180.0
  0
INSERT
  5
8283
  8
3
 62
     0
  2
_OPEN
 10
2030.8592486212019
 20
3817.8311002204659
 30
0.0
 41
50.0
 42
50.0
 43
50.0
  0
TEXT
  8
3
  40
75
  5
82FE
  62
0
  72
0
  71
0
 10
1415.86
 20
3747.58
 30
0.000000
  1
930
  0
POINT
  5
8285
  8
DEFPOINTS
 62
     0
 10
1100.8592486212019
 20
4109.7117765064986
 30
0.0
  0
POINT
  5
8286
  8
DEFPOINTS
 62
     0
 10
2030.8592486212019
 20
4109.7117765064986
 30
0.0
  0
POINT
  5
8287
  8
DEFPOINTS
 62
     0
 10
2030.8592486212019
 20
3817.8311002204659
 30
0.0
  0
ENDBLK
  5
80AF
  8
0
  0
BLOCK
  8
0
  2
*D7
 70
     1
 10
0.0
 20
0.0
 30
0.0
  3
*D7
  1

  0
LINE
  5
8288
  8
3
 62
     0
 10
1750.8592486212019
 20
5322.2117765064986
 30
0.0
 11
1750.8592486212019
 21
5480.2856631102513
 31
0.0
  0
LINE
  5
8289
  8
3
 62
     0
 10
950.85924862120203
 20
5322.2117765064986
 30
0.0
 11
950.85924862120203
 21
5480.2856631102513
 31
0.0
  0
LINE
  5
828A
  8
3
 62
     0
 10
1700.8592486212019
 20
5455.2856631102513
 30
0.0
 11
1000.859248621202
 21
5455.2856631102513
 31
0.0
  0
INSERT
  5
828B
  8
3
 62
     0
  2
_OPEN
 10
1750.8592486212019
 20
5455.2856631102513
 30
0.0
 41
50.0
 42
50.0
 43
50.0
  0
INSERT
  5
828C
  8
3
 62
     0
  2
_OPEN
 10
950.85924862120203
 20
5455.2856631102513
 30
0.0
 41
50.0
 42
50.0
 43
50.0
 50
180.0
  0
TEXT
  8
3
  40
75
  5
82FF
  62
0
  72
0
  71
0
 10
1200.86
 20
5385.04
 30
0.000000
  1
800
  0
POINT
  5
828E
  8
DEFPOINTS
 62
     0
 10
1750.8592486212019
 20
5309.7117765065004
 30
0.0
  0
POINT
  5
828F
  8
DEFPOINTS
 62
     0
 10
950.85924862120203
 20
5309.7117765065004
 30
0.0
  0
POINT
  5
8290
  8
DEFPOINTS
 62
     0
 10
950.85924862120203
 20
5455.2856631102513
 30
0.0
  0
ENDBLK
  5
80D0
  8
0
  0
BLOCK
  8
0
  2
*D8
 70
     1
 10
0.0
 20
0.0
 30
0.0
  3
*D8
  1

  0
LINE
  5
8291
  8
3
 62
     0
 10
938.35924862120203
 20
5309.7117765065004
 30
0.0
 11
716.40544576047807
 21
5309.7117765065004
 31
0.0
  0
LINE
  5
8292
  8
3
 62
     0
 10
1088.3592486212019
 20
4109.7117765064986
 30
0.0
 11
716.40544576047785
 21
4109.7117765064986
 31
0.0
  0
LINE
  5
8293
  8
3
 62
     0
 10
741.40544576047807
 20
5259.7117765064986
 30
0.0
 11
741.40544576047785
 21
4159.7117765064986
 31
0.0
  0
INSERT
  5
8294
  8
3
 62
     0
  2
_OPEN
 10
741.40544576047807
 20
5309.7117765065004
 30
0.0
 41
50.0
 42
50.0
 43
50.0
 50
90.0
  0
INSERT
  5
8295
  8
3
 62
     0
  2
_OPEN
 10
741.40544576047785
 20
4109.7117765064986
 30
0.0
 41
50.0
 42
50.0
 43
50.0
 50
270.0
  0
TEXT
  8
3
  40
75
  5
8300
  62
0
  72
0
  71
0
 10
528.905
 20
4576.96
 30
0.000000
  1
1200
  0
POINT
  5
8297
  8
DEFPOINTS
 62
     0
 10
950.85924862120203
 20
5309.7117765065004
 30
0.0
  0
POINT
  5
8298
  8
DEFPOINTS
 62
     0
 10
1100.8592486212019
 20
4109.7117765064986
 30
0.0
  0
POINT
  5
8299
  8
DEFPOINTS
 62
     0
 10
741.40544576047785
 20
4109.7117765064986
 30
0.0
  0
ENDBLK
  5
80C5
  8
0
  0
BLOCK
  8
0
  2
*D9
 70
     1
 10
0.0
 20
0.0
 30
0.0
  3
*D9
  1

  0
LINE
  5
829A
  8
3
 62
     0
 10
1100.8592486212019
 20
4097.2117765064986
 30
0.0
 11
1100.8592486212019
 21
3792.8311002204659
 31
0.0
  0
LINE
  5
829B
  8
3
 62
     0
 10
950.85924862120203
 20
4711.2117765064986
 30
0.0
 11
950.8592486212018
 21
3792.8311002204659
 31
0.0
  0
LINE
  5
829C
  8
3
 62
     0
 10
1050.8592486212019
 20
3817.8311002204659
 30
0.0
 11
1000.859248621202
 21
3817.8311002204659
 31
0.0
  0
LINE
  5
829D
  8
3
 62
     0
 10
950.85924862120203
 20
3817.8311002204659
 30
0.0
 11
672.28782004977336
 21
3817.8311002204659
 31
0.0
  0
INSERT
  5
829E
  8
3
 62
     0
  2
_OPEN
 10
1100.8592486212019
 20
3817.8311002204659
 30
0.0
 41
50.0
 42
50.0
 43
50.0
  0
INSERT
  5
829F
  8
3
 62
     0
  2
_OPEN
 10
950.85924862120203
 20
3817.8311002204659
 30
0.0
 41
50.0
 42
50.0
 43
50.0
 50
180.0
  0
TEXT
  8
3
  40
75
  5
8301
  62
0
  72
0
  71
0
 10
636.574
 20
3747.58
 30
0.000000
  1
150
  0
POINT
  5
82A1
  8
DEFPOINTS
 62
     0
 10
1100.8592486212019
 20
4109.7117765064986
 30
0.0
  0
POINT
  5
82A2
  8
DEFPOINTS
 62
     0
 10
950.85924862120203
 20
4723.7117765064986
 30
0.0
  0
POINT
  5
82A3
  8
DEFPOINTS
 62
     0
 10
950.85924862120203
 20
3817.8311002204659
 30
0.0
  0
ENDBLK
  5
8099
  8
0
  0
BLOCK
  8
0
  2
*D10
 70
     1
 10
0.0
 20
0.0
 30
0.0
  3
*D10
  1

  0
LINE
  5
82A4
  8
3
 62
     0
 10
2043.359248621201
 20
4109.7117765064986
 30
0.0
 11
2204.2884202326441
 21
4109.7117765064977
 31
0.0
  0
LINE
  5
82A5
  8
3
 62
     0
 10
2043.359248621201
 20
4773.7117765064986
 30
0.0
 11
2204.2884202326441
 21
4773.7117765064977
 31
0.0
  0
LINE
  5
82A6
  8
3
 62
     0
 10
2179.2884202326441
 20
4159.7117765064977
 30
0.0
 11
2179.2884202326441
 21
4723.7117765064977
 31
0.0
  0
INSERT
  5
82A7
  8
3
 62
     0
  2
_OPEN
 10
2179.2884202326441
 20
4109.7117765064977
 30
0.0
 41
50.0
 42
50.0
 43
50.0
 50
270.0
  0
INSERT
  5
82A8
  8
3
 62
     0
  2
_OPEN
 10
2179.2884202326441
 20
4773.7117765064977
 30
0.0
 41
50.0
 42
50.0
 43
50.0
 50
90.0
  0
TEXT
  8
3
  40
75
  5
8302
  62
0
  72
0
  71
0
 10
1966.79
 20
4308.96
 30
0.000000
  1
664
  0
POINT
  5
82AA
  8
DEFPOINTS
 62
     0
 10
2030.8592486212019
 20
4109.7117765064986
 30
0.0
  0
POINT
  5
82AB
  8
DEFPOINTS
 62
     0
 10
2030.8592486212019
 20
4773.7117765064986
 30
0.0
  0
POINT
  5
82AC
  8
DEFPOINTS
 62
     0
 10
2179.2884202326441
 20
4773.7117765064977
 30
0.0
  0
ENDBLK
  5
80BA
  8
0
  0
BLOCK
  8
0
  2
*D11
 70
     1
 10
0.0
 20
0.0
 30
0.0
  3
*D11
  1

  0
LINE
  5
8115
  8
0
  6
BYBLOCK
 62
     0
 10
1750.8592486212019
 20
5322.2117765064986
 30
0.0
 11
1750.8592486212019
 21
5480.2856631102513
 31
0.0
  0
LINE
  5
8116
  8
0
  6
BYBLOCK
 62
     0
 10
2030.8592486212019
 20
4786.2117765064986
 30
0.0
 11
2030.8592486212019
 21
5480.2856631102513
 31
0.0
  0
LINE
  5
8117
  8
0
  6
BYBLOCK
 62
     0
 10
1800.8592486212019
 20
5455.2856631102513
 30
0.0
 11
1980.8592486212019
 21
5455.2856631102513
 31
0.0
  0
TEXT
  5
8118
  8
3
 62
     0
 10
1794.4306771926299
 20
5483.0984648101539
 30
0.0
 40
75.0
  1
280
  0
INSERT
  5
8119
  8
0
  6
BYBLOCK
 62
     0
  2
_OPEN
 10
1750.8592486212019
 20
5455.2856631102513
 30
0.0
 41
50.0
 42
50.0
 43
50.0
 50
180.0
  0
INSERT
  5
811A
  8
0
  6
BYBLOCK
 62
     0
  2
_OPEN
 10
2030.8592486212019
 20
5455.2856631102513
 30
0.0
 41
50.0
 42
50.0
 43
50.0
  0
POINT
  5
811B
  8
DEFPOINTS
  6
BYBLOCK
 62
     0
 10
1750.8592486212019
 20
5309.7117765065004
 30
0.0
  0
POINT
  5
811C
  8
DEFPOINTS
  6
BYBLOCK
 62
     0
 10
2030.8592486212019
 20
4773.7117765064986
 30
0.0
  0
POINT
  5
811D
  8
DEFPOINTS
  6
BYBLOCK
 62
     0
 10
2030.8592486212019
 20
5455.2856631102513
 30
0.0
  0
ENDBLK
  5
811E
  8
0
  0
BLOCK
  8
0
  2
*D12
 70
     1
 10
0.0
 20
0.0
 30
0.0
  3
*D12
  1

  0
LINE
  5
82AD
  8
3
 62
     0
 10
2839.5987176104841
 20
2635.495287860294
 30
0.0
 11
2839.5987176104841
 21
3518.323685294492
 31
0.0
  0
LINE
  5
82AE
  8
3
 62
     0
 10
3884.5987176104841
 20
3468.0271433918001
 30
0.0
 11
3884.5987176104841
 21
3518.323685294492
 31
0.0
  0
LINE
  5
82AF
  8
3
 62
     0
 10
2889.5987176104841
 20
3493.323685294492
 30
0.0
 11
3834.5987176104841
 21
3493.323685294492
 31
0.0
  0
INSERT
  5
82B0
  8
3
 62
     0
  2
_OPEN
 10
2839.5987176104841
 20
3493.323685294492
 30
0.0
 41
50.0
 42
50.0
 43
50.0
 50
180.0
  0
INSERT
  5
82B1
  8
3
 62
     0
  2
_OPEN
 10
3884.5987176104841
 20
3493.323685294492
 30
0.0
 41
50.0
 42
50.0
 43
50.0
  0
TEXT
  8
3
  40
75
  5
8303
  62
0
  72
0
  71
0
 10
3212.10
 20
3485.57
 30
0.000000
  1
MAX
  0
TEXT
  8
3
  40
75
  5
8304
  62
0
  72
0
  71
0
 10
3212.10
 20
3388.07
 30
0.000000
  1
1070
  0
POINT
  5
82B3
  8
DEFPOINTS
 62
     0
 10
2839.5987176104841
 20
2622.9952878602949
 30
0.0
  0
POINT
  5
82B4
  8
DEFPOINTS
 62
     0
 10
3884.5987176104841
 20
3455.527143391801
 30
0.0
  0
POINT
  5
82B5
  8
DEFPOINTS
 62
     0
 10
3884.5987176104841
 20
3493.323685294492
 30
0.0
  0
ENDBLK
  5
818D
  8
0
  0
BLOCK
  8
0
  2
*D13
 70
     1
 10
0.0
 20
0.0
 30
0.0
  3
*D13
  1

  0
LINE
  5
82B6
  8
3
 62
     0
 10
3647.0987176104841
 20
3163.995287860294
 30
0.0
 11
3647.0987176104841
 21
3367.8859574667572
 31
0.0
  0
LINE
  5
82B7
  8
3
 62
     0
 10
4122.0987176104854
 20
3163.995287860294
 30
0.0
 11
4122.0987176104854
 21
3367.8859574667572
 31
0.0
  0
LINE
  5
82B8
  8
3
 62
     0
 10
3697.0987176104841
 20
3342.8859574667572
 30
0.0
 11
4072.098717610485
 21
3342.8859574667572
 31
0.0
  0
INSERT
  5
82B9
  8
3
 62
     0
  2
_OPEN
 10
3647.0987176104841
 20
3342.8859574667572
 30
0.0
 41
50.0
 42
50.0
 43
50.0
 50
180.0
  0
INSERT
  5
82BA
  8
3
 62
     0
  2
_OPEN
 10
4122.0987176104854
 20
3342.8859574667572
 30
0.0
 41
50.0
 42
50.0
 43
50.0
  0
TEXT
  8
3
  40
75
  5
8305
  62
0
  72
0
  71
0
 10
3734.60
 20
3272.64
 30
0.000000
  1
475
  0
POINT
  5
82BC
  8
DEFPOINTS
 62
     0
 10
3647.0987176104841
 20
3151.495287860294
 30
0.0
  0
POINT
  5
82BD
  8
DEFPOINTS
 62
     0
 10
4122.0987176104854
 20
3151.495287860294
 30
0.0
  0
POINT
  5
82BE
  8
DEFPOINTS
 62
     0
 10
4122.0987176104854
 20
3342.8859574667572
 30
0.0
  0
ENDBLK
  5
7F9E
  8
0
  0
BLOCK
  8
0
  2
_OPEN
 70
     0
 10
0.0
 20
0.0
 30
0.0
  3
_OPEN
  1

  0
LINE
  5
7EA3
  8
0
  6
BYBLOCK
 62
     0
 10
-1.0
 20
0.1666666666666666
 30
0.0
 11
0.0
 21
0.0
 31
0.0
  0
LINE
  5
7EA4
  8
0
  6
BYBLOCK
 62
     0
 10
0.0
 20
0.0
 30
0.0
 11
-1.0
 21
-0.1666666666666666
 31
0.0
  0
LINE
  5
7EA5
  8
0
  6
BYBLOCK
 62
     0
 10
0.0
 20
0.0
 30
0.0
 11
-1.0
 21
0.0
 31
0.0
  0
ENDBLK
  5
7EA6
  8
0
  0
BLOCK
  8
0
  2
_DOT
 70
     0
 10
0.0
 20
0.0
 30
0.0
  3
_DOT
  1

  0
LINE
  5
8163
  8
0
  6
BYBLOCK
 62
     0
 10
0.0
 20
0.0
 30
0.0
 11
-1.0
 21
-0.0000000000000284
 31
0.0
  0
POLYLINE
  5
8164
  8
0
  6
BYBLOCK
 62
     0
 66
     1
 10
0.0
 20
0.0
 30
0.0
 70
     1
 40
0.1666666666666666
 41
0.1666666666666666
  0
VERTEX
  5
82BF
  8
0
  6
BYBLOCK
 62
     0
 10
-0.0833333333333286
 20
-0.0000000000000284
 30
0.0
 42
1.0
  0
VERTEX
  5
82C0
  8
0
  6
BYBLOCK
 62
     0
 10
0.0833333333333286
 20
-0.0000000000000284
 30
0.0
 42
1.0
  0
SEQEND
  5
82C1
  8
0
  6
BYBLOCK
 62
     0
  0
ENDBLK
  5
7FED
  8
0
  0
BLOCK
  8
0
  2
*D16
 70
     1
 10
0.0
 20
0.0
 30
0.0
  3
*D16
  1

  0
LINE
  5
814F
  8
0
  6
BYBLOCK
 62
     0
 10
4125.5987176104836
 20
3164.2682532970939
 30
0.0
 11
4125.5987176104836
 21
3518.323685294492
 31
0.0
  0
LINE
  5
8150
  8
0
  6
BYBLOCK
 62
     0
 10
3934.5987176104841
 20
3493.323685294492
 30
0.0
 11
4075.598717610485
 21
3493.323685294492
 31
0.0
  0
TEXT
  5
8151
  8
3
 62
     0
 10
3924.741574753341
 20
3515.8647021717511
 30
0.0
 40
75.0
  1
241
  0
INSERT
  5
8152
  8
0
  6
BYBLOCK
 62
     0
  2
_OPEN
 10
3884.5987176104841
 20
3493.323685294492
 30
0.0
 41
50.0
 42
50.0
 43
50.0
 50
180.0
  0
INSERT
  5
8153
  8
0
  6
BYBLOCK
 62
     0
  2
_OPEN
 10
4125.5987176104836
 20
3493.323685294492
 30
0.0
 41
50.0
 42
50.0
 43
50.0
  0
POINT
  5
8154
  8
DEFPOINTS
  6
BYBLOCK
 62
     0
 10
3884.5987176104841
 20
3455.527143391801
 30
0.0
  0
POINT
  5
8155
  8
DEFPOINTS
  6
BYBLOCK
 62
     0
 10
4125.5987176104836
 20
3151.7682532970939
 30
0.0
  0
POINT
  5
8156
  8
DEFPOINTS
  6
BYBLOCK
 62
     0
 10
4125.5987176104836
 20
3493.323685294492
 30
0.0
  0
ENDBLK
  5
8157
  8
0
  0
BLOCK
  8
0
  2
*D17
 70
     1
 10
0.0
 20
0.0
 30
0.0
  3
*D17
  1

  0
LINE
  5
82C2
  8
3
 62
     0
 10
950.85924862120203
 20
1955.495287860294
 30
0.0
 11
950.85924862120203
 21
1778.222732173246
 31
0.0
  0
LINE
  5
82C3
  8
3
 62
     0
 10
1350.8592486212019
 20
1955.495287860294
 30
0.0
 11
1350.8592486212019
 21
1778.222732173246
 31
0.0
  0
LINE
  5
82C4
  8
3
 62
     0
 10
1000.859248621202
 20
1803.222732173246
 30
0.0
 11
1300.8592486212019
 21
1803.222732173246
 31
0.0
  0
INSERT
  5
82C5
  8
3
 62
     0
  2
_OPEN
 10
950.85924862120203
 20
1803.222732173246
 30
0.0
 41
50.0
 42
50.0
 43
50.0
 50
180.0
  0
INSERT
  5
82C6
  8
3
 62
     0
  2
_OPEN
 10
1350.8592486212019
 20
1803.222732173246
 30
0.0
 41
50.0
 42
50.0
 43
50.0
  0
TEXT
  8
3
  40
75
  5
8306
  62
0
  72
0
  71
0
 10
1000.86
 20
1732.97
 30
0.000000
  1
400
  0
POINT
  5
82C8
  8
DEFPOINTS
 62
     0
 10
950.85924862120203
 20
1967.995287860294
 30
0.0
  0
POINT
  5
82C9
  8
DEFPOINTS
 62
     0
 10
1350.8592486212019
 20
1967.995287860294
 30
0.0
  0
POINT
  5
82CA
  8
DEFPOINTS
 62
     0
 10
1350.8592486212019
 20
1803.222732173246
 30
0.0
  0
ENDBLK
  5
81D5
  8
0
  0
BLOCK
  8
0
  2
*D18
 70
     1
 10
0.0
 20
0.0
 30
0.0
  3
*D18
  1

  0
LINE
  5
82CB
  8
3
 62
     0
 10
1350.8592486212019
 20
1955.495287860294
 30
0.0
 11
1350.8592486212019
 21
1778.222732173246
 31
0.0
  0
LINE
  5
82CC
  8
3
 62
     0
 10
2030.8592486212019
 20
1955.495287860294
 30
0.0
 11
2030.8592486212019
 21
1778.222732173246
 31
0.0
  0
LINE
  5
82CD
  8
3
 62
     0
 10
1400.8592486212019
 20
1803.222732173246
 30
0.0
 11
1980.8592486212019
 21
1803.222732173246
 31
0.0
  0
INSERT
  5
82CE
  8
3
 62
     0
  2
_OPEN
 10
1350.8592486212019
 20
1803.222732173246
 30
0.0
 41
50.0
 42
50.0
 43
50.0
 50
180.0
  0
INSERT
  5
82CF
  8
3
 62
     0
  2
_OPEN
 10
2030.8592486212019
 20
1803.222732173246
 30
0.0
 41
50.0
 42
50.0
 43
50.0
  0
TEXT
  8
3
  40
75
  5
8307
  62
0
  72
0
  71
0
 10
1540.86
 20
1732.97
 30
0.000000
  1
680
  0
POINT
  5
82D1
  8
DEFPOINTS
 62
     0
 10
1350.8592486212019
 20
1967.995287860294
 30
0.0
  0
POINT
  5
82D2
  8
DEFPOINTS
 62
     0
 10
2030.8592486212019
 20
1967.995287860294
 30
0.0
  0
POINT
  5
82D3
  8
DEFPOINTS
 62
     0
 10
2030.8592486212019
 20
1803.222732173246
 30
0.0
  0
ENDBLK
  5
81E2
  8
0
  0
BLOCK
  8
0
  2
*D19
 70
     1
 10
0.0
 20
0.0
 30
0.0
  3
*D19
  1

  0
LINE
  5
82D4
  8
3
 62
     0
 10
2977.5987176104841
 20
1955.495287860294
 30
0.0
 11
2977.5987176104841
 21
1778.222732173246
 31
0.0
  0
LINE
  5
82D5
  8
3
 62
     0
 10
3884.5987176104841
 20
1955.495287860294
 30
0.0
 11
3884.5987176104841
 21
1778.222732173246
 31
0.0
  0
LINE
  5
82D6
  8
3
 62
     0
 10
3027.5987176104841
 20
1803.222732173246
 30
0.0
 11
3834.5987176104841
 21
1803.222732173246
 31
0.0
  0
INSERT
  5
82D7
  8
3
 62
     0
  2
_OPEN
 10
2977.5987176104841
 20
1803.222732173246
 30
0.0
 41
50.0
 42
50.0
 43
50.0
 50
180.0
  0
INSERT
  5
82D8
  8
3
 62
     0
  2
_OPEN
 10
3884.5987176104841
 20
1803.222732173246
 30
0.0
 41
50.0
 42
50.0
 43
50.0
  0
TEXT
  8
3
  40
75
  5
8308
  62
0
  72
0
  71
0
 10
3281.10
 20
1732.97
 30
0.000000
  1
907
  0
POINT
  5
82DA
  8
DEFPOINTS
 62
     0
 10
2977.5987176104841
 20
1967.995287860294
 30
0.0
  0
POINT
  5
82DB
  8
DEFPOINTS
 62
     0
 10
3884.5987176104841
 20
1967.995287860294
 30
0.0
  0
POINT
  5
82DC
  8
DEFPOINTS
 62
     0
 10
3884.5987176104841
 20
1803.222732173246
 30
0.0
  0
ENDBLK
  5
81EF
  8
0
  0
BLOCK
  8
0
  2
*D20
 70
     1
 10
0.0
 20
0.0
 30
0.0
  3
*D20
  1

  0
LINE
  5
82DD
  8
3
 62
     0
 10
3884.5987176104841
 20
1955.495287860294
 30
0.0
 11
3884.5987176104841
 21
1778.222732173246
 31
0.0
  0
LINE
  5
82DE
  8
3
 62
     0
 10
4177.5987176104854
 20
1955.495287860294
 30
0.0
 11
4177.5987176104854
 21
1778.222732173246
 31
0.0
  0
LINE
  5
82DF
  8
3
 62
     0
 10
3934.5987176104841
 20
1803.222732173246
 30
0.0
 11
4127.5987176104836
 21
1803.222732173246
 31
0.0
  0
INSERT
  5
82E0
  8
3
 62
     0
  2
_OPEN
 10
3884.5987176104841
 20
1803.222732173246
 30
0.0
 41
50.0
 42
50.0
 43
50.0
 50
180.0
  0
INSERT
  5
82E1
  8
3
 62
     0
  2
_OPEN
 10
4177.5987176104854
 20
1803.222732173246
 30
0.0
 41
50.0
 42
50.0
 43
50.0
  0
TEXT
  8
3
  40
75
  5
8309
  62
0
  72
0
  71
0
 10
3881.10
 20
1732.97
 30
0.000000
  1
293
  0
POINT
  5
82E3
  8
DEFPOINTS
 62
     0
 10
3884.5987176104841
 20
1967.995287860294
 30
0.0
  0
POINT
  5
82E4
  8
DEFPOINTS
 62
     0
 10
4177.5987176104854
 20
1967.995287860294
 30
0.0
  0
POINT
  5
82E5
  8
DEFPOINTS
 62
     0
 10
4177.5987176104854
 20
1803.222732173246
 30
0.0
  0
ENDBLK
  5
81FE
  8
0
  0
BLOCK
  8
0
  2
*D21
 70
     1
 10
0.0
 20
0.0
 30
0.0
  3
*D21
  1

  0
LINE
  5
82E6
  8
3
 62
     0
 10
878.3592486212018
 20
3192.995287860294
 30
0.0
 11
412.24535818569001
 21
3192.995287860294
 31
0.0
  0
LINE
  5
82E7
  8
3
 62
     0
 10
938.35924862120203
 20
1967.995287860294
 30
0.0
 11
412.24535818568978
 21
1967.995287860294
 31
0.0
  0
LINE
  5
82E8
  8
3
 62
     0
 10
437.24535818569001
 20
3142.995287860294
 30
0.0
 11
437.24535818568978
 21
2017.995287860294
 31
0.0
  0
INSERT
  5
82E9
  8
3
 62
     0
  2
_OPEN
 10
437.24535818569001
 20
3192.995287860294
 30
0.0
 41
50.0
 42
50.0
 43
50.0
 50
90.0
  0
INSERT
  5
82EA
  8
3
 62
     0
  2
_OPEN
 10
437.24535818568978
 20
1967.995287860294
 30
0.0
 41
50.0
 42
50.0
 43
50.0
 50
270.0
  0
TEXT
  8
3
  40
75
  5
830A
  62
0
  72
0
  71
0
 10
224.745
 20
2447.75
 30
0.000000
  1
1225
  0
POINT
  5
82EC
  8
DEFPOINTS
 62
     0
 10
890.8592486212018
 20
3192.995287860294
 30
0.0
  0
POINT
  5
82ED
  8
DEFPOINTS
 62
     0
 10
950.85924862120203
 20
1967.995287860294
 30
0.0
  0
POINT
  5
82EE
  8
DEFPOINTS
 62
     0
 10
437.24535818568978
 20
1967.995287860294
 30
0.0
  0
ENDBLK
  5
820B
  8
0
  0
BLOCK
  8
0
  2
*D22
 70
     1
 10
0.0
 20
0.0
 30
0.0
  3
*D22
  1

  0
LINE
  5
82EF
  8
3
 62
     0
 10
4134.5987176104854
 20
2787.995287860294
 30
0.0
 11
4359.447328600505
 21
2787.995287860294
 31
0.0
  0
LINE
  5
82F0
  8
3
 62
     0
 10
4134.5987176104827
 20
2157.995287860294
 30
0.0
 11
4359.447328600505
 21
2157.995287860294
 31
0.0
  0
LINE
  5
82F1
  8
3
 62
     0
 10
4334.4473286005041
 20
2737.995287860294
 30
0.0
 11
4334.4473286005041
 21
2207.995287860294
 31
0.0
  0
INSERT
  5
82F2
  8
3
 62
     0
  2
_OPEN
 10
4334.4473286005041
 20
2787.995287860294
 30
0.0
 41
50.0
 42
50.0
 43
50.0
 50
90.0
  0
INSERT
  5
82F3
  8
3
 62
     0
  2
_OPEN
 10
4334.4473286005041
 20
2157.995287860294
 30
0.0
 41
50.0
 42
50.0
 43
50.0
 50
270.0
  0
TEXT
  8
3
  40
75
  5
830B
  62
0
  72
0
  71
0
 10
4121.95
 20
2340.25
 30
0.000000
  1
φ630
  0
POINT
  5
82F5
  8
DEFPOINTS
 62
     0
 10
4122.0987176104854
 20
2787.995287860294
 30
0.0
  0
POINT
  5
82F6
  8
DEFPOINTS
 62
     0
 10
4122.0987176104827
 20
2157.995287860294
 30
0.0
  0
POINT
  5
82F7
  8
DEFPOINTS
 62
     0
 10
4334.4473286005041
 20
2157.995287860294
 30
0.0
  0
ENDBLK
  5
822E
  8
0
  0
ENDSEC
  0
SECTION
  2
ENTITIES
  0
DIMENSION
  5
7BDD
  8
3
  2
*D0
 10
2050.8592486212019
 20
3493.540766878361
 30
0.0
 11
1470.859248621201
 21
3556.040766878361
 31
0.0
 70
     0
 13
890.8592486212018
 23
3192.995287860294
 33
0.0
 14
2050.8592486212019
 24
2107.995287860294
 34
0.0
1001
ACAD
1000
DSTYLE
1002
{
1070
   287
1070
     3
1070
    40
1040
25.0
1070
   143
1040
0.039
1070
   172
1070
     1
1070
   271
1070
     0
1070
   279
1070
     0
1070
   288
1070
     1
1002
}
  0
DIMENSION
  5
7BDF
  8
3
  2
*D1
 10
1350.8592486212019
 20
3342.8690129762799
 30
0.0
 11
1120.859248621201
 21
3405.3690129762799
 31
0.0
 70
     0
 13
890.8592486212018
 23
3192.995287860294
 33
0.0
 14
1350.8592486212019
 24
3216.5461721281758
 34
0.0
1001
ACAD
1000
DSTYLE
1002
{
1070
   287
1070
     3
1070
    40
1040
25.0
1070
   143
1040
0.039
1070
   172
1070
     1
1070
   271
1070
     0
1070
   279
1070
     0
1070
   288
1070
     1
1002
}
  0
LINE
  5
7BE3
  8
1
 10
2050.8592486212019
 20
2067.995287860294
 30
0.0
 11
950.85924862120203
 21
2067.995287860294
 31
0.0
  0
LINE
  5
7BE4
  8
1
 10
2030.8592486212019
 20
1967.995287860294
 30
0.0
 11
950.85924862120203
 21
1967.995287860294
 31
0.0
1001
ACAD
1000
ASC_BOUNDS
1002
{
1070
    19
1002
}
  0
LINE
  5
7BE5
  8
1
 10
890.8592486212018
 20
3150.995287860294
 30
0.0
 11
1350.8592486212019
 21
3113.1360805899799
 31
0.0
  0
ARC
  5
7BE6
  8
1
 10
1388.859248621201
 20
2434.995287860294
 30
0.0
 40
416.0
 50
174.75894493870319
 51
228.54903858056781
  0
LINE
  5
7BE7
  8
2
 10
1956.3391345125419
 20
2472.995287860294
 30
0.0
 11
837.2166880636978
 21
2472.995287860294
 31
0.0
  0
DIMENSION
  5
7BE9
  8
3
  2
*D2
 10
590.38210054266517
 20
1967.995287860294
 30
0.0
 11
527.88210054266494
 21
2220.495287860294
 31
0.0
 70
     0
 13
837.2166880636978
 23
2472.995287860294
 33
0.0
 14
950.85924862120203
 24
1967.995287860294
 34
0.0
 50
270.0
1001
ACAD
1000
DSTYLE
1002
{
1070
   287
1070
     3
1070
    40
1040
25.0
1070
   143
1040
0.039
1070
   172
1070
     1
1070
   271
1070
     0
1070
   279
1070
     0
1070
   288
1070
     1
1002
}
  0
LINE
  5
7BEE
  8
3
 10
950.85924862120203
 20
1967.995287860294
 30
0.0
 11
570.38210054266528
 21
1967.995287860294
 31
0.0
  0
LINE
  5
7BFC
  8
1
 10
950.85924862120203
 20
2067.995287860294
 30
0.0
 11
950.85924862120203
 21
1967.995287860294
 31
0.0
  0
LINE
  5
7BFD
  8
1
 10
1100.8592486212019
 20
2067.995287860294
 30
0.0
 11
1100.8592486212019
 21
1967.995287860294
 31
0.0
  0
DIMENSION
  5
7BFE
  8
3
  2
*D3
 10
590.38210054266517
 20
2472.995287860294
 30
0.0
 11
527.88210054266494
 21
2811.995287860294
 31
0.0
 70
     0
 13
890.8592486212018
 23
3150.995287860294
 33
0.0
 14
837.2166880636978
 24
2472.995287860294
 34
0.0
 50
270.0
1001
ACAD
1000
DSTYLE
1002
{
1070
   287
1070
     3
1070
    40
1040
25.0
1070
   143
1040
0.039
1070
   172
1070
     1
1070
   271
1070
     0
1070
   279
1070
     0
1070
   288
1070
     1
1002
}
  0
DIMENSION
  5
7BFF
  8
3
  2
*D4
 10
741.90972445498119
 20
2500.995287860294
 30
0.0
 11
679.40972445498085
 21
2825.995287860294
 31
0.0
 70
     0
 13
890.8592486212018
 23
3150.995287860294
 33
0.0
 14
890.8592486212018
 24
2500.995287860294
 34
0.0
 50
270.0
1001
ACAD
1000
DSTYLE
1002
{
1070
   287
1070
     3
1070
    40
1040
25.0
1070
   143
1040
0.039
1070
   172
1070
     1
1070
   271
1070
     0
1070
   279
1070
     0
1070
   288
1070
     1
1002
}
  0
LINE
  5
7C00
  8
1
 10
893.85924862120191
 20
3192.995287860294
 30
0.0
 11
893.85924862120191
 21
2458.495287860294
 31
0.0
  0
LINE
  5
7C01
  8
1
 10
930.85924862120191
 20
3147.7031828802669
 30
0.0
 11
930.85924862120191
 21
2500.995287860294
 31
0.0
  0
LINE
  5
7C02
  8
1
 10
890.8592486212018
 20
3192.995287860294
 30
0.0
 11
890.8592486212018
 21
2458.495287860294
 31
0.0
  0
LINE
  5
7C03
  8
1
 10
979.3266415195867
 20
2500.995287860294
 30
0.0
 11
890.8592486212018
 21
2500.995287860294
 31
0.0
  0
LINE
  5
7C04
  8
1
 10
893.85924862120191
 20
2458.495287860294
 30
0.0
 11
890.8592486212018
 21
2458.495287860294
 31
0.0
  0
ARC
  5
7C05
  8
1
 10
1312.8592486212019
 20
2434.995287860294
 30
0.0
 40
340.0
 50
168.80681639431609
 51
173.58294685697129
  0
LINE
  5
7C06
  8
1
 10
893.85924862120191
 20
3192.995287860294
 30
0.0
 11
890.8592486212018
 21
3192.995287860294
 31
0.0
  0
LINE
  5
7C07
  8
1
 10
1298.0676594270039
 20
2332.592125109767
 30
0.0
 11
1798.0676594270039
 21
2144.592125109767
 31
0.0
  0
LINE
  5
7C08
  8
1
 10
1323.055678312257
 20
2399.0496221450171
 30
0.0
 11
1823.055678312257
 21
2211.0496221450171
 31
0.0
  0
ARC
  5
7C09
  8
1
 10
1850.8592486212019
 20
2284.995287860294
 30
0.0
 40
150.0
 50
249.39373938616311
 51
69.39373938616319
  0
CIRCLE
  5
7C0A
  8
1
 10
1850.8592486212019
 20
2284.995287860294
 30
0.0
 40
79.0
  0
LINE
  5
7C0B
  8
2
 10
1850.8592486212019
 20
2439.1943403806022
 30
0.0
 11
1850.8592486212019
 21
1967.995287860294
 31
0.0
  0
ARC
  5
7C0C
  8
1
 10
1850.8592486212019
 20
2284.995287860294
 30
0.0
 40
142.5
 50
326.96613161763833
 51
180.0
  0
ARC
  5
7C0D
  8
1
 10
1850.8592486212019
 20
2284.995287860294
 30
0.0
 40
142.5
 50
180.0
 51
213.0338076719878
  0
LINE
  5
7C10
  8
2
 10
1350.8592486212019
 20
3216.5461721281758
 30
0.0
 11
1350.8592486212019
 21
1967.995287860294
 31
0.0
  0
LINE
  5
7C12
  8
1
 10
2014.0134181566809
 20
2152.995287860294
 30
0.0
 11
1687.892335137843
 21
2152.995287860294
 31
0.0
  0
LINE
  5
7C13
  8
1
 10
1650.8592486212019
 20
2107.995287860294
 30
0.0
 11
1650.8592486212019
 21
2067.995287860294
 31
0.0
  0
ARC
  5
7C14
  8
1
 10
1397.8592486212019
 20
2519.995287860294
 30
0.0
 40
501.0
 50
295.55181196067792
 51
300.33068986829039
  0
LINE
  5
7C15
  8
1
 10
1675.8592486212019
 20
2107.995287860294
 30
0.0
 11
1650.8592486212019
 21
2107.995287860294
 31
0.0
  0
LINE
  5
7C16
  8
1
 10
1731.3945083011399
 20
2207.3137210618538
 30
0.0
 11
1720.859248621201
 21
2167.9952878602949
 31
0.0
  0
LINE
  5
7C17
  8
1
 10
1675.8592486212019
 20
2107.995287860294
 30
0.0
 11
1687.892335137843
 21
2152.995287860294
 31
0.0
  0
LINE
  5
7C18
  8
1
 10
1720.859248621201
 20
2167.7978878602948
 30
0.0
 11
1720.859248621201
 21
2152.995287860294
 31
0.0
  0
LINE
  5
7C19
  8
1
 10
2050.8592486212019
 20
2107.995287860294
 30
0.0
 11
2025.859248621201
 21
2107.995287860294
 31
0.0
  0
LINE
  5
7C1B
  8
1
 10
2030.8592486212019
 20
2067.995287860294
 30
0.0
 11
2030.8592486212019
 21
1967.995287860294
 31
0.0
  0
LINE
  5
7C1C
  8
1
 10
1970.3239066301239
 20
2207.3135944775472
 30
0.0
 11
1980.8592486212019
 21
2167.9952878602949
 31
0.0
  0
LINE
  5
7C1D
  8
1
 10
1980.8592486212019
 20
2167.7978878602948
 30
0.0
 11
1980.8592486212019
 21
2152.995287860294
 31
0.0
  0
LINE
  5
7C1E
  8
1
 10
2025.859248621201
 20
2107.995287860294
 30
0.0
 11
2014.0134181566809
 21
2152.995287860294
 31
0.0
  0
LINE
  5
7C1F
  8
1
 10
2050.8592486212019
 20
2107.995287860294
 30
0.0
 11
2050.8592486212019
 21
2067.995287860294
 31
0.0
  0
DIMENSION
  5
7C20
  8
3
  2
*D5
 10
1896.649785820937
 20
3342.8690129762799
 30
0.0
 11
1623.7545172210689
 21
3405.3690129762799
 31
0.0
 70
     0
  1
548
 13
1350.8592486212019
 23
3216.5461721281758
 33
0.0
 14
1896.649785820937
 24
2472.995287860294
 34
0.0
1001
ACAD
1000
DSTYLE
1002
{
1070
   287
1070
     3
1070
    40
1040
25.0
1070
   143
1040
0.039
1070
   172
1070
     1
1070
   271
1070
     0
1070
   279
1070
     0
1070
   288
1070
     1
1002
}
  0
LINE
  5
7C21
  8
1
 10
1403.650837815399
 20
2613.3984506108218
 30
0.0
 11
1903.650837815399
 21
2425.3984506108209
 31
0.0
  0
LINE
  5
7C22
  8
1
 10
1378.6628189301459
 20
2546.9409535755722
 30
0.0
 11
1878.6628189301459
 21
2358.9409535755722
 31
0.0
  0
LINE
  5
7C23
  8
2
 10
2016.396023883151
 20
2284.995287860294
 30
0.0
 11
1685.278221147651
 21
2284.995287860294
 31
0.0
  0
ARC
  5
7C24
  8
1
 10
1303.859248621201
 20
2519.995287860294
 30
0.0
 40
595.0
 50
355.46939495731738
 51
85.469394957317363
  0
CIRCLE
  5
7C25
  8
1
 10
1350.8592486212019
 20
2472.995287860294
 30
0.0
 40
79.0
  0
ARC
  5
7C27
  8
1
 10
1350.8592486212019
 20
2472.995287860294
 30
0.0
 40
150.0
 50
69.39373938616319
 51
249.39373938616311
  0
ARC
  5
7C28
  8
1
 10
1397.8592486212019
 20
2519.995287860294
 30
0.0
 40
501.0
 50
348.74738095984981
 51
354.61703135011862
  0
DIMENSION
  5
7C29
  8
3
  2
*D6
 10
2030.8592486212019
 20
3817.8311002204659
 30
0.0
 11
1565.859248621201
 21
3880.3311002204659
 31
0.0
 70
     0
 13
1100.8592486212019
 23
4109.7117765064986
 33
0.0
 14
2030.8592486212019
 24
4109.7117765064986
 34
0.0
1001
ACAD
1000
DSTYLE
1002
{
1070
   287
1070
     3
1070
    40
1040
25.0
1070
   143
1040
0.039
1070
   172
1070
     1
1070
   271
1070
     0
1070
   279
1070
     0
1070
   288
1070
     1
1002
}
  0
DIMENSION
  5
7C2A
  8
3
  2
*D7
 10
950.85924862120203
 20
5455.2856631102513
 30
0.0
 11
1350.8592486212019
 21
5517.7856631102513
 31
0.0
 70
     0
 13
1750.8592486212019
 23
5309.7117765065004
 33
0.0
 14
950.85924862120203
 24
5309.7117765065004
 34
0.0
1001
ACAD
1000
DSTYLE
1002
{
1070
   287
1070
     3
1070
    40
1040
25.0
1070
   143
1040
0.039
1070
   172
1070
     1
1070
   271
1070
     0
1070
   279
1070
     0
1070
   288
1070
     1
1002
}
  0
LINE
  5
7C2B
  8
1
 10
1325.8592486212019
 20
4109.7117765064986
 30
0.0
 11
1100.8592486212019
 21
4109.7117765064986
 31
0.0
  0
LINE
  5
7C2C
  8
1
 10
1897.0000413508869
 20
4776.2117765064986
 30
0.0
 11
890.8592486212018
 21
4776.2117765064986
 31
0.0
  0
LINE
  5
7C2D
  8
1
 10
1897.0000413508869
 20
5251.2117765065004
 30
0.0
 11
890.8592486212018
 21
5251.2117765065004
 31
0.0
  0
LINE
  5
7C2E
  8
2
 10
1929.6936323934881
 20
5013.7117765065004
 30
0.0
 11
851.51534017688198
 21
5013.7117765065004
 31
0.0
  0
LINE
  5
7C2F
  8
1
 10
1750.8592486212019
 20
5309.7117765065004
 30
0.0
 11
950.85924862120203
 21
5309.7117765065004
 31
0.0
  0
DIMENSION
  5
7C30
  8
3
  2
*D8
 10
741.40544576047785
 20
4109.7117765064986
 30
0.0
 11
678.90544576047728
 21
4709.7117765064986
 31
0.0
 70
     0
 13
950.85924862120203
 23
5309.7117765065004
 33
0.0
 14
1100.8592486212019
 24
4109.7117765064986
 34
0.0
 50
270.0
1001
ACAD
1000
DSTYLE
1002
{
1070
   287
1070
     3
1070
    40
1040
25.0
1070
   143
1040
0.039
1070
   172
1070
     1
1070
   271
1070
     0
1070
   279
1070
     0
1070
   288
1070
     1
1002
}
  0
LINE
  5
7C31
  8
1
 10
950.85924862120203
 20
4776.2117765064986
 30
0.0
 11
950.85924862120203
 21
4723.7117765064986
 31
0.0
  0
LINE
  5
7C32
  8
1
 10
893.85924862120191
 20
5293.7117765065004
 30
0.0
 11
893.85924862120191
 21
4733.7117765064986
 31
0.0
  0
LINE
  5
7C33
  8
1
 10
890.8592486212018
 20
5293.7117765065004
 30
0.0
 11
890.8592486212018
 21
4733.7117765064986
 31
0.0
  0
DIMENSION
  5
7C34
  8
3
  2
*D9
 10
950.85924862120203
 20
3817.8311002204659
 30
0.0
 11
786.57353433548758
 21
3880.3311002204659
 31
0.0
 70
     0
 13
1100.8592486212019
 23
4109.7117765064986
 33
0.0
 14
950.85924862120203
 24
4723.7117765064986
 34
0.0
1001
ACAD
1000
DSTYLE
1002
{
1070
   287
1070
     3
1070
    40
1040
25.0
1070
   143
1040
0.039
1070
   172
1070
     1
1070
   271
1070
     0
1070
   279
1070
     0
1070
   288
1070
     1
1002
}
  0
LINE
  5
7C35
  8
1
 10
1100.8592486212019
 20
4723.7117765064986
 30
0.0
 11
1100.8592486212019
 21
4109.7117765064986
 31
0.0
  0
POINT
  5
7C36
  8
1
 10
1100.8592486212019
 20
4109.7117765064986
 30
0.0
  0
LINE
  5
7C37
  8
1
 10
1100.8592486212019
 20
4723.7117765064986
 30
0.0
 11
950.85924862120203
 21
4723.7117765064986
 31
0.0
  0
LINE
  5
7C38
  8
1
 10
893.85924862120191
 20
4733.7117765064986
 30
0.0
 11
890.8592486212018
 21
4733.7117765064986
 31
0.0
  0
POINT
  5
7C39
  8
1
 10
950.85924862120203
 20
4723.7117765064986
 30
0.0
  0
LINE
  5
7C3A
  8
1
 10
930.85924862120191
 20
5251.2117765065004
 30
0.0
 11
930.85924862120191
 21
4776.2117765064986
 31
0.0
  0
LINE
  5
7C3B
  8
1
 10
893.85924862120191
 20
5293.7117765065004
 30
0.0
 11
890.8592486212018
 21
5293.7117765065004
 31
0.0
  0
LINE
  5
7C3C
  8
1
 10
950.85924862120203
 20
5309.7117765065004
 30
0.0
 11
950.85924862120203
 21
5251.2117765065004
 31
0.0
  0
DIMENSION
  5
7C3D
  8
3
  2
*D10
 10
2179.2884202326441
 20
4773.7117765064977
 30
0.0
 11
2116.7884202326431
 21
4441.7117765064986
 31
0.0
 70
     0
 13
2030.8592486212019
 23
4109.7117765064986
 33
0.0
 14
2030.8592486212019
 24
4773.7117765064986
 34
0.0
 50
270.0
1001
ACAD
1000
DSTYLE
1002
{
1070
   287
1070
     3
1070
    40
1040
25.0
1070
   143
1040
0.039
1070
   172
1070
     1
1070
   271
1070
     0
1070
   279
1070
     0
1070
   288
1070
     1
1002
}
  0
LINE
  5
7C3E
  8
1
 10
1375.8592486212019
 20
4093.7117765064991
 30
0.0
 11
1375.8592486212019
 21
4776.2117765064986
 31
0.0
  0
LINE
  5
7C3F
  8
1
 10
1325.8592486212019
 20
4093.7117765064991
 30
0.0
 11
1325.8592486212019
 21
4776.2117765064986
 31
0.0
  0
LINE
  5
7C40
  8
1
 10
2030.8592486212019
 20
4773.7117765064986
 30
0.0
 11
2030.8592486212019
 21
4471.7117765064986
 31
0.0
  0
LINE
  5
7C41
  8
2
 10
1350.8592486212019
 20
5281.7713757012816
 30
0.0
 11
1350.8592486212019
 21
3961.2780099462689
 31
0.0
  0
LINE
  5
7C42
  8
1
 10
1375.8592486212019
 20
4128.7117765065004
 30
0.0
 11
1831.859248621201
 21
4128.7117765065004
 31
0.0
  0
LINE
  5
7C43
  8
1
 10
1831.859248621201
 20
4131.7117765065004
 30
0.0
 11
1650.8592486212019
 21
4131.7117765065004
 31
0.0
  0
LINE
  5
7C44
  8
1
 10
1831.859248621201
 20
4109.7117765064986
 30
0.0
 11
1375.8592486212019
 21
4109.7117765064986
 31
0.0
  0
LINE
  5
7C45
  8
1
 10
1993.3592486212019
 20
4140.7117765064986
 30
0.0
 11
1708.3592486212019
 21
4140.7117765064986
 31
0.0
  0
LINE
  5
7C46
  8
1
 10
1993.3592486212019
 20
4530.7117765064986
 30
0.0
 11
1708.3592486212019
 21
4530.7117765064986
 31
0.0
  0
LINE
  5
7C47
  8
1
 10
1200.859248621201
 20
3968.7117765064991
 30
0.0
 11
2000.8592486212019
 21
3968.7117765064991
 31
0.0
  0
LINE
  5
7C48
  8
1
 10
1929.8592486212019
 20
4011.7117765065
 30
0.0
 11
1271.859248621201
 21
4011.7117765065
 31
0.0
  0
LINE
  5
7C49
  8
1
 10
1929.8592486212019
 20
4093.7117765064991
 30
0.0
 11
1271.859248621201
 21
4093.7117765064991
 31
0.0
  0
LINE
  5
7C4A
  8
1
 10
1650.8592486212019
 20
4191.7117765064986
 30
0.0
 11
1650.8592486212019
 21
4131.7117765065004
 31
0.0
  0
LINE
  5
7C4B
  8
1
 10
1708.3592486212019
 20
4530.7117765064986
 30
0.0
 11
1708.3592486212019
 21
4140.7117765064986
 31
0.0
  0
LINE
  5
7C4C
  8
1
 10
1200.8592486212019
 20
4128.7117765065004
 30
0.0
 11
1325.8592486212019
 21
4128.7117765065004
 31
0.0
  0
LINE
  5
7C4D
  8
1
 10
1200.8592486212019
 20
3968.7117765064991
 30
0.0
 11
1200.8592486212019
 21
4128.7117765065004
 31
0.0
  0
LINE
  5
7C4E
  8
1
 10
1271.859248621201
 20
4011.7117765065
 30
0.0
 11
1271.859248621201
 21
4093.7117765064991
 31
0.0
  0
LINE
  5
7C4F
  8
1
 10
1429.8592486212019
 20
4011.7117765065
 30
0.0
 11
1429.8592486212019
 21
4093.7117765064991
 31
0.0
  0
LINE
  5
7C50
  8
1
 10
1555.3592486212019
 20
4688.7117765064986
 30
0.0
 11
1375.8592486212019
 21
4688.7117765064986
 31
0.0
  0
LINE
  5
7C51
  8
1
 10
1555.3592486212019
 20
4148.7117765064986
 30
0.0
 11
1375.8592486212019
 21
4148.7117765064986
 31
0.0
  0
LINE
  5
7C52
  8
1
 10
1146.359248621201
 20
4688.7117765064986
 30
0.0
 11
1146.359248621201
 21
4148.7117765064986
 31
0.0
  0
LINE
  5
7C53
  8
1
 10
1325.8592486212019
 20
4148.7117765064977
 30
0.0
 11
1146.359248621201
 21
4148.7117765064986
 31
0.0
  0
LINE
  5
7C54
  8
1
 10
1325.8592486212019
 20
4688.7117765064986
 30
0.0
 11
1146.359248621201
 21
4688.7117765064986
 31
0.0
  0
LINE
  5
7C55
  8
1
 10
1650.8592486212019
 20
4471.7117765064986
 30
0.0
 11
1650.8592486212019
 21
4411.7117765064986
 31
0.0
  0
LINE
  5
7C56
  8
1
 10
1555.3592486212019
 20
4688.7117765064986
 30
0.0
 11
1555.3592486212019
 21
4148.7117765064986
 31
0.0
  0
LINE
  5
7C57
  8
1
 10
1708.3592486212019
 20
4191.7117765064986
 30
0.0
 11
1650.8592486212019
 21
4191.7117765064986
 31
0.0
  0
LINE
  5
7C58
  8
1
 10
1708.3592486212019
 20
4411.7117765064986
 30
0.0
 11
1650.8592486212019
 21
4411.7117765064986
 31
0.0
  0
LINE
  5
7C59
  8
1
 10
1708.3592486212019
 20
4471.7117765064986
 30
0.0
 11
1650.8592486212019
 21
4471.7117765064986
 31
0.0
  0
LINE
  5
7C5A
  8
1
 10
2050.8592486212019
 20
4191.7117765064986
 30
0.0
 11
2050.8592486212019
 21
4131.7117765065004
 31
0.0
  0
LINE
  5
7C5B
  8
1
 10
1993.3592486212019
 20
4530.7117765065013
 30
0.0
 11
1993.3592486212019
 21
4140.7117765064986
 31
0.0
  0
LINE
  5
7C5C
  8
2
 10
1850.8592486212019
 20
4586.4962135475753
 30
0.0
 11
1850.8592486212019
 21
3961.2780099462689
 31
0.0
  0
LINE
  5
7C5D
  8
1
 10
2050.8592486212019
 20
4131.7117765065004
 30
0.0
 11
1869.859248621201
 21
4131.7117765065004
 31
0.0
  0
LINE
  5
7C5E
  8
1
 10
1869.859248621201
 20
4128.7117765065004
 30
0.0
 11
2000.8592486212019
 21
4128.7117765065004
 31
0.0
  0
LINE
  5
7C5F
  8
1
 10
2030.8592486212019
 20
4109.7117765064986
 30
0.0
 11
1869.859248621201
 21
4109.7117765064986
 31
0.0
  0
LINE
  5
7C60
  8
1
 10
1771.8592486212019
 20
4093.7117765064991
 30
0.0
 11
1771.8592486212019
 21
4011.7117765065
 31
0.0
  0
LINE
  5
7C61
  8
1
 10
1831.859248621201
 20
4140.7117765064986
 30
0.0
 11
1831.859248621201
 21
4093.7117765064982
 31
0.0
  0
LINE
  5
7C62
  8
1
 10
1869.859248621201
 20
4140.7117765064986
 30
0.0
 11
1869.859248621201
 21
4093.7117765064982
 31
0.0
  0
LINE
  5
7C63
  8
1
 10
2000.8592486212019
 20
4128.7117765065004
 30
0.0
 11
2000.8592486212019
 21
3968.7117765064991
 31
0.0
  0
LINE
  5
7C64
  8
1
 10
1929.8592486212019
 20
4093.7117765064991
 30
0.0
 11
1929.8592486212019
 21
4011.7117765065
 31
0.0
  0
LINE
  5
7C65
  8
1
 10
2030.8592486212019
 20
4131.7117765065004
 30
0.0
 11
2030.8592486212019
 21
4109.7117765064986
 31
0.0
  0
LINE
  5
7C66
  8
1
 10
2050.8592486212019
 20
4191.7117765064986
 30
0.0
 11
1993.3592486212019
 21
4191.7117765064986
 31
0.0
  0
LINE
  5
7C67
  8
1
 10
2050.8592486212019
 20
4411.7117765064986
 30
0.0
 11
1993.3592486212019
 21
4411.7117765064986
 31
0.0
  0
LINE
  5
7C68
  8
1
 10
2050.8592486212019
 20
4471.7117765064986
 30
0.0
 11
1993.3592486212019
 21
4471.7117765064986
 31
0.0
  0
LINE
  5
7C69
  8
1
 10
2030.8592486212019
 20
4411.7117765064986
 30
0.0
 11
2030.8592486212019
 21
4191.7117765064986
 31
0.0
  0
LINE
  5
7C6A
  8
1
 10
2050.8592486212019
 20
4471.7117765064986
 30
0.0
 11
2050.8592486212019
 21
4411.7117765064986
 31
0.0
  0
DIMENSION
  5
7C6B
  8
3
  2
*D11
 10
2030.8592486212019
 20
5455.2856631102513
 30
0.0
 11
1890.859248621201
 21
5520.5984648101548
 31
0.0
 70
   128
 13
1750.8592486212019
 23
5309.7117765065004
 33
0.0
 14
2030.8592486212019
 24
4773.7117765064986
 34
0.0
1001
ACAD
1000
DSTYLE
1002
{
1070
   288
1070
     1
1070
   172
1070
     1
1070
    40
1040
25.0
1070
   271
1070
     0
1070
   143
1040
0.039
1002
}
  0
LINE
  5
7C6C
  8
1
 10
1897.0000413508869
 20
4776.2117765064986
 30
0.0
 11
1897.0000413508869
 21
5251.2117765065004
 31
0.0
  0
LINE
  5
7C6D
  8
1
 10
2030.8592486212019
 20
4773.7117765064986
 30
0.0
 11
1750.8592486212019
 21
4773.7117765064986
 31
0.0
  0
LINE
  5
7C6E
  8
1
 10
1750.8592486212019
 20
4776.2117765064986
 30
0.0
 11
1750.8592486212019
 21
4773.7117765064986
 31
0.0
  0
LINE
  5
7C6F
  8
1
 10
1750.8592486212019
 20
5309.7117765065004
 30
0.0
 11
1750.8592486212019
 21
5251.2117765065004
 31
0.0
  0
DIMENSION
  5
7C70
  8
3
  2
*D12
 10
3884.5987176104841
 20
3493.323685294492
 30
0.0
 11
3362.0987176104841
 21
3618.323685294492
 31
0.0
 70
     0
  1
MAX\P1070
 13
2839.5987176104841
 23
2622.9952878602949
 33
0.0
 14
3884.5987176104841
 24
3455.527143391801
 34
0.0
1001
ACAD
1000
DSTYLE
1002
{
1070
   287
1070
     3
1070
    40
1040
25.0
1070
   143
1040
0.039
1070
   172
1070
     1
1070
   271
1070
     0
1070
   279
1070
     0
1070
   288
1070
     1
1002
}
  0
LINE
  5
7C73
  8
1
 10
2964.5987176104841
 20
2447.995287860294
 30
0.0
 11
3647.0987176104832
 21
2447.995287860294
 31
0.0
  0
LINE
  5
7C74
  8
1
 10
2964.5987176104841
 20
2497.995287860294
 30
0.0
 11
3647.0987176104841
 21
2497.995287860294
 31
0.0
  0
LINE
  5
7C77
  8
1
 10
2977.5987176104841
 20
2067.995287860294
 30
0.0
 11
4177.5987176104854
 21
2067.995287860294
 31
0.0
  0
LINE
  5
7C78
  8
1
 10
2977.5987176104841
 20
1967.995287860294
 30
0.0
 11
4177.5987176104854
 21
1967.995287860294
 31
0.0
  0
LINE
  5
7C79
  8
2
 10
2862.0135405659321
 20
2472.995287860294
 30
0.0
 11
4199.8852095957018
 21
2472.995287860294
 31
0.0
  0
LINE
  5
7C7A
  8
1
 10
3011.5987176104841
 20
2427.495287860294
 30
0.0
 11
3011.5987176104841
 21
2142.495287860294
 31
0.0
  0
LINE
  5
7C7B
  8
1
 10
3401.5987176104841
 20
2427.495287860294
 30
0.0
 11
3401.5987176104841
 21
2142.495287860294
 31
0.0
  0
LINE
  5
7C7C
  8
1
 10
2839.5987176104841
 20
2622.9952878602949
 30
0.0
 11
2839.5987176104841
 21
2134.9952878602949
 31
0.0
  0
LINE
  5
7C7D
  8
1
 10
2964.5987176104841
 20
2551.995287860294
 30
0.0
 11
2964.5987176104841
 21
2205.995287860294
 31
0.0
  0
LINE
  5
7C7E
  8
1
 10
2882.5987176104841
 20
2551.995287860294
 30
0.0
 11
2882.5987176104841
 21
2205.995287860294
 31
0.0
  0
LINE
  5
7C7F
  8
1
 10
3559.5987176104841
 20
2417.995287860294
 30
0.0
 11
3559.5987176104841
 21
2067.995287860294
 31
0.0
  0
LINE
  5
7C80
  8
1
 10
2839.5987176104841
 20
2134.995287860294
 30
0.0
 11
2999.5987176104841
 21
2134.995287860294
 31
0.0
  0
LINE
  5
7C82
  8
1
 10
2977.5987176104841
 20
2067.995287860294
 30
0.0
 11
2977.5987176104841
 21
1967.995287860294
 31
0.0
  0
LINE
  5
7C83
  8
1
 10
2882.5987176104841
 20
2205.995287860294
 30
0.0
 11
2964.5987176104841
 21
2205.995287860294
 31
0.0
  0
LINE
  5
7C84
  8
1
 10
3017.5987176104832
 20
2107.995287860294
 30
0.0
 11
3327.5987176104841
 21
2107.995287860294
 31
0.0
  0
LINE
  5
7C85
  8
1
 10
3011.5987176104841
 20
2142.495287860294
 30
0.0
 11
3401.5987176104841
 21
2142.495287860294
 31
0.0
  0
LINE
  5
7C86
  8
1
 10
3017.5987176104832
 20
2142.495287860294
 30
0.0
 11
3017.5987176104841
 21
2067.995287860294
 31
0.0
  0
LINE
  5
7C87
  8
1
 10
2999.5987176104841
 20
2154.995287860294
 30
0.0
 11
2999.5987176104841
 21
2134.9952878602949
 31
0.0
  0
LINE
  5
7C88
  8
1
 10
3327.5987176104841
 20
2142.495287860294
 30
0.0
 11
3327.5987176104841
 21
2067.995287860294
 31
0.0
  0
LINE
  5
7C89
  8
1
 10
2964.5987176104841
 20
2265.995287860294
 30
0.0
 11
3011.5987176104841
 21
2265.995287860294
 31
0.0
  0
LINE
  5
7C8A
  8
1
 10
2964.5987176104841
 20
2303.995287860294
 30
0.0
 11
3011.5987176104841
 21
2303.995287860294
 31
0.0
  0
LINE
  5
7C8B
  8
1
 10
2839.5987176104841
 20
2622.995287860294
 30
0.0
 11
2999.5987176104841
 21
2622.995287860294
 31
0.0
  0
LINE
  5
7C8C
  8
2
 10
2862.0135405659321
 20
2284.995287860294
 30
0.0
 11
3429.523331058369
 21
2284.995287860294
 31
0.0
  0
LINE
  5
7C8D
  8
1
 10
2882.5987176104841
 20
2363.995287860294
 30
0.0
 11
2964.5987176104841
 21
2363.995287860294
 31
0.0
  0
LINE
  5
7C8E
  8
1
 10
2882.5987176104841
 20
2393.995287860294
 30
0.0
 11
2964.5987176104841
 21
2393.995287860294
 31
0.0
  0
LINE
  5
7C8F
  8
1
 10
2882.5987176104841
 20
2551.995287860294
 30
0.0
 11
2964.5987176104841
 21
2551.995287860294
 31
0.0
  0
LINE
  5
7C90
  8
1
 10
3011.5987176104841
 20
2427.495287860294
 30
0.0
 11
3401.5987176104841
 21
2427.495287860294
 31
0.0
  0
LINE
  5
7C91
  8
1
 10
2999.5987176104841
 20
2622.995287860294
 30
0.0
 11
2999.5987176104841
 21
2602.995287860294
 31
0.0
  0
LINE
  5
7C92
  8
1
 10
3401.5987176104841
 20
2417.995287860294
 30
0.0
 11
3559.5987176104841
 21
2417.995287860294
 31
0.0
  0
LINE
  5
7C94
  8
2
 10
3884.5987176104841
 20
3316.5085954197111
 30
0.0
 11
3884.5987176104841
 21
1967.995287860294
 31
0.0
  0
LINE
  5
7C95
  8
1
 10
3647.0987176104841
 20
3151.495287860294
 30
0.0
 11
3647.0987176104841
 21
2067.995287860294
 31
0.0
  0
LINE
  5
7C96
  8
1
 10
4122.0987176104854
 20
3151.495287860294
 30
0.0
 11
4122.0987176104827
 21
2067.995287860294
 31
0.0
  0
LINE
  5
7C99
  8
1
 10
4177.5987176104854
 20
2067.995287860294
 30
0.0
 11
4177.5987176104854
 21
1967.995287860294
 31
0.0
  0
LINE
  5
7C9A
  8
1
 10
3647.0987176104841
 20
3150.9952878602949
 30
0.0
 11
4122.0987176104854
 21
2501.495287860294
 31
0.0
  0
LINE
  5
7C9B
  8
1
 10
4122.0987176104854
 20
3151.495287860294
 30
0.0
 11
3647.0987176104841
 21
2501.495287860294
 31
0.0
  0
LINE
  5
7C9C
  8
1
 10
3647.0987176104841
 20
2501.495287860294
 30
0.0
 11
4122.0987176104854
 21
2501.495287860294
 31
0.0
  0
DIMENSION
  5
7C9D
  8
3
  2
*D13
 10
4122.0987176104854
 20
3342.8859574667572
 30
0.0
 11
3884.598717610485
 21
3405.3859574667572
 31
0.0
 70
     0
 13
3647.0987176104841
 23
3151.495287860294
 33
0.0
 14
4122.0987176104854
 24
3151.495287860294
 34
0.0
1001
ACAD
1000
DSTYLE
1002
{
1070
   287
1070
     3
1070
    40
1040
25.0
1070
   143
1040
0.039
1070
   172
1070
     1
1070
   271
1070
     0
1070
   279
1070
     0
1070
   288
1070
     1
1002
}
  0
LINE
  5
7C9E
  8
1
 10
3647.0987176104841
 20
3151.495287860294
 30
0.0
 11
4122.0987176104854
 21
3151.495287860294
 31
0.0
  0
LINE
  5
801E
  8
4
 10
4625.0
 20
1250.0
 30
0.0
 11
4625.0
 21
750.0
 31
0.0
  0
LINE
  5
801F
  8
4
 10
2875.0
 20
1250.0
 30
0.0
 11
2875.0
 21
750.0
 31
0.0
  0
LINE
  5
8020
  8
4
 10
1625.0
 20
1250.0
 30
0.0
 11
1625.0
 21
750.0
 31
0.0
  0
LINE
  5
8023
  8
4
 10
1625.0
 20
750.0
 30
0.0
 11
4625.0
 21
750.0
 31
0.0
  0
LINE
  5
8024
  8
4
 10
1625.0
 20
1000.0
 30
0.0
 11
4625.0
 21
1000.0
 31
0.0
  0
TEXT
  5
8025
  8
4
 10
1721.2552021172539
 20
1078.857564666532
 30
0.0
 40
125.0
  1
機器名称
  0
TEXT
  5
8026
  8
4
 10
1715.6452650619931
 20
804.11289183002725
 30
0.0
 40
125.0
  1
機器型番
  0
TEXT
  5
8027
  8
4
 10
2892.0172349203649
 20
1058.3110764646549
 30
0.0
 40
110.0
  1
ミツヤリミットロ－ﾄﾞファン
  0
TEXT
  5
8028
  8
4
 10
2966.6362389637011
 20
792.89896069985843
 30
0.0
 40
125.0
  1
LL#4-1
  0
TEXT
  5
802A
  8
4
 10
1945.1381936633729
 20
5958.5721033312893
 30
0.0
 40
135.0
  1
床置ベット
  0
TEXT
  5
802B
  8
4
 10
737.6145918336224
 20
6334.7024404982449
 30
0.0
 40
180.0
  1
遠心式片吸込片持リミットロ－ﾄﾞファン
  0
LINE
  5
802C
  8
4
 10
625.0
 20
6173.5218856620122
 30
0.0
 11
4625.0
 21
6173.5218856620122
 31
0.0
  0
LINE
  5
802D
  8
4
 10
625.0
 20
6673.5218856620122
 30
0.0
 11
4625.0
 21
6673.5218856620122
 31
0.0
  0
LINE
  5
802E
  8
4
 10
1625.0
 20
1250.0
 30
0.0
 11
4625.0
 21
1250.0
 31
0.0
  0
LINE
  5
802F
  8
4
 10
625.0
 20
6673.5218856620122
 30
0.0
 11
625.0
 21
6173.5218856620122
 31
0.0
  0
TEXT
  5
8030
  8
4
 10
855.49111305661779
 20
5955.7986938658578
 30
0.0
 40
135.0
  1
左回転左横向
  0
TEXT
  5
8031
  8
4
 10
3672.4238981232238
 20
6765.1527037382721
 30
0.0
 40
140.0
  1
No.
  0
TEXT
  5
8032
  8
4
 10
3278.2401565000318
 20
5958.5721033312893
 30
0.0
 40
135.0
  1
縮尺：1/25
  0
LINE
  5
8033
  8
4
 10
4625.0
 20
6673.5218856620122
 30
0.0
 11
4625.0
 21
6173.5218856620122
 31
0.0
  0
LINE
  5
8034
  8
4
 10
5250.0
 20
7375.0
 30
0.0
 11
5250.0
 21
7375.0
 31
0.0
  0
LINE
  5
8035
  8
4
 10
3601.543555899661
 20
6703.1589578135026
 30
0.0
 11
3601.543555899661
 21
6966.6306538743811
 31
0.0
  0
LINE
  5
8036
  8
4
 10
3601.543555899661
 20
6966.6306538743811
 30
0.0
 11
4625.0
 21
6966.6306538743811
 31
0.0
  0
LINE
  5
8037
  8
4
 10
4625.0
 20
6966.6306538743811
 30
0.0
 11
4625.0
 21
6703.1589578135026
 31
0.0
  0
LINE
  5
8038
  8
4
 10
4625.0
 20
6703.1589578135026
 30
0.0
 11
3601.543555899661
 21
6703.1589578135026
 31
0.0
  0
LINE
  5
8039
  8
4
 10
0.0
 20
0.0
 30
0.0
 11
0.0
 21
7375.0
 31
0.0
  0
LINE
  5
803A
  8
4
 10
0.0
 20
7375.0
 30
0.0
 11
5250.0
 21
7375.0
 31
0.0
  0
LINE
  5
803B
  8
4
 10
5250.0
 20
7375.0
 30
0.0
 11
5250.0
 21
0.0
 31
0.0
  0
LINE
  5
803C
  8
4
 10
5250.0
 20
0.0
 30
0.0
 11
0.0
 21
0.0
 31
0.0
  0
DIMENSION
  5
812D
  8
3
  2
*D16
 10
4125.5987176104836
 20
3493.323685294492
 30
0.0
 11
4005.098717610485
 21
3553.3647021717511
 31
0.0
 70
   128
 13
3884.5987176104841
 23
3455.527143391801
 33
0.0
 14
4125.5987176104836
 24
3151.7682532970939
 34
0.0
1001
ACAD
1000
DSTYLE
1002
{
1070
   288
1070
     1
1070
   172
1070
     1
1070
    75
1070
     1
1070
    40
1040
25.0
1070
   271
1070
     0
1070
   143
1040
0.039
1002
}
  0
DIMENSION
  5
81D6
  8
3
  2
*D17
 10
1350.8592486212019
 20
1803.222732173246
 30
0.0
 11
1150.8592486212019
 21
1865.722732173246
 31
0.0
 70
     0
 13
950.85924862120203
 23
1967.995287860294
 33
0.0
 14
1350.8592486212019
 24
1967.995287860294
 34
0.0
1001
ACAD
1000
DSTYLE
1002
{
1070
   287
1070
     3
1070
    40
1040
25.0
1070
   143
1040
0.039
1070
   172
1070
     1
1070
   271
1070
     0
1070
   279
1070
     0
1002
}
  0
DIMENSION
  5
81E3
  8
3
  2
*D18
 10
2030.8592486212019
 20
1803.222732173246
 30
0.0
 11
1690.859248621201
 21
1865.722732173246
 31
0.0
 70
     0
 13
1350.8592486212019
 23
1967.995287860294
 33
0.0
 14
2030.8592486212019
 24
1967.995287860294
 34
0.0
1001
ACAD
1000
DSTYLE
1002
{
1070
   287
1070
     3
1070
    40
1040
25.0
1070
   143
1040
0.039
1070
   172
1070
     1
1070
   271
1070
     0
1070
   279
1070
     0
1002
}
  0
DIMENSION
  5
81F0
  8
3
  2
*D19
 10
3884.5987176104841
 20
1803.222732173246
 30
0.0
 11
3431.0987176104832
 21
1865.722732173246
 31
0.0
 70
     0
 13
2977.5987176104841
 23
1967.995287860294
 33
0.0
 14
3884.5987176104841
 24
1967.995287860294
 34
0.0
1001
ACAD
1000
DSTYLE
1002
{
1070
   287
1070
     3
1070
    40
1040
25.0
1070
   143
1040
0.039
1070
   172
1070
     1
1070
   271
1070
     0
1070
   279
1070
     0
1002
}
  0
DIMENSION
  5
81FF
  8
3
  2
*D20
 10
4177.5987176104854
 20
1803.222732173246
 30
0.0
 11
4031.0987176104841
 21
1865.722732173246
 31
0.0
 70
     0
 13
3884.5987176104841
 23
1967.995287860294
 33
0.0
 14
4177.5987176104854
 24
1967.995287860294
 34
0.0
1001
ACAD
1000
DSTYLE
1002
{
1070
   287
1070
     3
1070
    40
1040
25.0
1070
   143
1040
0.039
1070
   172
1070
     1
1070
   271
1070
     0
1070
   279
1070
     0
1002
}
  0
DIMENSION
  5
820C
  8
3
  2
*D21
 10
437.24535818568978
 20
1967.995287860294
 30
0.0
 11
374.7453581856895
 21
2580.495287860294
 31
0.0
 70
     0
 13
890.8592486212018
 23
3192.995287860294
 33
0.0
 14
950.85924862120203
 24
1967.995287860294
 34
0.0
 50
90.0
1001
ACAD
1000
DSTYLE
1002
{
1070
   287
1070
     3
1070
    40
1040
25.0
1070
   143
1040
0.039
1070
   172
1070
     1
1070
   271
1070
     0
1070
   279
1070
     0
1002
}
  0
LINE
  5
8219
  8
1
 10
1180.859248621201
 20
2417.995287860294
 30
0.0
 11
1520.8592486212019
 21
2417.995287860294
 31
0.0
  0
LINE
  5
821B
  8
1
 10
1180.859248621201
 20
2417.995287860294
 30
0.0
 11
1100.8592486212019
 21
2067.995287860294
 31
0.0
  0
LINE
  5
821C
  8
1
 10
1520.8592486212019
 20
2417.995287860294
 30
0.0
 11
1600.8592486212019
 21
2067.995287860294
 31
0.0
  0
DIMENSION
  5
822F
  8
3
  2
*D22
 10
4334.4473286005041
 20
2157.995287860294
 30
0.0
 11
4271.9473286005041
 21
2472.995287860294
 31
0.0
 70
     0
 13
4122.0987176104854
 23
2787.995287860294
 33
0.0
 14
4122.0987176104827
 24
2157.995287860294
 34
0.0
 50
90.0
1001
ACAD
1000
DSTYLE
1002
{
1070
   287
1070
     3
1070
     3
1000
φ<>
1070
    40
1040
25.0
1070
   143
1040
0.039
1070
   172
1070
     1
1070
   271
1070
     0
1070
   279
1070
     0
1002
}
  0
ENDSEC
  0
EOF
