  0
SECTION
  2
HEADER
  9
$ACADVER
  1
AC1027
  9
$ACADMAINTVER
 70
   125
  9
$DWGCODEPAGE
  3
ANSI_932
  9
$LASTSAVEDBY
  1
yasukiyo.ogawa
  9
$REQUIREDVERSIONS
160
                 0
  9
$INSBASE
 10
0.0
 20
0.0
 30
0.0
  9
$EXTMIN
 10
0.0
 20
0.0
 30
0.0
  9
$EXTMAX
 10
4200.0
 20
5900.0
 30
0.0
  9
$LIMMIN
 10
0.0
 20
0.0
  9
$LIMMAX
 10
297.0
 20
210.0
  9
$ORTHOMODE
 70
     1
  9
$REGENMODE
 70
     1
  9
$FILLMODE
 70
     0
  9
$QTEXTMODE
 70
     0
  9
$MIRRTEXT
 70
     1
  9
$LTSCALE
 40
100.0
  9
$ATTMODE
 70
     1
  9
$TEXTSIZE
 40
180.0
  9
$TRACEWID
 40
0.05
  9
$TEXTSTYLE
  7
STANDARD
  9
$CLAYER
  8
3
  9
$CELTYPE
  6
BYLAYER
  9
$CECOLOR
 62
   256
  9
$CELTSCALE
 40
1.0
  9
$DISPSILH
 70
     0
  9
$DIMSCALE
 40
20.0
  9
$DIMASZ
 40
2.0
  9
$DIMEXO
 40
1.0
  9
$DIMDLI
 40
10.0
  9
$DIMRND
 40
0.0
  9
$DIMDLE
 40
0.0
  9
$DIMEXE
 40
1.0
  9
$DIMTP
 40
0.0
  9
$DIMTM
 40
0.0
  9
$DIMTXT
 40
3.0
  9
$DIMCEN
 40
0.0
  9
$DIMTSZ
 40
0.0
  9
$DIMTOL
 70
     0
  9
$DIMLIM
 70
     0
  9
$DIMTIH
 70
     0
  9
$DIMTOH
 70
     0
  9
$DIMSE1
 70
     0
  9
$DIMSE2
 70
     0
  9
$DIMTAD
 70
     1
  9
$DIMZIN
 70
     8
  9
$DIMBLK
  1

  9
$DIMASO
 70
     1
  9
$DIMSHO
 70
     1
  9
$DIMPOST
  1
(<>)
  9
$DIMAPOST
  1

  9
$DIMALT
 70
     0
  9
$DIMALTD
 70
     2
  9
$DIMALTF
 40
0.03937
  9
$DIMLFAC
 40
1.0
  9
$DIMTOFL
 70
     1
  9
$DIMTVP
 40
0.0
  9
$DIMTIX
 70
     0
  9
$DIMSOXD
 70
     0
  9
$DIMSAH
 70
     1
  9
$DIMBLK1
  1
OPEN
  9
$DIMBLK2
  1
OPEN
  9
$DIMSTYLE
  2
IGA
  9
$DIMCLRD
 70
   256
  9
$DIMCLRE
 70
   256
  9
$DIMCLRT
 70
   256
  9
$DIMTFAC
 40
1.0
  9
$DIMGAP
 40
0.5
  9
$DIMJUST
 70
     0
  9
$DIMSD1
 70
     0
  9
$DIMSD2
 70
     0
  9
$DIMTOLJ
 70
     1
  9
$DIMTZIN
 70
     8
  9
$DIMALTZ
 70
     0
  9
$DIMALTTZ
 70
     0
  9
$DIMUPT
 70
     0
  9
$DIMDEC
 70
     4
  9
$DIMTDEC
 70
     4
  9
$DIMALTU
 70
     2
  9
$DIMALTTD
 70
     2
  9
$DIMTXSTY
  7
STANDARD
  9
$DIMAUNIT
 70
     0
  9
$DIMADEC
 70
     0
  9
$DIMALTRND
 40
0.0
  9
$DIMAZIN
 70
     0
  9
$DIMDSEP
 70
    46
  9
$DIMATFIT
 70
     3
  9
$DIMFRAC
 70
     0
  9
$DIMLDRBLK
  1
OPEN
  9
$DIMLUNIT
 70
     2
  9
$DIMLWD
 70
    -2
  9
$DIMLWE
 70
    -2
  9
$DIMTMOVE
 70
     2
  9
$DIMFXL
 40
1.0
  9
$DIMFXLON
 70
     0
  9
$DIMJOGANG
 40
0.7853981633974483
  9
$DIMTFILL
 70
     0
  9
$DIMTFILLCLR
 70
     0
  9
$DIMARCSYM
 70
     0
  9
$DIMLTYPE
  6

  9
$DIMLTEX1
  6

  9
$DIMLTEX2
  6

  9
$DIMTXTDIRECTION
 70
     0
  9
$LUNITS
 70
     2
  9
$LUPREC
 70
     3
  9
$SKETCHINC
 40
0.1
  9
$FILLETRAD
 40
50.0
  9
$AUNITS
 70
     0
  9
$AUPREC
 70
     0
  9
$MENU
  1
acad
  9
$ELEVATION
 40
0.0
  9
$PELEVATION
 40
0.0
  9
$THICKNESS
 40
0.0
  9
$LIMCHECK
 70
     0
  9
$CHAMFERA
 40
0.5
  9
$CHAMFERB
 40
0.5
  9
$CHAMFERC
 40
20.0
  9
$CHAMFERD
 40
0.0
  9
$SKPOLY
 70
     0
  9
$TDCREATE
 40
2451376.465821759
  9
$TDUCREATE
 40
2451376.090825926
  9
$TDUPDATE
 40
2460216.759050926
  9
$TDUUPDATE
 40
2460216.384051748
  9
$TDINDWG
 40
0.1081341551
  9
$TDUSRTIMER
 40
0.1081341551
  9
$USRTIMER
 70
     1
  9
$ANGBASE
 50
0.0
  9
$ANGDIR
 70
     0
  9
$PDMODE
 70
     0
  9
$PDSIZE
 40
0.0
  9
$PLINEWID
 40
0.0
  9
$SPLFRAME
 70
     0
  9
$SPLINETYPE
 70
     6
  9
$SPLINESEGS
 70
     8
  9
$HANDSEED
  5
8232
  9
$SURFTAB1
 70
     6
  9
$SURFTAB2
 70
     6
  9
$SURFTYPE
 70
     6
  9
$SURFU
 70
     6
  9
$SURFV
 70
     6
  9
$UCSBASE
  2

  9
$UCSNAME
  2

  9
$UCSORG
 10
0.0
 20
0.0
 30
0.0
  9
$UCSXDIR
 10
1.0
 20
0.0
 30
0.0
  9
$UCSYDIR
 10
0.0
 20
1.0
 30
0.0
  9
$UCSORTHOREF
  2

  9
$UCSORTHOVIEW
 70
     0
  9
$UCSORGTOP
 10
0.0
 20
0.0
 30
0.0
  9
$UCSORGBOTTOM
 10
0.0
 20
0.0
 30
0.0
  9
$UCSORGLEFT
 10
0.0
 20
0.0
 30
0.0
  9
$UCSORGRIGHT
 10
0.0
 20
0.0
 30
0.0
  9
$UCSORGFRONT
 10
0.0
 20
0.0
 30
0.0
  9
$UCSORGBACK
 10
0.0
 20
0.0
 30
0.0
  9
$PUCSBASE
  2

  9
$PUCSNAME
  2

  9
$PUCSORG
 10
0.0
 20
0.0
 30
0.0
  9
$PUCSXDIR
 10
1.0
 20
0.0
 30
0.0
  9
$PUCSYDIR
 10
0.0
 20
1.0
 30
0.0
  9
$PUCSORTHOREF
  2

  9
$PUCSORTHOVIEW
 70
     0
  9
$PUCSORGTOP
 10
0.0
 20
0.0
 30
0.0
  9
$PUCSORGBOTTOM
 10
0.0
 20
0.0
 30
0.0
  9
$PUCSORGLEFT
 10
0.0
 20
0.0
 30
0.0
  9
$PUCSORGRIGHT
 10
0.0
 20
0.0
 30
0.0
  9
$PUCSORGFRONT
 10
0.0
 20
0.0
 30
0.0
  9
$PUCSORGBACK
 10
0.0
 20
0.0
 30
0.0
  9
$USERI1
 70
     0
  9
$USERI2
 70
     0
  9
$USERI3
 70
     0
  9
$USERI4
 70
     0
  9
$USERI5
 70
     0
  9
$USERR1
 40
0.0
  9
$USERR2
 40
0.0
  9
$USERR3
 40
0.0
  9
$USERR4
 40
0.0
  9
$USERR5
 40
0.0
  9
$WORLDVIEW
 70
     1
  9
$SHADEDGE
 70
     3
  9
$SHADEDIF
 70
    70
  9
$TILEMODE
 70
     1
  9
$MAXACTVP
 70
    16
  9
$PINSBASE
 10
0.0
 20
0.0
 30
0.0
  9
$PLIMCHECK
 70
     0
  9
$PEXTMIN
 10
1.000000000000000E+20
 20
1.000000000000000E+20
 30
1.000000000000000E+20
  9
$PEXTMAX
 10
-1.000000000000000E+20
 20
-1.000000000000000E+20
 30
-1.000000000000000E+20
  9
$PLIMMIN
 10
0.0
 20
0.0
  9
$PLIMMAX
 10
12.0
 20
9.0
  9
$UNITMODE
 70
     0
  9
$VISRETAIN
 70
     0
  9
$PLINEGEN
 70
     0
  9
$PSLTSCALE
 70
     1
  9
$TREEDEPTH
 70
  3020
  9
$CMLSTYLE
  2
STANDARD
  9
$CMLJUST
 70
     0
  9
$CMLSCALE
 40
20.0
  9
$PROXYGRAPHICS
 70
     1
  9
$MEASUREMENT
 70
     1
  9
$CELWEIGHT
370
    -1
  9
$ENDCAPS
280
     0
  9
$JOINSTYLE
280
     0
  9
$LWDISPLAY
290
     0
  9
$INSUNITS
 70
     0
  9
$HYPERLINKBASE
  1

  9
$STYLESHEET
  1

  9
$XEDIT
290
     1
  9
$CEPSNTYPE
380
     0
  9
$PSTYLEMODE
290
     1
  9
$FINGERPRINTGUID
  2
{C9409DF3-B483-48BD-83E0-416A1B0472B6}
  9
$VERSIONGUID
  2
{BD998A93-27D1-4CDD-A2A0-612C7179FA61}
  9
$EXTNAMES
290
     1
  9
$PSVPSCALE
 40
0.0
  9
$OLESTARTUP
290
     0
  9
$SORTENTS
280
   127
  9
$INDEXCTL
280
     0
  9
$HIDETEXT
280
     0
  9
$XCLIPFRAME
280
     2
  9
$HALOGAP
280
     0
  9
$OBSCOLOR
 70
   257
  9
$OBSLTYPE
280
     0
  9
$INTERSECTIONDISPLAY
280
     0
  9
$INTERSECTIONCOLOR
 70
   257
  9
$DIMASSOC
280
     1
  9
$PROJECTNAME
  1

  9
$CAMERADISPLAY
290
     0
  9
$LENSLENGTH
 40
50.0
  9
$CAMERAHEIGHT
 40
0.0
  9
$STEPSPERSEC
 40
2.0
  9
$STEPSIZE
 40
6.0
  9
$3DDWFPREC
 40
2.0
  9
$PSOLWIDTH
 40
0.25
  9
$PSOLHEIGHT
 40
4.0
  9
$LOFTANG1
 40
1.570796326794896
  9
$LOFTANG2
 40
1.570796326794896
  9
$LOFTMAG1
 40
0.0
  9
$LOFTMAG2
 40
0.0
  9
$LOFTPARAM
 70
     7
  9
$LOFTNORMALS
280
     1
  9
$LATITUDE
 40
37.795
  9
$LONGITUDE
 40
-122.394
  9
$NORTHDIRECTION
 40
0.0
  9
$TIMEZONE
 70
 -8000
  9
$LIGHTGLYPHDISPLAY
280
     1
  9
$TILEMODELIGHTSYNCH
280
     1
  9
$CMATERIAL
347
8123
  9
$SOLIDHIST
280
     0
  9
$SHOWHIST
280
     1
  9
$DWFFRAME
280
     2
  9
$DGNFRAME
280
     0
  9
$REALWORLDSCALE
290
     1
  9
$INTERFERECOLOR
 62
     1
  9
$INTERFEREOBJVS
345
8145
  9
$INTERFEREVPVS
346
8142
  9
$CSHADOW
280
     0
  9
$SHADOWPLANELOCATION
 40
0.0
  0
ENDSEC
  0
SECTION
  2
CLASSES
  0
CLASS
  1
ACDBDICTIONARYWDFLT
  2
AcDbDictionaryWithDefault
  3
ObjectDBX Classes
 90
        0
 91
        1
280
     0
281
     0
  0
CLASS
  1
MATERIAL
  2
AcDbMaterial
  3
ObjectDBX Classes
 90
     1153
 91
        3
280
     0
281
     0
  0
CLASS
  1
VISUALSTYLE
  2
AcDbVisualStyle
  3
ObjectDBX Classes
 90
     4095
 91
       24
280
     0
281
     0
  0
CLASS
  1
TABLESTYLE
  2
AcDbTableStyle
  3
ObjectDBX Classes
 90
     4095
 91
        1
280
     0
281
     0
  0
CLASS
  1
SCALE
  2
AcDbScale
  3
ObjectDBX Classes
 90
     1153
 91
       17
280
     0
281
     0
  0
CLASS
  1
MLEADERSTYLE
  2
AcDbMLeaderStyle
  3
ACDB_MLEADERSTYLE_CLASS
 90
     4095
 91
        1
280
     0
281
     0
  0
CLASS
  1
ACDBSECTIONVIEWSTYLE
  2
AcDbSectionViewStyle
  3
ObjectDBX Classes
 90
     1025
 91
        1
280
     0
281
     0
  0
CLASS
  1
ACDBDETAILVIEWSTYLE
  2
AcDbDetailViewStyle
  3
ObjectDBX Classes
 90
     1025
 91
        1
280
     0
281
     0
  0
CLASS
  1
DICTIONARYVAR
  2
AcDbDictionaryVar
  3
ObjectDBX Classes
 90
        0
 91
       10
280
     0
281
     0
  0
CLASS
  1
CELLSTYLEMAP
  2
AcDbCellStyleMap
  3
ObjectDBX Classes
 90
     1152
 91
        1
280
     0
281
     0
  0
ENDSEC
  0
SECTION
  2
TABLES
  0
TABLE
  2
VPORT
  5
8
330
0
100
AcDbSymbolTable
 70
     1
1001
ACAD
1000
DbSaveVer
1071
      278
  0
VPORT
  5
8120
330
8
100
AcDbSymbolTableRecord
100
AcDbViewportTableRecord
  2
*Active
 70
     0
 10
0.0
 20
0.0
 11
1.0
 21
1.0
 12
2694.113519327956
 22
2950.000013737006
 13
0.0
 23
0.0
 14
10.0
 24
10.0
 15
10.0
 25
10.0
 16
0.0
 26
0.0
 36
1.0
 17
0.0
 27
0.0
 37
0.0
 40
5938.142562752639
 41
2.250314465408805
 42
50.0
 43
0.0
 44
0.0
 50
0.0
 51
0.0
 71
     0
 72
   100
 73
     1
 74
     0
 75
     0
 76
     0
 77
     0
 78
     0
281
     0
 65
     1
110
0.0
120
0.0
130
0.0
111
1.0
121
0.0
131
0.0
112
0.0
122
1.0
132
0.0
 79
     0
146
0.0
348
8141
 60
     3
 61
     5
292
     1
282
     1
141
0.0
142
0.0
 63
   250
421
  3355443
1001
ACAD_NAV_VCDISPLAY
1070
     3
  0
ENDTAB
  0
TABLE
  2
LTYPE
  5
5
330
0
100
AcDbSymbolTable
 70
     2
  0
LTYPE
  5
13
330
5
100
AcDbSymbolTableRecord
100
AcDbLinetypeTableRecord
  2
BYBLOCK
 70
     0
  3

 72
    65
 73
     0
 40
0.0
  0
LTYPE
  5
14
330
5
100
AcDbSymbolTableRecord
100
AcDbLinetypeTableRecord
  2
BYLAYER
 70
     0
  3

 72
    65
 73
     0
 40
0.0
  0
LTYPE
  5
15
330
5
100
AcDbSymbolTableRecord
100
AcDbLinetypeTableRecord
  2
CONTINUOUS
 70
     0
  3
Solid line
 72
    65
 73
     0
 40
0.0
  0
LTYPE
  5
1F
330
5
100
AcDbSymbolTableRecord
100
AcDbLinetypeTableRecord
  2
CENTER
 70
     0
  3
____ _ ____ _ ____ _ ____ _ ____ _ ____ _ ____ 
 72
    65
 73
     4
 40
2.0
 49
1.25
 74
     0
 49
-0.25
 74
     0
 49
0.25
 74
     0
 49
-0.25
 74
     0
  0
ENDTAB
  0
TABLE
  2
LAYER
  5
2
102
{ACAD_XDICTIONARY
360
81F2
102
}
330
0
100
AcDbSymbolTable
 70
     6
  0
LAYER
  5
F
102
{ACAD_XDICTIONARY
360
81E5
102
}
330
2
100
AcDbSymbolTableRecord
100
AcDbLayerTableRecord
  2
0
 70
     0
 62
     7
  6
CONTINUOUS
370
    -3
390
80AC
347
8133
348
0
  0
LAYER
  5
31
102
{ACAD_XDICTIONARY
360
81E7
102
}
330
2
100
AcDbSymbolTableRecord
100
AcDbLayerTableRecord
  2
3
 70
     0
 62
     2
  6
CONTINUOUS
370
    -3
390
80AC
347
8133
348
0
  0
LAYER
  5
76D0
102
{ACAD_XDICTIONARY
360
81E9
102
}
330
2
100
AcDbSymbolTableRecord
100
AcDbLayerTableRecord
  2
2
 70
     0
 62
     3
  6
CENTER
370
    -3
390
80AC
347
8133
348
0
  0
LAYER
  5
76D1
102
{ACAD_XDICTIONARY
360
81EB
102
}
330
2
100
AcDbSymbolTableRecord
100
AcDbLayerTableRecord
  2
1
 70
     0
 62
     4
  6
CONTINUOUS
370
    -3
390
80AC
347
8133
348
0
  0
LAYER
  5
76D2
102
{ACAD_XDICTIONARY
360
81ED
102
}
330
2
100
AcDbSymbolTableRecord
100
AcDbLayerTableRecord
  2
4
 70
     0
 62
     7
  6
CONTINUOUS
370
    -3
390
80AC
347
8133
348
0
  0
LAYER
  5
7B36
330
2
100
AcDbSymbolTableRecord
100
AcDbLayerTableRecord
  2
DEFPOINTS
 70
     0
 62
     7
  6
CONTINUOUS
290
     0
370
    -3
390
80AC
347
8133
348
0
  0
ENDTAB
  0
TABLE
  2
STYLE
  5
3
330
0
100
AcDbSymbolTable
 70
     1
  0
STYLE
  5
10
330
3
100
AcDbSymbolTableRecord
100
AcDbTextStyleTableRecord
  2
STANDARD
 70
     0
 40
0.0
 41
1.0
 50
0.0
 71
     0
 42
180.0
  3
simplex.shx
  4
extfont.shx
  0
ENDTAB
  0
TABLE
  2
VIEW
  5
6
330
0
100
AcDbSymbolTable
 70
     0
  0
ENDTAB
  0
TABLE
  2
UCS
  5
7
330
0
100
AcDbSymbolTable
 70
     0
  0
ENDTAB
  0
TABLE
  2
APPID
  5
9
330
0
100
AcDbSymbolTable
 70
     4
  0
APPID
  5
11
330
9
100
AcDbSymbolTableRecord
100
AcDbRegAppTableRecord
  2
ACAD
 70
     0
  0
APPID
  5
8172
330
9
100
AcDbSymbolTableRecord
100
AcDbRegAppTableRecord
  2
AcadAnnoMonitorAlertIconDisabled
 70
     0
  0
APPID
  5
8173
330
9
100
AcDbSymbolTableRecord
100
AcDbRegAppTableRecord
  2
ACAD_EXEMPT_FROM_CAD_STANDARDS
 70
     0
  0
APPID
  5
81F8
330
9
100
AcDbSymbolTableRecord
100
AcDbRegAppTableRecord
  2
ACAD_NAV_VCDISPLAY
 70
     0
  0
ENDTAB
  0
TABLE
  2
DIMSTYLE
  5
A
330
0
100
AcDbSymbolTable
 70
     2
100
AcDbDimStyleTable
 71
     1
340
1D
  0
DIMSTYLE
105
1D
102
{ACAD_REACTORS
330
7F7E
330
8040
330
804D
330
805A
330
8067
330
808C
330
8099
102
}
330
A
100
AcDbSymbolTableRecord
100
AcDbDimStyleTableRecord
  2
IGA
 70
     0
 40
2.0
 41
2.0
 42
0.5
 43
10.0
 44
1.0
 47
1.0
 48
1.0
 73
     0
 74
     0
 77
     1
 78
     8
140
3.0
141
0.0
143
0.03937
146
10.0
147
1.0
173
     1
271
     1
272
     0
279
     2
284
     8
340
10
341
79FC
343
79FC
344
79FC
  0
DIMSTYLE
105
7B38
102
{ACAD_REACTORS
330
7C1F
330
7C20
330
7C21
330
7C26
330
7C4D
330
7C54
330
7C9F
330
7CA0
330
7CA1
330
7CC7
330
7CD3
330
7CD4
330
7CD5
330
7CD6
330
7CD7
102
}
330
A
100
AcDbSymbolTableRecord
100
AcDbDimStyleTableRecord
  2
MATSU
 70
     0
 41
2.0
 42
1.0
 43
10.0
 44
1.0
 73
     0
 74
     0
 77
     1
 78
     8
140
3.0
141
0.0
143
0.03937
147
0.5
172
     1
173
     1
176
   256
177
   256
178
   256
284
     8
289
     0
340
10
341
79FC
343
79FC
344
79FC
  0
ENDTAB
  0
TABLE
  2
BLOCK_RECORD
  5
1
330
0
100
AcDbSymbolTable
 70
    25
  0
BLOCK_RECORD
  5
19
102
{ACAD_XDICTIONARY
360
80DA
102
}
330
1
100
AcDbSymbolTableRecord
100
AcDbBlockTableRecord
  2
*MODEL_SPACE
340
80AF
 70
     0
280
     1
281
     0
  0
BLOCK_RECORD
  5
16
102
{ACAD_XDICTIONARY
360
80D8
102
}
330
1
100
AcDbSymbolTableRecord
100
AcDbBlockTableRecord
  2
*PAPER_SPACE
340
80B0
 70
     0
280
     1
281
     0
  0
BLOCK_RECORD
  5
79FC
330
1
100
AcDbSymbolTableRecord
100
AcDbBlockTableRecord
  2
_OPEN
340
0
102
{BLKREFS
331
80E4
331
80E5
331
80EC
331
80ED
331
80FC
331
80FD
331
7E0C
331
7E0D
331
7E17
331
7E18
331
7E22
331
7E23
331
7E2D
331
7E2E
331
7E78
331
7E79
331
7E98
331
7E99
331
7EDB
331
7EDC
331
7EE6
331
7EE7
331
7EFB
331
7EFC
331
7F06
331
7F07
331
81C8
331
81C9
331
81D1
331
81D2
331
81DF
331
81E0
331
819A
331
819B
331
81A2
331
81A3
331
81AE
331
81B6
331
81B7
331
81BF
331
81C0
102
}
 70
     0
280
     1
281
     0
  0
BLOCK_RECORD
  5
7CEB
330
1
100
AcDbSymbolTableRecord
100
AcDbBlockTableRecord
  2
*D1
340
0
 70
     0
280
     1
281
     0
  0
BLOCK_RECORD
  5
7CF7
330
1
100
AcDbSymbolTableRecord
100
AcDbBlockTableRecord
  2
*D2
340
0
 70
     0
280
     1
281
     0
  0
BLOCK_RECORD
  5
7D03
330
1
100
AcDbSymbolTableRecord
100
AcDbBlockTableRecord
  2
*D3
340
0
 70
     0
280
     1
281
     0
  0
BLOCK_RECORD
  5
7D0F
330
1
100
AcDbSymbolTableRecord
100
AcDbBlockTableRecord
  2
*D4
340
0
 70
     0
280
     1
281
     0
  0
BLOCK_RECORD
  5
7D61
330
1
100
AcDbSymbolTableRecord
100
AcDbBlockTableRecord
  2
*D5
340
0
 70
     0
280
     1
281
     0
  0
BLOCK_RECORD
  5
7D6D
330
1
100
AcDbSymbolTableRecord
100
AcDbBlockTableRecord
  2
*D6
340
0
 70
     0
280
     1
281
     0
  0
BLOCK_RECORD
  5
7D79
330
1
100
AcDbSymbolTableRecord
100
AcDbBlockTableRecord
  2
*D7
340
0
 70
     0
280
     1
281
     0
  0
BLOCK_RECORD
  5
7D84
330
1
100
AcDbSymbolTableRecord
100
AcDbBlockTableRecord
  2
*D8
340
0
 70
     0
280
     1
281
     0
  0
BLOCK_RECORD
  5
7D90
330
1
100
AcDbSymbolTableRecord
100
AcDbBlockTableRecord
  2
*D9
340
0
 70
     0
280
     1
281
     0
  0
BLOCK_RECORD
  5
7DC2
330
1
100
AcDbSymbolTableRecord
100
AcDbBlockTableRecord
  2
*D10
340
0
 70
     0
280
     1
281
     0
  0
BLOCK_RECORD
  5
7DCD
330
1
100
AcDbSymbolTableRecord
100
AcDbBlockTableRecord
  2
*D11
340
0
 70
     0
280
     1
281
     0
  0
BLOCK_RECORD
  5
7DD9
330
1
100
AcDbSymbolTableRecord
100
AcDbBlockTableRecord
  2
*D12
340
0
 70
     0
280
     1
281
     0
  0
BLOCK_RECORD
  5
7DE5
330
1
100
AcDbSymbolTableRecord
100
AcDbBlockTableRecord
  2
*D13
340
0
 70
     0
280
     1
281
     0
  0
BLOCK_RECORD
  5
7DF0
330
1
100
AcDbSymbolTableRecord
100
AcDbBlockTableRecord
  2
*D14
340
0
 70
     0
280
     1
281
     0
  0
BLOCK_RECORD
  5
7DFC
330
1
100
AcDbSymbolTableRecord
100
AcDbBlockTableRecord
  2
*D15
340
0
 70
     0
280
     1
281
     0
  0
BLOCK_RECORD
  5
7F6F
330
1
100
AcDbSymbolTableRecord
100
AcDbBlockTableRecord
  2
*D16
340
0
 70
     0
280
     1
281
     0
  0
BLOCK_RECORD
  5
7FBA
330
1
100
AcDbSymbolTableRecord
100
AcDbBlockTableRecord
  2
_DOT
340
0
102
{BLKREFS
331
81AD
102
}
 70
     0
280
     1
281
     0
  0
BLOCK_RECORD
  5
8034
330
1
100
AcDbSymbolTableRecord
100
AcDbBlockTableRecord
  2
*D18
340
0
 70
     0
280
     1
281
     0
  0
BLOCK_RECORD
  5
8041
330
1
100
AcDbSymbolTableRecord
100
AcDbBlockTableRecord
  2
*D19
340
0
 70
     0
280
     1
281
     0
  0
BLOCK_RECORD
  5
804E
330
1
100
AcDbSymbolTableRecord
100
AcDbBlockTableRecord
  2
*D20
340
0
 70
     0
280
     1
281
     0
  0
BLOCK_RECORD
  5
805B
330
1
100
AcDbSymbolTableRecord
100
AcDbBlockTableRecord
  2
*D21
340
0
 70
     0
280
     1
281
     0
  0
BLOCK_RECORD
  5
8068
330
1
100
AcDbSymbolTableRecord
100
AcDbBlockTableRecord
  2
_NONE
340
0
 70
     0
280
     1
281
     0
  0
BLOCK_RECORD
  5
8084
330
1
100
AcDbSymbolTableRecord
100
AcDbBlockTableRecord
  2
*D23
340
0
 70
     0
280
     1
281
     0
  0
BLOCK_RECORD
  5
808D
330
1
100
AcDbSymbolTableRecord
100
AcDbBlockTableRecord
  2
*D24
340
0
 70
     0
280
     1
281
     0
  0
ENDTAB
  0
ENDSEC
  0
SECTION
  2
BLOCKS
  0
BLOCK
  5
1A
330
19
100
AcDbEntity
  8
0
100
AcDbBlockBegin
  2
*MODEL_SPACE
 70
     0
 10
0.0
 20
0.0
 30
0.0
  3
*MODEL_SPACE
  1

  0
ENDBLK
  5
1B
330
19
100
AcDbEntity
  8
0
100
AcDbBlockEnd
  0
BLOCK
  5
17
330
16
100
AcDbEntity
 67
     1
  8
0
100
AcDbBlockBegin
  2
*PAPER_SPACE
 70
     0
 10
0.0
 20
0.0
 30
0.0
  3
*PAPER_SPACE
  1

  0
ENDBLK
  5
18
330
16
100
AcDbEntity
 67
     1
  8
0
100
AcDbBlockEnd
  0
BLOCK
  5
7A00
330
79FC
100
AcDbEntity
  8
0
100
AcDbBlockBegin
  2
_OPEN
 70
     0
 10
0.0
 20
0.0
 30
0.0
  3
_OPEN
  1

  0
LINE
  5
79FD
330
79FC
100
AcDbEntity
  8
0
  6
ByBlock
 62
     0
100
AcDbLine
 10
-1.0
 20
0.1666666666666666
 30
0.0
 11
0.0
 21
0.0
 31
0.0
  0
LINE
  5
79FE
330
79FC
100
AcDbEntity
  8
0
  6
ByBlock
 62
     0
100
AcDbLine
 10
0.0
 20
0.0
 30
0.0
 11
-1.0
 21
-0.1666666666666666
 31
0.0
  0
LINE
  5
79FF
330
79FC
100
AcDbEntity
  8
0
  6
ByBlock
 62
     0
100
AcDbLine
 10
0.0
 20
0.0
 30
0.0
 11
-1.0
 21
0.0
 31
0.0
  0
ENDBLK
  5
7A01
330
79FC
100
AcDbEntity
  8
0
100
AcDbBlockEnd
  0
BLOCK
  5
7E08
330
7CEB
100
AcDbEntity
  8
0
100
AcDbBlockBegin
  2
*D1
 70
     1
 10
0.0
 20
0.0
 30
0.0
  3
*D1
  1

  0
LINE
  5
7E09
330
7CEB
100
AcDbEntity
  8
0
  6
ByBlock
440
 16777216
100
AcDbLine
 10
574.803173212284
 20
1659.732634008198
 30
0.0
 11
419.30630365825
 21
1659.732634008198
 31
0.0
  0
LINE
  5
7E0A
330
7CEB
100
AcDbEntity
  8
0
  6
ByBlock
440
 16777216
100
AcDbLine
 10
574.803173212284
 20
1079.732634008197
 30
0.0
 11
419.30630365825
 21
1079.732634008197
 31
0.0
  0
LINE
  5
7E0B
330
7CEB
100
AcDbEntity
  8
0
  6
ByBlock
440
 16777216
100
AcDbLine
 10
439.30630365825
 20
1619.732634008198
 30
0.0
 11
439.30630365825
 21
1119.732634008197
 31
0.0
  0
INSERT
  5
7E0C
330
7CEB
100
AcDbEntity
  8
0
  6
ByBlock
440
 16777216
100
AcDbBlockReference
  2
_OPEN
 10
439.30630365825
 20
1659.732634008198
 30
0.0
 41
40.0
 42
40.0
 43
40.0
 50
90.0
  0
INSERT
  5
7E0D
330
7CEB
100
AcDbEntity
  8
0
  6
ByBlock
440
 16777216
100
AcDbBlockReference
  2
_OPEN
 10
439.30630365825
 20
1079.732634008197
 30
0.0
 41
40.0
 42
40.0
 43
40.0
 50
270.0
  0
MTEXT
  5
7E0E
330
7CEB
100
AcDbEntity
  8
0
  6
ByBlock
440
 16777216
100
AcDbMText
 10
399.30630365825
 20
1369.732634008198
 30
0.0
 40
60.0
 41
0.0
 46
0.0
 71
     5
 72
     5
  1
\A1;580
 11
0.0
 21
1.0
 31
0.0
 73
     1
 44
1.0
  0
POINT
  5
7E0F
330
7CEB
100
AcDbEntity
  8
DEFPOINTS
  6
ByBlock
 62
     0
440
 16777216
100
AcDbPoint
 10
594.803173212284
 20
1659.732634008198
 30
0.0
  0
POINT
  5
7E10
330
7CEB
100
AcDbEntity
  8
DEFPOINTS
  6
ByBlock
 62
     0
440
 16777216
100
AcDbPoint
 10
594.803173212284
 20
1079.732634008197
 30
0.0
  0
POINT
  5
7E11
330
7CEB
100
AcDbEntity
  8
DEFPOINTS
  6
ByBlock
 62
     0
440
 16777216
100
AcDbPoint
 10
439.30630365825
 20
1079.732634008197
 30
0.0
  0
ENDBLK
  5
7E12
330
7CEB
100
AcDbEntity
  8
0
100
AcDbBlockEnd
  0
BLOCK
  5
7E13
330
7CF7
100
AcDbEntity
  8
0
100
AcDbBlockBegin
  2
*D2
 70
     1
 10
0.0
 20
0.0
 30
0.0
  3
*D2
  1

  0
LINE
  5
7E14
330
7CF7
100
AcDbEntity
  8
0
  6
ByBlock
440
 16777216
100
AcDbLine
 10
562.803173212284
 20
1659.732634008198
 30
0.0
 11
292.8864502481951
 21
1659.732634008198
 31
0.0
  0
LINE
  5
7E15
330
7CF7
100
AcDbEntity
  8
0
  6
ByBlock
440
 16777216
100
AcDbLine
 10
531.2035486470263
 20
1059.732634008198
 30
0.0
 11
292.8864502481951
 21
1059.732634008198
 31
0.0
  0
LINE
  5
7E16
330
7CF7
100
AcDbEntity
  8
0
  6
ByBlock
440
 16777216
100
AcDbLine
 10
312.8864502481952
 20
1619.732634008198
 30
0.0
 11
312.8864502481952
 21
1099.732634008198
 31
0.0
  0
INSERT
  5
7E17
330
7CF7
100
AcDbEntity
  8
0
  6
ByBlock
440
 16777216
100
AcDbBlockReference
  2
_OPEN
 10
312.8864502481952
 20
1659.732634008198
 30
0.0
 41
40.0
 42
40.0
 43
40.0
 50
90.0
  0
INSERT
  5
7E18
330
7CF7
100
AcDbEntity
  8
0
  6
ByBlock
440
 16777216
100
AcDbBlockReference
  2
_OPEN
 10
312.8864502481952
 20
1059.732634008198
 30
0.0
 41
40.0
 42
40.0
 43
40.0
 50
270.0
  0
MTEXT
  5
7E19
330
7CF7
100
AcDbEntity
  8
0
  6
ByBlock
440
 16777216
100
AcDbMText
 10
272.8864502481952
 20
1359.732634008198
 30
0.0
 40
60.0
 41
0.0
 46
0.0
 71
     5
 72
     5
  1
\A1;600
 11
0.0
 21
1.0
 31
0.0
 73
     1
 44
1.0
  0
POINT
  5
7E1A
330
7CF7
100
AcDbEntity
  8
DEFPOINTS
  6
ByBlock
 62
     0
440
 16777216
100
AcDbPoint
 10
582.803173212284
 20
1659.732634008198
 30
0.0
  0
POINT
  5
7E1B
330
7CF7
100
AcDbEntity
  8
DEFPOINTS
  6
ByBlock
 62
     0
440
 16777216
100
AcDbPoint
 10
551.2035486470263
 20
1059.732634008198
 30
0.0
  0
POINT
  5
7E1C
330
7CF7
100
AcDbEntity
  8
DEFPOINTS
  6
ByBlock
 62
     0
440
 16777216
100
AcDbPoint
 10
312.8864502481952
 20
1059.732634008198
 30
0.0
  0
ENDBLK
  5
7E1D
330
7CF7
100
AcDbEntity
  8
0
100
AcDbBlockEnd
  0
BLOCK
  5
7E1E
330
7D03
100
AcDbEntity
  8
0
100
AcDbBlockBegin
  2
*D3
 70
     1
 10
0.0
 20
0.0
 30
0.0
  3
*D3
  1

  0
LINE
  5
7E1F
330
7D03
100
AcDbEntity
  8
0
  6
ByBlock
440
 16777216
100
AcDbLine
 10
3512.906635817507
 20
1339.732634008198
 30
0.0
 11
3713.31995148206
 21
1339.732634008198
 31
0.0
  0
LINE
  5
7E20
330
7D03
100
AcDbEntity
  8
0
  6
ByBlock
440
 16777216
100
AcDbLine
 10
3512.906635817507
 20
779.7326340081976
 30
0.0
 11
3713.31995148206
 21
779.7326340081976
 31
0.0
  0
LINE
  5
7E21
330
7D03
100
AcDbEntity
  8
0
  6
ByBlock
440
 16777216
100
AcDbLine
 10
3693.31995148206
 20
1299.732634008198
 30
0.0
 11
3693.31995148206
 21
819.7326340081977
 31
0.0
  0
INSERT
  5
7E22
330
7D03
100
AcDbEntity
  8
0
  6
ByBlock
440
 16777216
100
AcDbBlockReference
  2
_OPEN
 10
3693.31995148206
 20
1339.732634008198
 30
0.0
 41
40.0
 42
40.0
 43
40.0
 50
90.0
  0
INSERT
  5
7E23
330
7D03
100
AcDbEntity
  8
0
  6
ByBlock
440
 16777216
100
AcDbBlockReference
  2
_OPEN
 10
3693.31995148206
 20
779.7326340081976
 30
0.0
 41
40.0
 42
40.0
 43
40.0
 50
270.0
  0
MTEXT
  5
7E24
330
7D03
100
AcDbEntity
  8
0
  6
ByBlock
440
 16777216
100
AcDbMText
 10
3653.31995148206
 20
1059.732634008198
 30
0.0
 40
60.0
 41
0.0
 46
0.0
 71
     5
 72
     5
  1
\A1;φ 560
 11
0.0
 21
1.0
 31
0.0
 73
     1
 44
1.0
  0
POINT
  5
7E25
330
7D03
100
AcDbEntity
  8
DEFPOINTS
  6
ByBlock
 62
     0
440
 16777216
100
AcDbPoint
 10
3492.906635817507
 20
1339.732634008198
 30
0.0
  0
POINT
  5
7E26
330
7D03
100
AcDbEntity
  8
DEFPOINTS
  6
ByBlock
 62
     0
440
 16777216
100
AcDbPoint
 10
3492.906635817507
 20
779.7326340081976
 30
0.0
  0
POINT
  5
7E27
330
7D03
100
AcDbEntity
  8
DEFPOINTS
  6
ByBlock
 62
     0
440
 16777216
100
AcDbPoint
 10
3693.31995148206
 20
779.7326340081976
 30
0.0
  0
ENDBLK
  5
7E28
330
7D03
100
AcDbEntity
  8
0
100
AcDbBlockEnd
  0
BLOCK
  5
7E29
330
7D0F
100
AcDbEntity
  8
0
100
AcDbBlockBegin
  2
*D4
 70
     1
 10
0.0
 20
0.0
 30
0.0
  3
*D4
  1

  0
LINE
  5
7E2A
330
7D0F
100
AcDbEntity
  8
0
  6
ByBlock
440
 16777216
100
AcDbLine
 10
984.8031732122844
 20
1714.700138209654
 30
0.0
 11
984.8031732122844
 21
1768.844790478752
 31
0.0
  0
LINE
  5
7E2B
330
7D0F
100
AcDbEntity
  8
0
  6
ByBlock
440
 16777216
100
AcDbLine
 10
594.803173212284
 20
1711.732634008197
 30
0.0
 11
594.803173212284
 21
1768.844790478752
 31
0.0
  0
LINE
  5
7E2C
330
7D0F
100
AcDbEntity
  8
0
  6
ByBlock
440
 16777216
100
AcDbLine
 10
944.8031732122844
 20
1748.844790478752
 30
0.0
 11
634.803173212284
 21
1748.844790478752
 31
0.0
  0
INSERT
  5
7E2D
330
7D0F
100
AcDbEntity
  8
0
  6
ByBlock
440
 16777216
100
AcDbBlockReference
  2
_OPEN
 10
984.8031732122844
 20
1748.844790478752
 30
0.0
 41
40.0
 42
40.0
 43
40.0
  0
INSERT
  5
7E2E
330
7D0F
100
AcDbEntity
  8
0
  6
ByBlock
440
 16777216
100
AcDbBlockReference
  2
_OPEN
 10
594.803173212284
 20
1748.844790478752
 30
0.0
 41
40.0
 42
40.0
 43
40.0
 50
180.0
  0
MTEXT
  5
7E2F
330
7D0F
100
AcDbEntity
  8
0
  6
ByBlock
440
 16777216
100
AcDbMText
 10
789.8031732122842
 20
1788.844790478752
 30
0.0
 40
60.0
 41
0.0
 46
0.0
 71
     5
 72
     5
  1
\A1;390
 73
     1
 44
1.0
  0
POINT
  5
7E30
330
7D0F
100
AcDbEntity
  8
DEFPOINTS
  6
ByBlock
 62
     0
440
 16777216
100
AcDbPoint
 10
984.8031732122844
 20
1694.700138209654
 30
0.0
  0
POINT
  5
7E31
330
7D0F
100
AcDbEntity
  8
DEFPOINTS
  6
ByBlock
 62
     0
440
 16777216
100
AcDbPoint
 10
594.803173212284
 20
1691.732634008198
 30
0.0
  0
POINT
  5
7E32
330
7D0F
100
AcDbEntity
  8
DEFPOINTS
  6
ByBlock
 62
     0
440
 16777216
100
AcDbPoint
 10
594.803173212284
 20
1748.844790478752
 30
0.0
  0
ENDBLK
  5
7E33
330
7D0F
100
AcDbEntity
  8
0
100
AcDbBlockEnd
  0
BLOCK
  5
7E74
330
7D61
100
AcDbEntity
  8
0
100
AcDbBlockBegin
  2
*D5
 70
     1
 10
0.0
 20
0.0
 30
0.0
  3
*D5
  1

  0
LINE
  5
7E75
330
7D61
100
AcDbEntity
  8
0
  6
ByBlock
440
 16777216
100
AcDbLine
 10
2740.906635817508
 20
1679.732634008198
 30
0.0
 11
2740.906635817508
 21
1769.684429060102
 31
0.0
  0
LINE
  5
7E76
330
7D61
100
AcDbEntity
  8
0
  6
ByBlock
440
 16777216
100
AcDbLine
 10
3490.906635817508
 20
1679.732634008198
 30
0.0
 11
3490.906635817508
 21
1769.684429060102
 31
0.0
  0
LINE
  5
7E77
330
7D61
100
AcDbEntity
  8
0
  6
ByBlock
440
 16777216
100
AcDbLine
 10
2780.906635817508
 20
1749.684429060102
 30
0.0
 11
3450.906635817509
 21
1749.684429060102
 31
0.0
  0
INSERT
  5
7E78
330
7D61
100
AcDbEntity
  8
0
  6
ByBlock
440
 16777216
100
AcDbBlockReference
  2
_OPEN
 10
2740.906635817508
 20
1749.684429060102
 30
0.0
 41
40.0
 42
40.0
 43
40.0
 50
180.0
  0
INSERT
  5
7E79
330
7D61
100
AcDbEntity
  8
0
  6
ByBlock
440
 16777216
100
AcDbBlockReference
  2
_OPEN
 10
3490.906635817508
 20
1749.684429060102
 30
0.0
 41
40.0
 42
40.0
 43
40.0
  0
MTEXT
  5
7E7A
330
7D61
100
AcDbEntity
  8
0
  6
ByBlock
440
 16777216
100
AcDbMText
 10
3115.906635817508
 20
1789.684429060102
 30
0.0
 40
60.0
 41
0.0
 46
0.0
 71
     5
 72
     5
  1
\A1;750
 73
     1
 44
1.0
  0
POINT
  5
7E7B
330
7D61
100
AcDbEntity
  8
DEFPOINTS
  6
ByBlock
 62
     0
440
 16777216
100
AcDbPoint
 10
2740.906635817508
 20
1659.732634008198
 30
0.0
  0
POINT
  5
7E7C
330
7D61
100
AcDbEntity
  8
DEFPOINTS
  6
ByBlock
 62
     0
440
 16777216
100
AcDbPoint
 10
3490.906635817508
 20
1659.732634008198
 30
0.0
  0
POINT
  5
7E7D
330
7D61
100
AcDbEntity
  8
DEFPOINTS
  6
ByBlock
 62
     0
440
 16777216
100
AcDbPoint
 10
3490.906635817508
 20
1749.684429060102
 30
0.0
  0
ENDBLK
  5
7E7E
330
7D61
100
AcDbEntity
  8
0
100
AcDbBlockEnd
  0
BLOCK
  5
7E7F
330
7D6D
100
AcDbEntity
  8
0
100
AcDbBlockBegin
  2
*D6
 70
     1
 10
0.0
 20
0.0
 30
0.0
  3
*D6
  1

  0
LINE
  5
8197
330
7D6D
100
AcDbEntity
  8
3
440
 16777216
370
    -2
100
AcDbLine
 10
3776.002372976022
 20
1934.524943391217
 30
0.0
 11
3776.002372976022
 21
2819.777879114132
 31
0.0
  0
LINE
  5
8198
330
7D6D
100
AcDbEntity
  8
3
440
 16777216
370
    -2
100
AcDbLine
 10
3306.002372976022
 20
2743.177695652145
 30
0.0
 11
3306.002372976022
 21
2819.777879114132
 31
0.0
  0
LINE
  5
8199
330
7D6D
100
AcDbEntity
  8
3
440
 16777216
370
    -2
100
AcDbLine
 10
3736.002372976023
 20
2799.777879114132
 30
0.0
 11
3346.002372976022
 21
2799.777879114132
 31
0.0
  0
INSERT
  5
819A
330
7D6D
100
AcDbEntity
  8
3
440
 16777216
370
    -2
100
AcDbBlockReference
  2
_OPEN
 10
3776.002372976022
 20
2799.777879114132
 30
0.0
 41
40.0
 42
40.0
 43
40.0
  0
INSERT
  5
819B
330
7D6D
100
AcDbEntity
  8
3
440
 16777216
370
    -2
100
AcDbBlockReference
  2
_OPEN
 10
3306.002372976022
 20
2799.777879114132
 30
0.0
 41
40.0
 42
40.0
 43
40.0
 50
180.0
  0
MTEXT
  5
819C
330
7D6D
100
AcDbEntity
  8
3
440
 16777216
100
AcDbMText
 10
3541.002372976021
 20
2855.492164828417
 30
0.0
 40
60.0
 41
0.0
 46
0.0
 71
     5
 72
     1
  1
\A1;(470)
 73
     1
 44
1.0
  0
POINT
  5
819D
330
7D6D
100
AcDbEntity
  8
DEFPOINTS
 62
     0
440
 16777216
100
AcDbPoint
 10
3776.002372976022
 20
1914.524943391217
 30
0.0
  0
POINT
  5
819E
330
7D6D
100
AcDbEntity
  8
DEFPOINTS
 62
     0
440
 16777216
100
AcDbPoint
 10
3306.002372976022
 20
2723.177695652144
 30
0.0
  0
POINT
  5
819F
330
7D6D
100
AcDbEntity
  8
DEFPOINTS
 62
     0
440
 16777216
100
AcDbPoint
 10
3306.002372976022
 20
2799.777879114132
 30
0.0
  0
ENDBLK
  5
7E89
330
7D6D
100
AcDbEntity
  8
0
100
AcDbBlockEnd
  0
BLOCK
  5
7E8A
330
7D79
100
AcDbEntity
  8
0
100
AcDbBlockBegin
  2
*D7
 70
     1
 10
0.0
 20
0.0
 30
0.0
  3
*D7
  1

  0
LINE
  5
80E2
330
7D79
100
AcDbEntity
  8
3
440
 16777216
100
AcDbLine
 10
1818.986169979581
 20
2029.424943391217
 30
0.0
 11
1818.986169979581
 21
2676.537099861771
 31
0.0
  0
LINE
  5
80E3
330
7D79
100
AcDbEntity
  8
3
440
 16777216
100
AcDbLine
 10
1373.312028107914
 20
2656.537099861771
 30
0.0
 11
1778.986169979581
 21
2656.537099861771
 31
0.0
  0
INSERT
  5
80E4
330
7D79
100
AcDbEntity
  8
3
440
 16777216
100
AcDbBlockReference
  2
_OPEN
 10
1333.312028107914
 20
2656.537099861771
 30
0.0
 41
40.0
 42
40.0
 43
40.0
 50
180.0
  0
INSERT
  5
80E5
330
7D79
100
AcDbEntity
  8
3
440
 16777216
100
AcDbBlockReference
  2
_OPEN
 10
1818.986169979581
 20
2656.537099861771
 30
0.0
 41
40.0
 42
40.0
 43
40.0
  0
MTEXT
  5
80E6
330
7D79
100
AcDbEntity
  8
3
440
 16777216
100
AcDbMText
 10
1576.149099043748
 20
2696.537099861771
 30
0.0
 40
60.0
 41
0.0
 46
0.0
 71
     5
 72
     5
  1
\A1;484
 73
     1
 44
1.0
  0
POINT
  5
80E7
330
7D79
100
AcDbEntity
  8
DEFPOINTS
 62
     0
440
 16777216
100
AcDbPoint
 10
1333.312028107914
 20
2602.392447592674
 30
0.0
  0
POINT
  5
80E8
330
7D79
100
AcDbEntity
  8
DEFPOINTS
 62
     0
440
 16777216
100
AcDbPoint
 10
1818.986169979581
 20
2009.424943391217
 30
0.0
  0
POINT
  5
80E9
330
7D79
100
AcDbEntity
  8
DEFPOINTS
 62
     0
440
 16777216
100
AcDbPoint
 10
1818.986169979581
 20
2656.537099861771
 30
0.0
  0
ENDBLK
  5
7E93
330
7D79
100
AcDbEntity
  8
0
100
AcDbBlockEnd
  0
BLOCK
  5
7E94
330
7D84
100
AcDbEntity
  8
0
100
AcDbBlockBegin
  2
*D8
 70
     1
 10
0.0
 20
0.0
 30
0.0
  3
*D8
  1

  0
LINE
  5
7E95
330
7D84
100
AcDbEntity
  8
0
  6
ByBlock
440
 16777216
100
AcDbLine
 10
594.803173212284
 20
1711.732634008197
 30
0.0
 11
594.803173212284
 21
1897.17890356115
 31
0.0
  0
LINE
  5
7E96
330
7D84
100
AcDbEntity
  8
0
  6
ByBlock
440
 16777216
100
AcDbLine
 10
1979.803173212284
 20
684.7326340081977
 30
0.0
 11
1979.803173212284
 21
1897.17890356115
 31
0.0
  0
LINE
  5
7E97
330
7D84
100
AcDbEntity
  8
0
  6
ByBlock
440
 16777216
100
AcDbLine
 10
634.803173212284
 20
1877.17890356115
 30
0.0
 11
1939.803173212284
 21
1877.17890356115
 31
0.0
  0
INSERT
  5
7E98
330
7D84
100
AcDbEntity
  8
0
  6
ByBlock
440
 16777216
100
AcDbBlockReference
  2
_OPEN
 10
594.803173212284
 20
1877.17890356115
 30
0.0
 41
40.0
 42
40.0
 43
40.0
 50
180.0
  0
INSERT
  5
7E99
330
7D84
100
AcDbEntity
  8
0
  6
ByBlock
440
 16777216
100
AcDbBlockReference
  2
_OPEN
 10
1979.803173212284
 20
1877.17890356115
 30
0.0
 41
40.0
 42
40.0
 43
40.0
  0
MTEXT
  5
7E9A
330
7D84
100
AcDbEntity
  8
0
  6
ByBlock
440
 16777216
100
AcDbMText
 10
1287.303173212284
 20
1917.17890356115
 30
0.0
 40
60.0
 41
0.0
 46
0.0
 71
     5
 72
     5
  1
\A1;1385
 73
     1
 44
1.0
  0
POINT
  5
7E9B
330
7D84
100
AcDbEntity
  8
DEFPOINTS
  6
ByBlock
 62
     0
440
 16777216
100
AcDbPoint
 10
594.803173212284
 20
1691.732634008198
 30
0.0
  0
POINT
  5
7E9C
330
7D84
100
AcDbEntity
  8
DEFPOINTS
  6
ByBlock
 62
     0
440
 16777216
100
AcDbPoint
 10
1979.803173212284
 20
664.7326340081977
 30
0.0
  0
POINT
  5
7E9D
330
7D84
100
AcDbEntity
  8
DEFPOINTS
  6
ByBlock
 62
     0
440
 16777216
100
AcDbPoint
 10
1979.803173212284
 20
1877.17890356115
 30
0.0
  0
ENDBLK
  5
7E9E
330
7D84
100
AcDbEntity
  8
0
100
AcDbBlockEnd
  0
BLOCK
  5
7E9F
330
7D90
100
AcDbEntity
  8
0
100
AcDbBlockBegin
  2
*D9
 70
     1
 10
0.0
 20
0.0
 30
0.0
  3
*D9
  1

  0
LINE
  5
80EA
330
7D90
100
AcDbEntity
  8
3
440
 16777216
100
AcDbLine
 10
958.3120281079144
 20
1497.424943391217
 30
0.0
 11
641.3953051438256
 21
1497.424943391217
 31
0.0
  0
LINE
  5
80EB
330
7D90
100
AcDbEntity
  8
3
440
 16777216
100
AcDbLine
 10
661.3953051438258
 20
1927.424943391217
 30
0.0
 11
661.3953051438256
 21
1537.424943391217
 31
0.0
  0
INSERT
  5
80EC
330
7D90
100
AcDbEntity
  8
3
440
 16777216
100
AcDbBlockReference
  2
_OPEN
 10
661.3953051438258
 20
1967.424943391217
 30
0.0
 41
40.0
 42
40.0
 43
40.0
 50
90.0
  0
INSERT
  5
80ED
330
7D90
100
AcDbEntity
  8
3
440
 16777216
100
AcDbBlockReference
  2
_OPEN
 10
661.3953051438256
 20
1497.424943391217
 30
0.0
 41
40.0
 42
40.0
 43
40.0
 50
270.0
  0
MTEXT
  5
80EE
330
7D90
100
AcDbEntity
  8
3
440
 16777216
100
AcDbMText
 10
621.3953051438254
 20
1732.424943391217
 30
0.0
 40
60.0
 41
0.0
 46
0.0
 71
     5
 72
     5
  1
\A1;470
 11
0.0000000000000001
 21
1.0
 31
0.0
 73
     1
 44
1.0
  0
POINT
  5
80EF
330
7D90
100
AcDbEntity
  8
DEFPOINTS
 62
     0
440
 16777216
100
AcDbPoint
 10
899.7124035426567
 20
1967.424943391217
 30
0.0
  0
POINT
  5
80F0
330
7D90
100
AcDbEntity
  8
DEFPOINTS
 62
     0
440
 16777216
100
AcDbPoint
 10
978.3120281079145
 20
1497.424943391217
 30
0.0
  0
POINT
  5
80F1
330
7D90
100
AcDbEntity
  8
DEFPOINTS
 62
     0
440
 16777216
100
AcDbPoint
 10
661.3953051438256
 20
1497.424943391217
 30
0.0
  0
ENDBLK
  5
7EA8
330
7D90
100
AcDbEntity
  8
0
100
AcDbBlockEnd
  0
BLOCK
  5
8022
330
7DC2
100
AcDbEntity
  8
0
100
AcDbBlockBegin
  2
*D10
 70
     1
 10
0.0
 20
0.0
 30
0.0
  3
*D10
  1

  0
LINE
  5
81A0
330
7DC2
100
AcDbEntity
  8
3
440
 16777216
370
    -2
100
AcDbLine
 10
2626.002372976021
 20
2207.424943391217
 30
0.0
 11
2626.002372976021
 21
2819.777879114132
 31
0.0
  0
LINE
  5
81A1
330
7DC2
100
AcDbEntity
  8
3
440
 16777216
370
    -2
100
AcDbLine
 10
3266.002372976021
 20
2799.777879114132
 30
0.0
 11
2666.002372976022
 21
2799.777879114132
 31
0.0
  0
INSERT
  5
81A2
330
7DC2
100
AcDbEntity
  8
3
440
 16777216
370
    -2
100
AcDbBlockReference
  2
_OPEN
 10
3306.002372976022
 20
2799.777879114132
 30
0.0
 41
40.0
 42
40.0
 43
40.0
  0
INSERT
  5
81A3
330
7DC2
100
AcDbEntity
  8
3
440
 16777216
370
    -2
100
AcDbBlockReference
  2
_OPEN
 10
2626.002372976021
 20
2799.777879114132
 30
0.0
 41
40.0
 42
40.0
 43
40.0
 50
180.0
  0
MTEXT
  5
81A4
330
7DC2
100
AcDbEntity
  8
3
440
 16777216
100
AcDbMText
 10
2966.002372976022
 20
2855.492164828417
 30
0.0
 40
60.0
 41
0.0
 46
0.0
 71
     5
 72
     1
  1
\A1;(680)
 73
     1
 44
1.0
  0
POINT
  5
81A5
330
7DC2
100
AcDbEntity
  8
DEFPOINTS
 62
     0
440
 16777216
100
AcDbPoint
 10
3306.002372976022
 20
2723.177695652144
 30
0.0
  0
POINT
  5
81A6
330
7DC2
100
AcDbEntity
  8
DEFPOINTS
 62
     0
440
 16777216
100
AcDbPoint
 10
2626.002372976021
 20
2187.424943391217
 30
0.0
  0
POINT
  5
81A7
330
7DC2
100
AcDbEntity
  8
DEFPOINTS
 62
     0
440
 16777216
100
AcDbPoint
 10
2626.002372976021
 20
2799.777879114132
 30
0.0
  0
ENDBLK
  5
802B
330
7DC2
100
AcDbEntity
  8
0
100
AcDbBlockEnd
  0
BLOCK
  5
7ED7
330
7DCD
100
AcDbEntity
  8
0
100
AcDbBlockBegin
  2
*D11
 70
     1
 10
0.0
 20
0.0
 30
0.0
  3
*D11
  1

  0
LINE
  5
7ED8
330
7DCD
100
AcDbEntity
  8
0
  6
ByBlock
440
 16777216
100
AcDbLine
 10
609.8031732122842
 20
3574.073535835267
 30
0.0
 11
413.2095751605698
 21
3574.073535835267
 31
0.0
  0
LINE
  5
7ED9
330
7DCD
100
AcDbEntity
  8
0
  6
ByBlock
440
 16777216
100
AcDbLine
 10
609.8031732122842
 20
2649.073535835267
 30
0.0
 11
413.2095751605698
 21
2649.073535835267
 31
0.0
  0
LINE
  5
7EDA
330
7DCD
100
AcDbEntity
  8
0
  6
ByBlock
440
 16777216
100
AcDbLine
 10
433.2095751605698
 20
3534.073535835267
 30
0.0
 11
433.2095751605698
 21
2689.073535835267
 31
0.0
  0
INSERT
  5
7EDB
330
7DCD
100
AcDbEntity
  8
0
  6
ByBlock
440
 16777216
100
AcDbBlockReference
  2
_OPEN
 10
433.2095751605698
 20
3574.073535835267
 30
0.0
 41
40.0
 42
40.0
 43
40.0
 50
90.0
  0
INSERT
  5
7EDC
330
7DCD
100
AcDbEntity
  8
0
  6
ByBlock
440
 16777216
100
AcDbBlockReference
  2
_OPEN
 10
433.2095751605698
 20
2649.073535835267
 30
0.0
 41
40.0
 42
40.0
 43
40.0
 50
270.0
  0
MTEXT
  5
7EDD
330
7DCD
100
AcDbEntity
  8
0
  6
ByBlock
440
 16777216
100
AcDbMText
 10
393.2095751605698
 20
3111.573535835267
 30
0.0
 40
60.0
 41
0.0
 46
0.0
 71
     5
 72
     5
  1
\A1;925
 11
0.0
 21
1.0
 31
0.0
 73
     1
 44
1.0
  0
POINT
  5
7EDE
330
7DCD
100
AcDbEntity
  8
DEFPOINTS
  6
ByBlock
 62
     0
440
 16777216
100
AcDbPoint
 10
629.8031732122843
 20
3574.073535835267
 30
0.0
  0
POINT
  5
7EDF
330
7DCD
100
AcDbEntity
  8
DEFPOINTS
  6
ByBlock
 62
     0
440
 16777216
100
AcDbPoint
 10
629.8031732122843
 20
2649.073535835267
 30
0.0
  0
POINT
  5
7EE0
330
7DCD
100
AcDbEntity
  8
DEFPOINTS
  6
ByBlock
 62
     0
440
 16777216
100
AcDbPoint
 10
433.2095751605698
 20
2649.073535835267
 30
0.0
  0
ENDBLK
  5
7EE1
330
7DCD
100
AcDbEntity
  8
0
100
AcDbBlockEnd
  0
BLOCK
  5
7EE2
330
7DD9
100
AcDbEntity
  8
0
100
AcDbBlockBegin
  2
*D12
 70
     1
 10
0.0
 20
0.0
 30
0.0
  3
*D12
  1

  0
LINE
  5
7EE3
330
7DD9
100
AcDbEntity
  8
0
  6
ByBlock
440
 16777216
100
AcDbLine
 10
629.8031732122843
 20
3594.073535835267
 30
0.0
 11
629.8031732122843
 21
3749.427487599593
 31
0.0
  0
LINE
  5
7EE4
330
7DD9
100
AcDbEntity
  8
0
  6
ByBlock
440
 16777216
100
AcDbLine
 10
1339.803173212284
 20
3594.073535835268
 30
0.0
 11
1339.803173212284
 21
3749.427487599593
 31
0.0
  0
LINE
  5
7EE5
330
7DD9
100
AcDbEntity
  8
0
  6
ByBlock
440
 16777216
100
AcDbLine
 10
669.8031732122842
 20
3729.427487599592
 30
0.0
 11
1299.803173212284
 21
3729.427487599592
 31
0.0
  0
INSERT
  5
7EE6
330
7DD9
100
AcDbEntity
  8
0
  6
ByBlock
440
 16777216
100
AcDbBlockReference
  2
_OPEN
 10
629.8031732122843
 20
3729.427487599592
 30
0.0
 41
40.0
 42
40.0
 43
40.0
 50
180.0
  0
INSERT
  5
7EE7
330
7DD9
100
AcDbEntity
  8
0
  6
ByBlock
440
 16777216
100
AcDbBlockReference
  2
_OPEN
 10
1339.803173212284
 20
3729.427487599592
 30
0.0
 41
40.0
 42
40.0
 43
40.0
  0
MTEXT
  5
7EE8
330
7DD9
100
AcDbEntity
  8
0
  6
ByBlock
440
 16777216
100
AcDbMText
 10
984.8031732122842
 20
3769.427487599593
 30
0.0
 40
60.0
 41
0.0
 46
0.0
 71
     5
 72
     5
  1
\A1;710
 73
     1
 44
1.0
  0
POINT
  5
7EE9
330
7DD9
100
AcDbEntity
  8
DEFPOINTS
  6
ByBlock
 62
     0
440
 16777216
100
AcDbPoint
 10
629.8031732122843
 20
3574.073535835267
 30
0.0
  0
POINT
  5
7EEA
330
7DD9
100
AcDbEntity
  8
DEFPOINTS
  6
ByBlock
 62
     0
440
 16777216
100
AcDbPoint
 10
1339.803173212284
 20
3574.073535835268
 30
0.0
  0
POINT
  5
7EEB
330
7DD9
100
AcDbEntity
  8
DEFPOINTS
  6
ByBlock
 62
     0
440
 16777216
100
AcDbPoint
 10
1339.803173212284
 20
3729.427487599592
 30
0.0
  0
ENDBLK
  5
7EEC
330
7DD9
100
AcDbEntity
  8
0
100
AcDbBlockEnd
  0
BLOCK
  5
7EED
330
7DE5
100
AcDbEntity
  8
0
100
AcDbBlockBegin
  2
*D13
 70
     1
 10
0.0
 20
0.0
 30
0.0
  3
*D13
  1

  0
LINE
  5
80FA
330
7DE5
100
AcDbEntity
  8
3
440
 16777216
100
AcDbLine
 10
2328.312028107915
 20
4176.765845218286
 30
0.0
 11
2328.312028107915
 21
4657.119796982612
 31
0.0
  0
LINE
  5
80FB
330
7DE5
100
AcDbEntity
  8
3
440
 16777216
100
AcDbLine
 10
1728.312028107914
 20
4637.119796982612
 30
0.0
 11
2288.312028107915
 21
4637.119796982612
 31
0.0
  0
INSERT
  5
80FC
330
7DE5
100
AcDbEntity
  8
3
440
 16777216
100
AcDbBlockReference
  2
_OPEN
 10
1688.312028107915
 20
4637.119796982612
 30
0.0
 41
40.0
 42
40.0
 43
40.0
 50
180.0
  0
INSERT
  5
80FD
330
7DE5
100
AcDbEntity
  8
3
440
 16777216
100
AcDbBlockReference
  2
_OPEN
 10
2328.312028107915
 20
4637.119796982612
 30
0.0
 41
40.0
 42
40.0
 43
40.0
  0
MTEXT
  5
80FE
330
7DE5
100
AcDbEntity
  8
3
440
 16777216
100
AcDbMText
 10
2008.312028107915
 20
4677.119796982611
 30
0.0
 40
60.0
 41
0.0
 46
0.0
 71
     5
 72
     5
  1
\A1;640
 73
     1
 44
1.0
  0
POINT
  5
80FF
330
7DE5
100
AcDbEntity
  8
DEFPOINTS
 62
     0
440
 16777216
100
AcDbPoint
 10
1688.312028107915
 20
4481.765845218286
 30
0.0
  0
POINT
  5
8100
330
7DE5
100
AcDbEntity
  8
DEFPOINTS
 62
     0
440
 16777216
100
AcDbPoint
 10
2328.312028107915
 20
4156.765845218286
 30
0.0
  0
POINT
  5
8101
330
7DE5
100
AcDbEntity
  8
DEFPOINTS
 62
     0
440
 16777216
100
AcDbPoint
 10
2328.312028107915
 20
4637.119796982612
 30
0.0
  0
ENDBLK
  5
7EF6
330
7DE5
100
AcDbEntity
  8
0
100
AcDbBlockEnd
  0
BLOCK
  5
7EF7
330
7DF0
100
AcDbEntity
  8
0
100
AcDbBlockBegin
  2
*D14
 70
     1
 10
0.0
 20
0.0
 30
0.0
  3
*D14
  1

  0
LINE
  5
7EF8
330
7DF0
100
AcDbEntity
  8
0
  6
ByBlock
440
 16777216
100
AcDbLine
 10
1999.803173212284
 20
3249.073535835267
 30
0.0
 11
2198.577904901487
 21
3249.073535835267
 31
0.0
  0
LINE
  5
7EF9
330
7DF0
100
AcDbEntity
  8
0
  6
ByBlock
440
 16777216
100
AcDbLine
 10
1999.803173212284
 20
2649.073535835267
 30
0.0
 11
2198.577904901487
 21
2649.073535835267
 31
0.0
  0
LINE
  5
7EFA
330
7DF0
100
AcDbEntity
  8
0
  6
ByBlock
440
 16777216
100
AcDbLine
 10
2178.577904901487
 20
3209.073535835268
 30
0.0
 11
2178.577904901487
 21
2689.073535835267
 31
0.0
  0
INSERT
  5
7EFB
330
7DF0
100
AcDbEntity
  8
0
  6
ByBlock
440
 16777216
100
AcDbBlockReference
  2
_OPEN
 10
2178.577904901487
 20
3249.073535835267
 30
0.0
 41
40.0
 42
40.0
 43
40.0
 50
90.0
  0
INSERT
  5
7EFC
330
7DF0
100
AcDbEntity
  8
0
  6
ByBlock
440
 16777216
100
AcDbBlockReference
  2
_OPEN
 10
2178.577904901487
 20
2649.073535835267
 30
0.0
 41
40.0
 42
40.0
 43
40.0
 50
270.0
  0
MTEXT
  5
7EFD
330
7DF0
100
AcDbEntity
  8
0
  6
ByBlock
440
 16777216
100
AcDbMText
 10
2138.577904901487
 20
2949.073535835267
 30
0.0
 40
60.0
 41
0.0
 46
0.0
 71
     5
 72
     5
  1
\A1;600
 11
0.0
 21
1.0
 31
0.0
 73
     1
 44
1.0
  0
POINT
  5
7EFE
330
7DF0
100
AcDbEntity
  8
DEFPOINTS
  6
ByBlock
 62
     0
440
 16777216
100
AcDbPoint
 10
1979.803173212284
 20
3249.073535835267
 30
0.0
  0
POINT
  5
7EFF
330
7DF0
100
AcDbEntity
  8
DEFPOINTS
  6
ByBlock
 62
     0
440
 16777216
100
AcDbPoint
 10
1979.803173212284
 20
2649.073535835267
 30
0.0
  0
POINT
  5
7F00
330
7DF0
100
AcDbEntity
  8
DEFPOINTS
  6
ByBlock
 62
     0
440
 16777216
100
AcDbPoint
 10
2178.577904901487
 20
2649.073535835267
 30
0.0
  0
ENDBLK
  5
7F01
330
7DF0
100
AcDbEntity
  8
0
100
AcDbBlockEnd
  0
BLOCK
  5
7F02
330
7DFC
100
AcDbEntity
  8
0
100
AcDbBlockBegin
  2
*D15
 70
     1
 10
0.0
 20
0.0
 30
0.0
  3
*D15
  1

  0
LINE
  5
7F03
330
7DFC
100
AcDbEntity
  8
0
  6
ByBlock
440
 16777216
100
AcDbLine
 10
1979.803173212284
 20
2629.073535835268
 30
0.0
 11
1979.803173212284
 21
2194.045082035846
 31
0.0
  0
LINE
  5
7F04
330
7DFC
100
AcDbEntity
  8
0
  6
ByBlock
440
 16777216
100
AcDbLine
 10
629.8031732122843
 20
2629.073535835268
 30
0.0
 11
629.8031732122843
 21
2194.045082035846
 31
0.0
  0
LINE
  5
7F05
330
7DFC
100
AcDbEntity
  8
0
  6
ByBlock
440
 16777216
100
AcDbLine
 10
1939.803173212284
 20
2214.045082035846
 30
0.0
 11
669.8031732122842
 21
2214.045082035846
 31
0.0
  0
INSERT
  5
7F06
330
7DFC
100
AcDbEntity
  8
0
  6
ByBlock
440
 16777216
100
AcDbBlockReference
  2
_OPEN
 10
1979.803173212284
 20
2214.045082035846
 30
0.0
 41
40.0
 42
40.0
 43
40.0
  0
INSERT
  5
7F07
330
7DFC
100
AcDbEntity
  8
0
  6
ByBlock
440
 16777216
100
AcDbBlockReference
  2
_OPEN
 10
629.8031732122843
 20
2214.045082035846
 30
0.0
 41
40.0
 42
40.0
 43
40.0
 50
180.0
  0
MTEXT
  5
7F08
330
7DFC
100
AcDbEntity
  8
0
  6
ByBlock
440
 16777216
100
AcDbMText
 10
1304.803173212284
 20
2254.045082035846
 30
0.0
 40
60.0
 41
0.0
 46
0.0
 71
     5
 72
     5
  1
\A1;1350
 73
     1
 44
1.0
  0
POINT
  5
7F09
330
7DFC
100
AcDbEntity
  8
DEFPOINTS
  6
ByBlock
 62
     0
440
 16777216
100
AcDbPoint
 10
1979.803173212284
 20
2649.073535835267
 30
0.0
  0
POINT
  5
7F0A
330
7DFC
100
AcDbEntity
  8
DEFPOINTS
  6
ByBlock
 62
     0
440
 16777216
100
AcDbPoint
 10
629.8031732122843
 20
2649.073535835267
 30
0.0
  0
POINT
  5
7F0B
330
7DFC
100
AcDbEntity
  8
DEFPOINTS
  6
ByBlock
 62
     0
440
 16777216
100
AcDbPoint
 10
629.8031732122843
 20
2214.045082035846
 30
0.0
  0
ENDBLK
  5
7F0C
330
7DFC
100
AcDbEntity
  8
0
100
AcDbBlockEnd
  0
BLOCK
  5
8001
330
7F6F
100
AcDbEntity
  8
0
100
AcDbBlockBegin
  2
*D16
 70
     1
 10
0.0
 20
0.0
 30
0.0
  3
*D16
  1

  0
LINE
  5
81A8
330
7F6F
100
AcDbEntity
  8
3
440
 16777216
370
    -2
100
AcDbLine
 10
958.3120281079144
 20
1417.424943391217
 30
0.0
 11
641.3953051438256
 21
1417.424943391217
 31
0.0
  0
LINE
  5
81A9
330
7F6F
100
AcDbEntity
  8
3
440
 16777216
370
    -2
100
AcDbLine
 10
958.3120281079144
 20
1342.424943391217
 30
0.0
 11
641.3953051438256
 21
1342.424943391217
 31
0.0
  0
LINE
  5
81AA
330
7F6F
100
AcDbEntity
  8
3
440
 16777216
370
    -2
100
AcDbLine
 10
661.3953051438256
 20
1457.424943391217
 30
0.0
 11
661.3953051438256
 21
1497.424943391217
 31
0.0
  0
LINE
  5
81AB
330
7F6F
100
AcDbEntity
  8
3
440
 16777216
370
    -2
100
AcDbLine
 10
661.3953051438256
 20
1302.424943391217
 30
0.0
 11
661.3953051438255
 21
1145.28208624836
 31
0.0
  0
LINE
  5
81AC
330
7F6F
100
AcDbEntity
  8
3
440
 16777216
370
    -2
100
AcDbLine
 10
661.3953051438256
 20
1417.424943391217
 30
0.0
 11
661.3953051438256
 21
1342.424943391217
 31
0.0
  0
INSERT
  5
81AD
330
7F6F
100
AcDbEntity
  8
3
440
 16777216
370
    -2
100
AcDbBlockReference
  2
_DOT
 10
661.3953051438256
 20
1417.424943391217
 30
0.0
 41
40.0
 42
40.0
 43
40.0
 50
270.0
  0
INSERT
  5
81AE
330
7F6F
100
AcDbEntity
  8
3
440
 16777216
370
    -2
100
AcDbBlockReference
  2
_OPEN
 10
661.3953051438256
 20
1342.424943391217
 30
0.0
 41
40.0
 42
40.0
 43
40.0
 50
90.0
  0
MTEXT
  5
81AF
330
7F6F
100
AcDbEntity
  8
3
440
 16777216
100
AcDbMText
 10
621.3953051438254
 20
1203.853514819788
 30
0.0
 40
60.0
 41
0.0
 46
0.0
 71
     5
 72
     1
  1
\A1;75
 11
0.0000000000000001
 21
1.0
 31
0.0
 73
     1
 44
1.0
  0
POINT
  5
81B0
330
7F6F
100
AcDbEntity
  8
DEFPOINTS
 62
     0
440
 16777216
100
AcDbPoint
 10
978.3120281079145
 20
1417.424943391217
 30
0.0
  0
POINT
  5
81B1
330
7F6F
100
AcDbEntity
  8
DEFPOINTS
 62
     0
440
 16777216
100
AcDbPoint
 10
978.3120281079145
 20
1342.424943391217
 30
0.0
  0
POINT
  5
81B2
330
7F6F
100
AcDbEntity
  8
DEFPOINTS
 62
     0
440
 16777216
100
AcDbPoint
 10
661.3953051438256
 20
1342.424943391217
 30
0.0
  0
ENDBLK
  5
800D
330
7F6F
100
AcDbEntity
  8
0
100
AcDbBlockEnd
  0
BLOCK
  5
7FC0
330
7FBA
100
AcDbEntity
  8
0
100
AcDbBlockBegin
  2
_DOT
 70
     0
 10
0.0
 20
0.0
 30
0.0
  3
_DOT
  1

  0
LWPOLYLINE
  5
7FBB
330
7FBA
100
AcDbEntity
  8
0
  6
ByBlock
 62
     0
100
AcDbPolyline
 90
        2
 70
     1
 43
0.25
 10
-0.125
 20
0.0
 42
1.0
 10
0.125
 20
0.0
 42
1.0
  0
LINE
  5
7FBF
330
7FBA
100
AcDbEntity
  8
0
  6
ByBlock
 62
     0
100
AcDbLine
 10
-0.25
 20
0.0
 30
0.0
 11
-1.0
 21
0.0
 31
0.0
  0
ENDBLK
  5
7FC1
330
7FBA
100
AcDbEntity
  8
0
100
AcDbBlockEnd
  0
BLOCK
  5
8035
330
8034
100
AcDbEntity
  8
0
100
AcDbBlockBegin
  2
*D18
 70
     1
 10
0.0
 20
0.0
 30
0.0
  3
*D18
  1

  0
LINE
  5
81B3
330
8034
100
AcDbEntity
  8
3
440
 16777216
370
    -2
100
AcDbLine
 10
978.3120281079145
 20
1322.424943391217
 30
0.0
 11
978.3120281079145
 21
1190.261500250784
 31
0.0
  0
LINE
  5
81B4
330
8034
100
AcDbEntity
  8
3
440
 16777216
370
    -2
100
AcDbLine
 10
1333.312028107914
 20
1322.424943391217
 30
0.0
 11
1333.312028107914
 21
1190.261500250784
 31
0.0
  0
LINE
  5
81B5
330
8034
100
AcDbEntity
  8
3
440
 16777216
370
    -2
100
AcDbLine
 10
1018.312028107914
 20
1210.261500250785
 30
0.0
 11
1293.312028107914
 21
1210.261500250785
 31
0.0
  0
INSERT
  5
81B6
330
8034
100
AcDbEntity
  8
3
440
 16777216
370
    -2
100
AcDbBlockReference
  2
_OPEN
 10
978.3120281079145
 20
1210.261500250785
 30
0.0
 41
40.0
 42
40.0
 43
40.0
 50
180.0
  0
INSERT
  5
81B7
330
8034
100
AcDbEntity
  8
3
440
 16777216
370
    -2
100
AcDbBlockReference
  2
_OPEN
 10
1333.312028107914
 20
1210.261500250785
 30
0.0
 41
40.0
 42
40.0
 43
40.0
  0
MTEXT
  5
81B8
330
8034
100
AcDbEntity
  8
3
440
 16777216
100
AcDbMText
 10
1155.812028107914
 20
1250.261500250785
 30
0.0
 40
60.0
 41
0.0
 46
0.0
 71
     5
 72
     1
  1
\A1;355
 73
     1
 44
1.0
  0
POINT
  5
81B9
330
8034
100
AcDbEntity
  8
DEFPOINTS
 62
     0
440
 16777216
100
AcDbPoint
 10
978.3120281079145
 20
1342.424943391217
 30
0.0
  0
POINT
  5
81BA
330
8034
100
AcDbEntity
  8
DEFPOINTS
 62
     0
440
 16777216
100
AcDbPoint
 10
1333.312028107914
 20
1342.424943391217
 30
0.0
  0
POINT
  5
81BB
330
8034
100
AcDbEntity
  8
DEFPOINTS
 62
     0
440
 16777216
100
AcDbPoint
 10
1333.312028107914
 20
1210.261500250785
 30
0.0
  0
ENDBLK
  5
803F
330
8034
100
AcDbEntity
  8
0
100
AcDbBlockEnd
  0
BLOCK
  5
8042
330
8041
100
AcDbEntity
  8
0
100
AcDbBlockBegin
  2
*D19
 70
     1
 10
0.0
 20
0.0
 30
0.0
  3
*D19
  1

  0
LINE
  5
81BC
330
8041
100
AcDbEntity
  8
3
440
 16777216
370
    -2
100
AcDbLine
 10
1333.312028107914
 20
1322.424943391217
 30
0.0
 11
1333.312028107914
 21
1190.261500250784
 31
0.0
  0
LINE
  5
81BD
330
8041
100
AcDbEntity
  8
3
440
 16777216
370
    -2
100
AcDbLine
 10
2328.312028107915
 20
1322.424943391217
 30
0.0
 11
2328.312028107915
 21
1190.261500250784
 31
0.0
  0
LINE
  5
81BE
330
8041
100
AcDbEntity
  8
3
440
 16777216
370
    -2
100
AcDbLine
 10
1373.312028107914
 20
1210.261500250785
 30
0.0
 11
2288.312028107915
 21
1210.261500250785
 31
0.0
  0
INSERT
  5
81BF
330
8041
100
AcDbEntity
  8
3
440
 16777216
370
    -2
100
AcDbBlockReference
  2
_OPEN
 10
1333.312028107914
 20
1210.261500250785
 30
0.0
 41
40.0
 42
40.0
 43
40.0
 50
180.0
  0
INSERT
  5
81C0
330
8041
100
AcDbEntity
  8
3
440
 16777216
370
    -2
100
AcDbBlockReference
  2
_OPEN
 10
2328.312028107915
 20
1210.261500250785
 30
0.0
 41
40.0
 42
40.0
 43
40.0
  0
MTEXT
  5
81C1
330
8041
100
AcDbEntity
  8
3
440
 16777216
100
AcDbMText
 10
1830.812028107914
 20
1250.261500250785
 30
0.0
 40
60.0
 41
0.0
 46
0.0
 71
     5
 72
     1
  1
\A1;995
 73
     1
 44
1.0
  0
POINT
  5
81C2
330
8041
100
AcDbEntity
  8
DEFPOINTS
 62
     0
440
 16777216
100
AcDbPoint
 10
1333.312028107914
 20
1342.424943391217
 30
0.0
  0
POINT
  5
81C3
330
8041
100
AcDbEntity
  8
DEFPOINTS
 62
     0
440
 16777216
100
AcDbPoint
 10
2328.312028107915
 20
1342.424943391217
 30
0.0
  0
POINT
  5
81C4
330
8041
100
AcDbEntity
  8
DEFPOINTS
 62
     0
440
 16777216
100
AcDbPoint
 10
2328.312028107915
 20
1210.261500250785
 30
0.0
  0
ENDBLK
  5
804C
330
8041
100
AcDbEntity
  8
0
100
AcDbBlockEnd
  0
BLOCK
  5
804F
330
804E
100
AcDbEntity
  8
0
100
AcDbBlockBegin
  2
*D20
 70
     1
 10
0.0
 20
0.0
 30
0.0
  3
*D20
  1

  0
LINE
  5
81C5
330
804E
100
AcDbEntity
  8
3
440
 16777216
370
    -2
100
AcDbLine
 10
2799.002372976021
 20
1322.424943391217
 30
0.0
 11
2799.002372976021
 21
1190.261500250784
 31
0.0
  0
LINE
  5
81C6
330
804E
100
AcDbEntity
  8
3
440
 16777216
370
    -2
100
AcDbLine
 10
3306.002372976022
 20
1322.424943391217
 30
0.0
 11
3306.002372976022
 21
1190.261500250784
 31
0.0
  0
LINE
  5
81C7
330
804E
100
AcDbEntity
  8
3
440
 16777216
370
    -2
100
AcDbLine
 10
2839.002372976021
 20
1210.261500250785
 30
0.0
 11
3266.002372976021
 21
1210.261500250785
 31
0.0
  0
INSERT
  5
81C8
330
804E
100
AcDbEntity
  8
3
440
 16777216
370
    -2
100
AcDbBlockReference
  2
_OPEN
 10
2799.002372976021
 20
1210.261500250785
 30
0.0
 41
40.0
 42
40.0
 43
40.0
 50
180.0
  0
INSERT
  5
81C9
330
804E
100
AcDbEntity
  8
3
440
 16777216
370
    -2
100
AcDbBlockReference
  2
_OPEN
 10
3306.002372976022
 20
1210.261500250785
 30
0.0
 41
40.0
 42
40.0
 43
40.0
  0
MTEXT
  5
81CA
330
804E
100
AcDbEntity
  8
3
440
 16777216
100
AcDbMText
 10
3052.502372976022
 20
1250.261500250785
 30
0.0
 40
60.0
 41
0.0
 46
0.0
 71
     5
 72
     1
  1
\A1;507
 73
     1
 44
1.0
  0
POINT
  5
81CB
330
804E
100
AcDbEntity
  8
DEFPOINTS
 62
     0
440
 16777216
100
AcDbPoint
 10
2799.002372976021
 20
1342.424943391217
 30
0.0
  0
POINT
  5
81CC
330
804E
100
AcDbEntity
  8
DEFPOINTS
 62
     0
440
 16777216
100
AcDbPoint
 10
3306.002372976022
 20
1342.424943391217
 30
0.0
  0
POINT
  5
81CD
330
804E
100
AcDbEntity
  8
DEFPOINTS
 62
     0
440
 16777216
100
AcDbPoint
 10
3306.002372976022
 20
1210.261500250785
 30
0.0
  0
ENDBLK
  5
8059
330
804E
100
AcDbEntity
  8
0
100
AcDbBlockEnd
  0
BLOCK
  5
805C
330
805B
100
AcDbEntity
  8
0
100
AcDbBlockBegin
  2
*D21
 70
     1
 10
0.0
 20
0.0
 30
0.0
  3
*D21
  1

  0
LINE
  5
81CE
330
805B
100
AcDbEntity
  8
3
440
 16777216
370
    -2
100
AcDbLine
 10
3306.002372976022
 20
1322.424943391217
 30
0.0
 11
3306.002372976022
 21
1190.261500250784
 31
0.0
  0
LINE
  5
81CF
330
805B
100
AcDbEntity
  8
3
440
 16777216
370
    -2
100
AcDbLine
 10
3724.002372976022
 20
1322.424943391217
 30
0.0
 11
3724.002372976022
 21
1190.261500250784
 31
0.0
  0
LINE
  5
81D0
330
805B
100
AcDbEntity
  8
3
440
 16777216
370
    -2
100
AcDbLine
 10
3346.002372976022
 20
1210.261500250785
 30
0.0
 11
3684.002372976021
 21
1210.261500250785
 31
0.0
  0
INSERT
  5
81D1
330
805B
100
AcDbEntity
  8
3
440
 16777216
370
    -2
100
AcDbBlockReference
  2
_OPEN
 10
3306.002372976022
 20
1210.261500250785
 30
0.0
 41
40.0
 42
40.0
 43
40.0
 50
180.0
  0
INSERT
  5
81D2
330
805B
100
AcDbEntity
  8
3
440
 16777216
370
    -2
100
AcDbBlockReference
  2
_OPEN
 10
3724.002372976022
 20
1210.261500250785
 30
0.0
 41
40.0
 42
40.0
 43
40.0
  0
MTEXT
  5
81D3
330
805B
100
AcDbEntity
  8
3
440
 16777216
100
AcDbMText
 10
3515.002372976022
 20
1250.261500250785
 30
0.0
 40
60.0
 41
0.0
 46
0.0
 71
     5
 72
     1
  1
\A1;418
 73
     1
 44
1.0
  0
POINT
  5
81D4
330
805B
100
AcDbEntity
  8
DEFPOINTS
 62
     0
440
 16777216
100
AcDbPoint
 10
3306.002372976022
 20
1342.424943391217
 30
0.0
  0
POINT
  5
81D5
330
805B
100
AcDbEntity
  8
DEFPOINTS
 62
     0
440
 16777216
100
AcDbPoint
 10
3724.002372976022
 20
1342.424943391217
 30
0.0
  0
POINT
  5
81D6
330
805B
100
AcDbEntity
  8
DEFPOINTS
 62
     0
440
 16777216
100
AcDbPoint
 10
3724.002372976022
 20
1210.261500250785
 30
0.0
  0
ENDBLK
  5
8066
330
805B
100
AcDbEntity
  8
0
100
AcDbBlockEnd
  0
BLOCK
  5
8069
330
8068
100
AcDbEntity
  8
0
100
AcDbBlockBegin
  2
_NONE
 70
     0
 10
0.0
 20
0.0
 30
0.0
  3
_NONE
  1

  0
CIRCLE
  5
806A
330
8068
100
AcDbEntity
  8
0
  6
ByBlock
 62
     0
100
AcDbCircle
 10
0.0
 20
0.0
 30
0.0
 40
0.25
  0
ENDBLK
  5
806B
330
8068
100
AcDbEntity
  8
0
100
AcDbBlockEnd
  0
BLOCK
  5
8085
330
8084
100
AcDbEntity
  8
0
100
AcDbBlockBegin
  2
*D23
 70
     1
 10
0.0
 20
0.0
 30
0.0
  3
*D23
  1

  0
LINE
  5
81D7
330
8084
100
AcDbEntity
  8
3
440
 16777216
370
    -2
100
AcDbLine
 10
662.3770176379148
 20
1417.424943391217
 30
0.0
 11
662.3770176379148
 21
1497.424943391217
 31
0.0
  0
MTEXT
  5
81D8
330
8084
100
AcDbEntity
  8
3
440
 16777216
100
AcDbMText
 10
581.6627319236289
 20
1457.424943391217
 30
0.0
 40
60.0
 41
0.0
 46
0.0
 71
     5
 72
     1
  1
\A1;(80)
 11
0.0000000000000001
 21
1.0
 31
0.0
 73
     1
 44
1.0
  0
POINT
  5
81D9
330
8084
100
AcDbEntity
  8
DEFPOINTS
 62
     0
440
 16777216
100
AcDbPoint
 10
978.3120281079145
 20
1417.424943391217
 30
0.0
  0
POINT
  5
81DA
330
8084
100
AcDbEntity
  8
DEFPOINTS
 62
     0
440
 16777216
100
AcDbPoint
 10
978.3120281079145
 20
1497.424943391217
 30
0.0
  0
POINT
  5
81DB
330
8084
100
AcDbEntity
  8
DEFPOINTS
 62
     0
440
 16777216
100
AcDbPoint
 10
662.3770176379148
 20
1497.424943391217
 30
0.0
  0
ENDBLK
  5
808B
330
8084
100
AcDbEntity
  8
0
100
AcDbBlockEnd
  0
BLOCK
  5
808E
330
808D
100
AcDbEntity
  8
0
100
AcDbBlockBegin
  2
*D24
 70
     1
 10
0.0
 20
0.0
 30
0.0
  3
*D24
  1

  0
LINE
  5
81DC
330
808D
100
AcDbEntity
  8
3
440
 16777216
370
    -2
100
AcDbLine
 10
923.3120281079136
 20
2567.424943391217
 30
0.0
 11
483.9510566387728
 21
2567.424943391217
 31
0.0
  0
LINE
  5
81DD
330
808D
100
AcDbEntity
  8
3
440
 16777216
370
    -2
100
AcDbLine
 10
958.3120281079144
 20
1342.424943391217
 30
0.0
 11
483.9510566387725
 21
1342.424943391217
 31
0.0
  0
LINE
  5
81DE
330
808D
100
AcDbEntity
  8
3
440
 16777216
370
    -2
100
AcDbLine
 10
503.9510566387728
 20
2527.424943391217
 30
0.0
 11
503.9510566387725
 21
1382.424943391217
 31
0.0
  0
INSERT
  5
81DF
330
808D
100
AcDbEntity
  8
3
440
 16777216
370
    -2
100
AcDbBlockReference
  2
_OPEN
 10
503.9510566387728
 20
2567.424943391217
 30
0.0
 41
40.0
 42
40.0
 43
40.0
 50
90.0
  0
INSERT
  5
81E0
330
808D
100
AcDbEntity
  8
3
440
 16777216
370
    -2
100
AcDbBlockReference
  2
_OPEN
 10
503.9510566387725
 20
1342.424943391217
 30
0.0
 41
40.0
 42
40.0
 43
40.0
 50
270.0
  0
MTEXT
  5
81E1
330
808D
100
AcDbEntity
  8
3
440
 16777216
100
AcDbMText
 10
448.2367709244867
 20
1954.924943391217
 30
0.0
 40
60.0
 41
0.0
 46
0.0
 71
     5
 72
     1
  1
\A1;(1225)
 11
0.0000000000000001
 21
1.0
 31
0.0
 73
     1
 44
1.0
  0
POINT
  5
81E2
330
808D
100
AcDbEntity
  8
DEFPOINTS
 62
     0
440
 16777216
100
AcDbPoint
 10
943.3120281079137
 20
2567.424943391217
 30
0.0
  0
POINT
  5
81E3
330
808D
100
AcDbEntity
  8
DEFPOINTS
 62
     0
440
 16777216
100
AcDbPoint
 10
978.3120281079145
 20
1342.424943391217
 30
0.0
  0
POINT
  5
81E4
330
808D
100
AcDbEntity
  8
DEFPOINTS
 62
     0
440
 16777216
100
AcDbPoint
 10
503.9510566387725
 20
1342.424943391217
 30
0.0
  0
ENDBLK
  5
8098
330
808D
100
AcDbEntity
  8
0
100
AcDbBlockEnd
  0
ENDSEC
  0
SECTION
  2
ENTITIES
  0
LINE
  5
7C16
330
19
100
AcDbEntity
  8
1
100
AcDbLine
 10
928.9445187181845
 20
1968.424943391217
 30
0.0
 11
960.6153724330688
 21
1968.424943391217
 31
0.0
  0
LINE
  5
7C17
330
19
100
AcDbEntity
  8
1
100
AcDbLine
 10
2931.002372976021
 20
2567.424943391217
 30
0.0
 11
2931.002372976021
 21
1992.424943391217
 31
0.0
  0
LINE
  5
7C18
330
19
100
AcDbEntity
  8
1
100
AcDbLine
 10
3681.002372976022
 20
2567.424943391217
 30
0.0
 11
3681.002372976021
 21
1572.424943391217
 31
0.0
  0
LINE
  5
7C19
330
19
100
AcDbEntity
  8
2
100
AcDbLine
 10
2563.555972185768
 20
1967.424943391217
 30
0.0
 11
3784.530328605721
 21
1967.424943391217
 31
0.0
  0
LINE
  5
7C1A
330
19
100
AcDbEntity
  8
1
100
AcDbLine
 10
946.3120281079136
 20
1955.424943391217
 30
0.0
 11
946.3120281079136
 21
2599.424943391217
 31
0.0
  0
LINE
  5
7C1B
330
19
100
AcDbEntity
  8
1
100
AcDbLine
 10
943.3120281079137
 20
1985.424943391217
 30
0.0
 11
943.3120281079137
 21
2569.424943391217
 31
0.0
  0
LINE
  5
7C1C
330
19
100
AcDbEntity
  8
1
100
AcDbLine
 10
1002.860845552966
 20
1987.424943391217
 30
0.0
 11
943.3120281079137
 21
1987.424943391217
 31
0.0
  0
LINE
  5
7C1D
330
19
100
AcDbEntity
  8
2
100
AcDbLine
 10
815.8582650608222
 20
1967.424943391217
 30
0.0
 11
1848.923812532581
 21
1967.424943391217
 31
0.0
  0
LINE
  5
7C1E
330
19
100
AcDbEntity
  8
1
100
AcDbLine
 10
3685.302372976021
 20
1657.424943391217
 30
0.0
 11
3683.002372976021
 21
1657.424943391217
 31
0.0
  0
DIMENSION
  5
7C1F
330
19
100
AcDbEntity
  8
3
100
AcDbDimension
280
     0
  2
*D1
 10
787.8151585538798
 20
1987.424943391217
 30
0.0
 11
747.8151585538799
 21
2277.424943391217
 31
0.0
 12
348.5088548956301
 22
907.6923093830192
 32
0.0
 70
    32
 71
     5
 42
-1.0
 73
     0
 74
     0
 75
     0
  3
MATSU
100
AcDbAlignedDimension
 13
943.3120281079137
 23
2567.424943391217
 33
0.0
 14
943.3120281079137
 24
1987.424943391217
 34
0.0
 50
270.0
100
AcDbRotatedDimension
1001
ACAD
1000
DSTYLE
1002
{
1070
    40
1040
20.0
1002
}
  0
DIMENSION
  5
7C20
330
19
100
AcDbEntity
  8
3
100
AcDbDimension
280
     0
  2
*D2
 10
661.3953051438256
 20
1967.424943391217
 30
0.0
 11
621.3953051438257
 21
2267.424943391217
 31
0.0
 12
348.5088548956301
 22
907.6923093830192
 32
0.0
 70
    32
 71
     5
 42
-1.0
 73
     0
 74
     0
 75
     0
  3
MATSU
100
AcDbAlignedDimension
 13
931.3120281079136
 23
2567.424943391217
 33
0.0
 14
899.7124035426567
 24
1967.424943391217
 34
0.0
 50
270.0
100
AcDbRotatedDimension
1001
ACAD
1000
DSTYLE
1002
{
1070
    40
1040
20.0
1002
}
  0
DIMENSION
  5
7C21
330
19
100
AcDbEntity
  8
3
100
AcDbDimension
280
     0
  2
*D3
 10
3883.415688640574
 20
1687.424943391217
 30
0.0
 11
3843.415688640574
 21
1967.424943391217
 31
0.0
 12
190.0957371585136
 22
907.6923093830192
 32
0.0
 70
    32
  1
φ <>
 71
     5
 42
-1.0
 73
     0
 74
     0
 75
     0
  3
MATSU
100
AcDbAlignedDimension
 13
3683.00237297602
 23
2247.424943391218
 33
0.0
 14
3683.00237297602
 24
1687.424943391217
 34
0.0
 50
90.0
100
AcDbRotatedDimension
1001
ACAD
1000
DSTYLE
1002
{
1070
    40
1040
20.0
1002
}
  0
LINE
  5
7C22
330
19
100
AcDbEntity
  8
2
100
AcDbLine
 10
1333.312028107914
 20
3323.353502782302
 30
0.0
 11
1333.312028107914
 21
4509.533440592674
 31
0.0
  0
LINE
  5
7C23
330
19
100
AcDbEntity
  8
2
100
AcDbLine
 10
882.5671522668107
 20
4063.765845218286
 30
0.0
 11
1807.312028107914
 21
4063.765845218285
 31
0.0
  0
LINE
  5
7C24
330
19
100
AcDbEntity
  8
2
100
AcDbLine
 10
3306.002372976022
 20
2646.733552260493
 30
0.0
 11
3306.002372976022
 21
1342.424943391217
 31
0.0
  0
LINE
  5
7C25
330
19
100
AcDbEntity
  8
2
100
AcDbLine
 10
1333.312028107914
 20
2602.392447592674
 30
0.0
 11
1333.312028107914
 21
1342.424943391217
 31
0.0
  0
DIMENSION
  5
7C26
330
19
100
AcDbEntity
  8
3
100
AcDbDimension
280
     0
  2
*D4
 10
943.3120281079137
 20
2656.537099861771
 30
0.0
 11
1138.312028107914
 21
2696.537099861771
 31
0.0
 12
348.5088548956301
 22
907.6923093830192
 32
0.0
 70
    32
 71
     5
 42
-1.0
 73
     0
 74
     0
 75
     0
  3
MATSU
100
AcDbAlignedDimension
 13
1333.312028107914
 23
2602.392447592674
 33
0.0
 14
943.3120281079137
 24
2599.424943391217
 34
0.0
100
AcDbRotatedDimension
1001
ACAD
1000
DSTYLE
1002
{
1070
    40
1040
20.0
1002
}
  0
LINE
  5
7C2F
330
19
100
AcDbEntity
  8
1
100
AcDbLine
 10
973.3120281079145
 20
2564.963404929678
 30
0.0
 11
973.3120281079145
 21
1987.424943391217
 31
0.0
  0
LINE
  5
7C30
330
19
100
AcDbEntity
  8
1
100
AcDbLine
 10
946.3120281079136
 20
1955.424943391217
 30
0.0
 11
943.3120281079137
 21
1955.424943391217
 31
0.0
  0
LINE
  5
7C31
330
19
100
AcDbEntity
  8
1
100
AcDbLine
 10
943.3120281079137
 20
1955.424943391217
 30
0.0
 11
943.3120281079137
 21
2599.424943391217
 31
0.0
  0
LINE
  5
7C32
330
19
100
AcDbEntity
  8
1
100
AcDbLine
 10
943.3120281079137
 20
2599.424943391217
 30
0.0
 11
946.3120281079136
 21
2599.424943391217
 31
0.0
  0
LINE
  5
7C33
330
19
100
AcDbEntity
  8
1
100
AcDbLine
 10
978.3120281079145
 20
1497.424943391217
 30
0.0
 11
2328.312028107915
 21
1497.424943391217
 31
0.0
  0
LINE
  5
7C34
330
19
100
AcDbEntity
  8
1
100
AcDbLine
 10
978.3120281079145
 20
1572.424943391217
 30
0.0
 11
2328.312028107915
 21
1572.424943391217
 31
0.0
  0
LINE
  5
7C35
330
19
100
AcDbEntity
  8
1
100
AcDbLine
 10
978.3120281079145
 20
1417.424943391217
 30
0.0
 11
2328.312028107915
 21
1417.424943391217
 31
0.0
  0
LINE
  5
7C36
330
19
100
AcDbEntity
  8
1
100
AcDbLine
 10
978.3120281079145
 20
1342.424943391217
 30
0.0
 11
2328.312028107915
 21
1342.424943391217
 31
0.0
  0
LINE
  5
7C37
330
19
100
AcDbEntity
  8
1
100
AcDbLine
 10
978.3120281079154
 20
1572.424943391217
 30
0.0
 11
978.3120281079145
 21
1497.424943391217
 31
0.0
  0
LINE
  5
7C38
330
19
100
AcDbEntity
  8
1
100
AcDbLine
 10
2328.312028107915
 20
1572.424943391217
 30
0.0
 11
2328.312028107915
 21
1497.424943391217
 31
0.0
  0
LINE
  5
7C39
330
19
100
AcDbEntity
  8
1
100
AcDbLine
 10
978.3120281079145
 20
1417.424943391217
 30
0.0
 11
978.3120281079145
 21
1342.424943391217
 31
0.0
  0
LINE
  5
7C3A
330
19
100
AcDbEntity
  8
1
100
AcDbLine
 10
2328.312028107915
 20
1417.424943391217
 30
0.0
 11
2328.312028107915
 21
1342.424943391217
 31
0.0
  0
LINE
  5
7C3B
330
19
100
AcDbEntity
  8
1
100
AcDbLine
 10
2931.002372976021
 20
2567.424943391217
 30
0.0
 11
3681.002372976022
 21
2567.424943391217
 31
0.0
  0
LINE
  5
7C3C
330
19
100
AcDbEntity
  8
1
100
AcDbLine
 10
2799.002372976021
 20
1497.424943391217
 30
0.0
 11
3724.002372976022
 21
1497.424943391217
 31
0.0
  0
LINE
  5
7C3D
330
19
100
AcDbEntity
  8
1
100
AcDbLine
 10
2799.002372976021
 20
1572.424943391217
 30
0.0
 11
3724.002372976022
 21
1572.424943391217
 31
0.0
  0
LINE
  5
7C3E
330
19
100
AcDbEntity
  8
1
100
AcDbLine
 10
2799.002372976021
 20
1417.424943391217
 30
0.0
 11
3724.002372976022
 21
1417.424943391217
 31
0.0
  0
LINE
  5
7C3F
330
19
100
AcDbEntity
  8
1
100
AcDbLine
 10
2799.002372976021
 20
1342.424943391217
 30
0.0
 11
3724.002372976022
 21
1342.424943391217
 31
0.0
  0
LINE
  5
7C40
330
19
100
AcDbEntity
  8
1
100
AcDbLine
 10
3724.002372976023
 20
1572.424943391217
 30
0.0
 11
3724.002372976022
 21
1497.424943391217
 31
0.0
  0
LINE
  5
7C41
330
19
100
AcDbEntity
  8
1
100
AcDbLine
 10
2799.002372976021
 20
1572.424943391217
 30
0.0
 11
2799.002372976021
 21
1497.424943391217
 31
0.0
  0
LINE
  5
7C42
330
19
100
AcDbEntity
  8
1
100
AcDbLine
 10
3724.002372976022
 20
1417.424943391217
 30
0.0
 11
3724.002372976022
 21
1342.424943391217
 31
0.0
  0
LINE
  5
7C43
330
19
100
AcDbEntity
  8
1
100
AcDbLine
 10
2799.002372976021
 20
1417.424943391217
 30
0.0
 11
2799.002372976021
 21
1342.424943391217
 31
0.0
  0
DIMENSION
  5
7C4D
330
19
100
AcDbEntity
  8
3
100
AcDbDimension
280
     0
  2
*D5
 10
3681.002372976022
 20
2657.376738443121
 30
0.0
 11
3306.002372976022
 21
2697.376738443121
 31
0.0
 12
190.0957371585136
 22
907.6923093830192
 32
0.0
 70
    32
 71
     5
 42
-1.0
 73
     0
 74
     0
 75
     0
  3
MATSU
100
AcDbAlignedDimension
 13
2931.002372976021
 23
2567.424943391217
 33
0.0
 14
3681.002372976022
 24
2567.424943391217
 34
0.0
100
AcDbRotatedDimension
1001
ACAD
1000
DSTYLE
1002
{
1070
    40
1040
20.0
1002
}
  0
LINE
  5
7C4E
330
19
100
AcDbEntity
  8
1
100
AcDbLine
 10
3776.002372976022
 20
1914.524943391217
 30
0.0
 11
3776.002372976023
 21
1834.524943391217
 31
0.0
  0
LINE
  5
7C4F
330
19
100
AcDbEntity
  8
1
100
AcDbLine
 10
3706.002372976022
 20
1924.524943391217
 30
0.0
 11
3706.002372976022
 21
1824.524943391217
 31
0.0
  0
LINE
  5
7C50
330
19
100
AcDbEntity
  8
1
100
AcDbLine
 10
3706.002372976022
 20
1924.524943391217
 30
0.0
 11
3766.002372976022
 21
1924.524943391217
 31
0.0
  0
LINE
  5
7C51
330
19
100
AcDbEntity
  8
1
100
AcDbLine
 10
3706.002372976022
 20
1824.524943391217
 30
0.0
 11
3766.002372976023
 21
1824.524943391217
 31
0.0
  0
LINE
  5
7C52
330
19
100
AcDbEntity
  8
1
100
AcDbLine
 10
3766.002372976022
 20
1924.524943391217
 30
0.0
 11
3776.002372976022
 21
1914.524943391217
 31
0.0
  0
LINE
  5
7C53
330
19
100
AcDbEntity
  8
1
100
AcDbLine
 10
3776.002372976023
 20
1834.524943391217
 30
0.0
 11
3766.002372976023
 21
1824.524943391217
 31
0.0
  0
DIMENSION
  5
7C54
330
19
100
AcDbEntity
  8
3
100
AcDbDimension
280
     0
  2
*D6
 10
3306.002372976022
 20
2799.777879114132
 30
0.0
 11
3541.002372976021
 21
2855.492164828417
 31
0.0
 70
    32
  1
(<>)
 71
     5
 42
470.0000000000004
 73
     0
 74
     0
 75
     0
  3
MATSU
100
AcDbAlignedDimension
 13
3776.002372976022
 23
1914.524943391217
 33
0.0
 14
3306.002372976022
 24
2723.177695652144
 34
0.0
100
AcDbRotatedDimension
1001
ACAD
1000
DSTYLE
1002
{
1070
    40
1040
20.0
1002
}
  0
LINE
  5
7C55
330
19
100
AcDbEntity
  8
1
100
AcDbLine
 10
2626.002372976021
 20
2187.424943391217
 30
0.0
 11
2626.002372976021
 21
1587.424943391217
 31
0.0
  0
LINE
  5
7C56
330
19
100
AcDbEntity
  8
1
100
AcDbLine
 10
2786.002372976021
 20
2187.424943391217
 30
0.0
 11
2786.002372976021
 21
2112.646105871482
 31
0.0
  0
LINE
  5
7C57
330
19
100
AcDbEntity
  8
1
100
AcDbLine
 10
978.3120281079145
 20
3556.765845218286
 30
0.0
 11
978.3120281079145
 21
3688.765845218286
 31
0.0
  0
LINE
  5
7C58
330
19
100
AcDbEntity
  8
1
100
AcDbLine
 10
2328.312028107915
 20
3556.765845218286
 30
0.0
 11
2328.312028107915
 21
4156.765845218286
 31
0.0
  0
LINE
  5
7C59
330
19
100
AcDbEntity
  8
1
100
AcDbLine
 10
978.3120281079145
 20
4481.765845218286
 30
0.0
 11
1688.312028107915
 21
4481.765845218286
 31
0.0
  0
LINE
  5
7C5A
330
19
100
AcDbEntity
  8
1
100
AcDbLine
 10
978.3120281079145
 20
3556.765845218286
 30
0.0
 11
2328.312028107915
 21
3556.765845218286
 31
0.0
  0
LINE
  5
7C5B
330
19
100
AcDbEntity
  8
1
100
AcDbLine
 10
1688.312028107915
 20
4438.765845218286
 30
0.0
 11
1688.312028107915
 21
4481.765845218286
 31
0.0
  0
LINE
  5
7C5C
330
19
100
AcDbEntity
  8
1
100
AcDbLine
 10
1807.312028107914
 20
4156.765845218286
 30
0.0
 11
2328.312028107915
 21
4156.765845218286
 31
0.0
  0
LINE
  5
7C5D
330
19
100
AcDbEntity
  8
2
100
AcDbLine
 10
2033.312028107915
 20
4148.674903218287
 30
0.0
 11
2033.312028107915
 21
3358.88354264662
 31
0.0
  0
ARC
  5
7C5F
330
19
100
AcDbEntity
  8
1
100
AcDbCircle
 10
2033.312028107915
 20
1807.424943391217
 30
0.0
 40
185.0
100
AcDbArc
 50
287.945251
 51
252.054749
  0
LINE
  5
7C60
330
19
100
AcDbEntity
  8
2
100
AcDbLine
 10
2033.312028107915
 20
2075.142338835131
 30
0.0
 11
2033.312028107915
 21
1342.424943391216
 31
0.0
  0
LINE
  5
7C61
330
19
100
AcDbEntity
  8
1
100
AcDbLine
 10
1976.312028107914
 20
1631.424943391217
 30
0.0
 11
2090.312028107915
 21
1631.424943391217
 31
0.0
  0
LINE
  5
7C63
330
19
100
AcDbEntity
  8
1
100
AcDbLine
 10
1871.312028107914
 20
1702.683976391217
 30
0.0
 11
1871.312028107914
 21
1627.424943391217
 31
0.0
  0
LINE
  5
7C64
330
19
100
AcDbEntity
  8
1
100
AcDbLine
 10
1930.812028107914
 20
1632.573502391216
 30
0.0
 11
1940.318742107914
 21
1647.496110391217
 31
0.0
  0
LINE
  5
7C67
330
19
100
AcDbEntity
  8
1
100
AcDbLine
 10
1930.812028107914
 20
1644.424943391217
 30
0.0
 11
1930.812028107914
 21
1627.424943391217
 31
0.0
  0
LINE
  5
7C68
330
19
100
AcDbEntity
  8
1
100
AcDbLine
 10
1930.812028107914
 20
1627.424943391217
 30
0.0
 11
1871.312028107914
 21
1627.424943391217
 31
0.0
  0
LINE
  5
7C6A
330
19
100
AcDbEntity
  8
1
100
AcDbLine
 10
1927.812028107915
 20
1647.424943391217
 30
0.0
 11
1874.312028107915
 21
1647.424943391217
 31
0.0
  0
ARC
  5
7C6B
330
19
100
AcDbEntity
  8
1
100
AcDbCircle
 10
1874.312028107915
 20
1644.424943391217
 30
0.0
 40
3.0
100
AcDbArc
 50
90.0
 51
180.0
  0
LINE
  5
7C72
330
19
100
AcDbEntity
  8
1
100
AcDbLine
 10
1922.488115107914
 20
1647.424943391217
 30
0.0
 11
1927.667863107914
 21
1655.555558391217
 31
0.0
  0
ARC
  5
7C74
330
19
100
AcDbEntity
  8
1
100
AcDbCircle
 10
1927.812028107915
 20
1644.424943391217
 30
0.0
 40
3.0
100
AcDbArc
 50
0.0
 51
90.0
  0
LINE
  5
7C75
330
19
100
AcDbEntity
  8
1
100
AcDbLine
 10
1871.312028107914
 20
1702.683976391217
 30
0.0
 11
1877.696000107914
 21
1707.381730391217
 31
0.0
  0
LINE
  5
7C7A
330
19
100
AcDbEntity
  8
1
100
AcDbLine
 10
2135.812028107915
 20
1632.573502391216
 30
0.0
 11
2126.305314107915
 21
1647.496110391217
 31
0.0
  0
LINE
  5
7C7E
330
19
100
AcDbEntity
  8
1
100
AcDbLine
 10
2135.812028107915
 20
1644.424943391217
 30
0.0
 11
2135.812028107915
 21
1627.424943391217
 31
0.0
  0
LINE
  5
7C7F
330
19
100
AcDbEntity
  8
1
100
AcDbLine
 10
2195.312028107915
 20
1702.683976391217
 30
0.0
 11
2195.312028107915
 21
1627.424943391217
 31
0.0
  0
LINE
  5
7C80
330
19
100
AcDbEntity
  8
1
100
AcDbLine
 10
2135.812028107915
 20
1627.424943391217
 30
0.0
 11
2195.312028107915
 21
1627.424943391217
 31
0.0
  0
LINE
  5
7C82
330
19
100
AcDbEntity
  8
1
100
AcDbLine
 10
2138.812028107915
 20
1647.424943391217
 30
0.0
 11
2192.312028107915
 21
1647.424943391217
 31
0.0
  0
LINE
  5
7C84
330
19
100
AcDbEntity
  8
1
100
AcDbLine
 10
2144.135942107915
 20
1647.424943391217
 30
0.0
 11
2138.956193107915
 21
1655.555558391217
 31
0.0
  0
ARC
  5
7C85
330
19
100
AcDbEntity
  8
1
100
AcDbCircle
 10
2138.812028107915
 20
1644.424943391217
 30
0.0
 40
3.0
100
AcDbArc
 50
90.0
 51
180.0
  0
ARC
  5
7C86
330
19
100
AcDbEntity
  8
1
100
AcDbCircle
 10
2192.312028107915
 20
1644.424943391217
 30
0.0
 40
3.0
100
AcDbArc
 50
0.0
 51
90.0
  0
LINE
  5
7C91
330
19
100
AcDbEntity
  8
1
100
AcDbLine
 10
2195.312028107915
 20
1702.683976391217
 30
0.0
 11
2188.928117107915
 21
1707.381730391217
 31
0.0
  0
LINE
  5
7C92
330
19
100
AcDbEntity
  8
2
100
AcDbLine
 10
2312.608000494503
 20
1807.424943391217
 30
0.0
 11
1802.530186118919
 21
1807.424943391217
 31
0.0
  0
LINE
  5
7C93
330
19
100
AcDbEntity
  8
1
100
AcDbLine
 10
2009.312028107915
 20
3536.265845218287
 30
0.0
 11
2009.312028107914
 21
3506.265845218287
 31
0.0
  0
LINE
  5
7C94
330
19
100
AcDbEntity
  8
1
100
AcDbLine
 10
2057.312028107914
 20
3536.265845218287
 30
0.0
 11
2057.312028107914
 21
3506.265845218287
 31
0.0
  0
LINE
  5
7C95
330
19
100
AcDbEntity
  8
1
100
AcDbLine
 10
1818.312028107914
 20
1627.424943391217
 30
0.0
 11
1963.312028107915
 21
1627.424943391217
 31
0.0
  0
LINE
  5
7C96
330
19
100
AcDbEntity
  8
1
100
AcDbLine
 10
1963.312028107915
 20
1627.424943391217
 30
0.0
 11
1963.312028107915
 21
1617.424943391217
 31
0.0
  0
LINE
  5
7C97
330
19
100
AcDbEntity
  8
1
100
AcDbLine
 10
2103.312028107914
 20
1627.424943391217
 30
0.0
 11
2103.312028107914
 21
1617.424943391217
 31
0.0
  0
LINE
  5
7C99
330
19
100
AcDbEntity
  8
1
100
AcDbLine
 10
1963.312028107915
 20
1617.424943391217
 30
0.0
 11
2103.312028107914
 21
1617.424943391217
 31
0.0
  0
LINE
  5
7C9A
330
19
100
AcDbEntity
  8
1
100
AcDbLine
 10
2103.312028107914
 20
1627.424943391217
 30
0.0
 11
2248.312028107914
 21
1627.424943391217
 31
0.0
  0
LINE
  5
7C9D
330
19
100
AcDbEntity
  8
1
100
AcDbLine
 10
2248.312028107914
 20
1627.424943391217
 30
0.0
 11
2258.312028107915
 21
1572.424943391217
 31
0.0
  0
LINE
  5
7C9E
330
19
100
AcDbEntity
  8
1
100
AcDbLine
 10
1818.312028107914
 20
1627.424943391217
 30
0.0
 11
1808.312028107915
 21
1572.424943391217
 31
0.0
  0
DIMENSION
  5
7C9F
330
19
100
AcDbEntity
  8
3
100
AcDbDimension
280
     0
  2
*D7
 10
1818.986169979581
 20
2656.537099861771
 30
0.0
 11
1576.149099043748
 21
2696.537099861771
 31
0.0
 70
    32
  1
484
 71
     5
 42
-1.0
 73
     0
 74
     0
 75
     0
  3
MATSU
100
AcDbAlignedDimension
 13
1333.312028107914
 23
2602.392447592674
 33
0.0
 14
1818.986169979581
 24
2009.424943391217
 34
0.0
100
AcDbRotatedDimension
1001
ACAD
1000
DSTYLE
1002
{
1070
   287
1070
     4
1070
    40
1040
20.0
1070
    75
1070
     1
1070
   279
1070
     1
1070
   289
1070
     3
1002
}
  0
DIMENSION
  5
7CA0
330
19
100
AcDbEntity
  8
3
100
AcDbDimension
280
     0
  2
*D8
 10
2328.312028107915
 20
2784.87121294417
 30
0.0
 11
1635.812028107914
 21
2824.871212944169
 31
0.0
 12
348.5088548956301
 22
907.6923093830192
 32
0.0
 70
    32
 71
     5
 42
-1.0
 73
     0
 74
     0
 75
     0
  3
MATSU
100
AcDbAlignedDimension
 13
943.3120281079137
 23
2599.424943391217
 33
0.0
 14
2328.312028107915
 24
1572.424943391217
 34
0.0
100
AcDbRotatedDimension
1001
ACAD
1000
DSTYLE
1002
{
1070
    40
1040
20.0
1002
}
  0
DIMENSION
  5
7CA1
330
19
100
AcDbEntity
  8
3
100
AcDbDimension
280
     0
  2
*D9
 10
661.3953051438256
 20
1497.424943391217
 30
0.0
 11
621.3953051438254
 21
1732.424943391217
 31
0.0
 70
    32
 71
     5
 42
-1.0
 73
     0
 74
     0
 75
     0
  3
MATSU
100
AcDbAlignedDimension
 13
899.7124035426567
 23
1967.424943391217
 33
0.0
 14
978.3120281079145
 24
1497.424943391217
 34
0.0
 50
270.0
100
AcDbRotatedDimension
1001
ACAD
1000
DSTYLE
1002
{
1070
   287
1070
     4
1070
    40
1040
20.0
1070
    75
1070
     1
1070
   279
1070
     1
1070
   289
1070
     3
1002
}
  0
CIRCLE
  5
7CA5
330
19
100
AcDbEntity
  8
1
100
AcDbCircle
 10
1333.312028107914
 20
1967.424943391217
 30
0.0
 40
280.0
  0
CIRCLE
  5
7CA6
330
19
100
AcDbEntity
  8
1
100
AcDbCircle
 10
1333.312028107914
 20
1967.424943391217
 30
0.0
 40
310.0
  0
LINE
  5
7CA7
330
19
100
AcDbEntity
  8
1
100
AcDbLine
 10
943.3120281079146
 20
3688.765845218287
 30
0.0
 11
1807.312028107914
 21
3688.765845218286
 31
0.0
  0
LINE
  5
7CA8
330
19
100
AcDbEntity
  8
1
100
AcDbLine
 10
943.3120281079146
 20
4438.765845218286
 30
0.0
 11
1807.312028107914
 21
4438.765845218286
 31
0.0
  0
LINE
  5
7CA9
330
19
100
AcDbEntity
  8
1
100
AcDbLine
 10
943.3120281079146
 20
3658.765845218287
 30
0.0
 11
943.3120281079146
 21
4468.765845218285
 31
0.0
  0
LINE
  5
7CAA
330
19
100
AcDbEntity
  8
1
100
AcDbLine
 10
1807.312028107914
 20
3688.765845218286
 30
0.0
 11
1807.312028107914
 21
4438.765845218287
 31
0.0
  0
LINE
  5
7CAB
330
19
100
AcDbEntity
  8
1
100
AcDbLine
 10
943.3120281079146
 20
4468.765845218285
 30
0.0
 11
946.3120281079136
 21
4468.765845218286
 31
0.0
  0
LINE
  5
7CAC
330
19
100
AcDbEntity
  8
1
100
AcDbLine
 10
943.3120281079146
 20
3658.765845218287
 30
0.0
 11
946.3120281079136
 21
3658.765845218287
 31
0.0
  0
LINE
  5
7CAD
330
19
100
AcDbEntity
  8
1
100
AcDbLine
 10
946.3120281079145
 20
3658.765845218287
 30
0.0
 11
946.3120281079145
 21
4468.765845218285
 31
0.0
  0
LINE
  5
7CAE
330
19
100
AcDbEntity
  8
1
100
AcDbLine
 10
1113.312028107914
 20
3383.765845218287
 30
0.0
 11
2253.312028107914
 21
3383.765845218287
 31
0.0
  0
LINE
  5
7CAF
330
19
100
AcDbEntity
  8
1
100
AcDbLine
 10
1113.312028107914
 20
3543.765845218287
 30
0.0
 11
2253.312028107914
 21
3543.765845218287
 31
0.0
  0
LINE
  5
7CB0
330
19
100
AcDbEntity
  8
1
100
AcDbLine
 10
2253.312028107914
 20
3383.765845218287
 30
0.0
 11
2253.312028107914
 21
3543.765845218287
 31
0.0
  0
LINE
  5
7CB1
330
19
100
AcDbEntity
  8
1
100
AcDbLine
 10
1113.312028107914
 20
3383.765845218287
 30
0.0
 11
1113.312028107914
 21
3543.765845218287
 31
0.0
  0
LINE
  5
7CB2
330
19
100
AcDbEntity
  8
1
100
AcDbLine
 10
1223.312028107914
 20
3506.265845218287
 30
0.0
 11
1443.312028107914
 21
3506.265845218287
 31
0.0
  0
LINE
  5
7CB3
330
19
100
AcDbEntity
  8
1
100
AcDbLine
 10
1223.312028107914
 20
3421.265845218286
 30
0.0
 11
1443.312028107914
 21
3421.265845218286
 31
0.0
  0
LINE
  5
7CB4
330
19
100
AcDbEntity
  8
1
100
AcDbLine
 10
1223.312028107914
 20
3421.265845218286
 30
0.0
 11
1223.312028107913
 21
3506.265845218287
 31
0.0
  0
LINE
  5
7CB5
330
19
100
AcDbEntity
  8
1
100
AcDbLine
 10
1443.312028107914
 20
3421.265845218286
 30
0.0
 11
1443.312028107914
 21
3506.265845218287
 31
0.0
  0
LINE
  5
7CB6
330
19
100
AcDbEntity
  8
1
100
AcDbLine
 10
1893.812028107914
 20
3421.265845218286
 30
0.0
 11
1893.812028107914
 21
3506.265845218287
 31
0.0
  0
LINE
  5
7CB7
330
19
100
AcDbEntity
  8
1
100
AcDbLine
 10
2172.812028107915
 20
3421.265845218286
 30
0.0
 11
2172.812028107915
 21
3506.265845218287
 31
0.0
  0
LINE
  5
7CB8
330
19
100
AcDbEntity
  8
1
100
AcDbLine
 10
1893.812028107914
 20
3506.265845218287
 30
0.0
 11
2172.812028107915
 21
3506.265845218287
 31
0.0
  0
LINE
  5
7CB9
330
19
100
AcDbEntity
  8
1
100
AcDbLine
 10
1893.812028107914
 20
3421.265845218286
 30
0.0
 11
2172.812028107915
 21
3421.265845218286
 31
0.0
  0
LINE
  5
7CBA
330
19
100
AcDbEntity
  8
1
100
AcDbLine
 10
1310.812028107914
 20
3506.265845218287
 30
0.0
 11
1310.812028107914
 21
3688.765845218286
 31
0.0
  0
LINE
  5
7CBB
330
19
100
AcDbEntity
  8
1
100
AcDbLine
 10
1355.812028107914
 20
3506.265845218287
 30
0.0
 11
1355.812028107914
 21
3688.765845218286
 31
0.0
  0
LINE
  5
7CBC
330
19
100
AcDbEntity
  8
1
100
AcDbLine
 10
2626.002372976021
 20
2187.424943391217
 30
0.0
 11
2786.002372976021
 21
2187.424943391217
 31
0.0
  0
LINE
  5
7CBD
330
19
100
AcDbEntity
  8
2
100
AcDbLine
 10
2568.051927390052
 20
1807.424943391217
 30
0.0
 11
3339.502372976021
 21
1807.424943391217
 31
0.0
  0
LINE
  5
7CBE
330
19
100
AcDbEntity
  8
1
100
AcDbLine
 10
2626.002372976021
 20
1587.424943391217
 30
0.0
 11
2786.002372976021
 21
1587.424943391217
 31
0.0
  0
LINE
  5
7CBF
330
19
100
AcDbEntity
  8
1
100
AcDbLine
 10
2748.502372976022
 20
2077.424943391217
 30
0.0
 11
2748.502372976021
 21
1658.924943391217
 31
0.0
  0
LINE
  5
7CC0
330
19
100
AcDbEntity
  8
1
100
AcDbLine
 10
2663.502372976021
 20
2077.424943391217
 30
0.0
 11
2663.502372976021
 21
1658.924943391217
 31
0.0
  0
LINE
  5
7CC1
330
19
100
AcDbEntity
  8
1
100
AcDbLine
 10
2663.502372976021
 20
2077.424943391217
 30
0.0
 11
2748.502372976022
 21
2077.424943391216
 31
0.0
  0
LINE
  5
7CC2
330
19
100
AcDbEntity
  8
1
100
AcDbLine
 10
2663.502372976021
 20
1857.424943391216
 30
0.0
 11
2748.502372976021
 21
1857.424943391216
 31
0.0
  0
LINE
  5
7CC3
330
19
100
AcDbEntity
  8
1
100
AcDbLine
 10
2663.502372976021
 20
1955.924943391217
 30
0.0
 11
2748.502372976021
 21
1955.924943391217
 31
0.0
  0
LINE
  5
7CC4
330
19
100
AcDbEntity
  8
1
100
AcDbLine
 10
2663.502372976021
 20
1658.924943391217
 30
0.0
 11
2748.502372976021
 21
1658.924943391217
 31
0.0
  0
LINE
  5
7CC5
330
19
100
AcDbEntity
  8
1
100
AcDbLine
 10
2748.502372976022
 20
1989.924943391217
 30
0.0
 11
2778.502372976022
 21
1989.924943391217
 31
0.0
  0
LINE
  5
7CC6
330
19
100
AcDbEntity
  8
1
100
AcDbLine
 10
2748.502372976022
 20
1944.924943391217
 30
0.0
 11
2778.502372976022
 21
1944.924943391217
 31
0.0
  0
DIMENSION
  5
7CC7
330
19
100
AcDbEntity
  8
3
100
AcDbDimension
280
     0
  2
*D10
 10
2626.002372976021
 20
2799.777879114132
 30
0.0
 11
2966.002372976022
 21
2855.492164828417
 31
0.0
 70
    32
  1
(<>)
 71
     5
 42
680.0
 73
     0
 74
     0
 75
     0
  3
MATSU
100
AcDbAlignedDimension
 13
3306.002372976022
 23
2723.177695652144
 33
0.0
 14
2626.002372976021
 24
2187.424943391217
 34
0.0
100
AcDbRotatedDimension
1001
ACAD
1000
DSTYLE
1002
{
1070
   287
1070
     4
1070
    40
1040
20.0
1070
    75
1070
     1
1070
   279
1070
     1
1070
   289
1070
     3
1002
}
  0
LINE
  5
7CC8
330
19
100
AcDbEntity
  8
1
100
AcDbLine
 10
2215.812028107915
 20
4097.765845218286
 30
0.0
 11
2215.812028107915
 21
3536.265845218287
 31
0.0
  0
LINE
  5
7CC9
330
19
100
AcDbEntity
  8
1
100
AcDbLine
 10
1850.812028107915
 20
4097.765845218286
 30
0.0
 11
1850.812028107915
 21
3536.265845218287
 31
0.0
  0
LINE
  5
7CCA
330
19
100
AcDbEntity
  8
1
100
AcDbLine
 10
2215.812028107915
 20
4097.765845218286
 30
0.0
 11
1850.812028107915
 21
4097.765845218286
 31
0.0
  0
LINE
  5
7CCB
330
19
100
AcDbEntity
  8
1
100
AcDbLine
 10
2215.812028107915
 20
3536.265845218287
 30
0.0
 11
1850.812028107915
 21
3536.265845218287
 31
0.0
  0
LINE
  5
7CCC
330
19
100
AcDbEntity
  8
1
100
AcDbLine
 10
3339.502372976022
 20
1624.924943391217
 30
0.0
 11
2778.502372976022
 21
1624.924943391217
 31
0.0
  0
LINE
  5
7CCD
330
19
100
AcDbEntity
  8
1
100
AcDbLine
 10
2778.502372976021
 20
1783.424943391217
 30
0.0
 11
2748.502372976021
 21
1783.424943391217
 31
0.0
  0
LINE
  5
7CCE
330
19
100
AcDbEntity
  8
1
100
AcDbLine
 10
2778.502372976021
 20
1831.424943391216
 30
0.0
 11
2748.502372976021
 21
1831.424943391216
 31
0.0
  0
LINE
  5
7CD0
330
19
100
AcDbEntity
  8
1
100
AcDbLine
 10
2778.502372976022
 20
1992.424943391217
 30
0.0
 11
2778.502372976021
 21
1624.924943391217
 31
0.0
  0
LINE
  5
7CD2
330
19
100
AcDbEntity
  8
1
100
AcDbLine
 10
2786.002372976022
 20
1685.770132292024
 30
0.0
 11
2786.002372976022
 21
1587.424943391217
 31
0.0
  0
DIMENSION
  5
7CD3
330
19
100
AcDbEntity
  8
3
100
AcDbDimension
280
     0
  2
*D11
 10
781.7184300562002
 20
3556.765845218286
 30
0.0
 11
741.7184300562003
 21
4019.265845218286
 31
0.0
 12
348.5088548956301
 22
907.6923093830192
 32
0.0
 70
    32
 71
     5
 42
-1.0
 73
     0
 74
     0
 75
     0
  3
MATSU
100
AcDbAlignedDimension
 13
978.3120281079145
 23
4481.765845218286
 33
0.0
 14
978.3120281079145
 24
3556.765845218286
 34
0.0
 50
270.0
100
AcDbRotatedDimension
1001
ACAD
1000
DSTYLE
1002
{
1070
    40
1040
20.0
1002
}
  0
DIMENSION
  5
7CD4
330
19
100
AcDbEntity
  8
3
100
AcDbDimension
280
     0
  2
*D12
 10
1688.312028107915
 20
4637.119796982612
 30
0.0
 11
1333.312028107914
 21
4677.119796982611
 31
0.0
 12
348.5088548956301
 22
907.6923093830192
 32
0.0
 70
    32
 71
     5
 42
-1.0
 73
     0
 74
     0
 75
     0
  3
MATSU
100
AcDbAlignedDimension
 13
978.3120281079145
 23
4481.765845218286
 33
0.0
 14
1688.312028107915
 24
4481.765845218286
 34
0.0
100
AcDbRotatedDimension
1001
ACAD
1000
DSTYLE
1002
{
1070
    40
1040
20.0
1002
}
  0
DIMENSION
  5
7CD5
330
19
100
AcDbEntity
  8
3
100
AcDbDimension
280
     0
  2
*D13
 10
2328.312028107915
 20
4637.119796982612
 30
0.0
 11
2008.312028107915
 21
4677.119796982611
 31
0.0
 70
    32
 71
     5
 42
-1.0
 73
     0
 74
     0
 75
     0
  3
MATSU
100
AcDbAlignedDimension
 13
1688.312028107915
 23
4481.765845218286
 33
0.0
 14
2328.312028107915
 24
4156.765845218286
 34
0.0
100
AcDbRotatedDimension
1001
ACAD
1000
DSTYLE
1002
{
1070
   287
1070
     4
1070
    40
1040
20.0
1070
    75
1070
     1
1070
   279
1070
     1
1070
   289
1070
     3
1002
}
  0
DIMENSION
  5
7CD6
330
19
100
AcDbEntity
  8
3
100
AcDbDimension
280
     0
  2
*D14
 10
2527.086759797117
 20
3556.765845218286
 30
0.0
 11
2487.086759797117
 21
3856.765845218286
 31
0.0
 12
348.5088548956301
 22
907.6923093830192
 32
0.0
 70
    32
 71
     5
 42
-1.0
 73
     0
 74
     0
 75
     0
  3
MATSU
100
AcDbAlignedDimension
 13
2328.312028107915
 23
4156.765845218286
 33
0.0
 14
2328.312028107915
 24
3556.765845218286
 34
0.0
 50
270.0
100
AcDbRotatedDimension
1001
ACAD
1000
DSTYLE
1002
{
1070
    40
1040
20.0
1002
}
  0
DIMENSION
  5
7CD7
330
19
100
AcDbEntity
  8
3
100
AcDbDimension
280
     0
  2
*D15
 10
978.3120281079145
 20
3121.737391418865
 30
0.0
 11
1653.312028107914
 21
3161.737391418865
 31
0.0
 12
348.5088548956301
 22
907.6923093830192
 32
0.0
 70
    32
 71
     5
 42
-1.0
 73
     0
 74
     0
 75
     0
  3
MATSU
100
AcDbAlignedDimension
 13
2328.312028107915
 23
3556.765845218286
 33
0.0
 14
978.3120281079145
 24
3556.765845218286
 34
0.0
100
AcDbRotatedDimension
1001
ACAD
1000
DSTYLE
1002
{
1070
    40
1040
20.0
1002
}
  0
CIRCLE
  5
7CDE
330
19
100
AcDbEntity
  8
1
100
AcDbCircle
 10
2033.312028107915
 20
1807.424943391217
 30
0.0
 40
139.5
  0
CIRCLE
  5
7CDF
330
19
100
AcDbEntity
  8
1
100
AcDbCircle
 10
1333.312028107914
 20
1967.424943391217
 30
0.0
 40
110.0
  0
ARC
  5
7CE0
330
19
100
AcDbEntity
  8
1
100
AcDbCircle
 10
1333.312028107914
 20
1967.424943391217
 30
0.0
 40
220.0
100
AcDbArc
 50
77.12499844038754
 51
257.1249984403875
  0
ARC
  5
7CE1
330
19
100
AcDbEntity
  8
1
100
AcDbCircle
 10
2033.312028107915
 20
1807.424943391217
 30
0.0
 40
220.0
100
AcDbArc
 50
257.1249984403875
 51
77.12499844038754
  0
LINE
  5
7CE2
330
19
100
AcDbEntity
  8
1
100
AcDbLine
 10
1382.333484438385
 20
2181.893814837028
 30
0.0
 11
2082.333484438386
 21
2021.893814837028
 31
0.0
  0
LINE
  5
7CE3
330
19
100
AcDbEntity
  8
1
100
AcDbLine
 10
1284.290571777443
 20
1752.956071945406
 30
0.0
 11
1984.290571777443
 21
1592.956071945406
 31
0.0
  0
LINE
  5
7CE4
330
19
100
AcDbEntity
  8
1
100
AcDbLine
 10
1353.396515515403
 20
2075.575825798983
 30
0.0
 11
2058.782809865594
 21
1944.579926081065
 31
0.0
  0
LINE
  5
7CE5
330
19
100
AcDbEntity
  8
1
100
AcDbLine
 10
1304.416446829207
 20
1861.288025296872
 30
0.0
 11
1996.667177304463
 21
1672.824033626116
 31
0.0
  0
LINE
  5
7CE6
330
19
100
AcDbEntity
  8
1
100
AcDbLine
 10
2778.502372976022
 20
1992.424943391217
 30
0.0
 11
3339.502372976022
 21
1992.424943391217
 31
0.0
  0
LINE
  5
7CE7
330
19
100
AcDbEntity
  8
1
100
AcDbLine
 10
978.3120281079145
 20
4438.765845218286
 30
0.0
 11
978.3120281079145
 21
4481.765845218286
 31
0.0
  0
LINE
  5
7CE8
330
19
100
AcDbEntity
  8
1
100
AcDbLine
 10
3339.502372976022
 20
1992.424943391215
 30
0.0
 11
3339.502372976021
 21
1624.924943391215
 31
0.0
  0
LINE
  5
7CE9
330
19
100
AcDbEntity
  8
1
100
AcDbLine
 10
3287.389382531937
 20
1624.924943391217
 30
0.0
 11
3287.389382531938
 21
1572.424943391217
 31
0.0
  0
LINE
  5
7CEA
330
19
100
AcDbEntity
  8
1
100
AcDbLine
 10
2886.59981787536
 20
1624.924943391217
 30
0.0
 11
2886.59981787536
 21
1572.424943391217
 31
0.0
  0
LINE
  5
7F0D
330
19
100
AcDbEntity
  8
4
100
AcDbLine
 10
3700.0
 20
874.9518377007461
 30
0.0
 11
3700.0
 21
474.951837700746
 31
0.0
  0
LINE
  5
7F0E
330
19
100
AcDbEntity
  8
4
100
AcDbLine
 10
2300.0
 20
874.9518377007461
 30
0.0
 11
2300.0
 21
474.951837700746
 31
0.0
  0
LINE
  5
7F0F
330
19
100
AcDbEntity
  8
4
100
AcDbLine
 10
1300.0
 20
874.9518377007461
 30
0.0
 11
1300.0
 21
474.951837700746
 31
0.0
  0
LINE
  5
7F12
330
19
100
AcDbEntity
  8
4
100
AcDbLine
 10
1300.0
 20
474.9518377007461
 30
0.0
 11
3700.0
 21
474.9518377007461
 31
0.0
  0
LINE
  5
7F13
330
19
100
AcDbEntity
  8
4
100
AcDbLine
 10
1300.0
 20
674.9518377007461
 30
0.0
 11
3700.0
 21
674.9518377007461
 31
0.0
  0
TEXT
  5
7F14
330
19
100
AcDbEntity
  8
4
100
AcDbText
 10
1377.004161693803
 20
738.0378894339719
 30
0.0
 40
100.0
  1
機器名称
100
AcDbText
  0
TEXT
  5
7F15
330
19
100
AcDbEntity
  8
4
100
AcDbText
 10
1372.516212049595
 20
518.2421511647681
 30
0.0
 40
100.0
  1
機器型番
100
AcDbText
  0
TEXT
  5
7F16
330
19
100
AcDbEntity
  8
4
100
AcDbText
 10
2352.132720764796
 20
718.8841972425737
 30
0.0
 40
80.0
  1
ミツヤリミットロードファン
100
AcDbText
  0
TEXT
  5
7F17
330
19
100
AcDbEntity
  8
4
100
AcDbText
 10
2373.308991170961
 20
509.2710062606329
 30
0.0
 40
100.0
  1
LL#3 1/2-5
100
AcDbText
  0
TEXT
  5
7F19
330
19
100
AcDbEntity
  8
4
100
AcDbText
 10
1587.793174352093
 20
4777.412238012737
 30
0.0
 40
108.0
  1
床置防振ベット
100
AcDbText
  0
TEXT
  5
7F1A
330
19
100
AcDbEntity
  8
4
100
AcDbText
 10
632.3351866588928
 20
5067.761952398596
 30
0.0
 40
144.0
  1
遠心式両吸込両持リミットロードファン
100
AcDbText
  0
LINE
  5
7F1B
330
19
100
AcDbEntity
  8
4
100
AcDbLine
 10
500.0
 20
4938.817508529609
 30
0.0
 11
3700.0
 21
4938.817508529609
 31
0.0
  0
LINE
  5
7F1C
330
19
100
AcDbEntity
  8
4
100
AcDbLine
 10
500.0
 20
5338.81750852961
 30
0.0
 11
3700.0
 21
5338.81750852961
 31
0.0
  0
LINE
  5
7F1D
330
19
100
AcDbEntity
  8
4
100
AcDbLine
 10
1300.0
 20
874.9518377007461
 30
0.0
 11
3700.0
 21
874.9518377007461
 31
0.0
  0
LINE
  5
7F1E
330
19
100
AcDbEntity
  8
4
100
AcDbLine
 10
500.0
 20
5338.81750852961
 30
0.0
 11
500.0
 21
4938.817508529609
 31
0.0
  0
TEXT
  5
7F1F
330
19
100
AcDbEntity
  8
4
100
AcDbText
 10
716.0755098666887
 20
4775.193510440392
 30
0.0
 40
108.0
  1
左回転左横向
100
AcDbText
  0
TEXT
  5
7F20
330
19
100
AcDbEntity
  8
4
100
AcDbText
 10
2937.93911849858
 20
5412.122162990618
 30
0.0
 40
112.0
  1
No.
100
AcDbText
  0
TEXT
  5
7F21
330
19
100
AcDbEntity
  8
4
100
AcDbText
 10
2622.592125200026
 20
4766.857682665031
 30
0.0
 40
108.0
  1
縮尺：1/20
100
AcDbText
  0
LINE
  5
7F22
330
19
100
AcDbEntity
  8
4
100
AcDbLine
 10
3700.0
 20
5338.81750852961
 30
0.0
 11
3700.0
 21
4938.817508529609
 31
0.0
  0
LINE
  5
7F23
330
19
100
AcDbEntity
  8
4
100
AcDbLine
 10
4200.0
 20
5900.0
 30
0.0
 11
4200.0
 21
5900.0
 31
0.0
  0
LINE
  5
7F24
330
19
100
AcDbEntity
  8
4
100
AcDbLine
 10
2881.234844719729
 20
5362.527166250802
 30
0.0
 11
2881.234844719729
 21
5573.304523099505
 31
0.0
  0
LINE
  5
7F25
330
19
100
AcDbEntity
  8
4
100
AcDbLine
 10
2881.234844719729
 20
5573.304523099505
 30
0.0
 11
3700.0
 21
5573.304523099505
 31
0.0
  0
LINE
  5
7F26
330
19
100
AcDbEntity
  8
4
100
AcDbLine
 10
3700.0
 20
5573.304523099505
 30
0.0
 11
3700.0
 21
5362.527166250802
 31
0.0
  0
LINE
  5
7F27
330
19
100
AcDbEntity
  8
4
100
AcDbLine
 10
3700.0
 20
5362.527166250802
 30
0.0
 11
2881.234844719729
 21
5362.527166250802
 31
0.0
  0
LINE
  5
7F28
330
19
100
AcDbEntity
  8
4
100
AcDbLine
 10
0.0
 20
0.0
 30
0.0
 11
0.0
 21
5900.0
 31
0.0
  0
LINE
  5
7F29
330
19
100
AcDbEntity
  8
4
100
AcDbLine
 10
0.0
 20
5900.0
 30
0.0
 11
4200.0
 21
5900.0
 31
0.0
  0
LINE
  5
7F2A
330
19
100
AcDbEntity
  8
4
100
AcDbLine
 10
4200.0
 20
5900.0
 30
0.0
 11
4200.0
 21
0.0
 31
0.0
  0
LINE
  5
7F2B
330
19
100
AcDbEntity
  8
4
100
AcDbLine
 10
4200.0
 20
0.0
 30
0.0
 11
0.0
 21
0.0
 31
0.0
  0
DIMENSION
  5
7F7E
330
19
100
AcDbEntity
  8
3
100
AcDbDimension
280
     0
  2
*D16
 10
661.3953051438256
 20
1342.424943391217
 30
0.0
 11
621.3953051438254
 21
1203.853514819788
 31
0.0
 70
    32
 71
     5
 42
75.0
 73
     0
 74
     0
 75
     0
  3
IGA
100
AcDbAlignedDimension
 13
978.3120281079145
 23
1417.424943391217
 33
0.0
 14
978.3120281079145
 24
1342.424943391217
 34
0.0
 50
90.0
100
AcDbRotatedDimension
1001
ACAD
1000
DSTYLE
1002
{
1070
   287
1070
     0
1070
    40
1040
20.0
1070
    42
1040
1.0
1070
    47
1040
0.0
1070
    48
1040
0.0
1070
   146
1040
1.0
1070
   147
1040
0.5
1070
   172
1070
     1
1070
   176
1070
   256
1070
   177
1070
   256
1070
   178
1070
   256
1070
   271
1070
     4
1070
   272
1070
     4
1070
   279
1070
     0
1070
   289
1070
     0
1070
     6
1000
DOT
1002
}
  0
DIMENSION
  5
8040
330
19
100
AcDbEntity
  8
3
100
AcDbDimension
280
     0
  2
*D18
 10
1333.312028107914
 20
1210.261500250785
 30
0.0
 11
1155.812028107914
 21
1250.261500250785
 31
0.0
 70
    32
 71
     5
 42
355.0
 73
     0
 74
     0
 75
     0
  3
IGA
100
AcDbAlignedDimension
 13
978.3120281079145
 23
1342.424943391217
 33
0.0
 14
1333.312028107914
 24
1342.424943391217
 34
0.0
100
AcDbRotatedDimension
1001
ACAD
1000
DSTYLE
1002
{
1070
    47
1040
0.0
1070
   172
1070
     1
1070
    48
1040
0.0
1070
   146
1040
1.0
1070
   272
1070
     4
1070
    40
1040
20.0
1070
   147
1040
0.5
1070
    42
1040
1.0
1070
   271
1070
     4
1070
   178
1070
   256
1070
   177
1070
   256
1070
   176
1070
   256
1002
}
  0
DIMENSION
  5
804D
330
19
100
AcDbEntity
  8
3
100
AcDbDimension
280
     0
  2
*D19
 10
2328.312028107915
 20
1210.261500250785
 30
0.0
 11
1830.812028107914
 21
1250.261500250785
 31
0.0
 70
    32
 71
     5
 42
995.0
 73
     0
 74
     0
 75
     0
  3
IGA
100
AcDbAlignedDimension
 13
1333.312028107914
 23
1342.424943391217
 33
0.0
 14
2328.312028107915
 24
1342.424943391217
 34
0.0
100
AcDbRotatedDimension
1001
ACAD
1000
DSTYLE
1002
{
1070
    47
1040
0.0
1070
   172
1070
     1
1070
    48
1040
0.0
1070
   146
1040
1.0
1070
   272
1070
     4
1070
    40
1040
20.0
1070
   147
1040
0.5
1070
    42
1040
1.0
1070
   271
1070
     4
1070
   178
1070
   256
1070
   177
1070
   256
1070
   176
1070
   256
1002
}
  0
DIMENSION
  5
805A
330
19
100
AcDbEntity
  8
3
100
AcDbDimension
280
     0
  2
*D20
 10
3306.002372976022
 20
1210.261500250785
 30
0.0
 11
3052.502372976022
 21
1250.261500250785
 31
0.0
 70
    32
 71
     5
 42
507.0000000000004
 73
     0
 74
     0
 75
     0
  3
IGA
100
AcDbAlignedDimension
 13
2799.002372976021
 23
1342.424943391217
 33
0.0
 14
3306.002372976022
 24
1342.424943391217
 34
0.0
100
AcDbRotatedDimension
1001
ACAD
1000
DSTYLE
1002
{
1070
    47
1040
0.0
1070
   172
1070
     1
1070
    48
1040
0.0
1070
   146
1040
1.0
1070
   272
1070
     4
1070
    40
1040
20.0
1070
   147
1040
0.5
1070
    42
1040
1.0
1070
   271
1070
     4
1070
   178
1070
   256
1070
   177
1070
   256
1070
   176
1070
   256
1002
}
  0
DIMENSION
  5
8067
330
19
100
AcDbEntity
  8
3
100
AcDbDimension
280
     0
  2
*D21
 10
3724.002372976022
 20
1210.261500250785
 30
0.0
 11
3515.002372976022
 21
1250.261500250785
 31
0.0
 70
    32
 71
     5
 42
418.0
 73
     0
 74
     0
 75
     0
  3
IGA
100
AcDbAlignedDimension
 13
3306.002372976022
 23
1342.424943391217
 33
0.0
 14
3724.002372976022
 24
1342.424943391217
 34
0.0
100
AcDbRotatedDimension
1001
ACAD
1000
DSTYLE
1002
{
1070
    47
1040
0.0
1070
   172
1070
     1
1070
    48
1040
0.0
1070
   146
1040
1.0
1070
   272
1070
     4
1070
    40
1040
20.0
1070
   147
1040
0.5
1070
    42
1040
1.0
1070
   271
1070
     4
1070
   178
1070
   256
1070
   177
1070
   256
1070
   176
1070
   256
1002
}
  0
DIMENSION
  5
808C
330
19
100
AcDbEntity
  8
3
100
AcDbDimension
280
     0
  2
*D23
 10
662.3770176379148
 20
1497.424943391217
 30
0.0
 11
581.6627319236289
 21
1457.424943391217
 31
0.0
 70
    32
 71
     5
 42
80.0
 73
     0
 74
     0
 75
     0
  3
IGA
100
AcDbAlignedDimension
 13
978.3120281079145
 23
1417.424943391217
 33
0.0
 14
978.3120281079145
 24
1497.424943391217
 34
0.0
 50
90.0
100
AcDbRotatedDimension
1001
ACAD
1000
DSTYLE
1002
{
1070
    47
1040
0.0
1070
   172
1070
     1
1070
    48
1040
0.0
1070
   146
1040
1.0
1070
   272
1070
     4
1070
    76
1070
     1
1070
    75
1070
     1
1070
    40
1040
20.0
1070
     3
1000
(<>)
1070
   147
1040
0.5
1070
    42
1040
1.0
1070
   271
1070
     4
1070
   178
1070
   256
1070
   177
1070
   256
1070
   176
1070
   256
1070
     7
1000
_NONE
1070
     6
1000
_NONE
1002
}
  0
DIMENSION
  5
8099
330
19
100
AcDbEntity
  8
3
100
AcDbDimension
280
     0
  2
*D24
 10
503.9510566387725
 20
1342.424943391217
 30
0.0
 11
448.2367709244867
 21
1954.924943391217
 31
0.0
 70
    32
 71
     5
 42
1225.0
 73
     0
 74
     0
 75
     0
  3
IGA
100
AcDbAlignedDimension
 13
943.3120281079137
 23
2567.424943391217
 33
0.0
 14
978.3120281079145
 24
1342.424943391217
 34
0.0
 50
90.0
100
AcDbRotatedDimension
1001
ACAD
1000
DSTYLE
1002
{
1070
    47
1040
0.0
1070
   172
1070
     1
1070
    48
1040
0.0
1070
   146
1040
1.0
1070
   272
1070
     4
1070
    40
1040
20.0
1070
     3
1000
(<>)
1070
   147
1040
0.5
1070
    42
1040
1.0
1070
   271
1070
     4
1070
   178
1070
   256
1070
   177
1070
   256
1070
   176
1070
   256
1002
}
  0
LWPOLYLINE
  5
809E
330
19
100
AcDbEntity
  8
1
100
AcDbPolyline
 90
        4
 70
     0
 43
0.0
 10
943.3120281079137
 20
2567.424943391217
 10
1333.312028107914
 20
2535.424943391217
 42
-0.3910641092142224
 10
1818.986169979581
 20
2009.424943391217
 42
-0.3642143620887567
 10
1451.97847556415
 20
1572.424943391216
 42
-0.3796508156605925
  0
LWPOLYLINE
  5
80A4
330
19
100
AcDbEntity
  8
1
100
AcDbPolyline
 90
        3
 70
     0
 43
0.0
 10
1299.377974687544
 20
1572.424943391217
 42
-0.3616213213072172
 10
998.1759561083327
 20
1934.424943391217
 42
-0.0441110721615306
 10
1002.860845552966
 20
1987.424943391217
 42
-0.3936265759256327
  0
ENDSEC
  0
SECTION
  2
OBJECTS
  0
DICTIONARY
  5
C
330
0
100
AcDbDictionary
281
     1
  3
ACAD_CIP_PREVIOUS_PRODUCT_INFO
350
8171
  3
ACAD_COLOR
350
8154
  3
ACAD_DETAILVIEWSTYLE
350
816D
  3
ACAD_GROUP
350
D
  3
ACAD_LAYOUT
350
80AD
  3
ACAD_MATERIAL
350
8122
  3
ACAD_MLEADERSTYLE
350
8169
  3
ACAD_MLINESTYLE
350
E
  3
ACAD_PLOTSETTINGS
350
80AE
  3
ACAD_PLOTSTYLENAME
350
80AB
  3
ACAD_SCALELIST
350
8157
  3
ACAD_SECTIONVIEWSTYLE
350
816B
  3
ACAD_TABLESTYLE
350
8155
  3
ACAD_VISUALSTYLE
350
813B
  3
ACDB_RECOMPOSE_DATA
350
8225
  3
AcDbVariableDictionary
350
8214
  3
AcDsDecomposeData
350
822B
  0
DICTIONARY
  5
81F2
330
2
100
AcDbDictionary
280
     1
281
     1
  3
ACAD_LAYERSTATES
360
81F3
  0
DICTIONARY
  5
81E5
330
F
100
AcDbDictionary
280
     1
281
     1
  3
ADSK_XREC_LAYER_RECONCILED
360
81E6
  0
DICTIONARY
  5
81E7
330
31
100
AcDbDictionary
280
     1
281
     1
  3
ADSK_XREC_LAYER_RECONCILED
360
81E8
  0
DICTIONARY
  5
81E9
330
76D0
100
AcDbDictionary
280
     1
281
     1
  3
ADSK_XREC_LAYER_RECONCILED
360
81EA
  0
DICTIONARY
  5
81EB
330
76D1
100
AcDbDictionary
280
     1
281
     1
  3
ADSK_XREC_LAYER_RECONCILED
360
81EC
  0
DICTIONARY
  5
81ED
330
76D2
100
AcDbDictionary
280
     1
281
     1
  3
ADSK_XREC_LAYER_RECONCILED
360
81EE
  0
DICTIONARY
  5
80DA
330
19
100
AcDbDictionary
280
     1
281
     1
  3
ACAD_LAYOUTSELFREF
360
80DB
  0
DICTIONARY
  5
80D8
330
16
100
AcDbDictionary
280
     1
281
     1
  3
ACAD_LAYOUTSELFREF
360
80D9
  0
XRECORD
  5
8171
102
{ACAD_REACTORS
330
C
102
}
330
C
100
AcDbXrecord
280
     1
300
ACDLT
300
2023
300

  0
DICTIONARY
  5
8154
102
{ACAD_REACTORS
330
C
102
}
330
C
100
AcDbDictionary
281
     1
  0
DICTIONARY
  5
816D
102
{ACAD_REACTORS
330
C
102
}
330
C
100
AcDbDictionary
281
     1
  3
Metric50
350
816E
  0
DICTIONARY
  5
D
102
{ACAD_REACTORS
330
C
102
}
330
C
100
AcDbDictionary
281
     1
  0
DICTIONARY
  5
80AD
102
{ACAD_REACTORS
330
C
102
}
330
C
100
AcDbDictionary
281
     1
  3
Model
350
80AF
  3
ﾚｲｱｳﾄ1
350
80B0
  0
DICTIONARY
  5
8122
102
{ACAD_REACTORS
330
C
102
}
330
C
100
AcDbDictionary
281
     1
  3
ByBlock
350
812B
  3
ByLayer
350
8123
  3
Global
350
8133
  0
DICTIONARY
  5
8169
102
{ACAD_REACTORS
330
C
102
}
330
C
100
AcDbDictionary
281
     1
  3
Standard
350
816A
  0
DICTIONARY
  5
E
102
{ACAD_REACTORS
330
C
102
}
330
C
100
AcDbDictionary
281
     1
  3
STANDARD
350
1C
  0
DICTIONARY
  5
80AE
102
{ACAD_REACTORS
330
C
102
}
330
C
100
AcDbDictionary
281
     1
  0
ACDBDICTIONARYWDFLT
  5
80AB
102
{ACAD_REACTORS
330
C
102
}
330
C
100
AcDbDictionary
281
     1
  3
Normal
350
80AC
100
AcDbDictionaryWithDefault
340
80AC
  0
DICTIONARY
  5
8157
102
{ACAD_REACTORS
330
C
102
}
330
C
100
AcDbDictionary
281
     1
  3
A0
350
8158
  3
A1
350
8159
  3
A2
350
815A
  3
A3
350
815B
  3
A4
350
815C
  3
A5
350
815D
  3
A6
350
815E
  3
A7
350
815F
  3
A8
350
8160
  3
A9
350
8161
  3
B0
350
8162
  3
B1
350
8163
  3
B2
350
8164
  3
B3
350
8165
  3
B4
350
8166
  3
B5
350
8167
  3
B6
350
8168
  0
DICTIONARY
  5
816B
102
{ACAD_REACTORS
330
C
102
}
330
C
100
AcDbDictionary
281
     1
  3
Metric50
350
816C
  0
DICTIONARY
  5
8155
102
{ACAD_REACTORS
330
C
102
}
330
C
100
AcDbDictionary
281
     1
  3
Standard
350
8156
  0
DICTIONARY
  5
813B
102
{ACAD_REACTORS
330
C
102
}
330
C
100
AcDbDictionary
281
     1
  3
2dWireframe
350
8141
  3
Basic
350
8140
  3
Brighten
350
8147
  3
ColorChange
350
814B
  3
Conceptual
350
8144
  3
Dim
350
8146
  3
EdgeColorOff
350
8153
  3
Facepattern
350
814A
  3
Flat
350
813C
  3
FlatWithEdges
350
813D
  3
Gouraud
350
813E
  3
GouraudWithEdges
350
813F
  3
Hidden
350
8143
  3
JitterOff
350
8151
  3
Linepattern
350
8149
  3
OverhangOff
350
8152
  3
Realistic
350
8145
  3
Shaded
350
8150
  3
Shaded with edges
350
814F
  3
Shades of Gray
350
814C
  3
Sketchy
350
814D
  3
Thicken
350
8148
  3
Wireframe
350
8142
  3
X-Ray
350
814E
  0
XRECORD
  5
8225
102
{ACAD_REACTORS
330
C
102
}
330
C
100
AcDbXrecord
280
     1
 90
        1
330
7C9F
330
7CA1
330
7CC7
330
7CD5
330
8156
  0
DICTIONARY
  5
8214
102
{ACAD_REACTORS
330
C
102
}
330
C
100
AcDbDictionary
281
     1
  3
CANNOSCALE
350
821A
  3
CMLEADERSTYLE
350
8216
  3
CTABLESTYLE
350
8215
  3
CVIEWDETAILSTYLE
350
8217
  3
CVIEWSECTIONSTYLE
350
8218
  3
LAYEREVAL
350
821C
  3
LAYERNOTIFY
350
821D
  3
LIGHTINGUNITS
350
821B
  3
MARKUPASSISTMODE
350
8222
  3
MSLTSCALE
350
8219
  0
DICTIONARY
  5
822B
102
{ACAD_REACTORS
330
C
102
}
330
C
100
AcDbDictionary
281
     1
  3
AcDsRecords
350
822D
  3
AcDsSchemas
350
822C
1001
ACAD
1070
     2
  0
DICTIONARY
  5
81F3
102
{ACAD_REACTORS
330
81F2
102
}
330
81F2
100
AcDbDictionary
281
     1
  0
XRECORD
  5
81E6
102
{ACAD_REACTORS
330
81E5
102
}
330
81E5
100
AcDbXrecord
280
     1
290
     1
  0
XRECORD
  5
81E8
102
{ACAD_REACTORS
330
81E7
102
}
330
81E7
100
AcDbXrecord
280
     1
290
     1
  0
XRECORD
  5
81EA
102
{ACAD_REACTORS
330
81E9
102
}
330
81E9
100
AcDbXrecord
280
     1
290
     1
  0
XRECORD
  5
81EC
102
{ACAD_REACTORS
330
81EB
102
}
330
81EB
100
AcDbXrecord
280
     1
290
     1
  0
XRECORD
  5
81EE
102
{ACAD_REACTORS
330
81ED
102
}
330
81ED
100
AcDbXrecord
280
     1
290
     1
  0
XRECORD
  5
80DB
102
{ACAD_REACTORS
330
80DA
102
}
330
80DA
100
AcDbXrecord
280
     1
340
19
  0
XRECORD
  5
80D9
102
{ACAD_REACTORS
330
80D8
102
}
330
80D8
100
AcDbXrecord
280
     1
340
16
  0
ACDBDETAILVIEWSTYLE
  5
816E
102
{ACAD_XDICTIONARY
360
8230
102
}
102
{ACAD_REACTORS
330
816D
102
}
330
816D
100
AcDbModelDocViewStyle
 70
     0
  3
Metric50
290
     0
100
AcDbDetailViewStyle
 70
     0
 71
     0
 90
        3
 71
     1
340
10
 62
   256
 40
5.0
340
0
 62
   256
 40
5.0
300

 40
0.0
280
     1
 71
     2
340
15
 90
       25
 62
   256
 71
     3
340
10
 62
   256
 40
5.0
 90
        0
 40
15.0
 90
        1
300
%<\AcVar ViewDetailId>% (%<\AcVar ViewScale \f "%sn">%)
 71
     4
340
15
 90
       25
 62
   256
340
15
 90
       25
 62
   256
280
     0
  0
LAYOUT
  5
80AF
102
{ACAD_REACTORS
330
80AD
102
}
330
80AD
100
AcDbPlotSettings
  1

  2
EPSON LP-9300
  4

  6

 40
0.0
 41
0.0
 42
0.0
 43
0.0
 44
0.0
 45
0.0
 46
0.0
 47
0.0
 48
0.0
 49
0.0
140
0.0
141
0.0
142
1.0
143
1.0
 70
  1712
 72
     0
 73
     0
 74
     0
  7

 75
     0
147
1.0
 76
     0
 77
     2
 78
   300
148
0.0
149
0.0
100
AcDbLayout
  1
Model
 70
     1
 71
     0
 10
0.0
 20
0.0
 11
12.0
 21
9.0
 12
0.0
 22
0.0
 32
0.0
 14
0.0
 24
0.0
 34
0.0
 15
0.0
 25
0.0
 35
0.0
146
0.0
 13
0.0
 23
0.0
 33
0.0
 16
1.0
 26
0.0
 36
0.0
 17
0.0
 27
1.0
 37
0.0
 76
     0
330
19
331
8120
  0
LAYOUT
  5
80B0
102
{ACAD_REACTORS
330
80AD
102
}
330
80AD
100
AcDbPlotSettings
  1

  2
EPSON LP-9300
  4

  6

 40
0.0
 41
0.0
 42
0.0
 43
0.0
 44
0.0
 45
0.0
 46
0.0
 47
0.0
 48
0.0
 49
0.0
140
0.0
141
0.0
142
1.0
143
1.0
 70
   688
 72
     0
 73
     0
 74
     5
  7

 75
    16
147
1.0
 76
     0
 77
     2
 78
   300
148
0.0
149
0.0
100
AcDbLayout
  1
ﾚｲｱｳﾄ1
 70
     1
 71
     1
 10
0.0
 20
0.0
 11
12.0
 21
9.0
 12
0.0
 22
0.0
 32
0.0
 14
1.000000000000000E+20
 24
1.000000000000000E+20
 34
1.000000000000000E+20
 15
-1.000000000000000E+20
 25
-1.000000000000000E+20
 35
-1.000000000000000E+20
146
0.0
 13
0.0
 23
0.0
 33
0.0
 16
1.0
 26
0.0
 36
0.0
 17
0.0
 27
1.0
 37
0.0
 76
     0
330
16
  0
MATERIAL
  5
812B
102
{ACAD_XDICTIONARY
360
812C
102
}
102
{ACAD_REACTORS
330
8122
102
}
330
8122
100
AcDbMaterial
  1
ByBlock
 72
     0
 43
0.0208333333333333
 43
0.0
 43
0.0
 43
0.0
 43
0.0
 43
0.0208333333333333
 43
0.0
 43
0.0
 43
0.0
 43
0.0
 43
1.0
 43
0.0
 43
0.0
 43
0.0
 43
0.0
 43
1.0
 77
     0
 47
0.0208333333333333
 47
0.0
 47
0.0
 47
0.0
 47
0.0
 47
0.0208333333333333
 47
0.0
 47
0.0
 47
0.0
 47
0.0
 47
1.0
 47
0.0
 47
0.0
 47
0.0
 47
0.0
 47
1.0
171
     0
 49
0.0208333333333333
 49
0.0
 49
0.0
 49
0.0
 49
0.0
 49
0.0208333333333333
 49
0.0
 49
0.0
 49
0.0
 49
0.0
 49
1.0
 49
0.0
 49
0.0
 49
0.0
 49
0.0
 49
1.0
175
     0
142
0.0208333333333333
142
0.0
142
0.0
142
0.0
142
0.0
142
0.0208333333333333
142
0.0
142
0.0
142
0.0
142
0.0
142
1.0
142
0.0
142
0.0
142
0.0
142
0.0
142
1.0
179
     0
144
0.0208333333333333
144
0.0
144
0.0
144
0.0
144
0.0
144
0.0208333333333333
144
0.0
144
0.0
144
0.0
144
0.0
144
1.0
144
0.0
144
0.0
144
0.0
144
0.0
144
1.0
147
0.0208333333333333
147
0.0
147
0.0
147
0.0
147
0.0
147
0.0208333333333333
147
0.0
147
0.0
147
0.0
147
0.0
147
1.0
147
0.0
147
0.0
147
0.0
147
0.0
147
1.0
  0
MATERIAL
  5
8123
102
{ACAD_XDICTIONARY
360
8124
102
}
102
{ACAD_REACTORS
330
8122
102
}
330
8122
100
AcDbMaterial
  1
ByLayer
 72
     0
 43
0.0208333333333333
 43
0.0
 43
0.0
 43
0.0
 43
0.0
 43
0.0208333333333333
 43
0.0
 43
0.0
 43
0.0
 43
0.0
 43
1.0
 43
0.0
 43
0.0
 43
0.0
 43
0.0
 43
1.0
 77
     0
 47
0.0208333333333333
 47
0.0
 47
0.0
 47
0.0
 47
0.0
 47
0.0208333333333333
 47
0.0
 47
0.0
 47
0.0
 47
0.0
 47
1.0
 47
0.0
 47
0.0
 47
0.0
 47
0.0
 47
1.0
171
     0
 49
0.0208333333333333
 49
0.0
 49
0.0
 49
0.0
 49
0.0
 49
0.0208333333333333
 49
0.0
 49
0.0
 49
0.0
 49
0.0
 49
1.0
 49
0.0
 49
0.0
 49
0.0
 49
0.0
 49
1.0
175
     0
142
0.0208333333333333
142
0.0
142
0.0
142
0.0
142
0.0
142
0.0208333333333333
142
0.0
142
0.0
142
0.0
142
0.0
142
1.0
142
0.0
142
0.0
142
0.0
142
0.0
142
1.0
179
     0
144
0.0208333333333333
144
0.0
144
0.0
144
0.0
144
0.0
144
0.0208333333333333
144
0.0
144
0.0
144
0.0
144
0.0
144
1.0
144
0.0
144
0.0
144
0.0
144
0.0
144
1.0
147
0.0208333333333333
147
0.0
147
0.0
147
0.0
147
0.0
147
0.0208333333333333
147
0.0
147
0.0
147
0.0
147
0.0
147
1.0
147
0.0
147
0.0
147
0.0
147
0.0
147
1.0
  0
MATERIAL
  5
8133
102
{ACAD_XDICTIONARY
360
8134
102
}
102
{ACAD_REACTORS
330
8122
102
}
330
8122
100
AcDbMaterial
  1
Global
 72
     0
 43
0.0208333333333333
 43
0.0
 43
0.0
 43
0.0
 43
0.0
 43
0.0208333333333333
 43
0.0
 43
0.0
 43
0.0
 43
0.0
 43
1.0
 43
0.0
 43
0.0
 43
0.0
 43
0.0
 43
1.0
 77
     0
 47
0.0208333333333333
 47
0.0
 47
0.0
 47
0.0
 47
0.0
 47
0.0208333333333333
 47
0.0
 47
0.0
 47
0.0
 47
0.0
 47
1.0
 47
0.0
 47
0.0
 47
0.0
 47
0.0
 47
1.0
171
     0
 49
0.0208333333333333
 49
0.0
 49
0.0
 49
0.0
 49
0.0
 49
0.0208333333333333
 49
0.0
 49
0.0
 49
0.0
 49
0.0
 49
1.0
 49
0.0
 49
0.0
 49
0.0
 49
0.0
 49
1.0
175
     0
142
0.0208333333333333
142
0.0
142
0.0
142
0.0
142
0.0
142
0.0208333333333333
142
0.0
142
0.0
142
0.0
142
0.0
142
1.0
142
0.0
142
0.0
142
0.0
142
0.0
142
1.0
179
     0
144
0.0208333333333333
144
0.0
144
0.0
144
0.0
144
0.0
144
0.0208333333333333
144
0.0
144
0.0
144
0.0
144
0.0
144
1.0
144
0.0
144
0.0
144
0.0
144
0.0
144
1.0
147
0.0208333333333333
147
0.0
147
0.0
147
0.0
147
0.0
147
0.0208333333333333
147
0.0
147
0.0
147
0.0
147
0.0
147
1.0
147
0.0
147
0.0
147
0.0
147
0.0
147
1.0
  0
MLEADERSTYLE
  5
816A
102
{ACAD_REACTORS
330
8169
102
}
330
8169
100
AcDbMLeaderStyle
179
     2
170
     2
171
     1
172
     0
 90
        2
 40
0.0
 41
0.0
173
     1
 91
-1056964608
340
13
 92
       -2
290
     1
 42
2.0
291
     1
 43
0.36
  3
Standard
 44
4.0
300

342
10
174
     1
178
     6
175
     1
176
     0
 93
-1056964608
 45
4.0
292
     0
297
     0
 46
4.0
 94
-1056964608
 47
1.0
 49
1.0
140
1.0
293
     1
141
0.0
294
     1
177
     0
142
1.0
295
     0
296
     0
143
0.125
271
     0
272
     9
273
     9
298
     1
  0
MLINESTYLE
  5
1C
102
{ACAD_REACTORS
330
E
102
}
330
E
100
AcDbMlineStyle
  2
STANDARD
 70
     0
  3

 62
     0
 51
90.0
 52
90.0
 71
     2
 49
0.5
 62
   256
  6
BYLAYER
 49
-0.5
 62
   256
  6
BYLAYER
  0
ACDBPLACEHOLDER
  5
80AC
102
{ACAD_REACTORS
330
80AB
102
}
330
80AB
  0
SCALE
  5
8158
102
{ACAD_REACTORS
330
8157
102
}
330
8157
100
AcDbScale
 70
     0
300
1:1
140
1.0
141
1.0
290
     1
  0
SCALE
  5
8159
102
{ACAD_REACTORS
330
8157
102
}
330
8157
100
AcDbScale
 70
     0
300
1:2
140
1.0
141
2.0
290
     0
  0
SCALE
  5
815A
102
{ACAD_REACTORS
330
8157
102
}
330
8157
100
AcDbScale
 70
     0
300
1:4
140
1.0
141
4.0
290
     0
  0
SCALE
  5
815B
102
{ACAD_REACTORS
330
8157
102
}
330
8157
100
AcDbScale
 70
     0
300
1:5
140
1.0
141
5.0
290
     0
  0
SCALE
  5
815C
102
{ACAD_REACTORS
330
8157
102
}
330
8157
100
AcDbScale
 70
     0
300
1:8
140
1.0
141
8.0
290
     0
  0
SCALE
  5
815D
102
{ACAD_REACTORS
330
8157
102
}
330
8157
100
AcDbScale
 70
     0
300
1:10
140
1.0
141
10.0
290
     0
  0
SCALE
  5
815E
102
{ACAD_REACTORS
330
8157
102
}
330
8157
100
AcDbScale
 70
     0
300
1:16
140
1.0
141
16.0
290
     0
  0
SCALE
  5
815F
102
{ACAD_REACTORS
330
8157
102
}
330
8157
100
AcDbScale
 70
     0
300
1:20
140
1.0
141
20.0
290
     0
  0
SCALE
  5
8160
102
{ACAD_REACTORS
330
8157
102
}
330
8157
100
AcDbScale
 70
     0
300
1:30
140
1.0
141
30.0
290
     0
  0
SCALE
  5
8161
102
{ACAD_REACTORS
330
8157
102
}
330
8157
100
AcDbScale
 70
     0
300
1:40
140
1.0
141
40.0
290
     0
  0
SCALE
  5
8162
102
{ACAD_REACTORS
330
8157
102
}
330
8157
100
AcDbScale
 70
     0
300
1:50
140
1.0
141
50.0
290
     0
  0
SCALE
  5
8163
102
{ACAD_REACTORS
330
8157
102
}
330
8157
100
AcDbScale
 70
     0
300
1:100
140
1.0
141
100.0
290
     0
  0
SCALE
  5
8164
102
{ACAD_REACTORS
330
8157
102
}
330
8157
100
AcDbScale
 70
     0
300
2:1
140
2.0
141
1.0
290
     0
  0
SCALE
  5
8165
102
{ACAD_REACTORS
330
8157
102
}
330
8157
100
AcDbScale
 70
     0
300
4:1
140
4.0
141
1.0
290
     0
  0
SCALE
  5
8166
102
{ACAD_REACTORS
330
8157
102
}
330
8157
100
AcDbScale
 70
     0
300
8:1
140
8.0
141
1.0
290
     0
  0
SCALE
  5
8167
102
{ACAD_REACTORS
330
8157
102
}
330
8157
100
AcDbScale
 70
     0
300
10:1
140
10.0
141
1.0
290
     0
  0
SCALE
  5
8168
102
{ACAD_REACTORS
330
8157
102
}
330
8157
100
AcDbScale
 70
     0
300
100:1
140
100.0
141
1.0
290
     0
  0
ACDBSECTIONVIEWSTYLE
  5
816C
102
{ACAD_XDICTIONARY
360
822E
102
}
102
{ACAD_REACTORS
330
816B
102
}
330
816B
100
AcDbModelDocViewStyle
 70
     0
  3
Metric50
290
     0
100
AcDbSectionViewStyle
 70
     0
 71
     0
 90
      102
 71
     1
340
10
 62
   256
 40
5.0
340
0
340
0
 62
   256
 40
5.0
300
I, O, Q, S, X, Z
 40
10.0
 90
        0
 40
2.5
 90
        0
 71
     2
340
15
 90
       25
 62
   256
340
15
 90
       50
 62
   256
 40
5.0
 40
2.5
 40
5.0
 71
     3
340
10
 62
   256
 40
5.0
 90
        0
 40
15.0
 90
        1
300
%<\AcVar ViewSectionStartId>%-%<\AcVar ViewSectionEndId>% (%<\AcVar ViewScale \f "%sn">%)
 71
     4
 62
   256
 62
   257
300
ANSI31
 40
1.0
 90
        0
290
     0
290
     0
 90
        6
 40
0.0
 40
1.570796326794896
 40
0.2617993877991494
 40
1.308996938995747
 40
-0.2617993877991494
 40
1.832595714594046
  0
TABLESTYLE
  5
8156
102
{ACAD_XDICTIONARY
360
8223
102
}
102
{ACAD_REACTORS
330
8155
102
}
330
8155
100
AcDbTableStyle
280
     0
  3
Standard
 70
     0
 71
     0
 40
1.5
 41
1.5
280
     0
281
     0
  7
STANDARD
140
4.5
170
     2
 62
     0
 63
     7
283
     0
 90
      512
 91
        0
  1

274
    -2
284
     1
 64
     0
275
    -2
285
     1
 65
     0
276
    -2
286
     1
 66
     0
277
    -2
287
     1
 67
     0
278
    -2
288
     1
 68
     0
279
    -2
289
     1
 69
     0
  7
STANDARD
140
6.0
170
     5
 62
     0
 63
     7
283
     0
 90
      512
 91
        0
  1

274
    -2
284
     1
 64
     0
275
    -2
285
     1
 65
     0
276
    -2
286
     1
 66
     0
277
    -2
287
     1
 67
     0
278
    -2
288
     1
 68
     0
279
    -2
289
     1
 69
     0
  7
STANDARD
140
4.5
170
     5
 62
     0
 63
     7
283
     0
 90
      512
 91
        0
  1

274
    -2
284
     1
 64
     0
275
    -2
285
     1
 65
     0
276
    -2
286
     1
 66
     0
277
    -2
287
     1
 67
     0
278
    -2
288
     1
 68
     0
279
    -2
289
     1
 69
     0
  0
VISUALSTYLE
  5
8141
102
{ACAD_REACTORS
330
813B
102
}
330
813B
100
AcDbVisualStyle
  2
2dWireframe
 70
     4
177
     3
291
     0
 70
    58
 90
        0
176
     1
 90
        2
176
     1
 90
        0
176
     1
 90
        0
176
     1
 40
0.6
176
     1
 40
30.0
176
     1
 62
     7
420
 16777215
176
     1
 90
        1
176
     1
 90
        4
176
     1
 62
     7
176
     1
 62
   257
176
     1
 90
        1
176
     1
 90
        1
176
     1
 40
1.0
176
     1
 90
        0
176
     1
 62
   257
176
     1
 40
1.0
176
     1
 90
        1
176
     1
 90
        6
176
     1
 90
        2
176
     1
 62
     7
176
     1
 90
        5
176
     1
 90
        0
176
     1
 90
        0
176
     1
290
     0
176
     1
 90
        1
176
     1
 40
0.0
176
     1
 90
        0
176
     1
290
     1
176
     1
290
     1
176
     1
290
     0
176
     1
290
     0
176
     1
290
     0
176
     1
290
     0
176
     1
290
     0
176
     1
290
     0
176
     1
290
     0
176
     1
 90
       50
176
     1
 40
0.0
176
     1
 40
1.0
176
     1
 90
        0
176
     1
 62
    18
420
        0
176
     1
 90
       50
176
     1
 90
        3
176
     1
 62
     5
420
      255
176
     1
290
     0
176
     1
 90
       50
176
     1
 90
       50
176
     1
 90
       50
176
     1
290
     0
176
     1
 90
       50
176
     1
 62
   256
176
     0
 40
1.0
176
     0
 90
        2
176
     1
  1
strokes_ogs.tif
176
     1
290
     0
176
     1
 40
1.0
176
     1
 40
1.0
176
     1
1001
ACAD
1000
AcDbSavedByObjectVersion
1070
     0
  0
VISUALSTYLE
  5
8140
102
{ACAD_REACTORS
330
813B
102
}
330
813B
100
AcDbVisualStyle
  2
Basic
 70
     7
177
     3
291
     1
 70
    58
 90
        1
176
     1
 90
        0
176
     1
 90
        1
176
     1
 90
        0
176
     1
 40
0.6
176
     1
 40
30.0
176
     1
 62
     7
420
 16777215
176
     1
 90
        0
176
     1
 90
        4
176
     1
 62
     7
176
     1
 62
   257
176
     1
 90
        1
176
     1
 90
        1
176
     1
 40
1.0
176
     1
 90
        8
176
     1
 62
     7
176
     1
 40
1.0
176
     1
 90
        1
176
     1
 90
        6
176
     1
 90
        2
176
     1
 62
     7
176
     1
 90
        5
176
     1
 90
        0
176
     1
 90
        0
176
     1
290
     0
176
     1
 90
        1
176
     1
 40
0.0
176
     1
 90
        0
176
     1
290
     0
176
     1
290
     1
176
     1
290
     1
176
     1
290
     0
176
     1
290
     0
176
     1
290
     0
176
     1
290
     0
176
     1
290
     0
176
     1
290
     0
176
     1
 90
       50
176
     1
 40
0.0
176
     1
 40
1.0
176
     1
 90
        0
176
     1
 62
    18
420
        0
176
     1
 90
       50
176
     1
 90
        3
176
     1
 62
     5
420
      255
176
     1
290
     0
176
     1
 90
       50
176
     1
 90
       50
176
     1
 90
       50
176
     1
290
     0
176
     1
 90
       50
176
     1
 62
   256
176
     0
 40
1.0
176
     0
 90
        2
176
     1
  1
strokes_ogs.tif
176
     1
290
     0
176
     1
 40
1.0
176
     1
 40
1.0
176
     1
1001
ACAD
1000
AcDbSavedByObjectVersion
1070
     0
  0
VISUALSTYLE
  5
8147
102
{ACAD_REACTORS
330
813B
102
}
330
813B
100
AcDbVisualStyle
  2
Brighten
 70
    12
177
     3
291
     1
 70
    58
 90
        2
176
     1
 90
        2
176
     1
 90
        0
176
     1
 90
        0
176
     1
 40
0.6
176
     1
 40
30.0
176
     1
 62
     7
420
 16777215
176
     1
 90
        1
176
     1
 90
        4
176
     1
 62
     7
176
     1
 62
   257
176
     1
 90
        1
176
     1
 90
        1
176
     1
 40
1.0
176
     1
 90
        8
176
     1
 62
     7
176
     1
 40
1.0
176
     1
 90
        1
176
     1
 90
        6
176
     1
 90
        2
176
     1
 62
     7
176
     1
 90
        5
176
     1
 90
        0
176
     1
 90
        0
176
     1
290
     0
176
     1
 90
        1
176
     1
 40
50.0
176
     1
 90
        0
176
     1
290
     0
176
     1
290
     1
176
     1
290
     1
176
     1
290
     0
176
     1
290
     0
176
     1
290
     0
176
     1
290
     0
176
     1
290
     0
176
     1
290
     0
176
     1
 90
       50
176
     1
 40
0.0
176
     1
 40
1.0
176
     1
 90
        0
176
     1
 62
    18
420
        0
176
     1
 90
       50
176
     1
 90
        3
176
     1
 62
     5
420
      255
176
     1
290
     0
176
     1
 90
       50
176
     1
 90
       50
176
     1
 90
       50
176
     1
290
     0
176
     1
 90
       50
176
     1
 62
   256
176
     0
 40
1.0
176
     0
 90
        2
176
     1
  1
strokes_ogs.tif
176
     1
290
     0
176
     1
 40
1.0
176
     1
 40
1.0
176
     1
1001
ACAD
1000
AcDbSavedByObjectVersion
1070
     0
  0
VISUALSTYLE
  5
814B
102
{ACAD_REACTORS
330
813B
102
}
330
813B
100
AcDbVisualStyle
  2
ColorChange
 70
    16
177
     3
291
     1
 70
    58
 90
        2
176
     1
 90
        2
176
     1
 90
        3
176
     1
 90
        0
176
     1
 40
0.6
176
     1
 40
30.0
176
     1
 62
     8
420
  8421504
176
     1
 90
        1
176
     1
 90
        4
176
     1
 62
     7
176
     1
 62
   257
176
     1
 90
        1
176
     1
 90
        1
176
     1
 40
1.0
176
     1
 90
        8
176
     1
 62
     8
420
  8421504
176
     1
 40
1.0
176
     1
 90
        1
176
     1
 90
        6
176
     1
 90
        2
176
     1
 62
     7
176
     1
 90
        5
176
     1
 90
        0
176
     1
 90
        0
176
     1
290
     0
176
     1
 90
        1
176
     1
 40
0.0
176
     1
 90
        0
176
     1
290
     0
176
     1
290
     1
176
     1
290
     1
176
     1
290
     0
176
     1
290
     0
176
     1
290
     0
176
     1
290
     0
176
     1
290
     0
176
     1
290
     0
176
     1
 90
       50
176
     1
 40
0.0
176
     1
 40
1.0
176
     1
 90
        0
176
     1
 62
    18
420
        0
176
     1
 90
       50
176
     1
 90
        3
176
     1
 62
     5
420
      255
176
     1
290
     0
176
     1
 90
       50
176
     1
 90
       50
176
     1
 90
       50
176
     1
290
     0
176
     1
 90
       50
176
     1
 62
   256
176
     0
 40
1.0
176
     0
 90
        2
176
     1
  1
strokes_ogs.tif
176
     1
290
     0
176
     1
 40
1.0
176
     1
 40
1.0
176
     1
1001
ACAD
1000
AcDbSavedByObjectVersion
1070
     0
  0
VISUALSTYLE
  5
8144
102
{ACAD_REACTORS
330
813B
102
}
330
813B
100
AcDbVisualStyle
  2
Conceptual
 70
     9
177
     3
291
     0
 70
    58
 90
        3
176
     1
 90
        2
176
     1
 90
        0
176
     1
 90
        0
176
     1
 40
0.6
176
     1
 40
30.0
176
     1
 62
     7
420
 16777215
176
     1
 90
        2
176
     1
 90
        2
176
     1
 62
     7
176
     1
 62
   257
176
     1
 90
        1
176
     1
 90
        1
176
     1
 40
179.0
176
     1
 90
        8
176
     1
 62
     7
176
     1
 40
1.0
176
     1
 90
        1
176
     1
 90
        6
176
     1
 90
        2
176
     1
 62
     7
176
     1
 90
        3
176
     1
 90
        0
176
     1
 90
        0
176
     1
290
     0
176
     1
 90
        1
176
     1
 40
0.0
176
     1
 90
        0
176
     1
290
     0
176
     1
290
     1
176
     1
290
     1
176
     1
290
     0
176
     1
290
     0
176
     1
290
     0
176
     1
290
     0
176
     1
290
     0
176
     1
290
     0
176
     1
 90
       50
176
     1
 40
0.0
176
     1
 40
1.0
176
     1
 90
        0
176
     1
 62
    18
420
        0
176
     1
 90
       50
176
     1
 90
        3
176
     1
 62
     5
420
      255
176
     1
290
     0
176
     1
 90
       50
176
     1
 90
       50
176
     1
 90
       50
176
     1
290
     0
176
     1
 90
       50
176
     1
 62
   256
176
     0
 40
1.0
176
     0
 90
        2
176
     1
  1
strokes_ogs.tif
176
     1
290
     0
176
     1
 40
1.0
176
     1
 40
1.0
176
     1
1001
ACAD
1000
AcDbSavedByObjectVersion
1070
     0
  0
VISUALSTYLE
  5
8146
102
{ACAD_REACTORS
330
813B
102
}
330
813B
100
AcDbVisualStyle
  2
Dim
 70
    11
177
     3
291
     1
 70
    58
 90
        2
176
     1
 90
        2
176
     1
 90
        0
176
     1
 90
        0
176
     1
 40
0.6
176
     1
 40
30.0
176
     1
 62
     7
420
 16777215
176
     1
 90
        1
176
     1
 90
        4
176
     1
 62
     7
176
     1
 62
   257
176
     1
 90
        1
176
     1
 90
        1
176
     1
 40
1.0
176
     1
 90
        8
176
     1
 62
     7
176
     1
 40
1.0
176
     1
 90
        1
176
     1
 90
        6
176
     1
 90
        2
176
     1
 62
     7
176
     1
 90
        5
176
     1
 90
        0
176
     1
 90
        0
176
     1
290
     0
176
     1
 90
        1
176
     1
 40
-50.0
176
     1
 90
        0
176
     1
290
     0
176
     1
290
     1
176
     1
290
     1
176
     1
290
     0
176
     1
290
     0
176
     1
290
     0
176
     1
290
     0
176
     1
290
     0
176
     1
290
     0
176
     1
 90
       50
176
     1
 40
0.0
176
     1
 40
1.0
176
     1
 90
        0
176
     1
 62
    18
420
        0
176
     1
 90
       50
176
     1
 90
        3
176
     1
 62
     5
420
      255
176
     1
290
     0
176
     1
 90
       50
176
     1
 90
       50
176
     1
 90
       50
176
     1
290
     0
176
     1
 90
       50
176
     1
 62
   256
176
     0
 40
1.0
176
     0
 90
        2
176
     1
  1
strokes_ogs.tif
176
     1
290
     0
176
     1
 40
1.0
176
     1
 40
1.0
176
     1
1001
ACAD
1000
AcDbSavedByObjectVersion
1070
     0
  0
VISUALSTYLE
  5
8153
102
{ACAD_REACTORS
330
813B
102
}
330
813B
100
AcDbVisualStyle
  2
EdgeColorOff
 70
    22
177
     3
291
     1
 70
    58
 90
        2
176
     0
 90
        2
176
     0
 90
        0
176
     0
 90
        0
176
     0
 40
0.6
176
     0
 40
30.0
176
     0
 62
     7
420
 16777215
176
     0
 90
        1
176
     0
 90
        4
176
     0
 62
     7
176
     0
 62
   257
176
     0
 90
        1
176
     0
 90
        1
176
     0
 40
1.0
176
     0
 90
        8
176
     2
 62
     7
176
     0
 40
1.0
176
     0
 90
        1
176
     0
 90
        6
176
     0
 90
        2
176
     0
 62
     7
176
     0
 90
        5
176
     0
 90
        0
176
     0
 90
        0
176
     0
290
     0
176
     0
 90
        1
176
     0
 40
0.0
176
     0
 90
        0
176
     0
290
     0
176
     0
290
     1
176
     0
290
     1
176
     0
290
     0
176
     0
290
     0
176
     0
290
     0
176
     0
290
     0
176
     0
290
     0
176
     0
290
     0
176
     0
 90
       50
176
     0
 40
0.0
176
     0
 40
1.0
176
     0
 90
        0
176
     0
 62
    18
420
        0
176
     0
 90
       50
176
     0
 90
        3
176
     0
 62
     5
420
      255
176
     0
290
     0
176
     0
 90
       50
176
     0
 90
       50
176
     0
 90
       50
176
     0
290
     0
176
     0
 90
       50
176
     0
 62
   256
176
     0
 40
1.0
176
     0
 90
        2
176
     0
  1
strokes_ogs.tif
176
     0
290
     0
176
     0
 40
1.0
176
     0
 40
1.0
176
     0
1001
ACAD
1000
AcDbSavedByObjectVersion
1070
     0
  0
VISUALSTYLE
  5
814A
102
{ACAD_REACTORS
330
813B
102
}
330
813B
100
AcDbVisualStyle
  2
Facepattern
 70
    15
177
     3
291
     1
 70
    58
 90
        2
176
     1
 90
        2
176
     1
 90
        0
176
     1
 90
        0
176
     1
 40
0.6
176
     1
 40
30.0
176
     1
 62
     7
420
 16777215
176
     1
 90
        1
176
     1
 90
        4
176
     1
 62
     7
176
     1
 62
   257
176
     1
 90
        1
176
     1
 90
        1
176
     1
 40
1.0
176
     1
 90
        8
176
     1
 62
     7
176
     1
 40
1.0
176
     1
 90
        1
176
     1
 90
        6
176
     1
 90
        2
176
     1
 62
     7
176
     1
 90
        5
176
     1
 90
        0
176
     1
 90
        0
176
     1
290
     0
176
     1
 90
        1
176
     1
 40
0.0
176
     1
 90
        0
176
     1
290
     0
176
     1
290
     1
176
     1
290
     1
176
     1
290
     0
176
     1
290
     0
176
     1
290
     0
176
     1
290
     0
176
     1
290
     0
176
     1
290
     0
176
     1
 90
       50
176
     1
 40
0.0
176
     1
 40
1.0
176
     1
 90
        0
176
     1
 62
    18
420
        0
176
     1
 90
       50
176
     1
 90
        3
176
     1
 62
     5
420
      255
176
     1
290
     0
176
     1
 90
       50
176
     1
 90
       50
176
     1
 90
       50
176
     1
290
     0
176
     1
 90
       50
176
     1
 62
   256
176
     0
 40
1.0
176
     0
 90
        2
176
     1
  1
strokes_ogs.tif
176
     1
290
     0
176
     1
 40
1.0
176
     1
 40
1.0
176
     1
1001
ACAD
1000
AcDbSavedByObjectVersion
1070
     0
  0
VISUALSTYLE
  5
813C
102
{ACAD_REACTORS
330
813B
102
}
330
813B
100
AcDbVisualStyle
  2
Flat
 70
     0
177
     3
291
     1
 70
    58
 90
        2
176
     1
 90
        1
176
     1
 90
        1
176
     1
 90
        2
176
     1
 40
0.6
176
     1
 40
30.0
176
     1
 62
     7
420
 16777215
176
     1
 90
        0
176
     1
 90
        0
176
     1
 62
     7
176
     1
 62
   257
176
     1
 90
        1
176
     1
 90
        1
176
     1
 40
1.0
176
     1
 90
        8
176
     1
 62
     7
176
     1
 40
1.0
176
     1
 90
        1
176
     1
 90
        6
176
     1
 90
        2
176
     1
 62
     7
176
     1
 90
        5
176
     1
 90
        0
176
     1
 90
        0
176
     1
290
     0
176
     1
 90
       13
176
     1
 40
0.0
176
     1
 90
        0
176
     1
290
     0
176
     1
290
     1
176
     1
290
     1
176
     1
290
     0
176
     1
290
     0
176
     1
290
     0
176
     1
290
     0
176
     1
290
     0
176
     1
290
     0
176
     1
 90
       50
176
     1
 40
0.0
176
     1
 40
1.0
176
     1
 90
        0
176
     1
 62
    18
420
        0
176
     1
 90
       50
176
     1
 90
        3
176
     1
 62
     5
420
      255
176
     1
290
     0
176
     1
 90
       50
176
     1
 90
       50
176
     1
 90
       50
176
     1
290
     0
176
     1
 90
       50
176
     1
 62
   256
176
     0
 40
1.0
176
     0
 90
        2
176
     1
  1
strokes_ogs.tif
176
     1
290
     0
176
     1
 40
1.0
176
     1
 40
1.0
176
     1
1001
ACAD
1000
AcDbSavedByObjectVersion
1070
     0
  0
VISUALSTYLE
  5
813D
102
{ACAD_REACTORS
330
813B
102
}
330
813B
100
AcDbVisualStyle
  2
FlatWithEdges
 70
     1
177
     3
291
     1
 70
    58
 90
        2
176
     1
 90
        1
176
     1
 90
        1
176
     1
 90
        2
176
     1
 40
0.6
176
     1
 40
30.0
176
     1
 62
     7
420
 16777215
176
     1
 90
        1
176
     1
 90
        0
176
     1
 62
     7
176
     1
 62
   257
176
     1
 90
        1
176
     1
 90
        1
176
     1
 40
1.0
176
     1
 90
        0
176
     1
 62
   257
176
     1
 40
1.0
176
     1
 90
        1
176
     1
 90
        6
176
     1
 90
        2
176
     1
 62
     7
176
     1
 90
        5
176
     1
 90
        0
176
     1
 90
        0
176
     1
290
     0
176
     1
 90
       13
176
     1
 40
0.0
176
     1
 90
        0
176
     1
290
     0
176
     1
290
     1
176
     1
290
     1
176
     1
290
     0
176
     1
290
     0
176
     1
290
     0
176
     1
290
     0
176
     1
290
     0
176
     1
290
     0
176
     1
 90
       50
176
     1
 40
0.0
176
     1
 40
1.0
176
     1
 90
        0
176
     1
 62
    18
420
        0
176
     1
 90
       50
176
     1
 90
        3
176
     1
 62
     5
420
      255
176
     1
290
     0
176
     1
 90
       50
176
     1
 90
       50
176
     1
 90
       50
176
     1
290
     0
176
     1
 90
       50
176
     1
 62
   256
176
     0
 40
1.0
176
     0
 90
        2
176
     1
  1
strokes_ogs.tif
176
     1
290
     0
176
     1
 40
1.0
176
     1
 40
1.0
176
     1
1001
ACAD
1000
AcDbSavedByObjectVersion
1070
     0
  0
VISUALSTYLE
  5
813E
102
{ACAD_REACTORS
330
813B
102
}
330
813B
100
AcDbVisualStyle
  2
Gouraud
 70
     2
177
     3
291
     1
 70
    58
 90
        2
176
     1
 90
        2
176
     1
 90
        1
176
     1
 90
        2
176
     1
 40
0.6
176
     1
 40
30.0
176
     1
 62
     7
420
 16777215
176
     1
 90
        0
176
     1
 90
        0
176
     1
 62
     7
176
     1
 62
   257
176
     1
 90
        1
176
     1
 90
        1
176
     1
 40
1.0
176
     1
 90
        0
176
     1
 62
     7
176
     1
 40
1.0
176
     1
 90
        1
176
     1
 90
        6
176
     1
 90
        2
176
     1
 62
     7
176
     1
 90
        5
176
     1
 90
        0
176
     1
 90
        0
176
     1
290
     0
176
     1
 90
       13
176
     1
 40
0.0
176
     1
 90
        0
176
     1
290
     0
176
     1
290
     1
176
     1
290
     1
176
     1
290
     0
176
     1
290
     0
176
     1
290
     0
176
     1
290
     0
176
     1
290
     0
176
     1
290
     0
176
     1
 90
       50
176
     1
 40
0.0
176
     1
 40
1.0
176
     1
 90
        0
176
     1
 62
    18
420
        0
176
     1
 90
       50
176
     1
 90
        3
176
     1
 62
     5
420
      255
176
     1
290
     0
176
     1
 90
       50
176
     1
 90
       50
176
     1
 90
       50
176
     1
290
     0
176
     1
 90
       50
176
     1
 62
   256
176
     0
 40
1.0
176
     0
 90
        2
176
     1
  1
strokes_ogs.tif
176
     1
290
     0
176
     1
 40
1.0
176
     1
 40
1.0
176
     1
1001
ACAD
1000
AcDbSavedByObjectVersion
1070
     0
  0
VISUALSTYLE
  5
813F
102
{ACAD_REACTORS
330
813B
102
}
330
813B
100
AcDbVisualStyle
  2
GouraudWithEdges
 70
     3
177
     3
291
     1
 70
    58
 90
        2
176
     1
 90
        2
176
     1
 90
        1
176
     1
 90
        2
176
     1
 40
0.6
176
     1
 40
30.0
176
     1
 62
     7
420
 16777215
176
     1
 90
        1
176
     1
 90
        0
176
     1
 62
     7
176
     1
 62
   257
176
     1
 90
        1
176
     1
 90
        1
176
     1
 40
1.0
176
     1
 90
        0
176
     1
 62
   257
176
     1
 40
1.0
176
     1
 90
        1
176
     1
 90
        6
176
     1
 90
        2
176
     1
 62
     7
176
     1
 90
        5
176
     1
 90
        0
176
     1
 90
        0
176
     1
290
     0
176
     1
 90
       13
176
     1
 40
0.0
176
     1
 90
        0
176
     1
290
     0
176
     1
290
     1
176
     1
290
     1
176
     1
290
     0
176
     1
290
     0
176
     1
290
     0
176
     1
290
     0
176
     1
290
     0
176
     1
290
     0
176
     1
 90
       50
176
     1
 40
0.0
176
     1
 40
1.0
176
     1
 90
        0
176
     1
 62
    18
420
        0
176
     1
 90
       50
176
     1
 90
        3
176
     1
 62
     5
420
      255
176
     1
290
     0
176
     1
 90
       50
176
     1
 90
       50
176
     1
 90
       50
176
     1
290
     0
176
     1
 90
       50
176
     1
 62
   256
176
     0
 40
1.0
176
     0
 90
        2
176
     1
  1
strokes_ogs.tif
176
     1
290
     0
176
     1
 40
1.0
176
     1
 40
1.0
176
     1
1001
ACAD
1000
AcDbSavedByObjectVersion
1070
     0
  0
VISUALSTYLE
  5
8143
102
{ACAD_REACTORS
330
813B
102
}
330
813B
100
AcDbVisualStyle
  2
Hidden
 70
     6
177
     3
291
     0
 70
    58
 90
        1
176
     1
 90
        2
176
     1
 90
        2
176
     1
 90
        0
176
     1
 40
0.6
176
     1
 40
30.0
176
     1
 62
     7
420
 16777215
176
     1
 90
        2
176
     1
 90
        2
176
     1
 62
     7
176
     1
 62
   257
176
     1
 90
        2
176
     1
 90
        1
176
     1
 40
40.0
176
     1
 90
        0
176
     1
 62
   257
176
     1
 40
1.0
176
     1
 90
        1
176
     1
 90
        6
176
     1
 90
        2
176
     1
 62
     7
176
     1
 90
        3
176
     1
 90
        0
176
     1
 90
        0
176
     1
290
     0
176
     1
 90
        1
176
     1
 40
0.0
176
     1
 90
        0
176
     1
290
     0
176
     1
290
     1
176
     1
290
     1
176
     1
290
     0
176
     1
290
     0
176
     1
290
     0
176
     1
290
     0
176
     1
290
     0
176
     1
290
     0
176
     1
 90
       50
176
     1
 40
0.0
176
     1
 40
1.0
176
     1
 90
        0
176
     1
 62
    18
420
        0
176
     1
 90
       50
176
     1
 90
        3
176
     1
 62
     5
420
      255
176
     1
290
     0
176
     1
 90
       50
176
     1
 90
       50
176
     1
 90
       50
176
     1
290
     0
176
     1
 90
       50
176
     1
 62
   256
176
     0
 40
1.0
176
     0
 90
        2
176
     1
  1
strokes_ogs.tif
176
     1
290
     0
176
     1
 40
1.0
176
     1
 40
1.0
176
     1
1001
ACAD
1000
AcDbSavedByObjectVersion
1070
     0
  0
VISUALSTYLE
  5
8151
102
{ACAD_REACTORS
330
813B
102
}
330
813B
100
AcDbVisualStyle
  2
JitterOff
 70
    20
177
     3
291
     1
 70
    58
 90
        2
176
     0
 90
        2
176
     0
 90
        0
176
     0
 90
        0
176
     0
 40
0.6
176
     0
 40
30.0
176
     0
 62
     7
420
 16777215
176
     0
 90
        1
176
     0
 90
        4
176
     0
 62
     7
176
     0
 62
   257
176
     0
 90
        1
176
     0
 90
        1
176
     0
 40
1.0
176
     0
 90
       10
176
     2
 62
     7
176
     0
 40
1.0
176
     0
 90
        1
176
     0
 90
        6
176
     0
 90
        2
176
     0
 62
     7
176
     0
 90
        5
176
     0
 90
        0
176
     0
 90
        0
176
     0
290
     0
176
     0
 90
        1
176
     0
 40
0.0
176
     0
 90
        0
176
     0
290
     0
176
     0
290
     1
176
     0
290
     1
176
     0
290
     0
176
     0
290
     0
176
     0
290
     0
176
     0
290
     0
176
     0
290
     0
176
     0
290
     0
176
     0
 90
       50
176
     0
 40
0.0
176
     0
 40
1.0
176
     0
 90
        0
176
     0
 62
    18
420
        0
176
     0
 90
       50
176
     0
 90
        3
176
     0
 62
     5
420
      255
176
     0
290
     0
176
     0
 90
       50
176
     0
 90
       50
176
     0
 90
       50
176
     0
290
     0
176
     0
 90
       50
176
     0
 62
   256
176
     0
 40
1.0
176
     0
 90
        2
176
     0
  1
strokes_ogs.tif
176
     0
290
     0
176
     0
 40
1.0
176
     0
 40
1.0
176
     0
1001
ACAD
1000
AcDbSavedByObjectVersion
1070
     0
  0
VISUALSTYLE
  5
8149
102
{ACAD_REACTORS
330
813B
102
}
330
813B
100
AcDbVisualStyle
  2
Linepattern
 70
    14
177
     3
291
     1
 70
    58
 90
        2
176
     1
 90
        2
176
     1
 90
        0
176
     1
 90
        0
176
     1
 40
0.6
176
     1
 40
30.0
176
     1
 62
     7
420
 16777215
176
     1
 90
        1
176
     1
 90
        4
176
     1
 62
     7
176
     1
 62
   257
176
     1
 90
        7
176
     1
 90
        7
176
     1
 40
1.0
176
     1
 90
        8
176
     1
 62
     7
176
     1
 40
1.0
176
     1
 90
        1
176
     1
 90
        6
176
     1
 90
        2
176
     1
 62
     7
176
     1
 90
        5
176
     1
 90
        0
176
     1
 90
        0
176
     1
290
     0
176
     1
 90
        1
176
     1
 40
0.0
176
     1
 90
        0
176
     1
290
     0
176
     1
290
     1
176
     1
290
     1
176
     1
290
     0
176
     1
290
     0
176
     1
290
     0
176
     1
290
     0
176
     1
290
     0
176
     1
290
     0
176
     1
 90
       50
176
     1
 40
0.0
176
     1
 40
1.0
176
     1
 90
        0
176
     1
 62
    18
420
        0
176
     1
 90
       50
176
     1
 90
        3
176
     1
 62
     5
420
      255
176
     1
290
     0
176
     1
 90
       50
176
     1
 90
       50
176
     1
 90
       50
176
     1
290
     0
176
     1
 90
       50
176
     1
 62
   256
176
     0
 40
1.0
176
     0
 90
        2
176
     1
  1
strokes_ogs.tif
176
     1
290
     0
176
     1
 40
1.0
176
     1
 40
1.0
176
     1
1001
ACAD
1000
AcDbSavedByObjectVersion
1070
     0
  0
VISUALSTYLE
  5
8152
102
{ACAD_REACTORS
330
813B
102
}
330
813B
100
AcDbVisualStyle
  2
OverhangOff
 70
    21
177
     3
291
     1
 70
    58
 90
        2
176
     0
 90
        2
176
     0
 90
        0
176
     0
 90
        0
176
     0
 40
0.6
176
     0
 40
30.0
176
     0
 62
     7
420
 16777215
176
     0
 90
        1
176
     0
 90
        4
176
     0
 62
     7
176
     0
 62
   257
176
     0
 90
        1
176
     0
 90
        1
176
     0
 40
1.0
176
     0
 90
        9
176
     2
 62
     7
176
     0
 40
1.0
176
     0
 90
        1
176
     0
 90
        6
176
     0
 90
        2
176
     0
 62
     7
176
     0
 90
        5
176
     0
 90
        0
176
     0
 90
        0
176
     0
290
     0
176
     0
 90
        1
176
     0
 40
0.0
176
     0
 90
        0
176
     0
290
     0
176
     0
290
     1
176
     0
290
     1
176
     0
290
     0
176
     0
290
     0
176
     0
290
     0
176
     0
290
     0
176
     0
290
     0
176
     0
290
     0
176
     0
 90
       50
176
     0
 40
0.0
176
     0
 40
1.0
176
     0
 90
        0
176
     0
 62
    18
420
        0
176
     0
 90
       50
176
     0
 90
        3
176
     0
 62
     5
420
      255
176
     0
290
     0
176
     0
 90
       50
176
     0
 90
       50
176
     0
 90
       50
176
     0
290
     0
176
     0
 90
       50
176
     0
 62
   256
176
     0
 40
1.0
176
     0
 90
        2
176
     0
  1
strokes_ogs.tif
176
     0
290
     0
176
     0
 40
1.0
176
     0
 40
1.0
176
     0
1001
ACAD
1000
AcDbSavedByObjectVersion
1070
     0
  0
VISUALSTYLE
  5
8145
102
{ACAD_REACTORS
330
813B
102
}
330
813B
100
AcDbVisualStyle
  2
Realistic
 70
     8
177
     3
291
     0
 70
    58
 90
        2
176
     1
 90
        3
176
     1
 90
        0
176
     1
 90
        2
176
     1
 40
0.6
176
     1
 40
30.0
176
     1
 62
     7
420
 16777215
176
     1
 90
        0
176
     1
 90
        0
176
     1
 62
     7
176
     1
 62
   257
176
     1
 90
        1
176
     1
 90
        1
176
     1
 40
1.0
176
     1
 90
        8
176
     1
 62
   257
176
     1
 40
1.0
176
     1
 90
        1
176
     1
 90
        6
176
     1
 90
        2
176
     1
 62
     7
176
     1
 90
        3
176
     1
 90
        0
176
     1
 90
        0
176
     1
290
     0
176
     1
 90
       13
176
     1
 40
0.0
176
     1
 90
        0
176
     1
290
     0
176
     1
290
     1
176
     1
290
     1
176
     1
290
     0
176
     1
290
     0
176
     1
290
     0
176
     1
290
     0
176
     1
290
     0
176
     1
290
     0
176
     1
 90
       50
176
     1
 40
0.0
176
     1
 40
1.0
176
     1
 90
        0
176
     1
 62
    18
420
        0
176
     1
 90
       50
176
     1
 90
        3
176
     1
 62
     5
420
      255
176
     1
290
     0
176
     1
 90
       50
176
     1
 90
       50
176
     1
 90
       50
176
     1
290
     0
176
     1
 90
       50
176
     1
 62
   256
176
     0
 40
1.0
176
     0
 90
        2
176
     1
  1
strokes_ogs.tif
176
     1
290
     0
176
     1
 40
1.0
176
     1
 40
1.0
176
     1
1001
ACAD
1000
AcDbSavedByObjectVersion
1070
     0
  0
VISUALSTYLE
  5
8150
102
{ACAD_REACTORS
330
813B
102
}
330
813B
100
AcDbVisualStyle
  2
Shaded
 70
    27
177
     3
291
     0
 70
    58
 90
        2
176
     1
 90
        2
176
     1
 90
        1
176
     1
 90
        2
176
     1
 40
0.6
176
     1
 40
30.0
176
     1
 62
     7
420
 16777215
176
     1
 90
        0
176
     1
 90
        4
176
     1
 62
     7
176
     1
 62
   257
176
     1
 90
        1
176
     1
 90
        1
176
     1
 40
1.0
176
     1
 90
        8
176
     1
 62
   257
176
     1
 40
1.0
176
     1
 90
        1
176
     1
 90
        6
176
     1
 90
        2
176
     1
 62
     8
420
  7895160
176
     1
 90
        3
176
     1
 90
        0
176
     1
 90
        0
176
     1
290
     0
176
     1
 90
        5
176
     1
 40
0.0
176
     1
 90
        0
176
     1
290
     0
176
     1
290
     1
176
     1
290
     1
176
     1
290
     0
176
     1
290
     0
176
     1
290
     0
176
     1
290
     0
176
     1
290
     0
176
     1
290
     0
176
     1
 90
       50
176
     1
 40
0.0
176
     1
 40
1.0
176
     1
 90
        0
176
     1
 62
    18
420
        0
176
     1
 90
       50
176
     1
 90
        3
176
     1
 62
     5
420
      255
176
     1
290
     0
176
     1
 90
       50
176
     1
 90
       50
176
     1
 90
       50
176
     1
290
     0
176
     1
 90
       50
176
     1
 62
   256
176
     0
 40
1.0
176
     0
 90
        2
176
     1
  1
strokes_ogs.tif
176
     1
290
     0
176
     1
 40
1.0
176
     1
 40
1.0
176
     1
1001
ACAD
1000
AcDbSavedByObjectVersion
1070
     0
  0
VISUALSTYLE
  5
814F
102
{ACAD_REACTORS
330
813B
102
}
330
813B
100
AcDbVisualStyle
  2
Shaded with edges
 70
    26
177
     3
291
     0
 70
    58
 90
        2
176
     1
 90
        2
176
     1
 90
        1
176
     1
 90
        2
176
     1
 40
0.6
176
     1
 40
30.0
176
     1
 62
     7
420
 16777215
176
     1
 90
        1
176
     1
 90
        2
176
     1
 62
     7
176
     1
 62
   257
176
     1
 90
        2
176
     1
 90
        1
176
     1
 40
1.0
176
     1
 90
        8
176
     1
 62
   257
176
     1
 40
1.0
176
     1
 90
        1
176
     1
 90
        6
176
     1
 90
        2
176
     1
 62
     7
176
     1
 90
        3
176
     1
 90
        0
176
     1
 90
        0
176
     1
290
     0
176
     1
 90
        5
176
     1
 40
0.0
176
     1
 90
        0
176
     1
290
     0
176
     1
290
     1
176
     1
290
     1
176
     1
290
     0
176
     1
290
     0
176
     1
290
     0
176
     1
290
     0
176
     1
290
     0
176
     1
290
     0
176
     1
 90
       50
176
     1
 40
0.0
176
     1
 40
1.0
176
     1
 90
        0
176
     1
 62
    18
420
        0
176
     1
 90
       50
176
     1
 90
        3
176
     1
 62
     5
420
      255
176
     1
290
     0
176
     1
 90
       50
176
     1
 90
       50
176
     1
 90
       50
176
     1
290
     0
176
     1
 90
       50
176
     1
 62
   256
176
     0
 40
1.0
176
     0
 90
        2
176
     1
  1
strokes_ogs.tif
176
     1
290
     0
176
     1
 40
1.0
176
     1
 40
1.0
176
     1
1001
ACAD
1000
AcDbSavedByObjectVersion
1070
     0
  0
VISUALSTYLE
  5
814C
102
{ACAD_REACTORS
330
813B
102
}
330
813B
100
AcDbVisualStyle
  2
Shades of Gray
 70
    23
177
     3
291
     0
 70
    58
 90
        2
176
     1
 90
        2
176
     1
 90
        3
176
     1
 90
        0
176
     1
 40
0.6
176
     1
 40
30.0
176
     1
 62
     7
420
 16777215
176
     1
 90
        2
176
     1
 90
        2
176
     1
 62
     7
176
     1
 62
     7
176
     1
 90
        1
176
     1
 90
        1
176
     1
 40
40.0
176
     1
 90
        8
176
     1
 62
     7
176
     1
 40
1.0
176
     1
 90
        1
176
     1
 90
        6
176
     1
 90
        2
176
     1
 62
     7
176
     1
 90
        3
176
     1
 90
        0
176
     1
 90
        0
176
     1
290
     0
176
     1
 90
        1
176
     1
 40
0.0
176
     1
 90
        0
176
     1
290
     0
176
     1
290
     1
176
     1
290
     1
176
     1
290
     0
176
     1
290
     0
176
     1
290
     0
176
     1
290
     0
176
     1
290
     0
176
     1
290
     0
176
     1
 90
       50
176
     1
 40
0.0
176
     1
 40
1.0
176
     1
 90
        0
176
     1
 62
    18
420
        0
176
     1
 90
       50
176
     1
 90
        3
176
     1
 62
     5
420
      255
176
     1
290
     0
176
     1
 90
       50
176
     1
 90
       50
176
     1
 90
       50
176
     1
290
     0
176
     1
 90
       50
176
     1
 62
   256
176
     0
 40
1.0
176
     0
 90
        2
176
     1
  1
strokes_ogs.tif
176
     1
290
     0
176
     1
 40
1.0
176
     1
 40
1.0
176
     1
1001
ACAD
1000
AcDbSavedByObjectVersion
1070
     0
  0
VISUALSTYLE
  5
814D
102
{ACAD_REACTORS
330
813B
102
}
330
813B
100
AcDbVisualStyle
  2
Sketchy
 70
    24
177
     3
291
     0
 70
    58
 90
        1
176
     1
 90
        2
176
     1
 90
        2
176
     1
 90
        0
176
     1
 40
0.6
176
     1
 40
30.0
176
     1
 62
     7
420
 16777215
176
     1
 90
        2
176
     1
 90
        2
176
     1
 62
     7
176
     1
 62
     7
176
     1
 90
        1
176
     1
 90
        1
176
     1
 40
40.0
176
     1
 90
       11
176
     1
 62
     7
176
     1
 40
1.0
176
     1
 90
        1
176
     1
 90
        6
176
     1
 90
        2
176
     1
 62
     7
176
     1
 90
        6
176
     1
 90
        0
176
     1
 90
        0
176
     1
290
     0
176
     1
 90
        1
176
     1
 40
0.0
176
     1
 90
        0
176
     1
290
     0
176
     1
290
     1
176
     1
290
     1
176
     1
290
     0
176
     1
290
     0
176
     1
290
     0
176
     1
290
     0
176
     1
290
     0
176
     1
290
     0
176
     1
 90
       50
176
     1
 40
0.0
176
     1
 40
1.0
176
     1
 90
        0
176
     1
 62
    18
420
        0
176
     1
 90
       50
176
     1
 90
        3
176
     1
 62
     5
420
      255
176
     1
290
     0
176
     1
 90
       50
176
     1
 90
       50
176
     1
 90
       50
176
     1
290
     0
176
     1
 90
       50
176
     1
 62
   256
176
     0
 40
1.0
176
     0
 90
        2
176
     1
  1
strokes_ogs.tif
176
     1
290
     0
176
     1
 40
1.0
176
     1
 40
1.0
176
     1
1001
ACAD
1000
AcDbSavedByObjectVersion
1070
     0
  0
VISUALSTYLE
  5
8148
102
{ACAD_REACTORS
330
813B
102
}
330
813B
100
AcDbVisualStyle
  2
Thicken
 70
    13
177
     3
291
     1
 70
    58
 90
        2
176
     1
 90
        2
176
     1
 90
        0
176
     1
 90
        0
176
     1
 40
0.6
176
     1
 40
30.0
176
     1
 62
     7
420
 16777215
176
     1
 90
        1
176
     1
 90
        4
176
     1
 62
     7
176
     1
 62
   257
176
     1
 90
        1
176
     1
 90
        1
176
     1
 40
1.0
176
     1
 90
       12
176
     1
 62
     7
176
     1
 40
1.0
176
     1
 90
        1
176
     1
 90
        6
176
     1
 90
        2
176
     1
 62
     7
176
     1
 90
        5
176
     1
 90
        0
176
     1
 90
        0
176
     1
290
     0
176
     1
 90
        1
176
     1
 40
0.0
176
     1
 90
        0
176
     1
290
     0
176
     1
290
     1
176
     1
290
     1
176
     1
290
     0
176
     1
290
     0
176
     1
290
     0
176
     1
290
     0
176
     1
290
     0
176
     1
290
     0
176
     1
 90
       50
176
     1
 40
0.0
176
     1
 40
1.0
176
     1
 90
        0
176
     1
 62
    18
420
        0
176
     1
 90
       50
176
     1
 90
        3
176
     1
 62
     5
420
      255
176
     1
290
     0
176
     1
 90
       50
176
     1
 90
       50
176
     1
 90
       50
176
     1
290
     0
176
     1
 90
       50
176
     1
 62
   256
176
     0
 40
1.0
176
     0
 90
        2
176
     1
  1
strokes_ogs.tif
176
     1
290
     0
176
     1
 40
1.0
176
     1
 40
1.0
176
     1
1001
ACAD
1000
AcDbSavedByObjectVersion
1070
     0
  0
VISUALSTYLE
  5
8142
102
{ACAD_REACTORS
330
813B
102
}
330
813B
100
AcDbVisualStyle
  2
Wireframe
 70
     5
177
     3
291
     0
 70
    58
 90
        0
176
     1
 90
        2
176
     1
 90
        0
176
     1
 90
        0
176
     1
 40
0.6
176
     1
 40
30.0
176
     1
 62
     7
420
 16777215
176
     1
 90
        1
176
     1
 90
        4
176
     1
 62
     7
176
     1
 62
   257
176
     1
 90
        1
176
     1
 90
        1
176
     1
 40
1.0
176
     1
 90
        0
176
     1
 62
   257
176
     1
 40
1.0
176
     1
 90
        1
176
     1
 90
        6
176
     1
 90
        2
176
     1
 62
     7
176
     1
 90
        3
176
     1
 90
        0
176
     1
 90
        0
176
     1
290
     0
176
     1
 90
        1
176
     1
 40
0.0
176
     1
 90
        0
176
     1
290
     0
176
     1
290
     1
176
     1
290
     1
176
     1
290
     0
176
     1
290
     0
176
     1
290
     0
176
     1
290
     0
176
     1
290
     0
176
     1
290
     0
176
     1
 90
       50
176
     1
 40
0.0
176
     1
 40
1.0
176
     1
 90
        0
176
     1
 62
    18
420
        0
176
     1
 90
       50
176
     1
 90
        3
176
     1
 62
     5
420
      255
176
     1
290
     0
176
     1
 90
       50
176
     1
 90
       50
176
     1
 90
       50
176
     1
290
     0
176
     1
 90
       50
176
     1
 62
   256
176
     0
 40
1.0
176
     0
 90
        2
176
     1
  1
strokes_ogs.tif
176
     1
290
     0
176
     1
 40
1.0
176
     1
 40
1.0
176
     1
1001
ACAD
1000
AcDbSavedByObjectVersion
1070
     0
  0
VISUALSTYLE
  5
814E
102
{ACAD_REACTORS
330
813B
102
}
330
813B
100
AcDbVisualStyle
  2
X-Ray
 70
    25
177
     3
291
     0
 70
    58
 90
        2
176
     1
 90
        2
176
     1
 90
        1
176
     1
 90
        1
176
     1
 40
0.5
176
     1
 40
30.0
176
     1
 62
     7
420
 16777215
176
     1
 90
        1
176
     1
 90
        0
176
     1
 62
     7
176
     1
 62
   257
176
     1
 90
        1
176
     1
 90
        1
176
     1
 40
1.0
176
     1
 90
        8
176
     1
 62
     7
176
     1
 40
1.0
176
     1
 90
        1
176
     1
 90
        6
176
     1
 90
        2
176
     1
 62
     7
176
     1
 90
        3
176
     1
 90
        0
176
     1
 90
        0
176
     1
290
     0
176
     1
 90
       13
176
     1
 40
0.0
176
     1
 90
        0
176
     1
290
     0
176
     1
290
     1
176
     1
290
     1
176
     1
290
     0
176
     1
290
     0
176
     1
290
     0
176
     1
290
     0
176
     1
290
     0
176
     1
290
     0
176
     1
 90
       50
176
     1
 40
0.0
176
     1
 40
1.0
176
     1
 90
        0
176
     1
 62
    18
420
        0
176
     1
 90
       50
176
     1
 90
        3
176
     1
 62
     5
420
      255
176
     1
290
     0
176
     1
 90
       50
176
     1
 90
       50
176
     1
 90
       50
176
     1
290
     0
176
     1
 90
       50
176
     1
 62
   256
176
     0
 40
1.0
176
     0
 90
        2
176
     1
  1
strokes_ogs.tif
176
     1
290
     0
176
     1
 40
1.0
176
     1
 40
1.0
176
     1
1001
ACAD
1000
AcDbSavedByObjectVersion
1070
     0
  0
DICTIONARYVAR
  5
821A
102
{ACAD_REACTORS
330
8214
102
}
330
8214
100
DictionaryVariables
280
     0
  1
1:1
  0
DICTIONARYVAR
  5
8216
102
{ACAD_REACTORS
330
8214
102
}
330
8214
100
DictionaryVariables
280
     0
  1
STANDARD
  0
DICTIONARYVAR
  5
8215
102
{ACAD_REACTORS
330
8214
102
}
330
8214
100
DictionaryVariables
280
     0
  1
STANDARD
  0
DICTIONARYVAR
  5
8217
102
{ACAD_REACTORS
330
8214
102
}
330
8214
100
DictionaryVariables
280
     0
  1
Metric50
  0
DICTIONARYVAR
  5
8218
102
{ACAD_REACTORS
330
8214
102
}
330
8214
100
DictionaryVariables
280
     0
  1
Metric50
  0
DICTIONARYVAR
  5
821C
102
{ACAD_REACTORS
330
8214
102
}
330
8214
100
DictionaryVariables
280
     0
  1
1
  0
DICTIONARYVAR
  5
821D
102
{ACAD_REACTORS
330
8214
102
}
330
8214
100
DictionaryVariables
280
     0
  1
15
  0
DICTIONARYVAR
  5
821B
102
{ACAD_REACTORS
330
8214
102
}
330
8214
100
DictionaryVariables
280
     0
  1
0
  0
DICTIONARYVAR
  5
8222
102
{ACAD_REACTORS
330
8214
102
}
330
8214
100
DictionaryVariables
280
     0
  1
0
  0
DICTIONARYVAR
  5
8219
102
{ACAD_REACTORS
330
8214
102
}
330
8214
100
DictionaryVariables
280
     0
  1
0
  0
DICTIONARY
  5
822D
102
{ACAD_REACTORS
330
822B
102
}
330
822B
100
AcDbDictionary
281
     1
  0
DICTIONARY
  5
822C
102
{ACAD_REACTORS
330
822B
102
}
330
822B
100
AcDbDictionary
281
     1
  3
2041234517344
350
8226
  3
2041234517360
350
8227
  3
2041234517376
350
8228
  3
2041234517392
350
8229
  3
2041234517408
350
822A
  0
DICTIONARY
  5
8230
330
816E
100
AcDbDictionary
280
     1
281
     1
  3
ACAD_XREC_ROUNDTRIP
360
8231
  0
DICTIONARY
  5
812C
330
812B
100
AcDbDictionary
280
     1
281
     1
  3
BUMPTILE
360
812E
  3
DIFFUSETILE
360
812D
  3
OPACITYTILE
360
8131
  3
REFLECTIONTILE
360
8130
  3
REFRACTIONTILE
360
8132
  3
SPECULARTILE
360
812F
  0
DICTIONARY
  5
8124
330
8123
100
AcDbDictionary
280
     1
281
     1
  3
BUMPTILE
360
8126
  3
DIFFUSETILE
360
8125
  3
OPACITYTILE
360
8129
  3
REFLECTIONTILE
360
8128
  3
REFRACTIONTILE
360
812A
  3
SPECULARTILE
360
8127
  0
DICTIONARY
  5
8134
330
8133
100
AcDbDictionary
280
     1
281
     1
  3
BUMPTILE
360
8136
  3
DIFFUSETILE
360
8135
  3
OPACITYTILE
360
8139
  3
REFLECTIONTILE
360
8138
  3
REFRACTIONTILE
360
813A
  3
SPECULARTILE
360
8137
  0
DICTIONARY
  5
822E
330
816C
100
AcDbDictionary
280
     1
281
     1
  3
ACAD_XREC_ROUNDTRIP
360
822F
  0
DICTIONARY
  5
8223
330
8156
100
AcDbDictionary
280
     1
281
     1
  3
ACAD_ROUNDTRIP_2008_TABLESTYLE_CELLSTYLEMAP
360
8224
  0
XRECORD
  5
8226
102
{ACAD_REACTORS
330
822C
102
}
330
822C
100
AcDbXrecord
280
     1
  1
AcDb_Thumbnail_Schema
102
{ATTRRECORD
341
8227
  2
AcDbDs::TreatedAsObjectData
280
     1
291
     1
102
ATTRRECORD}
102
{ATTRRECORD
341
8228
  2
AcDbDs::Legacy
280
     1
291
     1
102
ATTRRECORD}
  2
AcDbDs::ID
280
    10
 91
        8
102
{ATTRRECORD
341
8229
  2
AcDs:Indexable
280
     1
291
     1
102
ATTRRECORD}
102
{ATTRRECORD
341
822A
  2
AcDbDs::HandleAttribute
280
     7
282
     1
102
ATTRRECORD}
  2
Thumbnail_Data
280
    15
 91
        0
  0
XRECORD
  5
8227
102
{ACAD_REACTORS
330
822C
102
}
330
822C
100
AcDbXrecord
280
     1
  1
AcDbDs::TreatedAsObjectDataSchema
  2
AcDbDs::TreatedAsObjectData
280
     1
 91
        0
  0
XRECORD
  5
8228
102
{ACAD_REACTORS
330
822C
102
}
330
822C
100
AcDbXrecord
280
     1
  1
AcDbDs::LegacySchema
  2
AcDbDs::Legacy
280
     1
 91
        0
  0
XRECORD
  5
8229
102
{ACAD_REACTORS
330
822C
102
}
330
822C
100
AcDbXrecord
280
     1
  1
AcDbDs::IndexedPropertySchema
  2
AcDs:Indexable
280
     1
 91
        0
  0
XRECORD
  5
822A
102
{ACAD_REACTORS
330
822C
102
}
330
822C
100
AcDbXrecord
280
     1
  1
AcDbDs::HandleAttributeSchema
  2
AcDbDs::HandleAttribute
280
     7
 91
        1
284
     1
  0
XRECORD
  5
8231
102
{ACAD_REACTORS
330
8230
102
}
330
8230
100
AcDbXrecord
280
     1
102
DISPLAYNAME
  1
Metric50
102
FLAGS
 90
        0
  0
XRECORD
  5
812E
102
{ACAD_REACTORS
330
812C
102
}
330
812C
100
AcDbXrecord
280
     1
270
     1
271
     1
  0
XRECORD
  5
812D
102
{ACAD_REACTORS
330
812C
102
}
330
812C
100
AcDbXrecord
280
     1
270
     1
271
     1
  0
XRECORD
  5
8131
102
{ACAD_REACTORS
330
812C
102
}
330
812C
100
AcDbXrecord
280
     1
270
     1
271
     1
  0
XRECORD
  5
8130
102
{ACAD_REACTORS
330
812C
102
}
330
812C
100
AcDbXrecord
280
     1
270
     1
271
     1
  0
XRECORD
  5
8132
102
{ACAD_REACTORS
330
812C
102
}
330
812C
100
AcDbXrecord
280
     1
270
     1
271
     1
  0
XRECORD
  5
812F
102
{ACAD_REACTORS
330
812C
102
}
330
812C
100
AcDbXrecord
280
     1
270
     1
271
     1
  0
XRECORD
  5
8126
102
{ACAD_REACTORS
330
8124
102
}
330
8124
100
AcDbXrecord
280
     1
270
     1
271
     1
  0
XRECORD
  5
8125
102
{ACAD_REACTORS
330
8124
102
}
330
8124
100
AcDbXrecord
280
     1
270
     1
271
     1
  0
XRECORD
  5
8129
102
{ACAD_REACTORS
330
8124
102
}
330
8124
100
AcDbXrecord
280
     1
270
     1
271
     1
  0
XRECORD
  5
8128
102
{ACAD_REACTORS
330
8124
102
}
330
8124
100
AcDbXrecord
280
     1
270
     1
271
     1
  0
XRECORD
  5
812A
102
{ACAD_REACTORS
330
8124
102
}
330
8124
100
AcDbXrecord
280
     1
270
     1
271
     1
  0
XRECORD
  5
8127
102
{ACAD_REACTORS
330
8124
102
}
330
8124
100
AcDbXrecord
280
     1
270
     1
271
     1
  0
XRECORD
  5
8136
102
{ACAD_REACTORS
330
8134
102
}
330
8134
100
AcDbXrecord
280
     1
270
     1
271
     1
  0
XRECORD
  5
8135
102
{ACAD_REACTORS
330
8134
102
}
330
8134
100
AcDbXrecord
280
     1
270
     1
271
     1
  0
XRECORD
  5
8139
102
{ACAD_REACTORS
330
8134
102
}
330
8134
100
AcDbXrecord
280
     1
270
     1
271
     1
  0
XRECORD
  5
8138
102
{ACAD_REACTORS
330
8134
102
}
330
8134
100
AcDbXrecord
280
     1
270
     1
271
     1
  0
XRECORD
  5
813A
102
{ACAD_REACTORS
330
8134
102
}
330
8134
100
AcDbXrecord
280
     1
270
     1
271
     1
  0
XRECORD
  5
8137
102
{ACAD_REACTORS
330
8134
102
}
330
8134
100
AcDbXrecord
280
     1
270
     1
271
     1
  0
XRECORD
  5
822F
102
{ACAD_REACTORS
330
822E
102
}
330
822E
100
AcDbXrecord
280
     1
102
DISPLAYNAME
  1
Metric50
102
FLAGS
 90
        0
  0
CELLSTYLEMAP
  5
8224
102
{ACAD_REACTORS
330
8223
102
}
330
8223
100
AcDbCellStyleMap
 90
        3
300
CELLSTYLE
  1
TABLEFORMAT_BEGIN
 90
        5
170
     1
 91
        0
 92
    32768
 62
   257
 93
        1
300
CONTENTFORMAT
  1
CONTENTFORMAT_BEGIN
 90
        0
 91
        0
 92
      512
 93
        0
300

 40
0.0
140
1.0
 94
        5
 62
     0
340
10
144
6.0
309
CONTENTFORMAT_END
171
     1
301
MARGIN
  1
CELLMARGIN_BEGIN
 40
1.5
 40
1.5
 40
1.5
 40
1.5
 40
4.5
 40
4.5
309
CELLMARGIN_END
 94
        6
 95
        1
302
GRIDFORMAT
  1
GRIDFORMAT_BEGIN
 90
        0
 91
        1
 62
     0
 92
       -2
340
0
 93
        0
 40
1.125
309
GRIDFORMAT_END
 95
        2
302
GRIDFORMAT
  1
GRIDFORMAT_BEGIN
 90
        0
 91
        1
 62
     0
 92
       -2
340
0
 93
        0
 40
1.125
309
GRIDFORMAT_END
 95
        4
302
GRIDFORMAT
  1
GRIDFORMAT_BEGIN
 90
        0
 91
        1
 62
     0
 92
       -2
340
0
 93
        0
 40
1.125
309
GRIDFORMAT_END
 95
        8
302
GRIDFORMAT
  1
GRIDFORMAT_BEGIN
 90
        0
 91
        1
 62
     0
 92
       -2
340
0
 93
        0
 40
1.125
309
GRIDFORMAT_END
 95
       16
302
GRIDFORMAT
  1
GRIDFORMAT_BEGIN
 90
        0
 91
        1
 62
     0
 92
       -2
340
0
 93
        0
 40
1.125
309
GRIDFORMAT_END
 95
       32
302
GRIDFORMAT
  1
GRIDFORMAT_BEGIN
 90
        0
 91
        1
 62
     0
 92
       -2
340
0
 93
        0
 40
1.125
309
GRIDFORMAT_END
309
TABLEFORMAT_END
  1
CELLSTYLE_BEGIN
 90
        1
 91
        1
300
_TITLE
309
CELLSTYLE_END
300
CELLSTYLE
  1
TABLEFORMAT_BEGIN
 90
        5
170
     1
 91
        0
 92
        0
 62
   257
 93
        1
300
CONTENTFORMAT
  1
CONTENTFORMAT_BEGIN
 90
        0
 91
        0
 92
      512
 93
        0
300

 40
0.0
140
1.0
 94
        5
 62
     0
340
10
144
4.5
309
CONTENTFORMAT_END
171
     1
301
MARGIN
  1
CELLMARGIN_BEGIN
 40
1.5
 40
1.5
 40
1.5
 40
1.5
 40
4.5
 40
4.5
309
CELLMARGIN_END
 94
        6
 95
        1
302
GRIDFORMAT
  1
GRIDFORMAT_BEGIN
 90
        0
 91
        1
 62
     0
 92
       -2
340
0
 93
        0
 40
1.125
309
GRIDFORMAT_END
 95
        2
302
GRIDFORMAT
  1
GRIDFORMAT_BEGIN
 90
        0
 91
        1
 62
     0
 92
       -2
340
0
 93
        0
 40
1.125
309
GRIDFORMAT_END
 95
        4
302
GRIDFORMAT
  1
GRIDFORMAT_BEGIN
 90
        0
 91
        1
 62
     0
 92
       -2
340
0
 93
        0
 40
1.125
309
GRIDFORMAT_END
 95
        8
302
GRIDFORMAT
  1
GRIDFORMAT_BEGIN
 90
        0
 91
        1
 62
     0
 92
       -2
340
0
 93
        0
 40
1.125
309
GRIDFORMAT_END
 95
       16
302
GRIDFORMAT
  1
GRIDFORMAT_BEGIN
 90
        0
 91
        1
 62
     0
 92
       -2
340
0
 93
        0
 40
1.125
309
GRIDFORMAT_END
 95
       32
302
GRIDFORMAT
  1
GRIDFORMAT_BEGIN
 90
        0
 91
        1
 62
     0
 92
       -2
340
0
 93
        0
 40
1.125
309
GRIDFORMAT_END
309
TABLEFORMAT_END
  1
CELLSTYLE_BEGIN
 90
        2
 91
        1
300
_HEADER
309
CELLSTYLE_END
300
CELLSTYLE
  1
TABLEFORMAT_BEGIN
 90
        5
170
     1
 91
        0
 92
        0
 62
   257
 93
        1
300
CONTENTFORMAT
  1
CONTENTFORMAT_BEGIN
 90
        0
 91
        0
 92
      512
 93
        0
300

 40
0.0
140
1.0
 94
        2
 62
     0
340
10
144
4.5
309
CONTENTFORMAT_END
171
     1
301
MARGIN
  1
CELLMARGIN_BEGIN
 40
1.5
 40
1.5
 40
1.5
 40
1.5
 40
4.5
 40
4.5
309
CELLMARGIN_END
 94
        6
 95
        1
302
GRIDFORMAT
  1
GRIDFORMAT_BEGIN
 90
        0
 91
        1
 62
     0
 92
       -2
340
0
 93
        0
 40
1.125
309
GRIDFORMAT_END
 95
        2
302
GRIDFORMAT
  1
GRIDFORMAT_BEGIN
 90
        0
 91
        1
 62
     0
 92
       -2
340
0
 93
        0
 40
1.125
309
GRIDFORMAT_END
 95
        4
302
GRIDFORMAT
  1
GRIDFORMAT_BEGIN
 90
        0
 91
        1
 62
     0
 92
       -2
340
0
 93
        0
 40
1.125
309
GRIDFORMAT_END
 95
        8
302
GRIDFORMAT
  1
GRIDFORMAT_BEGIN
 90
        0
 91
        1
 62
     0
 92
       -2
340
0
 93
        0
 40
1.125
309
GRIDFORMAT_END
 95
       16
302
GRIDFORMAT
  1
GRIDFORMAT_BEGIN
 90
        0
 91
        1
 62
     0
 92
       -2
340
0
 93
        0
 40
1.125
309
GRIDFORMAT_END
 95
       32
302
GRIDFORMAT
  1
GRIDFORMAT_BEGIN
 90
        0
 91
        1
 62
     0
 92
       -2
340
0
 93
        0
 40
1.125
309
GRIDFORMAT_END
309
TABLEFORMAT_END
  1
CELLSTYLE_BEGIN
 90
        3
 91
        2
300
_DATA
309
CELLSTYLE_END
  0
ENDSEC
  0
SECTION
  2
ACDSDATA
 70
     2
 71
     8
  0
ACDSSCHEMA
 90
        0
  1
AcDb_Thumbnail_Schema
  2
AcDbDs::ID
280
    10
 91
        8
  2
Thumbnail_Data
280
    15
 91
        0
101
ACDSRECORD
 95
        0
 90
        1
  2
AcDbDs::TreatedAsObjectData
280
     1
291
     1
101
ACDSRECORD
 95
        0
 90
        2
  2
AcDbDs::Legacy
280
     1
291
     1
101
ACDSRECORD
  1
AcDbDs::ID
 90
        3
  2
AcDs:Indexable
280
     1
291
     1
101
ACDSRECORD
  1
AcDbDs::ID
 90
        4
  2
AcDbDs::HandleAttribute
280
     7
282
     1
  0
ACDSSCHEMA
 90
        1
  1
AcDbDs::TreatedAsObjectDataSchema
  2
AcDbDs::TreatedAsObjectData
280
     1
 91
        0
  0
ACDSSCHEMA
 90
        2
  1
AcDbDs::LegacySchema
  2
AcDbDs::Legacy
280
     1
 91
        0
  0
ACDSSCHEMA
 90
        3
  1
AcDbDs::IndexedPropertySchema
  2
AcDs:Indexable
280
     1
 91
        0
  0
ACDSSCHEMA
 90
        4
  1
AcDbDs::HandleAttributeSchema
  2
AcDbDs::HandleAttribute
280
     7
 91
        1
284
     1
  0
ACDSRECORD
 90
        0
  2
AcDbDs::ID
280
    10
320
80AF
  2
Thumbnail_Data
280
    15
 94
     1783
310
89504E470D0A1A0A0000000D49484452000001000000007C0803000000B13B9E5A00000300504C5445000000000000C8C8C80000000000000000000000000000000000000000000000000000330000660000990000CC0000FF0033000033330033660033990033CC0033FF0066000066330066660066990066CC0066FF0099
310
000099330099660099990099CC0099FF00CC0000CC3300CC6600CC9900CCCC00CCFF00FF0000FF3300FF6600FF9900FFCC00FFFF3300003300333300663300993300CC3300FF3333003333333333663333993333CC3333FF3366003366333366663366993366CC3366FF3399003399333399663399993399CC3399FF33CC00
310
33CC3333CC6633CC9933CCCC33CCFF33FF0033FF3333FF6633FF9933FFCC33FFFF6600006600336600666600996600CC6600FF6633006633336633666633996633CC6633FF6666006666336666666666996666CC6666FF6699006699336699666699996699CC6699FF66CC0066CC3366CC6666CC9966CCCC66CCFF66FF0066
310
FF3366FF6666FF9966FFCC66FFFF9900009900339900669900999900CC9900FF9933009933339933669933999933CC9933FF9966009966339966669966999966CC9966FF9999009999339999669999999999CC9999FF99CC0099CC3399CC6699CC9999CCCC99CCFF99FF0099FF3399FF6699FF9999FFCC99FFFFCC0000CC00
310
33CC0066CC0099CC00CCCC00FFCC3300CC3333CC3366CC3399CC33CCCC33FFCC6600CC6633CC6666CC6699CC66CCCC66FFCC9900CC9933CC9966CC9999CC99CCCC99FFCCCC00CCCC33CCCC66CCCC99CCCCCCCCCCFFCCFF00CCFF33CCFF66CCFF99CCFFCCCCFFFFFF0000FF0033FF0066FF0099FF00CCFF00FFFF3300FF3333
310
FF3366FF3399FF33CCFF33FFFF6600FF6633FF6666FF6699FF66CCFF66FFFF9900FF9933FF9966FF9999FF99CCFF99FFFFCC00FFCC33FFCC66FFCC99FFCCCCFFCCFFFFFF00FFFF33FFFF66FFFF99FFFFCCFFFFFF0000000D0D0D1A1A1A2828283535354343435050505D5D5D6B6B6B787878868686939393A1A1A1AEAEAEBB
310
BBBBC9C9C9D6D6D6E4E4E4F1F1F1FFFFFF00000000000000000000000000000000000000000000000000000000000008F1915C000003B24944415478DAED9D5B72C3200C45B51C7ED8FF66D806FF8D0121813176679AA9F5A09D2476EC4C757C25845128C0175AFE5203292D8BFA5807E0001C80037000EFF94B379D9F1500
310
D3E9D9A402CC03C896014C5E201BC09F8E00440278D98739807F00D074CC249D87D78022AFC792E7B49D1A0040351AC86C689B18F3726E1940C69790F1518502E02ABE3505545B4901EC0D2D2E80495EE63EB1B72D7B10F43C40C76028A333D050873CFF17B9A45C008BD0377785D4F9658A9C9600B084A123500AA0F771DD
310
C3331D06FD471300D6D2A75D6DDD9E2F1B4035154DAE4F099FBE3FCA7E03804D330160B3690940B008A0A83C8ECD96023E06C6733306004617A03D0EC0013800076013C0D142ED139FA58352011CB68518E6C6FAC3F84C0592012C15D0361D800388CF86C4EA82A00370000EC04410BC1A0E5B03C0AE3BE5C27600C02D00BD
310
A970BB211CAF9BF2B1000B84E3BDB03E14B07257F8D07A60E3E00875D31200E30AB88C0146008C891018BA237467A4390073AFE7004C00B03E3DFEDE8F75000EE0557F696241318D01520F804DE0E341710E90EA01246E34F510FD50D100D2836EF0AE97940D8095459EAE7F5AE74A739E245C01D0F55C8D63100600634565
310
3951AB0B5C01980F930CA05B817742D26A04300238DD2C100D00355CAC1FABE32E00CC5328513C80615E204067601500E086610030CD05A906D0BABE09409910B608808260340980CD0B3C064029837800B1CE8C208C33800267A500C9002808469C1AAB22380388F8AB0640CDF9094044B3A6F9A03B0049058022009C0DC4
310
BC300C00EA6E7500CA38106B6243B9C8BD46A63E7605ACBE51A20040190C85521A5D8A848F3AE1E319904AB1AF560FB35AE2FE4ABE02D0ED5101B54F387EEAD08029803EA42B20CA0F82CD90A671A04EB1750A140356003EFD85640089003405B402F9E6109FC7882E10061760E7094F84C892C812C2A28151016B17E8DD84
310
7800805F112108A600603747B920F677DB18207D2CC0EF02D64B0E1DC2542334ED9D40480710778592FB434403E8FA9D6E880CF96E3CE99E1F291FC0A654364CDFA3D6A900EB00C05D802920AD14C0EE0CB0C878AA23153A3788939C30CCF32DA77FA94400D87CB2700053B947B79A01E0D3A4892DB103E3192A00DCD5096E
310
DF950DE0AF3D4B4E0C0007E0001C8003A0B72CAE293ABE45CB483EB32CEB55C06A27E0629A6C8569530070B14D948A3E00577E01305E725C5F56B3026C06C1B50BF4F5E799F39B0A820420CFFF68462F80C5CEB6A4B01505988C013E1670000EC001380007E0001C80720082FEF5F60F776A9505C8F2DE870000000049454E
310
44AE426082
  0
ENDSEC
  0
EOF
