  0
SECTION
  2
HEADER
  9
$ACADVER
  1
AC1027
  9
$ACADMAINTVER
 70
   125
  9
$DWGCODEPAGE
  3
ANSI_932
  9
$LASTSAVEDBY
  1
yasukiyo.ogawa
  9
$REQUIREDVERSIONS
160
                 0
  9
$INSBASE
 10
0.0
 20
0.0
 30
0.0
  9
$EXTMIN
 10
0.0
 20
0.0
 30
0.0
  9
$EXTMAX
 10
4200.0
 20
5900.0
 30
0.0
  9
$LIMMIN
 10
0.0
 20
0.0
  9
$LIMMAX
 10
297.0
 20
210.0
  9
$ORTHOMODE
 70
     1
  9
$REGENMODE
 70
     1
  9
$FILLMODE
 70
     0
  9
$QTEXTMODE
 70
     0
  9
$MIRRTEXT
 70
     1
  9
$LTSCALE
 40
100.0
  9
$ATTMODE
 70
     1
  9
$TEXTSIZE
 40
180.0
  9
$TRACEWID
 40
0.05
  9
$TEXTSTYLE
  7
STANDARD
  9
$CLAYER
  8
3
  9
$CELTYPE
  6
BYLAYER
  9
$CECOLOR
 62
   256
  9
$CELTSCALE
 40
1.0
  9
$DISPSILH
 70
     0
  9
$DIMSCALE
 40
20.0
  9
$DIMASZ
 40
2.0
  9
$DIMEXO
 40
0.5
  9
$DIMDLI
 40
10.0
  9
$DIMRND
 40
0.0
  9
$DIMDLE
 40
0.0
  9
$DIMEXE
 40
1.0
  9
$DIMTP
 40
1.0
  9
$DIMTM
 40
1.0
  9
$DIMTXT
 40
3.0
  9
$DIMCEN
 40
0.0
  9
$DIMTSZ
 40
0.0
  9
$DIMTOL
 70
     0
  9
$DIMLIM
 70
     0
  9
$DIMTIH
 70
     0
  9
$DIMTOH
 70
     0
  9
$DIMSE1
 70
     0
  9
$DIMSE2
 70
     0
  9
$DIMTAD
 70
     1
  9
$DIMZIN
 70
     8
  9
$DIMBLK
  1

  9
$DIMASO
 70
     1
  9
$DIMSHO
 70
     1
  9
$DIMPOST
  1
(<>)
  9
$DIMAPOST
  1

  9
$DIMALT
 70
     0
  9
$DIMALTD
 70
     2
  9
$DIMALTF
 40
0.039
  9
$DIMLFAC
 40
1.0
  9
$DIMTOFL
 70
     1
  9
$DIMTVP
 40
0.0
  9
$DIMTIX
 70
     0
  9
$DIMSOXD
 70
     0
  9
$DIMSAH
 70
     1
  9
$DIMBLK1
  1
OPEN
  9
$DIMBLK2
  1
OPEN
  9
$DIMSTYLE
  2
IGA
  9
$DIMCLRD
 70
     0
  9
$DIMCLRE
 70
     0
  9
$DIMCLRT
 70
     0
  9
$DIMTFAC
 40
10.0
  9
$DIMGAP
 40
1.0
  9
$DIMJUST
 70
     0
  9
$DIMSD1
 70
     0
  9
$DIMSD2
 70
     0
  9
$DIMTOLJ
 70
     1
  9
$DIMTZIN
 70
     8
  9
$DIMALTZ
 70
     0
  9
$DIMALTTZ
 70
     0
  9
$DIMUPT
 70
     0
  9
$DIMDEC
 70
     0
  9
$DIMTDEC
 70
     0
  9
$DIMALTU
 70
     2
  9
$DIMALTTD
 70
     2
  9
$DIMTXSTY
  7
STANDARD
  9
$DIMAUNIT
 70
     0
  9
$DIMADEC
 70
     0
  9
$DIMALTRND
 40
0.0
  9
$DIMAZIN
 70
     0
  9
$DIMDSEP
 70
    46
  9
$DIMATFIT
 70
     3
  9
$DIMFRAC
 70
     0
  9
$DIMLDRBLK
  1
OPEN
  9
$DIMLUNIT
 70
     2
  9
$DIMLWD
 70
    -2
  9
$DIMLWE
 70
    -2
  9
$DIMTMOVE
 70
     2
  9
$DIMFXL
 40
1.0
  9
$DIMFXLON
 70
     0
  9
$DIMJOGANG
 40
0.7853981633974483
  9
$DIMTFILL
 70
     0
  9
$DIMTFILLCLR
 70
     0
  9
$DIMARCSYM
 70
     0
  9
$DIMLTYPE
  6

  9
$DIMLTEX1
  6

  9
$DIMLTEX2
  6

  9
$DIMTXTDIRECTION
 70
     0
  9
$LUNITS
 70
     2
  9
$LUPREC
 70
     3
  9
$SKETCHINC
 40
0.1
  9
$FILLETRAD
 40
50.0
  9
$AUNITS
 70
     0
  9
$AUPREC
 70
     0
  9
$MENU
  1
acad
  9
$ELEVATION
 40
0.0
  9
$PELEVATION
 40
0.0
  9
$THICKNESS
 40
0.0
  9
$LIMCHECK
 70
     0
  9
$CHAMFERA
 40
0.5
  9
$CHAMFERB
 40
0.5
  9
$CHAMFERC
 40
20.0
  9
$CHAMFERD
 40
0.0
  9
$SKPOLY
 70
     0
  9
$TDCREATE
 40
2451373.650428241
  9
$TDUCREATE
 40
2451373.275430903
  9
$TDUPDATE
 40
2460216.757071759
  9
$TDUUPDATE
 40
2460216.382076783
  9
$TDINDWG
 40
0.0204152431
  9
$TDUSRTIMER
 40
0.0204152431
  9
$USRTIMER
 70
     1
  9
$ANGBASE
 50
0.0
  9
$ANGDIR
 70
     0
  9
$PDMODE
 70
     0
  9
$PDSIZE
 40
0.0
  9
$PLINEWID
 40
0.0
  9
$SPLFRAME
 70
     0
  9
$SPLINETYPE
 70
     6
  9
$SPLINESEGS
 70
     8
  9
$HANDSEED
  5
828D
  9
$SURFTAB1
 70
     6
  9
$SURFTAB2
 70
     6
  9
$SURFTYPE
 70
     6
  9
$SURFU
 70
     6
  9
$SURFV
 70
     6
  9
$UCSBASE
  2

  9
$UCSNAME
  2

  9
$UCSORG
 10
0.0
 20
0.0
 30
0.0
  9
$UCSXDIR
 10
1.0
 20
0.0
 30
0.0
  9
$UCSYDIR
 10
0.0
 20
1.0
 30
0.0
  9
$UCSORTHOREF
  2

  9
$UCSORTHOVIEW
 70
     0
  9
$UCSORGTOP
 10
0.0
 20
0.0
 30
0.0
  9
$UCSORGBOTTOM
 10
0.0
 20
0.0
 30
0.0
  9
$UCSORGLEFT
 10
0.0
 20
0.0
 30
0.0
  9
$UCSORGRIGHT
 10
0.0
 20
0.0
 30
0.0
  9
$UCSORGFRONT
 10
0.0
 20
0.0
 30
0.0
  9
$UCSORGBACK
 10
0.0
 20
0.0
 30
0.0
  9
$PUCSBASE
  2

  9
$PUCSNAME
  2

  9
$PUCSORG
 10
0.0
 20
0.0
 30
0.0
  9
$PUCSXDIR
 10
1.0
 20
0.0
 30
0.0
  9
$PUCSYDIR
 10
0.0
 20
1.0
 30
0.0
  9
$PUCSORTHOREF
  2

  9
$PUCSORTHOVIEW
 70
     0
  9
$PUCSORGTOP
 10
0.0
 20
0.0
 30
0.0
  9
$PUCSORGBOTTOM
 10
0.0
 20
0.0
 30
0.0
  9
$PUCSORGLEFT
 10
0.0
 20
0.0
 30
0.0
  9
$PUCSORGRIGHT
 10
0.0
 20
0.0
 30
0.0
  9
$PUCSORGFRONT
 10
0.0
 20
0.0
 30
0.0
  9
$PUCSORGBACK
 10
0.0
 20
0.0
 30
0.0
  9
$USERI1
 70
     0
  9
$USERI2
 70
     0
  9
$USERI3
 70
     0
  9
$USERI4
 70
     0
  9
$USERI5
 70
     0
  9
$USERR1
 40
0.0
  9
$USERR2
 40
0.0
  9
$USERR3
 40
0.0
  9
$USERR4
 40
0.0
  9
$USERR5
 40
0.0
  9
$WORLDVIEW
 70
     1
  9
$SHADEDGE
 70
     3
  9
$SHADEDIF
 70
    70
  9
$TILEMODE
 70
     1
  9
$MAXACTVP
 70
    16
  9
$PINSBASE
 10
0.0
 20
0.0
 30
0.0
  9
$PLIMCHECK
 70
     0
  9
$PEXTMIN
 10
1.000000000000000E+20
 20
1.000000000000000E+20
 30
1.000000000000000E+20
  9
$PEXTMAX
 10
-1.000000000000000E+20
 20
-1.000000000000000E+20
 30
-1.000000000000000E+20
  9
$PLIMMIN
 10
0.0
 20
0.0
  9
$PLIMMAX
 10
12.0
 20
9.0
  9
$UNITMODE
 70
     0
  9
$VISRETAIN
 70
     0
  9
$PLINEGEN
 70
     0
  9
$PSLTSCALE
 70
     1
  9
$TREEDEPTH
 70
  3020
  9
$CMLSTYLE
  2
STANDARD
  9
$CMLJUST
 70
     0
  9
$CMLSCALE
 40
20.0
  9
$PROXYGRAPHICS
 70
     1
  9
$MEASUREMENT
 70
     1
  9
$CELWEIGHT
370
    -1
  9
$ENDCAPS
280
     0
  9
$JOINSTYLE
280
     0
  9
$LWDISPLAY
290
     0
  9
$INSUNITS
 70
     0
  9
$HYPERLINKBASE
  1

  9
$STYLESHEET
  1

  9
$XEDIT
290
     1
  9
$CEPSNTYPE
380
     0
  9
$PSTYLEMODE
290
     1
  9
$FINGERPRINTGUID
  2
{652FF4A9-B740-4BA9-B322-1CDC2FC84F26}
  9
$VERSIONGUID
  2
{D0CBCF59-07B4-45AF-AE17-98E146C399EE}
  9
$EXTNAMES
290
     1
  9
$PSVPSCALE
 40
0.0
  9
$OLESTARTUP
290
     0
  9
$SORTENTS
280
   127
  9
$INDEXCTL
280
     0
  9
$HIDETEXT
280
     0
  9
$XCLIPFRAME
280
     2
  9
$HALOGAP
280
     0
  9
$OBSCOLOR
 70
   257
  9
$OBSLTYPE
280
     0
  9
$INTERSECTIONDISPLAY
280
     0
  9
$INTERSECTIONCOLOR
 70
   257
  9
$DIMASSOC
280
     1
  9
$PROJECTNAME
  1

  9
$CAMERADISPLAY
290
     0
  9
$LENSLENGTH
 40
50.0
  9
$CAMERAHEIGHT
 40
0.0
  9
$STEPSPERSEC
 40
2.0
  9
$STEPSIZE
 40
6.0
  9
$3DDWFPREC
 40
2.0
  9
$PSOLWIDTH
 40
0.25
  9
$PSOLHEIGHT
 40
4.0
  9
$LOFTANG1
 40
1.570796326794896
  9
$LOFTANG2
 40
1.570796326794896
  9
$LOFTMAG1
 40
0.0
  9
$LOFTMAG2
 40
0.0
  9
$LOFTPARAM
 70
     7
  9
$LOFTNORMALS
280
     1
  9
$LATITUDE
 40
37.795
  9
$LONGITUDE
 40
-122.394
  9
$NORTHDIRECTION
 40
0.0
  9
$TIMEZONE
 70
 -8000
  9
$LIGHTGLYPHDISPLAY
280
     1
  9
$TILEMODELIGHTSYNCH
280
     1
  9
$CMATERIAL
347
81D1
  9
$SOLIDHIST
280
     0
  9
$SHOWHIST
280
     1
  9
$DWFFRAME
280
     2
  9
$DGNFRAME
280
     0
  9
$REALWORLDSCALE
290
     1
  9
$INTERFERECOLOR
 62
     1
  9
$INTERFEREOBJVS
345
81F3
  9
$INTERFEREVPVS
346
81F0
  9
$CSHADOW
280
     0
  9
$SHADOWPLANELOCATION
 40
0.0
  0
ENDSEC
  0
SECTION
  2
CLASSES
  0
CLASS
  1
ACDBDICTIONARYWDFLT
  2
AcDbDictionaryWithDefault
  3
ObjectDBX Classes
 90
        0
 91
        1
280
     0
281
     0
  0
CLASS
  1
MATERIAL
  2
AcDbMaterial
  3
ObjectDBX Classes
 90
     1153
 91
        3
280
     0
281
     0
  0
CLASS
  1
VISUALSTYLE
  2
AcDbVisualStyle
  3
ObjectDBX Classes
 90
     4095
 91
       24
280
     0
281
     0
  0
CLASS
  1
TABLESTYLE
  2
AcDbTableStyle
  3
ObjectDBX Classes
 90
     4095
 91
        1
280
     0
281
     0
  0
CLASS
  1
SCALE
  2
AcDbScale
  3
ObjectDBX Classes
 90
     1153
 91
       17
280
     0
281
     0
  0
CLASS
  1
MLEADERSTYLE
  2
AcDbMLeaderStyle
  3
ACDB_MLEADERSTYLE_CLASS
 90
     4095
 91
        1
280
     0
281
     0
  0
CLASS
  1
ACDBSECTIONVIEWSTYLE
  2
AcDbSectionViewStyle
  3
ObjectDBX Classes
 90
     1025
 91
        1
280
     0
281
     0
  0
CLASS
  1
ACDBDETAILVIEWSTYLE
  2
AcDbDetailViewStyle
  3
ObjectDBX Classes
 90
     1025
 91
        1
280
     0
281
     0
  0
CLASS
  1
DICTIONARYVAR
  2
AcDbDictionaryVar
  3
ObjectDBX Classes
 90
        0
 91
       10
280
     0
281
     0
  0
CLASS
  1
CELLSTYLEMAP
  2
AcDbCellStyleMap
  3
ObjectDBX Classes
 90
     1152
 91
        1
280
     0
281
     0
  0
ENDSEC
  0
SECTION
  2
TABLES
  0
TABLE
  2
VPORT
  5
8
330
0
100
AcDbSymbolTable
 70
     1
1001
ACAD
1000
DbSaveVer
1071
      278
  0
VPORT
  5
81CE
330
8
100
AcDbSymbolTableRecord
100
AcDbViewportTableRecord
  2
*Active
 70
     0
 10
0.0
 20
0.0
 11
1.0
 21
1.0
 12
5663.946004341394
 22
1316.113564912061
 13
0.0
 23
0.0
 14
10.0
 24
10.0
 15
10.0
 25
10.0
 16
0.0
 26
0.0
 36
1.0
 17
0.0
 27
0.0
 37
0.0
 40
9496.695964466761
 41
2.250314465408805
 42
50.0
 43
0.0
 44
0.0
 50
0.0
 51
0.0
 71
     0
 72
   100
 73
     1
 74
     0
 75
     0
 76
     0
 77
     0
 78
     0
281
     0
 65
     1
110
0.0
120
0.0
130
0.0
111
1.0
121
0.0
131
0.0
112
0.0
122
1.0
132
0.0
 79
     0
146
0.0
348
81EF
 60
     3
 61
     5
292
     1
282
     1
141
0.0
142
0.0
 63
   250
421
  3355443
1001
ACAD_NAV_VCDISPLAY
1070
     3
  0
ENDTAB
  0
TABLE
  2
LTYPE
  5
5
330
0
100
AcDbSymbolTable
 70
     2
  0
LTYPE
  5
13
330
5
100
AcDbSymbolTableRecord
100
AcDbLinetypeTableRecord
  2
BYBLOCK
 70
     0
  3

 72
    65
 73
     0
 40
0.0
  0
LTYPE
  5
14
330
5
100
AcDbSymbolTableRecord
100
AcDbLinetypeTableRecord
  2
BYLAYER
 70
     0
  3

 72
    65
 73
     0
 40
0.0
  0
LTYPE
  5
15
330
5
100
AcDbSymbolTableRecord
100
AcDbLinetypeTableRecord
  2
CONTINUOUS
 70
     0
  3
Solid line
 72
    65
 73
     0
 40
0.0
  0
LTYPE
  5
1F
330
5
100
AcDbSymbolTableRecord
100
AcDbLinetypeTableRecord
  2
CENTER
 70
     0
  3
____ _ ____ _ ____ _ ____ _ ____ _ ____ _ ____ 
 72
    65
 73
     4
 40
2.0
 49
1.25
 74
     0
 49
-0.25
 74
     0
 49
0.25
 74
     0
 49
-0.25
 74
     0
  0
ENDTAB
  0
TABLE
  2
LAYER
  5
2
102
{ACAD_XDICTIONARY
360
8263
102
}
330
0
100
AcDbSymbolTable
 70
     6
  0
LAYER
  5
F
102
{ACAD_XDICTIONARY
360
8256
102
}
330
2
100
AcDbSymbolTableRecord
100
AcDbLayerTableRecord
  2
0
 70
     0
 62
     7
  6
CONTINUOUS
370
    -3
390
8153
347
81E1
348
0
  0
LAYER
  5
31
102
{ACAD_XDICTIONARY
360
8258
102
}
330
2
100
AcDbSymbolTableRecord
100
AcDbLayerTableRecord
  2
3
 70
     0
 62
     2
  6
CONTINUOUS
370
    -3
390
8153
347
81E1
348
0
  0
LAYER
  5
76D0
102
{ACAD_XDICTIONARY
360
825A
102
}
330
2
100
AcDbSymbolTableRecord
100
AcDbLayerTableRecord
  2
2
 70
     0
 62
     3
  6
CENTER
370
    -3
390
8153
347
81E1
348
0
  0
LAYER
  5
76D1
102
{ACAD_XDICTIONARY
360
825C
102
}
330
2
100
AcDbSymbolTableRecord
100
AcDbLayerTableRecord
  2
1
 70
     0
 62
     4
  6
CONTINUOUS
370
    -3
390
8153
347
81E1
348
0
  0
LAYER
  5
76D2
102
{ACAD_XDICTIONARY
360
825E
102
}
330
2
100
AcDbSymbolTableRecord
100
AcDbLayerTableRecord
  2
4
 70
     0
 62
     7
  6
CONTINUOUS
370
    -3
390
8153
347
81E1
348
0
  0
LAYER
  5
7B3A
330
2
100
AcDbSymbolTableRecord
100
AcDbLayerTableRecord
  2
DEFPOINTS
 70
     0
 62
     7
  6
CONTINUOUS
290
     0
370
    -3
390
8153
347
81E1
348
0
  0
ENDTAB
  0
TABLE
  2
STYLE
  5
3
330
0
100
AcDbSymbolTable
 70
     1
  0
STYLE
  5
10
330
3
100
AcDbSymbolTableRecord
100
AcDbTextStyleTableRecord
  2
STANDARD
 70
     0
 40
0.0
 41
1.0
 50
0.0
 71
     0
 42
180.0
  3
simplex.shx
  4
extfont.shx
  0
ENDTAB
  0
TABLE
  2
VIEW
  5
6
330
0
100
AcDbSymbolTable
 70
     0
  0
ENDTAB
  0
TABLE
  2
UCS
  5
7
330
0
100
AcDbSymbolTable
 70
     0
  0
ENDTAB
  0
TABLE
  2
APPID
  5
9
330
0
100
AcDbSymbolTable
 70
     4
  0
APPID
  5
11
330
9
100
AcDbSymbolTableRecord
100
AcDbRegAppTableRecord
  2
ACAD
 70
     0
  0
APPID
  5
8220
330
9
100
AcDbSymbolTableRecord
100
AcDbRegAppTableRecord
  2
AcadAnnoMonitorAlertIconDisabled
 70
     0
  0
APPID
  5
8221
330
9
100
AcDbSymbolTableRecord
100
AcDbRegAppTableRecord
  2
ACAD_EXEMPT_FROM_CAD_STANDARDS
 70
     0
  0
APPID
  5
8269
330
9
100
AcDbSymbolTableRecord
100
AcDbRegAppTableRecord
  2
ACAD_NAV_VCDISPLAY
 70
     0
  0
ENDTAB
  0
TABLE
  2
DIMSTYLE
  5
A
330
0
100
AcDbSymbolTable
 70
     2
100
AcDbDimStyleTable
 71
     0
  0
DIMSTYLE
105
1D
102
{ACAD_REACTORS
330
7CEE
330
8057
330
80F9
330
8106
330
8113
330
8120
330
812F
330
813D
330
814A
102
}
330
A
100
AcDbSymbolTableRecord
100
AcDbDimStyleTableRecord
  2
IGA
 70
     0
 40
2.0
 41
2.0
 42
0.5
 43
10.0
 44
1.0
 47
1.0
 48
1.0
 73
     0
 74
     0
 77
     1
 78
     8
140
3.0
141
0.0
143
0.03937
146
10.0
147
1.0
173
     1
271
     1
272
     0
279
     2
284
     8
340
10
341
79FC
343
79FC
344
79FC
  0
DIMSTYLE
105
7B3B
102
{ACAD_REACTORS
330
7C26
330
7C35
330
7C36
330
7C4B
330
7C4F
330
7C50
330
7C59
330
7CB8
330
7CB9
330
7CC3
330
7CCF
330
7CDE
330
7CEB
330
7CF7
102
}
330
A
100
AcDbSymbolTableRecord
100
AcDbDimStyleTableRecord
  2
MATSU
 70
     0
 41
2.0
 42
1.0
 43
10.0
 44
1.0
 73
     0
 74
     0
 77
     1
 78
     8
140
3.0
141
0.0
143
0.03937
147
0.5
172
     1
173
     1
176
   256
177
   256
178
   256
284
     8
289
     0
340
10
341
79FC
343
79FC
344
79FC
  0
ENDTAB
  0
TABLE
  2
BLOCK_RECORD
  5
1
330
0
100
AcDbSymbolTable
 70
    26
  0
BLOCK_RECORD
  5
19
102
{ACAD_XDICTIONARY
360
8181
102
}
330
1
100
AcDbSymbolTableRecord
100
AcDbBlockTableRecord
  2
*MODEL_SPACE
340
8156
 70
     0
280
     1
281
     0
  0
BLOCK_RECORD
  5
16
102
{ACAD_XDICTIONARY
360
817F
102
}
330
1
100
AcDbSymbolTableRecord
100
AcDbBlockTableRecord
  2
*PAPER_SPACE
340
8157
 70
     0
280
     1
281
     0
  0
BLOCK_RECORD
  5
79FC
330
1
100
AcDbSymbolTableRecord
100
AcDbBlockTableRecord
  2
_OPEN
340
0
102
{BLKREFS
331
7E5E
331
7E5F
331
7E93
331
7E94
331
7E9E
331
7E9F
331
7ECD
331
7ECE
331
80F2
331
80F3
331
80FF
331
8100
331
81AA
331
81AB
331
81B3
331
81B4
331
81BF
331
7ED8
331
7ED9
331
7EE3
331
7EE4
331
7EEE
331
7EEF
331
7EF9
331
7EFA
331
7F2E
331
7F2F
331
810C
331
810D
331
8119
331
811A
331
8136
331
8137
331
8143
331
8144
331
8193
331
8194
331
81A2
331
81A3
331
8248
331
8249
331
8250
331
8251
102
}
 70
     0
280
     1
281
     0
  0
BLOCK_RECORD
  5
7CFC
330
1
100
AcDbSymbolTableRecord
100
AcDbBlockTableRecord
  2
*D1
340
0
 70
     0
280
     1
281
     0
  0
BLOCK_RECORD
  5
7D2B
330
1
100
AcDbSymbolTableRecord
100
AcDbBlockTableRecord
  2
*D2
340
0
 70
     0
280
     1
281
     0
  0
BLOCK_RECORD
  5
7D36
330
1
100
AcDbSymbolTableRecord
100
AcDbBlockTableRecord
  2
*D3
340
0
 70
     0
280
     1
281
     0
  0
BLOCK_RECORD
  5
7D65
330
1
100
AcDbSymbolTableRecord
100
AcDbBlockTableRecord
  2
*D4
340
0
 70
     0
280
     1
281
     0
  0
BLOCK_RECORD
  5
7D70
330
1
100
AcDbSymbolTableRecord
100
AcDbBlockTableRecord
  2
*D5
340
0
 70
     0
280
     1
281
     0
  0
BLOCK_RECORD
  5
7D7C
330
1
100
AcDbSymbolTableRecord
100
AcDbBlockTableRecord
  2
*D6
340
0
 70
     0
280
     1
281
     0
  0
BLOCK_RECORD
  5
7DAF
330
1
100
AcDbSymbolTableRecord
100
AcDbBlockTableRecord
  2
*D7
340
0
 70
     0
280
     1
281
     0
  0
BLOCK_RECORD
  5
7DBB
330
1
100
AcDbSymbolTableRecord
100
AcDbBlockTableRecord
  2
*D8
340
0
 70
     0
280
     1
281
     0
  0
BLOCK_RECORD
  5
7DC7
330
1
100
AcDbSymbolTableRecord
100
AcDbBlockTableRecord
  2
*D9
340
0
 70
     0
280
     1
281
     0
  0
BLOCK_RECORD
  5
7DD3
330
1
100
AcDbSymbolTableRecord
100
AcDbBlockTableRecord
  2
*D10
340
0
 70
     0
280
     1
281
     0
  0
BLOCK_RECORD
  5
7DDF
330
1
100
AcDbSymbolTableRecord
100
AcDbBlockTableRecord
  2
*D11
340
0
 70
     0
280
     1
281
     0
  0
BLOCK_RECORD
  5
7DEB
330
1
100
AcDbSymbolTableRecord
100
AcDbBlockTableRecord
  2
*D12
340
0
 70
     0
280
     1
281
     0
  0
BLOCK_RECORD
  5
7E01
330
1
100
AcDbSymbolTableRecord
100
AcDbBlockTableRecord
  2
*D13
340
0
 70
     0
280
     1
281
     0
  0
BLOCK_RECORD
  5
7E0D
330
1
100
AcDbSymbolTableRecord
100
AcDbBlockTableRecord
  2
*D14
340
0
 70
     0
280
     1
281
     0
  0
BLOCK_RECORD
  5
7E19
330
1
100
AcDbSymbolTableRecord
100
AcDbBlockTableRecord
  2
*D15
340
0
 70
     0
280
     1
281
     0
  0
BLOCK_RECORD
  5
8048
330
1
100
AcDbSymbolTableRecord
100
AcDbBlockTableRecord
  2
*D16
340
0
 70
     0
280
     1
281
     0
  0
BLOCK_RECORD
  5
807F
330
1
100
AcDbSymbolTableRecord
100
AcDbBlockTableRecord
  2
_DOT
340
0
102
{BLKREFS
331
81BE
102
}
 70
     0
280
     1
281
     0
  0
BLOCK_RECORD
  5
80ED
330
1
100
AcDbSymbolTableRecord
100
AcDbBlockTableRecord
  2
*D18
340
0
 70
     0
280
     1
281
     0
  0
BLOCK_RECORD
  5
80FA
330
1
100
AcDbSymbolTableRecord
100
AcDbBlockTableRecord
  2
*D19
340
0
 70
     0
280
     1
281
     0
  0
BLOCK_RECORD
  5
8107
330
1
100
AcDbSymbolTableRecord
100
AcDbBlockTableRecord
  2
*D20
340
0
 70
     0
280
     1
281
     0
  0
BLOCK_RECORD
  5
8114
330
1
100
AcDbSymbolTableRecord
100
AcDbBlockTableRecord
  2
*D21
340
0
 70
     0
280
     1
281
     0
  0
BLOCK_RECORD
  5
8121
330
1
100
AcDbSymbolTableRecord
100
AcDbBlockTableRecord
  2
_NONE
340
0
 70
     0
280
     1
281
     0
  0
BLOCK_RECORD
  5
8125
330
1
100
AcDbSymbolTableRecord
100
AcDbBlockTableRecord
  2
*D23
340
0
 70
     0
280
     1
281
     0
  0
BLOCK_RECORD
  5
8131
330
1
100
AcDbSymbolTableRecord
100
AcDbBlockTableRecord
  2
*D24
340
0
 70
     0
280
     1
281
     0
  0
BLOCK_RECORD
  5
813E
330
1
100
AcDbSymbolTableRecord
100
AcDbBlockTableRecord
  2
*D25
340
0
 70
     0
280
     1
281
     0
  0
ENDTAB
  0
ENDSEC
  0
SECTION
  2
BLOCKS
  0
BLOCK
  5
1A
330
19
100
AcDbEntity
  8
0
100
AcDbBlockBegin
  2
*MODEL_SPACE
 70
     0
 10
0.0
 20
0.0
 30
0.0
  3
*MODEL_SPACE
  1

  0
ENDBLK
  5
1B
330
19
100
AcDbEntity
  8
0
100
AcDbBlockEnd
  0
BLOCK
  5
17
330
16
100
AcDbEntity
 67
     1
  8
0
100
AcDbBlockBegin
  2
*PAPER_SPACE
 70
     0
 10
0.0
 20
0.0
 30
0.0
  3
*PAPER_SPACE
  1

  0
ENDBLK
  5
18
330
16
100
AcDbEntity
 67
     1
  8
0
100
AcDbBlockEnd
  0
BLOCK
  5
7A00
330
79FC
100
AcDbEntity
  8
0
100
AcDbBlockBegin
  2
_OPEN
 70
     0
 10
0.0
 20
0.0
 30
0.0
  3
_OPEN
  1

  0
LINE
  5
79FD
330
79FC
100
AcDbEntity
  8
0
  6
ByBlock
 62
     0
100
AcDbLine
 10
-1.0
 20
0.1666666666666666
 30
0.0
 11
0.0
 21
0.0
 31
0.0
  0
LINE
  5
79FE
330
79FC
100
AcDbEntity
  8
0
  6
ByBlock
 62
     0
100
AcDbLine
 10
0.0
 20
0.0
 30
0.0
 11
-1.0
 21
-0.1666666666666666
 31
0.0
  0
LINE
  5
79FF
330
79FC
100
AcDbEntity
  8
0
  6
ByBlock
 62
     0
100
AcDbLine
 10
0.0
 20
0.0
 30
0.0
 11
-1.0
 21
0.0
 31
0.0
  0
ENDBLK
  5
7A01
330
79FC
100
AcDbEntity
  8
0
100
AcDbBlockEnd
  0
BLOCK
  5
80DB
330
7CFC
100
AcDbEntity
  8
0
100
AcDbBlockBegin
  2
*D1
 70
     1
 10
0.0
 20
0.0
 30
0.0
  3
*D1
  1

  0
LINE
  5
824E
330
7CFC
100
AcDbEntity
  8
3
440
 16777216
370
    -2
100
AcDbLine
 10
2655.671436037815
 20
2395.677178549359
 30
0.0
 11
2655.671436037815
 21
2808.030114272274
 31
0.0
  0
LINE
  5
824F
330
7CFC
100
AcDbEntity
  8
3
440
 16777216
370
    -2
100
AcDbLine
 10
3295.671436037816
 20
2788.030114272274
 30
0.0
 11
2695.671436037815
 21
2788.030114272274
 31
0.0
  0
INSERT
  5
8250
330
7CFC
100
AcDbEntity
  8
3
440
 16777216
370
    -2
100
AcDbBlockReference
  2
_OPEN
 10
3335.671436037816
 20
2788.030114272274
 30
0.0
 41
40.0
 42
40.0
 43
40.0
  0
INSERT
  5
8251
330
7CFC
100
AcDbEntity
  8
3
440
 16777216
370
    -2
100
AcDbBlockReference
  2
_OPEN
 10
2655.671436037815
 20
2788.030114272274
 30
0.0
 41
40.0
 42
40.0
 43
40.0
 50
180.0
  0
MTEXT
  5
8252
330
7CFC
100
AcDbEntity
  8
3
440
 16777216
100
AcDbMText
 10
2995.671436037816
 20
2843.74439998656
 30
0.0
 40
60.0
 41
0.0
 46
0.0
 71
     5
 72
     1
  1
\A1;(680)
 73
     1
 44
1.0
  0
POINT
  5
8253
330
7CFC
100
AcDbEntity
  8
DEFPOINTS
 62
     0
440
 16777216
100
AcDbPoint
 10
3335.671436037816
 20
2711.429930810286
 30
0.0
  0
POINT
  5
8254
330
7CFC
100
AcDbEntity
  8
DEFPOINTS
 62
     0
440
 16777216
100
AcDbPoint
 10
2655.671436037815
 20
2375.677178549359
 30
0.0
  0
POINT
  5
8255
330
7CFC
100
AcDbEntity
  8
DEFPOINTS
 62
     0
440
 16777216
100
AcDbPoint
 10
2655.671436037815
 20
2788.030114272274
 30
0.0
  0
ENDBLK
  5
80E4
330
7CFC
100
AcDbEntity
  8
0
100
AcDbBlockEnd
  0
BLOCK
  5
7E50
330
7D2B
100
AcDbEntity
  8
0
100
AcDbBlockBegin
  2
*D2
 70
     1
 10
0.0
 20
0.0
 30
0.0
  3
*D2
  1

  0
LINE
  5
8191
330
7D2B
100
AcDbEntity
  8
3
440
 16777216
100
AcDbLine
 10
1894.249502435887
 20
2133.677178549359
 30
0.0
 11
1894.249502435887
 21
2723.356561150759
 31
0.0
  0
LINE
  5
8192
330
7D2B
100
AcDbEntity
  8
3
440
 16777216
100
AcDbLine
 10
1448.57536056422
 20
2703.356561150759
 30
0.0
 11
1854.249502435887
 21
2703.356561150759
 31
0.0
  0
INSERT
  5
8193
330
7D2B
100
AcDbEntity
  8
3
440
 16777216
100
AcDbBlockReference
  2
_OPEN
 10
1408.57536056422
 20
2703.356561150759
 30
0.0
 41
40.0
 42
40.0
 43
40.0
 50
180.0
  0
INSERT
  5
8194
330
7D2B
100
AcDbEntity
  8
3
440
 16777216
100
AcDbBlockReference
  2
_OPEN
 10
1894.249502435887
 20
2703.356561150759
 30
0.0
 41
40.0
 42
40.0
 43
40.0
  0
MTEXT
  5
8195
330
7D2B
100
AcDbEntity
  8
3
440
 16777216
100
AcDbMText
 10
1651.412431500054
 20
2743.356561150759
 30
0.0
 40
60.0
 41
0.0
 46
0.0
 71
     5
 72
     5
  1
\A1;484
 73
     1
 44
1.0
  0
POINT
  5
8196
330
7D2B
100
AcDbEntity
  8
DEFPOINTS
 62
     0
440
 16777216
100
AcDbPoint
 10
1408.57536056422
 20
2599.890124322759
 30
0.0
  0
POINT
  5
8197
330
7D2B
100
AcDbEntity
  8
DEFPOINTS
 62
     0
440
 16777216
100
AcDbPoint
 10
1894.249502435887
 20
2113.677178549359
 30
0.0
  0
POINT
  5
8198
330
7D2B
100
AcDbEntity
  8
DEFPOINTS
 62
     0
440
 16777216
100
AcDbPoint
 10
1894.249502435887
 20
2703.356561150759
 30
0.0
  0
ENDBLK
  5
7E59
330
7D2B
100
AcDbEntity
  8
0
100
AcDbBlockEnd
  0
BLOCK
  5
7E5A
330
7D36
100
AcDbEntity
  8
0
100
AcDbBlockBegin
  2
*D3
 70
     1
 10
0.0
 20
0.0
 30
0.0
  3
*D3
  1

  0
LINE
  5
7E5B
330
7D36
100
AcDbEntity
  8
0
  6
ByBlock
440
 16777216
100
AcDbLine
 10
627.8230131067246
 20
1174.439260741248
 30
0.0
 11
627.8230131067246
 21
1848.07389244665
 31
0.0
  0
LINE
  5
7E5C
330
7D36
100
AcDbEntity
  8
0
  6
ByBlock
440
 16777216
100
AcDbLine
 10
2012.823013106725
 20
517.4392607412484
 30
0.0
 11
2012.823013106725
 21
1848.07389244665
 31
0.0
  0
LINE
  5
7E5D
330
7D36
100
AcDbEntity
  8
0
  6
ByBlock
440
 16777216
100
AcDbLine
 10
667.8230131067246
 20
1828.073892446649
 30
0.0
 11
1972.823013106725
 21
1828.073892446649
 31
0.0
  0
INSERT
  5
7E5E
330
7D36
100
AcDbEntity
  8
0
  6
ByBlock
440
 16777216
100
AcDbBlockReference
  2
_OPEN
 10
627.8230131067246
 20
1828.073892446649
 30
0.0
 41
40.0
 42
40.0
 43
40.0
 50
180.0
  0
INSERT
  5
7E5F
330
7D36
100
AcDbEntity
  8
0
  6
ByBlock
440
 16777216
100
AcDbBlockReference
  2
_OPEN
 10
2012.823013106725
 20
1828.073892446649
 30
0.0
 41
40.0
 42
40.0
 43
40.0
  0
MTEXT
  5
7E60
330
7D36
100
AcDbEntity
  8
0
  6
ByBlock
440
 16777216
100
AcDbMText
 10
1320.323013106725
 20
1868.07389244665
 30
0.0
 40
60.0
 41
0.0
 46
0.0
 71
     5
 72
     5
  1
\A1;1385
 73
     1
 44
1.0
  0
POINT
  5
7E61
330
7D36
100
AcDbEntity
  8
DEFPOINTS
  6
ByBlock
 62
     0
440
 16777216
100
AcDbPoint
 10
627.8230131067246
 20
1154.439260741248
 30
0.0
  0
POINT
  5
7E62
330
7D36
100
AcDbEntity
  8
DEFPOINTS
  6
ByBlock
 62
     0
440
 16777216
100
AcDbPoint
 10
2012.823013106725
 20
497.4392607412485
 30
0.0
  0
POINT
  5
7E63
330
7D36
100
AcDbEntity
  8
DEFPOINTS
  6
ByBlock
 62
     0
440
 16777216
100
AcDbPoint
 10
2012.823013106725
 20
1828.073892446649
 30
0.0
  0
ENDBLK
  5
7E64
330
7D36
100
AcDbEntity
  8
0
100
AcDbBlockEnd
  0
BLOCK
  5
7E85
330
7D65
100
AcDbEntity
  8
0
100
AcDbBlockBegin
  2
*D4
 70
     1
 10
0.0
 20
0.0
 30
0.0
  3
*D4
  1

  0
LINE
  5
81A0
330
7D65
100
AcDbEntity
  8
3
440
 16777216
100
AcDbLine
 10
1033.57536056422
 20
1435.677178549359
 30
0.0
 11
643.326082307627
 21
1435.677178549359
 31
0.0
  0
LINE
  5
81A1
330
7D65
100
AcDbEntity
  8
3
440
 16777216
100
AcDbLine
 10
663.3260823076271
 20
2115.677178549359
 30
0.0
 11
663.3260823076271
 21
1475.677178549359
 31
0.0
  0
INSERT
  5
81A2
330
7D65
100
AcDbEntity
  8
3
440
 16777216
100
AcDbBlockReference
  2
_OPEN
 10
663.3260823076271
 20
2155.677178549359
 30
0.0
 41
40.0
 42
40.0
 43
40.0
 50
90.0
  0
INSERT
  5
81A3
330
7D65
100
AcDbEntity
  8
3
440
 16777216
100
AcDbBlockReference
  2
_OPEN
 10
663.3260823076271
 20
1435.677178549359
 30
0.0
 41
40.0
 42
40.0
 43
40.0
 50
270.0
  0
MTEXT
  5
81A4
330
7D65
100
AcDbEntity
  8
3
440
 16777216
100
AcDbMText
 10
623.3260823076268
 20
1795.677178549359
 30
0.0
 40
60.0
 41
0.0
 46
0.0
 71
     5
 72
     5
  1
\A1;720
 11
0.0000000000000001
 21
1.0
 31
0.0
 73
     1
 44
1.0
  0
POINT
  5
81A5
330
7D65
100
AcDbEntity
  8
DEFPOINTS
 62
     0
440
 16777216
100
AcDbPoint
 10
974.9757359989626
 20
2155.677178549359
 30
0.0
  0
POINT
  5
81A6
330
7D65
100
AcDbEntity
  8
DEFPOINTS
 62
     0
440
 16777216
100
AcDbPoint
 10
1053.57536056422
 20
1435.677178549359
 30
0.0
  0
POINT
  5
81A7
330
7D65
100
AcDbEntity
  8
DEFPOINTS
 62
     0
440
 16777216
100
AcDbPoint
 10
663.3260823076271
 20
1435.677178549359
 30
0.0
  0
ENDBLK
  5
7E8E
330
7D65
100
AcDbEntity
  8
0
100
AcDbBlockEnd
  0
BLOCK
  5
7E8F
330
7D70
100
AcDbEntity
  8
0
100
AcDbBlockBegin
  2
*D5
 70
     1
 10
0.0
 20
0.0
 30
0.0
  3
*D5
  1

  0
LINE
  5
7E90
330
7D70
100
AcDbEntity
  8
0
  6
ByBlock
440
 16777216
100
AcDbLine
 10
595.8230131067247
 20
542.439260741249
 30
0.0
 11
377.6704453299942
 21
542.439260741249
 31
0.0
  0
LINE
  5
7E91
330
7D70
100
AcDbEntity
  8
0
  6
ByBlock
440
 16777216
100
AcDbLine
 10
564.2233885414668
 20
1142.439260741249
 30
0.0
 11
377.6704453299942
 21
1142.439260741249
 31
0.0
  0
LINE
  5
7E92
330
7D70
100
AcDbEntity
  8
0
  6
ByBlock
440
 16777216
100
AcDbLine
 10
397.6704453299942
 20
582.4392607412489
 30
0.0
 11
397.6704453299942
 21
1102.439260741249
 31
0.0
  0
INSERT
  5
7E93
330
7D70
100
AcDbEntity
  8
0
  6
ByBlock
440
 16777216
100
AcDbBlockReference
  2
_OPEN
 10
397.6704453299942
 20
542.439260741249
 30
0.0
 41
40.0
 42
40.0
 43
40.0
 50
270.0
  0
INSERT
  5
7E94
330
7D70
100
AcDbEntity
  8
0
  6
ByBlock
440
 16777216
100
AcDbBlockReference
  2
_OPEN
 10
397.6704453299942
 20
1142.439260741249
 30
0.0
 41
40.0
 42
40.0
 43
40.0
 50
90.0
  0
MTEXT
  5
7E95
330
7D70
100
AcDbEntity
  8
0
  6
ByBlock
440
 16777216
100
AcDbMText
 10
357.6704453299942
 20
842.4392607412489
 30
0.0
 40
60.0
 41
0.0
 46
0.0
 71
     5
 72
     5
  1
\A1;600
 11
0.0
 21
1.0
 31
0.0
 73
     1
 44
1.0
  0
POINT
  5
7E96
330
7D70
100
AcDbEntity
  8
DEFPOINTS
  6
ByBlock
 62
     0
440
 16777216
100
AcDbPoint
 10
615.8230131067247
 20
542.439260741249
 30
0.0
  0
POINT
  5
7E97
330
7D70
100
AcDbEntity
  8
DEFPOINTS
  6
ByBlock
 62
     0
440
 16777216
100
AcDbPoint
 10
584.2233885414668
 20
1142.439260741249
 30
0.0
  0
POINT
  5
7E98
330
7D70
100
AcDbEntity
  8
DEFPOINTS
  6
ByBlock
 62
     0
440
 16777216
100
AcDbPoint
 10
397.6704453299942
 20
1142.439260741249
 30
0.0
  0
ENDBLK
  5
7E99
330
7D70
100
AcDbEntity
  8
0
100
AcDbBlockEnd
  0
BLOCK
  5
7E9A
330
7D7C
100
AcDbEntity
  8
0
100
AcDbBlockBegin
  2
*D6
 70
     1
 10
0.0
 20
0.0
 30
0.0
  3
*D6
  1

  0
LINE
  5
7E9B
330
7D7C
100
AcDbEntity
  8
0
  6
ByBlock
440
 16777216
100
AcDbLine
 10
607.8230131067247
 20
542.439260741249
 30
0.0
 11
504.0902987400492
 21
542.439260741249
 31
0.0
  0
LINE
  5
7E9C
330
7D7C
100
AcDbEntity
  8
0
  6
ByBlock
440
 16777216
100
AcDbLine
 10
607.8230131067246
 20
1122.439260741249
 30
0.0
 11
504.0902987400492
 21
1122.439260741249
 31
0.0
  0
LINE
  5
7E9D
330
7D7C
100
AcDbEntity
  8
0
  6
ByBlock
440
 16777216
100
AcDbLine
 10
524.0902987400493
 20
582.4392607412489
 30
0.0
 11
524.0902987400493
 21
1082.439260741249
 31
0.0
  0
INSERT
  5
7E9E
330
7D7C
100
AcDbEntity
  8
0
  6
ByBlock
440
 16777216
100
AcDbBlockReference
  2
_OPEN
 10
524.0902987400493
 20
542.439260741249
 30
0.0
 41
40.0
 42
40.0
 43
40.0
 50
270.0
  0
INSERT
  5
7E9F
330
7D7C
100
AcDbEntity
  8
0
  6
ByBlock
440
 16777216
100
AcDbBlockReference
  2
_OPEN
 10
524.0902987400493
 20
1122.439260741249
 30
0.0
 41
40.0
 42
40.0
 43
40.0
 50
90.0
  0
MTEXT
  5
7EA0
330
7D7C
100
AcDbEntity
  8
0
  6
ByBlock
440
 16777216
100
AcDbMText
 10
484.0902987400493
 20
832.4392607412489
 30
0.0
 40
60.0
 41
0.0
 46
0.0
 71
     5
 72
     5
  1
\A1;580
 11
0.0
 21
1.0
 31
0.0
 73
     1
 44
1.0
  0
POINT
  5
7EA1
330
7D7C
100
AcDbEntity
  8
DEFPOINTS
  6
ByBlock
 62
     0
440
 16777216
100
AcDbPoint
 10
627.8230131067247
 20
542.439260741249
 30
0.0
  0
POINT
  5
7EA2
330
7D7C
100
AcDbEntity
  8
DEFPOINTS
  6
ByBlock
 62
     0
440
 16777216
100
AcDbPoint
 10
627.8230131067246
 20
1122.439260741249
 30
0.0
  0
POINT
  5
7EA3
330
7D7C
100
AcDbEntity
  8
DEFPOINTS
  6
ByBlock
 62
     0
440
 16777216
100
AcDbPoint
 10
524.0902987400493
 20
1122.439260741249
 30
0.0
  0
ENDBLK
  5
7EA4
330
7D7C
100
AcDbEntity
  8
0
100
AcDbBlockEnd
  0
BLOCK
  5
7EC9
330
7DAF
100
AcDbEntity
  8
0
100
AcDbBlockBegin
  2
*D7
 70
     1
 10
0.0
 20
0.0
 30
0.0
  3
*D7
  1

  0
LINE
  5
7ECA
330
7DAF
100
AcDbEntity
  8
0
  6
ByBlock
440
 16777216
100
AcDbLine
 10
627.8230131067246
 20
1174.439260741248
 30
0.0
 11
627.8230131067246
 21
1710.118643342648
 31
0.0
  0
LINE
  5
7ECB
330
7DAF
100
AcDbEntity
  8
0
  6
ByBlock
440
 16777216
100
AcDbLine
 10
1017.823013106725
 20
1606.652206514649
 30
0.0
 11
1017.823013106725
 21
1710.118643342648
 31
0.0
  0
LINE
  5
7ECC
330
7DAF
100
AcDbEntity
  8
0
  6
ByBlock
440
 16777216
100
AcDbLine
 10
667.8230131067246
 20
1690.118643342648
 30
0.0
 11
977.8230131067251
 21
1690.118643342648
 31
0.0
  0
INSERT
  5
7ECD
330
7DAF
100
AcDbEntity
  8
0
  6
ByBlock
440
 16777216
100
AcDbBlockReference
  2
_OPEN
 10
627.8230131067246
 20
1690.118643342648
 30
0.0
 41
40.0
 42
40.0
 43
40.0
 50
180.0
  0
INSERT
  5
7ECE
330
7DAF
100
AcDbEntity
  8
0
  6
ByBlock
440
 16777216
100
AcDbBlockReference
  2
_OPEN
 10
1017.823013106725
 20
1690.118643342648
 30
0.0
 41
40.0
 42
40.0
 43
40.0
  0
MTEXT
  5
7ECF
330
7DAF
100
AcDbEntity
  8
0
  6
ByBlock
440
 16777216
100
AcDbMText
 10
822.8230131067247
 20
1730.118643342648
 30
0.0
 40
60.0
 41
0.0
 46
0.0
 71
     5
 72
     5
  1
\A1;390
 73
     1
 44
1.0
  0
POINT
  5
7ED0
330
7DAF
100
AcDbEntity
  8
DEFPOINTS
  6
ByBlock
 62
     0
440
 16777216
100
AcDbPoint
 10
627.8230131067246
 20
1154.439260741248
 30
0.0
  0
POINT
  5
7ED1
330
7DAF
100
AcDbEntity
  8
DEFPOINTS
  6
ByBlock
 62
     0
440
 16777216
100
AcDbPoint
 10
1017.823013106725
 20
1586.652206514649
 30
0.0
  0
POINT
  5
7ED2
330
7DAF
100
AcDbEntity
  8
DEFPOINTS
  6
ByBlock
 62
     0
440
 16777216
100
AcDbPoint
 10
1017.823013106725
 20
1690.118643342648
 30
0.0
  0
ENDBLK
  5
7ED3
330
7DAF
100
AcDbEntity
  8
0
100
AcDbBlockEnd
  0
BLOCK
  5
7ED4
330
7DBB
100
AcDbEntity
  8
0
100
AcDbBlockBegin
  2
*D8
 70
     1
 10
0.0
 20
0.0
 30
0.0
  3
*D8
  1

  0
LINE
  5
7ED5
330
7DBB
100
AcDbEntity
  8
0
  6
ByBlock
440
 16777216
100
AcDbLine
 10
2012.823013106725
 20
2711.780162568318
 30
0.0
 11
2012.823013106725
 21
2276.751708768896
 31
0.0
  0
LINE
  5
7ED6
330
7DBB
100
AcDbEntity
  8
0
  6
ByBlock
440
 16777216
100
AcDbLine
 10
662.823013106725
 20
2711.780162568319
 30
0.0
 11
662.823013106725
 21
2276.751708768896
 31
0.0
  0
LINE
  5
7ED7
330
7DBB
100
AcDbEntity
  8
0
  6
ByBlock
440
 16777216
100
AcDbLine
 10
1972.823013106725
 20
2296.751708768897
 30
0.0
 11
702.8230131067251
 21
2296.751708768897
 31
0.0
  0
INSERT
  5
7ED8
330
7DBB
100
AcDbEntity
  8
0
  6
ByBlock
440
 16777216
100
AcDbBlockReference
  2
_OPEN
 10
2012.823013106725
 20
2296.751708768897
 30
0.0
 41
40.0
 42
40.0
 43
40.0
  0
INSERT
  5
7ED9
330
7DBB
100
AcDbEntity
  8
0
  6
ByBlock
440
 16777216
100
AcDbBlockReference
  2
_OPEN
 10
662.823013106725
 20
2296.751708768897
 30
0.0
 41
40.0
 42
40.0
 43
40.0
 50
180.0
  0
MTEXT
  5
7EDA
330
7DBB
100
AcDbEntity
  8
0
  6
ByBlock
440
 16777216
100
AcDbMText
 10
1337.823013106725
 20
2336.751708768897
 30
0.0
 40
60.0
 41
0.0
 46
0.0
 71
     5
 72
     5
  1
\A1;1350
 73
     1
 44
1.0
  0
POINT
  5
7EDB
330
7DBB
100
AcDbEntity
  8
DEFPOINTS
  6
ByBlock
 62
     0
440
 16777216
100
AcDbPoint
 10
2012.823013106725
 20
2731.780162568318
 30
0.0
  0
POINT
  5
7EDC
330
7DBB
100
AcDbEntity
  8
DEFPOINTS
  6
ByBlock
 62
     0
440
 16777216
100
AcDbPoint
 10
662.823013106725
 20
2731.780162568319
 30
0.0
  0
POINT
  5
7EDD
330
7DBB
100
AcDbEntity
  8
DEFPOINTS
  6
ByBlock
 62
     0
440
 16777216
100
AcDbPoint
 10
662.823013106725
 20
2296.751708768897
 30
0.0
  0
ENDBLK
  5
7EDE
330
7DBB
100
AcDbEntity
  8
0
100
AcDbBlockEnd
  0
BLOCK
  5
7EDF
330
7DC7
100
AcDbEntity
  8
0
100
AcDbBlockBegin
  2
*D9
 70
     1
 10
0.0
 20
0.0
 30
0.0
  3
*D9
  1

  0
LINE
  5
7EE0
330
7DC7
100
AcDbEntity
  8
0
  6
ByBlock
440
 16777216
100
AcDbLine
 10
662.8230131067253
 20
3676.780162568318
 30
0.0
 11
662.8230131067253
 21
3832.134114332644
 31
0.0
  0
LINE
  5
7EE1
330
7DC7
100
AcDbEntity
  8
0
  6
ByBlock
440
 16777216
100
AcDbLine
 10
1372.823013106725
 20
3676.780162568319
 30
0.0
 11
1372.823013106725
 21
3832.134114332644
 31
0.0
  0
LINE
  5
7EE2
330
7DC7
100
AcDbEntity
  8
0
  6
ByBlock
440
 16777216
100
AcDbLine
 10
702.8230131067252
 20
3812.134114332644
 30
0.0
 11
1332.823013106725
 21
3812.134114332644
 31
0.0
  0
INSERT
  5
7EE3
330
7DC7
100
AcDbEntity
  8
0
  6
ByBlock
440
 16777216
100
AcDbBlockReference
  2
_OPEN
 10
662.8230131067253
 20
3812.134114332644
 30
0.0
 41
40.0
 42
40.0
 43
40.0
 50
180.0
  0
INSERT
  5
7EE4
330
7DC7
100
AcDbEntity
  8
0
  6
ByBlock
440
 16777216
100
AcDbBlockReference
  2
_OPEN
 10
1372.823013106725
 20
3812.134114332644
 30
0.0
 41
40.0
 42
40.0
 43
40.0
  0
MTEXT
  5
7EE5
330
7DC7
100
AcDbEntity
  8
0
  6
ByBlock
440
 16777216
100
AcDbMText
 10
1017.823013106725
 20
3852.134114332644
 30
0.0
 40
60.0
 41
0.0
 46
0.0
 71
     5
 72
     5
  1
\A1;710
 73
     1
 44
1.0
  0
POINT
  5
7EE6
330
7DC7
100
AcDbEntity
  8
DEFPOINTS
  6
ByBlock
 62
     0
440
 16777216
100
AcDbPoint
 10
662.8230131067253
 20
3656.780162568318
 30
0.0
  0
POINT
  5
7EE7
330
7DC7
100
AcDbEntity
  8
DEFPOINTS
  6
ByBlock
 62
     0
440
 16777216
100
AcDbPoint
 10
1372.823013106725
 20
3656.780162568319
 30
0.0
  0
POINT
  5
7EE8
330
7DC7
100
AcDbEntity
  8
DEFPOINTS
  6
ByBlock
 62
     0
440
 16777216
100
AcDbPoint
 10
1372.823013106725
 20
3812.134114332644
 30
0.0
  0
ENDBLK
  5
7EE9
330
7DC7
100
AcDbEntity
  8
0
100
AcDbBlockEnd
  0
BLOCK
  5
7EEA
330
7DD3
100
AcDbEntity
  8
0
100
AcDbBlockBegin
  2
*D10
 70
     1
 10
0.0
 20
0.0
 30
0.0
  3
*D10
  1

  0
LINE
  5
7EEB
330
7DD3
100
AcDbEntity
  8
0
  6
ByBlock
440
 16777216
100
AcDbLine
 10
642.8230131067253
 20
3656.780162568318
 30
0.0
 11
446.2294150550108
 21
3656.780162568318
 31
0.0
  0
LINE
  5
7EEC
330
7DD3
100
AcDbEntity
  8
0
  6
ByBlock
440
 16777216
100
AcDbLine
 10
642.823013106725
 20
2731.780162568319
 30
0.0
 11
446.2294150550108
 21
2731.780162568319
 31
0.0
  0
LINE
  5
7EED
330
7DD3
100
AcDbEntity
  8
0
  6
ByBlock
440
 16777216
100
AcDbLine
 10
466.2294150550108
 20
3616.780162568318
 30
0.0
 11
466.2294150550108
 21
2771.780162568319
 31
0.0
  0
INSERT
  5
7EEE
330
7DD3
100
AcDbEntity
  8
0
  6
ByBlock
440
 16777216
100
AcDbBlockReference
  2
_OPEN
 10
466.2294150550108
 20
3656.780162568318
 30
0.0
 41
40.0
 42
40.0
 43
40.0
 50
90.0
  0
INSERT
  5
7EEF
330
7DD3
100
AcDbEntity
  8
0
  6
ByBlock
440
 16777216
100
AcDbBlockReference
  2
_OPEN
 10
466.2294150550108
 20
2731.780162568319
 30
0.0
 41
40.0
 42
40.0
 43
40.0
 50
270.0
  0
MTEXT
  5
7EF0
330
7DD3
100
AcDbEntity
  8
0
  6
ByBlock
440
 16777216
100
AcDbMText
 10
426.2294150550108
 20
3194.280162568319
 30
0.0
 40
60.0
 41
0.0
 46
0.0
 71
     5
 72
     5
  1
\A1;925
 11
0.0
 21
1.0
 31
0.0
 73
     1
 44
1.0
  0
POINT
  5
7EF1
330
7DD3
100
AcDbEntity
  8
DEFPOINTS
  6
ByBlock
 62
     0
440
 16777216
100
AcDbPoint
 10
662.8230131067253
 20
3656.780162568318
 30
0.0
  0
POINT
  5
7EF2
330
7DD3
100
AcDbEntity
  8
DEFPOINTS
  6
ByBlock
 62
     0
440
 16777216
100
AcDbPoint
 10
662.823013106725
 20
2731.780162568319
 30
0.0
  0
POINT
  5
7EF3
330
7DD3
100
AcDbEntity
  8
DEFPOINTS
  6
ByBlock
 62
     0
440
 16777216
100
AcDbPoint
 10
466.2294150550108
 20
2731.780162568319
 30
0.0
  0
ENDBLK
  5
7EF4
330
7DD3
100
AcDbEntity
  8
0
100
AcDbBlockEnd
  0
BLOCK
  5
7EF5
330
7DDF
100
AcDbEntity
  8
0
100
AcDbBlockBegin
  2
*D11
 70
     1
 10
0.0
 20
0.0
 30
0.0
  3
*D11
  1

  0
LINE
  5
7EF6
330
7DDF
100
AcDbEntity
  8
0
  6
ByBlock
440
 16777216
100
AcDbLine
 10
2032.823013106725
 20
3331.780162568318
 30
0.0
 11
2231.597744795928
 21
3331.780162568318
 31
0.0
  0
LINE
  5
7EF7
330
7DDF
100
AcDbEntity
  8
0
  6
ByBlock
440
 16777216
100
AcDbLine
 10
2032.823013106725
 20
2731.780162568318
 30
0.0
 11
2231.597744795928
 21
2731.780162568318
 31
0.0
  0
LINE
  5
7EF8
330
7DDF
100
AcDbEntity
  8
0
  6
ByBlock
440
 16777216
100
AcDbLine
 10
2211.597744795928
 20
3291.780162568318
 30
0.0
 11
2211.597744795928
 21
2771.780162568318
 31
0.0
  0
INSERT
  5
7EF9
330
7DDF
100
AcDbEntity
  8
0
  6
ByBlock
440
 16777216
100
AcDbBlockReference
  2
_OPEN
 10
2211.597744795928
 20
3331.780162568318
 30
0.0
 41
40.0
 42
40.0
 43
40.0
 50
90.0
  0
INSERT
  5
7EFA
330
7DDF
100
AcDbEntity
  8
0
  6
ByBlock
440
 16777216
100
AcDbBlockReference
  2
_OPEN
 10
2211.597744795928
 20
2731.780162568318
 30
0.0
 41
40.0
 42
40.0
 43
40.0
 50
270.0
  0
MTEXT
  5
7EFB
330
7DDF
100
AcDbEntity
  8
0
  6
ByBlock
440
 16777216
100
AcDbMText
 10
2171.597744795928
 20
3031.780162568318
 30
0.0
 40
60.0
 41
0.0
 46
0.0
 71
     5
 72
     5
  1
\A1;600
 11
0.0
 21
1.0
 31
0.0
 73
     1
 44
1.0
  0
POINT
  5
7EFC
330
7DDF
100
AcDbEntity
  8
DEFPOINTS
  6
ByBlock
 62
     0
440
 16777216
100
AcDbPoint
 10
2012.823013106725
 20
3331.780162568318
 30
0.0
  0
POINT
  5
7EFD
330
7DDF
100
AcDbEntity
  8
DEFPOINTS
  6
ByBlock
 62
     0
440
 16777216
100
AcDbPoint
 10
2012.823013106725
 20
2731.780162568318
 30
0.0
  0
POINT
  5
7EFE
330
7DDF
100
AcDbEntity
  8
DEFPOINTS
  6
ByBlock
 62
     0
440
 16777216
100
AcDbPoint
 10
2211.597744795928
 20
2731.780162568318
 30
0.0
  0
ENDBLK
  5
7EFF
330
7DDF
100
AcDbEntity
  8
0
100
AcDbBlockEnd
  0
BLOCK
  5
7F00
330
7DEB
100
AcDbEntity
  8
0
100
AcDbBlockBegin
  2
*D12
 70
     1
 10
0.0
 20
0.0
 30
0.0
  3
*D12
  1

  0
LINE
  5
81A8
330
7DEB
100
AcDbEntity
  8
3
440
 16777216
100
AcDbLine
 10
2403.57536056422
 20
4101.154031839684
 30
0.0
 11
2403.57536056422
 21
4581.50798360401
 31
0.0
  0
LINE
  5
81A9
330
7DEB
100
AcDbEntity
  8
3
440
 16777216
100
AcDbLine
 10
1803.57536056422
 20
4561.50798360401
 30
0.0
 11
2363.575360564221
 21
4561.50798360401
 31
0.0
  0
INSERT
  5
81AA
330
7DEB
100
AcDbEntity
  8
3
440
 16777216
100
AcDbBlockReference
  2
_OPEN
 10
1763.57536056422
 20
4561.50798360401
 30
0.0
 41
40.0
 42
40.0
 43
40.0
 50
180.0
  0
INSERT
  5
81AB
330
7DEB
100
AcDbEntity
  8
3
440
 16777216
100
AcDbBlockReference
  2
_OPEN
 10
2403.57536056422
 20
4561.50798360401
 30
0.0
 41
40.0
 42
40.0
 43
40.0
  0
MTEXT
  5
81AC
330
7DEB
100
AcDbEntity
  8
3
440
 16777216
100
AcDbMText
 10
2083.57536056422
 20
4601.507983604011
 30
0.0
 40
60.0
 41
0.0
 46
0.0
 71
     5
 72
     5
  1
\A1;640
 73
     1
 44
1.0
  0
POINT
  5
81AD
330
7DEB
100
AcDbEntity
  8
DEFPOINTS
 62
     0
440
 16777216
100
AcDbPoint
 10
1763.57536056422
 20
4406.154031839686
 30
0.0
  0
POINT
  5
81AE
330
7DEB
100
AcDbEntity
  8
DEFPOINTS
 62
     0
440
 16777216
100
AcDbPoint
 10
2403.57536056422
 20
4081.154031839684
 30
0.0
  0
POINT
  5
81AF
330
7DEB
100
AcDbEntity
  8
DEFPOINTS
 62
     0
440
 16777216
100
AcDbPoint
 10
2403.57536056422
 20
4561.50798360401
 30
0.0
  0
ENDBLK
  5
7F09
330
7DEB
100
AcDbEntity
  8
0
100
AcDbBlockEnd
  0
BLOCK
  5
7F14
330
7E01
100
AcDbEntity
  8
0
100
AcDbBlockBegin
  2
*D13
 70
     1
 10
0.0
 20
0.0
 30
0.0
  3
*D13
  1

  0
LINE
  5
8245
330
7E01
100
AcDbEntity
  8
3
440
 16777216
370
    -2
100
AcDbLine
 10
3805.671436037816
 20
2122.77717854936
 30
0.0
 11
3805.671436037816
 21
2808.030114272274
 31
0.0
  0
LINE
  5
8246
330
7E01
100
AcDbEntity
  8
3
440
 16777216
370
    -2
100
AcDbLine
 10
3335.671436037816
 20
2731.429930810286
 30
0.0
 11
3335.671436037816
 21
2808.030114272274
 31
0.0
  0
LINE
  5
8247
330
7E01
100
AcDbEntity
  8
3
440
 16777216
370
    -2
100
AcDbLine
 10
3765.671436037815
 20
2788.030114272274
 30
0.0
 11
3375.671436037816
 21
2788.030114272274
 31
0.0
  0
INSERT
  5
8248
330
7E01
100
AcDbEntity
  8
3
440
 16777216
370
    -2
100
AcDbBlockReference
  2
_OPEN
 10
3805.671436037816
 20
2788.030114272274
 30
0.0
 41
40.0
 42
40.0
 43
40.0
  0
INSERT
  5
8249
330
7E01
100
AcDbEntity
  8
3
440
 16777216
370
    -2
100
AcDbBlockReference
  2
_OPEN
 10
3335.671436037816
 20
2788.030114272274
 30
0.0
 41
40.0
 42
40.0
 43
40.0
 50
180.0
  0
MTEXT
  5
824A
330
7E01
100
AcDbEntity
  8
3
440
 16777216
100
AcDbMText
 10
3570.671436037816
 20
2843.74439998656
 30
0.0
 40
60.0
 41
0.0
 46
0.0
 71
     5
 72
     1
  1
\A1;(470)
 73
     1
 44
1.0
  0
POINT
  5
824B
330
7E01
100
AcDbEntity
  8
DEFPOINTS
 62
     0
440
 16777216
100
AcDbPoint
 10
3805.671436037816
 20
2102.777178549359
 30
0.0
  0
POINT
  5
824C
330
7E01
100
AcDbEntity
  8
DEFPOINTS
 62
     0
440
 16777216
100
AcDbPoint
 10
3335.671436037816
 20
2711.429930810286
 30
0.0
  0
POINT
  5
824D
330
7E01
100
AcDbEntity
  8
DEFPOINTS
 62
     0
440
 16777216
100
AcDbPoint
 10
3335.671436037816
 20
2788.030114272274
 30
0.0
  0
ENDBLK
  5
7F1E
330
7E01
100
AcDbEntity
  8
0
100
AcDbBlockEnd
  0
BLOCK
  5
80C1
330
7E0D
100
AcDbEntity
  8
0
100
AcDbBlockBegin
  2
*D14
 70
     1
 10
0.0
 20
0.0
 30
0.0
  3
*D14
  1

  0
LINE
  5
81B0
330
7E0D
100
AcDbEntity
  8
3
 62
     0
440
 16777216
100
AcDbLine
 10
3722.671436037814
 20
2435.677178549359
 30
0.0
 11
3933.084751702367
 21
2435.677178549359
 31
0.0
  0
LINE
  5
81B1
330
7E0D
100
AcDbEntity
  8
3
 62
     0
440
 16777216
100
AcDbLine
 10
3722.671436037814
 20
1875.677178549359
 30
0.0
 11
3933.084751702367
 21
1875.677178549359
 31
0.0
  0
LINE
  5
81B2
330
7E0D
100
AcDbEntity
  8
3
 62
     0
440
 16777216
100
AcDbLine
 10
3913.084751702367
 20
2395.677178549359
 30
0.0
 11
3913.084751702367
 21
1915.677178549359
 31
0.0
  0
INSERT
  5
81B3
330
7E0D
100
AcDbEntity
  8
3
 62
     0
440
 16777216
100
AcDbBlockReference
  2
_OPEN
 10
3913.084751702367
 20
2435.677178549359
 30
0.0
 41
40.0
 42
40.0
 43
40.0
 50
90.0
  0
INSERT
  5
81B4
330
7E0D
100
AcDbEntity
  8
3
 62
     0
440
 16777216
100
AcDbBlockReference
  2
_OPEN
 10
3913.084751702367
 20
1875.677178549359
 30
0.0
 41
40.0
 42
40.0
 43
40.0
 50
270.0
  0
MTEXT
  5
81B5
330
7E0D
100
AcDbEntity
  8
3
 62
     0
440
 16777216
100
AcDbMText
 10
3863.084751702366
 20
2155.67717854936
 30
0.0
 40
60.0
 41
0.0
 46
0.0
 71
     5
 72
     5
  1
\A1;φ 560
 11
0.0000000000000001
 21
1.0
 31
0.0
 73
     1
 44
1.0
  0
POINT
  5
81B6
330
7E0D
100
AcDbEntity
  8
DEFPOINTS
 62
     0
440
 16777216
100
AcDbPoint
 10
3712.671436037814
 20
2435.677178549359
 30
0.0
  0
POINT
  5
81B7
330
7E0D
100
AcDbEntity
  8
DEFPOINTS
 62
     0
440
 16777216
100
AcDbPoint
 10
3712.671436037814
 20
1875.677178549359
 30
0.0
  0
POINT
  5
81B8
330
7E0D
100
AcDbEntity
  8
DEFPOINTS
 62
     0
440
 16777216
100
AcDbPoint
 10
3913.084751702367
 20
1875.677178549359
 30
0.0
  0
ENDBLK
  5
80CB
330
7E0D
100
AcDbEntity
  8
0
100
AcDbBlockEnd
  0
BLOCK
  5
7F2A
330
7E19
100
AcDbEntity
  8
0
100
AcDbBlockBegin
  2
*D15
 70
     1
 10
0.0
 20
0.0
 30
0.0
  3
*D15
  1

  0
LINE
  5
7F2B
330
7E19
100
AcDbEntity
  8
0
  6
ByBlock
440
 16777216
100
AcDbLine
 10
2812.819191441164
 20
1562.439260741249
 30
0.0
 11
2812.819191441164
 21
1652.391055793153
 31
0.0
  0
LINE
  5
7F2C
330
7E19
100
AcDbEntity
  8
0
  6
ByBlock
440
 16777216
100
AcDbLine
 10
3562.819191441164
 20
1562.439260741249
 30
0.0
 11
3562.819191441164
 21
1652.391055793153
 31
0.0
  0
LINE
  5
7F2D
330
7E19
100
AcDbEntity
  8
0
  6
ByBlock
440
 16777216
100
AcDbLine
 10
2852.819191441163
 20
1632.391055793153
 30
0.0
 11
3522.819191441164
 21
1632.391055793153
 31
0.0
  0
INSERT
  5
7F2E
330
7E19
100
AcDbEntity
  8
0
  6
ByBlock
440
 16777216
100
AcDbBlockReference
  2
_OPEN
 10
2812.819191441164
 20
1632.391055793153
 30
0.0
 41
40.0
 42
40.0
 43
40.0
 50
180.0
  0
INSERT
  5
7F2F
330
7E19
100
AcDbEntity
  8
0
  6
ByBlock
440
 16777216
100
AcDbBlockReference
  2
_OPEN
 10
3562.819191441164
 20
1632.391055793153
 30
0.0
 41
40.0
 42
40.0
 43
40.0
  0
MTEXT
  5
7F30
330
7E19
100
AcDbEntity
  8
0
  6
ByBlock
440
 16777216
100
AcDbMText
 10
3187.819191441164
 20
1672.391055793153
 30
0.0
 40
60.0
 41
0.0
 46
0.0
 71
     5
 72
     5
  1
\A1;750
 73
     1
 44
1.0
  0
POINT
  5
7F31
330
7E19
100
AcDbEntity
  8
DEFPOINTS
  6
ByBlock
 62
     0
440
 16777216
100
AcDbPoint
 10
2812.819191441164
 20
1542.439260741249
 30
0.0
  0
POINT
  5
7F32
330
7E19
100
AcDbEntity
  8
DEFPOINTS
  6
ByBlock
 62
     0
440
 16777216
100
AcDbPoint
 10
3562.819191441164
 20
1542.439260741249
 30
0.0
  0
POINT
  5
7F33
330
7E19
100
AcDbEntity
  8
DEFPOINTS
  6
ByBlock
 62
     0
440
 16777216
100
AcDbPoint
 10
3562.819191441164
 20
1632.391055793153
 30
0.0
  0
ENDBLK
  5
7F34
330
7E19
100
AcDbEntity
  8
0
100
AcDbBlockEnd
  0
BLOCK
  5
80A2
330
8048
100
AcDbEntity
  8
0
100
AcDbBlockBegin
  2
*D16
 70
     1
 10
0.0
 20
0.0
 30
0.0
  3
*D16
  1

  0
LINE
  5
81B9
330
8048
100
AcDbEntity
  8
3
 62
     0
440
 16777216
100
AcDbLine
 10
1043.57536056422
 20
1398.677178549359
 30
0.0
 11
643.326082307627
 21
1398.677178549359
 31
0.0
  0
LINE
  5
81BA
330
8048
100
AcDbEntity
  8
3
 62
     0
440
 16777216
100
AcDbLine
 10
1043.57536056422
 20
1323.677178549359
 30
0.0
 11
643.326082307627
 21
1323.677178549359
 31
0.0
  0
LINE
  5
81BB
330
8048
100
AcDbEntity
  8
3
 62
     0
440
 16777216
100
AcDbLine
 10
663.3260823076271
 20
1438.677178549359
 30
0.0
 11
663.3260823076271
 21
1478.677178549359
 31
0.0
  0
LINE
  5
81BC
330
8048
100
AcDbEntity
  8
3
 62
     0
440
 16777216
100
AcDbLine
 10
663.3260823076271
 20
1283.677178549359
 30
0.0
 11
663.326082307627
 21
1106.534321406502
 31
0.0
  0
LINE
  5
81BD
330
8048
100
AcDbEntity
  8
3
 62
     0
440
 16777216
100
AcDbLine
 10
663.3260823076271
 20
1398.677178549359
 30
0.0
 11
663.3260823076271
 21
1323.677178549359
 31
0.0
  0
INSERT
  5
81BE
330
8048
100
AcDbEntity
  8
3
 62
     0
440
 16777216
100
AcDbBlockReference
  2
_DOT
 10
663.3260823076271
 20
1398.677178549359
 30
0.0
 41
40.0
 42
40.0
 43
40.0
 50
270.0
  0
INSERT
  5
81BF
330
8048
100
AcDbEntity
  8
3
 62
     0
440
 16777216
100
AcDbBlockReference
  2
_OPEN
 10
663.3260823076271
 20
1323.677178549359
 30
0.0
 41
40.0
 42
40.0
 43
40.0
 50
90.0
  0
MTEXT
  5
81C0
330
8048
100
AcDbEntity
  8
3
 62
     0
440
 16777216
100
AcDbMText
 10
613.3260823076268
 20
1175.105749977931
 30
0.0
 40
60.0
 41
0.0
 46
0.0
 71
     5
 72
     5
  1
\A1;75
 11
0.0000000000000001
 21
1.0
 31
0.0
 73
     1
 44
1.0
  0
POINT
  5
81C1
330
8048
100
AcDbEntity
  8
DEFPOINTS
 62
     0
440
 16777216
100
AcDbPoint
 10
1053.57536056422
 20
1398.677178549359
 30
0.0
  0
POINT
  5
81C2
330
8048
100
AcDbEntity
  8
DEFPOINTS
 62
     0
440
 16777216
100
AcDbPoint
 10
1053.57536056422
 20
1323.677178549359
 30
0.0
  0
POINT
  5
81C3
330
8048
100
AcDbEntity
  8
DEFPOINTS
 62
     0
440
 16777216
100
AcDbPoint
 10
663.3260823076271
 20
1323.677178549359
 30
0.0
  0
ENDBLK
  5
80AE
330
8048
100
AcDbEntity
  8
0
100
AcDbBlockEnd
  0
BLOCK
  5
8085
330
807F
100
AcDbEntity
  8
0
100
AcDbBlockBegin
  2
_DOT
 70
     0
 10
0.0
 20
0.0
 30
0.0
  3
_DOT
  1

  0
LWPOLYLINE
  5
8080
330
807F
100
AcDbEntity
  8
0
  6
ByBlock
 62
     0
100
AcDbPolyline
 90
        2
 70
     1
 43
0.25
 10
-0.125
 20
0.0
 42
1.0
 10
0.125
 20
0.0
 42
1.0
  0
LINE
  5
8084
330
807F
100
AcDbEntity
  8
0
  6
ByBlock
 62
     0
100
AcDbLine
 10
-0.25
 20
0.0
 30
0.0
 11
-1.0
 21
0.0
 31
0.0
  0
ENDBLK
  5
8086
330
807F
100
AcDbEntity
  8
0
100
AcDbBlockEnd
  0
BLOCK
  5
80EE
330
80ED
100
AcDbEntity
  8
0
100
AcDbBlockBegin
  2
*D18
 70
     1
 10
0.0
 20
0.0
 30
0.0
  3
*D18
  1

  0
LINE
  5
80EF
330
80ED
100
AcDbEntity
  8
0
  6
ByBlock
 62
     0
440
 16777216
100
AcDbLine
 10
1053.57536056422
 20
1313.677178549359
 30
0.0
 11
1053.57536056422
 21
1175.389353828859
 31
0.0
  0
LINE
  5
80F0
330
80ED
100
AcDbEntity
  8
0
  6
ByBlock
 62
     0
440
 16777216
100
AcDbLine
 10
1408.57536056422
 20
1313.677178549359
 30
0.0
 11
1408.57536056422
 21
1175.389353828859
 31
0.0
  0
LINE
  5
80F1
330
80ED
100
AcDbEntity
  8
0
  6
ByBlock
 62
     0
440
 16777216
100
AcDbLine
 10
1093.57536056422
 20
1195.389353828859
 30
0.0
 11
1368.57536056422
 21
1195.389353828859
 31
0.0
  0
INSERT
  5
80F2
330
80ED
100
AcDbEntity
  8
0
  6
ByBlock
 62
     0
440
 16777216
100
AcDbBlockReference
  2
_OPEN
 10
1053.57536056422
 20
1195.389353828859
 30
0.0
 41
40.0
 42
40.0
 43
40.0
 50
180.0
  0
INSERT
  5
80F3
330
80ED
100
AcDbEntity
  8
0
  6
ByBlock
 62
     0
440
 16777216
100
AcDbBlockReference
  2
_OPEN
 10
1408.57536056422
 20
1195.389353828859
 30
0.0
 41
40.0
 42
40.0
 43
40.0
  0
MTEXT
  5
80F4
330
80ED
100
AcDbEntity
  8
0
  6
ByBlock
 62
     0
440
 16777216
100
AcDbMText
 10
1231.07536056422
 20
1245.389353828859
 30
0.0
 40
60.0
 41
0.0
 46
0.0
 71
     5
 72
     5
  1
\A1;355
 73
     1
 44
1.0
  0
POINT
  5
80F5
330
80ED
100
AcDbEntity
  8
DEFPOINTS
  6
ByBlock
 62
     0
440
 16777216
100
AcDbPoint
 10
1053.57536056422
 20
1323.677178549359
 30
0.0
  0
POINT
  5
80F6
330
80ED
100
AcDbEntity
  8
DEFPOINTS
  6
ByBlock
 62
     0
440
 16777216
100
AcDbPoint
 10
1408.57536056422
 20
1323.677178549359
 30
0.0
  0
POINT
  5
80F7
330
80ED
100
AcDbEntity
  8
DEFPOINTS
  6
ByBlock
 62
     0
440
 16777216
100
AcDbPoint
 10
1408.57536056422
 20
1195.389353828859
 30
0.0
  0
ENDBLK
  5
80F8
330
80ED
100
AcDbEntity
  8
0
100
AcDbBlockEnd
  0
BLOCK
  5
80FB
330
80FA
100
AcDbEntity
  8
0
100
AcDbBlockBegin
  2
*D19
 70
     1
 10
0.0
 20
0.0
 30
0.0
  3
*D19
  1

  0
LINE
  5
80FC
330
80FA
100
AcDbEntity
  8
0
  6
ByBlock
 62
     0
440
 16777216
100
AcDbLine
 10
1408.57536056422
 20
1313.677178549359
 30
0.0
 11
1408.57536056422
 21
1175.389353828859
 31
0.0
  0
LINE
  5
80FD
330
80FA
100
AcDbEntity
  8
0
  6
ByBlock
 62
     0
440
 16777216
100
AcDbLine
 10
2403.57536056422
 20
1313.677178549358
 30
0.0
 11
2403.57536056422
 21
1175.389353828859
 31
0.0
  0
LINE
  5
80FE
330
80FA
100
AcDbEntity
  8
0
  6
ByBlock
 62
     0
440
 16777216
100
AcDbLine
 10
1448.57536056422
 20
1195.389353828859
 30
0.0
 11
2363.575360564221
 21
1195.389353828859
 31
0.0
  0
INSERT
  5
80FF
330
80FA
100
AcDbEntity
  8
0
  6
ByBlock
 62
     0
440
 16777216
100
AcDbBlockReference
  2
_OPEN
 10
1408.57536056422
 20
1195.389353828859
 30
0.0
 41
40.0
 42
40.0
 43
40.0
 50
180.0
  0
INSERT
  5
8100
330
80FA
100
AcDbEntity
  8
0
  6
ByBlock
 62
     0
440
 16777216
100
AcDbBlockReference
  2
_OPEN
 10
2403.57536056422
 20
1195.389353828859
 30
0.0
 41
40.0
 42
40.0
 43
40.0
  0
MTEXT
  5
8101
330
80FA
100
AcDbEntity
  8
0
  6
ByBlock
 62
     0
440
 16777216
100
AcDbMText
 10
1906.07536056422
 20
1245.389353828859
 30
0.0
 40
60.0
 41
0.0
 46
0.0
 71
     5
 72
     5
  1
\A1;995
 73
     1
 44
1.0
  0
POINT
  5
8102
330
80FA
100
AcDbEntity
  8
DEFPOINTS
  6
ByBlock
 62
     0
440
 16777216
100
AcDbPoint
 10
1408.57536056422
 20
1323.677178549359
 30
0.0
  0
POINT
  5
8103
330
80FA
100
AcDbEntity
  8
DEFPOINTS
  6
ByBlock
 62
     0
440
 16777216
100
AcDbPoint
 10
2403.57536056422
 20
1323.677178549358
 30
0.0
  0
POINT
  5
8104
330
80FA
100
AcDbEntity
  8
DEFPOINTS
  6
ByBlock
 62
     0
440
 16777216
100
AcDbPoint
 10
2403.57536056422
 20
1195.389353828859
 30
0.0
  0
ENDBLK
  5
8105
330
80FA
100
AcDbEntity
  8
0
100
AcDbBlockEnd
  0
BLOCK
  5
8108
330
8107
100
AcDbEntity
  8
0
100
AcDbBlockBegin
  2
*D20
 70
     1
 10
0.0
 20
0.0
 30
0.0
  3
*D20
  1

  0
LINE
  5
8109
330
8107
100
AcDbEntity
  8
0
  6
ByBlock
 62
     0
440
 16777216
100
AcDbLine
 10
2828.671436037815
 20
1313.677178549359
 30
0.0
 11
2828.671436037815
 21
1175.389353828859
 31
0.0
  0
LINE
  5
810A
330
8107
100
AcDbEntity
  8
0
  6
ByBlock
 62
     0
440
 16777216
100
AcDbLine
 10
3335.671436037816
 20
1313.677178549359
 30
0.0
 11
3335.671436037816
 21
1175.389353828859
 31
0.0
  0
LINE
  5
810B
330
8107
100
AcDbEntity
  8
0
  6
ByBlock
 62
     0
440
 16777216
100
AcDbLine
 10
2868.671436037816
 20
1195.389353828859
 30
0.0
 11
3295.671436037816
 21
1195.389353828859
 31
0.0
  0
INSERT
  5
810C
330
8107
100
AcDbEntity
  8
0
  6
ByBlock
 62
     0
440
 16777216
100
AcDbBlockReference
  2
_OPEN
 10
2828.671436037815
 20
1195.389353828859
 30
0.0
 41
40.0
 42
40.0
 43
40.0
 50
180.0
  0
INSERT
  5
810D
330
8107
100
AcDbEntity
  8
0
  6
ByBlock
 62
     0
440
 16777216
100
AcDbBlockReference
  2
_OPEN
 10
3335.671436037816
 20
1195.389353828859
 30
0.0
 41
40.0
 42
40.0
 43
40.0
  0
MTEXT
  5
810E
330
8107
100
AcDbEntity
  8
0
  6
ByBlock
 62
     0
440
 16777216
100
AcDbMText
 10
3082.171436037816
 20
1245.389353828859
 30
0.0
 40
60.0
 41
0.0
 46
0.0
 71
     5
 72
     5
  1
\A1;507
 73
     1
 44
1.0
  0
POINT
  5
810F
330
8107
100
AcDbEntity
  8
DEFPOINTS
  6
ByBlock
 62
     0
440
 16777216
100
AcDbPoint
 10
2828.671436037815
 20
1323.677178549359
 30
0.0
  0
POINT
  5
8110
330
8107
100
AcDbEntity
  8
DEFPOINTS
  6
ByBlock
 62
     0
440
 16777216
100
AcDbPoint
 10
3335.671436037816
 20
1323.677178549359
 30
0.0
  0
POINT
  5
8111
330
8107
100
AcDbEntity
  8
DEFPOINTS
  6
ByBlock
 62
     0
440
 16777216
100
AcDbPoint
 10
3335.671436037816
 20
1195.389353828859
 30
0.0
  0
ENDBLK
  5
8112
330
8107
100
AcDbEntity
  8
0
100
AcDbBlockEnd
  0
BLOCK
  5
8115
330
8114
100
AcDbEntity
  8
0
100
AcDbBlockBegin
  2
*D21
 70
     1
 10
0.0
 20
0.0
 30
0.0
  3
*D21
  1

  0
LINE
  5
8116
330
8114
100
AcDbEntity
  8
0
  6
ByBlock
 62
     0
440
 16777216
100
AcDbLine
 10
3335.671436037816
 20
1313.677178549359
 30
0.0
 11
3335.671436037816
 21
1175.389353828859
 31
0.0
  0
LINE
  5
8117
330
8114
100
AcDbEntity
  8
0
  6
ByBlock
 62
     0
440
 16777216
100
AcDbLine
 10
3753.671436037816
 20
1313.677178549359
 30
0.0
 11
3753.671436037816
 21
1175.389353828859
 31
0.0
  0
LINE
  5
8118
330
8114
100
AcDbEntity
  8
0
  6
ByBlock
 62
     0
440
 16777216
100
AcDbLine
 10
3375.671436037816
 20
1195.389353828859
 30
0.0
 11
3713.671436037816
 21
1195.389353828859
 31
0.0
  0
INSERT
  5
8119
330
8114
100
AcDbEntity
  8
0
  6
ByBlock
 62
     0
440
 16777216
100
AcDbBlockReference
  2
_OPEN
 10
3335.671436037816
 20
1195.389353828859
 30
0.0
 41
40.0
 42
40.0
 43
40.0
 50
180.0
  0
INSERT
  5
811A
330
8114
100
AcDbEntity
  8
0
  6
ByBlock
 62
     0
440
 16777216
100
AcDbBlockReference
  2
_OPEN
 10
3753.671436037816
 20
1195.389353828859
 30
0.0
 41
40.0
 42
40.0
 43
40.0
  0
MTEXT
  5
811B
330
8114
100
AcDbEntity
  8
0
  6
ByBlock
 62
     0
440
 16777216
100
AcDbMText
 10
3544.671436037816
 20
1245.389353828859
 30
0.0
 40
60.0
 41
0.0
 46
0.0
 71
     5
 72
     5
  1
\A1;418
 73
     1
 44
1.0
  0
POINT
  5
811C
330
8114
100
AcDbEntity
  8
DEFPOINTS
  6
ByBlock
 62
     0
440
 16777216
100
AcDbPoint
 10
3335.671436037816
 20
1323.677178549359
 30
0.0
  0
POINT
  5
811D
330
8114
100
AcDbEntity
  8
DEFPOINTS
  6
ByBlock
 62
     0
440
 16777216
100
AcDbPoint
 10
3753.671436037816
 20
1323.67717854936
 30
0.0
  0
POINT
  5
811E
330
8114
100
AcDbEntity
  8
DEFPOINTS
  6
ByBlock
 62
     0
440
 16777216
100
AcDbPoint
 10
3753.671436037816
 20
1195.389353828859
 30
0.0
  0
ENDBLK
  5
811F
330
8114
100
AcDbEntity
  8
0
100
AcDbBlockEnd
  0
BLOCK
  5
8122
330
8121
100
AcDbEntity
  8
0
100
AcDbBlockBegin
  2
_NONE
 70
     0
 10
0.0
 20
0.0
 30
0.0
  3
_NONE
  1

  0
CIRCLE
  5
8123
330
8121
100
AcDbEntity
  8
0
  6
ByBlock
 62
     0
100
AcDbCircle
 10
0.0
 20
0.0
 30
0.0
 40
0.25
  0
ENDBLK
  5
8124
330
8121
100
AcDbEntity
  8
0
100
AcDbBlockEnd
  0
BLOCK
  5
8126
330
8125
100
AcDbEntity
  8
0
100
AcDbBlockBegin
  2
*D23
 70
     1
 10
0.0
 20
0.0
 30
0.0
  3
*D23
  1

  0
LINE
  5
8127
330
8125
100
AcDbEntity
  8
0
  6
ByBlock
 62
     0
440
 16777216
100
AcDbLine
 10
664.9178026487097
 20
1398.677178549359
 30
0.0
 11
664.9178026487097
 21
1398.677178549359
 31
0.0
  0
LINE
  5
8128
330
8125
100
AcDbEntity
  8
0
  6
ByBlock
 62
     0
440
 16777216
100
AcDbLine
 10
664.9178026487097
 20
1435.677178549359
 30
0.0
 11
664.9178026487097
 21
1515.677178549359
 31
0.0
  0
MTEXT
  5
8129
330
8125
100
AcDbEntity
  8
0
  6
ByBlock
 62
     0
440
 16777216
100
AcDbMText
 10
569.2035169344241
 20
1417.177178549359
 30
0.0
 40
60.0
 41
0.0
 46
0.0
 71
     5
 72
     5
  1
\A1;(37)
 11
0.0
 21
1.0
 31
0.0
 73
     1
 44
1.0
  0
LINE
  5
812A
330
8125
100
AcDbEntity
  8
0
  6
ByBlock
 62
     0
440
 16777216
100
AcDbLine
 10
664.9178026487097
 20
1398.677178549359
 30
0.0
 11
664.9178026487097
 21
1435.677178549359
 31
0.0
  0
POINT
  5
812B
330
8125
100
AcDbEntity
  8
DEFPOINTS
  6
ByBlock
 62
     0
440
 16777216
100
AcDbPoint
 10
1053.57536056422
 20
1398.677178549359
 30
0.0
  0
POINT
  5
812C
330
8125
100
AcDbEntity
  8
DEFPOINTS
  6
ByBlock
 62
     0
440
 16777216
100
AcDbPoint
 10
1053.57536056422
 20
1435.677178549359
 30
0.0
  0
POINT
  5
812D
330
8125
100
AcDbEntity
  8
DEFPOINTS
  6
ByBlock
 62
     0
440
 16777216
100
AcDbPoint
 10
664.9178026487097
 20
1435.677178549359
 30
0.0
  0
ENDBLK
  5
812E
330
8125
100
AcDbEntity
  8
0
100
AcDbBlockEnd
  0
BLOCK
  5
8132
330
8131
100
AcDbEntity
  8
0
100
AcDbBlockBegin
  2
*D24
 70
     1
 10
0.0
 20
0.0
 30
0.0
  3
*D24
  1

  0
LINE
  5
8133
330
8131
100
AcDbEntity
  8
0
  6
ByBlock
 62
     0
440
 16777216
100
AcDbLine
 10
944.9757359989623
 20
2155.677178549359
 30
0.0
 11
644.0018246842192
 21
2155.677178549359
 31
0.0
  0
LINE
  5
8134
330
8131
100
AcDbEntity
  8
0
  6
ByBlock
 62
     0
440
 16777216
100
AcDbLine
 10
1479.081777763948
 20
2555.677178549359
 30
0.0
 11
644.0018246842192
 21
2555.677178549359
 31
0.0
  0
LINE
  5
8135
330
8131
100
AcDbEntity
  8
0
  6
ByBlock
 62
     0
440
 16777216
100
AcDbLine
 10
664.0018246842191
 20
2195.67717854936
 30
0.0
 11
664.0018246842191
 21
2515.677178549359
 31
0.0
  0
INSERT
  5
8136
330
8131
100
AcDbEntity
  8
0
  6
ByBlock
 62
     0
440
 16777216
100
AcDbBlockReference
  2
_OPEN
 10
664.0018246842191
 20
2155.677178549359
 30
0.0
 41
40.0
 42
40.0
 43
40.0
 50
270.0
  0
INSERT
  5
8137
330
8131
100
AcDbEntity
  8
0
  6
ByBlock
 62
     0
440
 16777216
100
AcDbBlockReference
  2
_OPEN
 10
664.0018246842191
 20
2555.677178549359
 30
0.0
 41
40.0
 42
40.0
 43
40.0
 50
90.0
  0
MTEXT
  5
8138
330
8131
100
AcDbEntity
  8
0
  6
ByBlock
 62
     0
440
 16777216
100
AcDbMText
 10
614.0018246842191
 20
2355.677178549359
 30
0.0
 40
60.0
 41
0.0
 46
0.0
 71
     5
 72
     5
  1
\A1;400
 11
0.0
 21
1.0
 31
0.0
 73
     1
 44
1.0
  0
POINT
  5
8139
330
8131
100
AcDbEntity
  8
DEFPOINTS
  6
ByBlock
 62
     0
440
 16777216
100
AcDbPoint
 10
954.9757359989623
 20
2155.677178549359
 30
0.0
  0
POINT
  5
813A
330
8131
100
AcDbEntity
  8
DEFPOINTS
  6
ByBlock
 62
     0
440
 16777216
100
AcDbPoint
 10
1489.081777763948
 20
2555.677178549359
 30
0.0
  0
POINT
  5
813B
330
8131
100
AcDbEntity
  8
DEFPOINTS
  6
ByBlock
 62
     0
440
 16777216
100
AcDbPoint
 10
664.0018246842191
 20
2555.677178549359
 30
0.0
  0
ENDBLK
  5
813C
330
8131
100
AcDbEntity
  8
0
100
AcDbBlockEnd
  0
BLOCK
  5
813F
330
813E
100
AcDbEntity
  8
0
100
AcDbBlockBegin
  2
*D25
 70
     1
 10
0.0
 20
0.0
 30
0.0
  3
*D25
  1

  0
LINE
  5
8140
330
813E
100
AcDbEntity
  8
0
  6
ByBlock
 62
     0
440
 16777216
100
AcDbLine
 10
1469.081777763948
 20
2555.677178549359
 30
0.0
 11
470.1444665148883
 21
2555.677178549359
 31
0.0
  0
LINE
  5
8141
330
813E
100
AcDbEntity
  8
0
  6
ByBlock
 62
     0
440
 16777216
100
AcDbLine
 10
1043.57536056422
 20
1323.677178549359
 30
0.0
 11
470.1444665148883
 21
1323.677178549359
 31
0.0
  0
LINE
  5
8142
330
813E
100
AcDbEntity
  8
0
  6
ByBlock
 62
     0
440
 16777216
100
AcDbLine
 10
490.1444665148883
 20
2515.677178549359
 30
0.0
 11
490.1444665148883
 21
1363.677178549359
 31
0.0
  0
INSERT
  5
8143
330
813E
100
AcDbEntity
  8
0
  6
ByBlock
 62
     0
440
 16777216
100
AcDbBlockReference
  2
_OPEN
 10
490.1444665148883
 20
2555.677178549359
 30
0.0
 41
40.0
 42
40.0
 43
40.0
 50
90.0
  0
INSERT
  5
8144
330
813E
100
AcDbEntity
  8
0
  6
ByBlock
 62
     0
440
 16777216
100
AcDbBlockReference
  2
_OPEN
 10
490.1444665148883
 20
1323.677178549359
 30
0.0
 41
40.0
 42
40.0
 43
40.0
 50
270.0
  0
MTEXT
  5
8145
330
813E
100
AcDbEntity
  8
0
  6
ByBlock
 62
     0
440
 16777216
100
AcDbMText
 10
424.4301808006026
 20
1939.677178549359
 30
0.0
 40
60.0
 41
0.0
 46
0.0
 71
     5
 72
     5
  1
\A1;(1232)
 11
0.0
 21
1.0
 31
0.0
 73
     1
 44
1.0
  0
POINT
  5
8146
330
813E
100
AcDbEntity
  8
DEFPOINTS
  6
ByBlock
 62
     0
440
 16777216
100
AcDbPoint
 10
1479.081777763948
 20
2555.677178549359
 30
0.0
  0
POINT
  5
8147
330
813E
100
AcDbEntity
  8
DEFPOINTS
  6
ByBlock
 62
     0
440
 16777216
100
AcDbPoint
 10
1053.57536056422
 20
1323.677178549359
 30
0.0
  0
POINT
  5
8148
330
813E
100
AcDbEntity
  8
DEFPOINTS
  6
ByBlock
 62
     0
440
 16777216
100
AcDbPoint
 10
490.1444665148883
 20
1323.677178549359
 30
0.0
  0
ENDBLK
  5
8149
330
813E
100
AcDbEntity
  8
0
100
AcDbBlockEnd
  0
ENDSEC
  0
SECTION
  2
ENTITIES
  0
LINE
  5
7C1E
330
19
100
AcDbEntity
  8
1
100
AcDbLine
 10
2808.171436037816
 20
1930.677178549359
 30
0.0
 11
3369.171436037816
 21
1930.677178549359
 31
0.0
  0
LINE
  5
7C25
330
19
100
AcDbEntity
  8
1
100
AcDbLine
 10
3369.171436037816
 20
1563.177178549359
 30
0.0
 11
2808.171436037816
 21
1563.177178549359
 31
0.0
  0
DIMENSION
  5
7C26
330
19
100
AcDbEntity
  8
3
100
AcDbDimension
280
     0
  2
*D1
 10
2655.671436037815
 20
2788.030114272274
 30
0.0
 11
2995.671436037816
 21
2843.74439998656
 31
0.0
 70
    32
  1
(<>)
 71
     5
 42
680.0000000000004
 73
     0
 74
     0
 75
     0
  3
MATSU
100
AcDbAlignedDimension
 13
3335.671436037816
 23
2711.429930810286
 33
0.0
 14
2655.671436037815
 24
2375.677178549359
 34
0.0
100
AcDbRotatedDimension
1001
ACAD
1000
DSTYLE
1002
{
1070
   287
1070
     4
1070
    40
1040
20.0
1070
    75
1070
     1
1070
   279
1070
     1
1070
   289
1070
     3
1002
}
  0
LINE
  5
7C27
330
19
100
AcDbEntity
  8
1
100
AcDbLine
 10
2778.171436037816
 20
2133.17717854936
 30
0.0
 11
2960.671436037816
 21
2133.17717854936
 31
0.0
  0
LINE
  5
7C28
330
19
100
AcDbEntity
  8
1
100
AcDbLine
 10
2778.171436037816
 20
2178.177178549359
 30
0.0
 11
2960.671436037816
 21
2178.177178549359
 31
0.0
  0
LINE
  5
7C29
330
19
100
AcDbEntity
  8
1
100
AcDbLine
 10
2890.671436037816
 20
2001.677178549359
 30
0.0
 11
2950.671436037815
 21
2001.677178549359
 31
0.0
  0
LINE
  5
7C2A
330
19
100
AcDbEntity
  8
1
100
AcDbLine
 10
2890.671436037816
 20
2101.677178549359
 30
0.0
 11
2950.671436037815
 21
2101.677178549359
 31
0.0
  0
LINE
  5
7C2D
330
19
100
AcDbEntity
  8
1
100
AcDbLine
 10
2828.671436037815
 20
1323.677178549359
 30
0.0
 11
3753.671436037816
 21
1323.67717854936
 31
0.0
  0
LINE
  5
7C2E
330
19
100
AcDbEntity
  8
1
100
AcDbLine
 10
2828.671436037815
 20
1398.677178549359
 30
0.0
 11
3753.671436037816
 21
1398.67717854936
 31
0.0
  0
LINE
  5
7C2F
330
19
100
AcDbEntity
  8
1
100
AcDbLine
 10
2828.671436037815
 20
1510.677178549359
 30
0.0
 11
3753.671436037816
 21
1510.677178549359
 31
0.0
  0
LINE
  5
7C30
330
19
100
AcDbEntity
  8
1
100
AcDbLine
 10
2828.671436037815
 20
1435.677178549359
 30
0.0
 11
3753.671436037816
 21
1435.677178549359
 31
0.0
  0
LINE
  5
7C31
330
19
100
AcDbEntity
  8
2
100
AcDbLine
 10
2593.225035247562
 20
2155.677178549359
 30
0.0
 11
3814.199391667515
 21
2155.677178549359
 31
0.0
  0
LINE
  5
7C32
330
19
100
AcDbEntity
  8
1
100
AcDbLine
 10
1349.566185432108
 20
2062.844440518922
 30
0.0
 11
2033.740997555768
 21
1627.948388047123
 31
0.0
  0
LINE
  5
7C33
330
19
100
AcDbEntity
  8
1
100
AcDbLine
 10
1297.386676032714
 20
1965.842839105324
 30
0.0
 11
1997.386676032714
 21
1555.842839105323
 31
0.0
  0
DIMENSION
  5
7C35
330
19
100
AcDbEntity
  8
3
100
AcDbDimension
280
     0
  2
*D2
 10
1894.249502435887
 20
2703.356561150759
 30
0.0
 11
1651.412431500054
 21
2743.356561150759
 31
0.0
 70
    32
  1
484
 71
     5
 42
-1.0
 73
     0
 74
     0
 75
     0
  3
MATSU
100
AcDbAlignedDimension
 13
1408.57536056422
 23
2599.890124322759
 33
0.0
 14
1894.249502435887
 24
2113.677178549359
 34
0.0
100
AcDbRotatedDimension
1001
ACAD
1000
DSTYLE
1002
{
1070
   287
1070
     4
1070
    40
1040
20.0
1070
    75
1070
     1
1070
   279
1070
     1
1070
   289
1070
     3
1002
}
  0
DIMENSION
  5
7C36
330
19
100
AcDbEntity
  8
3
100
AcDbDimension
280
     0
  2
*D3
 10
2403.57536056422
 20
2841.31181025476
 30
0.0
 11
1711.07536056422
 21
2881.31181025476
 31
0.0
 12
390.7523474574955
 22
1013.23791780811
 32
0.0
 70
    32
 71
     5
 42
-1.0
 73
     0
 74
     0
 75
     0
  3
MATSU
100
AcDbAlignedDimension
 13
1018.57536056422
 23
2167.677178549359
 33
0.0
 14
2403.57536056422
 24
1510.677178549358
 34
0.0
100
AcDbRotatedDimension
1001
ACAD
1000
DSTYLE
1002
{
1070
    40
1040
20.0
1002
}
  0
ARC
  5
7C38
330
19
100
AcDbEntity
  8
1
100
AcDbCircle
 10
1408.57536056422
 20
2155.677178549359
 30
0.0
 40
220.0
100
AcDbArc
 50
57.3798944112277
 51
239.6418845412334
  0
CIRCLE
  5
7C39
330
19
100
AcDbEntity
  8
1
100
AcDbCircle
 10
1408.57536056422
 20
2155.677178549359
 30
0.0
 40
110.0
  0
CIRCLE
  5
7C3A
330
19
100
AcDbEntity
  8
1
100
AcDbCircle
 10
1408.57536056422
 20
2155.677178549359
 30
0.0
 40
310.0
  0
CIRCLE
  5
7C3B
330
19
100
AcDbEntity
  8
1
100
AcDbCircle
 10
1408.57536056422
 20
2155.677178549359
 30
0.0
 40
280.0
  0
LINE
  5
7C3E
330
19
100
AcDbEntity
  8
1
100
AcDbLine
 10
1053.57536056422
 20
1323.677178549359
 30
0.0
 11
2403.57536056422
 21
1323.677178549358
 31
0.0
  0
LINE
  5
7C3F
330
19
100
AcDbEntity
  8
1
100
AcDbLine
 10
1053.57536056422
 20
1398.677178549359
 30
0.0
 11
2403.57536056422
 21
1398.677178549358
 31
0.0
  0
LINE
  5
7C40
330
19
100
AcDbEntity
  8
1
100
AcDbLine
 10
1053.57536056422
 20
1510.677178549359
 30
0.0
 11
2403.57536056422
 21
1510.677178549358
 31
0.0
  0
LINE
  5
7C41
330
19
100
AcDbEntity
  8
1
100
AcDbLine
 10
1053.57536056422
 20
1435.677178549359
 30
0.0
 11
2403.57536056422
 21
1435.677178549358
 31
0.0
  0
LWPOLYLINE
  5
7C42
330
19
100
AcDbEntity
  8
1
100
AcDbPolyline
 90
        6
 70
     0
 43
0.0
 10
1018.57536056422
 20
1555.677178549359
 10
1408.57536056422
 20
1587.677178549359
 42
0.3910641092142224
 10
1894.249502435887
 20
2113.677178549359
 42
0.4496421683644475
 10
1397.713707048227
 20
2554.190957849298
 42
0.3796508156605925
 10
1073.439288564638
 20
2188.677178549359
 42
0.0441110721615306
 10
1078.124178009273
 20
2135.677178549359
 42
0.3936265759256327
  0
LINE
  5
7C4A
330
19
100
AcDbEntity
  8
2
100
AcDbLine
 10
942.8857527044865
 20
2155.677178549359
 30
0.0
 11
1924.187144988887
 21
2155.677178549359
 31
0.0
  0
DIMENSION
  5
7C4B
330
19
100
AcDbEntity
  8
3
100
AcDbDimension
280
     0
  2
*D4
 10
663.3260823076271
 20
1435.677178549359
 30
0.0
 11
623.3260823076268
 21
1795.677178549359
 31
0.0
 70
    32
 71
     5
 42
-1.0
 73
     0
 74
     0
 75
     0
  3
MATSU
100
AcDbAlignedDimension
 13
974.9757359989626
 23
2155.677178549359
 33
0.0
 14
1053.57536056422
 24
1435.677178549359
 34
0.0
 50
270.0
100
AcDbRotatedDimension
1001
ACAD
1000
DSTYLE
1002
{
1070
   287
1070
     4
1070
    40
1040
20.0
1070
    75
1070
     1
1070
   279
1070
     1
1070
   289
1070
     3
1002
}
  0
LINE
  5
7C4C
330
19
100
AcDbEntity
  8
1
100
AcDbLine
 10
1018.57536056422
 20
2167.677178549359
 30
0.0
 11
1018.57536056422
 21
1523.677178549359
 31
0.0
  0
LINE
  5
7C4D
330
19
100
AcDbEntity
  8
1
100
AcDbLine
 10
1048.57536056422
 20
1558.138717010897
 30
0.0
 11
1048.57536056422
 21
2135.677178549359
 31
0.0
  0
LINE
  5
7C4E
330
19
100
AcDbEntity
  8
2
100
AcDbLine
 10
1408.57536056422
 20
2599.890124322759
 30
0.0
 11
1408.57536056422
 21
1323.677178549359
 31
0.0
  0
DIMENSION
  5
7C4F
330
19
100
AcDbEntity
  8
3
100
AcDbDimension
280
     0
  2
*D5
 10
788.4227927874899
 20
2155.677178549359
 30
0.0
 11
748.4227927874899
 21
1855.677178549359
 31
0.0
 12
390.7523474574955
 22
1013.23791780811
 32
0.0
 70
    32
 71
     5
 42
-1.0
 73
     0
 74
     0
 75
     0
  3
MATSU
100
AcDbAlignedDimension
 13
1006.57536056422
 23
1555.677178549359
 33
0.0
 14
974.9757359989626
 24
2155.677178549359
 34
0.0
 50
270.0
100
AcDbRotatedDimension
1001
ACAD
1000
DSTYLE
1002
{
1070
    40
1040
20.0
1002
}
  0
DIMENSION
  5
7C50
330
19
100
AcDbEntity
  8
3
100
AcDbDimension
280
     0
  2
*D6
 10
914.842646197545
 20
2135.677178549359
 30
0.0
 11
874.842646197545
 21
1845.677178549359
 31
0.0
 12
390.7523474574955
 22
1013.23791780811
 32
0.0
 70
    32
 71
     5
 42
-1.0
 73
     0
 74
     0
 75
     0
  3
MATSU
100
AcDbAlignedDimension
 13
1018.57536056422
 23
1555.677178549359
 33
0.0
 14
1018.57536056422
 24
2135.677178549359
 34
0.0
 50
270.0
100
AcDbRotatedDimension
1001
ACAD
1000
DSTYLE
1002
{
1070
    40
1040
20.0
1002
}
  0
LINE
  5
7C51
330
19
100
AcDbEntity
  8
1
100
AcDbLine
 10
1018.57536056422
 20
2137.677178549359
 30
0.0
 11
1018.57536056422
 21
1553.677178549359
 31
0.0
  0
LINE
  5
7C52
330
19
100
AcDbEntity
  8
1
100
AcDbLine
 10
1021.57536056422
 20
2167.677178549359
 30
0.0
 11
1021.57536056422
 21
1523.677178549359
 31
0.0
  0
LINE
  5
7C55
330
19
100
AcDbEntity
  8
1
100
AcDbLine
 10
1053.57536056422
 20
1510.677178549359
 30
0.0
 11
1053.57536056422
 21
1435.677178549359
 31
0.0
  0
LINE
  5
7C57
330
19
100
AcDbEntity
  8
1
100
AcDbLine
 10
1053.57536056422
 20
1398.677178549359
 30
0.0
 11
1053.57536056422
 21
1323.677178549359
 31
0.0
  0
LINE
  5
7C58
330
19
100
AcDbEntity
  8
1
100
AcDbLine
 10
1018.57536056422
 20
1523.677178549359
 30
0.0
 11
1021.57536056422
 21
1523.677178549359
 31
0.0
  0
DIMENSION
  5
7C59
330
19
100
AcDbEntity
  8
3
100
AcDbDimension
280
     0
  2
*D7
 10
1408.57536056422
 20
2703.356561150759
 30
0.0
 11
1213.57536056422
 21
2743.356561150759
 31
0.0
 12
390.7523474574955
 22
1013.23791780811
 32
0.0
 70
    32
 71
     5
 42
-1.0
 73
     0
 74
     0
 75
     0
  3
MATSU
100
AcDbAlignedDimension
 13
1018.57536056422
 23
2167.677178549359
 33
0.0
 14
1408.57536056422
 24
2599.890124322759
 34
0.0
100
AcDbRotatedDimension
1001
ACAD
1000
DSTYLE
1002
{
1070
    40
1040
20.0
1002
}
  0
LINE
  5
7C5A
330
19
100
AcDbEntity
  8
1
100
AcDbLine
 10
1078.124178009273
 20
2135.677178549359
 30
0.0
 11
1018.57536056422
 21
2135.677178549359
 31
0.0
  0
LINE
  5
7C5B
330
19
100
AcDbEntity
  8
1
100
AcDbLine
 10
1021.57536056422
 20
2167.677178549359
 30
0.0
 11
1018.57536056422
 21
2167.677178549359
 31
0.0
  0
LINE
  5
7C5C
330
19
100
AcDbEntity
  8
1
100
AcDbLine
 10
1004.20785117449
 20
2154.677178549358
 30
0.0
 11
1035.878704889374
 21
2154.677178549358
 31
0.0
  0
ARC
  5
7C5D
330
19
100
AcDbEntity
  8
1
100
AcDbCircle
 10
2108.57536056422
 20
1745.677178549358
 30
0.0
 40
220.0
100
AcDbArc
 50
239.6418845412333
 51
59.64188454123334
  0
CIRCLE
  5
7C5E
330
19
100
AcDbEntity
  8
1
100
AcDbCircle
 10
2108.57536056422
 20
1745.677178549358
 30
0.0
 40
139.5
  0
LINE
  5
7C5F
330
19
100
AcDbEntity
  8
1
100
AcDbLine
 10
2808.171436037816
 20
1930.677178549359
 30
0.0
 11
2808.171436037815
 21
1563.177178549359
 31
0.0
  0
LINE
  5
7C60
330
19
100
AcDbEntity
  8
1
100
AcDbLine
 10
2693.171436037815
 20
2265.677178549359
 30
0.0
 11
2693.171436037815
 21
1597.177178549359
 31
0.0
  0
LINE
  5
7C61
330
19
100
AcDbEntity
  8
1
100
AcDbLine
 10
2778.171436037816
 20
2265.677178549359
 30
0.0
 11
2778.171436037815
 21
1597.177178549359
 31
0.0
  0
LINE
  5
7C62
330
19
100
AcDbEntity
  8
2
100
AcDbLine
 10
2108.57536056422
 20
2013.394573993272
 30
0.0
 11
2108.57536056422
 21
1323.677178549359
 31
0.0
  0
ARC
  5
7C63
330
19
100
AcDbEntity
  8
1
100
AcDbCircle
 10
2108.57536056422
 20
1745.677178549358
 30
0.0
 40
185.0
100
AcDbArc
 50
287.9452509999999
 51
252.054749
  0
LINE
  5
7C65
330
19
100
AcDbEntity
  8
1
100
AcDbLine
 10
2655.671436037815
 20
2375.677178549359
 30
0.0
 11
2655.671436037815
 21
1525.677178549359
 31
0.0
  0
LINE
  5
7C66
330
19
100
AcDbEntity
  8
1
100
AcDbLine
 10
2178.57536056422
 20
1565.677178549358
 30
0.0
 11
2323.57536056422
 21
1565.677178549358
 31
0.0
  0
LINE
  5
7C67
330
19
100
AcDbEntity
  8
2
100
AcDbLine
 10
2387.871332950808
 20
1745.677178549358
 30
0.0
 11
1877.793518575225
 21
1745.677178549359
 31
0.0
  0
LINE
  5
7C68
330
19
100
AcDbEntity
  8
1
100
AcDbLine
 10
2038.57536056422
 20
1555.677178549358
 30
0.0
 11
2178.57536056422
 21
1555.677178549358
 31
0.0
  0
LINE
  5
7C6A
330
19
100
AcDbEntity
  8
1
100
AcDbLine
 10
2051.57536056422
 20
1569.677178549358
 30
0.0
 11
2165.57536056422
 21
1569.677178549358
 31
0.0
  0
LINE
  5
7C6C
330
19
100
AcDbEntity
  8
1
100
AcDbLine
 10
1946.57536056422
 20
1640.936211549358
 30
0.0
 11
1946.57536056422
 21
1565.677178549359
 31
0.0
  0
LINE
  5
7C6D
330
19
100
AcDbEntity
  8
1
100
AcDbLine
 10
1893.57536056422
 20
1565.677178549359
 30
0.0
 11
2038.57536056422
 21
1565.677178549358
 31
0.0
  0
LINE
  5
7C6E
330
19
100
AcDbEntity
  8
1
100
AcDbLine
 10
2003.075360564221
 20
1585.677178549358
 30
0.0
 11
1949.57536056422
 21
1585.677178549359
 31
0.0
  0
LINE
  5
7C6F
330
19
100
AcDbEntity
  8
1
100
AcDbLine
 10
2006.075360564221
 20
1565.677178549358
 30
0.0
 11
1946.57536056422
 21
1565.677178549359
 31
0.0
  0
LINE
  5
7C70
330
19
100
AcDbEntity
  8
1
100
AcDbLine
 10
1893.57536056422
 20
1565.677178549359
 30
0.0
 11
1883.57536056422
 21
1510.677178549359
 31
0.0
  0
ARC
  5
7C71
330
19
100
AcDbEntity
  8
1
100
AcDbCircle
 10
1949.57536056422
 20
1582.677178549359
 30
0.0
 40
3.0
100
AcDbArc
 50
89.99999999999998
 51
180.0
  0
ARC
  5
7C74
330
19
100
AcDbEntity
  8
1
100
AcDbCircle
 10
2003.075360564221
 20
1582.677178549358
 30
0.0
 40
3.0
100
AcDbArc
 50
0.0
 51
89.99999999999998
  0
LINE
  5
7C76
330
19
100
AcDbEntity
  8
1
100
AcDbLine
 10
1997.75144756422
 20
1585.677178549358
 30
0.0
 11
2002.931195564221
 21
1593.807793549358
 31
0.0
  0
LINE
  5
7C77
330
19
100
AcDbEntity
  8
1
100
AcDbLine
 10
2006.075360564221
 20
1582.677178549358
 30
0.0
 11
2006.075360564221
 21
1565.677178549358
 31
0.0
  0
LINE
  5
7C79
330
19
100
AcDbEntity
  8
1
100
AcDbLine
 10
2006.075360564221
 20
1570.825737549358
 30
0.0
 11
2015.582074564221
 21
1585.748345549358
 31
0.0
  0
LINE
  5
7C7B
330
19
100
AcDbEntity
  8
1
100
AcDbLine
 10
2038.57536056422
 20
1565.677178549358
 30
0.0
 11
2038.57536056422
 21
1555.677178549358
 31
0.0
  0
LINE
  5
7C81
330
19
100
AcDbEntity
  8
1
100
AcDbLine
 10
1946.57536056422
 20
1640.936211549358
 30
0.0
 11
1952.95933256422
 21
1645.633965549359
 31
0.0
  0
LINE
  5
7C88
330
19
100
AcDbEntity
  8
1
100
AcDbLine
 10
2270.575360564221
 20
1640.936211549358
 30
0.0
 11
2270.575360564221
 21
1565.677178549358
 31
0.0
  0
LINE
  5
7C8A
330
19
100
AcDbEntity
  8
1
100
AcDbLine
 10
2178.57536056422
 20
1565.677178549358
 30
0.0
 11
2178.57536056422
 21
1555.677178549358
 31
0.0
  0
LINE
  5
7C8B
330
19
100
AcDbEntity
  8
1
100
AcDbLine
 10
2214.07536056422
 20
1585.677178549358
 30
0.0
 11
2267.575360564221
 21
1585.677178549358
 31
0.0
  0
LINE
  5
7C8C
330
19
100
AcDbEntity
  8
1
100
AcDbLine
 10
2211.07536056422
 20
1565.677178549358
 30
0.0
 11
2270.575360564221
 21
1565.677178549358
 31
0.0
  0
ARC
  5
7C8D
330
19
100
AcDbEntity
  8
1
100
AcDbCircle
 10
2214.07536056422
 20
1582.677178549358
 30
0.0
 40
3.0
100
AcDbArc
 50
89.99999999999998
 51
180.0
  0
LINE
  5
7C8E
330
19
100
AcDbEntity
  8
1
100
AcDbLine
 10
2219.399274564221
 20
1585.677178549358
 30
0.0
 11
2214.21952556422
 21
1593.807793549358
 31
0.0
  0
LINE
  5
7C90
330
19
100
AcDbEntity
  8
1
100
AcDbLine
 10
2211.07536056422
 20
1582.677178549358
 30
0.0
 11
2211.07536056422
 21
1565.677178549358
 31
0.0
  0
LINE
  5
7C91
330
19
100
AcDbEntity
  8
1
100
AcDbLine
 10
2211.07536056422
 20
1570.825737549358
 30
0.0
 11
2201.56864656422
 21
1585.748345549358
 31
0.0
  0
ARC
  5
7C92
330
19
100
AcDbEntity
  8
1
100
AcDbCircle
 10
2267.575360564221
 20
1582.677178549358
 30
0.0
 40
3.0
100
AcDbArc
 50
0.0
 51
89.99999999999998
  0
LINE
  5
7C96
330
19
100
AcDbEntity
  8
1
100
AcDbLine
 10
2270.575360564221
 20
1640.936211549358
 30
0.0
 11
2264.19144956422
 21
1645.633965549358
 31
0.0
  0
LINE
  5
7CA1
330
19
100
AcDbEntity
  8
1
100
AcDbLine
 10
2403.57536056422
 20
1510.677178549358
 30
0.0
 11
2403.57536056422
 21
1435.677178549358
 31
0.0
  0
LINE
  5
7CA2
330
19
100
AcDbEntity
  8
1
100
AcDbLine
 10
2403.57536056422
 20
1398.677178549358
 30
0.0
 11
2403.57536056422
 21
1323.677178549358
 31
0.0
  0
LINE
  5
7CA3
330
19
100
AcDbEntity
  8
1
100
AcDbLine
 10
2323.57536056422
 20
1565.677178549358
 30
0.0
 11
2333.57536056422
 21
1510.677178549358
 31
0.0
  0
LINE
  5
7CA4
330
19
100
AcDbEntity
  8
1
100
AcDbLine
 10
2828.671436037815
 20
1510.677178549359
 30
0.0
 11
2828.671436037815
 21
1435.677178549359
 31
0.0
  0
LINE
  5
7CA5
330
19
100
AcDbEntity
  8
1
100
AcDbLine
 10
2828.671436037815
 20
1398.677178549359
 30
0.0
 11
2828.671436037815
 21
1323.677178549359
 31
0.0
  0
LINE
  5
7CA6
330
19
100
AcDbEntity
  8
1
100
AcDbLine
 10
2693.171436037815
 20
1597.177178549359
 30
0.0
 11
2778.171436037815
 21
1597.177178549359
 31
0.0
  0
LINE
  5
7CA7
330
19
100
AcDbEntity
  8
1
100
AcDbLine
 10
2655.671436037815
 20
1525.677178549359
 30
0.0
 11
2815.671436037816
 21
1525.677178549359
 31
0.0
  0
LINE
  5
7CA8
330
19
100
AcDbEntity
  8
2
100
AcDbLine
 10
2597.720990451846
 20
1745.677178549359
 30
0.0
 11
3369.171436037815
 21
1745.67717854936
 31
0.0
  0
LINE
  5
7CA9
330
19
100
AcDbEntity
  8
1
100
AcDbLine
 10
2815.671436037816
 20
1612.531989261092
 30
0.0
 11
2815.671436037816
 21
1525.677178549359
 31
0.0
  0
LINE
  5
7CAA
330
19
100
AcDbEntity
  8
1
100
AcDbLine
 10
2915.794354750551
 20
1563.177178549359
 30
0.0
 11
2915.794354750551
 21
1510.677178549359
 31
0.0
  0
LINE
  5
7CAB
330
19
100
AcDbEntity
  8
1
100
AcDbLine
 10
2808.171436037815
 20
1721.677178549359
 30
0.0
 11
2778.171436037815
 21
1721.677178549359
 31
0.0
  0
LINE
  5
7CAC
330
19
100
AcDbEntity
  8
1
100
AcDbLine
 10
1460.681329496668
 20
2252.553223068171
 30
0.0
 11
2174.655202983097
 21
1868.533616825488
 31
0.0
  0
LINE
  5
7CAD
330
19
100
AcDbEntity
  8
1
100
AcDbLine
 10
1519.764045095727
 20
2345.511517993394
 30
0.0
 11
2219.764045095727
 21
1935.511517993393
 31
0.0
  0
LINE
  5
7CAE
330
19
100
AcDbEntity
  8
1
100
AcDbLine
 10
2815.671436037816
 20
2375.677178549359
 30
0.0
 11
2815.671436037816
 21
2300.898341029623
 31
0.0
  0
LINE
  5
7CAF
330
19
100
AcDbEntity
  8
1
100
AcDbLine
 10
2880.671436037816
 20
2091.677178549359
 30
0.0
 11
2880.671436037816
 21
2011.677178549359
 31
0.0
  0
LINE
  5
7CB0
330
19
100
AcDbEntity
  8
1
100
AcDbLine
 10
2693.171436037815
 20
1894.177178549359
 30
0.0
 11
2778.171436037815
 21
1894.177178549359
 31
0.0
  0
LINE
  5
7CB1
330
19
100
AcDbEntity
  8
1
100
AcDbLine
 10
2693.171436037815
 20
2045.677178549359
 30
0.0
 11
2778.171436037815
 21
2045.677178549359
 31
0.0
  0
LINE
  5
7CB2
330
19
100
AcDbEntity
  8
1
100
AcDbLine
 10
2808.171436037815
 20
1769.677178549359
 30
0.0
 11
2778.171436037815
 21
1769.677178549359
 31
0.0
  0
LINE
  5
7CB3
330
19
100
AcDbEntity
  8
1
100
AcDbLine
 10
2783.171436037816
 20
2023.177178549359
 30
0.0
 11
2778.171436037816
 21
2023.177178549359
 31
0.0
  0
LINE
  5
7CB4
330
19
100
AcDbEntity
  8
1
100
AcDbLine
 10
2880.671436037816
 20
2011.677178549359
 30
0.0
 11
2890.671436037816
 21
2001.677178549359
 31
0.0
  0
LINE
  5
7CB5
330
19
100
AcDbEntity
  8
1
100
AcDbLine
 10
2693.171436037815
 20
2265.677178549359
 30
0.0
 11
2778.171436037816
 21
2265.677178549359
 31
0.0
  0
LINE
  5
7CB6
330
19
100
AcDbEntity
  8
1
100
AcDbLine
 10
2890.671436037816
 20
2101.677178549359
 30
0.0
 11
2880.671436037816
 21
2091.677178549359
 31
0.0
  0
LINE
  5
7CB7
330
19
100
AcDbEntity
  8
1
100
AcDbLine
 10
2655.671436037815
 20
2375.677178549359
 30
0.0
 11
2815.671436037816
 21
2375.677178549359
 31
0.0
  0
DIMENSION
  5
7CB8
330
19
100
AcDbEntity
  8
3
100
AcDbDimension
280
     0
  2
*D8
 10
1053.57536056422
 20
3046.125578040264
 30
0.0
 11
1728.57536056422
 21
3086.125578040264
 31
0.0
 12
390.7523474574955
 22
749.3738692713669
 32
0.0
 70
    32
 71
     5
 42
-1.0
 73
     0
 74
     0
 75
     0
  3
MATSU
100
AcDbAlignedDimension
 13
2403.57536056422
 23
3481.154031839685
 33
0.0
 14
1053.57536056422
 24
3481.154031839686
 34
0.0
100
AcDbRotatedDimension
1001
ACAD
1000
DSTYLE
1002
{
1070
    40
1040
20.0
1002
}
  0
DIMENSION
  5
7CB9
330
19
100
AcDbEntity
  8
3
100
AcDbDimension
280
     0
  2
*D9
 10
1763.57536056422
 20
4561.50798360401
 30
0.0
 11
1408.57536056422
 21
4601.507983604011
 31
0.0
 12
390.7523474574955
 22
749.3738692713669
 32
0.0
 70
    32
 71
     5
 42
-1.0
 73
     0
 74
     0
 75
     0
  3
MATSU
100
AcDbAlignedDimension
 13
1053.57536056422
 23
4406.154031839684
 33
0.0
 14
1763.57536056422
 24
4406.154031839686
 34
0.0
100
AcDbRotatedDimension
1001
ACAD
1000
DSTYLE
1002
{
1070
    40
1040
20.0
1002
}
  0
LINE
  5
7CBA
330
19
100
AcDbEntity
  8
1
100
AcDbLine
 10
1298.57536056422
 20
3345.654031839686
 30
0.0
 11
1518.57536056422
 21
3345.654031839686
 31
0.0
  0
LINE
  5
7CBB
330
19
100
AcDbEntity
  8
1
100
AcDbLine
 10
1298.57536056422
 20
3430.654031839686
 30
0.0
 11
1518.57536056422
 21
3430.654031839686
 31
0.0
  0
LINE
  5
7CBC
330
19
100
AcDbEntity
  8
1
100
AcDbLine
 10
1188.57536056422
 20
3468.154031839686
 30
0.0
 11
2328.57536056422
 21
3468.154031839686
 31
0.0
  0
LINE
  5
7CBD
330
19
100
AcDbEntity
  8
1
100
AcDbLine
 10
1188.57536056422
 20
3308.154031839686
 30
0.0
 11
2328.57536056422
 21
3308.154031839685
 31
0.0
  0
LINE
  5
7CBE
330
19
100
AcDbEntity
  8
1
100
AcDbLine
 10
1018.57536056422
 20
4363.154031839686
 30
0.0
 11
1882.57536056422
 21
4363.154031839684
 31
0.0
  0
LINE
  5
7CBF
330
19
100
AcDbEntity
  8
1
100
AcDbLine
 10
1018.57536056422
 20
3613.154031839686
 30
0.0
 11
1882.57536056422
 21
3613.154031839684
 31
0.0
  0
LINE
  5
7CC0
330
19
100
AcDbEntity
  8
1
100
AcDbLine
 10
1053.57536056422
 20
3481.154031839686
 30
0.0
 11
2403.57536056422
 21
3481.154031839685
 31
0.0
  0
LINE
  5
7CC1
330
19
100
AcDbEntity
  8
1
100
AcDbLine
 10
1053.57536056422
 20
4406.154031839684
 30
0.0
 11
1763.57536056422
 21
4406.154031839686
 31
0.0
  0
LINE
  5
7CC2
330
19
100
AcDbEntity
  8
2
100
AcDbLine
 10
957.8304847231175
 20
3988.154031839686
 30
0.0
 11
1882.57536056422
 21
3988.154031839685
 31
0.0
  0
DIMENSION
  5
7CC3
330
19
100
AcDbEntity
  8
3
100
AcDbDimension
280
     0
  2
*D10
 10
856.9817625125061
 20
3481.154031839686
 30
0.0
 11
816.9817625125061
 21
3943.654031839686
 31
0.0
 12
390.7523474574955
 22
749.3738692713669
 32
0.0
 70
    32
 71
     5
 42
-1.0
 73
     0
 74
     0
 75
     0
  3
MATSU
100
AcDbAlignedDimension
 13
1053.57536056422
 23
4406.154031839684
 33
0.0
 14
1053.57536056422
 24
3481.154031839686
 34
0.0
 50
270.0
100
AcDbRotatedDimension
1001
ACAD
1000
DSTYLE
1002
{
1070
    40
1040
20.0
1002
}
  0
LINE
  5
7CC4
330
19
100
AcDbEntity
  8
1
100
AcDbLine
 10
1021.57536056422
 20
3583.154031839685
 30
0.0
 11
1021.57536056422
 21
4393.154031839684
 31
0.0
  0
LINE
  5
7CC5
330
19
100
AcDbEntity
  8
1
100
AcDbLine
 10
1018.57536056422
 20
3583.154031839685
 30
0.0
 11
1018.57536056422
 21
4393.154031839684
 31
0.0
  0
LINE
  5
7CC6
330
19
100
AcDbEntity
  8
2
100
AcDbLine
 10
1408.57536056422
 20
3247.741689403701
 30
0.0
 11
1408.57536056422
 21
4433.921627214073
 31
0.0
  0
LINE
  5
7CC7
330
19
100
AcDbEntity
  8
1
100
AcDbLine
 10
1188.57536056422
 20
3308.154031839686
 30
0.0
 11
1188.57536056422
 21
3468.154031839686
 31
0.0
  0
LINE
  5
7CC8
330
19
100
AcDbEntity
  8
1
100
AcDbLine
 10
1431.07536056422
 20
3430.654031839686
 30
0.0
 11
1431.07536056422
 21
3613.154031839686
 31
0.0
  0
LINE
  5
7CC9
330
19
100
AcDbEntity
  8
1
100
AcDbLine
 10
1386.07536056422
 20
3430.654031839686
 30
0.0
 11
1386.07536056422
 21
3613.154031839686
 31
0.0
  0
LINE
  5
7CCA
330
19
100
AcDbEntity
  8
1
100
AcDbLine
 10
1053.57536056422
 20
3481.154031839686
 30
0.0
 11
1053.57536056422
 21
3613.154031839684
 31
0.0
  0
LINE
  5
7CCB
330
19
100
AcDbEntity
  8
1
100
AcDbLine
 10
1018.57536056422
 20
3583.154031839685
 30
0.0
 11
1021.57536056422
 21
3583.154031839687
 31
0.0
  0
LINE
  5
7CCC
330
19
100
AcDbEntity
  8
1
100
AcDbLine
 10
1298.57536056422
 20
3345.654031839686
 30
0.0
 11
1298.57536056422
 21
3430.654031839686
 31
0.0
  0
LINE
  5
7CCD
330
19
100
AcDbEntity
  8
1
100
AcDbLine
 10
1053.57536056422
 20
4363.154031839684
 30
0.0
 11
1053.57536056422
 21
4406.154031839684
 31
0.0
  0
LINE
  5
7CCE
330
19
100
AcDbEntity
  8
1
100
AcDbLine
 10
1018.57536056422
 20
4393.154031839685
 30
0.0
 11
1021.57536056422
 21
4393.154031839685
 31
0.0
  0
DIMENSION
  5
7CCF
330
19
100
AcDbEntity
  8
3
100
AcDbDimension
280
     0
  2
*D11
 10
2602.350092253423
 20
3481.154031839685
 30
0.0
 11
2562.350092253423
 21
3781.154031839685
 31
0.0
 12
390.7523474574955
 22
749.3738692713669
 32
0.0
 70
    32
 71
     5
 42
-1.0
 73
     0
 74
     0
 75
     0
  3
MATSU
100
AcDbAlignedDimension
 13
2403.57536056422
 23
4081.154031839684
 33
0.0
 14
2403.57536056422
 24
3481.154031839685
 34
0.0
 50
270.0
100
AcDbRotatedDimension
1001
ACAD
1000
DSTYLE
1002
{
1070
    40
1040
20.0
1002
}
  0
LINE
  5
7CD0
330
19
100
AcDbEntity
  8
1
100
AcDbLine
 10
1926.075360564222
 20
4022.154031839685
 30
0.0
 11
1926.07536056422
 21
3460.654031839685
 31
0.0
  0
LINE
  5
7CD1
330
19
100
AcDbEntity
  8
1
100
AcDbLine
 10
2291.075360564222
 20
4022.154031839685
 30
0.0
 11
2291.075360564221
 21
3460.654031839685
 31
0.0
  0
LINE
  5
7CD2
330
19
100
AcDbEntity
  8
1
100
AcDbLine
 10
1882.57536056422
 20
3613.154031839684
 30
0.0
 11
1882.57536056422
 21
4363.154031839686
 31
0.0
  0
LINE
  5
7CD3
330
19
100
AcDbEntity
  8
2
100
AcDbLine
 10
2108.57536056422
 20
4073.063089839684
 30
0.0
 11
2108.57536056422
 21
3283.271729268018
 31
0.0
  0
LINE
  5
7CD4
330
19
100
AcDbEntity
  8
1
100
AcDbLine
 10
2403.57536056422
 20
3481.154031839685
 30
0.0
 11
2403.575360564222
 21
4081.154031839684
 31
0.0
  0
LINE
  5
7CD5
330
19
100
AcDbEntity
  8
1
100
AcDbLine
 10
2291.075360564221
 20
3460.654031839685
 30
0.0
 11
1926.07536056422
 21
3460.654031839685
 31
0.0
  0
LINE
  5
7CD6
330
19
100
AcDbEntity
  8
1
100
AcDbLine
 10
1518.57536056422
 20
3345.654031839686
 30
0.0
 11
1518.57536056422
 21
3430.654031839686
 31
0.0
  0
LINE
  5
7CD7
330
19
100
AcDbEntity
  8
1
100
AcDbLine
 10
1969.07536056422
 20
3345.654031839685
 30
0.0
 11
2248.07536056422
 21
3345.654031839685
 31
0.0
  0
LINE
  5
7CD8
330
19
100
AcDbEntity
  8
1
100
AcDbLine
 10
1969.07536056422
 20
3430.654031839685
 30
0.0
 11
2248.07536056422
 21
3430.654031839685
 31
0.0
  0
LINE
  5
7CD9
330
19
100
AcDbEntity
  8
1
100
AcDbLine
 10
1969.07536056422
 20
3345.654031839685
 30
0.0
 11
1969.07536056422
 21
3430.654031839685
 31
0.0
  0
LINE
  5
7CDA
330
19
100
AcDbEntity
  8
1
100
AcDbLine
 10
2084.575360564221
 20
3460.654031839685
 30
0.0
 11
2084.575360564221
 21
3430.654031839686
 31
0.0
  0
LINE
  5
7CDB
330
19
100
AcDbEntity
  8
1
100
AcDbLine
 10
2132.57536056422
 20
3460.654031839685
 30
0.0
 11
2132.57536056422
 21
3430.654031839686
 31
0.0
  0
LINE
  5
7CDC
330
19
100
AcDbEntity
  8
1
100
AcDbLine
 10
2248.07536056422
 20
3345.654031839685
 30
0.0
 11
2248.07536056422
 21
3430.654031839685
 31
0.0
  0
LINE
  5
7CDD
330
19
100
AcDbEntity
  8
1
100
AcDbLine
 10
2328.57536056422
 20
3308.154031839685
 30
0.0
 11
2328.57536056422
 21
3468.154031839686
 31
0.0
  0
DIMENSION
  5
7CDE
330
19
100
AcDbEntity
  8
3
100
AcDbDimension
280
     0
  2
*D12
 10
2403.57536056422
 20
4561.50798360401
 30
0.0
 11
2083.57536056422
 21
4601.507983604011
 31
0.0
 70
    32
 71
     5
 42
-1.0
 73
     0
 74
     0
 75
     0
  3
MATSU
100
AcDbAlignedDimension
 13
1763.57536056422
 23
4406.154031839686
 33
0.0
 14
2403.57536056422
 24
4081.154031839684
 34
0.0
100
AcDbRotatedDimension
1001
ACAD
1000
DSTYLE
1002
{
1070
   287
1070
     4
1070
    40
1040
20.0
1070
    75
1070
     1
1070
   279
1070
     1
1070
   289
1070
     3
1002
}
  0
LINE
  5
7CDF
330
19
100
AcDbEntity
  8
1
100
AcDbLine
 10
2291.07536056422
 20
4022.154031839685
 30
0.0
 11
1926.075360564222
 21
4022.154031839685
 31
0.0
  0
LINE
  5
7CE0
330
19
100
AcDbEntity
  8
1
100
AcDbLine
 10
1882.57536056422
 20
4081.154031839684
 30
0.0
 11
2403.57536056422
 21
4081.154031839684
 31
0.0
  0
LINE
  5
7CE1
330
19
100
AcDbEntity
  8
1
100
AcDbLine
 10
1763.57536056422
 20
4363.154031839686
 30
0.0
 11
1763.57536056422
 21
4406.154031839684
 31
0.0
  0
LINE
  5
7CE3
330
19
100
AcDbEntity
  8
1
100
AcDbLine
 10
3369.171436037816
 20
1930.677178549358
 30
0.0
 11
3369.171436037815
 21
1563.177178549358
 31
0.0
  0
LINE
  5
7CE4
330
19
100
AcDbEntity
  8
2
100
AcDbLine
 10
3335.671436037816
 20
2634.985787418635
 30
0.0
 11
3335.671436037816
 21
1323.677178549359
 31
0.0
  0
LINE
  5
7CE5
330
19
100
AcDbEntity
  8
1
100
AcDbLine
 10
3710.671436037816
 20
2555.677178549359
 30
0.0
 11
3710.671436037816
 21
1555.677178549359
 31
0.0
  0
LINE
  5
7CE6
330
19
100
AcDbEntity
  8
1
100
AcDbLine
 10
3321.419414624774
 20
1555.677178549359
 30
0.0
 11
3710.671436037816
 21
1555.677178549359
 31
0.0
  0
LINE
  5
7CE7
330
19
100
AcDbEntity
  8
1
100
AcDbLine
 10
3321.419414624774
 20
1563.177178549359
 30
0.0
 11
3321.419414624773
 21
1510.677178549359
 31
0.0
  0
LINE
  5
7CE8
330
19
100
AcDbEntity
  8
1
100
AcDbLine
 10
3753.671436037818
 20
1510.67717854936
 30
0.0
 11
3753.671436037816
 21
1435.677178549359
 31
0.0
  0
LINE
  5
7CEA
330
19
100
AcDbEntity
  8
1
100
AcDbLine
 10
3753.671436037816
 20
1398.677178549359
 30
0.0
 11
3753.671436037816
 21
1323.67717854936
 31
0.0
  0
DIMENSION
  5
7CEB
330
19
100
AcDbEntity
  8
3
100
AcDbDimension
280
     0
  2
*D13
 10
3335.671436037816
 20
2788.030114272274
 30
0.0
 11
3570.671436037816
 21
2843.74439998656
 31
0.0
 70
    32
  1
(<>)
 71
     5
 42
470.0
 73
     0
 74
     0
 75
     0
  3
MATSU
100
AcDbAlignedDimension
 13
3805.671436037816
 23
2102.777178549359
 33
0.0
 14
3335.671436037816
 24
2711.429930810286
 34
0.0
100
AcDbRotatedDimension
1001
ACAD
1000
DSTYLE
1002
{
1070
    40
1040
20.0
1002
}
  0
LINE
  5
7CEC
330
19
100
AcDbEntity
  8
1
100
AcDbLine
 10
3735.671436037816
 20
2012.77717854936
 30
0.0
 11
3795.671436037816
 21
2012.77717854936
 31
0.0
  0
LINE
  5
7CED
330
19
100
AcDbEntity
  8
1
100
AcDbLine
 10
3735.671436037816
 20
2112.77717854936
 30
0.0
 11
3795.671436037816
 21
2112.77717854936
 31
0.0
  0
DIMENSION
  5
7CEE
330
19
100
AcDbEntity
  8
3
100
AcDbDimension
280
     0
  2
*D14
 10
3913.084751702367
 20
1875.677178549359
 30
0.0
 11
3863.084751702366
 21
2155.67717854936
 31
0.0
 70
    32
  1
φ <>
 71
     5
 42
-1.0
 73
     0
 74
     0
 75
     0
  3
IGA
100
AcDbAlignedDimension
 13
3712.671436037814
 23
2435.677178549359
 33
0.0
 14
3712.671436037814
 24
1875.677178549359
 34
0.0
 50
90.0
100
AcDbRotatedDimension
1001
ACAD
1000
DSTYLE
1002
{
1070
   287
1070
     3
1070
    40
1040
20.0
1070
   143
1040
0.039
1070
   172
1070
     1
1070
   271
1070
     0
1070
   279
1070
     0
1070
   288
1070
     1
1002
}
  0
LINE
  5
7CEF
330
19
100
AcDbEntity
  8
1
100
AcDbLine
 10
2960.671436037816
 20
2555.677178549359
 30
0.0
 11
2960.671436037816
 21
1930.677178549359
 31
0.0
  0
LINE
  5
7CF3
330
19
100
AcDbEntity
  8
1
100
AcDbLine
 10
2950.671436037815
 20
2101.677178549359
 30
0.0
 11
2950.671436037815
 21
2001.677178549359
 31
0.0
  0
LINE
  5
7CF4
330
19
100
AcDbEntity
  8
1
100
AcDbLine
 10
2960.671436037814
 20
2173.677178549359
 30
0.0
 11
2960.671436037814
 21
2143.67717854936
 31
0.0
  0
LINE
  5
7CF5
330
19
100
AcDbEntity
  8
1
100
AcDbLine
 10
3735.671436037816
 20
2112.777178549359
 30
0.0
 11
3735.671436037816
 21
2012.77717854936
 31
0.0
  0
LINE
  5
7CF6
330
19
100
AcDbEntity
  8
1
100
AcDbLine
 10
3714.971436037815
 20
1845.677178549359
 30
0.0
 11
3712.671436037814
 21
1845.677178549359
 31
0.0
  0
DIMENSION
  5
7CF7
330
19
100
AcDbEntity
  8
3
100
AcDbDimension
280
     0
  2
*D15
 10
3710.671436037816
 20
2645.628973601263
 30
0.0
 11
3335.671436037816
 21
2685.628973601263
 31
0.0
 12
147.8522445966518
 22
1013.23791780811
 32
0.0
 70
    32
 71
     5
 42
-1.0
 73
     0
 74
     0
 75
     0
  3
MATSU
100
AcDbAlignedDimension
 13
2960.671436037816
 23
2555.677178549359
 33
0.0
 14
3710.671436037816
 24
2555.677178549359
 34
0.0
100
AcDbRotatedDimension
1001
ACAD
1000
DSTYLE
1002
{
1070
    40
1040
20.0
1002
}
  0
LINE
  5
7CF8
330
19
100
AcDbEntity
  8
1
100
AcDbLine
 10
2960.671436037816
 20
2555.677178549359
 30
0.0
 11
3710.671436037816
 21
2555.677178549359
 31
0.0
  0
LINE
  5
7CF9
330
19
100
AcDbEntity
  8
1
100
AcDbLine
 10
3805.671436037816
 20
2102.777178549359
 30
0.0
 11
3805.671436037816
 21
2022.77717854936
 31
0.0
  0
LINE
  5
7CFA
330
19
100
AcDbEntity
  8
1
100
AcDbLine
 10
3805.671436037816
 20
2022.77717854936
 30
0.0
 11
3795.671436037816
 21
2012.77717854936
 31
0.0
  0
LINE
  5
7CFB
330
19
100
AcDbEntity
  8
1
100
AcDbLine
 10
3795.671436037816
 20
2112.77717854936
 30
0.0
 11
3805.671436037816
 21
2102.777178549359
 31
0.0
  0
LINE
  5
7F35
330
19
100
AcDbEntity
  8
4
100
AcDbLine
 10
3700.0
 20
863.5838179509919
 30
0.0
 11
3700.0
 21
463.5838179509919
 31
0.0
  0
LINE
  5
7F36
330
19
100
AcDbEntity
  8
4
100
AcDbLine
 10
2300.0
 20
863.5838179509919
 30
0.0
 11
2300.0
 21
463.5838179509919
 31
0.0
  0
LINE
  5
7F37
330
19
100
AcDbEntity
  8
4
100
AcDbLine
 10
1300.0
 20
863.5838179509919
 30
0.0
 11
1300.0
 21
463.5838179509919
 31
0.0
  0
LINE
  5
7F3A
330
19
100
AcDbEntity
  8
4
100
AcDbLine
 10
1300.0
 20
463.5838179509919
 30
0.0
 11
3700.0
 21
463.5838179509919
 31
0.0
  0
LINE
  5
7F3B
330
19
100
AcDbEntity
  8
4
100
AcDbLine
 10
1300.0
 20
663.5838179509919
 30
0.0
 11
3700.0
 21
663.5838179509919
 31
0.0
  0
TEXT
  5
7F3C
330
19
100
AcDbEntity
  8
4
100
AcDbText
 10
1377.004161693803
 20
726.6698696842176
 30
0.0
 40
100.0
  1
機器名称
100
AcDbText
  0
TEXT
  5
7F3D
330
19
100
AcDbEntity
  8
4
100
AcDbText
 10
1372.516212049595
 20
506.8741314150138
 30
0.0
 40
100.0
  1
機器型番
100
AcDbText
  0
TEXT
  5
7F3E
330
19
100
AcDbEntity
  8
4
100
AcDbText
 10
2356.357070020983
 20
711.7380023793033
 30
0.0
 40
80.0
  1
ミツヤリミットロードファン
100
AcDbText
  0
TEXT
  5
7F3F
330
19
100
AcDbEntity
  8
4
100
AcDbText
 10
2373.308991170961
 20
497.9029865108786
 30
0.0
 40
100.0
  1
LL#3 1/2-5
100
AcDbText
  0
TEXT
  5
7F41
330
19
100
AcDbEntity
  8
4
100
AcDbText
 10
1630.036666913958
 20
4766.857682665031
 30
0.0
 40
108.0
  1
床置防振ベット
100
AcDbText
  0
TEXT
  5
7F42
330
19
100
AcDbEntity
  8
4
100
AcDbText
 10
632.3351866588928
 20
5067.761952398596
 30
0.0
 40
144.0
  1
遠心式両吸込両持リミットロードファン
100
AcDbText
  0
LINE
  5
7F43
330
19
100
AcDbEntity
  8
4
100
AcDbLine
 10
500.0
 20
4938.817508529609
 30
0.0
 11
3700.0
 21
4938.817508529609
 31
0.0
  0
LINE
  5
7F44
330
19
100
AcDbEntity
  8
4
100
AcDbLine
 10
500.0
 20
5338.81750852961
 30
0.0
 11
3700.0
 21
5338.81750852961
 31
0.0
  0
LINE
  5
7F45
330
19
100
AcDbEntity
  8
4
100
AcDbLine
 10
1300.0
 20
863.5838179509919
 30
0.0
 11
3700.0
 21
863.5838179509919
 31
0.0
  0
LINE
  5
7F46
330
19
100
AcDbEntity
  8
4
100
AcDbLine
 10
500.0
 20
5338.81750852961
 30
0.0
 11
500.0
 21
4938.817508529609
 31
0.0
  0
TEXT
  5
7F47
330
19
100
AcDbEntity
  8
4
100
AcDbText
 10
758.319002428554
 20
4764.638955092687
 30
0.0
 40
108.0
  1
右回転左横向
100
AcDbText
  0
TEXT
  5
7F48
330
19
100
AcDbEntity
  8
4
100
AcDbText
 10
2937.93911849858
 20
5412.122162990618
 30
0.0
 40
112.0
  1
No.
100
AcDbText
  0
TEXT
  5
7F49
330
19
100
AcDbEntity
  8
4
100
AcDbText
 10
2622.592125200026
 20
4766.857682665031
 30
0.0
 40
108.0
  1
縮尺：1/20
100
AcDbText
  0
LINE
  5
7F4A
330
19
100
AcDbEntity
  8
4
100
AcDbLine
 10
3700.0
 20
5338.81750852961
 30
0.0
 11
3700.0
 21
4938.817508529609
 31
0.0
  0
LINE
  5
7F4B
330
19
100
AcDbEntity
  8
4
100
AcDbLine
 10
4200.0
 20
5900.0
 30
0.0
 11
4200.0
 21
5900.0
 31
0.0
  0
LINE
  5
7F4C
330
19
100
AcDbEntity
  8
4
100
AcDbLine
 10
2881.234844719729
 20
5362.527166250802
 30
0.0
 11
2881.234844719729
 21
5573.304523099505
 31
0.0
  0
LINE
  5
7F4D
330
19
100
AcDbEntity
  8
4
100
AcDbLine
 10
2881.234844719729
 20
5573.304523099505
 30
0.0
 11
3700.0
 21
5573.304523099505
 31
0.0
  0
LINE
  5
7F4E
330
19
100
AcDbEntity
  8
4
100
AcDbLine
 10
3700.0
 20
5573.304523099505
 30
0.0
 11
3700.0
 21
5362.527166250802
 31
0.0
  0
LINE
  5
7F4F
330
19
100
AcDbEntity
  8
4
100
AcDbLine
 10
3700.0
 20
5362.527166250802
 30
0.0
 11
2881.234844719729
 21
5362.527166250802
 31
0.0
  0
LINE
  5
7F50
330
19
100
AcDbEntity
  8
4
100
AcDbLine
 10
0.0
 20
0.0
 30
0.0
 11
0.0
 21
5900.0
 31
0.0
  0
LINE
  5
7F51
330
19
100
AcDbEntity
  8
4
100
AcDbLine
 10
0.0
 20
5900.0
 30
0.0
 11
4200.0
 21
5900.0
 31
0.0
  0
LINE
  5
7F52
330
19
100
AcDbEntity
  8
4
100
AcDbLine
 10
4200.0
 20
5900.0
 30
0.0
 11
4200.0
 21
0.0
 31
0.0
  0
LINE
  5
7F53
330
19
100
AcDbEntity
  8
4
100
AcDbLine
 10
4200.0
 20
0.0
 30
0.0
 11
0.0
 21
0.0
 31
0.0
  0
DIMENSION
  5
8057
330
19
100
AcDbEntity
  8
3
100
AcDbDimension
280
     0
  2
*D16
 10
663.3260823076271
 20
1323.677178549359
 30
0.0
 11
613.3260823076268
 21
1175.105749977931
 31
0.0
 70
    32
 71
     5
 42
-1.0
 73
     0
 74
     0
 75
     0
  3
IGA
100
AcDbAlignedDimension
 13
1053.57536056422
 23
1398.677178549359
 33
0.0
 14
1053.57536056422
 24
1323.677178549359
 34
0.0
 50
90.0
100
AcDbRotatedDimension
1001
ACAD
1000
DSTYLE
1002
{
1070
   287
1070
     3
1070
    40
1040
20.0
1070
   143
1040
0.039
1070
   172
1070
     1
1070
   271
1070
     0
1070
   279
1070
     0
1070
   288
1070
     1
1070
     6
1000
DOT
1002
}
  0
DIMENSION
  5
80F9
330
19
100
AcDbEntity
  8
3
100
AcDbDimension
280
     0
  2
*D18
 10
1408.57536056422
 20
1195.389353828859
 30
0.0
 11
1231.07536056422
 21
1245.389353828859
 31
0.0
 70
    32
 71
     5
 42
-1.0
 73
     0
 74
     0
 75
     0
  3
IGA
100
AcDbAlignedDimension
 13
1053.57536056422
 23
1323.677178549359
 33
0.0
 14
1408.57536056422
 24
1323.677178549359
 34
0.0
100
AcDbRotatedDimension
1001
ACAD
1000
DSTYLE
1002
{
1070
   172
1070
     1
1070
    40
1040
20.0
1070
   271
1070
     0
1070
   143
1040
0.039
1002
}
  0
DIMENSION
  5
8106
330
19
100
AcDbEntity
  8
3
100
AcDbDimension
280
     0
  2
*D19
 10
2403.57536056422
 20
1195.389353828859
 30
0.0
 11
1906.07536056422
 21
1245.389353828859
 31
0.0
 70
    32
 71
     5
 42
-1.0
 73
     0
 74
     0
 75
     0
  3
IGA
100
AcDbAlignedDimension
 13
1408.57536056422
 23
1323.677178549359
 33
0.0
 14
2403.57536056422
 24
1323.677178549358
 34
0.0
100
AcDbRotatedDimension
1001
ACAD
1000
DSTYLE
1002
{
1070
   172
1070
     1
1070
    40
1040
20.0
1070
   271
1070
     0
1070
   143
1040
0.039
1002
}
  0
DIMENSION
  5
8113
330
19
100
AcDbEntity
  8
3
100
AcDbDimension
280
     0
  2
*D20
 10
3335.671436037816
 20
1195.389353828859
 30
0.0
 11
3082.171436037816
 21
1245.389353828859
 31
0.0
 70
    32
 71
     5
 42
-1.0
 73
     0
 74
     0
 75
     0
  3
IGA
100
AcDbAlignedDimension
 13
2828.671436037815
 23
1323.677178549359
 33
0.0
 14
3335.671436037816
 24
1323.677178549359
 34
0.0
100
AcDbRotatedDimension
1001
ACAD
1000
DSTYLE
1002
{
1070
   172
1070
     1
1070
    40
1040
20.0
1070
   271
1070
     0
1070
   143
1040
0.039
1002
}
  0
DIMENSION
  5
8120
330
19
100
AcDbEntity
  8
3
100
AcDbDimension
280
     0
  2
*D21
 10
3753.671436037816
 20
1195.389353828859
 30
0.0
 11
3544.671436037816
 21
1245.389353828859
 31
0.0
 70
    32
 71
     5
 42
-1.0
 73
     0
 74
     0
 75
     0
  3
IGA
100
AcDbAlignedDimension
 13
3335.671436037816
 23
1323.677178549359
 33
0.0
 14
3753.671436037816
 24
1323.67717854936
 34
0.0
100
AcDbRotatedDimension
1001
ACAD
1000
DSTYLE
1002
{
1070
   172
1070
     1
1070
    40
1040
20.0
1070
   271
1070
     0
1070
   143
1040
0.039
1002
}
  0
DIMENSION
  5
812F
330
19
100
AcDbEntity
  8
3
100
AcDbDimension
280
     0
  2
*D23
 10
664.9178026487097
 20
1435.677178549359
 30
0.0
 11
569.2035169344241
 21
1417.177178549359
 31
0.0
 70
    32
 71
     5
 42
-1.0
 73
     0
 74
     0
 75
     0
  3
IGA
100
AcDbAlignedDimension
 13
1053.57536056422
 23
1398.677178549359
 33
0.0
 14
1053.57536056422
 24
1435.677178549359
 34
0.0
 50
90.0
100
AcDbRotatedDimension
1001
ACAD
1000
DSTYLE
1002
{
1070
   172
1070
     1
1070
    76
1070
     1
1070
    75
1070
     1
1070
    40
1040
20.0
1070
     3
1000
(<>)
1070
   271
1070
     0
1070
     7
1000
_NONE
1070
     6
1000
_NONE
1070
   143
1040
0.039
1002
}
  0
DIMENSION
  5
813D
330
19
100
AcDbEntity
  8
3
100
AcDbDimension
280
     0
  2
*D24
 10
664.0018246842191
 20
2555.677178549359
 30
0.0
 11
614.0018246842191
 21
2355.677178549359
 31
0.0
 70
    32
 71
     5
 42
-1.0
 73
     0
 74
     0
 75
     0
  3
IGA
100
AcDbAlignedDimension
 13
954.9757359989623
 23
2155.677178549359
 33
0.0
 14
1489.081777763948
 24
2555.677178549359
 34
0.0
 50
90.0
100
AcDbRotatedDimension
1001
ACAD
1000
DSTYLE
1002
{
1070
   172
1070
     1
1070
    40
1040
20.0
1070
   271
1070
     0
1070
   143
1040
0.039
1002
}
  0
DIMENSION
  5
814A
330
19
100
AcDbEntity
  8
3
100
AcDbDimension
280
     0
  2
*D25
 10
490.1444665148883
 20
1323.677178549359
 30
0.0
 11
424.4301808006026
 21
1939.677178549359
 31
0.0
 70
    32
 71
     5
 42
-1.0
 73
     0
 74
     0
 75
     0
  3
IGA
100
AcDbAlignedDimension
 13
1479.081777763948
 23
2555.677178549359
 33
0.0
 14
1053.57536056422
 24
1323.677178549359
 34
0.0
 50
90.0
100
AcDbRotatedDimension
1001
ACAD
1000
DSTYLE
1002
{
1070
   172
1070
     1
1070
    40
1040
20.0
1070
     3
1000
(<>)
1070
   271
1070
     0
1070
   143
1040
0.039
1002
}
  0
ENDSEC
  0
SECTION
  2
OBJECTS
  0
DICTIONARY
  5
C
330
0
100
AcDbDictionary
281
     1
  3
ACAD_CIP_PREVIOUS_PRODUCT_INFO
350
821F
  3
ACAD_COLOR
350
8202
  3
ACAD_DETAILVIEWSTYLE
350
821B
  3
ACAD_GROUP
350
D
  3
ACAD_LAYOUT
350
8154
  3
ACAD_MATERIAL
350
81D0
  3
ACAD_MLEADERSTYLE
350
8217
  3
ACAD_MLINESTYLE
350
E
  3
ACAD_PLOTSETTINGS
350
8155
  3
ACAD_PLOTSTYLENAME
350
8152
  3
ACAD_SCALELIST
350
8205
  3
ACAD_SECTIONVIEWSTYLE
350
8219
  3
ACAD_TABLESTYLE
350
8203
  3
ACAD_VISUALSTYLE
350
81E9
  3
ACDB_RECOMPOSE_DATA
350
8280
  3
AcDbVariableDictionary
350
826F
  3
AcDsDecomposeData
350
8286
  0
DICTIONARY
  5
8263
330
2
100
AcDbDictionary
280
     1
281
     1
  3
ACAD_LAYERSTATES
360
8264
  0
DICTIONARY
  5
8256
330
F
100
AcDbDictionary
280
     1
281
     1
  3
ADSK_XREC_LAYER_RECONCILED
360
8257
  0
DICTIONARY
  5
8258
330
31
100
AcDbDictionary
280
     1
281
     1
  3
ADSK_XREC_LAYER_RECONCILED
360
8259
  0
DICTIONARY
  5
825A
330
76D0
100
AcDbDictionary
280
     1
281
     1
  3
ADSK_XREC_LAYER_RECONCILED
360
825B
  0
DICTIONARY
  5
825C
330
76D1
100
AcDbDictionary
280
     1
281
     1
  3
ADSK_XREC_LAYER_RECONCILED
360
825D
  0
DICTIONARY
  5
825E
330
76D2
100
AcDbDictionary
280
     1
281
     1
  3
ADSK_XREC_LAYER_RECONCILED
360
825F
  0
DICTIONARY
  5
8181
330
19
100
AcDbDictionary
280
     1
281
     1
  3
ACAD_LAYOUTSELFREF
360
8182
  0
DICTIONARY
  5
817F
330
16
100
AcDbDictionary
280
     1
281
     1
  3
ACAD_LAYOUTSELFREF
360
8180
  0
XRECORD
  5
821F
102
{ACAD_REACTORS
330
C
102
}
330
C
100
AcDbXrecord
280
     1
300
ACDLT
300
2023
300

  0
DICTIONARY
  5
8202
102
{ACAD_REACTORS
330
C
102
}
330
C
100
AcDbDictionary
281
     1
  0
DICTIONARY
  5
821B
102
{ACAD_REACTORS
330
C
102
}
330
C
100
AcDbDictionary
281
     1
  3
Metric50
350
821C
  0
DICTIONARY
  5
D
102
{ACAD_REACTORS
330
C
102
}
330
C
100
AcDbDictionary
281
     1
  0
DICTIONARY
  5
8154
102
{ACAD_REACTORS
330
C
102
}
330
C
100
AcDbDictionary
281
     1
  3
Model
350
8156
  3
ﾚｲｱｳﾄ1
350
8157
  0
DICTIONARY
  5
81D0
102
{ACAD_REACTORS
330
C
102
}
330
C
100
AcDbDictionary
281
     1
  3
ByBlock
350
81D9
  3
ByLayer
350
81D1
  3
Global
350
81E1
  0
DICTIONARY
  5
8217
102
{ACAD_REACTORS
330
C
102
}
330
C
100
AcDbDictionary
281
     1
  3
Standard
350
8218
  0
DICTIONARY
  5
E
102
{ACAD_REACTORS
330
C
102
}
330
C
100
AcDbDictionary
281
     1
  3
STANDARD
350
1C
  0
DICTIONARY
  5
8155
102
{ACAD_REACTORS
330
C
102
}
330
C
100
AcDbDictionary
281
     1
  0
ACDBDICTIONARYWDFLT
  5
8152
102
{ACAD_REACTORS
330
C
102
}
330
C
100
AcDbDictionary
281
     1
  3
Normal
350
8153
100
AcDbDictionaryWithDefault
340
8153
  0
DICTIONARY
  5
8205
102
{ACAD_REACTORS
330
C
102
}
330
C
100
AcDbDictionary
281
     1
  3
A0
350
8206
  3
A1
350
8207
  3
A2
350
8208
  3
A3
350
8209
  3
A4
350
820A
  3
A5
350
820B
  3
A6
350
820C
  3
A7
350
820D
  3
A8
350
820E
  3
A9
350
820F
  3
B0
350
8210
  3
B1
350
8211
  3
B2
350
8212
  3
B3
350
8213
  3
B4
350
8214
  3
B5
350
8215
  3
B6
350
8216
  0
DICTIONARY
  5
8219
102
{ACAD_REACTORS
330
C
102
}
330
C
100
AcDbDictionary
281
     1
  3
Metric50
350
821A
  0
DICTIONARY
  5
8203
102
{ACAD_REACTORS
330
C
102
}
330
C
100
AcDbDictionary
281
     1
  3
Standard
350
8204
  0
DICTIONARY
  5
81E9
102
{ACAD_REACTORS
330
C
102
}
330
C
100
AcDbDictionary
281
     1
  3
2dWireframe
350
81EF
  3
Basic
350
81EE
  3
Brighten
350
81F5
  3
ColorChange
350
81F9
  3
Conceptual
350
81F2
  3
Dim
350
81F4
  3
EdgeColorOff
350
8201
  3
Facepattern
350
81F8
  3
Flat
350
81EA
  3
FlatWithEdges
350
81EB
  3
Gouraud
350
81EC
  3
GouraudWithEdges
350
81ED
  3
Hidden
350
81F1
  3
JitterOff
350
81FF
  3
Linepattern
350
81F7
  3
OverhangOff
350
8200
  3
Realistic
350
81F3
  3
Shaded
350
81FE
  3
Shaded with edges
350
81FD
  3
Shades of Gray
350
81FA
  3
Sketchy
350
81FB
  3
Thicken
350
81F6
  3
Wireframe
350
81F0
  3
X-Ray
350
81FC
  0
XRECORD
  5
8280
102
{ACAD_REACTORS
330
C
102
}
330
C
100
AcDbXrecord
280
     1
 90
        1
330
7C26
330
7C35
330
7C4B
330
7CDE
330
8204
  0
DICTIONARY
  5
826F
102
{ACAD_REACTORS
330
C
102
}
330
C
100
AcDbDictionary
281
     1
  3
CANNOSCALE
350
8275
  3
CMLEADERSTYLE
350
8271
  3
CTABLESTYLE
350
8270
  3
CVIEWDETAILSTYLE
350
8272
  3
CVIEWSECTIONSTYLE
350
8273
  3
LAYEREVAL
350
8277
  3
LAYERNOTIFY
350
8278
  3
LIGHTINGUNITS
350
8276
  3
MARKUPASSISTMODE
350
827D
  3
MSLTSCALE
350
8274
  0
DICTIONARY
  5
8286
102
{ACAD_REACTORS
330
C
102
}
330
C
100
AcDbDictionary
281
     1
  3
AcDsRecords
350
8288
  3
AcDsSchemas
350
8287
1001
ACAD
1070
     2
  0
DICTIONARY
  5
8264
102
{ACAD_REACTORS
330
8263
102
}
330
8263
100
AcDbDictionary
281
     1
  0
XRECORD
  5
8257
102
{ACAD_REACTORS
330
8256
102
}
330
8256
100
AcDbXrecord
280
     1
290
     1
  0
XRECORD
  5
8259
102
{ACAD_REACTORS
330
8258
102
}
330
8258
100
AcDbXrecord
280
     1
290
     1
  0
XRECORD
  5
825B
102
{ACAD_REACTORS
330
825A
102
}
330
825A
100
AcDbXrecord
280
     1
290
     1
  0
XRECORD
  5
825D
102
{ACAD_REACTORS
330
825C
102
}
330
825C
100
AcDbXrecord
280
     1
290
     1
  0
XRECORD
  5
825F
102
{ACAD_REACTORS
330
825E
102
}
330
825E
100
AcDbXrecord
280
     1
290
     1
  0
XRECORD
  5
8182
102
{ACAD_REACTORS
330
8181
102
}
330
8181
100
AcDbXrecord
280
     1
340
19
  0
XRECORD
  5
8180
102
{ACAD_REACTORS
330
817F
102
}
330
817F
100
AcDbXrecord
280
     1
340
16
  0
ACDBDETAILVIEWSTYLE
  5
821C
102
{ACAD_XDICTIONARY
360
828B
102
}
102
{ACAD_REACTORS
330
821B
102
}
330
821B
100
AcDbModelDocViewStyle
 70
     0
  3
Metric50
290
     0
100
AcDbDetailViewStyle
 70
     0
 71
     0
 90
        3
 71
     1
340
10
 62
   256
 40
5.0
340
0
 62
   256
 40
5.0
300

 40
0.0
280
     1
 71
     2
340
15
 90
       25
 62
   256
 71
     3
340
10
 62
   256
 40
5.0
 90
        0
 40
15.0
 90
        1
300
%<\AcVar ViewDetailId>% (%<\AcVar ViewScale \f "%sn">%)
 71
     4
340
15
 90
       25
 62
   256
340
15
 90
       25
 62
   256
280
     0
  0
LAYOUT
  5
8156
102
{ACAD_REACTORS
330
8154
102
}
330
8154
100
AcDbPlotSettings
  1

  2
EPSON LP-9300
  4

  6

 40
0.0
 41
0.0
 42
0.0
 43
0.0
 44
0.0
 45
0.0
 46
0.0
 47
0.0
 48
0.0
 49
0.0
140
0.0
141
0.0
142
1.0
143
1.0
 70
  1712
 72
     0
 73
     0
 74
     0
  7

 75
     0
147
1.0
 76
     0
 77
     2
 78
   300
148
0.0
149
0.0
100
AcDbLayout
  1
Model
 70
     1
 71
     0
 10
0.0
 20
0.0
 11
12.0
 21
9.0
 12
0.0
 22
0.0
 32
0.0
 14
0.0
 24
0.0
 34
0.0
 15
0.0
 25
0.0
 35
0.0
146
0.0
 13
0.0
 23
0.0
 33
0.0
 16
1.0
 26
0.0
 36
0.0
 17
0.0
 27
1.0
 37
0.0
 76
     0
330
19
331
81CE
  0
LAYOUT
  5
8157
102
{ACAD_REACTORS
330
8154
102
}
330
8154
100
AcDbPlotSettings
  1

  2
EPSON LP-9300
  4

  6

 40
0.0
 41
0.0
 42
0.0
 43
0.0
 44
0.0
 45
0.0
 46
0.0
 47
0.0
 48
0.0
 49
0.0
140
0.0
141
0.0
142
1.0
143
1.0
 70
   688
 72
     0
 73
     0
 74
     5
  7

 75
    16
147
1.0
 76
     0
 77
     2
 78
   300
148
0.0
149
0.0
100
AcDbLayout
  1
ﾚｲｱｳﾄ1
 70
     1
 71
     1
 10
0.0
 20
0.0
 11
12.0
 21
9.0
 12
0.0
 22
0.0
 32
0.0
 14
1.000000000000000E+20
 24
1.000000000000000E+20
 34
1.000000000000000E+20
 15
-1.000000000000000E+20
 25
-1.000000000000000E+20
 35
-1.000000000000000E+20
146
0.0
 13
0.0
 23
0.0
 33
0.0
 16
1.0
 26
0.0
 36
0.0
 17
0.0
 27
1.0
 37
0.0
 76
     0
330
16
  0
MATERIAL
  5
81D9
102
{ACAD_XDICTIONARY
360
81DA
102
}
102
{ACAD_REACTORS
330
81D0
102
}
330
81D0
100
AcDbMaterial
  1
ByBlock
 72
     0
 43
0.0208333333333333
 43
0.0
 43
0.0
 43
0.0
 43
0.0
 43
0.0208333333333333
 43
0.0
 43
0.0
 43
0.0
 43
0.0
 43
1.0
 43
0.0
 43
0.0
 43
0.0
 43
0.0
 43
1.0
 77
     0
 47
0.0208333333333333
 47
0.0
 47
0.0
 47
0.0
 47
0.0
 47
0.0208333333333333
 47
0.0
 47
0.0
 47
0.0
 47
0.0
 47
1.0
 47
0.0
 47
0.0
 47
0.0
 47
0.0
 47
1.0
171
     0
 49
0.0208333333333333
 49
0.0
 49
0.0
 49
0.0
 49
0.0
 49
0.0208333333333333
 49
0.0
 49
0.0
 49
0.0
 49
0.0
 49
1.0
 49
0.0
 49
0.0
 49
0.0
 49
0.0
 49
1.0
175
     0
142
0.0208333333333333
142
0.0
142
0.0
142
0.0
142
0.0
142
0.0208333333333333
142
0.0
142
0.0
142
0.0
142
0.0
142
1.0
142
0.0
142
0.0
142
0.0
142
0.0
142
1.0
179
     0
144
0.0208333333333333
144
0.0
144
0.0
144
0.0
144
0.0
144
0.0208333333333333
144
0.0
144
0.0
144
0.0
144
0.0
144
1.0
144
0.0
144
0.0
144
0.0
144
0.0
144
1.0
147
0.0208333333333333
147
0.0
147
0.0
147
0.0
147
0.0
147
0.0208333333333333
147
0.0
147
0.0
147
0.0
147
0.0
147
1.0
147
0.0
147
0.0
147
0.0
147
0.0
147
1.0
  0
MATERIAL
  5
81D1
102
{ACAD_XDICTIONARY
360
81D2
102
}
102
{ACAD_REACTORS
330
81D0
102
}
330
81D0
100
AcDbMaterial
  1
ByLayer
 72
     0
 43
0.0208333333333333
 43
0.0
 43
0.0
 43
0.0
 43
0.0
 43
0.0208333333333333
 43
0.0
 43
0.0
 43
0.0
 43
0.0
 43
1.0
 43
0.0
 43
0.0
 43
0.0
 43
0.0
 43
1.0
 77
     0
 47
0.0208333333333333
 47
0.0
 47
0.0
 47
0.0
 47
0.0
 47
0.0208333333333333
 47
0.0
 47
0.0
 47
0.0
 47
0.0
 47
1.0
 47
0.0
 47
0.0
 47
0.0
 47
0.0
 47
1.0
171
     0
 49
0.0208333333333333
 49
0.0
 49
0.0
 49
0.0
 49
0.0
 49
0.0208333333333333
 49
0.0
 49
0.0
 49
0.0
 49
0.0
 49
1.0
 49
0.0
 49
0.0
 49
0.0
 49
0.0
 49
1.0
175
     0
142
0.0208333333333333
142
0.0
142
0.0
142
0.0
142
0.0
142
0.0208333333333333
142
0.0
142
0.0
142
0.0
142
0.0
142
1.0
142
0.0
142
0.0
142
0.0
142
0.0
142
1.0
179
     0
144
0.0208333333333333
144
0.0
144
0.0
144
0.0
144
0.0
144
0.0208333333333333
144
0.0
144
0.0
144
0.0
144
0.0
144
1.0
144
0.0
144
0.0
144
0.0
144
0.0
144
1.0
147
0.0208333333333333
147
0.0
147
0.0
147
0.0
147
0.0
147
0.0208333333333333
147
0.0
147
0.0
147
0.0
147
0.0
147
1.0
147
0.0
147
0.0
147
0.0
147
0.0
147
1.0
  0
MATERIAL
  5
81E1
102
{ACAD_XDICTIONARY
360
81E2
102
}
102
{ACAD_REACTORS
330
81D0
102
}
330
81D0
100
AcDbMaterial
  1
Global
 72
     0
 43
0.0208333333333333
 43
0.0
 43
0.0
 43
0.0
 43
0.0
 43
0.0208333333333333
 43
0.0
 43
0.0
 43
0.0
 43
0.0
 43
1.0
 43
0.0
 43
0.0
 43
0.0
 43
0.0
 43
1.0
 77
     0
 47
0.0208333333333333
 47
0.0
 47
0.0
 47
0.0
 47
0.0
 47
0.0208333333333333
 47
0.0
 47
0.0
 47
0.0
 47
0.0
 47
1.0
 47
0.0
 47
0.0
 47
0.0
 47
0.0
 47
1.0
171
     0
 49
0.0208333333333333
 49
0.0
 49
0.0
 49
0.0
 49
0.0
 49
0.0208333333333333
 49
0.0
 49
0.0
 49
0.0
 49
0.0
 49
1.0
 49
0.0
 49
0.0
 49
0.0
 49
0.0
 49
1.0
175
     0
142
0.0208333333333333
142
0.0
142
0.0
142
0.0
142
0.0
142
0.0208333333333333
142
0.0
142
0.0
142
0.0
142
0.0
142
1.0
142
0.0
142
0.0
142
0.0
142
0.0
142
1.0
179
     0
144
0.0208333333333333
144
0.0
144
0.0
144
0.0
144
0.0
144
0.0208333333333333
144
0.0
144
0.0
144
0.0
144
0.0
144
1.0
144
0.0
144
0.0
144
0.0
144
0.0
144
1.0
147
0.0208333333333333
147
0.0
147
0.0
147
0.0
147
0.0
147
0.0208333333333333
147
0.0
147
0.0
147
0.0
147
0.0
147
1.0
147
0.0
147
0.0
147
0.0
147
0.0
147
1.0
  0
MLEADERSTYLE
  5
8218
102
{ACAD_REACTORS
330
8217
102
}
330
8217
100
AcDbMLeaderStyle
179
     2
170
     2
171
     1
172
     0
 90
        2
 40
0.0
 41
0.0
173
     1
 91
-1056964608
340
13
 92
       -2
290
     1
 42
2.0
291
     1
 43
0.36
  3
Standard
 44
4.0
300

342
10
174
     1
178
     6
175
     1
176
     0
 93
-1056964608
 45
4.0
292
     0
297
     0
 46
4.0
 94
-1056964608
 47
1.0
 49
1.0
140
1.0
293
     1
141
0.0
294
     1
177
     0
142
1.0
295
     0
296
     0
143
0.125
271
     0
272
     9
273
     9
298
     1
  0
MLINESTYLE
  5
1C
102
{ACAD_REACTORS
330
E
102
}
330
E
100
AcDbMlineStyle
  2
STANDARD
 70
     0
  3

 62
     0
 51
90.0
 52
90.0
 71
     2
 49
0.5
 62
   256
  6
BYLAYER
 49
-0.5
 62
   256
  6
BYLAYER
  0
ACDBPLACEHOLDER
  5
8153
102
{ACAD_REACTORS
330
8152
102
}
330
8152
  0
SCALE
  5
8206
102
{ACAD_REACTORS
330
8205
102
}
330
8205
100
AcDbScale
 70
     0
300
1:1
140
1.0
141
1.0
290
     1
  0
SCALE
  5
8207
102
{ACAD_REACTORS
330
8205
102
}
330
8205
100
AcDbScale
 70
     0
300
1:2
140
1.0
141
2.0
290
     0
  0
SCALE
  5
8208
102
{ACAD_REACTORS
330
8205
102
}
330
8205
100
AcDbScale
 70
     0
300
1:4
140
1.0
141
4.0
290
     0
  0
SCALE
  5
8209
102
{ACAD_REACTORS
330
8205
102
}
330
8205
100
AcDbScale
 70
     0
300
1:5
140
1.0
141
5.0
290
     0
  0
SCALE
  5
820A
102
{ACAD_REACTORS
330
8205
102
}
330
8205
100
AcDbScale
 70
     0
300
1:8
140
1.0
141
8.0
290
     0
  0
SCALE
  5
820B
102
{ACAD_REACTORS
330
8205
102
}
330
8205
100
AcDbScale
 70
     0
300
1:10
140
1.0
141
10.0
290
     0
  0
SCALE
  5
820C
102
{ACAD_REACTORS
330
8205
102
}
330
8205
100
AcDbScale
 70
     0
300
1:16
140
1.0
141
16.0
290
     0
  0
SCALE
  5
820D
102
{ACAD_REACTORS
330
8205
102
}
330
8205
100
AcDbScale
 70
     0
300
1:20
140
1.0
141
20.0
290
     0
  0
SCALE
  5
820E
102
{ACAD_REACTORS
330
8205
102
}
330
8205
100
AcDbScale
 70
     0
300
1:30
140
1.0
141
30.0
290
     0
  0
SCALE
  5
820F
102
{ACAD_REACTORS
330
8205
102
}
330
8205
100
AcDbScale
 70
     0
300
1:40
140
1.0
141
40.0
290
     0
  0
SCALE
  5
8210
102
{ACAD_REACTORS
330
8205
102
}
330
8205
100
AcDbScale
 70
     0
300
1:50
140
1.0
141
50.0
290
     0
  0
SCALE
  5
8211
102
{ACAD_REACTORS
330
8205
102
}
330
8205
100
AcDbScale
 70
     0
300
1:100
140
1.0
141
100.0
290
     0
  0
SCALE
  5
8212
102
{ACAD_REACTORS
330
8205
102
}
330
8205
100
AcDbScale
 70
     0
300
2:1
140
2.0
141
1.0
290
     0
  0
SCALE
  5
8213
102
{ACAD_REACTORS
330
8205
102
}
330
8205
100
AcDbScale
 70
     0
300
4:1
140
4.0
141
1.0
290
     0
  0
SCALE
  5
8214
102
{ACAD_REACTORS
330
8205
102
}
330
8205
100
AcDbScale
 70
     0
300
8:1
140
8.0
141
1.0
290
     0
  0
SCALE
  5
8215
102
{ACAD_REACTORS
330
8205
102
}
330
8205
100
AcDbScale
 70
     0
300
10:1
140
10.0
141
1.0
290
     0
  0
SCALE
  5
8216
102
{ACAD_REACTORS
330
8205
102
}
330
8205
100
AcDbScale
 70
     0
300
100:1
140
100.0
141
1.0
290
     0
  0
ACDBSECTIONVIEWSTYLE
  5
821A
102
{ACAD_XDICTIONARY
360
8289
102
}
102
{ACAD_REACTORS
330
8219
102
}
330
8219
100
AcDbModelDocViewStyle
 70
     0
  3
Metric50
290
     0
100
AcDbSectionViewStyle
 70
     0
 71
     0
 90
      102
 71
     1
340
10
 62
   256
 40
5.0
340
0
340
0
 62
   256
 40
5.0
300
I, O, Q, S, X, Z
 40
10.0
 90
        0
 40
2.5
 90
        0
 71
     2
340
15
 90
       25
 62
   256
340
15
 90
       50
 62
   256
 40
5.0
 40
2.5
 40
5.0
 71
     3
340
10
 62
   256
 40
5.0
 90
        0
 40
15.0
 90
        1
300
%<\AcVar ViewSectionStartId>%-%<\AcVar ViewSectionEndId>% (%<\AcVar ViewScale \f "%sn">%)
 71
     4
 62
   256
 62
   257
300
ANSI31
 40
1.0
 90
        0
290
     0
290
     0
 90
        6
 40
0.0
 40
1.570796326794896
 40
0.2617993877991494
 40
1.308996938995747
 40
-0.2617993877991494
 40
1.832595714594046
  0
TABLESTYLE
  5
8204
102
{ACAD_XDICTIONARY
360
827E
102
}
102
{ACAD_REACTORS
330
8203
102
}
330
8203
100
AcDbTableStyle
280
     0
  3
Standard
 70
     0
 71
     0
 40
1.5
 41
1.5
280
     0
281
     0
  7
STANDARD
140
4.5
170
     2
 62
     0
 63
     7
283
     0
 90
      512
 91
        0
  1

274
    -2
284
     1
 64
     0
275
    -2
285
     1
 65
     0
276
    -2
286
     1
 66
     0
277
    -2
287
     1
 67
     0
278
    -2
288
     1
 68
     0
279
    -2
289
     1
 69
     0
  7
STANDARD
140
6.0
170
     5
 62
     0
 63
     7
283
     0
 90
      512
 91
        0
  1

274
    -2
284
     1
 64
     0
275
    -2
285
     1
 65
     0
276
    -2
286
     1
 66
     0
277
    -2
287
     1
 67
     0
278
    -2
288
     1
 68
     0
279
    -2
289
     1
 69
     0
  7
STANDARD
140
4.5
170
     5
 62
     0
 63
     7
283
     0
 90
      512
 91
        0
  1

274
    -2
284
     1
 64
     0
275
    -2
285
     1
 65
     0
276
    -2
286
     1
 66
     0
277
    -2
287
     1
 67
     0
278
    -2
288
     1
 68
     0
279
    -2
289
     1
 69
     0
  0
VISUALSTYLE
  5
81EF
102
{ACAD_REACTORS
330
81E9
102
}
330
81E9
100
AcDbVisualStyle
  2
2dWireframe
 70
     4
177
     3
291
     0
 70
    58
 90
        0
176
     1
 90
        2
176
     1
 90
        0
176
     1
 90
        0
176
     1
 40
0.6
176
     1
 40
30.0
176
     1
 62
     7
420
 16777215
176
     1
 90
        1
176
     1
 90
        4
176
     1
 62
     7
176
     1
 62
   257
176
     1
 90
        1
176
     1
 90
        1
176
     1
 40
1.0
176
     1
 90
        0
176
     1
 62
   257
176
     1
 40
1.0
176
     1
 90
        1
176
     1
 90
        6
176
     1
 90
        2
176
     1
 62
     7
176
     1
 90
        5
176
     1
 90
        0
176
     1
 90
        0
176
     1
290
     0
176
     1
 90
        1
176
     1
 40
0.0
176
     1
 90
        0
176
     1
290
     1
176
     1
290
     1
176
     1
290
     0
176
     1
290
     0
176
     1
290
     0
176
     1
290
     0
176
     1
290
     0
176
     1
290
     0
176
     1
290
     0
176
     1
 90
       50
176
     1
 40
0.0
176
     1
 40
1.0
176
     1
 90
        0
176
     1
 62
    18
420
        0
176
     1
 90
       50
176
     1
 90
        3
176
     1
 62
     5
420
      255
176
     1
290
     0
176
     1
 90
       50
176
     1
 90
       50
176
     1
 90
       50
176
     1
290
     0
176
     1
 90
       50
176
     1
 62
   256
176
     0
 40
1.0
176
     0
 90
        2
176
     1
  1
strokes_ogs.tif
176
     1
290
     0
176
     1
 40
1.0
176
     1
 40
1.0
176
     1
1001
ACAD
1000
AcDbSavedByObjectVersion
1070
     0
  0
VISUALSTYLE
  5
81EE
102
{ACAD_REACTORS
330
81E9
102
}
330
81E9
100
AcDbVisualStyle
  2
Basic
 70
     7
177
     3
291
     1
 70
    58
 90
        1
176
     1
 90
        0
176
     1
 90
        1
176
     1
 90
        0
176
     1
 40
0.6
176
     1
 40
30.0
176
     1
 62
     7
420
 16777215
176
     1
 90
        0
176
     1
 90
        4
176
     1
 62
     7
176
     1
 62
   257
176
     1
 90
        1
176
     1
 90
        1
176
     1
 40
1.0
176
     1
 90
        8
176
     1
 62
     7
176
     1
 40
1.0
176
     1
 90
        1
176
     1
 90
        6
176
     1
 90
        2
176
     1
 62
     7
176
     1
 90
        5
176
     1
 90
        0
176
     1
 90
        0
176
     1
290
     0
176
     1
 90
        1
176
     1
 40
0.0
176
     1
 90
        0
176
     1
290
     0
176
     1
290
     1
176
     1
290
     1
176
     1
290
     0
176
     1
290
     0
176
     1
290
     0
176
     1
290
     0
176
     1
290
     0
176
     1
290
     0
176
     1
 90
       50
176
     1
 40
0.0
176
     1
 40
1.0
176
     1
 90
        0
176
     1
 62
    18
420
        0
176
     1
 90
       50
176
     1
 90
        3
176
     1
 62
     5
420
      255
176
     1
290
     0
176
     1
 90
       50
176
     1
 90
       50
176
     1
 90
       50
176
     1
290
     0
176
     1
 90
       50
176
     1
 62
   256
176
     0
 40
1.0
176
     0
 90
        2
176
     1
  1
strokes_ogs.tif
176
     1
290
     0
176
     1
 40
1.0
176
     1
 40
1.0
176
     1
1001
ACAD
1000
AcDbSavedByObjectVersion
1070
     0
  0
VISUALSTYLE
  5
81F5
102
{ACAD_REACTORS
330
81E9
102
}
330
81E9
100
AcDbVisualStyle
  2
Brighten
 70
    12
177
     3
291
     1
 70
    58
 90
        2
176
     1
 90
        2
176
     1
 90
        0
176
     1
 90
        0
176
     1
 40
0.6
176
     1
 40
30.0
176
     1
 62
     7
420
 16777215
176
     1
 90
        1
176
     1
 90
        4
176
     1
 62
     7
176
     1
 62
   257
176
     1
 90
        1
176
     1
 90
        1
176
     1
 40
1.0
176
     1
 90
        8
176
     1
 62
     7
176
     1
 40
1.0
176
     1
 90
        1
176
     1
 90
        6
176
     1
 90
        2
176
     1
 62
     7
176
     1
 90
        5
176
     1
 90
        0
176
     1
 90
        0
176
     1
290
     0
176
     1
 90
        1
176
     1
 40
50.0
176
     1
 90
        0
176
     1
290
     0
176
     1
290
     1
176
     1
290
     1
176
     1
290
     0
176
     1
290
     0
176
     1
290
     0
176
     1
290
     0
176
     1
290
     0
176
     1
290
     0
176
     1
 90
       50
176
     1
 40
0.0
176
     1
 40
1.0
176
     1
 90
        0
176
     1
 62
    18
420
        0
176
     1
 90
       50
176
     1
 90
        3
176
     1
 62
     5
420
      255
176
     1
290
     0
176
     1
 90
       50
176
     1
 90
       50
176
     1
 90
       50
176
     1
290
     0
176
     1
 90
       50
176
     1
 62
   256
176
     0
 40
1.0
176
     0
 90
        2
176
     1
  1
strokes_ogs.tif
176
     1
290
     0
176
     1
 40
1.0
176
     1
 40
1.0
176
     1
1001
ACAD
1000
AcDbSavedByObjectVersion
1070
     0
  0
VISUALSTYLE
  5
81F9
102
{ACAD_REACTORS
330
81E9
102
}
330
81E9
100
AcDbVisualStyle
  2
ColorChange
 70
    16
177
     3
291
     1
 70
    58
 90
        2
176
     1
 90
        2
176
     1
 90
        3
176
     1
 90
        0
176
     1
 40
0.6
176
     1
 40
30.0
176
     1
 62
     8
420
  8421504
176
     1
 90
        1
176
     1
 90
        4
176
     1
 62
     7
176
     1
 62
   257
176
     1
 90
        1
176
     1
 90
        1
176
     1
 40
1.0
176
     1
 90
        8
176
     1
 62
     8
420
  8421504
176
     1
 40
1.0
176
     1
 90
        1
176
     1
 90
        6
176
     1
 90
        2
176
     1
 62
     7
176
     1
 90
        5
176
     1
 90
        0
176
     1
 90
        0
176
     1
290
     0
176
     1
 90
        1
176
     1
 40
0.0
176
     1
 90
        0
176
     1
290
     0
176
     1
290
     1
176
     1
290
     1
176
     1
290
     0
176
     1
290
     0
176
     1
290
     0
176
     1
290
     0
176
     1
290
     0
176
     1
290
     0
176
     1
 90
       50
176
     1
 40
0.0
176
     1
 40
1.0
176
     1
 90
        0
176
     1
 62
    18
420
        0
176
     1
 90
       50
176
     1
 90
        3
176
     1
 62
     5
420
      255
176
     1
290
     0
176
     1
 90
       50
176
     1
 90
       50
176
     1
 90
       50
176
     1
290
     0
176
     1
 90
       50
176
     1
 62
   256
176
     0
 40
1.0
176
     0
 90
        2
176
     1
  1
strokes_ogs.tif
176
     1
290
     0
176
     1
 40
1.0
176
     1
 40
1.0
176
     1
1001
ACAD
1000
AcDbSavedByObjectVersion
1070
     0
  0
VISUALSTYLE
  5
81F2
102
{ACAD_REACTORS
330
81E9
102
}
330
81E9
100
AcDbVisualStyle
  2
Conceptual
 70
     9
177
     3
291
     0
 70
    58
 90
        3
176
     1
 90
        2
176
     1
 90
        0
176
     1
 90
        0
176
     1
 40
0.6
176
     1
 40
30.0
176
     1
 62
     7
420
 16777215
176
     1
 90
        2
176
     1
 90
        2
176
     1
 62
     7
176
     1
 62
   257
176
     1
 90
        1
176
     1
 90
        1
176
     1
 40
179.0
176
     1
 90
        8
176
     1
 62
     7
176
     1
 40
1.0
176
     1
 90
        1
176
     1
 90
        6
176
     1
 90
        2
176
     1
 62
     7
176
     1
 90
        3
176
     1
 90
        0
176
     1
 90
        0
176
     1
290
     0
176
     1
 90
        1
176
     1
 40
0.0
176
     1
 90
        0
176
     1
290
     0
176
     1
290
     1
176
     1
290
     1
176
     1
290
     0
176
     1
290
     0
176
     1
290
     0
176
     1
290
     0
176
     1
290
     0
176
     1
290
     0
176
     1
 90
       50
176
     1
 40
0.0
176
     1
 40
1.0
176
     1
 90
        0
176
     1
 62
    18
420
        0
176
     1
 90
       50
176
     1
 90
        3
176
     1
 62
     5
420
      255
176
     1
290
     0
176
     1
 90
       50
176
     1
 90
       50
176
     1
 90
       50
176
     1
290
     0
176
     1
 90
       50
176
     1
 62
   256
176
     0
 40
1.0
176
     0
 90
        2
176
     1
  1
strokes_ogs.tif
176
     1
290
     0
176
     1
 40
1.0
176
     1
 40
1.0
176
     1
1001
ACAD
1000
AcDbSavedByObjectVersion
1070
     0
  0
VISUALSTYLE
  5
81F4
102
{ACAD_REACTORS
330
81E9
102
}
330
81E9
100
AcDbVisualStyle
  2
Dim
 70
    11
177
     3
291
     1
 70
    58
 90
        2
176
     1
 90
        2
176
     1
 90
        0
176
     1
 90
        0
176
     1
 40
0.6
176
     1
 40
30.0
176
     1
 62
     7
420
 16777215
176
     1
 90
        1
176
     1
 90
        4
176
     1
 62
     7
176
     1
 62
   257
176
     1
 90
        1
176
     1
 90
        1
176
     1
 40
1.0
176
     1
 90
        8
176
     1
 62
     7
176
     1
 40
1.0
176
     1
 90
        1
176
     1
 90
        6
176
     1
 90
        2
176
     1
 62
     7
176
     1
 90
        5
176
     1
 90
        0
176
     1
 90
        0
176
     1
290
     0
176
     1
 90
        1
176
     1
 40
-50.0
176
     1
 90
        0
176
     1
290
     0
176
     1
290
     1
176
     1
290
     1
176
     1
290
     0
176
     1
290
     0
176
     1
290
     0
176
     1
290
     0
176
     1
290
     0
176
     1
290
     0
176
     1
 90
       50
176
     1
 40
0.0
176
     1
 40
1.0
176
     1
 90
        0
176
     1
 62
    18
420
        0
176
     1
 90
       50
176
     1
 90
        3
176
     1
 62
     5
420
      255
176
     1
290
     0
176
     1
 90
       50
176
     1
 90
       50
176
     1
 90
       50
176
     1
290
     0
176
     1
 90
       50
176
     1
 62
   256
176
     0
 40
1.0
176
     0
 90
        2
176
     1
  1
strokes_ogs.tif
176
     1
290
     0
176
     1
 40
1.0
176
     1
 40
1.0
176
     1
1001
ACAD
1000
AcDbSavedByObjectVersion
1070
     0
  0
VISUALSTYLE
  5
8201
102
{ACAD_REACTORS
330
81E9
102
}
330
81E9
100
AcDbVisualStyle
  2
EdgeColorOff
 70
    22
177
     3
291
     1
 70
    58
 90
        2
176
     0
 90
        2
176
     0
 90
        0
176
     0
 90
        0
176
     0
 40
0.6
176
     0
 40
30.0
176
     0
 62
     7
420
 16777215
176
     0
 90
        1
176
     0
 90
        4
176
     0
 62
     7
176
     0
 62
   257
176
     0
 90
        1
176
     0
 90
        1
176
     0
 40
1.0
176
     0
 90
        8
176
     2
 62
     7
176
     0
 40
1.0
176
     0
 90
        1
176
     0
 90
        6
176
     0
 90
        2
176
     0
 62
     7
176
     0
 90
        5
176
     0
 90
        0
176
     0
 90
        0
176
     0
290
     0
176
     0
 90
        1
176
     0
 40
0.0
176
     0
 90
        0
176
     0
290
     0
176
     0
290
     1
176
     0
290
     1
176
     0
290
     0
176
     0
290
     0
176
     0
290
     0
176
     0
290
     0
176
     0
290
     0
176
     0
290
     0
176
     0
 90
       50
176
     0
 40
0.0
176
     0
 40
1.0
176
     0
 90
        0
176
     0
 62
    18
420
        0
176
     0
 90
       50
176
     0
 90
        3
176
     0
 62
     5
420
      255
176
     0
290
     0
176
     0
 90
       50
176
     0
 90
       50
176
     0
 90
       50
176
     0
290
     0
176
     0
 90
       50
176
     0
 62
   256
176
     0
 40
1.0
176
     0
 90
        2
176
     0
  1
strokes_ogs.tif
176
     0
290
     0
176
     0
 40
1.0
176
     0
 40
1.0
176
     0
1001
ACAD
1000
AcDbSavedByObjectVersion
1070
     0
  0
VISUALSTYLE
  5
81F8
102
{ACAD_REACTORS
330
81E9
102
}
330
81E9
100
AcDbVisualStyle
  2
Facepattern
 70
    15
177
     3
291
     1
 70
    58
 90
        2
176
     1
 90
        2
176
     1
 90
        0
176
     1
 90
        0
176
     1
 40
0.6
176
     1
 40
30.0
176
     1
 62
     7
420
 16777215
176
     1
 90
        1
176
     1
 90
        4
176
     1
 62
     7
176
     1
 62
   257
176
     1
 90
        1
176
     1
 90
        1
176
     1
 40
1.0
176
     1
 90
        8
176
     1
 62
     7
176
     1
 40
1.0
176
     1
 90
        1
176
     1
 90
        6
176
     1
 90
        2
176
     1
 62
     7
176
     1
 90
        5
176
     1
 90
        0
176
     1
 90
        0
176
     1
290
     0
176
     1
 90
        1
176
     1
 40
0.0
176
     1
 90
        0
176
     1
290
     0
176
     1
290
     1
176
     1
290
     1
176
     1
290
     0
176
     1
290
     0
176
     1
290
     0
176
     1
290
     0
176
     1
290
     0
176
     1
290
     0
176
     1
 90
       50
176
     1
 40
0.0
176
     1
 40
1.0
176
     1
 90
        0
176
     1
 62
    18
420
        0
176
     1
 90
       50
176
     1
 90
        3
176
     1
 62
     5
420
      255
176
     1
290
     0
176
     1
 90
       50
176
     1
 90
       50
176
     1
 90
       50
176
     1
290
     0
176
     1
 90
       50
176
     1
 62
   256
176
     0
 40
1.0
176
     0
 90
        2
176
     1
  1
strokes_ogs.tif
176
     1
290
     0
176
     1
 40
1.0
176
     1
 40
1.0
176
     1
1001
ACAD
1000
AcDbSavedByObjectVersion
1070
     0
  0
VISUALSTYLE
  5
81EA
102
{ACAD_REACTORS
330
81E9
102
}
330
81E9
100
AcDbVisualStyle
  2
Flat
 70
     0
177
     3
291
     1
 70
    58
 90
        2
176
     1
 90
        1
176
     1
 90
        1
176
     1
 90
        2
176
     1
 40
0.6
176
     1
 40
30.0
176
     1
 62
     7
420
 16777215
176
     1
 90
        0
176
     1
 90
        0
176
     1
 62
     7
176
     1
 62
   257
176
     1
 90
        1
176
     1
 90
        1
176
     1
 40
1.0
176
     1
 90
        8
176
     1
 62
     7
176
     1
 40
1.0
176
     1
 90
        1
176
     1
 90
        6
176
     1
 90
        2
176
     1
 62
     7
176
     1
 90
        5
176
     1
 90
        0
176
     1
 90
        0
176
     1
290
     0
176
     1
 90
       13
176
     1
 40
0.0
176
     1
 90
        0
176
     1
290
     0
176
     1
290
     1
176
     1
290
     1
176
     1
290
     0
176
     1
290
     0
176
     1
290
     0
176
     1
290
     0
176
     1
290
     0
176
     1
290
     0
176
     1
 90
       50
176
     1
 40
0.0
176
     1
 40
1.0
176
     1
 90
        0
176
     1
 62
    18
420
        0
176
     1
 90
       50
176
     1
 90
        3
176
     1
 62
     5
420
      255
176
     1
290
     0
176
     1
 90
       50
176
     1
 90
       50
176
     1
 90
       50
176
     1
290
     0
176
     1
 90
       50
176
     1
 62
   256
176
     0
 40
1.0
176
     0
 90
        2
176
     1
  1
strokes_ogs.tif
176
     1
290
     0
176
     1
 40
1.0
176
     1
 40
1.0
176
     1
1001
ACAD
1000
AcDbSavedByObjectVersion
1070
     0
  0
VISUALSTYLE
  5
81EB
102
{ACAD_REACTORS
330
81E9
102
}
330
81E9
100
AcDbVisualStyle
  2
FlatWithEdges
 70
     1
177
     3
291
     1
 70
    58
 90
        2
176
     1
 90
        1
176
     1
 90
        1
176
     1
 90
        2
176
     1
 40
0.6
176
     1
 40
30.0
176
     1
 62
     7
420
 16777215
176
     1
 90
        1
176
     1
 90
        0
176
     1
 62
     7
176
     1
 62
   257
176
     1
 90
        1
176
     1
 90
        1
176
     1
 40
1.0
176
     1
 90
        0
176
     1
 62
   257
176
     1
 40
1.0
176
     1
 90
        1
176
     1
 90
        6
176
     1
 90
        2
176
     1
 62
     7
176
     1
 90
        5
176
     1
 90
        0
176
     1
 90
        0
176
     1
290
     0
176
     1
 90
       13
176
     1
 40
0.0
176
     1
 90
        0
176
     1
290
     0
176
     1
290
     1
176
     1
290
     1
176
     1
290
     0
176
     1
290
     0
176
     1
290
     0
176
     1
290
     0
176
     1
290
     0
176
     1
290
     0
176
     1
 90
       50
176
     1
 40
0.0
176
     1
 40
1.0
176
     1
 90
        0
176
     1
 62
    18
420
        0
176
     1
 90
       50
176
     1
 90
        3
176
     1
 62
     5
420
      255
176
     1
290
     0
176
     1
 90
       50
176
     1
 90
       50
176
     1
 90
       50
176
     1
290
     0
176
     1
 90
       50
176
     1
 62
   256
176
     0
 40
1.0
176
     0
 90
        2
176
     1
  1
strokes_ogs.tif
176
     1
290
     0
176
     1
 40
1.0
176
     1
 40
1.0
176
     1
1001
ACAD
1000
AcDbSavedByObjectVersion
1070
     0
  0
VISUALSTYLE
  5
81EC
102
{ACAD_REACTORS
330
81E9
102
}
330
81E9
100
AcDbVisualStyle
  2
Gouraud
 70
     2
177
     3
291
     1
 70
    58
 90
        2
176
     1
 90
        2
176
     1
 90
        1
176
     1
 90
        2
176
     1
 40
0.6
176
     1
 40
30.0
176
     1
 62
     7
420
 16777215
176
     1
 90
        0
176
     1
 90
        0
176
     1
 62
     7
176
     1
 62
   257
176
     1
 90
        1
176
     1
 90
        1
176
     1
 40
1.0
176
     1
 90
        0
176
     1
 62
     7
176
     1
 40
1.0
176
     1
 90
        1
176
     1
 90
        6
176
     1
 90
        2
176
     1
 62
     7
176
     1
 90
        5
176
     1
 90
        0
176
     1
 90
        0
176
     1
290
     0
176
     1
 90
       13
176
     1
 40
0.0
176
     1
 90
        0
176
     1
290
     0
176
     1
290
     1
176
     1
290
     1
176
     1
290
     0
176
     1
290
     0
176
     1
290
     0
176
     1
290
     0
176
     1
290
     0
176
     1
290
     0
176
     1
 90
       50
176
     1
 40
0.0
176
     1
 40
1.0
176
     1
 90
        0
176
     1
 62
    18
420
        0
176
     1
 90
       50
176
     1
 90
        3
176
     1
 62
     5
420
      255
176
     1
290
     0
176
     1
 90
       50
176
     1
 90
       50
176
     1
 90
       50
176
     1
290
     0
176
     1
 90
       50
176
     1
 62
   256
176
     0
 40
1.0
176
     0
 90
        2
176
     1
  1
strokes_ogs.tif
176
     1
290
     0
176
     1
 40
1.0
176
     1
 40
1.0
176
     1
1001
ACAD
1000
AcDbSavedByObjectVersion
1070
     0
  0
VISUALSTYLE
  5
81ED
102
{ACAD_REACTORS
330
81E9
102
}
330
81E9
100
AcDbVisualStyle
  2
GouraudWithEdges
 70
     3
177
     3
291
     1
 70
    58
 90
        2
176
     1
 90
        2
176
     1
 90
        1
176
     1
 90
        2
176
     1
 40
0.6
176
     1
 40
30.0
176
     1
 62
     7
420
 16777215
176
     1
 90
        1
176
     1
 90
        0
176
     1
 62
     7
176
     1
 62
   257
176
     1
 90
        1
176
     1
 90
        1
176
     1
 40
1.0
176
     1
 90
        0
176
     1
 62
   257
176
     1
 40
1.0
176
     1
 90
        1
176
     1
 90
        6
176
     1
 90
        2
176
     1
 62
     7
176
     1
 90
        5
176
     1
 90
        0
176
     1
 90
        0
176
     1
290
     0
176
     1
 90
       13
176
     1
 40
0.0
176
     1
 90
        0
176
     1
290
     0
176
     1
290
     1
176
     1
290
     1
176
     1
290
     0
176
     1
290
     0
176
     1
290
     0
176
     1
290
     0
176
     1
290
     0
176
     1
290
     0
176
     1
 90
       50
176
     1
 40
0.0
176
     1
 40
1.0
176
     1
 90
        0
176
     1
 62
    18
420
        0
176
     1
 90
       50
176
     1
 90
        3
176
     1
 62
     5
420
      255
176
     1
290
     0
176
     1
 90
       50
176
     1
 90
       50
176
     1
 90
       50
176
     1
290
     0
176
     1
 90
       50
176
     1
 62
   256
176
     0
 40
1.0
176
     0
 90
        2
176
     1
  1
strokes_ogs.tif
176
     1
290
     0
176
     1
 40
1.0
176
     1
 40
1.0
176
     1
1001
ACAD
1000
AcDbSavedByObjectVersion
1070
     0
  0
VISUALSTYLE
  5
81F1
102
{ACAD_REACTORS
330
81E9
102
}
330
81E9
100
AcDbVisualStyle
  2
Hidden
 70
     6
177
     3
291
     0
 70
    58
 90
        1
176
     1
 90
        2
176
     1
 90
        2
176
     1
 90
        0
176
     1
 40
0.6
176
     1
 40
30.0
176
     1
 62
     7
420
 16777215
176
     1
 90
        2
176
     1
 90
        2
176
     1
 62
     7
176
     1
 62
   257
176
     1
 90
        2
176
     1
 90
        1
176
     1
 40
40.0
176
     1
 90
        0
176
     1
 62
   257
176
     1
 40
1.0
176
     1
 90
        1
176
     1
 90
        6
176
     1
 90
        2
176
     1
 62
     7
176
     1
 90
        3
176
     1
 90
        0
176
     1
 90
        0
176
     1
290
     0
176
     1
 90
        1
176
     1
 40
0.0
176
     1
 90
        0
176
     1
290
     0
176
     1
290
     1
176
     1
290
     1
176
     1
290
     0
176
     1
290
     0
176
     1
290
     0
176
     1
290
     0
176
     1
290
     0
176
     1
290
     0
176
     1
 90
       50
176
     1
 40
0.0
176
     1
 40
1.0
176
     1
 90
        0
176
     1
 62
    18
420
        0
176
     1
 90
       50
176
     1
 90
        3
176
     1
 62
     5
420
      255
176
     1
290
     0
176
     1
 90
       50
176
     1
 90
       50
176
     1
 90
       50
176
     1
290
     0
176
     1
 90
       50
176
     1
 62
   256
176
     0
 40
1.0
176
     0
 90
        2
176
     1
  1
strokes_ogs.tif
176
     1
290
     0
176
     1
 40
1.0
176
     1
 40
1.0
176
     1
1001
ACAD
1000
AcDbSavedByObjectVersion
1070
     0
  0
VISUALSTYLE
  5
81FF
102
{ACAD_REACTORS
330
81E9
102
}
330
81E9
100
AcDbVisualStyle
  2
JitterOff
 70
    20
177
     3
291
     1
 70
    58
 90
        2
176
     0
 90
        2
176
     0
 90
        0
176
     0
 90
        0
176
     0
 40
0.6
176
     0
 40
30.0
176
     0
 62
     7
420
 16777215
176
     0
 90
        1
176
     0
 90
        4
176
     0
 62
     7
176
     0
 62
   257
176
     0
 90
        1
176
     0
 90
        1
176
     0
 40
1.0
176
     0
 90
       10
176
     2
 62
     7
176
     0
 40
1.0
176
     0
 90
        1
176
     0
 90
        6
176
     0
 90
        2
176
     0
 62
     7
176
     0
 90
        5
176
     0
 90
        0
176
     0
 90
        0
176
     0
290
     0
176
     0
 90
        1
176
     0
 40
0.0
176
     0
 90
        0
176
     0
290
     0
176
     0
290
     1
176
     0
290
     1
176
     0
290
     0
176
     0
290
     0
176
     0
290
     0
176
     0
290
     0
176
     0
290
     0
176
     0
290
     0
176
     0
 90
       50
176
     0
 40
0.0
176
     0
 40
1.0
176
     0
 90
        0
176
     0
 62
    18
420
        0
176
     0
 90
       50
176
     0
 90
        3
176
     0
 62
     5
420
      255
176
     0
290
     0
176
     0
 90
       50
176
     0
 90
       50
176
     0
 90
       50
176
     0
290
     0
176
     0
 90
       50
176
     0
 62
   256
176
     0
 40
1.0
176
     0
 90
        2
176
     0
  1
strokes_ogs.tif
176
     0
290
     0
176
     0
 40
1.0
176
     0
 40
1.0
176
     0
1001
ACAD
1000
AcDbSavedByObjectVersion
1070
     0
  0
VISUALSTYLE
  5
81F7
102
{ACAD_REACTORS
330
81E9
102
}
330
81E9
100
AcDbVisualStyle
  2
Linepattern
 70
    14
177
     3
291
     1
 70
    58
 90
        2
176
     1
 90
        2
176
     1
 90
        0
176
     1
 90
        0
176
     1
 40
0.6
176
     1
 40
30.0
176
     1
 62
     7
420
 16777215
176
     1
 90
        1
176
     1
 90
        4
176
     1
 62
     7
176
     1
 62
   257
176
     1
 90
        7
176
     1
 90
        7
176
     1
 40
1.0
176
     1
 90
        8
176
     1
 62
     7
176
     1
 40
1.0
176
     1
 90
        1
176
     1
 90
        6
176
     1
 90
        2
176
     1
 62
     7
176
     1
 90
        5
176
     1
 90
        0
176
     1
 90
        0
176
     1
290
     0
176
     1
 90
        1
176
     1
 40
0.0
176
     1
 90
        0
176
     1
290
     0
176
     1
290
     1
176
     1
290
     1
176
     1
290
     0
176
     1
290
     0
176
     1
290
     0
176
     1
290
     0
176
     1
290
     0
176
     1
290
     0
176
     1
 90
       50
176
     1
 40
0.0
176
     1
 40
1.0
176
     1
 90
        0
176
     1
 62
    18
420
        0
176
     1
 90
       50
176
     1
 90
        3
176
     1
 62
     5
420
      255
176
     1
290
     0
176
     1
 90
       50
176
     1
 90
       50
176
     1
 90
       50
176
     1
290
     0
176
     1
 90
       50
176
     1
 62
   256
176
     0
 40
1.0
176
     0
 90
        2
176
     1
  1
strokes_ogs.tif
176
     1
290
     0
176
     1
 40
1.0
176
     1
 40
1.0
176
     1
1001
ACAD
1000
AcDbSavedByObjectVersion
1070
     0
  0
VISUALSTYLE
  5
8200
102
{ACAD_REACTORS
330
81E9
102
}
330
81E9
100
AcDbVisualStyle
  2
OverhangOff
 70
    21
177
     3
291
     1
 70
    58
 90
        2
176
     0
 90
        2
176
     0
 90
        0
176
     0
 90
        0
176
     0
 40
0.6
176
     0
 40
30.0
176
     0
 62
     7
420
 16777215
176
     0
 90
        1
176
     0
 90
        4
176
     0
 62
     7
176
     0
 62
   257
176
     0
 90
        1
176
     0
 90
        1
176
     0
 40
1.0
176
     0
 90
        9
176
     2
 62
     7
176
     0
 40
1.0
176
     0
 90
        1
176
     0
 90
        6
176
     0
 90
        2
176
     0
 62
     7
176
     0
 90
        5
176
     0
 90
        0
176
     0
 90
        0
176
     0
290
     0
176
     0
 90
        1
176
     0
 40
0.0
176
     0
 90
        0
176
     0
290
     0
176
     0
290
     1
176
     0
290
     1
176
     0
290
     0
176
     0
290
     0
176
     0
290
     0
176
     0
290
     0
176
     0
290
     0
176
     0
290
     0
176
     0
 90
       50
176
     0
 40
0.0
176
     0
 40
1.0
176
     0
 90
        0
176
     0
 62
    18
420
        0
176
     0
 90
       50
176
     0
 90
        3
176
     0
 62
     5
420
      255
176
     0
290
     0
176
     0
 90
       50
176
     0
 90
       50
176
     0
 90
       50
176
     0
290
     0
176
     0
 90
       50
176
     0
 62
   256
176
     0
 40
1.0
176
     0
 90
        2
176
     0
  1
strokes_ogs.tif
176
     0
290
     0
176
     0
 40
1.0
176
     0
 40
1.0
176
     0
1001
ACAD
1000
AcDbSavedByObjectVersion
1070
     0
  0
VISUALSTYLE
  5
81F3
102
{ACAD_REACTORS
330
81E9
102
}
330
81E9
100
AcDbVisualStyle
  2
Realistic
 70
     8
177
     3
291
     0
 70
    58
 90
        2
176
     1
 90
        3
176
     1
 90
        0
176
     1
 90
        2
176
     1
 40
0.6
176
     1
 40
30.0
176
     1
 62
     7
420
 16777215
176
     1
 90
        0
176
     1
 90
        0
176
     1
 62
     7
176
     1
 62
   257
176
     1
 90
        1
176
     1
 90
        1
176
     1
 40
1.0
176
     1
 90
        8
176
     1
 62
   257
176
     1
 40
1.0
176
     1
 90
        1
176
     1
 90
        6
176
     1
 90
        2
176
     1
 62
     7
176
     1
 90
        3
176
     1
 90
        0
176
     1
 90
        0
176
     1
290
     0
176
     1
 90
       13
176
     1
 40
0.0
176
     1
 90
        0
176
     1
290
     0
176
     1
290
     1
176
     1
290
     1
176
     1
290
     0
176
     1
290
     0
176
     1
290
     0
176
     1
290
     0
176
     1
290
     0
176
     1
290
     0
176
     1
 90
       50
176
     1
 40
0.0
176
     1
 40
1.0
176
     1
 90
        0
176
     1
 62
    18
420
        0
176
     1
 90
       50
176
     1
 90
        3
176
     1
 62
     5
420
      255
176
     1
290
     0
176
     1
 90
       50
176
     1
 90
       50
176
     1
 90
       50
176
     1
290
     0
176
     1
 90
       50
176
     1
 62
   256
176
     0
 40
1.0
176
     0
 90
        2
176
     1
  1
strokes_ogs.tif
176
     1
290
     0
176
     1
 40
1.0
176
     1
 40
1.0
176
     1
1001
ACAD
1000
AcDbSavedByObjectVersion
1070
     0
  0
VISUALSTYLE
  5
81FE
102
{ACAD_REACTORS
330
81E9
102
}
330
81E9
100
AcDbVisualStyle
  2
Shaded
 70
    27
177
     3
291
     0
 70
    58
 90
        2
176
     1
 90
        2
176
     1
 90
        1
176
     1
 90
        2
176
     1
 40
0.6
176
     1
 40
30.0
176
     1
 62
     7
420
 16777215
176
     1
 90
        0
176
     1
 90
        4
176
     1
 62
     7
176
     1
 62
   257
176
     1
 90
        1
176
     1
 90
        1
176
     1
 40
1.0
176
     1
 90
        8
176
     1
 62
   257
176
     1
 40
1.0
176
     1
 90
        1
176
     1
 90
        6
176
     1
 90
        2
176
     1
 62
     8
420
  7895160
176
     1
 90
        3
176
     1
 90
        0
176
     1
 90
        0
176
     1
290
     0
176
     1
 90
        5
176
     1
 40
0.0
176
     1
 90
        0
176
     1
290
     0
176
     1
290
     1
176
     1
290
     1
176
     1
290
     0
176
     1
290
     0
176
     1
290
     0
176
     1
290
     0
176
     1
290
     0
176
     1
290
     0
176
     1
 90
       50
176
     1
 40
0.0
176
     1
 40
1.0
176
     1
 90
        0
176
     1
 62
    18
420
        0
176
     1
 90
       50
176
     1
 90
        3
176
     1
 62
     5
420
      255
176
     1
290
     0
176
     1
 90
       50
176
     1
 90
       50
176
     1
 90
       50
176
     1
290
     0
176
     1
 90
       50
176
     1
 62
   256
176
     0
 40
1.0
176
     0
 90
        2
176
     1
  1
strokes_ogs.tif
176
     1
290
     0
176
     1
 40
1.0
176
     1
 40
1.0
176
     1
1001
ACAD
1000
AcDbSavedByObjectVersion
1070
     0
  0
VISUALSTYLE
  5
81FD
102
{ACAD_REACTORS
330
81E9
102
}
330
81E9
100
AcDbVisualStyle
  2
Shaded with edges
 70
    26
177
     3
291
     0
 70
    58
 90
        2
176
     1
 90
        2
176
     1
 90
        1
176
     1
 90
        2
176
     1
 40
0.6
176
     1
 40
30.0
176
     1
 62
     7
420
 16777215
176
     1
 90
        1
176
     1
 90
        2
176
     1
 62
     7
176
     1
 62
   257
176
     1
 90
        2
176
     1
 90
        1
176
     1
 40
1.0
176
     1
 90
        8
176
     1
 62
   257
176
     1
 40
1.0
176
     1
 90
        1
176
     1
 90
        6
176
     1
 90
        2
176
     1
 62
     7
176
     1
 90
        3
176
     1
 90
        0
176
     1
 90
        0
176
     1
290
     0
176
     1
 90
        5
176
     1
 40
0.0
176
     1
 90
        0
176
     1
290
     0
176
     1
290
     1
176
     1
290
     1
176
     1
290
     0
176
     1
290
     0
176
     1
290
     0
176
     1
290
     0
176
     1
290
     0
176
     1
290
     0
176
     1
 90
       50
176
     1
 40
0.0
176
     1
 40
1.0
176
     1
 90
        0
176
     1
 62
    18
420
        0
176
     1
 90
       50
176
     1
 90
        3
176
     1
 62
     5
420
      255
176
     1
290
     0
176
     1
 90
       50
176
     1
 90
       50
176
     1
 90
       50
176
     1
290
     0
176
     1
 90
       50
176
     1
 62
   256
176
     0
 40
1.0
176
     0
 90
        2
176
     1
  1
strokes_ogs.tif
176
     1
290
     0
176
     1
 40
1.0
176
     1
 40
1.0
176
     1
1001
ACAD
1000
AcDbSavedByObjectVersion
1070
     0
  0
VISUALSTYLE
  5
81FA
102
{ACAD_REACTORS
330
81E9
102
}
330
81E9
100
AcDbVisualStyle
  2
Shades of Gray
 70
    23
177
     3
291
     0
 70
    58
 90
        2
176
     1
 90
        2
176
     1
 90
        3
176
     1
 90
        0
176
     1
 40
0.6
176
     1
 40
30.0
176
     1
 62
     7
420
 16777215
176
     1
 90
        2
176
     1
 90
        2
176
     1
 62
     7
176
     1
 62
     7
176
     1
 90
        1
176
     1
 90
        1
176
     1
 40
40.0
176
     1
 90
        8
176
     1
 62
     7
176
     1
 40
1.0
176
     1
 90
        1
176
     1
 90
        6
176
     1
 90
        2
176
     1
 62
     7
176
     1
 90
        3
176
     1
 90
        0
176
     1
 90
        0
176
     1
290
     0
176
     1
 90
        1
176
     1
 40
0.0
176
     1
 90
        0
176
     1
290
     0
176
     1
290
     1
176
     1
290
     1
176
     1
290
     0
176
     1
290
     0
176
     1
290
     0
176
     1
290
     0
176
     1
290
     0
176
     1
290
     0
176
     1
 90
       50
176
     1
 40
0.0
176
     1
 40
1.0
176
     1
 90
        0
176
     1
 62
    18
420
        0
176
     1
 90
       50
176
     1
 90
        3
176
     1
 62
     5
420
      255
176
     1
290
     0
176
     1
 90
       50
176
     1
 90
       50
176
     1
 90
       50
176
     1
290
     0
176
     1
 90
       50
176
     1
 62
   256
176
     0
 40
1.0
176
     0
 90
        2
176
     1
  1
strokes_ogs.tif
176
     1
290
     0
176
     1
 40
1.0
176
     1
 40
1.0
176
     1
1001
ACAD
1000
AcDbSavedByObjectVersion
1070
     0
  0
VISUALSTYLE
  5
81FB
102
{ACAD_REACTORS
330
81E9
102
}
330
81E9
100
AcDbVisualStyle
  2
Sketchy
 70
    24
177
     3
291
     0
 70
    58
 90
        1
176
     1
 90
        2
176
     1
 90
        2
176
     1
 90
        0
176
     1
 40
0.6
176
     1
 40
30.0
176
     1
 62
     7
420
 16777215
176
     1
 90
        2
176
     1
 90
        2
176
     1
 62
     7
176
     1
 62
     7
176
     1
 90
        1
176
     1
 90
        1
176
     1
 40
40.0
176
     1
 90
       11
176
     1
 62
     7
176
     1
 40
1.0
176
     1
 90
        1
176
     1
 90
        6
176
     1
 90
        2
176
     1
 62
     7
176
     1
 90
        6
176
     1
 90
        0
176
     1
 90
        0
176
     1
290
     0
176
     1
 90
        1
176
     1
 40
0.0
176
     1
 90
        0
176
     1
290
     0
176
     1
290
     1
176
     1
290
     1
176
     1
290
     0
176
     1
290
     0
176
     1
290
     0
176
     1
290
     0
176
     1
290
     0
176
     1
290
     0
176
     1
 90
       50
176
     1
 40
0.0
176
     1
 40
1.0
176
     1
 90
        0
176
     1
 62
    18
420
        0
176
     1
 90
       50
176
     1
 90
        3
176
     1
 62
     5
420
      255
176
     1
290
     0
176
     1
 90
       50
176
     1
 90
       50
176
     1
 90
       50
176
     1
290
     0
176
     1
 90
       50
176
     1
 62
   256
176
     0
 40
1.0
176
     0
 90
        2
176
     1
  1
strokes_ogs.tif
176
     1
290
     0
176
     1
 40
1.0
176
     1
 40
1.0
176
     1
1001
ACAD
1000
AcDbSavedByObjectVersion
1070
     0
  0
VISUALSTYLE
  5
81F6
102
{ACAD_REACTORS
330
81E9
102
}
330
81E9
100
AcDbVisualStyle
  2
Thicken
 70
    13
177
     3
291
     1
 70
    58
 90
        2
176
     1
 90
        2
176
     1
 90
        0
176
     1
 90
        0
176
     1
 40
0.6
176
     1
 40
30.0
176
     1
 62
     7
420
 16777215
176
     1
 90
        1
176
     1
 90
        4
176
     1
 62
     7
176
     1
 62
   257
176
     1
 90
        1
176
     1
 90
        1
176
     1
 40
1.0
176
     1
 90
       12
176
     1
 62
     7
176
     1
 40
1.0
176
     1
 90
        1
176
     1
 90
        6
176
     1
 90
        2
176
     1
 62
     7
176
     1
 90
        5
176
     1
 90
        0
176
     1
 90
        0
176
     1
290
     0
176
     1
 90
        1
176
     1
 40
0.0
176
     1
 90
        0
176
     1
290
     0
176
     1
290
     1
176
     1
290
     1
176
     1
290
     0
176
     1
290
     0
176
     1
290
     0
176
     1
290
     0
176
     1
290
     0
176
     1
290
     0
176
     1
 90
       50
176
     1
 40
0.0
176
     1
 40
1.0
176
     1
 90
        0
176
     1
 62
    18
420
        0
176
     1
 90
       50
176
     1
 90
        3
176
     1
 62
     5
420
      255
176
     1
290
     0
176
     1
 90
       50
176
     1
 90
       50
176
     1
 90
       50
176
     1
290
     0
176
     1
 90
       50
176
     1
 62
   256
176
     0
 40
1.0
176
     0
 90
        2
176
     1
  1
strokes_ogs.tif
176
     1
290
     0
176
     1
 40
1.0
176
     1
 40
1.0
176
     1
1001
ACAD
1000
AcDbSavedByObjectVersion
1070
     0
  0
VISUALSTYLE
  5
81F0
102
{ACAD_REACTORS
330
81E9
102
}
330
81E9
100
AcDbVisualStyle
  2
Wireframe
 70
     5
177
     3
291
     0
 70
    58
 90
        0
176
     1
 90
        2
176
     1
 90
        0
176
     1
 90
        0
176
     1
 40
0.6
176
     1
 40
30.0
176
     1
 62
     7
420
 16777215
176
     1
 90
        1
176
     1
 90
        4
176
     1
 62
     7
176
     1
 62
   257
176
     1
 90
        1
176
     1
 90
        1
176
     1
 40
1.0
176
     1
 90
        0
176
     1
 62
   257
176
     1
 40
1.0
176
     1
 90
        1
176
     1
 90
        6
176
     1
 90
        2
176
     1
 62
     7
176
     1
 90
        3
176
     1
 90
        0
176
     1
 90
        0
176
     1
290
     0
176
     1
 90
        1
176
     1
 40
0.0
176
     1
 90
        0
176
     1
290
     0
176
     1
290
     1
176
     1
290
     1
176
     1
290
     0
176
     1
290
     0
176
     1
290
     0
176
     1
290
     0
176
     1
290
     0
176
     1
290
     0
176
     1
 90
       50
176
     1
 40
0.0
176
     1
 40
1.0
176
     1
 90
        0
176
     1
 62
    18
420
        0
176
     1
 90
       50
176
     1
 90
        3
176
     1
 62
     5
420
      255
176
     1
290
     0
176
     1
 90
       50
176
     1
 90
       50
176
     1
 90
       50
176
     1
290
     0
176
     1
 90
       50
176
     1
 62
   256
176
     0
 40
1.0
176
     0
 90
        2
176
     1
  1
strokes_ogs.tif
176
     1
290
     0
176
     1
 40
1.0
176
     1
 40
1.0
176
     1
1001
ACAD
1000
AcDbSavedByObjectVersion
1070
     0
  0
VISUALSTYLE
  5
81FC
102
{ACAD_REACTORS
330
81E9
102
}
330
81E9
100
AcDbVisualStyle
  2
X-Ray
 70
    25
177
     3
291
     0
 70
    58
 90
        2
176
     1
 90
        2
176
     1
 90
        1
176
     1
 90
        1
176
     1
 40
0.5
176
     1
 40
30.0
176
     1
 62
     7
420
 16777215
176
     1
 90
        1
176
     1
 90
        0
176
     1
 62
     7
176
     1
 62
   257
176
     1
 90
        1
176
     1
 90
        1
176
     1
 40
1.0
176
     1
 90
        8
176
     1
 62
     7
176
     1
 40
1.0
176
     1
 90
        1
176
     1
 90
        6
176
     1
 90
        2
176
     1
 62
     7
176
     1
 90
        3
176
     1
 90
        0
176
     1
 90
        0
176
     1
290
     0
176
     1
 90
       13
176
     1
 40
0.0
176
     1
 90
        0
176
     1
290
     0
176
     1
290
     1
176
     1
290
     1
176
     1
290
     0
176
     1
290
     0
176
     1
290
     0
176
     1
290
     0
176
     1
290
     0
176
     1
290
     0
176
     1
 90
       50
176
     1
 40
0.0
176
     1
 40
1.0
176
     1
 90
        0
176
     1
 62
    18
420
        0
176
     1
 90
       50
176
     1
 90
        3
176
     1
 62
     5
420
      255
176
     1
290
     0
176
     1
 90
       50
176
     1
 90
       50
176
     1
 90
       50
176
     1
290
     0
176
     1
 90
       50
176
     1
 62
   256
176
     0
 40
1.0
176
     0
 90
        2
176
     1
  1
strokes_ogs.tif
176
     1
290
     0
176
     1
 40
1.0
176
     1
 40
1.0
176
     1
1001
ACAD
1000
AcDbSavedByObjectVersion
1070
     0
  0
DICTIONARYVAR
  5
8275
102
{ACAD_REACTORS
330
826F
102
}
330
826F
100
DictionaryVariables
280
     0
  1
1:1
  0
DICTIONARYVAR
  5
8271
102
{ACAD_REACTORS
330
826F
102
}
330
826F
100
DictionaryVariables
280
     0
  1
STANDARD
  0
DICTIONARYVAR
  5
8270
102
{ACAD_REACTORS
330
826F
102
}
330
826F
100
DictionaryVariables
280
     0
  1
STANDARD
  0
DICTIONARYVAR
  5
8272
102
{ACAD_REACTORS
330
826F
102
}
330
826F
100
DictionaryVariables
280
     0
  1
Metric50
  0
DICTIONARYVAR
  5
8273
102
{ACAD_REACTORS
330
826F
102
}
330
826F
100
DictionaryVariables
280
     0
  1
Metric50
  0
DICTIONARYVAR
  5
8277
102
{ACAD_REACTORS
330
826F
102
}
330
826F
100
DictionaryVariables
280
     0
  1
1
  0
DICTIONARYVAR
  5
8278
102
{ACAD_REACTORS
330
826F
102
}
330
826F
100
DictionaryVariables
280
     0
  1
15
  0
DICTIONARYVAR
  5
8276
102
{ACAD_REACTORS
330
826F
102
}
330
826F
100
DictionaryVariables
280
     0
  1
0
  0
DICTIONARYVAR
  5
827D
102
{ACAD_REACTORS
330
826F
102
}
330
826F
100
DictionaryVariables
280
     0
  1
0
  0
DICTIONARYVAR
  5
8274
102
{ACAD_REACTORS
330
826F
102
}
330
826F
100
DictionaryVariables
280
     0
  1
0
  0
DICTIONARY
  5
8288
102
{ACAD_REACTORS
330
8286
102
}
330
8286
100
AcDbDictionary
281
     1
  0
DICTIONARY
  5
8287
102
{ACAD_REACTORS
330
8286
102
}
330
8286
100
AcDbDictionary
281
     1
  3
2041234414736
350
8281
  3
2041234414752
350
8282
  3
2041234414768
350
8283
  3
2041234414784
350
8284
  3
2041234414800
350
8285
  0
DICTIONARY
  5
828B
330
821C
100
AcDbDictionary
280
     1
281
     1
  3
ACAD_XREC_ROUNDTRIP
360
828C
  0
DICTIONARY
  5
81DA
330
81D9
100
AcDbDictionary
280
     1
281
     1
  3
BUMPTILE
360
81DC
  3
DIFFUSETILE
360
81DB
  3
OPACITYTILE
360
81DF
  3
REFLECTIONTILE
360
81DE
  3
REFRACTIONTILE
360
81E0
  3
SPECULARTILE
360
81DD
  0
DICTIONARY
  5
81D2
330
81D1
100
AcDbDictionary
280
     1
281
     1
  3
BUMPTILE
360
81D4
  3
DIFFUSETILE
360
81D3
  3
OPACITYTILE
360
81D7
  3
REFLECTIONTILE
360
81D6
  3
REFRACTIONTILE
360
81D8
  3
SPECULARTILE
360
81D5
  0
DICTIONARY
  5
81E2
330
81E1
100
AcDbDictionary
280
     1
281
     1
  3
BUMPTILE
360
81E4
  3
DIFFUSETILE
360
81E3
  3
OPACITYTILE
360
81E7
  3
REFLECTIONTILE
360
81E6
  3
REFRACTIONTILE
360
81E8
  3
SPECULARTILE
360
81E5
  0
DICTIONARY
  5
8289
330
821A
100
AcDbDictionary
280
     1
281
     1
  3
ACAD_XREC_ROUNDTRIP
360
828A
  0
DICTIONARY
  5
827E
330
8204
100
AcDbDictionary
280
     1
281
     1
  3
ACAD_ROUNDTRIP_2008_TABLESTYLE_CELLSTYLEMAP
360
827F
  0
XRECORD
  5
8281
102
{ACAD_REACTORS
330
8287
102
}
330
8287
100
AcDbXrecord
280
     1
  1
AcDb_Thumbnail_Schema
102
{ATTRRECORD
341
8282
  2
AcDbDs::TreatedAsObjectData
280
     1
291
     1
102
ATTRRECORD}
102
{ATTRRECORD
341
8283
  2
AcDbDs::Legacy
280
     1
291
     1
102
ATTRRECORD}
  2
AcDbDs::ID
280
    10
 91
        8
102
{ATTRRECORD
341
8284
  2
AcDs:Indexable
280
     1
291
     1
102
ATTRRECORD}
102
{ATTRRECORD
341
8285
  2
AcDbDs::HandleAttribute
280
     7
282
     1
102
ATTRRECORD}
  2
Thumbnail_Data
280
    15
 91
        0
  0
XRECORD
  5
8282
102
{ACAD_REACTORS
330
8287
102
}
330
8287
100
AcDbXrecord
280
     1
  1
AcDbDs::TreatedAsObjectDataSchema
  2
AcDbDs::TreatedAsObjectData
280
     1
 91
        0
  0
XRECORD
  5
8283
102
{ACAD_REACTORS
330
8287
102
}
330
8287
100
AcDbXrecord
280
     1
  1
AcDbDs::LegacySchema
  2
AcDbDs::Legacy
280
     1
 91
        0
  0
XRECORD
  5
8284
102
{ACAD_REACTORS
330
8287
102
}
330
8287
100
AcDbXrecord
280
     1
  1
AcDbDs::IndexedPropertySchema
  2
AcDs:Indexable
280
     1
 91
        0
  0
XRECORD
  5
8285
102
{ACAD_REACTORS
330
8287
102
}
330
8287
100
AcDbXrecord
280
     1
  1
AcDbDs::HandleAttributeSchema
  2
AcDbDs::HandleAttribute
280
     7
 91
        1
284
     1
  0
XRECORD
  5
828C
102
{ACAD_REACTORS
330
828B
102
}
330
828B
100
AcDbXrecord
280
     1
102
DISPLAYNAME
  1
Metric50
102
FLAGS
 90
        0
  0
XRECORD
  5
81DC
102
{ACAD_REACTORS
330
81DA
102
}
330
81DA
100
AcDbXrecord
280
     1
270
     1
271
     1
  0
XRECORD
  5
81DB
102
{ACAD_REACTORS
330
81DA
102
}
330
81DA
100
AcDbXrecord
280
     1
270
     1
271
     1
  0
XRECORD
  5
81DF
102
{ACAD_REACTORS
330
81DA
102
}
330
81DA
100
AcDbXrecord
280
     1
270
     1
271
     1
  0
XRECORD
  5
81DE
102
{ACAD_REACTORS
330
81DA
102
}
330
81DA
100
AcDbXrecord
280
     1
270
     1
271
     1
  0
XRECORD
  5
81E0
102
{ACAD_REACTORS
330
81DA
102
}
330
81DA
100
AcDbXrecord
280
     1
270
     1
271
     1
  0
XRECORD
  5
81DD
102
{ACAD_REACTORS
330
81DA
102
}
330
81DA
100
AcDbXrecord
280
     1
270
     1
271
     1
  0
XRECORD
  5
81D4
102
{ACAD_REACTORS
330
81D2
102
}
330
81D2
100
AcDbXrecord
280
     1
270
     1
271
     1
  0
XRECORD
  5
81D3
102
{ACAD_REACTORS
330
81D2
102
}
330
81D2
100
AcDbXrecord
280
     1
270
     1
271
     1
  0
XRECORD
  5
81D7
102
{ACAD_REACTORS
330
81D2
102
}
330
81D2
100
AcDbXrecord
280
     1
270
     1
271
     1
  0
XRECORD
  5
81D6
102
{ACAD_REACTORS
330
81D2
102
}
330
81D2
100
AcDbXrecord
280
     1
270
     1
271
     1
  0
XRECORD
  5
81D8
102
{ACAD_REACTORS
330
81D2
102
}
330
81D2
100
AcDbXrecord
280
     1
270
     1
271
     1
  0
XRECORD
  5
81D5
102
{ACAD_REACTORS
330
81D2
102
}
330
81D2
100
AcDbXrecord
280
     1
270
     1
271
     1
  0
XRECORD
  5
81E4
102
{ACAD_REACTORS
330
81E2
102
}
330
81E2
100
AcDbXrecord
280
     1
270
     1
271
     1
  0
XRECORD
  5
81E3
102
{ACAD_REACTORS
330
81E2
102
}
330
81E2
100
AcDbXrecord
280
     1
270
     1
271
     1
  0
XRECORD
  5
81E7
102
{ACAD_REACTORS
330
81E2
102
}
330
81E2
100
AcDbXrecord
280
     1
270
     1
271
     1
  0
XRECORD
  5
81E6
102
{ACAD_REACTORS
330
81E2
102
}
330
81E2
100
AcDbXrecord
280
     1
270
     1
271
     1
  0
XRECORD
  5
81E8
102
{ACAD_REACTORS
330
81E2
102
}
330
81E2
100
AcDbXrecord
280
     1
270
     1
271
     1
  0
XRECORD
  5
81E5
102
{ACAD_REACTORS
330
81E2
102
}
330
81E2
100
AcDbXrecord
280
     1
270
     1
271
     1
  0
XRECORD
  5
828A
102
{ACAD_REACTORS
330
8289
102
}
330
8289
100
AcDbXrecord
280
     1
102
DISPLAYNAME
  1
Metric50
102
FLAGS
 90
        0
  0
CELLSTYLEMAP
  5
827F
102
{ACAD_REACTORS
330
827E
102
}
330
827E
100
AcDbCellStyleMap
 90
        3
300
CELLSTYLE
  1
TABLEFORMAT_BEGIN
 90
        5
170
     1
 91
        0
 92
    32768
 62
   257
 93
        1
300
CONTENTFORMAT
  1
CONTENTFORMAT_BEGIN
 90
        0
 91
        0
 92
      512
 93
        0
300

 40
0.0
140
1.0
 94
        5
 62
     0
340
10
144
6.0
309
CONTENTFORMAT_END
171
     1
301
MARGIN
  1
CELLMARGIN_BEGIN
 40
1.5
 40
1.5
 40
1.5
 40
1.5
 40
4.5
 40
4.5
309
CELLMARGIN_END
 94
        6
 95
        1
302
GRIDFORMAT
  1
GRIDFORMAT_BEGIN
 90
        0
 91
        1
 62
     0
 92
       -2
340
0
 93
        0
 40
1.125
309
GRIDFORMAT_END
 95
        2
302
GRIDFORMAT
  1
GRIDFORMAT_BEGIN
 90
        0
 91
        1
 62
     0
 92
       -2
340
0
 93
        0
 40
1.125
309
GRIDFORMAT_END
 95
        4
302
GRIDFORMAT
  1
GRIDFORMAT_BEGIN
 90
        0
 91
        1
 62
     0
 92
       -2
340
0
 93
        0
 40
1.125
309
GRIDFORMAT_END
 95
        8
302
GRIDFORMAT
  1
GRIDFORMAT_BEGIN
 90
        0
 91
        1
 62
     0
 92
       -2
340
0
 93
        0
 40
1.125
309
GRIDFORMAT_END
 95
       16
302
GRIDFORMAT
  1
GRIDFORMAT_BEGIN
 90
        0
 91
        1
 62
     0
 92
       -2
340
0
 93
        0
 40
1.125
309
GRIDFORMAT_END
 95
       32
302
GRIDFORMAT
  1
GRIDFORMAT_BEGIN
 90
        0
 91
        1
 62
     0
 92
       -2
340
0
 93
        0
 40
1.125
309
GRIDFORMAT_END
309
TABLEFORMAT_END
  1
CELLSTYLE_BEGIN
 90
        1
 91
        1
300
_TITLE
309
CELLSTYLE_END
300
CELLSTYLE
  1
TABLEFORMAT_BEGIN
 90
        5
170
     1
 91
        0
 92
        0
 62
   257
 93
        1
300
CONTENTFORMAT
  1
CONTENTFORMAT_BEGIN
 90
        0
 91
        0
 92
      512
 93
        0
300

 40
0.0
140
1.0
 94
        5
 62
     0
340
10
144
4.5
309
CONTENTFORMAT_END
171
     1
301
MARGIN
  1
CELLMARGIN_BEGIN
 40
1.5
 40
1.5
 40
1.5
 40
1.5
 40
4.5
 40
4.5
309
CELLMARGIN_END
 94
        6
 95
        1
302
GRIDFORMAT
  1
GRIDFORMAT_BEGIN
 90
        0
 91
        1
 62
     0
 92
       -2
340
0
 93
        0
 40
1.125
309
GRIDFORMAT_END
 95
        2
302
GRIDFORMAT
  1
GRIDFORMAT_BEGIN
 90
        0
 91
        1
 62
     0
 92
       -2
340
0
 93
        0
 40
1.125
309
GRIDFORMAT_END
 95
        4
302
GRIDFORMAT
  1
GRIDFORMAT_BEGIN
 90
        0
 91
        1
 62
     0
 92
       -2
340
0
 93
        0
 40
1.125
309
GRIDFORMAT_END
 95
        8
302
GRIDFORMAT
  1
GRIDFORMAT_BEGIN
 90
        0
 91
        1
 62
     0
 92
       -2
340
0
 93
        0
 40
1.125
309
GRIDFORMAT_END
 95
       16
302
GRIDFORMAT
  1
GRIDFORMAT_BEGIN
 90
        0
 91
        1
 62
     0
 92
       -2
340
0
 93
        0
 40
1.125
309
GRIDFORMAT_END
 95
       32
302
GRIDFORMAT
  1
GRIDFORMAT_BEGIN
 90
        0
 91
        1
 62
     0
 92
       -2
340
0
 93
        0
 40
1.125
309
GRIDFORMAT_END
309
TABLEFORMAT_END
  1
CELLSTYLE_BEGIN
 90
        2
 91
        1
300
_HEADER
309
CELLSTYLE_END
300
CELLSTYLE
  1
TABLEFORMAT_BEGIN
 90
        5
170
     1
 91
        0
 92
        0
 62
   257
 93
        1
300
CONTENTFORMAT
  1
CONTENTFORMAT_BEGIN
 90
        0
 91
        0
 92
      512
 93
        0
300

 40
0.0
140
1.0
 94
        2
 62
     0
340
10
144
4.5
309
CONTENTFORMAT_END
171
     1
301
MARGIN
  1
CELLMARGIN_BEGIN
 40
1.5
 40
1.5
 40
1.5
 40
1.5
 40
4.5
 40
4.5
309
CELLMARGIN_END
 94
        6
 95
        1
302
GRIDFORMAT
  1
GRIDFORMAT_BEGIN
 90
        0
 91
        1
 62
     0
 92
       -2
340
0
 93
        0
 40
1.125
309
GRIDFORMAT_END
 95
        2
302
GRIDFORMAT
  1
GRIDFORMAT_BEGIN
 90
        0
 91
        1
 62
     0
 92
       -2
340
0
 93
        0
 40
1.125
309
GRIDFORMAT_END
 95
        4
302
GRIDFORMAT
  1
GRIDFORMAT_BEGIN
 90
        0
 91
        1
 62
     0
 92
       -2
340
0
 93
        0
 40
1.125
309
GRIDFORMAT_END
 95
        8
302
GRIDFORMAT
  1
GRIDFORMAT_BEGIN
 90
        0
 91
        1
 62
     0
 92
       -2
340
0
 93
        0
 40
1.125
309
GRIDFORMAT_END
 95
       16
302
GRIDFORMAT
  1
GRIDFORMAT_BEGIN
 90
        0
 91
        1
 62
     0
 92
       -2
340
0
 93
        0
 40
1.125
309
GRIDFORMAT_END
 95
       32
302
GRIDFORMAT
  1
GRIDFORMAT_BEGIN
 90
        0
 91
        1
 62
     0
 92
       -2
340
0
 93
        0
 40
1.125
309
GRIDFORMAT_END
309
TABLEFORMAT_END
  1
CELLSTYLE_BEGIN
 90
        3
 91
        2
300
_DATA
309
CELLSTYLE_END
  0
ENDSEC
  0
SECTION
  2
ACDSDATA
 70
     2
 71
     8
  0
ACDSSCHEMA
 90
        0
  1
AcDb_Thumbnail_Schema
  2
AcDbDs::ID
280
    10
 91
        8
  2
Thumbnail_Data
280
    15
 91
        0
101
ACDSRECORD
 95
        0
 90
        1
  2
AcDbDs::TreatedAsObjectData
280
     1
291
     1
101
ACDSRECORD
 95
        0
 90
        2
  2
AcDbDs::Legacy
280
     1
291
     1
101
ACDSRECORD
  1
AcDbDs::ID
 90
        3
  2
AcDs:Indexable
280
     1
291
     1
101
ACDSRECORD
  1
AcDbDs::ID
 90
        4
  2
AcDbDs::HandleAttribute
280
     7
282
     1
  0
ACDSSCHEMA
 90
        1
  1
AcDbDs::TreatedAsObjectDataSchema
  2
AcDbDs::TreatedAsObjectData
280
     1
 91
        0
  0
ACDSSCHEMA
 90
        2
  1
AcDbDs::LegacySchema
  2
AcDbDs::Legacy
280
     1
 91
        0
  0
ACDSSCHEMA
 90
        3
  1
AcDbDs::IndexedPropertySchema
  2
AcDs:Indexable
280
     1
 91
        0
  0
ACDSSCHEMA
 90
        4
  1
AcDbDs::HandleAttributeSchema
  2
AcDbDs::HandleAttribute
280
     7
 91
        1
284
     1
  0
ACDSRECORD
 90
        0
  2
AcDbDs::ID
280
    10
320
8156
  2
Thumbnail_Data
280
    15
 94
     1433
310
89504E470D0A1A0A0000000D49484452000001000000007C0803000000B13B9E5A00000300504C5445000000000000C8C8C80000000000000000000000000000000000000000000000000000330000660000990000CC0000FF0033000033330033660033990033CC0033FF0066000066330066660066990066CC0066FF0099
310
000099330099660099990099CC0099FF00CC0000CC3300CC6600CC9900CCCC00CCFF00FF0000FF3300FF6600FF9900FFCC00FFFF3300003300333300663300993300CC3300FF3333003333333333663333993333CC3333FF3366003366333366663366993366CC3366FF3399003399333399663399993399CC3399FF33CC00
310
33CC3333CC6633CC9933CCCC33CCFF33FF0033FF3333FF6633FF9933FFCC33FFFF6600006600336600666600996600CC6600FF6633006633336633666633996633CC6633FF6666006666336666666666996666CC6666FF6699006699336699666699996699CC6699FF66CC0066CC3366CC6666CC9966CCCC66CCFF66FF0066
310
FF3366FF6666FF9966FFCC66FFFF9900009900339900669900999900CC9900FF9933009933339933669933999933CC9933FF9966009966339966669966999966CC9966FF9999009999339999669999999999CC9999FF99CC0099CC3399CC6699CC9999CCCC99CCFF99FF0099FF3399FF6699FF9999FFCC99FFFFCC0000CC00
310
33CC0066CC0099CC00CCCC00FFCC3300CC3333CC3366CC3399CC33CCCC33FFCC6600CC6633CC6666CC6699CC66CCCC66FFCC9900CC9933CC9966CC9999CC99CCCC99FFCCCC00CCCC33CCCC66CCCC99CCCCCCCCCCFFCCFF00CCFF33CCFF66CCFF99CCFFCCCCFFFFFF0000FF0033FF0066FF0099FF00CCFF00FFFF3300FF3333
310
FF3366FF3399FF33CCFF33FFFF6600FF6633FF6666FF6699FF66CCFF66FFFF9900FF9933FF9966FF9999FF99CCFF99FFFFCC00FFCC33FFCC66FFCC99FFCCCCFFCCFFFFFF00FFFF33FFFF66FFFF99FFFFCCFFFFFF0000000D0D0D1A1A1A2828283535354343435050505D5D5D6B6B6B787878868686939393A1A1A1AEAEAEBB
310
BBBBC9C9C9D6D6D6E4E4E4F1F1F1FFFFFF00000000000000000000000000000000000000000000000000000000000008F1915C000002544944415478DAED9CC17684200C45F3396CF2FF3FC36FB8AF400820BAB03DED99E6BDBB70463BB3E09A0889634508F921C7378923E04FBF460114F03F05ECC90F2860FD3C62048416
310
F07AFE0B27E06DC4C413504FAE9FE5B6697FB4D3DEB791056CD16E1BE93A0E2801735858044416807E0D409F055609B2E5C1560282081017D05E590C85179037D004B888CB010801E7F9D69354360A29407408504C01E525D51D0AA0007401C6C34C185140CE4993735E0553D1F010043105AC11002740EE05640AA000B095
310
6007F01AD06A0127814D83D5815E802B8755CA891F4B213C015E0DB637A80D91E7031802462F0C4E007A4FF0B7BFF6E902464F346F39B1A6465401B729709715E105F41220DF44014A042C0266351105AC31AE23FBBB80A9468A29A045761DEA5204FAD15E276BD808B0E1B615701FE72EC09223AC002B01CE110F014DC888
310
80C8025A0D5452004D401B561D6A9A3B017E010410501B427E57C0BA02E7609B9071BF40030AA8B37BB67E502A57809A057A1701B105484D0171052640E61490A0026C05E4B3C068898D0E51D8697012504E741FB0B880FAD12A40635683B95D06FDC6C8B8E89DFBA9EF4517202EA0A60264045833583CF3D74268FC762862
310
35D887BAB4C57513A06105D8526817D01524100179BF31D20EE569891CAF2334BA9EF95220F7957279DF1B42F1048C61DFDD17D88F4415F03A70E2A480500005D801D867862E027CA73E2A373D3C08270035029802D38E1CFECC288C00B90838D004E0A600174214400114002500FD9FA91142082184104208218410420821
310
841042082184104208218410423E902F5DD15093434DDEF40000000049454E44AE426082
  0
ENDSEC
  0
EOF
