  0
SECTION
  2
HEADER
  9
$ACADVER
  1
AC1027
  9
$ACADMAINTVER
 70
   125
  9
$DWGCODEPAGE
  3
ANSI_932
  9
$LASTSAVEDBY
  1
yasukiyo.ogawa
  9
$REQUIREDVERSIONS
160
                 0
  9
$INSBASE
 10
0.0
 20
0.0
 30
0.0
  9
$EXTMIN
 10
0.0
 20
0.0
 30
0.0
  9
$EXTMAX
 10
4200.0
 20
5900.0
 30
0.0
  9
$LIMMIN
 10
0.0
 20
0.0
  9
$LIMMAX
 10
297.0
 20
210.0
  9
$ORTHOMODE
 70
     1
  9
$REGENMODE
 70
     1
  9
$FILLMODE
 70
     0
  9
$QTEXTMODE
 70
     0
  9
$MIRRTEXT
 70
     1
  9
$LTSCALE
 40
100.0
  9
$ATTMODE
 70
     1
  9
$TEXTSIZE
 40
180.0
  9
$TRACEWID
 40
0.05
  9
$TEXTSTYLE
  7
STANDARD
  9
$CLAYER
  8
3
  9
$CELTYPE
  6
BYLAYER
  9
$CECOLOR
 62
   256
  9
$CELTSCALE
 40
1.0
  9
$DISPSILH
 70
     0
  9
$DIMSCALE
 40
20.0
  9
$DIMASZ
 40
2.0
  9
$DIMEXO
 40
0.5
  9
$DIMDLI
 40
10.0
  9
$DIMRND
 40
0.0
  9
$DIMDLE
 40
0.0
  9
$DIMEXE
 40
1.0
  9
$DIMTP
 40
1.0
  9
$DIMTM
 40
1.0
  9
$DIMTXT
 40
3.0
  9
$DIMCEN
 40
0.0
  9
$DIMTSZ
 40
0.0
  9
$DIMTOL
 70
     0
  9
$DIMLIM
 70
     0
  9
$DIMTIH
 70
     0
  9
$DIMTOH
 70
     0
  9
$DIMSE1
 70
     0
  9
$DIMSE2
 70
     0
  9
$DIMTAD
 70
     1
  9
$DIMZIN
 70
     8
  9
$DIMBLK
  1

  9
$DIMASO
 70
     1
  9
$DIMSHO
 70
     1
  9
$DIMPOST
  1
(<>)
  9
$DIMAPOST
  1

  9
$DIMALT
 70
     0
  9
$DIMALTD
 70
     2
  9
$DIMALTF
 40
0.039
  9
$DIMLFAC
 40
1.0
  9
$DIMTOFL
 70
     1
  9
$DIMTVP
 40
0.0
  9
$DIMTIX
 70
     0
  9
$DIMSOXD
 70
     0
  9
$DIMSAH
 70
     1
  9
$DIMBLK1
  1
OPEN
  9
$DIMBLK2
  1
OPEN
  9
$DIMSTYLE
  2
IGA
  9
$DIMCLRD
 70
     0
  9
$DIMCLRE
 70
     0
  9
$DIMCLRT
 70
     0
  9
$DIMTFAC
 40
10.0
  9
$DIMGAP
 40
1.0
  9
$DIMJUST
 70
     0
  9
$DIMSD1
 70
     0
  9
$DIMSD2
 70
     0
  9
$DIMTOLJ
 70
     1
  9
$DIMTZIN
 70
     8
  9
$DIMALTZ
 70
     0
  9
$DIMALTTZ
 70
     0
  9
$DIMUPT
 70
     0
  9
$DIMDEC
 70
     0
  9
$DIMTDEC
 70
     0
  9
$DIMALTU
 70
     2
  9
$DIMALTTD
 70
     2
  9
$DIMTXSTY
  7
STANDARD
  9
$DIMAUNIT
 70
     0
  9
$DIMADEC
 70
     0
  9
$DIMALTRND
 40
0.0
  9
$DIMAZIN
 70
     0
  9
$DIMDSEP
 70
    46
  9
$DIMATFIT
 70
     3
  9
$DIMFRAC
 70
     0
  9
$DIMLDRBLK
  1
OPEN
  9
$DIMLUNIT
 70
     2
  9
$DIMLWD
 70
    -2
  9
$DIMLWE
 70
    -2
  9
$DIMTMOVE
 70
     2
  9
$DIMFXL
 40
1.0
  9
$DIMFXLON
 70
     0
  9
$DIMJOGANG
 40
0.7853981633974483
  9
$DIMTFILL
 70
     0
  9
$DIMTFILLCLR
 70
     0
  9
$DIMARCSYM
 70
     0
  9
$DIMLTYPE
  6

  9
$DIMLTEX1
  6

  9
$DIMLTEX2
  6

  9
$DIMTXTDIRECTION
 70
     0
  9
$LUNITS
 70
     2
  9
$LUPREC
 70
     3
  9
$SKETCHINC
 40
0.1
  9
$FILLETRAD
 40
50.0
  9
$AUNITS
 70
     0
  9
$AUPREC
 70
     0
  9
$MENU
  1
acad
  9
$ELEVATION
 40
0.0
  9
$PELEVATION
 40
0.0
  9
$THICKNESS
 40
0.0
  9
$LIMCHECK
 70
     0
  9
$CHAMFERA
 40
0.5
  9
$CHAMFERB
 40
0.5
  9
$CHAMFERC
 40
20.0
  9
$CHAMFERD
 40
0.0
  9
$SKPOLY
 70
     0
  9
$TDCREATE
 40
2451373.635914352
  9
$TDUCREATE
 40
2451373.260917014
  9
$TDUPDATE
 40
2460216.753969907
  9
$TDUUPDATE
 40
2460216.378970961
  9
$TDINDWG
 40
0.0344373727
  9
$TDUSRTIMER
 40
0.0344373727
  9
$USRTIMER
 70
     1
  9
$ANGBASE
 50
0.0
  9
$ANGDIR
 70
     0
  9
$PDMODE
 70
     0
  9
$PDSIZE
 40
0.0
  9
$PLINEWID
 40
0.0
  9
$SPLFRAME
 70
     0
  9
$SPLINETYPE
 70
     6
  9
$SPLINESEGS
 70
     8
  9
$HANDSEED
  5
81C8
  9
$SURFTAB1
 70
     6
  9
$SURFTAB2
 70
     6
  9
$SURFTYPE
 70
     6
  9
$SURFU
 70
     6
  9
$SURFV
 70
     6
  9
$UCSBASE
  2

  9
$UCSNAME
  2

  9
$UCSORG
 10
0.0
 20
0.0
 30
0.0
  9
$UCSXDIR
 10
1.0
 20
0.0
 30
0.0
  9
$UCSYDIR
 10
0.0
 20
1.0
 30
0.0
  9
$UCSORTHOREF
  2

  9
$UCSORTHOVIEW
 70
     0
  9
$UCSORGTOP
 10
0.0
 20
0.0
 30
0.0
  9
$UCSORGBOTTOM
 10
0.0
 20
0.0
 30
0.0
  9
$UCSORGLEFT
 10
0.0
 20
0.0
 30
0.0
  9
$UCSORGRIGHT
 10
0.0
 20
0.0
 30
0.0
  9
$UCSORGFRONT
 10
0.0
 20
0.0
 30
0.0
  9
$UCSORGBACK
 10
0.0
 20
0.0
 30
0.0
  9
$PUCSBASE
  2

  9
$PUCSNAME
  2

  9
$PUCSORG
 10
0.0
 20
0.0
 30
0.0
  9
$PUCSXDIR
 10
1.0
 20
0.0
 30
0.0
  9
$PUCSYDIR
 10
0.0
 20
1.0
 30
0.0
  9
$PUCSORTHOREF
  2

  9
$PUCSORTHOVIEW
 70
     0
  9
$PUCSORGTOP
 10
0.0
 20
0.0
 30
0.0
  9
$PUCSORGBOTTOM
 10
0.0
 20
0.0
 30
0.0
  9
$PUCSORGLEFT
 10
0.0
 20
0.0
 30
0.0
  9
$PUCSORGRIGHT
 10
0.0
 20
0.0
 30
0.0
  9
$PUCSORGFRONT
 10
0.0
 20
0.0
 30
0.0
  9
$PUCSORGBACK
 10
0.0
 20
0.0
 30
0.0
  9
$USERI1
 70
     0
  9
$USERI2
 70
     0
  9
$USERI3
 70
     0
  9
$USERI4
 70
     0
  9
$USERI5
 70
     0
  9
$USERR1
 40
0.0
  9
$USERR2
 40
0.0
  9
$USERR3
 40
0.0
  9
$USERR4
 40
0.0
  9
$USERR5
 40
0.0
  9
$WORLDVIEW
 70
     1
  9
$SHADEDGE
 70
     3
  9
$SHADEDIF
 70
    70
  9
$TILEMODE
 70
     1
  9
$MAXACTVP
 70
    16
  9
$PINSBASE
 10
0.0
 20
0.0
 30
0.0
  9
$PLIMCHECK
 70
     0
  9
$PEXTMIN
 10
1.000000000000000E+20
 20
1.000000000000000E+20
 30
1.000000000000000E+20
  9
$PEXTMAX
 10
-1.000000000000000E+20
 20
-1.000000000000000E+20
 30
-1.000000000000000E+20
  9
$PLIMMIN
 10
0.0
 20
0.0
  9
$PLIMMAX
 10
12.0
 20
9.0
  9
$UNITMODE
 70
     0
  9
$VISRETAIN
 70
     0
  9
$PLINEGEN
 70
     0
  9
$PSLTSCALE
 70
     1
  9
$TREEDEPTH
 70
  3020
  9
$CMLSTYLE
  2
STANDARD
  9
$CMLJUST
 70
     0
  9
$CMLSCALE
 40
20.0
  9
$PROXYGRAPHICS
 70
     1
  9
$MEASUREMENT
 70
     1
  9
$CELWEIGHT
370
    -1
  9
$ENDCAPS
280
     0
  9
$JOINSTYLE
280
     0
  9
$LWDISPLAY
290
     0
  9
$INSUNITS
 70
     0
  9
$HYPERLINKBASE
  1

  9
$STYLESHEET
  1

  9
$XEDIT
290
     1
  9
$CEPSNTYPE
380
     0
  9
$PSTYLEMODE
290
     1
  9
$FINGERPRINTGUID
  2
{9B7113AC-F1BC-47D8-94A3-D8178D7BA5C3}
  9
$VERSIONGUID
  2
{0229CCEC-3D2B-4028-98F8-363FE2224BE3}
  9
$EXTNAMES
290
     1
  9
$PSVPSCALE
 40
0.0
  9
$OLESTARTUP
290
     0
  9
$SORTENTS
280
   127
  9
$INDEXCTL
280
     0
  9
$HIDETEXT
280
     0
  9
$XCLIPFRAME
280
     2
  9
$HALOGAP
280
     0
  9
$OBSCOLOR
 70
   257
  9
$OBSLTYPE
280
     0
  9
$INTERSECTIONDISPLAY
280
     0
  9
$INTERSECTIONCOLOR
 70
   257
  9
$DIMASSOC
280
     1
  9
$PROJECTNAME
  1

  9
$CAMERADISPLAY
290
     0
  9
$LENSLENGTH
 40
50.0
  9
$CAMERAHEIGHT
 40
0.0
  9
$STEPSPERSEC
 40
2.0
  9
$STEPSIZE
 40
6.0
  9
$3DDWFPREC
 40
2.0
  9
$PSOLWIDTH
 40
0.25
  9
$PSOLHEIGHT
 40
4.0
  9
$LOFTANG1
 40
1.570796326794896
  9
$LOFTANG2
 40
1.570796326794896
  9
$LOFTMAG1
 40
0.0
  9
$LOFTMAG2
 40
0.0
  9
$LOFTPARAM
 70
     7
  9
$LOFTNORMALS
280
     1
  9
$LATITUDE
 40
37.795
  9
$LONGITUDE
 40
-122.394
  9
$NORTHDIRECTION
 40
0.0
  9
$TIMEZONE
 70
 -8000
  9
$LIGHTGLYPHDISPLAY
280
     1
  9
$TILEMODELIGHTSYNCH
280
     1
  9
$CMATERIAL
347
810C
  9
$SOLIDHIST
280
     0
  9
$SHOWHIST
280
     1
  9
$DWFFRAME
280
     2
  9
$DGNFRAME
280
     0
  9
$REALWORLDSCALE
290
     1
  9
$INTERFERECOLOR
 62
     1
  9
$INTERFEREOBJVS
345
812E
  9
$INTERFEREVPVS
346
812B
  9
$CSHADOW
280
     0
  9
$SHADOWPLANELOCATION
 40
0.0
  0
ENDSEC
  0
SECTION
  2
CLASSES
  0
CLASS
  1
ACDBDICTIONARYWDFLT
  2
AcDbDictionaryWithDefault
  3
ObjectDBX Classes
 90
        0
 91
        1
280
     0
281
     0
  0
CLASS
  1
MATERIAL
  2
AcDbMaterial
  3
ObjectDBX Classes
 90
     1153
 91
        3
280
     0
281
     0
  0
CLASS
  1
VISUALSTYLE
  2
AcDbVisualStyle
  3
ObjectDBX Classes
 90
     4095
 91
       24
280
     0
281
     0
  0
CLASS
  1
TABLESTYLE
  2
AcDbTableStyle
  3
ObjectDBX Classes
 90
     4095
 91
        1
280
     0
281
     0
  0
CLASS
  1
SCALE
  2
AcDbScale
  3
ObjectDBX Classes
 90
     1153
 91
       17
280
     0
281
     0
  0
CLASS
  1
MLEADERSTYLE
  2
AcDbMLeaderStyle
  3
ACDB_MLEADERSTYLE_CLASS
 90
     4095
 91
        1
280
     0
281
     0
  0
CLASS
  1
ACDBSECTIONVIEWSTYLE
  2
AcDbSectionViewStyle
  3
ObjectDBX Classes
 90
     1025
 91
        1
280
     0
281
     0
  0
CLASS
  1
ACDBDETAILVIEWSTYLE
  2
AcDbDetailViewStyle
  3
ObjectDBX Classes
 90
     1025
 91
        1
280
     0
281
     0
  0
CLASS
  1
DICTIONARYVAR
  2
AcDbDictionaryVar
  3
ObjectDBX Classes
 90
        0
 91
       10
280
     0
281
     0
  0
CLASS
  1
CELLSTYLEMAP
  2
AcDbCellStyleMap
  3
ObjectDBX Classes
 90
     1152
 91
        1
280
     0
281
     0
  0
ENDSEC
  0
SECTION
  2
TABLES
  0
TABLE
  2
VPORT
  5
8
330
0
100
AcDbSymbolTable
 70
     1
1001
ACAD
1000
DbSaveVer
1071
      278
  0
VPORT
  5
8109
330
8
100
AcDbSymbolTableRecord
100
AcDbViewportTableRecord
  2
*Active
 70
     0
 10
0.0
 20
0.0
 11
1.0
 21
1.0
 12
2694.113519327956
 22
2950.000013737006
 13
0.0
 23
0.0
 14
10.0
 24
10.0
 15
10.0
 25
10.0
 16
0.0
 26
0.0
 36
1.0
 17
0.0
 27
0.0
 37
0.0
 40
5938.142562752639
 41
2.250314465408805
 42
50.0
 43
0.0
 44
0.0
 50
0.0
 51
0.0
 71
     0
 72
   100
 73
     1
 74
     0
 75
     0
 76
     0
 77
     0
 78
     0
281
     0
 65
     1
110
0.0
120
0.0
130
0.0
111
1.0
121
0.0
131
0.0
112
0.0
122
1.0
132
0.0
 79
     0
146
0.0
348
812A
 60
     3
 61
     5
292
     1
282
     1
141
0.0
142
0.0
 63
   250
421
  3355443
1001
ACAD_NAV_VCDISPLAY
1070
     3
  0
ENDTAB
  0
TABLE
  2
LTYPE
  5
5
330
0
100
AcDbSymbolTable
 70
     2
  0
LTYPE
  5
13
330
5
100
AcDbSymbolTableRecord
100
AcDbLinetypeTableRecord
  2
BYBLOCK
 70
     0
  3

 72
    65
 73
     0
 40
0.0
  0
LTYPE
  5
14
330
5
100
AcDbSymbolTableRecord
100
AcDbLinetypeTableRecord
  2
BYLAYER
 70
     0
  3

 72
    65
 73
     0
 40
0.0
  0
LTYPE
  5
15
330
5
100
AcDbSymbolTableRecord
100
AcDbLinetypeTableRecord
  2
CONTINUOUS
 70
     0
  3
Solid line
 72
    65
 73
     0
 40
0.0
  0
LTYPE
  5
1F
330
5
100
AcDbSymbolTableRecord
100
AcDbLinetypeTableRecord
  2
CENTER
 70
     0
  3
____ _ ____ _ ____ _ ____ _ ____ _ ____ _ ____ 
 72
    65
 73
     4
 40
2.0
 49
1.25
 74
     0
 49
-0.25
 74
     0
 49
0.25
 74
     0
 49
-0.25
 74
     0
  0
ENDTAB
  0
TABLE
  2
LAYER
  5
2
102
{ACAD_XDICTIONARY
360
819E
102
}
330
0
100
AcDbSymbolTable
 70
     6
  0
LAYER
  5
F
102
{ACAD_XDICTIONARY
360
8191
102
}
330
2
100
AcDbSymbolTableRecord
100
AcDbLayerTableRecord
  2
0
 70
     0
 62
     7
  6
CONTINUOUS
370
    -3
390
809E
347
811C
348
0
  0
LAYER
  5
31
102
{ACAD_XDICTIONARY
360
8193
102
}
330
2
100
AcDbSymbolTableRecord
100
AcDbLayerTableRecord
  2
3
 70
     0
 62
     2
  6
CONTINUOUS
370
    -3
390
809E
347
811C
348
0
  0
LAYER
  5
76D0
102
{ACAD_XDICTIONARY
360
8195
102
}
330
2
100
AcDbSymbolTableRecord
100
AcDbLayerTableRecord
  2
2
 70
     0
 62
     3
  6
CENTER
370
    -3
390
809E
347
811C
348
0
  0
LAYER
  5
76D1
102
{ACAD_XDICTIONARY
360
8197
102
}
330
2
100
AcDbSymbolTableRecord
100
AcDbLayerTableRecord
  2
1
 70
     0
 62
     4
  6
CONTINUOUS
370
    -3
390
809E
347
811C
348
0
  0
LAYER
  5
76D2
102
{ACAD_XDICTIONARY
360
8199
102
}
330
2
100
AcDbSymbolTableRecord
100
AcDbLayerTableRecord
  2
4
 70
     0
 62
     7
  6
CONTINUOUS
370
    -3
390
809E
347
811C
348
0
  0
LAYER
  5
7B36
330
2
100
AcDbSymbolTableRecord
100
AcDbLayerTableRecord
  2
DEFPOINTS
 70
     0
 62
     7
  6
CONTINUOUS
290
     0
370
    -3
390
809E
347
811C
348
0
  0
ENDTAB
  0
TABLE
  2
STYLE
  5
3
330
0
100
AcDbSymbolTable
 70
     1
  0
STYLE
  5
10
330
3
100
AcDbSymbolTableRecord
100
AcDbTextStyleTableRecord
  2
STANDARD
 70
     0
 40
0.0
 41
1.0
 50
0.0
 71
     0
 42
180.0
  3
simplex.shx
  4
extfont.shx
  0
ENDTAB
  0
TABLE
  2
VIEW
  5
6
330
0
100
AcDbSymbolTable
 70
     0
  0
ENDTAB
  0
TABLE
  2
UCS
  5
7
330
0
100
AcDbSymbolTable
 70
     0
  0
ENDTAB
  0
TABLE
  2
APPID
  5
9
330
0
100
AcDbSymbolTable
 70
     4
  0
APPID
  5
11
330
9
100
AcDbSymbolTableRecord
100
AcDbRegAppTableRecord
  2
ACAD
 70
     0
  0
APPID
  5
815B
330
9
100
AcDbSymbolTableRecord
100
AcDbRegAppTableRecord
  2
AcadAnnoMonitorAlertIconDisabled
 70
     0
  0
APPID
  5
815C
330
9
100
AcDbSymbolTableRecord
100
AcDbRegAppTableRecord
  2
ACAD_EXEMPT_FROM_CAD_STANDARDS
 70
     0
  0
APPID
  5
81A4
330
9
100
AcDbSymbolTableRecord
100
AcDbRegAppTableRecord
  2
ACAD_NAV_VCDISPLAY
 70
     0
  0
ENDTAB
  0
TABLE
  2
DIMSTYLE
  5
A
330
0
100
AcDbSymbolTable
 70
     2
100
AcDbDimStyleTable
 71
     1
340
1D
  0
DIMSTYLE
105
1D
102
{ACAD_REACTORS
330
7F87
330
8052
330
805F
330
806C
330
8079
330
8088
330
8095
102
}
330
A
100
AcDbSymbolTableRecord
100
AcDbDimStyleTableRecord
  2
IGA
 70
     0
 40
2.0
 41
2.0
 42
0.5
 43
10.0
 44
1.0
 47
1.0
 48
1.0
 73
     0
 74
     0
 77
     1
 78
     8
140
3.0
141
0.0
143
0.03937
146
10.0
147
1.0
173
     1
271
     1
272
     0
279
     2
284
     8
340
10
341
79FC
343
79FC
344
79FC
  0
DIMSTYLE
105
7B38
102
{ACAD_REACTORS
330
7C24
330
7C25
330
7C26
330
7C2B
330
7C52
330
7C5F
330
7CAA
330
7CAB
330
7CAC
330
7CD2
330
7CDE
330
7CDF
330
7CE0
330
7CE1
330
7CE2
102
}
330
A
100
AcDbSymbolTableRecord
100
AcDbDimStyleTableRecord
  2
MATSU
 70
     0
 41
2.0
 42
1.0
 43
10.0
 44
1.0
 73
     0
 74
     0
 77
     1
 78
     8
140
3.0
141
0.0
143
0.03937
147
0.5
172
     1
173
     1
176
   256
177
   256
178
   256
284
     8
289
     0
340
10
341
79FC
343
79FC
344
79FC
  0
ENDTAB
  0
TABLE
  2
BLOCK_RECORD
  5
1
330
0
100
AcDbSymbolTable
 70
    25
  0
BLOCK_RECORD
  5
19
102
{ACAD_XDICTIONARY
360
80CC
102
}
330
1
100
AcDbSymbolTableRecord
100
AcDbBlockTableRecord
  2
*MODEL_SPACE
340
80A1
 70
     0
280
     1
281
     0
  0
BLOCK_RECORD
  5
16
102
{ACAD_XDICTIONARY
360
80CA
102
}
330
1
100
AcDbSymbolTableRecord
100
AcDbBlockTableRecord
  2
*PAPER_SPACE
340
80A2
 70
     0
280
     1
281
     0
  0
BLOCK_RECORD
  5
79FC
330
1
100
AcDbSymbolTableRecord
100
AcDbBlockTableRecord
  2
_OPEN
340
0
102
{BLKREFS
331
7E14
331
7E15
331
7E1F
331
7E20
331
7E2A
331
7E2B
331
7E35
331
7E36
331
7E80
331
7E81
331
8065
331
8066
331
8072
331
8073
331
808E
331
808F
331
80D6
331
80D7
331
80DE
331
80DF
331
80EE
331
80EF
331
8028
331
8029
331
804B
331
804C
331
8058
331
8059
331
7EA0
331
7EA1
331
7EE3
331
7EE4
331
7EEE
331
7EEF
331
7F0E
331
7F0F
331
80FA
331
8183
331
8184
331
818B
331
818C
102
}
 70
     0
280
     1
281
     0
  0
BLOCK_RECORD
  5
7CF3
330
1
100
AcDbSymbolTableRecord
100
AcDbBlockTableRecord
  2
*D1
340
0
 70
     0
280
     1
281
     0
  0
BLOCK_RECORD
  5
7CFF
330
1
100
AcDbSymbolTableRecord
100
AcDbBlockTableRecord
  2
*D2
340
0
 70
     0
280
     1
281
     0
  0
BLOCK_RECORD
  5
7D0B
330
1
100
AcDbSymbolTableRecord
100
AcDbBlockTableRecord
  2
*D3
340
0
 70
     0
280
     1
281
     0
  0
BLOCK_RECORD
  5
7D17
330
1
100
AcDbSymbolTableRecord
100
AcDbBlockTableRecord
  2
*D4
340
0
 70
     0
280
     1
281
     0
  0
BLOCK_RECORD
  5
7D69
330
1
100
AcDbSymbolTableRecord
100
AcDbBlockTableRecord
  2
*D5
340
0
 70
     0
280
     1
281
     0
  0
BLOCK_RECORD
  5
7D75
330
1
100
AcDbSymbolTableRecord
100
AcDbBlockTableRecord
  2
*D6
340
0
 70
     0
280
     1
281
     0
  0
BLOCK_RECORD
  5
7D81
330
1
100
AcDbSymbolTableRecord
100
AcDbBlockTableRecord
  2
*D7
340
0
 70
     0
280
     1
281
     0
  0
BLOCK_RECORD
  5
7D8C
330
1
100
AcDbSymbolTableRecord
100
AcDbBlockTableRecord
  2
*D8
340
0
 70
     0
280
     1
281
     0
  0
BLOCK_RECORD
  5
7D98
330
1
100
AcDbSymbolTableRecord
100
AcDbBlockTableRecord
  2
*D9
340
0
 70
     0
280
     1
281
     0
  0
BLOCK_RECORD
  5
7DCA
330
1
100
AcDbSymbolTableRecord
100
AcDbBlockTableRecord
  2
*D10
340
0
 70
     0
280
     1
281
     0
  0
BLOCK_RECORD
  5
7DD5
330
1
100
AcDbSymbolTableRecord
100
AcDbBlockTableRecord
  2
*D11
340
0
 70
     0
280
     1
281
     0
  0
BLOCK_RECORD
  5
7DE1
330
1
100
AcDbSymbolTableRecord
100
AcDbBlockTableRecord
  2
*D12
340
0
 70
     0
280
     1
281
     0
  0
BLOCK_RECORD
  5
7DED
330
1
100
AcDbSymbolTableRecord
100
AcDbBlockTableRecord
  2
*D13
340
0
 70
     0
280
     1
281
     0
  0
BLOCK_RECORD
  5
7DF8
330
1
100
AcDbSymbolTableRecord
100
AcDbBlockTableRecord
  2
*D14
340
0
 70
     0
280
     1
281
     0
  0
BLOCK_RECORD
  5
7E04
330
1
100
AcDbSymbolTableRecord
100
AcDbBlockTableRecord
  2
*D15
340
0
 70
     0
280
     1
281
     0
  0
BLOCK_RECORD
  5
7F78
330
1
100
AcDbSymbolTableRecord
100
AcDbBlockTableRecord
  2
*D16
340
0
 70
     0
280
     1
281
     0
  0
BLOCK_RECORD
  5
7FC4
330
1
100
AcDbSymbolTableRecord
100
AcDbBlockTableRecord
  2
_DOT
340
0
102
{BLKREFS
331
80F9
102
}
 70
     0
280
     1
281
     0
  0
BLOCK_RECORD
  5
8046
330
1
100
AcDbSymbolTableRecord
100
AcDbBlockTableRecord
  2
*D18
340
0
 70
     0
280
     1
281
     0
  0
BLOCK_RECORD
  5
8053
330
1
100
AcDbSymbolTableRecord
100
AcDbBlockTableRecord
  2
*D19
340
0
 70
     0
280
     1
281
     0
  0
BLOCK_RECORD
  5
8060
330
1
100
AcDbSymbolTableRecord
100
AcDbBlockTableRecord
  2
*D20
340
0
 70
     0
280
     1
281
     0
  0
BLOCK_RECORD
  5
806D
330
1
100
AcDbSymbolTableRecord
100
AcDbBlockTableRecord
  2
*D21
340
0
 70
     0
280
     1
281
     0
  0
BLOCK_RECORD
  5
807A
330
1
100
AcDbSymbolTableRecord
100
AcDbBlockTableRecord
  2
_NONE
340
0
 70
     0
280
     1
281
     0
  0
BLOCK_RECORD
  5
807E
330
1
100
AcDbSymbolTableRecord
100
AcDbBlockTableRecord
  2
*D23
340
0
 70
     0
280
     1
281
     0
  0
BLOCK_RECORD
  5
8089
330
1
100
AcDbSymbolTableRecord
100
AcDbBlockTableRecord
  2
*D24
340
0
 70
     0
280
     1
281
     0
  0
ENDTAB
  0
ENDSEC
  0
SECTION
  2
BLOCKS
  0
BLOCK
  5
1A
330
19
100
AcDbEntity
  8
0
100
AcDbBlockBegin
  2
*MODEL_SPACE
 70
     0
 10
0.0
 20
0.0
 30
0.0
  3
*MODEL_SPACE
  1

  0
ENDBLK
  5
1B
330
19
100
AcDbEntity
  8
0
100
AcDbBlockEnd
  0
BLOCK
  5
17
330
16
100
AcDbEntity
 67
     1
  8
0
100
AcDbBlockBegin
  2
*PAPER_SPACE
 70
     0
 10
0.0
 20
0.0
 30
0.0
  3
*PAPER_SPACE
  1

  0
ENDBLK
  5
18
330
16
100
AcDbEntity
 67
     1
  8
0
100
AcDbBlockEnd
  0
BLOCK
  5
7A00
330
79FC
100
AcDbEntity
  8
0
100
AcDbBlockBegin
  2
_OPEN
 70
     0
 10
0.0
 20
0.0
 30
0.0
  3
_OPEN
  1

  0
LINE
  5
79FD
330
79FC
100
AcDbEntity
  8
0
  6
ByBlock
 62
     0
100
AcDbLine
 10
-1.0
 20
0.1666666666666666
 30
0.0
 11
0.0
 21
0.0
 31
0.0
  0
LINE
  5
79FE
330
79FC
100
AcDbEntity
  8
0
  6
ByBlock
 62
     0
100
AcDbLine
 10
0.0
 20
0.0
 30
0.0
 11
-1.0
 21
-0.1666666666666666
 31
0.0
  0
LINE
  5
79FF
330
79FC
100
AcDbEntity
  8
0
  6
ByBlock
 62
     0
100
AcDbLine
 10
0.0
 20
0.0
 30
0.0
 11
-1.0
 21
0.0
 31
0.0
  0
ENDBLK
  5
7A01
330
79FC
100
AcDbEntity
  8
0
100
AcDbBlockEnd
  0
BLOCK
  5
7E10
330
7CF3
100
AcDbEntity
  8
0
100
AcDbBlockBegin
  2
*D1
 70
     1
 10
0.0
 20
0.0
 30
0.0
  3
*D1
  1

  0
LINE
  5
7E11
330
7CF3
100
AcDbEntity
  8
0
  6
ByBlock
440
 16777216
100
AcDbLine
 10
1861.515496050694
 20
1659.732634008198
 30
0.0
 11
2017.012365604728
 21
1659.732634008198
 31
0.0
  0
LINE
  5
7E12
330
7CF3
100
AcDbEntity
  8
0
  6
ByBlock
440
 16777216
100
AcDbLine
 10
1861.515496050694
 20
1079.732634008197
 30
0.0
 11
2017.012365604728
 21
1079.732634008197
 31
0.0
  0
LINE
  5
7E13
330
7CF3
100
AcDbEntity
  8
0
  6
ByBlock
440
 16777216
100
AcDbLine
 10
1997.012365604728
 20
1619.732634008198
 30
0.0
 11
1997.012365604728
 21
1119.732634008197
 31
0.0
  0
INSERT
  5
7E14
330
7CF3
100
AcDbEntity
  8
0
  6
ByBlock
440
 16777216
100
AcDbBlockReference
  2
_OPEN
 10
1997.012365604728
 20
1659.732634008198
 30
0.0
 41
40.0
 42
40.0
 43
40.0
 50
90.0
  0
INSERT
  5
7E15
330
7CF3
100
AcDbEntity
  8
0
  6
ByBlock
440
 16777216
100
AcDbBlockReference
  2
_OPEN
 10
1997.012365604728
 20
1079.732634008197
 30
0.0
 41
40.0
 42
40.0
 43
40.0
 50
270.0
  0
MTEXT
  5
7E16
330
7CF3
100
AcDbEntity
  8
0
  6
ByBlock
440
 16777216
100
AcDbMText
 10
1957.012365604728
 20
1369.732634008198
 30
0.0
 40
60.0
 41
0.0
 46
0.0
 71
     5
 72
     5
  1
\A1;580
 11
0.0
 21
1.0
 31
0.0
 73
     1
 44
1.0
  0
POINT
  5
7E17
330
7CF3
100
AcDbEntity
  8
DEFPOINTS
  6
ByBlock
 62
     0
440
 16777216
100
AcDbPoint
 10
1841.515496050694
 20
1659.732634008198
 30
0.0
  0
POINT
  5
7E18
330
7CF3
100
AcDbEntity
  8
DEFPOINTS
  6
ByBlock
 62
     0
440
 16777216
100
AcDbPoint
 10
1841.515496050694
 20
1079.732634008197
 30
0.0
  0
POINT
  5
7E19
330
7CF3
100
AcDbEntity
  8
DEFPOINTS
  6
ByBlock
 62
     0
440
 16777216
100
AcDbPoint
 10
1997.012365604728
 20
1079.732634008197
 30
0.0
  0
ENDBLK
  5
7E1A
330
7CF3
100
AcDbEntity
  8
0
100
AcDbBlockEnd
  0
BLOCK
  5
7E1B
330
7CFF
100
AcDbEntity
  8
0
100
AcDbBlockBegin
  2
*D2
 70
     1
 10
0.0
 20
0.0
 30
0.0
  3
*D2
  1

  0
LINE
  5
7E1C
330
7CFF
100
AcDbEntity
  8
0
  6
ByBlock
440
 16777216
100
AcDbLine
 10
1873.515496050694
 20
1659.732634008198
 30
0.0
 11
2143.432219014783
 21
1659.732634008198
 31
0.0
  0
LINE
  5
7E1D
330
7CFF
100
AcDbEntity
  8
0
  6
ByBlock
440
 16777216
100
AcDbLine
 10
1905.115120615952
 20
1059.732634008198
 30
0.0
 11
2143.432219014783
 21
1059.732634008198
 31
0.0
  0
LINE
  5
7E1E
330
7CFF
100
AcDbEntity
  8
0
  6
ByBlock
440
 16777216
100
AcDbLine
 10
2123.432219014783
 20
1619.732634008198
 30
0.0
 11
2123.432219014783
 21
1099.732634008198
 31
0.0
  0
INSERT
  5
7E1F
330
7CFF
100
AcDbEntity
  8
0
  6
ByBlock
440
 16777216
100
AcDbBlockReference
  2
_OPEN
 10
2123.432219014783
 20
1659.732634008198
 30
0.0
 41
40.0
 42
40.0
 43
40.0
 50
90.0
  0
INSERT
  5
7E20
330
7CFF
100
AcDbEntity
  8
0
  6
ByBlock
440
 16777216
100
AcDbBlockReference
  2
_OPEN
 10
2123.432219014783
 20
1059.732634008198
 30
0.0
 41
40.0
 42
40.0
 43
40.0
 50
270.0
  0
MTEXT
  5
7E21
330
7CFF
100
AcDbEntity
  8
0
  6
ByBlock
440
 16777216
100
AcDbMText
 10
2083.432219014783
 20
1359.732634008198
 30
0.0
 40
60.0
 41
0.0
 46
0.0
 71
     5
 72
     5
  1
\A1;600
 11
0.0
 21
1.0
 31
0.0
 73
     1
 44
1.0
  0
POINT
  5
7E22
330
7CFF
100
AcDbEntity
  8
DEFPOINTS
  6
ByBlock
 62
     0
440
 16777216
100
AcDbPoint
 10
1853.515496050694
 20
1659.732634008198
 30
0.0
  0
POINT
  5
7E23
330
7CFF
100
AcDbEntity
  8
DEFPOINTS
  6
ByBlock
 62
     0
440
 16777216
100
AcDbPoint
 10
1885.115120615952
 20
1059.732634008198
 30
0.0
  0
POINT
  5
7E24
330
7CFF
100
AcDbEntity
  8
DEFPOINTS
  6
ByBlock
 62
     0
440
 16777216
100
AcDbPoint
 10
2123.432219014783
 20
1059.732634008198
 30
0.0
  0
ENDBLK
  5
7E25
330
7CFF
100
AcDbEntity
  8
0
100
AcDbBlockEnd
  0
BLOCK
  5
7E26
330
7D0B
100
AcDbEntity
  8
0
100
AcDbBlockBegin
  2
*D3
 70
     1
 10
0.0
 20
0.0
 30
0.0
  3
*D3
  1

  0
LINE
  5
7E27
330
7D0B
100
AcDbEntity
  8
0
  6
ByBlock
440
 16777216
100
AcDbLine
 10
3512.906635817507
 20
1339.732634008198
 30
0.0
 11
3713.31995148206
 21
1339.732634008198
 31
0.0
  0
LINE
  5
7E28
330
7D0B
100
AcDbEntity
  8
0
  6
ByBlock
440
 16777216
100
AcDbLine
 10
3512.906635817507
 20
779.7326340081976
 30
0.0
 11
3713.31995148206
 21
779.7326340081976
 31
0.0
  0
LINE
  5
7E29
330
7D0B
100
AcDbEntity
  8
0
  6
ByBlock
440
 16777216
100
AcDbLine
 10
3693.31995148206
 20
1299.732634008198
 30
0.0
 11
3693.31995148206
 21
819.7326340081977
 31
0.0
  0
INSERT
  5
7E2A
330
7D0B
100
AcDbEntity
  8
0
  6
ByBlock
440
 16777216
100
AcDbBlockReference
  2
_OPEN
 10
3693.31995148206
 20
1339.732634008198
 30
0.0
 41
40.0
 42
40.0
 43
40.0
 50
90.0
  0
INSERT
  5
7E2B
330
7D0B
100
AcDbEntity
  8
0
  6
ByBlock
440
 16777216
100
AcDbBlockReference
  2
_OPEN
 10
3693.31995148206
 20
779.7326340081976
 30
0.0
 41
40.0
 42
40.0
 43
40.0
 50
270.0
  0
MTEXT
  5
7E2C
330
7D0B
100
AcDbEntity
  8
0
  6
ByBlock
440
 16777216
100
AcDbMText
 10
3653.31995148206
 20
1059.732634008198
 30
0.0
 40
60.0
 41
0.0
 46
0.0
 71
     5
 72
     5
  1
\A1;φ 560
 11
0.0
 21
1.0
 31
0.0
 73
     1
 44
1.0
  0
POINT
  5
7E2D
330
7D0B
100
AcDbEntity
  8
DEFPOINTS
  6
ByBlock
 62
     0
440
 16777216
100
AcDbPoint
 10
3492.906635817507
 20
1339.732634008198
 30
0.0
  0
POINT
  5
7E2E
330
7D0B
100
AcDbEntity
  8
DEFPOINTS
  6
ByBlock
 62
     0
440
 16777216
100
AcDbPoint
 10
3492.906635817507
 20
779.7326340081976
 30
0.0
  0
POINT
  5
7E2F
330
7D0B
100
AcDbEntity
  8
DEFPOINTS
  6
ByBlock
 62
     0
440
 16777216
100
AcDbPoint
 10
3693.31995148206
 20
779.7326340081976
 30
0.0
  0
ENDBLK
  5
7E30
330
7D0B
100
AcDbEntity
  8
0
100
AcDbBlockEnd
  0
BLOCK
  5
7E31
330
7D17
100
AcDbEntity
  8
0
100
AcDbBlockBegin
  2
*D4
 70
     1
 10
0.0
 20
0.0
 30
0.0
  3
*D4
  1

  0
LINE
  5
7E32
330
7D17
100
AcDbEntity
  8
0
  6
ByBlock
440
 16777216
100
AcDbLine
 10
1451.515496050694
 20
1714.700138209654
 30
0.0
 11
1451.515496050694
 21
1768.844790478752
 31
0.0
  0
LINE
  5
7E33
330
7D17
100
AcDbEntity
  8
0
  6
ByBlock
440
 16777216
100
AcDbLine
 10
1841.515496050694
 20
1711.732634008197
 30
0.0
 11
1841.515496050694
 21
1768.844790478752
 31
0.0
  0
LINE
  5
7E34
330
7D17
100
AcDbEntity
  8
0
  6
ByBlock
440
 16777216
100
AcDbLine
 10
1491.515496050694
 20
1748.844790478752
 30
0.0
 11
1801.515496050694
 21
1748.844790478752
 31
0.0
  0
INSERT
  5
7E35
330
7D17
100
AcDbEntity
  8
0
  6
ByBlock
440
 16777216
100
AcDbBlockReference
  2
_OPEN
 10
1451.515496050694
 20
1748.844790478752
 30
0.0
 41
40.0
 42
40.0
 43
40.0
 50
180.0
  0
INSERT
  5
7E36
330
7D17
100
AcDbEntity
  8
0
  6
ByBlock
440
 16777216
100
AcDbBlockReference
  2
_OPEN
 10
1841.515496050694
 20
1748.844790478752
 30
0.0
 41
40.0
 42
40.0
 43
40.0
  0
MTEXT
  5
7E37
330
7D17
100
AcDbEntity
  8
0
  6
ByBlock
440
 16777216
100
AcDbMText
 10
1646.515496050694
 20
1788.844790478752
 30
0.0
 40
60.0
 41
0.0
 46
0.0
 71
     5
 72
     5
  1
\A1;390
 73
     1
 44
1.0
  0
POINT
  5
7E38
330
7D17
100
AcDbEntity
  8
DEFPOINTS
  6
ByBlock
 62
     0
440
 16777216
100
AcDbPoint
 10
1451.515496050694
 20
1694.700138209654
 30
0.0
  0
POINT
  5
7E39
330
7D17
100
AcDbEntity
  8
DEFPOINTS
  6
ByBlock
 62
     0
440
 16777216
100
AcDbPoint
 10
1841.515496050694
 20
1691.732634008198
 30
0.0
  0
POINT
  5
7E3A
330
7D17
100
AcDbEntity
  8
DEFPOINTS
  6
ByBlock
 62
     0
440
 16777216
100
AcDbPoint
 10
1841.515496050694
 20
1748.844790478752
 30
0.0
  0
ENDBLK
  5
7E3B
330
7D17
100
AcDbEntity
  8
0
100
AcDbBlockEnd
  0
BLOCK
  5
7E7C
330
7D69
100
AcDbEntity
  8
0
100
AcDbBlockBegin
  2
*D5
 70
     1
 10
0.0
 20
0.0
 30
0.0
  3
*D5
  1

  0
LINE
  5
7E7D
330
7D69
100
AcDbEntity
  8
0
  6
ByBlock
440
 16777216
100
AcDbLine
 10
2740.906635817508
 20
1679.732634008198
 30
0.0
 11
2740.906635817508
 21
1769.684429060102
 31
0.0
  0
LINE
  5
7E7E
330
7D69
100
AcDbEntity
  8
0
  6
ByBlock
440
 16777216
100
AcDbLine
 10
3490.906635817508
 20
1679.732634008198
 30
0.0
 11
3490.906635817508
 21
1769.684429060102
 31
0.0
  0
LINE
  5
7E7F
330
7D69
100
AcDbEntity
  8
0
  6
ByBlock
440
 16777216
100
AcDbLine
 10
2780.906635817508
 20
1749.684429060102
 30
0.0
 11
3450.906635817509
 21
1749.684429060102
 31
0.0
  0
INSERT
  5
7E80
330
7D69
100
AcDbEntity
  8
0
  6
ByBlock
440
 16777216
100
AcDbBlockReference
  2
_OPEN
 10
2740.906635817508
 20
1749.684429060102
 30
0.0
 41
40.0
 42
40.0
 43
40.0
 50
180.0
  0
INSERT
  5
7E81
330
7D69
100
AcDbEntity
  8
0
  6
ByBlock
440
 16777216
100
AcDbBlockReference
  2
_OPEN
 10
3490.906635817508
 20
1749.684429060102
 30
0.0
 41
40.0
 42
40.0
 43
40.0
  0
MTEXT
  5
7E82
330
7D69
100
AcDbEntity
  8
0
  6
ByBlock
440
 16777216
100
AcDbMText
 10
3115.906635817508
 20
1789.684429060102
 30
0.0
 40
60.0
 41
0.0
 46
0.0
 71
     5
 72
     5
  1
\A1;750
 73
     1
 44
1.0
  0
POINT
  5
7E83
330
7D69
100
AcDbEntity
  8
DEFPOINTS
  6
ByBlock
 62
     0
440
 16777216
100
AcDbPoint
 10
2740.906635817508
 20
1659.732634008198
 30
0.0
  0
POINT
  5
7E84
330
7D69
100
AcDbEntity
  8
DEFPOINTS
  6
ByBlock
 62
     0
440
 16777216
100
AcDbPoint
 10
3490.906635817508
 20
1659.732634008198
 30
0.0
  0
POINT
  5
7E85
330
7D69
100
AcDbEntity
  8
DEFPOINTS
  6
ByBlock
 62
     0
440
 16777216
100
AcDbPoint
 10
3490.906635817508
 20
1749.684429060102
 30
0.0
  0
ENDBLK
  5
7E86
330
7D69
100
AcDbEntity
  8
0
100
AcDbBlockEnd
  0
BLOCK
  5
7E87
330
7D75
100
AcDbEntity
  8
0
100
AcDbBlockBegin
  2
*D6
 70
     1
 10
0.0
 20
0.0
 30
0.0
  3
*D6
  1

  0
LINE
  5
8180
330
7D75
100
AcDbEntity
  8
3
440
 16777216
370
    -2
100
AcDbLine
 10
3585.906635817508
 20
1934.524943391219
 30
0.0
 11
3585.906635817508
 21
2819.777879114134
 31
0.0
  0
LINE
  5
8181
330
7D75
100
AcDbEntity
  8
3
440
 16777216
370
    -2
100
AcDbLine
 10
3115.906635817508
 20
2743.177695652147
 30
0.0
 11
3115.906635817508
 21
2819.777879114134
 31
0.0
  0
LINE
  5
8182
330
7D75
100
AcDbEntity
  8
3
440
 16777216
370
    -2
100
AcDbLine
 10
3545.906635817509
 20
2799.777879114134
 30
0.0
 11
3155.906635817508
 21
2799.777879114134
 31
0.0
  0
INSERT
  5
8183
330
7D75
100
AcDbEntity
  8
3
440
 16777216
370
    -2
100
AcDbBlockReference
  2
_OPEN
 10
3585.906635817508
 20
2799.777879114134
 30
0.0
 41
40.0
 42
40.0
 43
40.0
  0
INSERT
  5
8184
330
7D75
100
AcDbEntity
  8
3
440
 16777216
370
    -2
100
AcDbBlockReference
  2
_OPEN
 10
3115.906635817508
 20
2799.777879114134
 30
0.0
 41
40.0
 42
40.0
 43
40.0
 50
180.0
  0
MTEXT
  5
8185
330
7D75
100
AcDbEntity
  8
3
440
 16777216
100
AcDbMText
 10
3350.906635817508
 20
2855.492164828419
 30
0.0
 40
60.0
 41
0.0
 46
0.0
 71
     5
 72
     1
  1
\A1;(470)
 73
     1
 44
1.0
  0
POINT
  5
8186
330
7D75
100
AcDbEntity
  8
DEFPOINTS
 62
     0
440
 16777216
100
AcDbPoint
 10
3585.906635817508
 20
1914.524943391219
 30
0.0
  0
POINT
  5
8187
330
7D75
100
AcDbEntity
  8
DEFPOINTS
 62
     0
440
 16777216
100
AcDbPoint
 10
3115.906635817508
 20
2723.177695652146
 30
0.0
  0
POINT
  5
8188
330
7D75
100
AcDbEntity
  8
DEFPOINTS
 62
     0
440
 16777216
100
AcDbPoint
 10
3115.906635817508
 20
2799.777879114134
 30
0.0
  0
ENDBLK
  5
7E91
330
7D75
100
AcDbEntity
  8
0
100
AcDbBlockEnd
  0
BLOCK
  5
7E92
330
7D81
100
AcDbEntity
  8
0
100
AcDbBlockBegin
  2
*D7
 70
     1
 10
0.0
 20
0.0
 30
0.0
  3
*D7
  1

  0
LINE
  5
80D4
330
7D81
100
AcDbEntity
  8
3
440
 16777216
100
AcDbLine
 10
965.8413541790269
 20
2029.424943391219
 30
0.0
 11
965.8413541790269
 21
2676.537099861773
 31
0.0
  0
LINE
  5
80D5
330
7D81
100
AcDbEntity
  8
3
440
 16777216
100
AcDbLine
 10
1411.515496050693
 20
2656.537099861773
 30
0.0
 11
1005.841354179027
 21
2656.537099861773
 31
0.0
  0
INSERT
  5
80D6
330
7D81
100
AcDbEntity
  8
3
440
 16777216
100
AcDbBlockReference
  2
_OPEN
 10
1451.515496050693
 20
2656.537099861773
 30
0.0
 41
40.0
 42
40.0
 43
40.0
  0
INSERT
  5
80D7
330
7D81
100
AcDbEntity
  8
3
440
 16777216
100
AcDbBlockReference
  2
_OPEN
 10
965.8413541790269
 20
2656.537099861773
 30
0.0
 41
40.0
 42
40.0
 43
40.0
 50
180.0
  0
MTEXT
  5
80D8
330
7D81
100
AcDbEntity
  8
3
440
 16777216
100
AcDbMText
 10
1208.67842511486
 20
2696.537099861773
 30
0.0
 40
60.0
 41
0.0
 46
0.0
 71
     5
 72
     5
  1
\A1;484
 73
     1
 44
1.0
  0
POINT
  5
80D9
330
7D81
100
AcDbEntity
  8
DEFPOINTS
 62
     0
440
 16777216
100
AcDbPoint
 10
1451.515496050693
 20
2602.392447592675
 30
0.0
  0
POINT
  5
80DA
330
7D81
100
AcDbEntity
  8
DEFPOINTS
 62
     0
440
 16777216
100
AcDbPoint
 10
965.8413541790269
 20
2009.424943391219
 30
0.0
  0
POINT
  5
80DB
330
7D81
100
AcDbEntity
  8
DEFPOINTS
 62
     0
440
 16777216
100
AcDbPoint
 10
965.8413541790269
 20
2656.537099861773
 30
0.0
  0
ENDBLK
  5
7E9B
330
7D81
100
AcDbEntity
  8
0
100
AcDbBlockEnd
  0
BLOCK
  5
7E9C
330
7D8C
100
AcDbEntity
  8
0
100
AcDbBlockBegin
  2
*D8
 70
     1
 10
0.0
 20
0.0
 30
0.0
  3
*D8
  1

  0
LINE
  5
7E9D
330
7D8C
100
AcDbEntity
  8
0
  6
ByBlock
440
 16777216
100
AcDbLine
 10
1841.515496050694
 20
1711.732634008197
 30
0.0
 11
1841.515496050694
 21
1897.17890356115
 31
0.0
  0
LINE
  5
7E9E
330
7D8C
100
AcDbEntity
  8
0
  6
ByBlock
440
 16777216
100
AcDbLine
 10
456.5154960506938
 20
684.7326340081977
 30
0.0
 11
456.5154960506938
 21
1897.17890356115
 31
0.0
  0
LINE
  5
7E9F
330
7D8C
100
AcDbEntity
  8
0
  6
ByBlock
440
 16777216
100
AcDbLine
 10
1801.515496050694
 20
1877.17890356115
 30
0.0
 11
496.5154960506938
 21
1877.17890356115
 31
0.0
  0
INSERT
  5
7EA0
330
7D8C
100
AcDbEntity
  8
0
  6
ByBlock
440
 16777216
100
AcDbBlockReference
  2
_OPEN
 10
1841.515496050694
 20
1877.17890356115
 30
0.0
 41
40.0
 42
40.0
 43
40.0
  0
INSERT
  5
7EA1
330
7D8C
100
AcDbEntity
  8
0
  6
ByBlock
440
 16777216
100
AcDbBlockReference
  2
_OPEN
 10
456.5154960506938
 20
1877.17890356115
 30
0.0
 41
40.0
 42
40.0
 43
40.0
 50
180.0
  0
MTEXT
  5
7EA2
330
7D8C
100
AcDbEntity
  8
0
  6
ByBlock
440
 16777216
100
AcDbMText
 10
1149.015496050694
 20
1917.17890356115
 30
0.0
 40
60.0
 41
0.0
 46
0.0
 71
     5
 72
     5
  1
\A1;1385
 73
     1
 44
1.0
  0
POINT
  5
7EA3
330
7D8C
100
AcDbEntity
  8
DEFPOINTS
  6
ByBlock
 62
     0
440
 16777216
100
AcDbPoint
 10
1841.515496050694
 20
1691.732634008198
 30
0.0
  0
POINT
  5
7EA4
330
7D8C
100
AcDbEntity
  8
DEFPOINTS
  6
ByBlock
 62
     0
440
 16777216
100
AcDbPoint
 10
456.5154960506938
 20
664.7326340081977
 30
0.0
  0
POINT
  5
7EA5
330
7D8C
100
AcDbEntity
  8
DEFPOINTS
  6
ByBlock
 62
     0
440
 16777216
100
AcDbPoint
 10
456.5154960506938
 20
1877.17890356115
 30
0.0
  0
ENDBLK
  5
7EA6
330
7D8C
100
AcDbEntity
  8
0
100
AcDbBlockEnd
  0
BLOCK
  5
7EA7
330
7D98
100
AcDbEntity
  8
0
100
AcDbBlockBegin
  2
*D9
 70
     1
 10
0.0
 20
0.0
 30
0.0
  3
*D9
  1

  0
LINE
  5
80DC
330
7D98
100
AcDbEntity
  8
3
440
 16777216
100
AcDbLine
 10
1826.515496050693
 20
1497.424943391219
 30
0.0
 11
2143.432219014783
 21
1497.424943391219
 31
0.0
  0
LINE
  5
80DD
330
7D98
100
AcDbEntity
  8
3
440
 16777216
100
AcDbLine
 10
2123.432219014783
 20
1927.424943391218
 30
0.0
 11
2123.432219014783
 21
1537.424943391219
 31
0.0
  0
INSERT
  5
80DE
330
7D98
100
AcDbEntity
  8
3
440
 16777216
100
AcDbBlockReference
  2
_OPEN
 10
2123.432219014783
 20
1967.424943391218
 30
0.0
 41
40.0
 42
40.0
 43
40.0
 50
90.0
  0
INSERT
  5
80DF
330
7D98
100
AcDbEntity
  8
3
440
 16777216
100
AcDbBlockReference
  2
_OPEN
 10
2123.432219014783
 20
1497.424943391219
 30
0.0
 41
40.0
 42
40.0
 43
40.0
 50
270.0
  0
MTEXT
  5
80E0
330
7D98
100
AcDbEntity
  8
3
440
 16777216
100
AcDbMText
 10
2083.432219014783
 20
1732.424943391219
 30
0.0
 40
60.0
 41
0.0
 46
0.0
 71
     5
 72
     5
  1
\A1;470
 11
0.0000000000000001
 21
1.0
 31
0.0
 73
     1
 44
1.0
  0
POINT
  5
80E1
330
7D98
100
AcDbEntity
  8
DEFPOINTS
 62
     0
440
 16777216
100
AcDbPoint
 10
1885.115120615952
 20
1967.424943391218
 30
0.0
  0
POINT
  5
80E2
330
7D98
100
AcDbEntity
  8
DEFPOINTS
 62
     0
440
 16777216
100
AcDbPoint
 10
1806.515496050693
 20
1497.424943391219
 30
0.0
  0
POINT
  5
80E3
330
7D98
100
AcDbEntity
  8
DEFPOINTS
 62
     0
440
 16777216
100
AcDbPoint
 10
2123.432219014783
 20
1497.424943391219
 30
0.0
  0
ENDBLK
  5
7EB0
330
7D98
100
AcDbEntity
  8
0
100
AcDbBlockEnd
  0
BLOCK
  5
8034
330
7DCA
100
AcDbEntity
  8
0
100
AcDbBlockBegin
  2
*D10
 70
     1
 10
0.0
 20
0.0
 30
0.0
  3
*D10
  1

  0
LINE
  5
8189
330
7DCA
100
AcDbEntity
  8
3
440
 16777216
370
    -2
100
AcDbLine
 10
2435.906635817508
 20
2207.424943391218
 30
0.0
 11
2435.906635817508
 21
2819.777879114134
 31
0.0
  0
LINE
  5
818A
330
7DCA
100
AcDbEntity
  8
3
440
 16777216
370
    -2
100
AcDbLine
 10
3075.906635817508
 20
2799.777879114134
 30
0.0
 11
2475.906635817508
 21
2799.777879114134
 31
0.0
  0
INSERT
  5
818B
330
7DCA
100
AcDbEntity
  8
3
440
 16777216
370
    -2
100
AcDbBlockReference
  2
_OPEN
 10
3115.906635817508
 20
2799.777879114134
 30
0.0
 41
40.0
 42
40.0
 43
40.0
  0
INSERT
  5
818C
330
7DCA
100
AcDbEntity
  8
3
440
 16777216
370
    -2
100
AcDbBlockReference
  2
_OPEN
 10
2435.906635817508
 20
2799.777879114134
 30
0.0
 41
40.0
 42
40.0
 43
40.0
 50
180.0
  0
MTEXT
  5
818D
330
7DCA
100
AcDbEntity
  8
3
440
 16777216
100
AcDbMText
 10
2775.906635817508
 20
2855.492164828419
 30
0.0
 40
60.0
 41
0.0
 46
0.0
 71
     5
 72
     1
  1
\A1;(680)
 73
     1
 44
1.0
  0
POINT
  5
818E
330
7DCA
100
AcDbEntity
  8
DEFPOINTS
 62
     0
440
 16777216
100
AcDbPoint
 10
3115.906635817508
 20
2723.177695652146
 30
0.0
  0
POINT
  5
818F
330
7DCA
100
AcDbEntity
  8
DEFPOINTS
 62
     0
440
 16777216
100
AcDbPoint
 10
2435.906635817508
 20
2187.424943391219
 30
0.0
  0
POINT
  5
8190
330
7DCA
100
AcDbEntity
  8
DEFPOINTS
 62
     0
440
 16777216
100
AcDbPoint
 10
2435.906635817508
 20
2799.777879114134
 30
0.0
  0
ENDBLK
  5
803D
330
7DCA
100
AcDbEntity
  8
0
100
AcDbBlockEnd
  0
BLOCK
  5
7EDF
330
7DD5
100
AcDbEntity
  8
0
100
AcDbBlockBegin
  2
*D11
 70
     1
 10
0.0
 20
0.0
 30
0.0
  3
*D11
  1

  0
LINE
  5
7EE0
330
7DD5
100
AcDbEntity
  8
0
  6
ByBlock
440
 16777216
100
AcDbLine
 10
1826.515496050694
 20
3574.073535835267
 30
0.0
 11
2023.109094102409
 21
3574.073535835267
 31
0.0
  0
LINE
  5
7EE1
330
7DD5
100
AcDbEntity
  8
0
  6
ByBlock
440
 16777216
100
AcDbLine
 10
1826.515496050694
 20
2649.073535835267
 30
0.0
 11
2023.109094102409
 21
2649.073535835267
 31
0.0
  0
LINE
  5
7EE2
330
7DD5
100
AcDbEntity
  8
0
  6
ByBlock
440
 16777216
100
AcDbLine
 10
2003.109094102409
 20
3534.073535835267
 30
0.0
 11
2003.109094102409
 21
2689.073535835267
 31
0.0
  0
INSERT
  5
7EE3
330
7DD5
100
AcDbEntity
  8
0
  6
ByBlock
440
 16777216
100
AcDbBlockReference
  2
_OPEN
 10
2003.109094102409
 20
3574.073535835267
 30
0.0
 41
40.0
 42
40.0
 43
40.0
 50
90.0
  0
INSERT
  5
7EE4
330
7DD5
100
AcDbEntity
  8
0
  6
ByBlock
440
 16777216
100
AcDbBlockReference
  2
_OPEN
 10
2003.109094102409
 20
2649.073535835267
 30
0.0
 41
40.0
 42
40.0
 43
40.0
 50
270.0
  0
MTEXT
  5
7EE5
330
7DD5
100
AcDbEntity
  8
0
  6
ByBlock
440
 16777216
100
AcDbMText
 10
1963.109094102408
 20
3111.573535835267
 30
0.0
 40
60.0
 41
0.0
 46
0.0
 71
     5
 72
     5
  1
\A1;925
 11
0.0
 21
1.0
 31
0.0
 73
     1
 44
1.0
  0
POINT
  5
7EE6
330
7DD5
100
AcDbEntity
  8
DEFPOINTS
  6
ByBlock
 62
     0
440
 16777216
100
AcDbPoint
 10
1806.515496050694
 20
3574.073535835267
 30
0.0
  0
POINT
  5
7EE7
330
7DD5
100
AcDbEntity
  8
DEFPOINTS
  6
ByBlock
 62
     0
440
 16777216
100
AcDbPoint
 10
1806.515496050694
 20
2649.073535835267
 30
0.0
  0
POINT
  5
7EE8
330
7DD5
100
AcDbEntity
  8
DEFPOINTS
  6
ByBlock
 62
     0
440
 16777216
100
AcDbPoint
 10
2003.109094102409
 20
2649.073535835267
 30
0.0
  0
ENDBLK
  5
7EE9
330
7DD5
100
AcDbEntity
  8
0
100
AcDbBlockEnd
  0
BLOCK
  5
7EEA
330
7DE1
100
AcDbEntity
  8
0
100
AcDbBlockBegin
  2
*D12
 70
     1
 10
0.0
 20
0.0
 30
0.0
  3
*D12
  1

  0
LINE
  5
7EEB
330
7DE1
100
AcDbEntity
  8
0
  6
ByBlock
440
 16777216
100
AcDbLine
 10
1806.515496050694
 20
3594.073535835267
 30
0.0
 11
1806.515496050694
 21
3749.427487599593
 31
0.0
  0
LINE
  5
7EEC
330
7DE1
100
AcDbEntity
  8
0
  6
ByBlock
440
 16777216
100
AcDbLine
 10
1096.515496050694
 20
3594.073535835268
 30
0.0
 11
1096.515496050694
 21
3749.427487599593
 31
0.0
  0
LINE
  5
7EED
330
7DE1
100
AcDbEntity
  8
0
  6
ByBlock
440
 16777216
100
AcDbLine
 10
1766.515496050694
 20
3729.427487599592
 30
0.0
 11
1136.515496050694
 21
3729.427487599592
 31
0.0
  0
INSERT
  5
7EEE
330
7DE1
100
AcDbEntity
  8
0
  6
ByBlock
440
 16777216
100
AcDbBlockReference
  2
_OPEN
 10
1806.515496050694
 20
3729.427487599592
 30
0.0
 41
40.0
 42
40.0
 43
40.0
  0
INSERT
  5
7EEF
330
7DE1
100
AcDbEntity
  8
0
  6
ByBlock
440
 16777216
100
AcDbBlockReference
  2
_OPEN
 10
1096.515496050694
 20
3729.427487599592
 30
0.0
 41
40.0
 42
40.0
 43
40.0
 50
180.0
  0
MTEXT
  5
7EF0
330
7DE1
100
AcDbEntity
  8
0
  6
ByBlock
440
 16777216
100
AcDbMText
 10
1451.515496050694
 20
3769.427487599593
 30
0.0
 40
60.0
 41
0.0
 46
0.0
 71
     5
 72
     5
  1
\A1;710
 73
     1
 44
1.0
  0
POINT
  5
7EF1
330
7DE1
100
AcDbEntity
  8
DEFPOINTS
  6
ByBlock
 62
     0
440
 16777216
100
AcDbPoint
 10
1806.515496050694
 20
3574.073535835267
 30
0.0
  0
POINT
  5
7EF2
330
7DE1
100
AcDbEntity
  8
DEFPOINTS
  6
ByBlock
 62
     0
440
 16777216
100
AcDbPoint
 10
1096.515496050694
 20
3574.073535835268
 30
0.0
  0
POINT
  5
7EF3
330
7DE1
100
AcDbEntity
  8
DEFPOINTS
  6
ByBlock
 62
     0
440
 16777216
100
AcDbPoint
 10
1096.515496050694
 20
3729.427487599592
 30
0.0
  0
ENDBLK
  5
7EF4
330
7DE1
100
AcDbEntity
  8
0
100
AcDbBlockEnd
  0
BLOCK
  5
7EF5
330
7DED
100
AcDbEntity
  8
0
100
AcDbBlockBegin
  2
*D13
 70
     1
 10
0.0
 20
0.0
 30
0.0
  3
*D13
  1

  0
LINE
  5
80EC
330
7DED
100
AcDbEntity
  8
3
440
 16777216
100
AcDbLine
 10
456.5154960506943
 20
4071.220223056193
 30
0.0
 11
456.5154960506943
 21
4551.574174820518
 31
0.0
  0
LINE
  5
80ED
330
7DED
100
AcDbEntity
  8
3
440
 16777216
100
AcDbLine
 10
1056.515496050694
 20
4531.574174820518
 30
0.0
 11
496.5154960506943
 21
4531.574174820518
 31
0.0
  0
INSERT
  5
80EE
330
7DED
100
AcDbEntity
  8
3
440
 16777216
100
AcDbBlockReference
  2
_OPEN
 10
1096.515496050694
 20
4531.574174820518
 30
0.0
 41
40.0
 42
40.0
 43
40.0
  0
INSERT
  5
80EF
330
7DED
100
AcDbEntity
  8
3
440
 16777216
100
AcDbBlockReference
  2
_OPEN
 10
456.5154960506943
 20
4531.574174820518
 30
0.0
 41
40.0
 42
40.0
 43
40.0
 50
180.0
  0
MTEXT
  5
80F0
330
7DED
100
AcDbEntity
  8
3
440
 16777216
100
AcDbMText
 10
776.5154960506943
 20
4571.574174820518
 30
0.0
 40
60.0
 41
0.0
 46
0.0
 71
     5
 72
     5
  1
\A1;640
 73
     1
 44
1.0
  0
POINT
  5
80F1
330
7DED
100
AcDbEntity
  8
DEFPOINTS
 62
     0
440
 16777216
100
AcDbPoint
 10
1096.515496050694
 20
4376.220223056193
 30
0.0
  0
POINT
  5
80F2
330
7DED
100
AcDbEntity
  8
DEFPOINTS
 62
     0
440
 16777216
100
AcDbPoint
 10
456.5154960506943
 20
4051.220223056192
 30
0.0
  0
POINT
  5
80F3
330
7DED
100
AcDbEntity
  8
DEFPOINTS
 62
     0
440
 16777216
100
AcDbPoint
 10
456.5154960506943
 20
4531.574174820518
 30
0.0
  0
ENDBLK
  5
7EFE
330
7DED
100
AcDbEntity
  8
0
100
AcDbBlockEnd
  0
BLOCK
  5
8024
330
7DF8
100
AcDbEntity
  8
0
100
AcDbBlockBegin
  2
*D14
 70
     1
 10
0.0
 20
0.0
 30
0.0
  3
*D14
  1

  0
LINE
  5
8025
330
7DF8
100
AcDbEntity
  8
0
  6
ByBlock
440
 16777216
100
AcDbLine
 10
436.5154960506942
 20
4051.220223056192
 30
0.0
 11
322.2277494852187
 21
4051.220223056192
 31
0.0
  0
LINE
  5
8026
330
7DF8
100
AcDbEntity
  8
0
  6
ByBlock
440
 16777216
100
AcDbLine
 10
436.5154960506942
 20
3451.220223056193
 30
0.0
 11
322.2277494852187
 21
3451.220223056193
 31
0.0
  0
LINE
  5
8027
330
7DF8
100
AcDbEntity
  8
0
  6
ByBlock
440
 16777216
100
AcDbLine
 10
342.2277494852187
 20
4011.220223056192
 30
0.0
 11
342.2277494852187
 21
3491.220223056193
 31
0.0
  0
INSERT
  5
8028
330
7DF8
100
AcDbEntity
  8
0
  6
ByBlock
440
 16777216
100
AcDbBlockReference
  2
_OPEN
 10
342.2277494852187
 20
4051.220223056192
 30
0.0
 41
40.0
 42
40.0
 43
40.0
 50
90.0
  0
INSERT
  5
8029
330
7DF8
100
AcDbEntity
  8
0
  6
ByBlock
440
 16777216
100
AcDbBlockReference
  2
_OPEN
 10
342.2277494852187
 20
3451.220223056193
 30
0.0
 41
40.0
 42
40.0
 43
40.0
 50
270.0
  0
MTEXT
  5
802A
330
7DF8
100
AcDbEntity
  8
0
  6
ByBlock
440
 16777216
100
AcDbMText
 10
302.2277494852187
 20
3751.220223056193
 30
0.0
 40
60.0
 41
0.0
 46
0.0
 71
     5
 72
     5
  1
\A1;600
 11
0.0
 21
1.0
 31
0.0
 73
     1
 44
1.0
  0
POINT
  5
802B
330
7DF8
100
AcDbEntity
  8
DEFPOINTS
  6
ByBlock
 62
     0
440
 16777216
100
AcDbPoint
 10
456.5154960506943
 20
4051.220223056192
 30
0.0
  0
POINT
  5
802C
330
7DF8
100
AcDbEntity
  8
DEFPOINTS
  6
ByBlock
 62
     0
440
 16777216
100
AcDbPoint
 10
456.5154960506943
 20
3451.220223056193
 30
0.0
  0
POINT
  5
802D
330
7DF8
100
AcDbEntity
  8
DEFPOINTS
  6
ByBlock
 62
     0
440
 16777216
100
AcDbPoint
 10
342.2277494852187
 20
3451.220223056193
 30
0.0
  0
ENDBLK
  5
802E
330
7DF8
100
AcDbEntity
  8
0
100
AcDbBlockEnd
  0
BLOCK
  5
7F0A
330
7E04
100
AcDbEntity
  8
0
100
AcDbBlockBegin
  2
*D15
 70
     1
 10
0.0
 20
0.0
 30
0.0
  3
*D15
  1

  0
LINE
  5
7F0B
330
7E04
100
AcDbEntity
  8
0
  6
ByBlock
440
 16777216
100
AcDbLine
 10
456.5154960506941
 20
2629.073535835268
 30
0.0
 11
456.5154960506941
 21
2194.045082035846
 31
0.0
  0
LINE
  5
7F0C
330
7E04
100
AcDbEntity
  8
0
  6
ByBlock
440
 16777216
100
AcDbLine
 10
1806.515496050694
 20
2629.073535835268
 30
0.0
 11
1806.515496050694
 21
2194.045082035846
 31
0.0
  0
LINE
  5
7F0D
330
7E04
100
AcDbEntity
  8
0
  6
ByBlock
440
 16777216
100
AcDbLine
 10
496.515496050694
 20
2214.045082035846
 30
0.0
 11
1766.515496050694
 21
2214.045082035846
 31
0.0
  0
INSERT
  5
7F0E
330
7E04
100
AcDbEntity
  8
0
  6
ByBlock
440
 16777216
100
AcDbBlockReference
  2
_OPEN
 10
456.5154960506941
 20
2214.045082035846
 30
0.0
 41
40.0
 42
40.0
 43
40.0
 50
180.0
  0
INSERT
  5
7F0F
330
7E04
100
AcDbEntity
  8
0
  6
ByBlock
440
 16777216
100
AcDbBlockReference
  2
_OPEN
 10
1806.515496050694
 20
2214.045082035846
 30
0.0
 41
40.0
 42
40.0
 43
40.0
  0
MTEXT
  5
7F10
330
7E04
100
AcDbEntity
  8
0
  6
ByBlock
440
 16777216
100
AcDbMText
 10
1131.515496050694
 20
2254.045082035846
 30
0.0
 40
60.0
 41
0.0
 46
0.0
 71
     5
 72
     5
  1
\A1;1350
 73
     1
 44
1.0
  0
POINT
  5
7F11
330
7E04
100
AcDbEntity
  8
DEFPOINTS
  6
ByBlock
 62
     0
440
 16777216
100
AcDbPoint
 10
456.5154960506941
 20
2649.073535835267
 30
0.0
  0
POINT
  5
7F12
330
7E04
100
AcDbEntity
  8
DEFPOINTS
  6
ByBlock
 62
     0
440
 16777216
100
AcDbPoint
 10
1806.515496050694
 20
2649.073535835267
 30
0.0
  0
POINT
  5
7F13
330
7E04
100
AcDbEntity
  8
DEFPOINTS
  6
ByBlock
 62
     0
440
 16777216
100
AcDbPoint
 10
1806.515496050694
 20
2214.045082035846
 30
0.0
  0
ENDBLK
  5
7F14
330
7E04
100
AcDbEntity
  8
0
100
AcDbBlockEnd
  0
BLOCK
  5
800A
330
7F78
100
AcDbEntity
  8
0
100
AcDbBlockBegin
  2
*D16
 70
     1
 10
0.0
 20
0.0
 30
0.0
  3
*D16
  1

  0
LINE
  5
80F4
330
7F78
100
AcDbEntity
  8
3
 62
     0
440
 16777216
100
AcDbLine
 10
1816.515496050693
 20
1460.424943391219
 30
0.0
 11
2143.432219014783
 21
1460.424943391219
 31
0.0
  0
LINE
  5
80F5
330
7F78
100
AcDbEntity
  8
3
 62
     0
440
 16777216
100
AcDbLine
 10
1816.515496050693
 20
1385.424943391219
 30
0.0
 11
2143.432219014783
 21
1385.424943391219
 31
0.0
  0
LINE
  5
80F6
330
7F78
100
AcDbEntity
  8
3
 62
     0
440
 16777216
100
AcDbLine
 10
2123.432219014783
 20
1500.424943391219
 30
0.0
 11
2123.432219014783
 21
1540.424943391218
 31
0.0
  0
LINE
  5
80F7
330
7F78
100
AcDbEntity
  8
3
 62
     0
440
 16777216
100
AcDbLine
 10
2123.432219014783
 20
1345.424943391219
 30
0.0
 11
2123.432219014783
 21
1168.282086248361
 31
0.0
  0
LINE
  5
80F8
330
7F78
100
AcDbEntity
  8
3
 62
     0
440
 16777216
100
AcDbLine
 10
2123.432219014783
 20
1460.424943391219
 30
0.0
 11
2123.432219014783
 21
1385.424943391219
 31
0.0
  0
INSERT
  5
80F9
330
7F78
100
AcDbEntity
  8
3
 62
     0
440
 16777216
100
AcDbBlockReference
  2
_DOT
 10
2123.432219014783
 20
1460.424943391219
 30
0.0
 41
40.0
 42
40.0
 43
40.0
 50
270.0
  0
INSERT
  5
80FA
330
7F78
100
AcDbEntity
  8
3
 62
     0
440
 16777216
100
AcDbBlockReference
  2
_OPEN
 10
2123.432219014783
 20
1385.424943391219
 30
0.0
 41
40.0
 42
40.0
 43
40.0
 50
90.0
  0
MTEXT
  5
80FB
330
7F78
100
AcDbEntity
  8
3
 62
     0
440
 16777216
100
AcDbMText
 10
2073.432219014783
 20
1236.85351481979
 30
0.0
 40
60.0
 41
0.0
 46
0.0
 71
     5
 72
     5
  1
\A1;75
 11
0.0000000000000001
 21
1.0
 31
0.0
 73
     1
 44
1.0
  0
POINT
  5
80FC
330
7F78
100
AcDbEntity
  8
DEFPOINTS
 62
     0
440
 16777216
100
AcDbPoint
 10
1806.515496050693
 20
1460.424943391219
 30
0.0
  0
POINT
  5
80FD
330
7F78
100
AcDbEntity
  8
DEFPOINTS
 62
     0
440
 16777216
100
AcDbPoint
 10
1806.515496050693
 20
1385.424943391219
 30
0.0
  0
POINT
  5
80FE
330
7F78
100
AcDbEntity
  8
DEFPOINTS
 62
     0
440
 16777216
100
AcDbPoint
 10
2123.432219014783
 20
1385.424943391219
 30
0.0
  0
ENDBLK
  5
8016
330
7F78
100
AcDbEntity
  8
0
100
AcDbBlockEnd
  0
BLOCK
  5
7FCA
330
7FC4
100
AcDbEntity
  8
0
100
AcDbBlockBegin
  2
_DOT
 70
     0
 10
0.0
 20
0.0
 30
0.0
  3
_DOT
  1

  0
LWPOLYLINE
  5
7FC5
330
7FC4
100
AcDbEntity
  8
0
  6
ByBlock
 62
     0
100
AcDbPolyline
 90
        2
 70
     1
 43
0.25
 10
-0.125
 20
0.0
 42
1.0
 10
0.125
 20
0.0
 42
1.0
  0
LINE
  5
7FC9
330
7FC4
100
AcDbEntity
  8
0
  6
ByBlock
 62
     0
100
AcDbLine
 10
-0.25
 20
0.0
 30
0.0
 11
-1.0
 21
0.0
 31
0.0
  0
ENDBLK
  5
7FCB
330
7FC4
100
AcDbEntity
  8
0
100
AcDbBlockEnd
  0
BLOCK
  5
8047
330
8046
100
AcDbEntity
  8
0
100
AcDbBlockBegin
  2
*D18
 70
     1
 10
0.0
 20
0.0
 30
0.0
  3
*D18
  1

  0
LINE
  5
8048
330
8046
100
AcDbEntity
  8
0
  6
ByBlock
 62
     0
440
 16777216
100
AcDbLine
 10
456.5154960506934
 20
1375.424943391219
 30
0.0
 11
456.5154960506934
 21
1229.13461457391
 31
0.0
  0
LINE
  5
8049
330
8046
100
AcDbEntity
  8
0
  6
ByBlock
 62
     0
440
 16777216
100
AcDbLine
 10
1451.515496050693
 20
1375.424943391219
 30
0.0
 11
1451.515496050693
 21
1229.13461457391
 31
0.0
  0
LINE
  5
804A
330
8046
100
AcDbEntity
  8
0
  6
ByBlock
 62
     0
440
 16777216
100
AcDbLine
 10
496.5154960506934
 20
1249.13461457391
 30
0.0
 11
1411.515496050693
 21
1249.13461457391
 31
0.0
  0
INSERT
  5
804B
330
8046
100
AcDbEntity
  8
0
  6
ByBlock
 62
     0
440
 16777216
100
AcDbBlockReference
  2
_OPEN
 10
456.5154960506934
 20
1249.13461457391
 30
0.0
 41
40.0
 42
40.0
 43
40.0
 50
180.0
  0
INSERT
  5
804C
330
8046
100
AcDbEntity
  8
0
  6
ByBlock
 62
     0
440
 16777216
100
AcDbBlockReference
  2
_OPEN
 10
1451.515496050693
 20
1249.13461457391
 30
0.0
 41
40.0
 42
40.0
 43
40.0
  0
MTEXT
  5
804D
330
8046
100
AcDbEntity
  8
0
  6
ByBlock
 62
     0
440
 16777216
100
AcDbMText
 10
954.0154960506933
 20
1299.13461457391
 30
0.0
 40
60.0
 41
0.0
 46
0.0
 71
     5
 72
     5
  1
\A1;995
 73
     1
 44
1.0
  0
POINT
  5
804E
330
8046
100
AcDbEntity
  8
DEFPOINTS
  6
ByBlock
 62
     0
440
 16777216
100
AcDbPoint
 10
456.5154960506934
 20
1385.424943391219
 30
0.0
  0
POINT
  5
804F
330
8046
100
AcDbEntity
  8
DEFPOINTS
  6
ByBlock
 62
     0
440
 16777216
100
AcDbPoint
 10
1451.515496050693
 20
1385.424943391219
 30
0.0
  0
POINT
  5
8050
330
8046
100
AcDbEntity
  8
DEFPOINTS
  6
ByBlock
 62
     0
440
 16777216
100
AcDbPoint
 10
1451.515496050693
 20
1249.13461457391
 30
0.0
  0
ENDBLK
  5
8051
330
8046
100
AcDbEntity
  8
0
100
AcDbBlockEnd
  0
BLOCK
  5
8054
330
8053
100
AcDbEntity
  8
0
100
AcDbBlockBegin
  2
*D19
 70
     1
 10
0.0
 20
0.0
 30
0.0
  3
*D19
  1

  0
LINE
  5
8055
330
8053
100
AcDbEntity
  8
0
  6
ByBlock
 62
     0
440
 16777216
100
AcDbLine
 10
1451.515496050693
 20
1375.424943391219
 30
0.0
 11
1451.515496050693
 21
1229.13461457391
 31
0.0
  0
LINE
  5
8056
330
8053
100
AcDbEntity
  8
0
  6
ByBlock
 62
     0
440
 16777216
100
AcDbLine
 10
1806.515496050693
 20
1375.424943391219
 30
0.0
 11
1806.515496050693
 21
1229.13461457391
 31
0.0
  0
LINE
  5
8057
330
8053
100
AcDbEntity
  8
0
  6
ByBlock
 62
     0
440
 16777216
100
AcDbLine
 10
1491.515496050693
 20
1249.13461457391
 30
0.0
 11
1766.515496050693
 21
1249.13461457391
 31
0.0
  0
INSERT
  5
8058
330
8053
100
AcDbEntity
  8
0
  6
ByBlock
 62
     0
440
 16777216
100
AcDbBlockReference
  2
_OPEN
 10
1451.515496050693
 20
1249.13461457391
 30
0.0
 41
40.0
 42
40.0
 43
40.0
 50
180.0
  0
INSERT
  5
8059
330
8053
100
AcDbEntity
  8
0
  6
ByBlock
 62
     0
440
 16777216
100
AcDbBlockReference
  2
_OPEN
 10
1806.515496050693
 20
1249.13461457391
 30
0.0
 41
40.0
 42
40.0
 43
40.0
  0
MTEXT
  5
805A
330
8053
100
AcDbEntity
  8
0
  6
ByBlock
 62
     0
440
 16777216
100
AcDbMText
 10
1629.015496050693
 20
1299.13461457391
 30
0.0
 40
60.0
 41
0.0
 46
0.0
 71
     5
 72
     5
  1
\A1;355
 73
     1
 44
1.0
  0
POINT
  5
805B
330
8053
100
AcDbEntity
  8
DEFPOINTS
  6
ByBlock
 62
     0
440
 16777216
100
AcDbPoint
 10
1451.515496050693
 20
1385.424943391219
 30
0.0
  0
POINT
  5
805C
330
8053
100
AcDbEntity
  8
DEFPOINTS
  6
ByBlock
 62
     0
440
 16777216
100
AcDbPoint
 10
1806.515496050693
 20
1385.424943391219
 30
0.0
  0
POINT
  5
805D
330
8053
100
AcDbEntity
  8
DEFPOINTS
  6
ByBlock
 62
     0
440
 16777216
100
AcDbPoint
 10
1806.515496050693
 20
1249.13461457391
 30
0.0
  0
ENDBLK
  5
805E
330
8053
100
AcDbEntity
  8
0
100
AcDbBlockEnd
  0
BLOCK
  5
8061
330
8060
100
AcDbEntity
  8
0
100
AcDbBlockBegin
  2
*D20
 70
     1
 10
0.0
 20
0.0
 30
0.0
  3
*D20
  1

  0
LINE
  5
8062
330
8060
100
AcDbEntity
  8
0
  6
ByBlock
 62
     0
440
 16777216
100
AcDbLine
 10
2608.906635817508
 20
1375.424943391219
 30
0.0
 11
2608.906635817508
 21
1229.13461457391
 31
0.0
  0
LINE
  5
8063
330
8060
100
AcDbEntity
  8
0
  6
ByBlock
 62
     0
440
 16777216
100
AcDbLine
 10
3115.906635817508
 20
1375.424943391219
 30
0.0
 11
3115.906635817508
 21
1229.13461457391
 31
0.0
  0
LINE
  5
8064
330
8060
100
AcDbEntity
  8
0
  6
ByBlock
 62
     0
440
 16777216
100
AcDbLine
 10
2648.906635817507
 20
1249.13461457391
 30
0.0
 11
3075.906635817508
 21
1249.13461457391
 31
0.0
  0
INSERT
  5
8065
330
8060
100
AcDbEntity
  8
0
  6
ByBlock
 62
     0
440
 16777216
100
AcDbBlockReference
  2
_OPEN
 10
2608.906635817508
 20
1249.13461457391
 30
0.0
 41
40.0
 42
40.0
 43
40.0
 50
180.0
  0
INSERT
  5
8066
330
8060
100
AcDbEntity
  8
0
  6
ByBlock
 62
     0
440
 16777216
100
AcDbBlockReference
  2
_OPEN
 10
3115.906635817508
 20
1249.13461457391
 30
0.0
 41
40.0
 42
40.0
 43
40.0
  0
MTEXT
  5
8067
330
8060
100
AcDbEntity
  8
0
  6
ByBlock
 62
     0
440
 16777216
100
AcDbMText
 10
2862.406635817508
 20
1299.13461457391
 30
0.0
 40
60.0
 41
0.0
 46
0.0
 71
     5
 72
     5
  1
\A1;507
 73
     1
 44
1.0
  0
POINT
  5
8068
330
8060
100
AcDbEntity
  8
DEFPOINTS
  6
ByBlock
 62
     0
440
 16777216
100
AcDbPoint
 10
2608.906635817508
 20
1385.424943391219
 30
0.0
  0
POINT
  5
8069
330
8060
100
AcDbEntity
  8
DEFPOINTS
  6
ByBlock
 62
     0
440
 16777216
100
AcDbPoint
 10
3115.906635817508
 20
1385.424943391219
 30
0.0
  0
POINT
  5
806A
330
8060
100
AcDbEntity
  8
DEFPOINTS
  6
ByBlock
 62
     0
440
 16777216
100
AcDbPoint
 10
3115.906635817508
 20
1249.13461457391
 30
0.0
  0
ENDBLK
  5
806B
330
8060
100
AcDbEntity
  8
0
100
AcDbBlockEnd
  0
BLOCK
  5
806E
330
806D
100
AcDbEntity
  8
0
100
AcDbBlockBegin
  2
*D21
 70
     1
 10
0.0
 20
0.0
 30
0.0
  3
*D21
  1

  0
LINE
  5
806F
330
806D
100
AcDbEntity
  8
0
  6
ByBlock
 62
     0
440
 16777216
100
AcDbLine
 10
3115.906635817508
 20
1375.424943391219
 30
0.0
 11
3115.906635817508
 21
1229.13461457391
 31
0.0
  0
LINE
  5
8070
330
806D
100
AcDbEntity
  8
0
  6
ByBlock
 62
     0
440
 16777216
100
AcDbLine
 10
3533.906635817508
 20
1375.424943391219
 30
0.0
 11
3533.906635817508
 21
1229.13461457391
 31
0.0
  0
LINE
  5
8071
330
806D
100
AcDbEntity
  8
0
  6
ByBlock
 62
     0
440
 16777216
100
AcDbLine
 10
3155.906635817508
 20
1249.13461457391
 30
0.0
 11
3493.906635817508
 21
1249.13461457391
 31
0.0
  0
INSERT
  5
8072
330
806D
100
AcDbEntity
  8
0
  6
ByBlock
 62
     0
440
 16777216
100
AcDbBlockReference
  2
_OPEN
 10
3115.906635817508
 20
1249.13461457391
 30
0.0
 41
40.0
 42
40.0
 43
40.0
 50
180.0
  0
INSERT
  5
8073
330
806D
100
AcDbEntity
  8
0
  6
ByBlock
 62
     0
440
 16777216
100
AcDbBlockReference
  2
_OPEN
 10
3533.906635817508
 20
1249.13461457391
 30
0.0
 41
40.0
 42
40.0
 43
40.0
  0
MTEXT
  5
8074
330
806D
100
AcDbEntity
  8
0
  6
ByBlock
 62
     0
440
 16777216
100
AcDbMText
 10
3324.906635817508
 20
1299.13461457391
 30
0.0
 40
60.0
 41
0.0
 46
0.0
 71
     5
 72
     5
  1
\A1;418
 73
     1
 44
1.0
  0
POINT
  5
8075
330
806D
100
AcDbEntity
  8
DEFPOINTS
  6
ByBlock
 62
     0
440
 16777216
100
AcDbPoint
 10
3115.906635817508
 20
1385.424943391219
 30
0.0
  0
POINT
  5
8076
330
806D
100
AcDbEntity
  8
DEFPOINTS
  6
ByBlock
 62
     0
440
 16777216
100
AcDbPoint
 10
3533.906635817508
 20
1385.424943391219
 30
0.0
  0
POINT
  5
8077
330
806D
100
AcDbEntity
  8
DEFPOINTS
  6
ByBlock
 62
     0
440
 16777216
100
AcDbPoint
 10
3533.906635817508
 20
1249.13461457391
 30
0.0
  0
ENDBLK
  5
8078
330
806D
100
AcDbEntity
  8
0
100
AcDbBlockEnd
  0
BLOCK
  5
807B
330
807A
100
AcDbEntity
  8
0
100
AcDbBlockBegin
  2
_NONE
 70
     0
 10
0.0
 20
0.0
 30
0.0
  3
_NONE
  1

  0
CIRCLE
  5
807C
330
807A
100
AcDbEntity
  8
0
  6
ByBlock
 62
     0
100
AcDbCircle
 10
0.0
 20
0.0
 30
0.0
 40
0.25
  0
ENDBLK
  5
807D
330
807A
100
AcDbEntity
  8
0
100
AcDbBlockEnd
  0
BLOCK
  5
807F
330
807E
100
AcDbEntity
  8
0
100
AcDbBlockBegin
  2
*D23
 70
     1
 10
0.0
 20
0.0
 30
0.0
  3
*D23
  1

  0
LINE
  5
8080
330
807E
100
AcDbEntity
  8
0
  6
ByBlock
 62
     0
440
 16777216
100
AcDbLine
 10
2122.309378682796
 20
1460.424943391219
 30
0.0
 11
2122.309378682796
 21
1460.424943391219
 31
0.0
  0
LINE
  5
8081
330
807E
100
AcDbEntity
  8
0
  6
ByBlock
 62
     0
440
 16777216
100
AcDbLine
 10
2122.309378682796
 20
1497.424943391219
 30
0.0
 11
2122.309378682796
 21
1577.424943391219
 31
0.0
  0
MTEXT
  5
8082
330
807E
100
AcDbEntity
  8
0
  6
ByBlock
 62
     0
440
 16777216
100
AcDbMText
 10
2218.023664397081
 20
1478.924943391219
 30
0.0
 40
60.0
 41
0.0
 46
0.0
 71
     5
 72
     5
  1
\A1;(37)
 11
0.0
 21
1.0
 31
0.0
 73
     1
 44
1.0
  0
LINE
  5
8083
330
807E
100
AcDbEntity
  8
0
  6
ByBlock
 62
     0
440
 16777216
100
AcDbLine
 10
2122.309378682796
 20
1460.424943391219
 30
0.0
 11
2122.309378682796
 21
1497.424943391219
 31
0.0
  0
POINT
  5
8084
330
807E
100
AcDbEntity
  8
DEFPOINTS
  6
ByBlock
 62
     0
440
 16777216
100
AcDbPoint
 10
1806.515496050693
 20
1460.424943391219
 30
0.0
  0
POINT
  5
8085
330
807E
100
AcDbEntity
  8
DEFPOINTS
  6
ByBlock
 62
     0
440
 16777216
100
AcDbPoint
 10
1806.515496050693
 20
1497.424943391219
 30
0.0
  0
POINT
  5
8086
330
807E
100
AcDbEntity
  8
DEFPOINTS
  6
ByBlock
 62
     0
440
 16777216
100
AcDbPoint
 10
2122.309378682796
 20
1497.424943391219
 30
0.0
  0
ENDBLK
  5
8087
330
807E
100
AcDbEntity
  8
0
100
AcDbBlockEnd
  0
BLOCK
  5
808A
330
8089
100
AcDbEntity
  8
0
100
AcDbBlockBegin
  2
*D24
 70
     1
 10
0.0
 20
0.0
 30
0.0
  3
*D24
  1

  0
LINE
  5
808B
330
8089
100
AcDbEntity
  8
0
  6
ByBlock
 62
     0
440
 16777216
100
AcDbLine
 10
1851.515496050694
 20
2567.424943391219
 30
0.0
 11
2307.245993345099
 21
2567.424943391219
 31
0.0
  0
LINE
  5
808C
330
8089
100
AcDbEntity
  8
0
  6
ByBlock
 62
     0
440
 16777216
100
AcDbLine
 10
1816.515496050693
 20
1385.424943391219
 30
0.0
 11
2307.245993345099
 21
1385.424943391219
 31
0.0
  0
LINE
  5
808D
330
8089
100
AcDbEntity
  8
0
  6
ByBlock
 62
     0
440
 16777216
100
AcDbLine
 10
2287.245993345099
 20
2527.424943391219
 30
0.0
 11
2287.245993345099
 21
1425.424943391219
 31
0.0
  0
INSERT
  5
808E
330
8089
100
AcDbEntity
  8
0
  6
ByBlock
 62
     0
440
 16777216
100
AcDbBlockReference
  2
_OPEN
 10
2287.245993345099
 20
2567.424943391219
 30
0.0
 41
40.0
 42
40.0
 43
40.0
 50
90.0
  0
INSERT
  5
808F
330
8089
100
AcDbEntity
  8
0
  6
ByBlock
 62
     0
440
 16777216
100
AcDbBlockReference
  2
_OPEN
 10
2287.245993345099
 20
1385.424943391219
 30
0.0
 41
40.0
 42
40.0
 43
40.0
 50
270.0
  0
MTEXT
  5
8090
330
8089
100
AcDbEntity
  8
0
  6
ByBlock
 62
     0
440
 16777216
100
AcDbMText
 10
2221.531707630814
 20
1976.424943391219
 30
0.0
 40
60.0
 41
0.0
 46
0.0
 71
     5
 72
     5
  1
\A1;(1182)
 11
0.0
 21
1.0
 31
0.0
 73
     1
 44
1.0
  0
POINT
  5
8091
330
8089
100
AcDbEntity
  8
DEFPOINTS
  6
ByBlock
 62
     0
440
 16777216
100
AcDbPoint
 10
1841.515496050694
 20
2567.424943391219
 30
0.0
  0
POINT
  5
8092
330
8089
100
AcDbEntity
  8
DEFPOINTS
  6
ByBlock
 62
     0
440
 16777216
100
AcDbPoint
 10
1806.515496050693
 20
1385.424943391219
 30
0.0
  0
POINT
  5
8093
330
8089
100
AcDbEntity
  8
DEFPOINTS
  6
ByBlock
 62
     0
440
 16777216
100
AcDbPoint
 10
2287.245993345099
 20
1385.424943391219
 30
0.0
  0
ENDBLK
  5
8094
330
8089
100
AcDbEntity
  8
0
100
AcDbBlockEnd
  0
ENDSEC
  0
SECTION
  2
ENTITIES
  0
LINE
  5
7C1A
330
19
100
AcDbEntity
  8
1
100
AcDbLine
 10
1855.883005440424
 20
1968.424943391219
 30
0.0
 11
1824.21215172554
 21
1968.424943391219
 31
0.0
  0
LINE
  5
7C1C
330
19
100
AcDbEntity
  8
1
100
AcDbLine
 10
2740.906635817508
 20
2567.424943391219
 30
0.0
 11
2740.906635817508
 21
1572.424943391219
 31
0.0
  0
LINE
  5
7C1D
330
19
100
AcDbEntity
  8
1
100
AcDbLine
 10
3490.906635817508
 20
2567.424943391219
 30
0.0
 11
3490.906635817508
 21
1572.424943391219
 31
0.0
  0
LINE
  5
7C1E
330
19
100
AcDbEntity
  8
2
100
AcDbLine
 10
2373.460235027255
 20
1967.424943391218
 30
0.0
 11
3594.434591447207
 21
1967.424943391219
 31
0.0
  0
LINE
  5
7C1F
330
19
100
AcDbEntity
  8
1
100
AcDbLine
 10
1838.515496050694
 20
1955.424943391219
 30
0.0
 11
1838.515496050694
 21
2599.424943391219
 31
0.0
  0
LINE
  5
7C20
330
19
100
AcDbEntity
  8
1
100
AcDbLine
 10
1841.515496050694
 20
1985.424943391219
 30
0.0
 11
1841.515496050694
 21
2569.424943391219
 31
0.0
  0
LINE
  5
7C21
330
19
100
AcDbEntity
  8
1
100
AcDbLine
 10
1781.966678605641
 20
1987.424943391219
 30
0.0
 11
1841.515496050694
 21
1987.424943391219
 31
0.0
  0
LINE
  5
7C22
330
19
100
AcDbEntity
  8
2
100
AcDbLine
 10
1968.969259097787
 20
1967.424943391218
 30
0.0
 11
935.9037116260278
 21
1967.424943391218
 31
0.0
  0
LINE
  5
7C23
330
19
100
AcDbEntity
  8
1
100
AcDbLine
 10
3495.206635817508
 20
1657.424943391218
 30
0.0
 11
3492.906635817507
 21
1657.424943391218
 31
0.0
  0
DIMENSION
  5
7C24
330
19
100
AcDbEntity
  8
3
100
AcDbDimension
280
     0
  2
*D1
 10
1997.012365604728
 20
1987.424943391219
 30
0.0
 11
1957.012365604728
 21
2277.424943391219
 31
0.0
 12
0.0
 22
907.692309383021
 32
0.0
 70
    32
 71
     5
 42
-1.0
 73
     0
 74
     0
 75
     0
  3
MATSU
100
AcDbAlignedDimension
 13
1841.515496050694
 23
2567.424943391219
 33
0.0
 14
1841.515496050694
 24
1987.424943391219
 34
0.0
 50
90.0
100
AcDbRotatedDimension
1001
ACAD
1000
DSTYLE
1002
{
1070
    40
1040
20.0
1002
}
  0
DIMENSION
  5
7C25
330
19
100
AcDbEntity
  8
3
100
AcDbDimension
280
     0
  2
*D2
 10
2123.432219014783
 20
1967.424943391218
 30
0.0
 11
2083.432219014783
 21
2267.424943391219
 31
0.0
 12
0.0
 22
907.692309383021
 32
0.0
 70
    32
 71
     5
 42
-1.0
 73
     0
 74
     0
 75
     0
  3
MATSU
100
AcDbAlignedDimension
 13
1853.515496050694
 23
2567.424943391219
 33
0.0
 14
1885.115120615952
 24
1967.424943391218
 34
0.0
 50
90.0
100
AcDbRotatedDimension
1001
ACAD
1000
DSTYLE
1002
{
1070
    40
1040
20.0
1002
}
  0
DIMENSION
  5
7C26
330
19
100
AcDbEntity
  8
3
100
AcDbDimension
280
     0
  2
*D3
 10
3693.31995148206
 20
1687.424943391218
 30
0.0
 11
3653.31995148206
 21
1967.424943391218
 31
0.0
 12
0.0
 22
907.692309383021
 32
0.0
 70
    32
  1
φ <>
 71
     5
 42
-1.0
 73
     0
 74
     0
 75
     0
  3
MATSU
100
AcDbAlignedDimension
 13
3492.906635817507
 23
2247.424943391219
 33
0.0
 14
3492.906635817507
 24
1687.424943391218
 34
0.0
 50
90.0
100
AcDbRotatedDimension
1001
ACAD
1000
DSTYLE
1002
{
1070
    40
1040
20.0
1002
}
  0
LINE
  5
7C27
330
19
100
AcDbEntity
  8
2
100
AcDbLine
 10
1451.515496050694
 20
3217.807880620209
 30
0.0
 11
1451.515496050694
 21
4403.98781843058
 31
0.0
  0
LINE
  5
7C28
330
19
100
AcDbEntity
  8
2
100
AcDbLine
 10
1902.260371891798
 20
3958.220223056193
 30
0.0
 11
977.5154960506942
 21
3958.220223056193
 31
0.0
  0
LINE
  5
7C29
330
19
100
AcDbEntity
  8
2
100
AcDbLine
 10
3115.906635817508
 20
2646.733552260494
 30
0.0
 11
3115.906635817508
 21
1385.424943391219
 31
0.0
  0
LINE
  5
7C2A
330
19
100
AcDbEntity
  8
2
100
AcDbLine
 10
1451.515496050693
 20
2602.392447592675
 30
0.0
 11
1451.515496050693
 21
1385.424943391219
 31
0.0
  0
DIMENSION
  5
7C2B
330
19
100
AcDbEntity
  8
3
100
AcDbDimension
280
     0
  2
*D4
 10
1841.515496050694
 20
2656.537099861773
 30
0.0
 11
1646.515496050694
 21
2696.537099861773
 31
0.0
 12
0.0
 22
907.692309383021
 32
0.0
 70
    32
 71
     5
 42
-1.0
 73
     0
 74
     0
 75
     0
  3
MATSU
100
AcDbAlignedDimension
 13
1451.515496050693
 23
2602.392447592675
 33
0.0
 14
1841.515496050694
 24
2599.424943391219
 34
0.0
100
AcDbRotatedDimension
1001
ACAD
1000
DSTYLE
1002
{
1070
    40
1040
20.0
1002
}
  0
LINE
  5
7C34
330
19
100
AcDbEntity
  8
1
100
AcDbLine
 10
1811.515496050694
 20
2564.96340492968
 30
0.0
 11
1811.515496050694
 21
1987.424943391219
 31
0.0
  0
LINE
  5
7C35
330
19
100
AcDbEntity
  8
1
100
AcDbLine
 10
1838.515496050694
 20
1955.424943391219
 30
0.0
 11
1841.515496050694
 21
1955.424943391219
 31
0.0
  0
LINE
  5
7C36
330
19
100
AcDbEntity
  8
1
100
AcDbLine
 10
1841.515496050694
 20
1955.424943391219
 30
0.0
 11
1841.515496050694
 21
2599.424943391219
 31
0.0
  0
LINE
  5
7C37
330
19
100
AcDbEntity
  8
1
100
AcDbLine
 10
1841.515496050694
 20
2599.424943391219
 30
0.0
 11
1838.515496050694
 21
2599.424943391219
 31
0.0
  0
LINE
  5
7C38
330
19
100
AcDbEntity
  8
1
100
AcDbLine
 10
1806.515496050693
 20
1497.424943391219
 30
0.0
 11
456.5154960506934
 21
1497.424943391219
 31
0.0
  0
LINE
  5
7C39
330
19
100
AcDbEntity
  8
1
100
AcDbLine
 10
1806.515496050693
 20
1572.424943391219
 30
0.0
 11
456.5154960506934
 21
1572.424943391219
 31
0.0
  0
LINE
  5
7C3A
330
19
100
AcDbEntity
  8
1
100
AcDbLine
 10
1806.515496050693
 20
1460.424943391219
 30
0.0
 11
456.5154960506934
 21
1460.424943391219
 31
0.0
  0
LINE
  5
7C3B
330
19
100
AcDbEntity
  8
1
100
AcDbLine
 10
1806.515496050693
 20
1385.424943391219
 30
0.0
 11
456.5154960506934
 21
1385.424943391219
 31
0.0
  0
LINE
  5
7C3C
330
19
100
AcDbEntity
  8
1
100
AcDbLine
 10
1806.515496050693
 20
1572.424943391219
 30
0.0
 11
1806.515496050693
 21
1497.424943391219
 31
0.0
  0
LINE
  5
7C3D
330
19
100
AcDbEntity
  8
1
100
AcDbLine
 10
456.5154960506934
 20
1572.424943391219
 30
0.0
 11
456.5154960506934
 21
1497.424943391219
 31
0.0
  0
LINE
  5
7C3E
330
19
100
AcDbEntity
  8
1
100
AcDbLine
 10
1806.515496050693
 20
1460.424943391219
 30
0.0
 11
1806.515496050693
 21
1385.424943391219
 31
0.0
  0
LINE
  5
7C3F
330
19
100
AcDbEntity
  8
1
100
AcDbLine
 10
456.5154960506934
 20
1460.424943391219
 30
0.0
 11
456.5154960506934
 21
1385.424943391219
 31
0.0
  0
LINE
  5
7C40
330
19
100
AcDbEntity
  8
1
100
AcDbLine
 10
2740.906635817508
 20
2567.424943391219
 30
0.0
 11
3490.906635817508
 21
2567.424943391219
 31
0.0
  0
LINE
  5
7C41
330
19
100
AcDbEntity
  8
1
100
AcDbLine
 10
2608.906635817508
 20
1497.424943391219
 30
0.0
 11
3533.906635817508
 21
1497.424943391219
 31
0.0
  0
LINE
  5
7C42
330
19
100
AcDbEntity
  8
1
100
AcDbLine
 10
2608.906635817508
 20
1572.424943391219
 30
0.0
 11
3533.906635817508
 21
1572.424943391219
 31
0.0
  0
LINE
  5
7C43
330
19
100
AcDbEntity
  8
1
100
AcDbLine
 10
2608.906635817508
 20
1460.424943391219
 30
0.0
 11
3533.906635817508
 21
1460.424943391219
 31
0.0
  0
LINE
  5
7C44
330
19
100
AcDbEntity
  8
1
100
AcDbLine
 10
2608.906635817508
 20
1385.424943391219
 30
0.0
 11
3533.906635817508
 21
1385.424943391219
 31
0.0
  0
LINE
  5
7C45
330
19
100
AcDbEntity
  8
1
100
AcDbLine
 10
3533.90663581751
 20
1572.424943391219
 30
0.0
 11
3533.906635817508
 21
1497.424943391219
 31
0.0
  0
LINE
  5
7C46
330
19
100
AcDbEntity
  8
1
100
AcDbLine
 10
2608.906635817508
 20
1572.424943391219
 30
0.0
 11
2608.906635817508
 21
1497.424943391219
 31
0.0
  0
LINE
  5
7C47
330
19
100
AcDbEntity
  8
1
100
AcDbLine
 10
3533.906635817508
 20
1460.424943391219
 30
0.0
 11
3533.906635817508
 21
1385.424943391219
 31
0.0
  0
LINE
  5
7C48
330
19
100
AcDbEntity
  8
1
100
AcDbLine
 10
2608.906635817508
 20
1460.424943391219
 30
0.0
 11
2608.906635817508
 21
1385.424943391219
 31
0.0
  0
LINE
  5
7C49
330
19
100
AcDbEntity
  8
1
100
AcDbLine
 10
2740.906635817508
 20
1987.424943391219
 30
0.0
 11
3490.906635817508
 21
1987.424943391219
 31
0.0
  0
LINE
  5
7C4A
330
19
100
AcDbEntity
  8
1
100
AcDbLine
 10
3490.906635817508
 20
2567.424943391219
 30
0.0
 11
2740.906635817508
 21
1987.424943391219
 31
0.0
  0
LINE
  5
7C4B
330
19
100
AcDbEntity
  8
1
100
AcDbLine
 10
2740.906635817508
 20
2567.424943391219
 30
0.0
 11
3490.906635817508
 21
1987.424943391219
 31
0.0
  0
DIMENSION
  5
7C52
330
19
100
AcDbEntity
  8
3
100
AcDbDimension
280
     0
  2
*D5
 10
3490.906635817508
 20
2657.376738443123
 30
0.0
 11
3115.906635817508
 21
2697.376738443123
 31
0.0
 12
0.0
 22
907.692309383021
 32
0.0
 70
    32
 71
     5
 42
-1.0
 73
     0
 74
     0
 75
     0
  3
MATSU
100
AcDbAlignedDimension
 13
2740.906635817508
 23
2567.424943391219
 33
0.0
 14
3490.906635817508
 24
2567.424943391219
 34
0.0
100
AcDbRotatedDimension
1001
ACAD
1000
DSTYLE
1002
{
1070
    40
1040
20.0
1002
}
  0
LINE
  5
7C53
330
19
100
AcDbEntity
  8
1
100
AcDbLine
 10
3585.906635817508
 20
1914.524943391219
 30
0.0
 11
3585.906635817508
 21
1834.524943391219
 31
0.0
  0
LINE
  5
7C54
330
19
100
AcDbEntity
  8
1
100
AcDbLine
 10
3515.906635817508
 20
1924.524943391219
 30
0.0
 11
3515.906635817508
 21
1824.524943391219
 31
0.0
  0
LINE
  5
7C55
330
19
100
AcDbEntity
  8
1
100
AcDbLine
 10
3515.906635817508
 20
1924.524943391219
 30
0.0
 11
3575.906635817509
 21
1924.524943391219
 31
0.0
  0
LINE
  5
7C56
330
19
100
AcDbEntity
  8
1
100
AcDbLine
 10
3515.906635817508
 20
1824.524943391219
 30
0.0
 11
3575.906635817509
 21
1824.524943391219
 31
0.0
  0
LINE
  5
7C57
330
19
100
AcDbEntity
  8
1
100
AcDbLine
 10
3575.906635817509
 20
1924.524943391219
 30
0.0
 11
3585.906635817508
 21
1914.524943391219
 31
0.0
  0
LINE
  5
7C58
330
19
100
AcDbEntity
  8
1
100
AcDbLine
 10
3585.906635817508
 20
1834.524943391219
 30
0.0
 11
3575.906635817509
 21
1824.524943391219
 31
0.0
  0
LINE
  5
7C59
330
19
100
AcDbEntity
  8
1
100
AcDbLine
 10
2660.906635817509
 20
1903.424943391219
 30
0.0
 11
2660.906635817509
 21
1823.424943391219
 31
0.0
  0
LINE
  5
7C5A
330
19
100
AcDbEntity
  8
1
100
AcDbLine
 10
2730.906635817508
 20
1913.424943391219
 30
0.0
 11
2730.906635817508
 21
1813.424943391219
 31
0.0
  0
LINE
  5
7C5B
330
19
100
AcDbEntity
  8
1
100
AcDbLine
 10
2670.906635817508
 20
1913.424943391219
 30
0.0
 11
2730.906635817508
 21
1913.424943391219
 31
0.0
  0
LINE
  5
7C5C
330
19
100
AcDbEntity
  8
1
100
AcDbLine
 10
2670.906635817509
 20
1813.424943391219
 30
0.0
 11
2730.906635817508
 21
1813.424943391219
 31
0.0
  0
LINE
  5
7C5D
330
19
100
AcDbEntity
  8
1
100
AcDbLine
 10
2660.906635817509
 20
1823.424943391219
 30
0.0
 11
2670.906635817509
 21
1813.424943391219
 31
0.0
  0
LINE
  5
7C5E
330
19
100
AcDbEntity
  8
1
100
AcDbLine
 10
2670.906635817508
 20
1913.424943391219
 30
0.0
 11
2660.906635817509
 21
1903.424943391219
 31
0.0
  0
DIMENSION
  5
7C5F
330
19
100
AcDbEntity
  8
3
100
AcDbDimension
280
     0
  2
*D6
 10
3115.906635817508
 20
2799.777879114134
 30
0.0
 11
3350.906635817508
 21
2855.492164828419
 31
0.0
 70
    32
  1
(<>)
 71
     5
 42
470.0000000000004
 73
     0
 74
     0
 75
     0
  3
MATSU
100
AcDbAlignedDimension
 13
3585.906635817508
 23
1914.524943391219
 33
0.0
 14
3115.906635817508
 24
2723.177695652146
 34
0.0
100
AcDbRotatedDimension
1001
ACAD
1000
DSTYLE
1002
{
1070
    40
1040
20.0
1002
}
  0
LINE
  5
7C60
330
19
100
AcDbEntity
  8
1
100
AcDbLine
 10
2435.906635817508
 20
2187.424943391219
 30
0.0
 11
2435.906635817508
 21
1587.424943391219
 31
0.0
  0
LINE
  5
7C61
330
19
100
AcDbEntity
  8
1
100
AcDbLine
 10
2595.906635817508
 20
2187.424943391219
 30
0.0
 11
2595.906635817508
 21
2112.646105871483
 31
0.0
  0
LINE
  5
7C62
330
19
100
AcDbEntity
  8
1
100
AcDbLine
 10
1806.515496050694
 20
3451.220223056193
 30
0.0
 11
1806.515496050694
 21
3583.220223056193
 31
0.0
  0
LINE
  5
7C63
330
19
100
AcDbEntity
  8
1
100
AcDbLine
 10
456.5154960506943
 20
3451.220223056193
 30
0.0
 11
456.5154960506943
 21
4051.220223056192
 31
0.0
  0
LINE
  5
7C64
330
19
100
AcDbEntity
  8
1
100
AcDbLine
 10
1806.515496050694
 20
4376.220223056193
 30
0.0
 11
1096.515496050694
 21
4376.220223056193
 31
0.0
  0
LINE
  5
7C65
330
19
100
AcDbEntity
  8
1
100
AcDbLine
 10
1806.515496050694
 20
3451.220223056193
 30
0.0
 11
456.5154960506943
 21
3451.220223056193
 31
0.0
  0
LINE
  5
7C66
330
19
100
AcDbEntity
  8
1
100
AcDbLine
 10
1096.515496050694
 20
4333.220223056192
 30
0.0
 11
1096.515496050694
 21
4376.220223056193
 31
0.0
  0
LINE
  5
7C67
330
19
100
AcDbEntity
  8
1
100
AcDbLine
 10
977.5154960506943
 20
4051.220223056192
 30
0.0
 11
456.5154960506943
 21
4051.220223056192
 31
0.0
  0
LINE
  5
7C68
330
19
100
AcDbEntity
  8
2
100
AcDbLine
 10
751.5154960506943
 20
4043.129281056193
 30
0.0
 11
751.5154960506943
 21
3253.337920484526
 31
0.0
  0
ARC
  5
7C6A
330
19
100
AcDbEntity
  8
1
100
AcDbCircle
 10
751.5154960506934
 20
1807.424943391218
 30
0.0
 40
185.0
100
AcDbArc
 50
287.945251
 51
252.054749
  0
LINE
  5
7C6B
330
19
100
AcDbEntity
  8
2
100
AcDbLine
 10
751.5154960506934
 20
2075.142338835132
 30
0.0
 11
751.5154960506934
 21
1385.424943391219
 31
0.0
  0
LINE
  5
7C6C
330
19
100
AcDbEntity
  8
1
100
AcDbLine
 10
808.5154960506933
 20
1631.424943391219
 30
0.0
 11
694.5154960506934
 21
1631.424943391219
 31
0.0
  0
LINE
  5
7C6E
330
19
100
AcDbEntity
  8
1
100
AcDbLine
 10
913.5154960506934
 20
1702.683976391218
 30
0.0
 11
913.5154960506934
 21
1627.424943391218
 31
0.0
  0
LINE
  5
7C6F
330
19
100
AcDbEntity
  8
1
100
AcDbLine
 10
854.0154960506933
 20
1632.573502391219
 30
0.0
 11
844.5087820506941
 21
1647.496110391218
 31
0.0
  0
LINE
  5
7C72
330
19
100
AcDbEntity
  8
1
100
AcDbLine
 10
854.0154960506933
 20
1644.424943391219
 30
0.0
 11
854.0154960506933
 21
1627.424943391218
 31
0.0
  0
LINE
  5
7C73
330
19
100
AcDbEntity
  8
1
100
AcDbLine
 10
854.0154960506933
 20
1627.424943391218
 30
0.0
 11
913.5154960506934
 21
1627.424943391218
 31
0.0
  0
LINE
  5
7C75
330
19
100
AcDbEntity
  8
1
100
AcDbLine
 10
857.0154960506934
 20
1647.424943391219
 30
0.0
 11
910.5154960506935
 21
1647.424943391219
 31
0.0
  0
ARC
  5
7C76
330
19
100
AcDbEntity
  8
1
100
AcDbCircle
 10
910.5154960506935
 20
1644.424943391219
 30
0.0
 40
3.0
100
AcDbArc
 50
0.0
 51
90.0
  0
LINE
  5
7C7D
330
19
100
AcDbEntity
  8
1
100
AcDbLine
 10
862.3394090506936
 20
1647.424943391219
 30
0.0
 11
857.159661050694
 21
1655.555558391219
 31
0.0
  0
ARC
  5
7C7F
330
19
100
AcDbEntity
  8
1
100
AcDbCircle
 10
857.0154960506934
 20
1644.424943391219
 30
0.0
 40
3.0
100
AcDbArc
 50
90.0
 51
180.0
  0
LINE
  5
7C80
330
19
100
AcDbEntity
  8
1
100
AcDbLine
 10
913.5154960506934
 20
1702.683976391218
 30
0.0
 11
907.1315240506937
 21
1707.381730391219
 31
0.0
  0
LINE
  5
7C85
330
19
100
AcDbEntity
  8
1
100
AcDbLine
 10
649.0154960506933
 20
1632.573502391219
 30
0.0
 11
658.5222100506944
 21
1647.496110391218
 31
0.0
  0
LINE
  5
7C89
330
19
100
AcDbEntity
  8
1
100
AcDbLine
 10
649.0154960506933
 20
1644.424943391219
 30
0.0
 11
649.0154960506933
 21
1627.424943391218
 31
0.0
  0
LINE
  5
7C8A
330
19
100
AcDbEntity
  8
1
100
AcDbLine
 10
589.5154960506934
 20
1702.683976391218
 30
0.0
 11
589.5154960506934
 21
1627.424943391218
 31
0.0
  0
LINE
  5
7C8B
330
19
100
AcDbEntity
  8
1
100
AcDbLine
 10
649.0154960506933
 20
1627.424943391218
 30
0.0
 11
589.5154960506934
 21
1627.424943391218
 31
0.0
  0
LINE
  5
7C8D
330
19
100
AcDbEntity
  8
1
100
AcDbLine
 10
646.0154960506933
 20
1647.424943391219
 30
0.0
 11
592.5154960506934
 21
1647.424943391219
 31
0.0
  0
LINE
  5
7C8F
330
19
100
AcDbEntity
  8
1
100
AcDbLine
 10
640.6915820506938
 20
1647.424943391219
 30
0.0
 11
645.8713310506936
 21
1655.555558391219
 31
0.0
  0
ARC
  5
7C90
330
19
100
AcDbEntity
  8
1
100
AcDbCircle
 10
646.0154960506933
 20
1644.424943391219
 30
0.0
 40
3.0
100
AcDbArc
 50
0.0
 51
90.0
  0
ARC
  5
7C91
330
19
100
AcDbEntity
  8
1
100
AcDbCircle
 10
592.5154960506934
 20
1644.424943391219
 30
0.0
 40
3.0
100
AcDbArc
 50
90.0
 51
180.0
  0
LINE
  5
7C9C
330
19
100
AcDbEntity
  8
1
100
AcDbLine
 10
589.5154960506934
 20
1702.683976391218
 30
0.0
 11
595.8994070506942
 21
1707.381730391219
 31
0.0
  0
LINE
  5
7C9D
330
19
100
AcDbEntity
  8
2
100
AcDbLine
 10
472.2195236641055
 20
1807.424943391218
 30
0.0
 11
982.2973380396888
 21
1807.424943391218
 31
0.0
  0
LINE
  5
7C9E
330
19
100
AcDbEntity
  8
1
100
AcDbLine
 10
775.5154960506943
 20
3430.720223056193
 30
0.0
 11
775.5154960506943
 21
3400.720223056194
 31
0.0
  0
LINE
  5
7C9F
330
19
100
AcDbEntity
  8
1
100
AcDbLine
 10
727.5154960506942
 20
3430.720223056193
 30
0.0
 11
727.5154960506942
 21
3400.720223056194
 31
0.0
  0
LINE
  5
7CA0
330
19
100
AcDbEntity
  8
1
100
AcDbLine
 10
966.5154960506933
 20
1627.424943391218
 30
0.0
 11
821.5154960506934
 21
1627.424943391218
 31
0.0
  0
LINE
  5
7CA1
330
19
100
AcDbEntity
  8
1
100
AcDbLine
 10
821.5154960506934
 20
1627.424943391218
 30
0.0
 11
821.5154960506934
 21
1617.424943391219
 31
0.0
  0
LINE
  5
7CA2
330
19
100
AcDbEntity
  8
1
100
AcDbLine
 10
681.5154960506934
 20
1627.424943391218
 30
0.0
 11
681.5154960506934
 21
1617.424943391219
 31
0.0
  0
LINE
  5
7CA4
330
19
100
AcDbEntity
  8
1
100
AcDbLine
 10
821.5154960506934
 20
1617.424943391219
 30
0.0
 11
681.5154960506934
 21
1617.424943391219
 31
0.0
  0
LINE
  5
7CA5
330
19
100
AcDbEntity
  8
1
100
AcDbLine
 10
681.5154960506934
 20
1627.424943391218
 30
0.0
 11
536.5154960506942
 21
1627.424943391218
 31
0.0
  0
LINE
  5
7CA8
330
19
100
AcDbEntity
  8
1
100
AcDbLine
 10
536.5154960506942
 20
1627.424943391218
 30
0.0
 11
526.5154960506934
 21
1572.424943391219
 31
0.0
  0
LINE
  5
7CA9
330
19
100
AcDbEntity
  8
1
100
AcDbLine
 10
966.5154960506933
 20
1627.424943391218
 30
0.0
 11
976.5154960506944
 21
1572.424943391219
 31
0.0
  0
DIMENSION
  5
7CAA
330
19
100
AcDbEntity
  8
3
100
AcDbDimension
280
     0
  2
*D7
 10
965.8413541790269
 20
2656.537099861773
 30
0.0
 11
1208.67842511486
 21
2696.537099861773
 31
0.0
 70
    32
  1
484
 71
     5
 42
-1.0
 73
     0
 74
     0
 75
     0
  3
MATSU
100
AcDbAlignedDimension
 13
1451.515496050693
 23
2602.392447592675
 33
0.0
 14
965.8413541790269
 24
2009.424943391219
 34
0.0
100
AcDbRotatedDimension
1001
ACAD
1000
DSTYLE
1002
{
1070
   287
1070
     4
1070
    40
1040
20.0
1070
    75
1070
     1
1070
   279
1070
     1
1070
   289
1070
     3
1002
}
  0
DIMENSION
  5
7CAB
330
19
100
AcDbEntity
  8
3
100
AcDbDimension
280
     0
  2
*D8
 10
456.5154960506934
 20
2784.871212944171
 30
0.0
 11
1149.015496050694
 21
2824.871212944171
 31
0.0
 12
0.0
 22
907.692309383021
 32
0.0
 70
    32
 71
     5
 42
-1.0
 73
     0
 74
     0
 75
     0
  3
MATSU
100
AcDbAlignedDimension
 13
1841.515496050694
 23
2599.424943391219
 33
0.0
 14
456.5154960506934
 24
1572.424943391219
 34
0.0
100
AcDbRotatedDimension
1001
ACAD
1000
DSTYLE
1002
{
1070
    40
1040
20.0
1002
}
  0
DIMENSION
  5
7CAC
330
19
100
AcDbEntity
  8
3
100
AcDbDimension
280
     0
  2
*D9
 10
2123.432219014783
 20
1497.424943391219
 30
0.0
 11
2083.432219014783
 21
1732.424943391219
 31
0.0
 70
    32
 71
     5
 42
-1.0
 73
     0
 74
     0
 75
     0
  3
MATSU
100
AcDbAlignedDimension
 13
1885.115120615952
 23
1967.424943391218
 33
0.0
 14
1806.515496050693
 24
1497.424943391219
 34
0.0
 50
90.0
100
AcDbRotatedDimension
1001
ACAD
1000
DSTYLE
1002
{
1070
   287
1070
     4
1070
    40
1040
20.0
1070
    75
1070
     1
1070
   279
1070
     1
1070
   289
1070
     3
1002
}
  0
CIRCLE
  5
7CB0
330
19
100
AcDbEntity
  8
1
100
AcDbCircle
 10
1451.515496050693
 20
1967.424943391218
 30
0.0
 40
280.0
  0
CIRCLE
  5
7CB1
330
19
100
AcDbEntity
  8
1
100
AcDbCircle
 10
1451.515496050693
 20
1967.424943391218
 30
0.0
 40
310.0
  0
LINE
  5
7CB2
330
19
100
AcDbEntity
  8
1
100
AcDbLine
 10
1841.515496050694
 20
3583.220223056193
 30
0.0
 11
977.5154960506943
 21
3583.220223056193
 31
0.0
  0
LINE
  5
7CB3
330
19
100
AcDbEntity
  8
1
100
AcDbLine
 10
1841.515496050694
 20
4333.220223056192
 30
0.0
 11
977.5154960506943
 21
4333.220223056192
 31
0.0
  0
LINE
  5
7CB4
330
19
100
AcDbEntity
  8
1
100
AcDbLine
 10
1841.515496050694
 20
3553.220223056194
 30
0.0
 11
1841.515496050694
 21
4363.220223056192
 31
0.0
  0
LINE
  5
7CB5
330
19
100
AcDbEntity
  8
1
100
AcDbLine
 10
977.5154960506943
 20
3583.220223056193
 30
0.0
 11
977.5154960506943
 21
4333.220223056193
 31
0.0
  0
LINE
  5
7CB6
330
19
100
AcDbEntity
  8
1
100
AcDbLine
 10
1841.515496050694
 20
4363.220223056192
 30
0.0
 11
1838.515496050694
 21
4363.220223056194
 31
0.0
  0
LINE
  5
7CB7
330
19
100
AcDbEntity
  8
1
100
AcDbLine
 10
1841.515496050694
 20
3553.220223056194
 30
0.0
 11
1838.515496050694
 21
3553.220223056194
 31
0.0
  0
LINE
  5
7CB8
330
19
100
AcDbEntity
  8
1
100
AcDbLine
 10
1838.515496050694
 20
3553.220223056194
 30
0.0
 11
1838.515496050694
 21
4363.220223056192
 31
0.0
  0
LINE
  5
7CB9
330
19
100
AcDbEntity
  8
1
100
AcDbLine
 10
1671.515496050694
 20
3278.220223056193
 30
0.0
 11
531.5154960506943
 21
3278.220223056193
 31
0.0
  0
LINE
  5
7CBA
330
19
100
AcDbEntity
  8
1
100
AcDbLine
 10
1671.515496050694
 20
3438.220223056193
 30
0.0
 11
531.5154960506943
 21
3438.220223056194
 31
0.0
  0
LINE
  5
7CBB
330
19
100
AcDbEntity
  8
1
100
AcDbLine
 10
531.5154960506943
 20
3278.220223056193
 30
0.0
 11
531.5154960506943
 21
3438.220223056194
 31
0.0
  0
LINE
  5
7CBC
330
19
100
AcDbEntity
  8
1
100
AcDbLine
 10
1671.515496050694
 20
3278.220223056193
 30
0.0
 11
1671.515496050694
 21
3438.220223056193
 31
0.0
  0
LINE
  5
7CBD
330
19
100
AcDbEntity
  8
1
100
AcDbLine
 10
1561.515496050694
 20
3400.720223056193
 30
0.0
 11
1341.515496050694
 21
3400.720223056193
 31
0.0
  0
LINE
  5
7CBE
330
19
100
AcDbEntity
  8
1
100
AcDbLine
 10
1561.515496050694
 20
3315.720223056193
 30
0.0
 11
1341.515496050694
 21
3315.720223056193
 31
0.0
  0
LINE
  5
7CBF
330
19
100
AcDbEntity
  8
1
100
AcDbLine
 10
1561.515496050694
 20
3315.720223056193
 30
0.0
 11
1561.515496050694
 21
3400.720223056193
 31
0.0
  0
LINE
  5
7CC0
330
19
100
AcDbEntity
  8
1
100
AcDbLine
 10
1341.515496050694
 20
3315.720223056193
 30
0.0
 11
1341.515496050694
 21
3400.720223056193
 31
0.0
  0
LINE
  5
7CC1
330
19
100
AcDbEntity
  8
1
100
AcDbLine
 10
891.0154960506943
 20
3315.720223056193
 30
0.0
 11
891.0154960506943
 21
3400.720223056193
 31
0.0
  0
LINE
  5
7CC2
330
19
100
AcDbEntity
  8
1
100
AcDbLine
 10
612.0154960506943
 20
3315.720223056193
 30
0.0
 11
612.0154960506943
 21
3400.720223056193
 31
0.0
  0
LINE
  5
7CC3
330
19
100
AcDbEntity
  8
1
100
AcDbLine
 10
891.0154960506943
 20
3400.720223056193
 30
0.0
 11
612.0154960506943
 21
3400.720223056193
 31
0.0
  0
LINE
  5
7CC4
330
19
100
AcDbEntity
  8
1
100
AcDbLine
 10
891.0154960506943
 20
3315.720223056193
 30
0.0
 11
612.0154960506943
 21
3315.720223056193
 31
0.0
  0
LINE
  5
7CC5
330
19
100
AcDbEntity
  8
1
100
AcDbLine
 10
1474.015496050694
 20
3400.720223056193
 30
0.0
 11
1474.015496050694
 21
3583.220223056193
 31
0.0
  0
LINE
  5
7CC6
330
19
100
AcDbEntity
  8
1
100
AcDbLine
 10
1429.015496050694
 20
3400.720223056193
 30
0.0
 11
1429.015496050694
 21
3583.220223056193
 31
0.0
  0
LINE
  5
7CC7
330
19
100
AcDbEntity
  8
1
100
AcDbLine
 10
2435.906635817508
 20
2187.424943391219
 30
0.0
 11
2595.906635817508
 21
2187.424943391218
 31
0.0
  0
LINE
  5
7CC8
330
19
100
AcDbEntity
  8
2
100
AcDbLine
 10
2377.956190231538
 20
1807.424943391218
 30
0.0
 11
2780.906635817508
 21
1807.424943391218
 31
0.0
  0
LINE
  5
7CC9
330
19
100
AcDbEntity
  8
1
100
AcDbLine
 10
2435.906635817508
 20
1587.424943391219
 30
0.0
 11
2595.906635817508
 21
1587.424943391219
 31
0.0
  0
LINE
  5
7CCA
330
19
100
AcDbEntity
  8
1
100
AcDbLine
 10
2558.406635817508
 20
2077.424943391219
 30
0.0
 11
2558.406635817508
 21
1658.924943391219
 31
0.0
  0
LINE
  5
7CCB
330
19
100
AcDbEntity
  8
1
100
AcDbLine
 10
2473.406635817508
 20
2077.424943391219
 30
0.0
 11
2473.406635817508
 21
1658.924943391219
 31
0.0
  0
LINE
  5
7CCC
330
19
100
AcDbEntity
  8
1
100
AcDbLine
 10
2473.406635817508
 20
2077.424943391219
 30
0.0
 11
2558.406635817508
 21
2077.424943391218
 31
0.0
  0
LINE
  5
7CCD
330
19
100
AcDbEntity
  8
1
100
AcDbLine
 10
2473.406635817508
 20
1857.424943391218
 30
0.0
 11
2558.406635817508
 21
1857.424943391218
 31
0.0
  0
LINE
  5
7CCE
330
19
100
AcDbEntity
  8
1
100
AcDbLine
 10
2473.406635817508
 20
1955.924943391218
 30
0.0
 11
2558.406635817508
 21
1955.924943391218
 31
0.0
  0
LINE
  5
7CCF
330
19
100
AcDbEntity
  8
1
100
AcDbLine
 10
2473.406635817508
 20
1658.924943391219
 30
0.0
 11
2558.406635817508
 21
1658.924943391219
 31
0.0
  0
LINE
  5
7CD0
330
19
100
AcDbEntity
  8
1
100
AcDbLine
 10
2558.406635817509
 20
1989.924943391218
 30
0.0
 11
2740.906635817508
 21
1989.924943391218
 31
0.0
  0
LINE
  5
7CD1
330
19
100
AcDbEntity
  8
1
100
AcDbLine
 10
2558.406635817508
 20
1944.924943391218
 30
0.0
 11
2740.906635817508
 21
1944.924943391219
 31
0.0
  0
DIMENSION
  5
7CD2
330
19
100
AcDbEntity
  8
3
100
AcDbDimension
280
     0
  2
*D10
 10
2435.906635817508
 20
2799.777879114134
 30
0.0
 11
2775.906635817508
 21
2855.492164828419
 31
0.0
 70
    32
  1
(<>)
 71
     5
 42
680.0
 73
     0
 74
     0
 75
     0
  3
MATSU
100
AcDbAlignedDimension
 13
3115.906635817508
 23
2723.177695652146
 33
0.0
 14
2435.906635817508
 24
2187.424943391219
 34
0.0
100
AcDbRotatedDimension
1001
ACAD
1000
DSTYLE
1002
{
1070
   287
1070
     4
1070
    40
1040
20.0
1070
    75
1070
     1
1070
   279
1070
     1
1070
   289
1070
     3
1002
}
  0
LINE
  5
7CD3
330
19
100
AcDbEntity
  8
1
100
AcDbLine
 10
569.0154960506934
 20
3992.220223056193
 30
0.0
 11
569.0154960506934
 21
3430.720223056193
 31
0.0
  0
LINE
  5
7CD4
330
19
100
AcDbEntity
  8
1
100
AcDbLine
 10
934.0154960506934
 20
3992.220223056193
 30
0.0
 11
934.0154960506943
 21
3430.720223056193
 31
0.0
  0
LINE
  5
7CD5
330
19
100
AcDbEntity
  8
1
100
AcDbLine
 10
569.0154960506943
 20
3992.220223056193
 30
0.0
 11
934.0154960506934
 21
3992.220223056193
 31
0.0
  0
LINE
  5
7CD6
330
19
100
AcDbEntity
  8
1
100
AcDbLine
 10
569.0154960506934
 20
3430.720223056193
 30
0.0
 11
934.0154960506943
 21
3430.720223056193
 31
0.0
  0
LINE
  5
7CD7
330
19
100
AcDbEntity
  8
1
100
AcDbLine
 10
2740.906635817508
 20
1624.924943391218
 30
0.0
 11
2588.406635817508
 21
1624.924943391218
 31
0.0
  0
LINE
  5
7CD8
330
19
100
AcDbEntity
  8
1
100
AcDbLine
 10
2588.406635817507
 20
1783.424943391219
 30
0.0
 11
2558.406635817508
 21
1783.424943391219
 31
0.0
  0
LINE
  5
7CD9
330
19
100
AcDbEntity
  8
1
100
AcDbLine
 10
2588.406635817507
 20
1831.424943391218
 30
0.0
 11
2558.406635817508
 21
1831.424943391218
 31
0.0
  0
LINE
  5
7CDA
330
19
100
AcDbEntity
  8
1
100
AcDbLine
 10
2563.406635817508
 20
1834.924943391219
 30
0.0
 11
2558.406635817508
 21
1834.924943391219
 31
0.0
  0
LINE
  5
7CDB
330
19
100
AcDbEntity
  8
1
100
AcDbLine
 10
2588.406635817508
 20
1992.424943391219
 30
0.0
 11
2588.406635817508
 21
1989.924943391218
 31
0.0
  0
LINE
  5
7CDC
330
19
100
AcDbEntity
  8
1
100
AcDbLine
 10
2563.406635817508
 20
1834.924943391219
 30
0.0
 11
2563.406635817508
 21
1831.424943391219
 31
0.0
  0
LINE
  5
7CDD
330
19
100
AcDbEntity
  8
1
100
AcDbLine
 10
2595.906635817508
 20
1685.770132292025
 30
0.0
 11
2595.906635817508
 21
1587.424943391219
 31
0.0
  0
DIMENSION
  5
7CDE
330
19
100
AcDbEntity
  8
3
100
AcDbDimension
280
     0
  2
*D11
 10
2003.109094102409
 20
3451.220223056193
 30
0.0
 11
1963.109094102408
 21
3913.720223056193
 31
0.0
 12
0.0
 22
802.1466872209257
 32
0.0
 70
    32
 71
     5
 42
-1.0
 73
     0
 74
     0
 75
     0
  3
MATSU
100
AcDbAlignedDimension
 13
1806.515496050694
 23
4376.220223056193
 33
0.0
 14
1806.515496050694
 24
3451.220223056193
 34
0.0
 50
90.0
100
AcDbRotatedDimension
1001
ACAD
1000
DSTYLE
1002
{
1070
    40
1040
20.0
1002
}
  0
DIMENSION
  5
7CDF
330
19
100
AcDbEntity
  8
3
100
AcDbDimension
280
     0
  2
*D12
 10
1096.515496050694
 20
4531.574174820518
 30
0.0
 11
1451.515496050694
 21
4571.574174820518
 31
0.0
 12
0.0
 22
802.1466872209257
 32
0.0
 70
    32
 71
     5
 42
-1.0
 73
     0
 74
     0
 75
     0
  3
MATSU
100
AcDbAlignedDimension
 13
1806.515496050694
 23
4376.220223056193
 33
0.0
 14
1096.515496050694
 24
4376.220223056193
 34
0.0
100
AcDbRotatedDimension
1001
ACAD
1000
DSTYLE
1002
{
1070
    40
1040
20.0
1002
}
  0
DIMENSION
  5
7CE0
330
19
100
AcDbEntity
  8
3
100
AcDbDimension
280
     0
  2
*D13
 10
456.5154960506943
 20
4531.574174820518
 30
0.0
 11
776.5154960506943
 21
4571.574174820518
 31
0.0
 70
    32
 71
     5
 42
-1.0
 73
     0
 74
     0
 75
     0
  3
MATSU
100
AcDbAlignedDimension
 13
1096.515496050694
 23
4376.220223056193
 33
0.0
 14
456.5154960506943
 24
4051.220223056192
 34
0.0
100
AcDbRotatedDimension
1001
ACAD
1000
DSTYLE
1002
{
1070
   287
1070
     4
1070
    40
1040
20.0
1070
    75
1070
     1
1070
   279
1070
     1
1070
   289
1070
     3
1002
}
  0
DIMENSION
  5
7CE1
330
19
100
AcDbEntity
  8
3
100
AcDbDimension
280
     0
  2
*D14
 10
342.2277494852187
 20
3451.220223056193
 30
0.0
 11
302.2277494852187
 21
3751.220223056193
 31
0.0
 70
    32
 71
     5
 42
-1.0
 73
     0
 74
     0
 75
     0
  3
MATSU
100
AcDbAlignedDimension
 13
456.5154960506943
 23
4051.220223056192
 33
0.0
 14
456.5154960506943
 24
3451.220223056193
 34
0.0
 50
90.0
100
AcDbRotatedDimension
1001
ACAD
1000
DSTYLE
1002
{
1070
    40
1040
20.0
1002
}
  0
DIMENSION
  5
7CE2
330
19
100
AcDbEntity
  8
3
100
AcDbDimension
280
     0
  2
*D15
 10
1806.515496050694
 20
3016.191769256771
 30
0.0
 11
1131.515496050694
 21
3056.191769256772
 31
0.0
 12
0.0
 22
802.1466872209257
 32
0.0
 70
    32
 71
     5
 42
-1.0
 73
     0
 74
     0
 75
     0
  3
MATSU
100
AcDbAlignedDimension
 13
456.5154960506943
 23
3451.220223056193
 33
0.0
 14
1806.515496050694
 24
3451.220223056193
 34
0.0
100
AcDbRotatedDimension
1001
ACAD
1000
DSTYLE
1002
{
1070
    40
1040
20.0
1002
}
  0
CIRCLE
  5
7CE9
330
19
100
AcDbEntity
  8
1
100
AcDbCircle
 10
751.5154960506934
 20
1807.424943391218
 30
0.0
 40
139.5
  0
CIRCLE
  5
7CEA
330
19
100
AcDbEntity
  8
1
100
AcDbCircle
 10
1451.515496050693
 20
1967.424943391218
 30
0.0
 40
110.0
  0
ARC
  5
7CEB
330
19
100
AcDbEntity
  8
1
100
AcDbCircle
 10
1451.515496050693
 20
1967.424943391218
 30
0.0
 40
220.0
100
AcDbArc
 50
282.8750015596124
 51
102.8750015596124
  0
ARC
  5
7CEC
330
19
100
AcDbEntity
  8
1
100
AcDbCircle
 10
751.5154960506934
 20
1807.424943391218
 30
0.0
 40
220.0
100
AcDbArc
 50
102.8750015596124
 51
282.8750015596125
  0
LINE
  5
7CED
330
19
100
AcDbEntity
  8
1
100
AcDbLine
 10
1402.494039720223
 20
2181.893814837029
 30
0.0
 11
702.4940397202226
 21
2021.89381483703
 31
0.0
  0
LINE
  5
7CEE
330
19
100
AcDbEntity
  8
1
100
AcDbLine
 10
1500.536952381165
 20
1752.956071945408
 30
0.0
 11
800.536952381165
 21
1592.956071945408
 31
0.0
  0
LINE
  5
7CEF
330
19
100
AcDbEntity
  8
1
100
AcDbLine
 10
1431.431008643204
 20
2075.575825798985
 30
0.0
 11
726.0447142930143
 21
1944.579926081067
 31
0.0
  0
LINE
  5
7CF0
330
19
100
AcDbEntity
  8
1
100
AcDbLine
 10
1480.411077329401
 20
1861.288025296874
 30
0.0
 11
788.1603468541452
 21
1672.824033626118
 31
0.0
  0
LINE
  5
7CF1
330
19
100
AcDbEntity
  8
1
100
AcDbLine
 10
2588.406635817508
 20
1992.424943391219
 30
0.0
 11
2740.906635817508
 21
1992.424943391219
 31
0.0
  0
LINE
  5
7CF2
330
19
100
AcDbEntity
  8
1
100
AcDbLine
 10
1806.515496050694
 20
4333.220223056192
 30
0.0
 11
1806.515496050694
 21
4376.220223056193
 31
0.0
  0
LINE
  5
7F15
330
19
100
AcDbEntity
  8
4
100
AcDbLine
 10
3700.0
 20
1000.0
 30
0.0
 11
3700.0
 21
600.0
 31
0.0
  0
LINE
  5
7F16
330
19
100
AcDbEntity
  8
4
100
AcDbLine
 10
2300.0
 20
1000.0
 30
0.0
 11
2300.0
 21
600.0
 31
0.0
  0
LINE
  5
7F17
330
19
100
AcDbEntity
  8
4
100
AcDbLine
 10
1300.0
 20
1000.0
 30
0.0
 11
1300.0
 21
600.0
 31
0.0
  0
LINE
  5
7F1A
330
19
100
AcDbEntity
  8
4
100
AcDbLine
 10
1300.0
 20
600.0
 30
0.0
 11
3700.0
 21
600.0
 31
0.0
  0
LINE
  5
7F1B
330
19
100
AcDbEntity
  8
4
100
AcDbLine
 10
1300.0
 20
800.0
 30
0.0
 11
3700.0
 21
800.0
 31
0.0
  0
TEXT
  5
7F1C
330
19
100
AcDbEntity
  8
4
100
AcDbText
 10
1377.004161693803
 20
863.0860517332257
 30
0.0
 40
100.0
  1
機器名称
100
AcDbText
  0
TEXT
  5
7F1D
330
19
100
AcDbEntity
  8
4
100
AcDbText
 10
1372.516212049595
 20
643.2903134640219
 30
0.0
 40
100.0
  1
機器型番
100
AcDbText
  0
TEXT
  5
7F1E
330
19
100
AcDbEntity
  8
4
100
AcDbText
 10
2356.357070020983
 20
843.9323595418274
 30
0.0
 40
80.0
  1
ミツヤリミットロードファン
100
AcDbText
  0
TEXT
  5
7F1F
330
19
100
AcDbEntity
  8
4
100
AcDbText
 10
2373.308991170961
 20
634.3191685598867
 30
0.0
 40
100.0
  1
LL#3 1/2-5
100
AcDbText
  0
TEXT
  5
7F21
330
19
100
AcDbEntity
  8
4
100
AcDbText
 10
1619.475793773494
 20
4766.857682665031
 30
0.0
 40
108.0
  1
床置防振ベット
100
AcDbText
  0
TEXT
  5
7F22
330
19
100
AcDbEntity
  8
4
100
AcDbText
 10
632.3351866588928
 20
5067.761952398596
 30
0.0
 40
144.0
  1
遠心式両吸込両持リミットロードファン
100
AcDbText
  0
LINE
  5
7F23
330
19
100
AcDbEntity
  8
4
100
AcDbLine
 10
500.0
 20
4938.817508529609
 30
0.0
 11
3700.0
 21
4938.817508529609
 31
0.0
  0
LINE
  5
7F24
330
19
100
AcDbEntity
  8
4
100
AcDbLine
 10
500.0
 20
5338.81750852961
 30
0.0
 11
3700.0
 21
5338.81750852961
 31
0.0
  0
LINE
  5
7F25
330
19
100
AcDbEntity
  8
4
100
AcDbLine
 10
1300.0
 20
1000.0
 30
0.0
 11
3700.0
 21
1000.0
 31
0.0
  0
LINE
  5
7F26
330
19
100
AcDbEntity
  8
4
100
AcDbLine
 10
500.0
 20
5338.81750852961
 30
0.0
 11
500.0
 21
4938.817508529609
 31
0.0
  0
TEXT
  5
7F27
330
19
100
AcDbEntity
  8
4
100
AcDbText
 10
747.7581292880895
 20
4764.638955092687
 30
0.0
 40
108.0
  1
右回転右横向
100
AcDbText
  0
TEXT
  5
7F28
330
19
100
AcDbEntity
  8
4
100
AcDbText
 10
2937.93911849858
 20
5412.122162990618
 30
0.0
 40
112.0
  1
No.
100
AcDbText
  0
TEXT
  5
7F29
330
19
100
AcDbEntity
  8
4
100
AcDbText
 10
2622.592125200026
 20
4766.857682665031
 30
0.0
 40
108.0
  1
縮尺：1/20
100
AcDbText
  0
LINE
  5
7F2A
330
19
100
AcDbEntity
  8
4
100
AcDbLine
 10
3700.0
 20
5338.81750852961
 30
0.0
 11
3700.0
 21
4938.817508529609
 31
0.0
  0
LINE
  5
7F2B
330
19
100
AcDbEntity
  8
4
100
AcDbLine
 10
4200.0
 20
5900.0
 30
0.0
 11
4200.0
 21
5900.0
 31
0.0
  0
LINE
  5
7F2C
330
19
100
AcDbEntity
  8
4
100
AcDbLine
 10
2881.234844719729
 20
5362.527166250802
 30
0.0
 11
2881.234844719729
 21
5573.304523099505
 31
0.0
  0
LINE
  5
7F2D
330
19
100
AcDbEntity
  8
4
100
AcDbLine
 10
2881.234844719729
 20
5573.304523099505
 30
0.0
 11
3700.0
 21
5573.304523099505
 31
0.0
  0
LINE
  5
7F2E
330
19
100
AcDbEntity
  8
4
100
AcDbLine
 10
3700.0
 20
5573.304523099505
 30
0.0
 11
3700.0
 21
5362.527166250802
 31
0.0
  0
LINE
  5
7F2F
330
19
100
AcDbEntity
  8
4
100
AcDbLine
 10
3700.0
 20
5362.527166250802
 30
0.0
 11
2881.234844719729
 21
5362.527166250802
 31
0.0
  0
LINE
  5
7F30
330
19
100
AcDbEntity
  8
4
100
AcDbLine
 10
0.0
 20
0.0
 30
0.0
 11
0.0
 21
5900.0
 31
0.0
  0
LINE
  5
7F31
330
19
100
AcDbEntity
  8
4
100
AcDbLine
 10
0.0
 20
5900.0
 30
0.0
 11
4200.0
 21
5900.0
 31
0.0
  0
LINE
  5
7F32
330
19
100
AcDbEntity
  8
4
100
AcDbLine
 10
4200.0
 20
5900.0
 30
0.0
 11
4200.0
 21
0.0
 31
0.0
  0
LINE
  5
7F33
330
19
100
AcDbEntity
  8
4
100
AcDbLine
 10
4200.0
 20
0.0
 30
0.0
 11
0.0
 21
0.0
 31
0.0
  0
LINE
  5
7F34
330
19
100
AcDbEntity
  8
1
100
AcDbLine
 10
1841.515496050694
 20
2567.424943391219
 30
0.0
 11
1451.515496050693
 21
2535.424943391218
 31
0.0
  0
ARC
  5
7F35
330
19
100
AcDbEntity
  8
1
100
AcDbCircle
 10
1493.515496050693
 20
2009.424943391219
 30
0.0
 40
527.6741418716664
100
AcDbArc
 50
94.56526238441698
 51
180.0
  0
ARC
  5
7F36
330
19
100
AcDbEntity
  8
1
100
AcDbCircle
 10
1409.515496050693
 20
2009.424943391219
 30
0.0
 40
443.6741418716665
100
AcDbArc
 50
180.0
 51
260.0494011948888
  0
ARC
  5
7F37
330
19
100
AcDbEntity
  8
1
100
AcDbCircle
 10
1418.515496050694
 20
1934.424943391219
 30
0.0
 40
368.1360719995823
100
AcDbArc
 50
280.4757168569591
 51
359.9999999999999
  0
ARC
  5
7F38
330
19
100
AcDbEntity
  8
1
100
AcDbCircle
 10
1484.515496050702
 20
1934.424943391218
 30
0.0
 40
302.1360719995741
100
AcDbArc
 50
0.0
 51
10.10296371777639
  0
DIMENSION
  5
7F87
330
19
100
AcDbEntity
  8
3
100
AcDbDimension
280
     0
  2
*D16
 10
2123.432219014783
 20
1385.424943391219
 30
0.0
 11
2073.432219014783
 21
1236.85351481979
 31
0.0
 70
    32
 71
     5
 42
-1.0
 73
     0
 74
     0
 75
     0
  3
IGA
100
AcDbAlignedDimension
 13
1806.515496050693
 23
1460.424943391219
 33
0.0
 14
1806.515496050693
 24
1385.424943391219
 34
0.0
 50
90.0
100
AcDbRotatedDimension
1001
ACAD
1000
DSTYLE
1002
{
1070
   287
1070
     3
1070
    40
1040
20.0
1070
   143
1040
0.039
1070
   172
1070
     1
1070
   271
1070
     0
1070
   279
1070
     0
1070
   288
1070
     1
1070
     6
1000
DOT
1002
}
  0
DIMENSION
  5
8052
330
19
100
AcDbEntity
  8
3
100
AcDbDimension
280
     0
  2
*D18
 10
1451.515496050693
 20
1249.13461457391
 30
0.0
 11
954.0154960506933
 21
1299.13461457391
 31
0.0
 70
    32
 71
     5
 42
-1.0
 73
     0
 74
     0
 75
     0
  3
IGA
100
AcDbAlignedDimension
 13
456.5154960506934
 23
1385.424943391219
 33
0.0
 14
1451.515496050693
 24
1385.424943391219
 34
0.0
100
AcDbRotatedDimension
1001
ACAD
1000
DSTYLE
1002
{
1070
   172
1070
     1
1070
    40
1040
20.0
1070
   271
1070
     0
1070
   143
1040
0.039
1002
}
  0
DIMENSION
  5
805F
330
19
100
AcDbEntity
  8
3
100
AcDbDimension
280
     0
  2
*D19
 10
1806.515496050693
 20
1249.13461457391
 30
0.0
 11
1629.015496050693
 21
1299.13461457391
 31
0.0
 70
    32
 71
     5
 42
-1.0
 73
     0
 74
     0
 75
     0
  3
IGA
100
AcDbAlignedDimension
 13
1451.515496050693
 23
1385.424943391219
 33
0.0
 14
1806.515496050693
 24
1385.424943391219
 34
0.0
100
AcDbRotatedDimension
1001
ACAD
1000
DSTYLE
1002
{
1070
   172
1070
     1
1070
    40
1040
20.0
1070
   271
1070
     0
1070
   143
1040
0.039
1002
}
  0
DIMENSION
  5
806C
330
19
100
AcDbEntity
  8
3
100
AcDbDimension
280
     0
  2
*D20
 10
3115.906635817508
 20
1249.13461457391
 30
0.0
 11
2862.406635817508
 21
1299.13461457391
 31
0.0
 70
    32
 71
     5
 42
-1.0
 73
     0
 74
     0
 75
     0
  3
IGA
100
AcDbAlignedDimension
 13
2608.906635817508
 23
1385.424943391219
 33
0.0
 14
3115.906635817508
 24
1385.424943391219
 34
0.0
100
AcDbRotatedDimension
1001
ACAD
1000
DSTYLE
1002
{
1070
   172
1070
     1
1070
    40
1040
20.0
1070
   271
1070
     0
1070
   143
1040
0.039
1002
}
  0
DIMENSION
  5
8079
330
19
100
AcDbEntity
  8
3
100
AcDbDimension
280
     0
  2
*D21
 10
3533.906635817508
 20
1249.13461457391
 30
0.0
 11
3324.906635817508
 21
1299.13461457391
 31
0.0
 70
    32
 71
     5
 42
-1.0
 73
     0
 74
     0
 75
     0
  3
IGA
100
AcDbAlignedDimension
 13
3115.906635817508
 23
1385.424943391219
 33
0.0
 14
3533.906635817508
 24
1385.424943391219
 34
0.0
100
AcDbRotatedDimension
1001
ACAD
1000
DSTYLE
1002
{
1070
   172
1070
     1
1070
    40
1040
20.0
1070
   271
1070
     0
1070
   143
1040
0.039
1002
}
  0
DIMENSION
  5
8088
330
19
100
AcDbEntity
  8
3
100
AcDbDimension
280
     0
  2
*D23
 10
2122.309378682796
 20
1497.424943391219
 30
0.0
 11
2218.023664397081
 21
1478.924943391219
 31
0.0
 70
    32
 71
     5
 42
-1.0
 73
     0
 74
     0
 75
     0
  3
IGA
100
AcDbAlignedDimension
 13
1806.515496050693
 23
1460.424943391219
 33
0.0
 14
1806.515496050693
 24
1497.424943391219
 34
0.0
 50
90.0
100
AcDbRotatedDimension
1001
ACAD
1000
DSTYLE
1002
{
1070
   172
1070
     1
1070
    76
1070
     1
1070
    75
1070
     1
1070
    40
1040
20.0
1070
     3
1000
(<>)
1070
   271
1070
     0
1070
     7
1000
_NONE
1070
     6
1000
_NONE
1070
   143
1040
0.039
1002
}
  0
DIMENSION
  5
8095
330
19
100
AcDbEntity
  8
3
100
AcDbDimension
280
     0
  2
*D24
 10
2287.245993345099
 20
1385.424943391219
 30
0.0
 11
2221.531707630814
 21
1976.424943391219
 31
0.0
 70
    32
 71
     5
 42
-1.0
 73
     0
 74
     0
 75
     0
  3
IGA
100
AcDbAlignedDimension
 13
1841.515496050694
 23
2567.424943391219
 33
0.0
 14
1806.515496050693
 24
1385.424943391219
 34
0.0
 50
90.0
100
AcDbRotatedDimension
1001
ACAD
1000
DSTYLE
1002
{
1070
   172
1070
     1
1070
    40
1040
20.0
1070
     3
1000
(<>)
1070
   271
1070
     0
1070
   143
1040
0.039
1002
}
  0
LINE
  5
809A
330
19
100
AcDbEntity
  8
1
100
AcDbLine
 10
2588.406635817508
 20
1944.924943391219
 30
0.0
 11
2588.406635817507
 21
1624.924943391218
 31
0.0
  0
ENDSEC
  0
SECTION
  2
OBJECTS
  0
DICTIONARY
  5
C
330
0
100
AcDbDictionary
281
     1
  3
ACAD_CIP_PREVIOUS_PRODUCT_INFO
350
815A
  3
ACAD_COLOR
350
813D
  3
ACAD_DETAILVIEWSTYLE
350
8156
  3
ACAD_GROUP
350
D
  3
ACAD_LAYOUT
350
809F
  3
ACAD_MATERIAL
350
810B
  3
ACAD_MLEADERSTYLE
350
8152
  3
ACAD_MLINESTYLE
350
E
  3
ACAD_PLOTSETTINGS
350
80A0
  3
ACAD_PLOTSTYLENAME
350
809D
  3
ACAD_SCALELIST
350
8140
  3
ACAD_SECTIONVIEWSTYLE
350
8154
  3
ACAD_TABLESTYLE
350
813E
  3
ACAD_VISUALSTYLE
350
8124
  3
ACDB_RECOMPOSE_DATA
350
81BB
  3
AcDbVariableDictionary
350
81AA
  3
AcDsDecomposeData
350
81C1
  0
DICTIONARY
  5
819E
330
2
100
AcDbDictionary
280
     1
281
     1
  3
ACAD_LAYERSTATES
360
819F
  0
DICTIONARY
  5
8191
330
F
100
AcDbDictionary
280
     1
281
     1
  3
ADSK_XREC_LAYER_RECONCILED
360
8192
  0
DICTIONARY
  5
8193
330
31
100
AcDbDictionary
280
     1
281
     1
  3
ADSK_XREC_LAYER_RECONCILED
360
8194
  0
DICTIONARY
  5
8195
330
76D0
100
AcDbDictionary
280
     1
281
     1
  3
ADSK_XREC_LAYER_RECONCILED
360
8196
  0
DICTIONARY
  5
8197
330
76D1
100
AcDbDictionary
280
     1
281
     1
  3
ADSK_XREC_LAYER_RECONCILED
360
8198
  0
DICTIONARY
  5
8199
330
76D2
100
AcDbDictionary
280
     1
281
     1
  3
ADSK_XREC_LAYER_RECONCILED
360
819A
  0
DICTIONARY
  5
80CC
330
19
100
AcDbDictionary
280
     1
281
     1
  3
ACAD_LAYOUTSELFREF
360
80CD
  0
DICTIONARY
  5
80CA
330
16
100
AcDbDictionary
280
     1
281
     1
  3
ACAD_LAYOUTSELFREF
360
80CB
  0
XRECORD
  5
815A
102
{ACAD_REACTORS
330
C
102
}
330
C
100
AcDbXrecord
280
     1
300
ACDLT
300
2023
300

  0
DICTIONARY
  5
813D
102
{ACAD_REACTORS
330
C
102
}
330
C
100
AcDbDictionary
281
     1
  0
DICTIONARY
  5
8156
102
{ACAD_REACTORS
330
C
102
}
330
C
100
AcDbDictionary
281
     1
  3
Metric50
350
8157
  0
DICTIONARY
  5
D
102
{ACAD_REACTORS
330
C
102
}
330
C
100
AcDbDictionary
281
     1
  0
DICTIONARY
  5
809F
102
{ACAD_REACTORS
330
C
102
}
330
C
100
AcDbDictionary
281
     1
  3
Model
350
80A1
  3
ﾚｲｱｳﾄ1
350
80A2
  0
DICTIONARY
  5
810B
102
{ACAD_REACTORS
330
C
102
}
330
C
100
AcDbDictionary
281
     1
  3
ByBlock
350
8114
  3
ByLayer
350
810C
  3
Global
350
811C
  0
DICTIONARY
  5
8152
102
{ACAD_REACTORS
330
C
102
}
330
C
100
AcDbDictionary
281
     1
  3
Standard
350
8153
  0
DICTIONARY
  5
E
102
{ACAD_REACTORS
330
C
102
}
330
C
100
AcDbDictionary
281
     1
  3
STANDARD
350
1C
  0
DICTIONARY
  5
80A0
102
{ACAD_REACTORS
330
C
102
}
330
C
100
AcDbDictionary
281
     1
  0
ACDBDICTIONARYWDFLT
  5
809D
102
{ACAD_REACTORS
330
C
102
}
330
C
100
AcDbDictionary
281
     1
  3
Normal
350
809E
100
AcDbDictionaryWithDefault
340
809E
  0
DICTIONARY
  5
8140
102
{ACAD_REACTORS
330
C
102
}
330
C
100
AcDbDictionary
281
     1
  3
A0
350
8141
  3
A1
350
8142
  3
A2
350
8143
  3
A3
350
8144
  3
A4
350
8145
  3
A5
350
8146
  3
A6
350
8147
  3
A7
350
8148
  3
A8
350
8149
  3
A9
350
814A
  3
B0
350
814B
  3
B1
350
814C
  3
B2
350
814D
  3
B3
350
814E
  3
B4
350
814F
  3
B5
350
8150
  3
B6
350
8151
  0
DICTIONARY
  5
8154
102
{ACAD_REACTORS
330
C
102
}
330
C
100
AcDbDictionary
281
     1
  3
Metric50
350
8155
  0
DICTIONARY
  5
813E
102
{ACAD_REACTORS
330
C
102
}
330
C
100
AcDbDictionary
281
     1
  3
Standard
350
813F
  0
DICTIONARY
  5
8124
102
{ACAD_REACTORS
330
C
102
}
330
C
100
AcDbDictionary
281
     1
  3
2dWireframe
350
812A
  3
Basic
350
8129
  3
Brighten
350
8130
  3
ColorChange
350
8134
  3
Conceptual
350
812D
  3
Dim
350
812F
  3
EdgeColorOff
350
813C
  3
Facepattern
350
8133
  3
Flat
350
8125
  3
FlatWithEdges
350
8126
  3
Gouraud
350
8127
  3
GouraudWithEdges
350
8128
  3
Hidden
350
812C
  3
JitterOff
350
813A
  3
Linepattern
350
8132
  3
OverhangOff
350
813B
  3
Realistic
350
812E
  3
Shaded
350
8139
  3
Shaded with edges
350
8138
  3
Shades of Gray
350
8135
  3
Sketchy
350
8136
  3
Thicken
350
8131
  3
Wireframe
350
812B
  3
X-Ray
350
8137
  0
XRECORD
  5
81BB
102
{ACAD_REACTORS
330
C
102
}
330
C
100
AcDbXrecord
280
     1
 90
        1
330
7CAA
330
7CAC
330
7CD2
330
7CE0
330
813F
  0
DICTIONARY
  5
81AA
102
{ACAD_REACTORS
330
C
102
}
330
C
100
AcDbDictionary
281
     1
  3
CANNOSCALE
350
81B0
  3
CMLEADERSTYLE
350
81AC
  3
CTABLESTYLE
350
81AB
  3
CVIEWDETAILSTYLE
350
81AD
  3
CVIEWSECTIONSTYLE
350
81AE
  3
LAYEREVAL
350
81B2
  3
LAYERNOTIFY
350
81B3
  3
LIGHTINGUNITS
350
81B1
  3
MARKUPASSISTMODE
350
81B8
  3
MSLTSCALE
350
81AF
  0
DICTIONARY
  5
81C1
102
{ACAD_REACTORS
330
C
102
}
330
C
100
AcDbDictionary
281
     1
  3
AcDsRecords
350
81C3
  3
AcDsSchemas
350
81C2
1001
ACAD
1070
     2
  0
DICTIONARY
  5
819F
102
{ACAD_REACTORS
330
819E
102
}
330
819E
100
AcDbDictionary
281
     1
  0
XRECORD
  5
8192
102
{ACAD_REACTORS
330
8191
102
}
330
8191
100
AcDbXrecord
280
     1
290
     1
  0
XRECORD
  5
8194
102
{ACAD_REACTORS
330
8193
102
}
330
8193
100
AcDbXrecord
280
     1
290
     1
  0
XRECORD
  5
8196
102
{ACAD_REACTORS
330
8195
102
}
330
8195
100
AcDbXrecord
280
     1
290
     1
  0
XRECORD
  5
8198
102
{ACAD_REACTORS
330
8197
102
}
330
8197
100
AcDbXrecord
280
     1
290
     1
  0
XRECORD
  5
819A
102
{ACAD_REACTORS
330
8199
102
}
330
8199
100
AcDbXrecord
280
     1
290
     1
  0
XRECORD
  5
80CD
102
{ACAD_REACTORS
330
80CC
102
}
330
80CC
100
AcDbXrecord
280
     1
340
19
  0
XRECORD
  5
80CB
102
{ACAD_REACTORS
330
80CA
102
}
330
80CA
100
AcDbXrecord
280
     1
340
16
  0
ACDBDETAILVIEWSTYLE
  5
8157
102
{ACAD_XDICTIONARY
360
81C6
102
}
102
{ACAD_REACTORS
330
8156
102
}
330
8156
100
AcDbModelDocViewStyle
 70
     0
  3
Metric50
290
     0
100
AcDbDetailViewStyle
 70
     0
 71
     0
 90
        3
 71
     1
340
10
 62
   256
 40
5.0
340
0
 62
   256
 40
5.0
300

 40
0.0
280
     1
 71
     2
340
15
 90
       25
 62
   256
 71
     3
340
10
 62
   256
 40
5.0
 90
        0
 40
15.0
 90
        1
300
%<\AcVar ViewDetailId>% (%<\AcVar ViewScale \f "%sn">%)
 71
     4
340
15
 90
       25
 62
   256
340
15
 90
       25
 62
   256
280
     0
  0
LAYOUT
  5
80A1
102
{ACAD_REACTORS
330
809F
102
}
330
809F
100
AcDbPlotSettings
  1

  2
EPSON LP-9300
  4

  6

 40
0.0
 41
0.0
 42
0.0
 43
0.0
 44
0.0
 45
0.0
 46
0.0
 47
0.0
 48
0.0
 49
0.0
140
0.0
141
0.0
142
1.0
143
1.0
 70
  1712
 72
     0
 73
     0
 74
     0
  7

 75
     0
147
1.0
 76
     0
 77
     2
 78
   300
148
0.0
149
0.0
100
AcDbLayout
  1
Model
 70
     1
 71
     0
 10
0.0
 20
0.0
 11
12.0
 21
9.0
 12
0.0
 22
0.0
 32
0.0
 14
0.0
 24
0.0
 34
0.0
 15
0.0
 25
0.0
 35
0.0
146
0.0
 13
0.0
 23
0.0
 33
0.0
 16
1.0
 26
0.0
 36
0.0
 17
0.0
 27
1.0
 37
0.0
 76
     0
330
19
331
8109
  0
LAYOUT
  5
80A2
102
{ACAD_REACTORS
330
809F
102
}
330
809F
100
AcDbPlotSettings
  1

  2
EPSON LP-9300
  4

  6

 40
0.0
 41
0.0
 42
0.0
 43
0.0
 44
0.0
 45
0.0
 46
0.0
 47
0.0
 48
0.0
 49
0.0
140
0.0
141
0.0
142
1.0
143
1.0
 70
   688
 72
     0
 73
     0
 74
     5
  7

 75
    16
147
1.0
 76
     0
 77
     2
 78
   300
148
0.0
149
0.0
100
AcDbLayout
  1
ﾚｲｱｳﾄ1
 70
     1
 71
     1
 10
0.0
 20
0.0
 11
12.0
 21
9.0
 12
0.0
 22
0.0
 32
0.0
 14
1.000000000000000E+20
 24
1.000000000000000E+20
 34
1.000000000000000E+20
 15
-1.000000000000000E+20
 25
-1.000000000000000E+20
 35
-1.000000000000000E+20
146
0.0
 13
0.0
 23
0.0
 33
0.0
 16
1.0
 26
0.0
 36
0.0
 17
0.0
 27
1.0
 37
0.0
 76
     0
330
16
  0
MATERIAL
  5
8114
102
{ACAD_XDICTIONARY
360
8115
102
}
102
{ACAD_REACTORS
330
810B
102
}
330
810B
100
AcDbMaterial
  1
ByBlock
 72
     0
 43
0.0208333333333333
 43
0.0
 43
0.0
 43
0.0
 43
0.0
 43
0.0208333333333333
 43
0.0
 43
0.0
 43
0.0
 43
0.0
 43
1.0
 43
0.0
 43
0.0
 43
0.0
 43
0.0
 43
1.0
 77
     0
 47
0.0208333333333333
 47
0.0
 47
0.0
 47
0.0
 47
0.0
 47
0.0208333333333333
 47
0.0
 47
0.0
 47
0.0
 47
0.0
 47
1.0
 47
0.0
 47
0.0
 47
0.0
 47
0.0
 47
1.0
171
     0
 49
0.0208333333333333
 49
0.0
 49
0.0
 49
0.0
 49
0.0
 49
0.0208333333333333
 49
0.0
 49
0.0
 49
0.0
 49
0.0
 49
1.0
 49
0.0
 49
0.0
 49
0.0
 49
0.0
 49
1.0
175
     0
142
0.0208333333333333
142
0.0
142
0.0
142
0.0
142
0.0
142
0.0208333333333333
142
0.0
142
0.0
142
0.0
142
0.0
142
1.0
142
0.0
142
0.0
142
0.0
142
0.0
142
1.0
179
     0
144
0.0208333333333333
144
0.0
144
0.0
144
0.0
144
0.0
144
0.0208333333333333
144
0.0
144
0.0
144
0.0
144
0.0
144
1.0
144
0.0
144
0.0
144
0.0
144
0.0
144
1.0
147
0.0208333333333333
147
0.0
147
0.0
147
0.0
147
0.0
147
0.0208333333333333
147
0.0
147
0.0
147
0.0
147
0.0
147
1.0
147
0.0
147
0.0
147
0.0
147
0.0
147
1.0
  0
MATERIAL
  5
810C
102
{ACAD_XDICTIONARY
360
810D
102
}
102
{ACAD_REACTORS
330
810B
102
}
330
810B
100
AcDbMaterial
  1
ByLayer
 72
     0
 43
0.0208333333333333
 43
0.0
 43
0.0
 43
0.0
 43
0.0
 43
0.0208333333333333
 43
0.0
 43
0.0
 43
0.0
 43
0.0
 43
1.0
 43
0.0
 43
0.0
 43
0.0
 43
0.0
 43
1.0
 77
     0
 47
0.0208333333333333
 47
0.0
 47
0.0
 47
0.0
 47
0.0
 47
0.0208333333333333
 47
0.0
 47
0.0
 47
0.0
 47
0.0
 47
1.0
 47
0.0
 47
0.0
 47
0.0
 47
0.0
 47
1.0
171
     0
 49
0.0208333333333333
 49
0.0
 49
0.0
 49
0.0
 49
0.0
 49
0.0208333333333333
 49
0.0
 49
0.0
 49
0.0
 49
0.0
 49
1.0
 49
0.0
 49
0.0
 49
0.0
 49
0.0
 49
1.0
175
     0
142
0.0208333333333333
142
0.0
142
0.0
142
0.0
142
0.0
142
0.0208333333333333
142
0.0
142
0.0
142
0.0
142
0.0
142
1.0
142
0.0
142
0.0
142
0.0
142
0.0
142
1.0
179
     0
144
0.0208333333333333
144
0.0
144
0.0
144
0.0
144
0.0
144
0.0208333333333333
144
0.0
144
0.0
144
0.0
144
0.0
144
1.0
144
0.0
144
0.0
144
0.0
144
0.0
144
1.0
147
0.0208333333333333
147
0.0
147
0.0
147
0.0
147
0.0
147
0.0208333333333333
147
0.0
147
0.0
147
0.0
147
0.0
147
1.0
147
0.0
147
0.0
147
0.0
147
0.0
147
1.0
  0
MATERIAL
  5
811C
102
{ACAD_XDICTIONARY
360
811D
102
}
102
{ACAD_REACTORS
330
810B
102
}
330
810B
100
AcDbMaterial
  1
Global
 72
     0
 43
0.0208333333333333
 43
0.0
 43
0.0
 43
0.0
 43
0.0
 43
0.0208333333333333
 43
0.0
 43
0.0
 43
0.0
 43
0.0
 43
1.0
 43
0.0
 43
0.0
 43
0.0
 43
0.0
 43
1.0
 77
     0
 47
0.0208333333333333
 47
0.0
 47
0.0
 47
0.0
 47
0.0
 47
0.0208333333333333
 47
0.0
 47
0.0
 47
0.0
 47
0.0
 47
1.0
 47
0.0
 47
0.0
 47
0.0
 47
0.0
 47
1.0
171
     0
 49
0.0208333333333333
 49
0.0
 49
0.0
 49
0.0
 49
0.0
 49
0.0208333333333333
 49
0.0
 49
0.0
 49
0.0
 49
0.0
 49
1.0
 49
0.0
 49
0.0
 49
0.0
 49
0.0
 49
1.0
175
     0
142
0.0208333333333333
142
0.0
142
0.0
142
0.0
142
0.0
142
0.0208333333333333
142
0.0
142
0.0
142
0.0
142
0.0
142
1.0
142
0.0
142
0.0
142
0.0
142
0.0
142
1.0
179
     0
144
0.0208333333333333
144
0.0
144
0.0
144
0.0
144
0.0
144
0.0208333333333333
144
0.0
144
0.0
144
0.0
144
0.0
144
1.0
144
0.0
144
0.0
144
0.0
144
0.0
144
1.0
147
0.0208333333333333
147
0.0
147
0.0
147
0.0
147
0.0
147
0.0208333333333333
147
0.0
147
0.0
147
0.0
147
0.0
147
1.0
147
0.0
147
0.0
147
0.0
147
0.0
147
1.0
  0
MLEADERSTYLE
  5
8153
102
{ACAD_REACTORS
330
8152
102
}
330
8152
100
AcDbMLeaderStyle
179
     2
170
     2
171
     1
172
     0
 90
        2
 40
0.0
 41
0.0
173
     1
 91
-1056964608
340
13
 92
       -2
290
     1
 42
2.0
291
     1
 43
0.36
  3
Standard
 44
4.0
300

342
10
174
     1
178
     6
175
     1
176
     0
 93
-1056964608
 45
4.0
292
     0
297
     0
 46
4.0
 94
-1056964608
 47
1.0
 49
1.0
140
1.0
293
     1
141
0.0
294
     1
177
     0
142
1.0
295
     0
296
     0
143
0.125
271
     0
272
     9
273
     9
298
     1
  0
MLINESTYLE
  5
1C
102
{ACAD_REACTORS
330
E
102
}
330
E
100
AcDbMlineStyle
  2
STANDARD
 70
     0
  3

 62
     0
 51
90.0
 52
90.0
 71
     2
 49
0.5
 62
   256
  6
BYLAYER
 49
-0.5
 62
   256
  6
BYLAYER
  0
ACDBPLACEHOLDER
  5
809E
102
{ACAD_REACTORS
330
809D
102
}
330
809D
  0
SCALE
  5
8141
102
{ACAD_REACTORS
330
8140
102
}
330
8140
100
AcDbScale
 70
     0
300
1:1
140
1.0
141
1.0
290
     1
  0
SCALE
  5
8142
102
{ACAD_REACTORS
330
8140
102
}
330
8140
100
AcDbScale
 70
     0
300
1:2
140
1.0
141
2.0
290
     0
  0
SCALE
  5
8143
102
{ACAD_REACTORS
330
8140
102
}
330
8140
100
AcDbScale
 70
     0
300
1:4
140
1.0
141
4.0
290
     0
  0
SCALE
  5
8144
102
{ACAD_REACTORS
330
8140
102
}
330
8140
100
AcDbScale
 70
     0
300
1:5
140
1.0
141
5.0
290
     0
  0
SCALE
  5
8145
102
{ACAD_REACTORS
330
8140
102
}
330
8140
100
AcDbScale
 70
     0
300
1:8
140
1.0
141
8.0
290
     0
  0
SCALE
  5
8146
102
{ACAD_REACTORS
330
8140
102
}
330
8140
100
AcDbScale
 70
     0
300
1:10
140
1.0
141
10.0
290
     0
  0
SCALE
  5
8147
102
{ACAD_REACTORS
330
8140
102
}
330
8140
100
AcDbScale
 70
     0
300
1:16
140
1.0
141
16.0
290
     0
  0
SCALE
  5
8148
102
{ACAD_REACTORS
330
8140
102
}
330
8140
100
AcDbScale
 70
     0
300
1:20
140
1.0
141
20.0
290
     0
  0
SCALE
  5
8149
102
{ACAD_REACTORS
330
8140
102
}
330
8140
100
AcDbScale
 70
     0
300
1:30
140
1.0
141
30.0
290
     0
  0
SCALE
  5
814A
102
{ACAD_REACTORS
330
8140
102
}
330
8140
100
AcDbScale
 70
     0
300
1:40
140
1.0
141
40.0
290
     0
  0
SCALE
  5
814B
102
{ACAD_REACTORS
330
8140
102
}
330
8140
100
AcDbScale
 70
     0
300
1:50
140
1.0
141
50.0
290
     0
  0
SCALE
  5
814C
102
{ACAD_REACTORS
330
8140
102
}
330
8140
100
AcDbScale
 70
     0
300
1:100
140
1.0
141
100.0
290
     0
  0
SCALE
  5
814D
102
{ACAD_REACTORS
330
8140
102
}
330
8140
100
AcDbScale
 70
     0
300
2:1
140
2.0
141
1.0
290
     0
  0
SCALE
  5
814E
102
{ACAD_REACTORS
330
8140
102
}
330
8140
100
AcDbScale
 70
     0
300
4:1
140
4.0
141
1.0
290
     0
  0
SCALE
  5
814F
102
{ACAD_REACTORS
330
8140
102
}
330
8140
100
AcDbScale
 70
     0
300
8:1
140
8.0
141
1.0
290
     0
  0
SCALE
  5
8150
102
{ACAD_REACTORS
330
8140
102
}
330
8140
100
AcDbScale
 70
     0
300
10:1
140
10.0
141
1.0
290
     0
  0
SCALE
  5
8151
102
{ACAD_REACTORS
330
8140
102
}
330
8140
100
AcDbScale
 70
     0
300
100:1
140
100.0
141
1.0
290
     0
  0
ACDBSECTIONVIEWSTYLE
  5
8155
102
{ACAD_XDICTIONARY
360
81C4
102
}
102
{ACAD_REACTORS
330
8154
102
}
330
8154
100
AcDbModelDocViewStyle
 70
     0
  3
Metric50
290
     0
100
AcDbSectionViewStyle
 70
     0
 71
     0
 90
      102
 71
     1
340
10
 62
   256
 40
5.0
340
0
340
0
 62
   256
 40
5.0
300
I, O, Q, S, X, Z
 40
10.0
 90
        0
 40
2.5
 90
        0
 71
     2
340
15
 90
       25
 62
   256
340
15
 90
       50
 62
   256
 40
5.0
 40
2.5
 40
5.0
 71
     3
340
10
 62
   256
 40
5.0
 90
        0
 40
15.0
 90
        1
300
%<\AcVar ViewSectionStartId>%-%<\AcVar ViewSectionEndId>% (%<\AcVar ViewScale \f "%sn">%)
 71
     4
 62
   256
 62
   257
300
ANSI31
 40
1.0
 90
        0
290
     0
290
     0
 90
        6
 40
0.0
 40
1.570796326794896
 40
0.2617993877991494
 40
1.308996938995747
 40
-0.2617993877991494
 40
1.832595714594046
  0
TABLESTYLE
  5
813F
102
{ACAD_XDICTIONARY
360
81B9
102
}
102
{ACAD_REACTORS
330
813E
102
}
330
813E
100
AcDbTableStyle
280
     0
  3
Standard
 70
     0
 71
     0
 40
1.5
 41
1.5
280
     0
281
     0
  7
STANDARD
140
4.5
170
     2
 62
     0
 63
     7
283
     0
 90
      512
 91
        0
  1

274
    -2
284
     1
 64
     0
275
    -2
285
     1
 65
     0
276
    -2
286
     1
 66
     0
277
    -2
287
     1
 67
     0
278
    -2
288
     1
 68
     0
279
    -2
289
     1
 69
     0
  7
STANDARD
140
6.0
170
     5
 62
     0
 63
     7
283
     0
 90
      512
 91
        0
  1

274
    -2
284
     1
 64
     0
275
    -2
285
     1
 65
     0
276
    -2
286
     1
 66
     0
277
    -2
287
     1
 67
     0
278
    -2
288
     1
 68
     0
279
    -2
289
     1
 69
     0
  7
STANDARD
140
4.5
170
     5
 62
     0
 63
     7
283
     0
 90
      512
 91
        0
  1

274
    -2
284
     1
 64
     0
275
    -2
285
     1
 65
     0
276
    -2
286
     1
 66
     0
277
    -2
287
     1
 67
     0
278
    -2
288
     1
 68
     0
279
    -2
289
     1
 69
     0
  0
VISUALSTYLE
  5
812A
102
{ACAD_REACTORS
330
8124
102
}
330
8124
100
AcDbVisualStyle
  2
2dWireframe
 70
     4
177
     3
291
     0
 70
    58
 90
        0
176
     1
 90
        2
176
     1
 90
        0
176
     1
 90
        0
176
     1
 40
0.6
176
     1
 40
30.0
176
     1
 62
     7
420
 16777215
176
     1
 90
        1
176
     1
 90
        4
176
     1
 62
     7
176
     1
 62
   257
176
     1
 90
        1
176
     1
 90
        1
176
     1
 40
1.0
176
     1
 90
        0
176
     1
 62
   257
176
     1
 40
1.0
176
     1
 90
        1
176
     1
 90
        6
176
     1
 90
        2
176
     1
 62
     7
176
     1
 90
        5
176
     1
 90
        0
176
     1
 90
        0
176
     1
290
     0
176
     1
 90
        1
176
     1
 40
0.0
176
     1
 90
        0
176
     1
290
     1
176
     1
290
     1
176
     1
290
     0
176
     1
290
     0
176
     1
290
     0
176
     1
290
     0
176
     1
290
     0
176
     1
290
     0
176
     1
290
     0
176
     1
 90
       50
176
     1
 40
0.0
176
     1
 40
1.0
176
     1
 90
        0
176
     1
 62
    18
420
        0
176
     1
 90
       50
176
     1
 90
        3
176
     1
 62
     5
420
      255
176
     1
290
     0
176
     1
 90
       50
176
     1
 90
       50
176
     1
 90
       50
176
     1
290
     0
176
     1
 90
       50
176
     1
 62
   256
176
     0
 40
1.0
176
     0
 90
        2
176
     1
  1
strokes_ogs.tif
176
     1
290
     0
176
     1
 40
1.0
176
     1
 40
1.0
176
     1
1001
ACAD
1000
AcDbSavedByObjectVersion
1070
     0
  0
VISUALSTYLE
  5
8129
102
{ACAD_REACTORS
330
8124
102
}
330
8124
100
AcDbVisualStyle
  2
Basic
 70
     7
177
     3
291
     1
 70
    58
 90
        1
176
     1
 90
        0
176
     1
 90
        1
176
     1
 90
        0
176
     1
 40
0.6
176
     1
 40
30.0
176
     1
 62
     7
420
 16777215
176
     1
 90
        0
176
     1
 90
        4
176
     1
 62
     7
176
     1
 62
   257
176
     1
 90
        1
176
     1
 90
        1
176
     1
 40
1.0
176
     1
 90
        8
176
     1
 62
     7
176
     1
 40
1.0
176
     1
 90
        1
176
     1
 90
        6
176
     1
 90
        2
176
     1
 62
     7
176
     1
 90
        5
176
     1
 90
        0
176
     1
 90
        0
176
     1
290
     0
176
     1
 90
        1
176
     1
 40
0.0
176
     1
 90
        0
176
     1
290
     0
176
     1
290
     1
176
     1
290
     1
176
     1
290
     0
176
     1
290
     0
176
     1
290
     0
176
     1
290
     0
176
     1
290
     0
176
     1
290
     0
176
     1
 90
       50
176
     1
 40
0.0
176
     1
 40
1.0
176
     1
 90
        0
176
     1
 62
    18
420
        0
176
     1
 90
       50
176
     1
 90
        3
176
     1
 62
     5
420
      255
176
     1
290
     0
176
     1
 90
       50
176
     1
 90
       50
176
     1
 90
       50
176
     1
290
     0
176
     1
 90
       50
176
     1
 62
   256
176
     0
 40
1.0
176
     0
 90
        2
176
     1
  1
strokes_ogs.tif
176
     1
290
     0
176
     1
 40
1.0
176
     1
 40
1.0
176
     1
1001
ACAD
1000
AcDbSavedByObjectVersion
1070
     0
  0
VISUALSTYLE
  5
8130
102
{ACAD_REACTORS
330
8124
102
}
330
8124
100
AcDbVisualStyle
  2
Brighten
 70
    12
177
     3
291
     1
 70
    58
 90
        2
176
     1
 90
        2
176
     1
 90
        0
176
     1
 90
        0
176
     1
 40
0.6
176
     1
 40
30.0
176
     1
 62
     7
420
 16777215
176
     1
 90
        1
176
     1
 90
        4
176
     1
 62
     7
176
     1
 62
   257
176
     1
 90
        1
176
     1
 90
        1
176
     1
 40
1.0
176
     1
 90
        8
176
     1
 62
     7
176
     1
 40
1.0
176
     1
 90
        1
176
     1
 90
        6
176
     1
 90
        2
176
     1
 62
     7
176
     1
 90
        5
176
     1
 90
        0
176
     1
 90
        0
176
     1
290
     0
176
     1
 90
        1
176
     1
 40
50.0
176
     1
 90
        0
176
     1
290
     0
176
     1
290
     1
176
     1
290
     1
176
     1
290
     0
176
     1
290
     0
176
     1
290
     0
176
     1
290
     0
176
     1
290
     0
176
     1
290
     0
176
     1
 90
       50
176
     1
 40
0.0
176
     1
 40
1.0
176
     1
 90
        0
176
     1
 62
    18
420
        0
176
     1
 90
       50
176
     1
 90
        3
176
     1
 62
     5
420
      255
176
     1
290
     0
176
     1
 90
       50
176
     1
 90
       50
176
     1
 90
       50
176
     1
290
     0
176
     1
 90
       50
176
     1
 62
   256
176
     0
 40
1.0
176
     0
 90
        2
176
     1
  1
strokes_ogs.tif
176
     1
290
     0
176
     1
 40
1.0
176
     1
 40
1.0
176
     1
1001
ACAD
1000
AcDbSavedByObjectVersion
1070
     0
  0
VISUALSTYLE
  5
8134
102
{ACAD_REACTORS
330
8124
102
}
330
8124
100
AcDbVisualStyle
  2
ColorChange
 70
    16
177
     3
291
     1
 70
    58
 90
        2
176
     1
 90
        2
176
     1
 90
        3
176
     1
 90
        0
176
     1
 40
0.6
176
     1
 40
30.0
176
     1
 62
     8
420
  8421504
176
     1
 90
        1
176
     1
 90
        4
176
     1
 62
     7
176
     1
 62
   257
176
     1
 90
        1
176
     1
 90
        1
176
     1
 40
1.0
176
     1
 90
        8
176
     1
 62
     8
420
  8421504
176
     1
 40
1.0
176
     1
 90
        1
176
     1
 90
        6
176
     1
 90
        2
176
     1
 62
     7
176
     1
 90
        5
176
     1
 90
        0
176
     1
 90
        0
176
     1
290
     0
176
     1
 90
        1
176
     1
 40
0.0
176
     1
 90
        0
176
     1
290
     0
176
     1
290
     1
176
     1
290
     1
176
     1
290
     0
176
     1
290
     0
176
     1
290
     0
176
     1
290
     0
176
     1
290
     0
176
     1
290
     0
176
     1
 90
       50
176
     1
 40
0.0
176
     1
 40
1.0
176
     1
 90
        0
176
     1
 62
    18
420
        0
176
     1
 90
       50
176
     1
 90
        3
176
     1
 62
     5
420
      255
176
     1
290
     0
176
     1
 90
       50
176
     1
 90
       50
176
     1
 90
       50
176
     1
290
     0
176
     1
 90
       50
176
     1
 62
   256
176
     0
 40
1.0
176
     0
 90
        2
176
     1
  1
strokes_ogs.tif
176
     1
290
     0
176
     1
 40
1.0
176
     1
 40
1.0
176
     1
1001
ACAD
1000
AcDbSavedByObjectVersion
1070
     0
  0
VISUALSTYLE
  5
812D
102
{ACAD_REACTORS
330
8124
102
}
330
8124
100
AcDbVisualStyle
  2
Conceptual
 70
     9
177
     3
291
     0
 70
    58
 90
        3
176
     1
 90
        2
176
     1
 90
        0
176
     1
 90
        0
176
     1
 40
0.6
176
     1
 40
30.0
176
     1
 62
     7
420
 16777215
176
     1
 90
        2
176
     1
 90
        2
176
     1
 62
     7
176
     1
 62
   257
176
     1
 90
        1
176
     1
 90
        1
176
     1
 40
179.0
176
     1
 90
        8
176
     1
 62
     7
176
     1
 40
1.0
176
     1
 90
        1
176
     1
 90
        6
176
     1
 90
        2
176
     1
 62
     7
176
     1
 90
        3
176
     1
 90
        0
176
     1
 90
        0
176
     1
290
     0
176
     1
 90
        1
176
     1
 40
0.0
176
     1
 90
        0
176
     1
290
     0
176
     1
290
     1
176
     1
290
     1
176
     1
290
     0
176
     1
290
     0
176
     1
290
     0
176
     1
290
     0
176
     1
290
     0
176
     1
290
     0
176
     1
 90
       50
176
     1
 40
0.0
176
     1
 40
1.0
176
     1
 90
        0
176
     1
 62
    18
420
        0
176
     1
 90
       50
176
     1
 90
        3
176
     1
 62
     5
420
      255
176
     1
290
     0
176
     1
 90
       50
176
     1
 90
       50
176
     1
 90
       50
176
     1
290
     0
176
     1
 90
       50
176
     1
 62
   256
176
     0
 40
1.0
176
     0
 90
        2
176
     1
  1
strokes_ogs.tif
176
     1
290
     0
176
     1
 40
1.0
176
     1
 40
1.0
176
     1
1001
ACAD
1000
AcDbSavedByObjectVersion
1070
     0
  0
VISUALSTYLE
  5
812F
102
{ACAD_REACTORS
330
8124
102
}
330
8124
100
AcDbVisualStyle
  2
Dim
 70
    11
177
     3
291
     1
 70
    58
 90
        2
176
     1
 90
        2
176
     1
 90
        0
176
     1
 90
        0
176
     1
 40
0.6
176
     1
 40
30.0
176
     1
 62
     7
420
 16777215
176
     1
 90
        1
176
     1
 90
        4
176
     1
 62
     7
176
     1
 62
   257
176
     1
 90
        1
176
     1
 90
        1
176
     1
 40
1.0
176
     1
 90
        8
176
     1
 62
     7
176
     1
 40
1.0
176
     1
 90
        1
176
     1
 90
        6
176
     1
 90
        2
176
     1
 62
     7
176
     1
 90
        5
176
     1
 90
        0
176
     1
 90
        0
176
     1
290
     0
176
     1
 90
        1
176
     1
 40
-50.0
176
     1
 90
        0
176
     1
290
     0
176
     1
290
     1
176
     1
290
     1
176
     1
290
     0
176
     1
290
     0
176
     1
290
     0
176
     1
290
     0
176
     1
290
     0
176
     1
290
     0
176
     1
 90
       50
176
     1
 40
0.0
176
     1
 40
1.0
176
     1
 90
        0
176
     1
 62
    18
420
        0
176
     1
 90
       50
176
     1
 90
        3
176
     1
 62
     5
420
      255
176
     1
290
     0
176
     1
 90
       50
176
     1
 90
       50
176
     1
 90
       50
176
     1
290
     0
176
     1
 90
       50
176
     1
 62
   256
176
     0
 40
1.0
176
     0
 90
        2
176
     1
  1
strokes_ogs.tif
176
     1
290
     0
176
     1
 40
1.0
176
     1
 40
1.0
176
     1
1001
ACAD
1000
AcDbSavedByObjectVersion
1070
     0
  0
VISUALSTYLE
  5
813C
102
{ACAD_REACTORS
330
8124
102
}
330
8124
100
AcDbVisualStyle
  2
EdgeColorOff
 70
    22
177
     3
291
     1
 70
    58
 90
        2
176
     0
 90
        2
176
     0
 90
        0
176
     0
 90
        0
176
     0
 40
0.6
176
     0
 40
30.0
176
     0
 62
     7
420
 16777215
176
     0
 90
        1
176
     0
 90
        4
176
     0
 62
     7
176
     0
 62
   257
176
     0
 90
        1
176
     0
 90
        1
176
     0
 40
1.0
176
     0
 90
        8
176
     2
 62
     7
176
     0
 40
1.0
176
     0
 90
        1
176
     0
 90
        6
176
     0
 90
        2
176
     0
 62
     7
176
     0
 90
        5
176
     0
 90
        0
176
     0
 90
        0
176
     0
290
     0
176
     0
 90
        1
176
     0
 40
0.0
176
     0
 90
        0
176
     0
290
     0
176
     0
290
     1
176
     0
290
     1
176
     0
290
     0
176
     0
290
     0
176
     0
290
     0
176
     0
290
     0
176
     0
290
     0
176
     0
290
     0
176
     0
 90
       50
176
     0
 40
0.0
176
     0
 40
1.0
176
     0
 90
        0
176
     0
 62
    18
420
        0
176
     0
 90
       50
176
     0
 90
        3
176
     0
 62
     5
420
      255
176
     0
290
     0
176
     0
 90
       50
176
     0
 90
       50
176
     0
 90
       50
176
     0
290
     0
176
     0
 90
       50
176
     0
 62
   256
176
     0
 40
1.0
176
     0
 90
        2
176
     0
  1
strokes_ogs.tif
176
     0
290
     0
176
     0
 40
1.0
176
     0
 40
1.0
176
     0
1001
ACAD
1000
AcDbSavedByObjectVersion
1070
     0
  0
VISUALSTYLE
  5
8133
102
{ACAD_REACTORS
330
8124
102
}
330
8124
100
AcDbVisualStyle
  2
Facepattern
 70
    15
177
     3
291
     1
 70
    58
 90
        2
176
     1
 90
        2
176
     1
 90
        0
176
     1
 90
        0
176
     1
 40
0.6
176
     1
 40
30.0
176
     1
 62
     7
420
 16777215
176
     1
 90
        1
176
     1
 90
        4
176
     1
 62
     7
176
     1
 62
   257
176
     1
 90
        1
176
     1
 90
        1
176
     1
 40
1.0
176
     1
 90
        8
176
     1
 62
     7
176
     1
 40
1.0
176
     1
 90
        1
176
     1
 90
        6
176
     1
 90
        2
176
     1
 62
     7
176
     1
 90
        5
176
     1
 90
        0
176
     1
 90
        0
176
     1
290
     0
176
     1
 90
        1
176
     1
 40
0.0
176
     1
 90
        0
176
     1
290
     0
176
     1
290
     1
176
     1
290
     1
176
     1
290
     0
176
     1
290
     0
176
     1
290
     0
176
     1
290
     0
176
     1
290
     0
176
     1
290
     0
176
     1
 90
       50
176
     1
 40
0.0
176
     1
 40
1.0
176
     1
 90
        0
176
     1
 62
    18
420
        0
176
     1
 90
       50
176
     1
 90
        3
176
     1
 62
     5
420
      255
176
     1
290
     0
176
     1
 90
       50
176
     1
 90
       50
176
     1
 90
       50
176
     1
290
     0
176
     1
 90
       50
176
     1
 62
   256
176
     0
 40
1.0
176
     0
 90
        2
176
     1
  1
strokes_ogs.tif
176
     1
290
     0
176
     1
 40
1.0
176
     1
 40
1.0
176
     1
1001
ACAD
1000
AcDbSavedByObjectVersion
1070
     0
  0
VISUALSTYLE
  5
8125
102
{ACAD_REACTORS
330
8124
102
}
330
8124
100
AcDbVisualStyle
  2
Flat
 70
     0
177
     3
291
     1
 70
    58
 90
        2
176
     1
 90
        1
176
     1
 90
        1
176
     1
 90
        2
176
     1
 40
0.6
176
     1
 40
30.0
176
     1
 62
     7
420
 16777215
176
     1
 90
        0
176
     1
 90
        0
176
     1
 62
     7
176
     1
 62
   257
176
     1
 90
        1
176
     1
 90
        1
176
     1
 40
1.0
176
     1
 90
        8
176
     1
 62
     7
176
     1
 40
1.0
176
     1
 90
        1
176
     1
 90
        6
176
     1
 90
        2
176
     1
 62
     7
176
     1
 90
        5
176
     1
 90
        0
176
     1
 90
        0
176
     1
290
     0
176
     1
 90
       13
176
     1
 40
0.0
176
     1
 90
        0
176
     1
290
     0
176
     1
290
     1
176
     1
290
     1
176
     1
290
     0
176
     1
290
     0
176
     1
290
     0
176
     1
290
     0
176
     1
290
     0
176
     1
290
     0
176
     1
 90
       50
176
     1
 40
0.0
176
     1
 40
1.0
176
     1
 90
        0
176
     1
 62
    18
420
        0
176
     1
 90
       50
176
     1
 90
        3
176
     1
 62
     5
420
      255
176
     1
290
     0
176
     1
 90
       50
176
     1
 90
       50
176
     1
 90
       50
176
     1
290
     0
176
     1
 90
       50
176
     1
 62
   256
176
     0
 40
1.0
176
     0
 90
        2
176
     1
  1
strokes_ogs.tif
176
     1
290
     0
176
     1
 40
1.0
176
     1
 40
1.0
176
     1
1001
ACAD
1000
AcDbSavedByObjectVersion
1070
     0
  0
VISUALSTYLE
  5
8126
102
{ACAD_REACTORS
330
8124
102
}
330
8124
100
AcDbVisualStyle
  2
FlatWithEdges
 70
     1
177
     3
291
     1
 70
    58
 90
        2
176
     1
 90
        1
176
     1
 90
        1
176
     1
 90
        2
176
     1
 40
0.6
176
     1
 40
30.0
176
     1
 62
     7
420
 16777215
176
     1
 90
        1
176
     1
 90
        0
176
     1
 62
     7
176
     1
 62
   257
176
     1
 90
        1
176
     1
 90
        1
176
     1
 40
1.0
176
     1
 90
        0
176
     1
 62
   257
176
     1
 40
1.0
176
     1
 90
        1
176
     1
 90
        6
176
     1
 90
        2
176
     1
 62
     7
176
     1
 90
        5
176
     1
 90
        0
176
     1
 90
        0
176
     1
290
     0
176
     1
 90
       13
176
     1
 40
0.0
176
     1
 90
        0
176
     1
290
     0
176
     1
290
     1
176
     1
290
     1
176
     1
290
     0
176
     1
290
     0
176
     1
290
     0
176
     1
290
     0
176
     1
290
     0
176
     1
290
     0
176
     1
 90
       50
176
     1
 40
0.0
176
     1
 40
1.0
176
     1
 90
        0
176
     1
 62
    18
420
        0
176
     1
 90
       50
176
     1
 90
        3
176
     1
 62
     5
420
      255
176
     1
290
     0
176
     1
 90
       50
176
     1
 90
       50
176
     1
 90
       50
176
     1
290
     0
176
     1
 90
       50
176
     1
 62
   256
176
     0
 40
1.0
176
     0
 90
        2
176
     1
  1
strokes_ogs.tif
176
     1
290
     0
176
     1
 40
1.0
176
     1
 40
1.0
176
     1
1001
ACAD
1000
AcDbSavedByObjectVersion
1070
     0
  0
VISUALSTYLE
  5
8127
102
{ACAD_REACTORS
330
8124
102
}
330
8124
100
AcDbVisualStyle
  2
Gouraud
 70
     2
177
     3
291
     1
 70
    58
 90
        2
176
     1
 90
        2
176
     1
 90
        1
176
     1
 90
        2
176
     1
 40
0.6
176
     1
 40
30.0
176
     1
 62
     7
420
 16777215
176
     1
 90
        0
176
     1
 90
        0
176
     1
 62
     7
176
     1
 62
   257
176
     1
 90
        1
176
     1
 90
        1
176
     1
 40
1.0
176
     1
 90
        0
176
     1
 62
     7
176
     1
 40
1.0
176
     1
 90
        1
176
     1
 90
        6
176
     1
 90
        2
176
     1
 62
     7
176
     1
 90
        5
176
     1
 90
        0
176
     1
 90
        0
176
     1
290
     0
176
     1
 90
       13
176
     1
 40
0.0
176
     1
 90
        0
176
     1
290
     0
176
     1
290
     1
176
     1
290
     1
176
     1
290
     0
176
     1
290
     0
176
     1
290
     0
176
     1
290
     0
176
     1
290
     0
176
     1
290
     0
176
     1
 90
       50
176
     1
 40
0.0
176
     1
 40
1.0
176
     1
 90
        0
176
     1
 62
    18
420
        0
176
     1
 90
       50
176
     1
 90
        3
176
     1
 62
     5
420
      255
176
     1
290
     0
176
     1
 90
       50
176
     1
 90
       50
176
     1
 90
       50
176
     1
290
     0
176
     1
 90
       50
176
     1
 62
   256
176
     0
 40
1.0
176
     0
 90
        2
176
     1
  1
strokes_ogs.tif
176
     1
290
     0
176
     1
 40
1.0
176
     1
 40
1.0
176
     1
1001
ACAD
1000
AcDbSavedByObjectVersion
1070
     0
  0
VISUALSTYLE
  5
8128
102
{ACAD_REACTORS
330
8124
102
}
330
8124
100
AcDbVisualStyle
  2
GouraudWithEdges
 70
     3
177
     3
291
     1
 70
    58
 90
        2
176
     1
 90
        2
176
     1
 90
        1
176
     1
 90
        2
176
     1
 40
0.6
176
     1
 40
30.0
176
     1
 62
     7
420
 16777215
176
     1
 90
        1
176
     1
 90
        0
176
     1
 62
     7
176
     1
 62
   257
176
     1
 90
        1
176
     1
 90
        1
176
     1
 40
1.0
176
     1
 90
        0
176
     1
 62
   257
176
     1
 40
1.0
176
     1
 90
        1
176
     1
 90
        6
176
     1
 90
        2
176
     1
 62
     7
176
     1
 90
        5
176
     1
 90
        0
176
     1
 90
        0
176
     1
290
     0
176
     1
 90
       13
176
     1
 40
0.0
176
     1
 90
        0
176
     1
290
     0
176
     1
290
     1
176
     1
290
     1
176
     1
290
     0
176
     1
290
     0
176
     1
290
     0
176
     1
290
     0
176
     1
290
     0
176
     1
290
     0
176
     1
 90
       50
176
     1
 40
0.0
176
     1
 40
1.0
176
     1
 90
        0
176
     1
 62
    18
420
        0
176
     1
 90
       50
176
     1
 90
        3
176
     1
 62
     5
420
      255
176
     1
290
     0
176
     1
 90
       50
176
     1
 90
       50
176
     1
 90
       50
176
     1
290
     0
176
     1
 90
       50
176
     1
 62
   256
176
     0
 40
1.0
176
     0
 90
        2
176
     1
  1
strokes_ogs.tif
176
     1
290
     0
176
     1
 40
1.0
176
     1
 40
1.0
176
     1
1001
ACAD
1000
AcDbSavedByObjectVersion
1070
     0
  0
VISUALSTYLE
  5
812C
102
{ACAD_REACTORS
330
8124
102
}
330
8124
100
AcDbVisualStyle
  2
Hidden
 70
     6
177
     3
291
     0
 70
    58
 90
        1
176
     1
 90
        2
176
     1
 90
        2
176
     1
 90
        0
176
     1
 40
0.6
176
     1
 40
30.0
176
     1
 62
     7
420
 16777215
176
     1
 90
        2
176
     1
 90
        2
176
     1
 62
     7
176
     1
 62
   257
176
     1
 90
        2
176
     1
 90
        1
176
     1
 40
40.0
176
     1
 90
        0
176
     1
 62
   257
176
     1
 40
1.0
176
     1
 90
        1
176
     1
 90
        6
176
     1
 90
        2
176
     1
 62
     7
176
     1
 90
        3
176
     1
 90
        0
176
     1
 90
        0
176
     1
290
     0
176
     1
 90
        1
176
     1
 40
0.0
176
     1
 90
        0
176
     1
290
     0
176
     1
290
     1
176
     1
290
     1
176
     1
290
     0
176
     1
290
     0
176
     1
290
     0
176
     1
290
     0
176
     1
290
     0
176
     1
290
     0
176
     1
 90
       50
176
     1
 40
0.0
176
     1
 40
1.0
176
     1
 90
        0
176
     1
 62
    18
420
        0
176
     1
 90
       50
176
     1
 90
        3
176
     1
 62
     5
420
      255
176
     1
290
     0
176
     1
 90
       50
176
     1
 90
       50
176
     1
 90
       50
176
     1
290
     0
176
     1
 90
       50
176
     1
 62
   256
176
     0
 40
1.0
176
     0
 90
        2
176
     1
  1
strokes_ogs.tif
176
     1
290
     0
176
     1
 40
1.0
176
     1
 40
1.0
176
     1
1001
ACAD
1000
AcDbSavedByObjectVersion
1070
     0
  0
VISUALSTYLE
  5
813A
102
{ACAD_REACTORS
330
8124
102
}
330
8124
100
AcDbVisualStyle
  2
JitterOff
 70
    20
177
     3
291
     1
 70
    58
 90
        2
176
     0
 90
        2
176
     0
 90
        0
176
     0
 90
        0
176
     0
 40
0.6
176
     0
 40
30.0
176
     0
 62
     7
420
 16777215
176
     0
 90
        1
176
     0
 90
        4
176
     0
 62
     7
176
     0
 62
   257
176
     0
 90
        1
176
     0
 90
        1
176
     0
 40
1.0
176
     0
 90
       10
176
     2
 62
     7
176
     0
 40
1.0
176
     0
 90
        1
176
     0
 90
        6
176
     0
 90
        2
176
     0
 62
     7
176
     0
 90
        5
176
     0
 90
        0
176
     0
 90
        0
176
     0
290
     0
176
     0
 90
        1
176
     0
 40
0.0
176
     0
 90
        0
176
     0
290
     0
176
     0
290
     1
176
     0
290
     1
176
     0
290
     0
176
     0
290
     0
176
     0
290
     0
176
     0
290
     0
176
     0
290
     0
176
     0
290
     0
176
     0
 90
       50
176
     0
 40
0.0
176
     0
 40
1.0
176
     0
 90
        0
176
     0
 62
    18
420
        0
176
     0
 90
       50
176
     0
 90
        3
176
     0
 62
     5
420
      255
176
     0
290
     0
176
     0
 90
       50
176
     0
 90
       50
176
     0
 90
       50
176
     0
290
     0
176
     0
 90
       50
176
     0
 62
   256
176
     0
 40
1.0
176
     0
 90
        2
176
     0
  1
strokes_ogs.tif
176
     0
290
     0
176
     0
 40
1.0
176
     0
 40
1.0
176
     0
1001
ACAD
1000
AcDbSavedByObjectVersion
1070
     0
  0
VISUALSTYLE
  5
8132
102
{ACAD_REACTORS
330
8124
102
}
330
8124
100
AcDbVisualStyle
  2
Linepattern
 70
    14
177
     3
291
     1
 70
    58
 90
        2
176
     1
 90
        2
176
     1
 90
        0
176
     1
 90
        0
176
     1
 40
0.6
176
     1
 40
30.0
176
     1
 62
     7
420
 16777215
176
     1
 90
        1
176
     1
 90
        4
176
     1
 62
     7
176
     1
 62
   257
176
     1
 90
        7
176
     1
 90
        7
176
     1
 40
1.0
176
     1
 90
        8
176
     1
 62
     7
176
     1
 40
1.0
176
     1
 90
        1
176
     1
 90
        6
176
     1
 90
        2
176
     1
 62
     7
176
     1
 90
        5
176
     1
 90
        0
176
     1
 90
        0
176
     1
290
     0
176
     1
 90
        1
176
     1
 40
0.0
176
     1
 90
        0
176
     1
290
     0
176
     1
290
     1
176
     1
290
     1
176
     1
290
     0
176
     1
290
     0
176
     1
290
     0
176
     1
290
     0
176
     1
290
     0
176
     1
290
     0
176
     1
 90
       50
176
     1
 40
0.0
176
     1
 40
1.0
176
     1
 90
        0
176
     1
 62
    18
420
        0
176
     1
 90
       50
176
     1
 90
        3
176
     1
 62
     5
420
      255
176
     1
290
     0
176
     1
 90
       50
176
     1
 90
       50
176
     1
 90
       50
176
     1
290
     0
176
     1
 90
       50
176
     1
 62
   256
176
     0
 40
1.0
176
     0
 90
        2
176
     1
  1
strokes_ogs.tif
176
     1
290
     0
176
     1
 40
1.0
176
     1
 40
1.0
176
     1
1001
ACAD
1000
AcDbSavedByObjectVersion
1070
     0
  0
VISUALSTYLE
  5
813B
102
{ACAD_REACTORS
330
8124
102
}
330
8124
100
AcDbVisualStyle
  2
OverhangOff
 70
    21
177
     3
291
     1
 70
    58
 90
        2
176
     0
 90
        2
176
     0
 90
        0
176
     0
 90
        0
176
     0
 40
0.6
176
     0
 40
30.0
176
     0
 62
     7
420
 16777215
176
     0
 90
        1
176
     0
 90
        4
176
     0
 62
     7
176
     0
 62
   257
176
     0
 90
        1
176
     0
 90
        1
176
     0
 40
1.0
176
     0
 90
        9
176
     2
 62
     7
176
     0
 40
1.0
176
     0
 90
        1
176
     0
 90
        6
176
     0
 90
        2
176
     0
 62
     7
176
     0
 90
        5
176
     0
 90
        0
176
     0
 90
        0
176
     0
290
     0
176
     0
 90
        1
176
     0
 40
0.0
176
     0
 90
        0
176
     0
290
     0
176
     0
290
     1
176
     0
290
     1
176
     0
290
     0
176
     0
290
     0
176
     0
290
     0
176
     0
290
     0
176
     0
290
     0
176
     0
290
     0
176
     0
 90
       50
176
     0
 40
0.0
176
     0
 40
1.0
176
     0
 90
        0
176
     0
 62
    18
420
        0
176
     0
 90
       50
176
     0
 90
        3
176
     0
 62
     5
420
      255
176
     0
290
     0
176
     0
 90
       50
176
     0
 90
       50
176
     0
 90
       50
176
     0
290
     0
176
     0
 90
       50
176
     0
 62
   256
176
     0
 40
1.0
176
     0
 90
        2
176
     0
  1
strokes_ogs.tif
176
     0
290
     0
176
     0
 40
1.0
176
     0
 40
1.0
176
     0
1001
ACAD
1000
AcDbSavedByObjectVersion
1070
     0
  0
VISUALSTYLE
  5
812E
102
{ACAD_REACTORS
330
8124
102
}
330
8124
100
AcDbVisualStyle
  2
Realistic
 70
     8
177
     3
291
     0
 70
    58
 90
        2
176
     1
 90
        3
176
     1
 90
        0
176
     1
 90
        2
176
     1
 40
0.6
176
     1
 40
30.0
176
     1
 62
     7
420
 16777215
176
     1
 90
        0
176
     1
 90
        0
176
     1
 62
     7
176
     1
 62
   257
176
     1
 90
        1
176
     1
 90
        1
176
     1
 40
1.0
176
     1
 90
        8
176
     1
 62
   257
176
     1
 40
1.0
176
     1
 90
        1
176
     1
 90
        6
176
     1
 90
        2
176
     1
 62
     7
176
     1
 90
        3
176
     1
 90
        0
176
     1
 90
        0
176
     1
290
     0
176
     1
 90
       13
176
     1
 40
0.0
176
     1
 90
        0
176
     1
290
     0
176
     1
290
     1
176
     1
290
     1
176
     1
290
     0
176
     1
290
     0
176
     1
290
     0
176
     1
290
     0
176
     1
290
     0
176
     1
290
     0
176
     1
 90
       50
176
     1
 40
0.0
176
     1
 40
1.0
176
     1
 90
        0
176
     1
 62
    18
420
        0
176
     1
 90
       50
176
     1
 90
        3
176
     1
 62
     5
420
      255
176
     1
290
     0
176
     1
 90
       50
176
     1
 90
       50
176
     1
 90
       50
176
     1
290
     0
176
     1
 90
       50
176
     1
 62
   256
176
     0
 40
1.0
176
     0
 90
        2
176
     1
  1
strokes_ogs.tif
176
     1
290
     0
176
     1
 40
1.0
176
     1
 40
1.0
176
     1
1001
ACAD
1000
AcDbSavedByObjectVersion
1070
     0
  0
VISUALSTYLE
  5
8139
102
{ACAD_REACTORS
330
8124
102
}
330
8124
100
AcDbVisualStyle
  2
Shaded
 70
    27
177
     3
291
     0
 70
    58
 90
        2
176
     1
 90
        2
176
     1
 90
        1
176
     1
 90
        2
176
     1
 40
0.6
176
     1
 40
30.0
176
     1
 62
     7
420
 16777215
176
     1
 90
        0
176
     1
 90
        4
176
     1
 62
     7
176
     1
 62
   257
176
     1
 90
        1
176
     1
 90
        1
176
     1
 40
1.0
176
     1
 90
        8
176
     1
 62
   257
176
     1
 40
1.0
176
     1
 90
        1
176
     1
 90
        6
176
     1
 90
        2
176
     1
 62
     8
420
  7895160
176
     1
 90
        3
176
     1
 90
        0
176
     1
 90
        0
176
     1
290
     0
176
     1
 90
        5
176
     1
 40
0.0
176
     1
 90
        0
176
     1
290
     0
176
     1
290
     1
176
     1
290
     1
176
     1
290
     0
176
     1
290
     0
176
     1
290
     0
176
     1
290
     0
176
     1
290
     0
176
     1
290
     0
176
     1
 90
       50
176
     1
 40
0.0
176
     1
 40
1.0
176
     1
 90
        0
176
     1
 62
    18
420
        0
176
     1
 90
       50
176
     1
 90
        3
176
     1
 62
     5
420
      255
176
     1
290
     0
176
     1
 90
       50
176
     1
 90
       50
176
     1
 90
       50
176
     1
290
     0
176
     1
 90
       50
176
     1
 62
   256
176
     0
 40
1.0
176
     0
 90
        2
176
     1
  1
strokes_ogs.tif
176
     1
290
     0
176
     1
 40
1.0
176
     1
 40
1.0
176
     1
1001
ACAD
1000
AcDbSavedByObjectVersion
1070
     0
  0
VISUALSTYLE
  5
8138
102
{ACAD_REACTORS
330
8124
102
}
330
8124
100
AcDbVisualStyle
  2
Shaded with edges
 70
    26
177
     3
291
     0
 70
    58
 90
        2
176
     1
 90
        2
176
     1
 90
        1
176
     1
 90
        2
176
     1
 40
0.6
176
     1
 40
30.0
176
     1
 62
     7
420
 16777215
176
     1
 90
        1
176
     1
 90
        2
176
     1
 62
     7
176
     1
 62
   257
176
     1
 90
        2
176
     1
 90
        1
176
     1
 40
1.0
176
     1
 90
        8
176
     1
 62
   257
176
     1
 40
1.0
176
     1
 90
        1
176
     1
 90
        6
176
     1
 90
        2
176
     1
 62
     7
176
     1
 90
        3
176
     1
 90
        0
176
     1
 90
        0
176
     1
290
     0
176
     1
 90
        5
176
     1
 40
0.0
176
     1
 90
        0
176
     1
290
     0
176
     1
290
     1
176
     1
290
     1
176
     1
290
     0
176
     1
290
     0
176
     1
290
     0
176
     1
290
     0
176
     1
290
     0
176
     1
290
     0
176
     1
 90
       50
176
     1
 40
0.0
176
     1
 40
1.0
176
     1
 90
        0
176
     1
 62
    18
420
        0
176
     1
 90
       50
176
     1
 90
        3
176
     1
 62
     5
420
      255
176
     1
290
     0
176
     1
 90
       50
176
     1
 90
       50
176
     1
 90
       50
176
     1
290
     0
176
     1
 90
       50
176
     1
 62
   256
176
     0
 40
1.0
176
     0
 90
        2
176
     1
  1
strokes_ogs.tif
176
     1
290
     0
176
     1
 40
1.0
176
     1
 40
1.0
176
     1
1001
ACAD
1000
AcDbSavedByObjectVersion
1070
     0
  0
VISUALSTYLE
  5
8135
102
{ACAD_REACTORS
330
8124
102
}
330
8124
100
AcDbVisualStyle
  2
Shades of Gray
 70
    23
177
     3
291
     0
 70
    58
 90
        2
176
     1
 90
        2
176
     1
 90
        3
176
     1
 90
        0
176
     1
 40
0.6
176
     1
 40
30.0
176
     1
 62
     7
420
 16777215
176
     1
 90
        2
176
     1
 90
        2
176
     1
 62
     7
176
     1
 62
     7
176
     1
 90
        1
176
     1
 90
        1
176
     1
 40
40.0
176
     1
 90
        8
176
     1
 62
     7
176
     1
 40
1.0
176
     1
 90
        1
176
     1
 90
        6
176
     1
 90
        2
176
     1
 62
     7
176
     1
 90
        3
176
     1
 90
        0
176
     1
 90
        0
176
     1
290
     0
176
     1
 90
        1
176
     1
 40
0.0
176
     1
 90
        0
176
     1
290
     0
176
     1
290
     1
176
     1
290
     1
176
     1
290
     0
176
     1
290
     0
176
     1
290
     0
176
     1
290
     0
176
     1
290
     0
176
     1
290
     0
176
     1
 90
       50
176
     1
 40
0.0
176
     1
 40
1.0
176
     1
 90
        0
176
     1
 62
    18
420
        0
176
     1
 90
       50
176
     1
 90
        3
176
     1
 62
     5
420
      255
176
     1
290
     0
176
     1
 90
       50
176
     1
 90
       50
176
     1
 90
       50
176
     1
290
     0
176
     1
 90
       50
176
     1
 62
   256
176
     0
 40
1.0
176
     0
 90
        2
176
     1
  1
strokes_ogs.tif
176
     1
290
     0
176
     1
 40
1.0
176
     1
 40
1.0
176
     1
1001
ACAD
1000
AcDbSavedByObjectVersion
1070
     0
  0
VISUALSTYLE
  5
8136
102
{ACAD_REACTORS
330
8124
102
}
330
8124
100
AcDbVisualStyle
  2
Sketchy
 70
    24
177
     3
291
     0
 70
    58
 90
        1
176
     1
 90
        2
176
     1
 90
        2
176
     1
 90
        0
176
     1
 40
0.6
176
     1
 40
30.0
176
     1
 62
     7
420
 16777215
176
     1
 90
        2
176
     1
 90
        2
176
     1
 62
     7
176
     1
 62
     7
176
     1
 90
        1
176
     1
 90
        1
176
     1
 40
40.0
176
     1
 90
       11
176
     1
 62
     7
176
     1
 40
1.0
176
     1
 90
        1
176
     1
 90
        6
176
     1
 90
        2
176
     1
 62
     7
176
     1
 90
        6
176
     1
 90
        0
176
     1
 90
        0
176
     1
290
     0
176
     1
 90
        1
176
     1
 40
0.0
176
     1
 90
        0
176
     1
290
     0
176
     1
290
     1
176
     1
290
     1
176
     1
290
     0
176
     1
290
     0
176
     1
290
     0
176
     1
290
     0
176
     1
290
     0
176
     1
290
     0
176
     1
 90
       50
176
     1
 40
0.0
176
     1
 40
1.0
176
     1
 90
        0
176
     1
 62
    18
420
        0
176
     1
 90
       50
176
     1
 90
        3
176
     1
 62
     5
420
      255
176
     1
290
     0
176
     1
 90
       50
176
     1
 90
       50
176
     1
 90
       50
176
     1
290
     0
176
     1
 90
       50
176
     1
 62
   256
176
     0
 40
1.0
176
     0
 90
        2
176
     1
  1
strokes_ogs.tif
176
     1
290
     0
176
     1
 40
1.0
176
     1
 40
1.0
176
     1
1001
ACAD
1000
AcDbSavedByObjectVersion
1070
     0
  0
VISUALSTYLE
  5
8131
102
{ACAD_REACTORS
330
8124
102
}
330
8124
100
AcDbVisualStyle
  2
Thicken
 70
    13
177
     3
291
     1
 70
    58
 90
        2
176
     1
 90
        2
176
     1
 90
        0
176
     1
 90
        0
176
     1
 40
0.6
176
     1
 40
30.0
176
     1
 62
     7
420
 16777215
176
     1
 90
        1
176
     1
 90
        4
176
     1
 62
     7
176
     1
 62
   257
176
     1
 90
        1
176
     1
 90
        1
176
     1
 40
1.0
176
     1
 90
       12
176
     1
 62
     7
176
     1
 40
1.0
176
     1
 90
        1
176
     1
 90
        6
176
     1
 90
        2
176
     1
 62
     7
176
     1
 90
        5
176
     1
 90
        0
176
     1
 90
        0
176
     1
290
     0
176
     1
 90
        1
176
     1
 40
0.0
176
     1
 90
        0
176
     1
290
     0
176
     1
290
     1
176
     1
290
     1
176
     1
290
     0
176
     1
290
     0
176
     1
290
     0
176
     1
290
     0
176
     1
290
     0
176
     1
290
     0
176
     1
 90
       50
176
     1
 40
0.0
176
     1
 40
1.0
176
     1
 90
        0
176
     1
 62
    18
420
        0
176
     1
 90
       50
176
     1
 90
        3
176
     1
 62
     5
420
      255
176
     1
290
     0
176
     1
 90
       50
176
     1
 90
       50
176
     1
 90
       50
176
     1
290
     0
176
     1
 90
       50
176
     1
 62
   256
176
     0
 40
1.0
176
     0
 90
        2
176
     1
  1
strokes_ogs.tif
176
     1
290
     0
176
     1
 40
1.0
176
     1
 40
1.0
176
     1
1001
ACAD
1000
AcDbSavedByObjectVersion
1070
     0
  0
VISUALSTYLE
  5
812B
102
{ACAD_REACTORS
330
8124
102
}
330
8124
100
AcDbVisualStyle
  2
Wireframe
 70
     5
177
     3
291
     0
 70
    58
 90
        0
176
     1
 90
        2
176
     1
 90
        0
176
     1
 90
        0
176
     1
 40
0.6
176
     1
 40
30.0
176
     1
 62
     7
420
 16777215
176
     1
 90
        1
176
     1
 90
        4
176
     1
 62
     7
176
     1
 62
   257
176
     1
 90
        1
176
     1
 90
        1
176
     1
 40
1.0
176
     1
 90
        0
176
     1
 62
   257
176
     1
 40
1.0
176
     1
 90
        1
176
     1
 90
        6
176
     1
 90
        2
176
     1
 62
     7
176
     1
 90
        3
176
     1
 90
        0
176
     1
 90
        0
176
     1
290
     0
176
     1
 90
        1
176
     1
 40
0.0
176
     1
 90
        0
176
     1
290
     0
176
     1
290
     1
176
     1
290
     1
176
     1
290
     0
176
     1
290
     0
176
     1
290
     0
176
     1
290
     0
176
     1
290
     0
176
     1
290
     0
176
     1
 90
       50
176
     1
 40
0.0
176
     1
 40
1.0
176
     1
 90
        0
176
     1
 62
    18
420
        0
176
     1
 90
       50
176
     1
 90
        3
176
     1
 62
     5
420
      255
176
     1
290
     0
176
     1
 90
       50
176
     1
 90
       50
176
     1
 90
       50
176
     1
290
     0
176
     1
 90
       50
176
     1
 62
   256
176
     0
 40
1.0
176
     0
 90
        2
176
     1
  1
strokes_ogs.tif
176
     1
290
     0
176
     1
 40
1.0
176
     1
 40
1.0
176
     1
1001
ACAD
1000
AcDbSavedByObjectVersion
1070
     0
  0
VISUALSTYLE
  5
8137
102
{ACAD_REACTORS
330
8124
102
}
330
8124
100
AcDbVisualStyle
  2
X-Ray
 70
    25
177
     3
291
     0
 70
    58
 90
        2
176
     1
 90
        2
176
     1
 90
        1
176
     1
 90
        1
176
     1
 40
0.5
176
     1
 40
30.0
176
     1
 62
     7
420
 16777215
176
     1
 90
        1
176
     1
 90
        0
176
     1
 62
     7
176
     1
 62
   257
176
     1
 90
        1
176
     1
 90
        1
176
     1
 40
1.0
176
     1
 90
        8
176
     1
 62
     7
176
     1
 40
1.0
176
     1
 90
        1
176
     1
 90
        6
176
     1
 90
        2
176
     1
 62
     7
176
     1
 90
        3
176
     1
 90
        0
176
     1
 90
        0
176
     1
290
     0
176
     1
 90
       13
176
     1
 40
0.0
176
     1
 90
        0
176
     1
290
     0
176
     1
290
     1
176
     1
290
     1
176
     1
290
     0
176
     1
290
     0
176
     1
290
     0
176
     1
290
     0
176
     1
290
     0
176
     1
290
     0
176
     1
 90
       50
176
     1
 40
0.0
176
     1
 40
1.0
176
     1
 90
        0
176
     1
 62
    18
420
        0
176
     1
 90
       50
176
     1
 90
        3
176
     1
 62
     5
420
      255
176
     1
290
     0
176
     1
 90
       50
176
     1
 90
       50
176
     1
 90
       50
176
     1
290
     0
176
     1
 90
       50
176
     1
 62
   256
176
     0
 40
1.0
176
     0
 90
        2
176
     1
  1
strokes_ogs.tif
176
     1
290
     0
176
     1
 40
1.0
176
     1
 40
1.0
176
     1
1001
ACAD
1000
AcDbSavedByObjectVersion
1070
     0
  0
DICTIONARYVAR
  5
81B0
102
{ACAD_REACTORS
330
81AA
102
}
330
81AA
100
DictionaryVariables
280
     0
  1
1:1
  0
DICTIONARYVAR
  5
81AC
102
{ACAD_REACTORS
330
81AA
102
}
330
81AA
100
DictionaryVariables
280
     0
  1
STANDARD
  0
DICTIONARYVAR
  5
81AB
102
{ACAD_REACTORS
330
81AA
102
}
330
81AA
100
DictionaryVariables
280
     0
  1
STANDARD
  0
DICTIONARYVAR
  5
81AD
102
{ACAD_REACTORS
330
81AA
102
}
330
81AA
100
DictionaryVariables
280
     0
  1
Metric50
  0
DICTIONARYVAR
  5
81AE
102
{ACAD_REACTORS
330
81AA
102
}
330
81AA
100
DictionaryVariables
280
     0
  1
Metric50
  0
DICTIONARYVAR
  5
81B2
102
{ACAD_REACTORS
330
81AA
102
}
330
81AA
100
DictionaryVariables
280
     0
  1
1
  0
DICTIONARYVAR
  5
81B3
102
{ACAD_REACTORS
330
81AA
102
}
330
81AA
100
DictionaryVariables
280
     0
  1
15
  0
DICTIONARYVAR
  5
81B1
102
{ACAD_REACTORS
330
81AA
102
}
330
81AA
100
DictionaryVariables
280
     0
  1
0
  0
DICTIONARYVAR
  5
81B8
102
{ACAD_REACTORS
330
81AA
102
}
330
81AA
100
DictionaryVariables
280
     0
  1
0
  0
DICTIONARYVAR
  5
81AF
102
{ACAD_REACTORS
330
81AA
102
}
330
81AA
100
DictionaryVariables
280
     0
  1
0
  0
DICTIONARY
  5
81C3
102
{ACAD_REACTORS
330
81C1
102
}
330
81C1
100
AcDbDictionary
281
     1
  0
DICTIONARY
  5
81C2
102
{ACAD_REACTORS
330
81C1
102
}
330
81C1
100
AcDbDictionary
281
     1
  3
2040992160320
350
81BC
  3
2040992160336
350
81BD
  3
2040992160352
350
81BE
  3
2040992160368
350
81BF
  3
2040992160384
350
81C0
  0
DICTIONARY
  5
81C6
330
8157
100
AcDbDictionary
280
     1
281
     1
  3
ACAD_XREC_ROUNDTRIP
360
81C7
  0
DICTIONARY
  5
8115
330
8114
100
AcDbDictionary
280
     1
281
     1
  3
BUMPTILE
360
8117
  3
DIFFUSETILE
360
8116
  3
OPACITYTILE
360
811A
  3
REFLECTIONTILE
360
8119
  3
REFRACTIONTILE
360
811B
  3
SPECULARTILE
360
8118
  0
DICTIONARY
  5
810D
330
810C
100
AcDbDictionary
280
     1
281
     1
  3
BUMPTILE
360
810F
  3
DIFFUSETILE
360
810E
  3
OPACITYTILE
360
8112
  3
REFLECTIONTILE
360
8111
  3
REFRACTIONTILE
360
8113
  3
SPECULARTILE
360
8110
  0
DICTIONARY
  5
811D
330
811C
100
AcDbDictionary
280
     1
281
     1
  3
BUMPTILE
360
811F
  3
DIFFUSETILE
360
811E
  3
OPACITYTILE
360
8122
  3
REFLECTIONTILE
360
8121
  3
REFRACTIONTILE
360
8123
  3
SPECULARTILE
360
8120
  0
DICTIONARY
  5
81C4
330
8155
100
AcDbDictionary
280
     1
281
     1
  3
ACAD_XREC_ROUNDTRIP
360
81C5
  0
DICTIONARY
  5
81B9
330
813F
100
AcDbDictionary
280
     1
281
     1
  3
ACAD_ROUNDTRIP_2008_TABLESTYLE_CELLSTYLEMAP
360
81BA
  0
XRECORD
  5
81BC
102
{ACAD_REACTORS
330
81C2
102
}
330
81C2
100
AcDbXrecord
280
     1
  1
AcDb_Thumbnail_Schema
102
{ATTRRECORD
341
81BD
  2
AcDbDs::TreatedAsObjectData
280
     1
291
     1
102
ATTRRECORD}
102
{ATTRRECORD
341
81BE
  2
AcDbDs::Legacy
280
     1
291
     1
102
ATTRRECORD}
  2
AcDbDs::ID
280
    10
 91
        8
102
{ATTRRECORD
341
81BF
  2
AcDs:Indexable
280
     1
291
     1
102
ATTRRECORD}
102
{ATTRRECORD
341
81C0
  2
AcDbDs::HandleAttribute
280
     7
282
     1
102
ATTRRECORD}
  2
Thumbnail_Data
280
    15
 91
        0
  0
XRECORD
  5
81BD
102
{ACAD_REACTORS
330
81C2
102
}
330
81C2
100
AcDbXrecord
280
     1
  1
AcDbDs::TreatedAsObjectDataSchema
  2
AcDbDs::TreatedAsObjectData
280
     1
 91
        0
  0
XRECORD
  5
81BE
102
{ACAD_REACTORS
330
81C2
102
}
330
81C2
100
AcDbXrecord
280
     1
  1
AcDbDs::LegacySchema
  2
AcDbDs::Legacy
280
     1
 91
        0
  0
XRECORD
  5
81BF
102
{ACAD_REACTORS
330
81C2
102
}
330
81C2
100
AcDbXrecord
280
     1
  1
AcDbDs::IndexedPropertySchema
  2
AcDs:Indexable
280
     1
 91
        0
  0
XRECORD
  5
81C0
102
{ACAD_REACTORS
330
81C2
102
}
330
81C2
100
AcDbXrecord
280
     1
  1
AcDbDs::HandleAttributeSchema
  2
AcDbDs::HandleAttribute
280
     7
 91
        1
284
     1
  0
XRECORD
  5
81C7
102
{ACAD_REACTORS
330
81C6
102
}
330
81C6
100
AcDbXrecord
280
     1
102
DISPLAYNAME
  1
Metric50
102
FLAGS
 90
        0
  0
XRECORD
  5
8117
102
{ACAD_REACTORS
330
8115
102
}
330
8115
100
AcDbXrecord
280
     1
270
     1
271
     1
  0
XRECORD
  5
8116
102
{ACAD_REACTORS
330
8115
102
}
330
8115
100
AcDbXrecord
280
     1
270
     1
271
     1
  0
XRECORD
  5
811A
102
{ACAD_REACTORS
330
8115
102
}
330
8115
100
AcDbXrecord
280
     1
270
     1
271
     1
  0
XRECORD
  5
8119
102
{ACAD_REACTORS
330
8115
102
}
330
8115
100
AcDbXrecord
280
     1
270
     1
271
     1
  0
XRECORD
  5
811B
102
{ACAD_REACTORS
330
8115
102
}
330
8115
100
AcDbXrecord
280
     1
270
     1
271
     1
  0
XRECORD
  5
8118
102
{ACAD_REACTORS
330
8115
102
}
330
8115
100
AcDbXrecord
280
     1
270
     1
271
     1
  0
XRECORD
  5
810F
102
{ACAD_REACTORS
330
810D
102
}
330
810D
100
AcDbXrecord
280
     1
270
     1
271
     1
  0
XRECORD
  5
810E
102
{ACAD_REACTORS
330
810D
102
}
330
810D
100
AcDbXrecord
280
     1
270
     1
271
     1
  0
XRECORD
  5
8112
102
{ACAD_REACTORS
330
810D
102
}
330
810D
100
AcDbXrecord
280
     1
270
     1
271
     1
  0
XRECORD
  5
8111
102
{ACAD_REACTORS
330
810D
102
}
330
810D
100
AcDbXrecord
280
     1
270
     1
271
     1
  0
XRECORD
  5
8113
102
{ACAD_REACTORS
330
810D
102
}
330
810D
100
AcDbXrecord
280
     1
270
     1
271
     1
  0
XRECORD
  5
8110
102
{ACAD_REACTORS
330
810D
102
}
330
810D
100
AcDbXrecord
280
     1
270
     1
271
     1
  0
XRECORD
  5
811F
102
{ACAD_REACTORS
330
811D
102
}
330
811D
100
AcDbXrecord
280
     1
270
     1
271
     1
  0
XRECORD
  5
811E
102
{ACAD_REACTORS
330
811D
102
}
330
811D
100
AcDbXrecord
280
     1
270
     1
271
     1
  0
XRECORD
  5
8122
102
{ACAD_REACTORS
330
811D
102
}
330
811D
100
AcDbXrecord
280
     1
270
     1
271
     1
  0
XRECORD
  5
8121
102
{ACAD_REACTORS
330
811D
102
}
330
811D
100
AcDbXrecord
280
     1
270
     1
271
     1
  0
XRECORD
  5
8123
102
{ACAD_REACTORS
330
811D
102
}
330
811D
100
AcDbXrecord
280
     1
270
     1
271
     1
  0
XRECORD
  5
8120
102
{ACAD_REACTORS
330
811D
102
}
330
811D
100
AcDbXrecord
280
     1
270
     1
271
     1
  0
XRECORD
  5
81C5
102
{ACAD_REACTORS
330
81C4
102
}
330
81C4
100
AcDbXrecord
280
     1
102
DISPLAYNAME
  1
Metric50
102
FLAGS
 90
        0
  0
CELLSTYLEMAP
  5
81BA
102
{ACAD_REACTORS
330
81B9
102
}
330
81B9
100
AcDbCellStyleMap
 90
        3
300
CELLSTYLE
  1
TABLEFORMAT_BEGIN
 90
        5
170
     1
 91
        0
 92
    32768
 62
   257
 93
        1
300
CONTENTFORMAT
  1
CONTENTFORMAT_BEGIN
 90
        0
 91
        0
 92
      512
 93
        0
300

 40
0.0
140
1.0
 94
        5
 62
     0
340
10
144
6.0
309
CONTENTFORMAT_END
171
     1
301
MARGIN
  1
CELLMARGIN_BEGIN
 40
1.5
 40
1.5
 40
1.5
 40
1.5
 40
4.5
 40
4.5
309
CELLMARGIN_END
 94
        6
 95
        1
302
GRIDFORMAT
  1
GRIDFORMAT_BEGIN
 90
        0
 91
        1
 62
     0
 92
       -2
340
0
 93
        0
 40
1.125
309
GRIDFORMAT_END
 95
        2
302
GRIDFORMAT
  1
GRIDFORMAT_BEGIN
 90
        0
 91
        1
 62
     0
 92
       -2
340
0
 93
        0
 40
1.125
309
GRIDFORMAT_END
 95
        4
302
GRIDFORMAT
  1
GRIDFORMAT_BEGIN
 90
        0
 91
        1
 62
     0
 92
       -2
340
0
 93
        0
 40
1.125
309
GRIDFORMAT_END
 95
        8
302
GRIDFORMAT
  1
GRIDFORMAT_BEGIN
 90
        0
 91
        1
 62
     0
 92
       -2
340
0
 93
        0
 40
1.125
309
GRIDFORMAT_END
 95
       16
302
GRIDFORMAT
  1
GRIDFORMAT_BEGIN
 90
        0
 91
        1
 62
     0
 92
       -2
340
0
 93
        0
 40
1.125
309
GRIDFORMAT_END
 95
       32
302
GRIDFORMAT
  1
GRIDFORMAT_BEGIN
 90
        0
 91
        1
 62
     0
 92
       -2
340
0
 93
        0
 40
1.125
309
GRIDFORMAT_END
309
TABLEFORMAT_END
  1
CELLSTYLE_BEGIN
 90
        1
 91
        1
300
_TITLE
309
CELLSTYLE_END
300
CELLSTYLE
  1
TABLEFORMAT_BEGIN
 90
        5
170
     1
 91
        0
 92
        0
 62
   257
 93
        1
300
CONTENTFORMAT
  1
CONTENTFORMAT_BEGIN
 90
        0
 91
        0
 92
      512
 93
        0
300

 40
0.0
140
1.0
 94
        5
 62
     0
340
10
144
4.5
309
CONTENTFORMAT_END
171
     1
301
MARGIN
  1
CELLMARGIN_BEGIN
 40
1.5
 40
1.5
 40
1.5
 40
1.5
 40
4.5
 40
4.5
309
CELLMARGIN_END
 94
        6
 95
        1
302
GRIDFORMAT
  1
GRIDFORMAT_BEGIN
 90
        0
 91
        1
 62
     0
 92
       -2
340
0
 93
        0
 40
1.125
309
GRIDFORMAT_END
 95
        2
302
GRIDFORMAT
  1
GRIDFORMAT_BEGIN
 90
        0
 91
        1
 62
     0
 92
       -2
340
0
 93
        0
 40
1.125
309
GRIDFORMAT_END
 95
        4
302
GRIDFORMAT
  1
GRIDFORMAT_BEGIN
 90
        0
 91
        1
 62
     0
 92
       -2
340
0
 93
        0
 40
1.125
309
GRIDFORMAT_END
 95
        8
302
GRIDFORMAT
  1
GRIDFORMAT_BEGIN
 90
        0
 91
        1
 62
     0
 92
       -2
340
0
 93
        0
 40
1.125
309
GRIDFORMAT_END
 95
       16
302
GRIDFORMAT
  1
GRIDFORMAT_BEGIN
 90
        0
 91
        1
 62
     0
 92
       -2
340
0
 93
        0
 40
1.125
309
GRIDFORMAT_END
 95
       32
302
GRIDFORMAT
  1
GRIDFORMAT_BEGIN
 90
        0
 91
        1
 62
     0
 92
       -2
340
0
 93
        0
 40
1.125
309
GRIDFORMAT_END
309
TABLEFORMAT_END
  1
CELLSTYLE_BEGIN
 90
        2
 91
        1
300
_HEADER
309
CELLSTYLE_END
300
CELLSTYLE
  1
TABLEFORMAT_BEGIN
 90
        5
170
     1
 91
        0
 92
        0
 62
   257
 93
        1
300
CONTENTFORMAT
  1
CONTENTFORMAT_BEGIN
 90
        0
 91
        0
 92
      512
 93
        0
300

 40
0.0
140
1.0
 94
        2
 62
     0
340
10
144
4.5
309
CONTENTFORMAT_END
171
     1
301
MARGIN
  1
CELLMARGIN_BEGIN
 40
1.5
 40
1.5
 40
1.5
 40
1.5
 40
4.5
 40
4.5
309
CELLMARGIN_END
 94
        6
 95
        1
302
GRIDFORMAT
  1
GRIDFORMAT_BEGIN
 90
        0
 91
        1
 62
     0
 92
       -2
340
0
 93
        0
 40
1.125
309
GRIDFORMAT_END
 95
        2
302
GRIDFORMAT
  1
GRIDFORMAT_BEGIN
 90
        0
 91
        1
 62
     0
 92
       -2
340
0
 93
        0
 40
1.125
309
GRIDFORMAT_END
 95
        4
302
GRIDFORMAT
  1
GRIDFORMAT_BEGIN
 90
        0
 91
        1
 62
     0
 92
       -2
340
0
 93
        0
 40
1.125
309
GRIDFORMAT_END
 95
        8
302
GRIDFORMAT
  1
GRIDFORMAT_BEGIN
 90
        0
 91
        1
 62
     0
 92
       -2
340
0
 93
        0
 40
1.125
309
GRIDFORMAT_END
 95
       16
302
GRIDFORMAT
  1
GRIDFORMAT_BEGIN
 90
        0
 91
        1
 62
     0
 92
       -2
340
0
 93
        0
 40
1.125
309
GRIDFORMAT_END
 95
       32
302
GRIDFORMAT
  1
GRIDFORMAT_BEGIN
 90
        0
 91
        1
 62
     0
 92
       -2
340
0
 93
        0
 40
1.125
309
GRIDFORMAT_END
309
TABLEFORMAT_END
  1
CELLSTYLE_BEGIN
 90
        3
 91
        2
300
_DATA
309
CELLSTYLE_END
  0
ENDSEC
  0
SECTION
  2
ACDSDATA
 70
     2
 71
     8
  0
ACDSSCHEMA
 90
        0
  1
AcDb_Thumbnail_Schema
  2
AcDbDs::ID
280
    10
 91
        8
  2
Thumbnail_Data
280
    15
 91
        0
101
ACDSRECORD
 95
        0
 90
        1
  2
AcDbDs::TreatedAsObjectData
280
     1
291
     1
101
ACDSRECORD
 95
        0
 90
        2
  2
AcDbDs::Legacy
280
     1
291
     1
101
ACDSRECORD
  1
AcDbDs::ID
 90
        3
  2
AcDs:Indexable
280
     1
291
     1
101
ACDSRECORD
  1
AcDbDs::ID
 90
        4
  2
AcDbDs::HandleAttribute
280
     7
282
     1
  0
ACDSSCHEMA
 90
        1
  1
AcDbDs::TreatedAsObjectDataSchema
  2
AcDbDs::TreatedAsObjectData
280
     1
 91
        0
  0
ACDSSCHEMA
 90
        2
  1
AcDbDs::LegacySchema
  2
AcDbDs::Legacy
280
     1
 91
        0
  0
ACDSSCHEMA
 90
        3
  1
AcDbDs::IndexedPropertySchema
  2
AcDs:Indexable
280
     1
 91
        0
  0
ACDSSCHEMA
 90
        4
  1
AcDbDs::HandleAttributeSchema
  2
AcDbDs::HandleAttribute
280
     7
 91
        1
284
     1
  0
ACDSRECORD
 90
        0
  2
AcDbDs::ID
280
    10
320
80A1
  2
Thumbnail_Data
280
    15
 94
     1792
310
89504E470D0A1A0A0000000D49484452000001000000007C0803000000B13B9E5A00000300504C5445000000000000C8C8C80000000000000000000000000000000000000000000000000000330000660000990000CC0000FF0033000033330033660033990033CC0033FF0066000066330066660066990066CC0066FF0099
310
000099330099660099990099CC0099FF00CC0000CC3300CC6600CC9900CCCC00CCFF00FF0000FF3300FF6600FF9900FFCC00FFFF3300003300333300663300993300CC3300FF3333003333333333663333993333CC3333FF3366003366333366663366993366CC3366FF3399003399333399663399993399CC3399FF33CC00
310
33CC3333CC6633CC9933CCCC33CCFF33FF0033FF3333FF6633FF9933FFCC33FFFF6600006600336600666600996600CC6600FF6633006633336633666633996633CC6633FF6666006666336666666666996666CC6666FF6699006699336699666699996699CC6699FF66CC0066CC3366CC6666CC9966CCCC66CCFF66FF0066
310
FF3366FF6666FF9966FFCC66FFFF9900009900339900669900999900CC9900FF9933009933339933669933999933CC9933FF9966009966339966669966999966CC9966FF9999009999339999669999999999CC9999FF99CC0099CC3399CC6699CC9999CCCC99CCFF99FF0099FF3399FF6699FF9999FFCC99FFFFCC0000CC00
310
33CC0066CC0099CC00CCCC00FFCC3300CC3333CC3366CC3399CC33CCCC33FFCC6600CC6633CC6666CC6699CC66CCCC66FFCC9900CC9933CC9966CC9999CC99CCCC99FFCCCC00CCCC33CCCC66CCCC99CCCCCCCCCCFFCCFF00CCFF33CCFF66CCFF99CCFFCCCCFFFFFF0000FF0033FF0066FF0099FF00CCFF00FFFF3300FF3333
310
FF3366FF3399FF33CCFF33FFFF6600FF6633FF6666FF6699FF66CCFF66FFFF9900FF9933FF9966FF9999FF99CCFF99FFFFCC00FFCC33FFCC66FFCC99FFCCCCFFCCFFFFFF00FFFF33FFFF66FFFF99FFFFCCFFFFFF0000000D0D0D1A1A1A2828283535354343435050505D5D5D6B6B6B787878868686939393A1A1A1AEAEAEBB
310
BBBBC9C9C9D6D6D6E4E4E4F1F1F1FFFFFF00000000000000000000000000000000000000000000000000000000000008F1915C000003BB4944415478DAED9D5972C3200C86751C5E74FFCB700DDE6B1B09C4627B32934EAB856E262199EAF32F018252805F28E5970A682945D5DB0680001000024000F83FBFE943E7E705C0
310
F4F2E25201EE0114CF00262FD00DE0AB33009500FED99B05803F00403A16922EC335B0C86BDBEE39F4A00500508D866E365095635E293402287C0985BF9B5000DCC5375240B5B52B403C61C505789057A44F3CDB562208C638C0E164E8D5251402D8C6BEE91697D6F9951E39BD00E85D000398C2BF7A1758002C5D210380F6
310
610AC0975E1F3941A500F251EE6AD6016469726E0440548D03782A6E14B0AD7851C0CEE2E416008EE5633FD00D00D772C6084700DA55EA8F6408000120000400AB00CE5EEE8AF68962BE3B05E4C346D9E92D00B2070064F1A183B960F205C09D02CE716E00780600012000D81E07380730F502DBE9B023002231D07FFA0600
310
D613226D2EB02FD9474A6C990A5005BD24454F63D3E00147D51780692EE84F0137C5E1BAC03410F20B0002804F0073B71FCBE3E1020E007C58B2E0925746DA01BCEA5E7AC6CE4B94037876FC2C5BF43031BCC05A10CC2B9EE746FA83E020F0FB0D44D26E3B002E3D9F86DD28801B49001325ED009E5D60DFC81280E1AAA784
310
08050198B3461601707A8092A2B90A3FD373C384719A341B0070D9DEAD6300AD251282440DEC01186FEF06000C7964630048E02F004064116D0140581C3C37FF1700E0DA540366017086F41E80FC690800F63E807B813B00870276F3270B00EAAEA9CBFF2700942CAF6412C58B5301560020F782D53A9C8220F2E7D20B9801
310
70DD790E827D799C448E92018D03EA36220300DA4649DE36B803407141F694D7F2897E00C2E2EAE609AA0720A53C480137EB47EA0190250953BA364BD2D7301B825AC7CD6E4AF50090633AB6B85657871187EC07825C436DDB88507D10A4D90FC700F6735C00F4202901002A574022559FA2673313DDEF9603BA5C805ACE0A
310
40330A0031044468773BB771401B080D0A00301203BAF1F4E703CD03EC03907DFFECEC1D00EE0018980B0CFB22EB083FC96DA37228BCE905F66FAB08C0C336B94D2F70DB482D802105045342A4F9405E6E77829D043402107F34B5DF2829BCDCAD0298804505E49D02F2A280655524F795112329B171BD532E7A8D2B46BC3E
310
CE57E601C86E3EF7BA1D006FDB0306006F7B082CEE11CA9FEC958A8394024000D00FC0FD89929F5BE602C07AD820C8A3164D0180CDBF4D12A72DF329CB7601B88F017B05B4C3B7A11DB3ED2B067400FDA86DF300360F8AA3B78B0305C4C9D231140E000120000480001000024000080001C0180045FF7AFB07BAFF691DC182
310
7E4C0000000049454E44AE426082
  0
ENDSEC
  0
EOF
