  0
SECTION
  2
HEADER
  9
$ACADVER
  1
AC1027
  9
$ACADMAINTVER
 70
   125
  9
$DWGCODEPAGE
  3
ANSI_932
  9
$LASTSAVEDBY
  1
yasukiyo.ogawa
  9
$REQUIREDVERSIONS
160
                 0
  9
$INSBASE
 10
0.0
 20
0.0
 30
0.0
  9
$EXTMIN
 10
0.0
 20
0.0
 30
0.0
  9
$EXTMAX
 10
4200.0
 20
5900.0
 30
0.0
  9
$LIMMIN
 10
0.0
 20
0.0
  9
$LIMMAX
 10
297.0
 20
210.0
  9
$ORTHOMODE
 70
     1
  9
$REGENMODE
 70
     1
  9
$FILLMODE
 70
     0
  9
$QTEXTMODE
 70
     0
  9
$MIRRTEXT
 70
     1
  9
$LTSCALE
 40
100.0
  9
$ATTMODE
 70
     1
  9
$TEXTSIZE
 40
180.0
  9
$TRACEWID
 40
0.05
  9
$TEXTSTYLE
  7
STANDARD
  9
$CLAYER
  8
3
  9
$CELTYPE
  6
BYLAYER
  9
$CECOLOR
 62
   256
  9
$CELTSCALE
 40
1.0
  9
$DISPSILH
 70
     0
  9
$DIMSCALE
 40
20.0
  9
$DIMASZ
 40
2.0
  9
$DIMEXO
 40
0.5
  9
$DIMDLI
 40
10.0
  9
$DIMRND
 40
0.0
  9
$DIMDLE
 40
0.0
  9
$DIMEXE
 40
1.0
  9
$DIMTP
 40
1.0
  9
$DIMTM
 40
1.0
  9
$DIMTXT
 40
3.0
  9
$DIMCEN
 40
0.0
  9
$DIMTSZ
 40
0.0
  9
$DIMTOL
 70
     0
  9
$DIMLIM
 70
     0
  9
$DIMTIH
 70
     0
  9
$DIMTOH
 70
     0
  9
$DIMSE1
 70
     0
  9
$DIMSE2
 70
     0
  9
$DIMTAD
 70
     1
  9
$DIMZIN
 70
     8
  9
$DIMBLK
  1

  9
$DIMASO
 70
     1
  9
$DIMSHO
 70
     1
  9
$DIMPOST
  1
(<>)
  9
$DIMAPOST
  1

  9
$DIMALT
 70
     0
  9
$DIMALTD
 70
     2
  9
$DIMALTF
 40
0.039
  9
$DIMLFAC
 40
1.0
  9
$DIMTOFL
 70
     1
  9
$DIMTVP
 40
0.0
  9
$DIMTIX
 70
     0
  9
$DIMSOXD
 70
     0
  9
$DIMSAH
 70
     1
  9
$DIMBLK1
  1
OPEN
  9
$DIMBLK2
  1
OPEN
  9
$DIMSTYLE
  2
IGA
  9
$DIMCLRD
 70
     0
  9
$DIMCLRE
 70
     0
  9
$DIMCLRT
 70
     0
  9
$DIMTFAC
 40
10.0
  9
$DIMGAP
 40
1.0
  9
$DIMJUST
 70
     0
  9
$DIMSD1
 70
     0
  9
$DIMSD2
 70
     0
  9
$DIMTOLJ
 70
     1
  9
$DIMTZIN
 70
     8
  9
$DIMALTZ
 70
     0
  9
$DIMALTTZ
 70
     0
  9
$DIMUPT
 70
     0
  9
$DIMDEC
 70
     0
  9
$DIMTDEC
 70
     0
  9
$DIMALTU
 70
     2
  9
$DIMALTTD
 70
     2
  9
$DIMTXSTY
  7
STANDARD
  9
$DIMAUNIT
 70
     0
  9
$DIMADEC
 70
     0
  9
$DIMALTRND
 40
0.0
  9
$DIMAZIN
 70
     0
  9
$DIMDSEP
 70
    46
  9
$DIMATFIT
 70
     3
  9
$DIMFRAC
 70
     0
  9
$DIMLDRBLK
  1
OPEN
  9
$DIMLUNIT
 70
     2
  9
$DIMLWD
 70
    -2
  9
$DIMLWE
 70
    -2
  9
$DIMTMOVE
 70
     2
  9
$DIMFXL
 40
1.0
  9
$DIMFXLON
 70
     0
  9
$DIMJOGANG
 40
0.7853981633974483
  9
$DIMTFILL
 70
     0
  9
$DIMTFILLCLR
 70
     0
  9
$DIMARCSYM
 70
     0
  9
$DIMLTYPE
  6

  9
$DIMLTEX1
  6

  9
$DIMLTEX2
  6

  9
$DIMTXTDIRECTION
 70
     0
  9
$LUNITS
 70
     2
  9
$LUPREC
 70
     3
  9
$SKETCHINC
 40
0.1
  9
$FILLETRAD
 40
50.0
  9
$AUNITS
 70
     0
  9
$AUPREC
 70
     0
  9
$MENU
  1
acad
  9
$ELEVATION
 40
0.0
  9
$PELEVATION
 40
0.0
  9
$THICKNESS
 40
0.0
  9
$LIMCHECK
 70
     0
  9
$CHAMFERA
 40
0.5
  9
$CHAMFERB
 40
0.5
  9
$CHAMFERC
 40
20.0
  9
$CHAMFERD
 40
0.0
  9
$SKPOLY
 70
     0
  9
$TDCREATE
 40
2451376.556342593
  9
$TDUCREATE
 40
2451376.181344329
  9
$TDUPDATE
 40
2460216.751365741
  9
$TDUUPDATE
 40
2460216.376377176
  9
$TDINDWG
 40
0.0267731829
  9
$TDUSRTIMER
 40
0.0267731829
  9
$USRTIMER
 70
     1
  9
$ANGBASE
 50
0.0
  9
$ANGDIR
 70
     0
  9
$PDMODE
 70
     0
  9
$PDSIZE
 40
0.0
  9
$PLINEWID
 40
0.0
  9
$SPLFRAME
 70
     0
  9
$SPLINETYPE
 70
     6
  9
$SPLINESEGS
 70
     8
  9
$HANDSEED
  5
819D
  9
$SURFTAB1
 70
     6
  9
$SURFTAB2
 70
     6
  9
$SURFTYPE
 70
     6
  9
$SURFU
 70
     6
  9
$SURFV
 70
     6
  9
$UCSBASE
  2

  9
$UCSNAME
  2

  9
$UCSORG
 10
0.0
 20
0.0
 30
0.0
  9
$UCSXDIR
 10
1.0
 20
0.0
 30
0.0
  9
$UCSYDIR
 10
0.0
 20
1.0
 30
0.0
  9
$UCSORTHOREF
  2

  9
$UCSORTHOVIEW
 70
     0
  9
$UCSORGTOP
 10
0.0
 20
0.0
 30
0.0
  9
$UCSORGBOTTOM
 10
0.0
 20
0.0
 30
0.0
  9
$UCSORGLEFT
 10
0.0
 20
0.0
 30
0.0
  9
$UCSORGRIGHT
 10
0.0
 20
0.0
 30
0.0
  9
$UCSORGFRONT
 10
0.0
 20
0.0
 30
0.0
  9
$UCSORGBACK
 10
0.0
 20
0.0
 30
0.0
  9
$PUCSBASE
  2

  9
$PUCSNAME
  2

  9
$PUCSORG
 10
0.0
 20
0.0
 30
0.0
  9
$PUCSXDIR
 10
1.0
 20
0.0
 30
0.0
  9
$PUCSYDIR
 10
0.0
 20
1.0
 30
0.0
  9
$PUCSORTHOREF
  2

  9
$PUCSORTHOVIEW
 70
     0
  9
$PUCSORGTOP
 10
0.0
 20
0.0
 30
0.0
  9
$PUCSORGBOTTOM
 10
0.0
 20
0.0
 30
0.0
  9
$PUCSORGLEFT
 10
0.0
 20
0.0
 30
0.0
  9
$PUCSORGRIGHT
 10
0.0
 20
0.0
 30
0.0
  9
$PUCSORGFRONT
 10
0.0
 20
0.0
 30
0.0
  9
$PUCSORGBACK
 10
0.0
 20
0.0
 30
0.0
  9
$USERI1
 70
     0
  9
$USERI2
 70
     0
  9
$USERI3
 70
     0
  9
$USERI4
 70
     0
  9
$USERI5
 70
     0
  9
$USERR1
 40
0.0
  9
$USERR2
 40
0.0
  9
$USERR3
 40
0.0
  9
$USERR4
 40
0.0
  9
$USERR5
 40
0.0
  9
$WORLDVIEW
 70
     1
  9
$SHADEDGE
 70
     3
  9
$SHADEDIF
 70
    70
  9
$TILEMODE
 70
     1
  9
$MAXACTVP
 70
    16
  9
$PINSBASE
 10
0.0
 20
0.0
 30
0.0
  9
$PLIMCHECK
 70
     0
  9
$PEXTMIN
 10
1.000000000000000E+20
 20
1.000000000000000E+20
 30
1.000000000000000E+20
  9
$PEXTMAX
 10
-1.000000000000000E+20
 20
-1.000000000000000E+20
 30
-1.000000000000000E+20
  9
$PLIMMIN
 10
0.0
 20
0.0
  9
$PLIMMAX
 10
12.0
 20
9.0
  9
$UNITMODE
 70
     0
  9
$VISRETAIN
 70
     0
  9
$PLINEGEN
 70
     0
  9
$PSLTSCALE
 70
     1
  9
$TREEDEPTH
 70
  3020
  9
$CMLSTYLE
  2
STANDARD
  9
$CMLJUST
 70
     0
  9
$CMLSCALE
 40
20.0
  9
$PROXYGRAPHICS
 70
     1
  9
$MEASUREMENT
 70
     1
  9
$CELWEIGHT
370
    -1
  9
$ENDCAPS
280
     0
  9
$JOINSTYLE
280
     0
  9
$LWDISPLAY
290
     0
  9
$INSUNITS
 70
     0
  9
$HYPERLINKBASE
  1

  9
$STYLESHEET
  1

  9
$XEDIT
290
     1
  9
$CEPSNTYPE
380
     0
  9
$PSTYLEMODE
290
     1
  9
$FINGERPRINTGUID
  2
{6B225B79-4AFA-4A56-A39F-885E59BFD6AB}
  9
$VERSIONGUID
  2
{28BF150C-89DA-4AF4-B7E3-F0822AED4D1F}
  9
$EXTNAMES
290
     1
  9
$PSVPSCALE
 40
0.0
  9
$OLESTARTUP
290
     0
  9
$SORTENTS
280
   127
  9
$INDEXCTL
280
     0
  9
$HIDETEXT
280
     0
  9
$XCLIPFRAME
280
     2
  9
$HALOGAP
280
     0
  9
$OBSCOLOR
 70
   257
  9
$OBSLTYPE
280
     0
  9
$INTERSECTIONDISPLAY
280
     0
  9
$INTERSECTIONCOLOR
 70
   257
  9
$DIMASSOC
280
     1
  9
$PROJECTNAME
  1

  9
$CAMERADISPLAY
290
     0
  9
$LENSLENGTH
 40
50.0
  9
$CAMERAHEIGHT
 40
0.0
  9
$STEPSPERSEC
 40
2.0
  9
$STEPSIZE
 40
6.0
  9
$3DDWFPREC
 40
2.0
  9
$PSOLWIDTH
 40
0.25
  9
$PSOLHEIGHT
 40
4.0
  9
$LOFTANG1
 40
1.570796326794896
  9
$LOFTANG2
 40
1.570796326794896
  9
$LOFTMAG1
 40
0.0
  9
$LOFTMAG2
 40
0.0
  9
$LOFTPARAM
 70
     7
  9
$LOFTNORMALS
280
     1
  9
$LATITUDE
 40
37.795
  9
$LONGITUDE
 40
-122.394
  9
$NORTHDIRECTION
 40
0.0
  9
$TIMEZONE
 70
 -8000
  9
$LIGHTGLYPHDISPLAY
280
     1
  9
$TILEMODELIGHTSYNCH
280
     1
  9
$CMATERIAL
347
80D6
  9
$SOLIDHIST
280
     0
  9
$SHOWHIST
280
     1
  9
$DWFFRAME
280
     2
  9
$DGNFRAME
280
     0
  9
$REALWORLDSCALE
290
     1
  9
$INTERFERECOLOR
 62
     1
  9
$INTERFEREOBJVS
345
80F8
  9
$INTERFEREVPVS
346
80F5
  9
$CSHADOW
280
     0
  9
$SHADOWPLANELOCATION
 40
0.0
  0
ENDSEC
  0
SECTION
  2
CLASSES
  0
CLASS
  1
ACDBDICTIONARYWDFLT
  2
AcDbDictionaryWithDefault
  3
ObjectDBX Classes
 90
        0
 91
        1
280
     0
281
     0
  0
CLASS
  1
MATERIAL
  2
AcDbMaterial
  3
ObjectDBX Classes
 90
     1153
 91
        3
280
     0
281
     0
  0
CLASS
  1
VISUALSTYLE
  2
AcDbVisualStyle
  3
ObjectDBX Classes
 90
     4095
 91
       24
280
     0
281
     0
  0
CLASS
  1
TABLESTYLE
  2
AcDbTableStyle
  3
ObjectDBX Classes
 90
     4095
 91
        1
280
     0
281
     0
  0
CLASS
  1
SCALE
  2
AcDbScale
  3
ObjectDBX Classes
 90
     1153
 91
       17
280
     0
281
     0
  0
CLASS
  1
MLEADERSTYLE
  2
AcDbMLeaderStyle
  3
ACDB_MLEADERSTYLE_CLASS
 90
     4095
 91
        1
280
     0
281
     0
  0
CLASS
  1
ACDBSECTIONVIEWSTYLE
  2
AcDbSectionViewStyle
  3
ObjectDBX Classes
 90
     1025
 91
        1
280
     0
281
     0
  0
CLASS
  1
ACDBDETAILVIEWSTYLE
  2
AcDbDetailViewStyle
  3
ObjectDBX Classes
 90
     1025
 91
        1
280
     0
281
     0
  0
CLASS
  1
DICTIONARYVAR
  2
AcDbDictionaryVar
  3
ObjectDBX Classes
 90
        0
 91
       10
280
     0
281
     0
  0
CLASS
  1
CELLSTYLEMAP
  2
AcDbCellStyleMap
  3
ObjectDBX Classes
 90
     1152
 91
        1
280
     0
281
     0
  0
ENDSEC
  0
SECTION
  2
TABLES
  0
TABLE
  2
VPORT
  5
8
330
0
100
AcDbSymbolTable
 70
     1
1001
ACAD
1000
DbSaveVer
1071
      278
  0
VPORT
  5
80D3
330
8
100
AcDbSymbolTableRecord
100
AcDbViewportTableRecord
  2
*Active
 70
     0
 10
0.0
 20
0.0
 11
1.0
 21
1.0
 12
2694.113519327956
 22
2950.000013737006
 13
0.0
 23
0.0
 14
10.0
 24
10.0
 15
10.0
 25
10.0
 16
0.0
 26
0.0
 36
1.0
 17
0.0
 27
0.0
 37
0.0
 40
5938.142562752639
 41
2.250314465408805
 42
50.0
 43
0.0
 44
0.0
 50
0.0
 51
0.0
 71
     0
 72
   100
 73
     1
 74
     0
 75
     0
 76
     0
 77
     0
 78
     0
281
     0
 65
     1
110
0.0
120
0.0
130
0.0
111
1.0
121
0.0
131
0.0
112
0.0
122
1.0
132
0.0
 79
     0
146
0.0
348
80F4
 60
     3
 61
     5
292
     1
282
     1
141
0.0
142
0.0
 63
   250
421
  3355443
1001
ACAD_NAV_VCDISPLAY
1070
     3
  0
ENDTAB
  0
TABLE
  2
LTYPE
  5
5
330
0
100
AcDbSymbolTable
 70
     2
  0
LTYPE
  5
13
330
5
100
AcDbSymbolTableRecord
100
AcDbLinetypeTableRecord
  2
BYBLOCK
 70
     0
  3

 72
    65
 73
     0
 40
0.0
  0
LTYPE
  5
14
330
5
100
AcDbSymbolTableRecord
100
AcDbLinetypeTableRecord
  2
BYLAYER
 70
     0
  3

 72
    65
 73
     0
 40
0.0
  0
LTYPE
  5
15
330
5
100
AcDbSymbolTableRecord
100
AcDbLinetypeTableRecord
  2
CONTINUOUS
 70
     0
  3
Solid line
 72
    65
 73
     0
 40
0.0
  0
LTYPE
  5
1F
330
5
100
AcDbSymbolTableRecord
100
AcDbLinetypeTableRecord
  2
CENTER
 70
     0
  3
____ _ ____ _ ____ _ ____ _ ____ _ ____ _ ____ 
 72
    65
 73
     4
 40
2.0
 49
1.25
 74
     0
 49
-0.25
 74
     0
 49
0.25
 74
     0
 49
-0.25
 74
     0
  0
ENDTAB
  0
TABLE
  2
LAYER
  5
2
102
{ACAD_XDICTIONARY
360
8173
102
}
330
0
100
AcDbSymbolTable
 70
     6
  0
LAYER
  5
F
102
{ACAD_XDICTIONARY
360
8166
102
}
330
2
100
AcDbSymbolTableRecord
100
AcDbLayerTableRecord
  2
0
 70
     0
 62
     7
  6
CONTINUOUS
370
    -3
390
8067
347
80E6
348
0
  0
LAYER
  5
31
102
{ACAD_XDICTIONARY
360
8168
102
}
330
2
100
AcDbSymbolTableRecord
100
AcDbLayerTableRecord
  2
3
 70
     0
 62
     2
  6
CONTINUOUS
370
    -3
390
8067
347
80E6
348
0
  0
LAYER
  5
76D0
102
{ACAD_XDICTIONARY
360
816A
102
}
330
2
100
AcDbSymbolTableRecord
100
AcDbLayerTableRecord
  2
2
 70
     0
 62
     3
  6
CENTER
370
    -3
390
8067
347
80E6
348
0
  0
LAYER
  5
76D1
102
{ACAD_XDICTIONARY
360
816C
102
}
330
2
100
AcDbSymbolTableRecord
100
AcDbLayerTableRecord
  2
1
 70
     0
 62
     4
  6
CONTINUOUS
370
    -3
390
8067
347
80E6
348
0
  0
LAYER
  5
76D2
102
{ACAD_XDICTIONARY
360
816E
102
}
330
2
100
AcDbSymbolTableRecord
100
AcDbLayerTableRecord
  2
4
 70
     0
 62
     7
  6
CONTINUOUS
370
    -3
390
8067
347
80E6
348
0
  0
LAYER
  5
7B35
330
2
100
AcDbSymbolTableRecord
100
AcDbLayerTableRecord
  2
DEFPOINTS
 70
     0
 62
     7
  6
CONTINUOUS
290
     0
370
    -3
390
8067
347
80E6
348
0
  0
ENDTAB
  0
TABLE
  2
STYLE
  5
3
330
0
100
AcDbSymbolTable
 70
     1
  0
STYLE
  5
10
330
3
100
AcDbSymbolTableRecord
100
AcDbTextStyleTableRecord
  2
STANDARD
 70
     0
 40
0.0
 41
1.0
 50
0.0
 71
     0
 42
180.0
  3
simplex.shx
  4
extfont.shx
  0
ENDTAB
  0
TABLE
  2
VIEW
  5
6
330
0
100
AcDbSymbolTable
 70
     0
  0
ENDTAB
  0
TABLE
  2
UCS
  5
7
330
0
100
AcDbSymbolTable
 70
     0
  0
ENDTAB
  0
TABLE
  2
APPID
  5
9
330
0
100
AcDbSymbolTable
 70
     4
  0
APPID
  5
11
330
9
100
AcDbSymbolTableRecord
100
AcDbRegAppTableRecord
  2
ACAD
 70
     0
  0
APPID
  5
8125
330
9
100
AcDbSymbolTableRecord
100
AcDbRegAppTableRecord
  2
AcadAnnoMonitorAlertIconDisabled
 70
     0
  0
APPID
  5
8126
330
9
100
AcDbSymbolTableRecord
100
AcDbRegAppTableRecord
  2
ACAD_EXEMPT_FROM_CAD_STANDARDS
 70
     0
  0
APPID
  5
8179
330
9
100
AcDbSymbolTableRecord
100
AcDbRegAppTableRecord
  2
ACAD_NAV_VCDISPLAY
 70
     0
  0
ENDTAB
  0
TABLE
  2
DIMSTYLE
  5
A
330
0
100
AcDbSymbolTable
 70
     2
100
AcDbDimStyleTable
 71
     1
340
1D
  0
DIMSTYLE
105
1D
102
{ACAD_REACTORS
330
7F6F
330
801C
330
8029
330
8036
330
8043
330
8052
330
805F
102
}
330
A
100
AcDbSymbolTableRecord
100
AcDbDimStyleTableRecord
  2
IGA
 70
     0
 40
2.0
 41
2.0
 42
0.5
 43
10.0
 44
1.0
 47
1.0
 48
1.0
 73
     0
 74
     0
 77
     1
 78
     8
140
3.0
141
0.0
143
0.03937
146
10.0
147
1.0
173
     1
271
     1
272
     0
279
     2
284
     8
340
10
341
79FC
343
79FC
344
79FC
  0
DIMSTYLE
105
7B37
102
{ACAD_REACTORS
330
7C21
330
7C22
330
7C23
330
7C4B
330
7C55
330
7CA0
330
7CC0
330
7CCA
330
7CCB
330
7CCC
330
7CCD
330
7CCE
330
7CDF
330
7CE0
330
7CE1
102
}
330
A
100
AcDbSymbolTableRecord
100
AcDbDimStyleTableRecord
  2
MATSU
 70
     0
 41
2.0
 42
1.0
 43
10.0
 44
1.0
 73
     0
 74
     0
 77
     1
 78
     8
140
3.0
141
0.0
143
0.03937
147
0.5
172
     1
173
     1
176
   256
177
   256
178
   256
284
     8
289
     0
340
10
341
79FC
343
79FC
344
79FC
  0
ENDTAB
  0
TABLE
  2
BLOCK_RECORD
  5
1
330
0
100
AcDbSymbolTable
 70
    25
  0
BLOCK_RECORD
  5
19
102
{ACAD_XDICTIONARY
360
8095
102
}
330
1
100
AcDbSymbolTableRecord
100
AcDbBlockTableRecord
  2
*MODEL_SPACE
340
806A
 70
     0
280
     1
281
     0
  0
BLOCK_RECORD
  5
16
102
{ACAD_XDICTIONARY
360
8093
102
}
330
1
100
AcDbSymbolTableRecord
100
AcDbBlockTableRecord
  2
*PAPER_SPACE
340
806B
 70
     0
280
     1
281
     0
  0
BLOCK_RECORD
  5
79FC
330
1
100
AcDbSymbolTableRecord
100
AcDbBlockTableRecord
  2
_OPEN
340
0
102
{BLKREFS
331
7EBE
331
7EBF
331
7ED3
331
7ED4
331
7EDE
331
7EDF
331
7EE9
331
7EEA
331
7EFE
331
7EFF
331
7E0F
331
7E10
331
7E1A
331
7E1B
331
7E25
331
7E26
331
7E70
331
7E71
331
7EB3
331
7EB4
331
8158
331
8159
331
8160
331
8161
331
8015
331
8016
331
8022
331
8023
331
802F
331
8030
331
803C
331
803D
331
8058
331
8059
331
809F
331
80A0
331
80AF
331
80B0
331
80B7
331
80B8
331
80C3
102
}
 70
     0
280
     1
281
     0
  0
BLOCK_RECORD
  5
7CEE
330
1
100
AcDbSymbolTableRecord
100
AcDbBlockTableRecord
  2
*D1
340
0
 70
     0
280
     1
281
     0
  0
BLOCK_RECORD
  5
7CFA
330
1
100
AcDbSymbolTableRecord
100
AcDbBlockTableRecord
  2
*D2
340
0
 70
     0
280
     1
281
     0
  0
BLOCK_RECORD
  5
7D06
330
1
100
AcDbSymbolTableRecord
100
AcDbBlockTableRecord
  2
*D3
340
0
 70
     0
280
     1
281
     0
  0
BLOCK_RECORD
  5
7D58
330
1
100
AcDbSymbolTableRecord
100
AcDbBlockTableRecord
  2
*D4
340
0
 70
     0
280
     1
281
     0
  0
BLOCK_RECORD
  5
7D64
330
1
100
AcDbSymbolTableRecord
100
AcDbBlockTableRecord
  2
*D5
340
0
 70
     0
280
     1
281
     0
  0
BLOCK_RECORD
  5
7D70
330
1
100
AcDbSymbolTableRecord
100
AcDbBlockTableRecord
  2
*D6
340
0
 70
     0
280
     1
281
     0
  0
BLOCK_RECORD
  5
7D96
330
1
100
AcDbSymbolTableRecord
100
AcDbBlockTableRecord
  2
*D7
340
0
 70
     0
280
     1
281
     0
  0
BLOCK_RECORD
  5
7DA1
330
1
100
AcDbSymbolTableRecord
100
AcDbBlockTableRecord
  2
*D8
340
0
 70
     0
280
     1
281
     0
  0
BLOCK_RECORD
  5
7DAD
330
1
100
AcDbSymbolTableRecord
100
AcDbBlockTableRecord
  2
*D9
340
0
 70
     0
280
     1
281
     0
  0
BLOCK_RECORD
  5
7DB9
330
1
100
AcDbSymbolTableRecord
100
AcDbBlockTableRecord
  2
*D10
340
0
 70
     0
280
     1
281
     0
  0
BLOCK_RECORD
  5
7DC4
330
1
100
AcDbSymbolTableRecord
100
AcDbBlockTableRecord
  2
*D11
340
0
 70
     0
280
     1
281
     0
  0
BLOCK_RECORD
  5
7DD0
330
1
100
AcDbSymbolTableRecord
100
AcDbBlockTableRecord
  2
*D12
340
0
 70
     0
280
     1
281
     0
  0
BLOCK_RECORD
  5
7DDC
330
1
100
AcDbSymbolTableRecord
100
AcDbBlockTableRecord
  2
*D13
340
0
 70
     0
280
     1
281
     0
  0
BLOCK_RECORD
  5
7DE8
330
1
100
AcDbSymbolTableRecord
100
AcDbBlockTableRecord
  2
*D14
340
0
 70
     0
280
     1
281
     0
  0
BLOCK_RECORD
  5
7DF3
330
1
100
AcDbSymbolTableRecord
100
AcDbBlockTableRecord
  2
*D15
340
0
 70
     0
280
     1
281
     0
  0
BLOCK_RECORD
  5
7F60
330
1
100
AcDbSymbolTableRecord
100
AcDbBlockTableRecord
  2
*D16
340
0
 70
     0
280
     1
281
     0
  0
BLOCK_RECORD
  5
7F95
330
1
100
AcDbSymbolTableRecord
100
AcDbBlockTableRecord
  2
_DOT
340
0
102
{BLKREFS
331
80C2
102
}
 70
     0
280
     1
281
     0
  0
BLOCK_RECORD
  5
8010
330
1
100
AcDbSymbolTableRecord
100
AcDbBlockTableRecord
  2
*D18
340
0
 70
     0
280
     1
281
     0
  0
BLOCK_RECORD
  5
801D
330
1
100
AcDbSymbolTableRecord
100
AcDbBlockTableRecord
  2
*D19
340
0
 70
     0
280
     1
281
     0
  0
BLOCK_RECORD
  5
802A
330
1
100
AcDbSymbolTableRecord
100
AcDbBlockTableRecord
  2
*D20
340
0
 70
     0
280
     1
281
     0
  0
BLOCK_RECORD
  5
8037
330
1
100
AcDbSymbolTableRecord
100
AcDbBlockTableRecord
  2
*D21
340
0
 70
     0
280
     1
281
     0
  0
BLOCK_RECORD
  5
8044
330
1
100
AcDbSymbolTableRecord
100
AcDbBlockTableRecord
  2
_NONE
340
0
 70
     0
280
     1
281
     0
  0
BLOCK_RECORD
  5
8048
330
1
100
AcDbSymbolTableRecord
100
AcDbBlockTableRecord
  2
*D23
340
0
 70
     0
280
     1
281
     0
  0
BLOCK_RECORD
  5
8053
330
1
100
AcDbSymbolTableRecord
100
AcDbBlockTableRecord
  2
*D24
340
0
 70
     0
280
     1
281
     0
  0
ENDTAB
  0
ENDSEC
  0
SECTION
  2
BLOCKS
  0
BLOCK
  5
1A
330
19
100
AcDbEntity
  8
0
100
AcDbBlockBegin
  2
*MODEL_SPACE
 70
     0
 10
0.0
 20
0.0
 30
0.0
  3
*MODEL_SPACE
  1

  0
ENDBLK
  5
1B
330
19
100
AcDbEntity
  8
0
100
AcDbBlockEnd
  0
BLOCK
  5
17
330
16
100
AcDbEntity
 67
     1
  8
0
100
AcDbBlockBegin
  2
*PAPER_SPACE
 70
     0
 10
0.0
 20
0.0
 30
0.0
  3
*PAPER_SPACE
  1

  0
ENDBLK
  5
18
330
16
100
AcDbEntity
 67
     1
  8
0
100
AcDbBlockEnd
  0
BLOCK
  5
7A00
330
79FC
100
AcDbEntity
  8
0
100
AcDbBlockBegin
  2
_OPEN
 70
     0
 10
0.0
 20
0.0
 30
0.0
  3
_OPEN
  1

  0
LINE
  5
79FD
330
79FC
100
AcDbEntity
  8
0
  6
ByBlock
 62
     0
100
AcDbLine
 10
-1.0
 20
0.1666666666666666
 30
0.0
 11
0.0
 21
0.0
 31
0.0
  0
LINE
  5
79FE
330
79FC
100
AcDbEntity
  8
0
  6
ByBlock
 62
     0
100
AcDbLine
 10
0.0
 20
0.0
 30
0.0
 11
-1.0
 21
-0.1666666666666666
 31
0.0
  0
LINE
  5
79FF
330
79FC
100
AcDbEntity
  8
0
  6
ByBlock
 62
     0
100
AcDbLine
 10
0.0
 20
0.0
 30
0.0
 11
-1.0
 21
0.0
 31
0.0
  0
ENDBLK
  5
7A01
330
79FC
100
AcDbEntity
  8
0
100
AcDbBlockEnd
  0
BLOCK
  5
7E0B
330
7CEE
100
AcDbEntity
  8
0
100
AcDbBlockBegin
  2
*D1
 70
     1
 10
0.0
 20
0.0
 30
0.0
  3
*D1
  1

  0
LINE
  5
7E0C
330
7CEE
100
AcDbEntity
  8
0
  6
ByBlock
440
 16777216
100
AcDbLine
 10
1520.774385032938
 20
1469.732634008197
 30
0.0
 11
1520.774385032938
 21
1625.229503562232
 31
0.0
  0
LINE
  5
7E0D
330
7CEE
100
AcDbEntity
  8
0
  6
ByBlock
440
 16777216
100
AcDbLine
 10
940.7743850329378
 20
1469.732634008198
 30
0.0
 11
940.7743850329378
 21
1625.229503562232
 31
0.0
  0
LINE
  5
7E0E
330
7CEE
100
AcDbEntity
  8
0
  6
ByBlock
440
 16777216
100
AcDbLine
 10
1480.774385032938
 20
1605.229503562232
 30
0.0
 11
980.7743850329378
 21
1605.229503562232
 31
0.0
  0
INSERT
  5
7E0F
330
7CEE
100
AcDbEntity
  8
0
  6
ByBlock
440
 16777216
100
AcDbBlockReference
  2
_OPEN
 10
1520.774385032938
 20
1605.229503562232
 30
0.0
 41
40.0
 42
40.0
 43
40.0
  0
INSERT
  5
7E10
330
7CEE
100
AcDbEntity
  8
0
  6
ByBlock
440
 16777216
100
AcDbBlockReference
  2
_OPEN
 10
940.7743850329378
 20
1605.229503562232
 30
0.0
 41
40.0
 42
40.0
 43
40.0
 50
180.0
  0
MTEXT
  5
7E11
330
7CEE
100
AcDbEntity
  8
0
  6
ByBlock
440
 16777216
100
AcDbMText
 10
1230.774385032938
 20
1645.229503562232
 30
0.0
 40
60.0
 41
0.0
 46
0.0
 71
     5
 72
     5
  1
\A1;580
 73
     1
 44
1.0
  0
POINT
  5
7E12
330
7CEE
100
AcDbEntity
  8
DEFPOINTS
  6
ByBlock
 62
     0
440
 16777216
100
AcDbPoint
 10
1520.774385032938
 20
1449.732634008198
 30
0.0
  0
POINT
  5
7E13
330
7CEE
100
AcDbEntity
  8
DEFPOINTS
  6
ByBlock
 62
     0
440
 16777216
100
AcDbPoint
 10
940.7743850329378
 20
1449.732634008198
 30
0.0
  0
POINT
  5
7E14
330
7CEE
100
AcDbEntity
  8
DEFPOINTS
  6
ByBlock
 62
     0
440
 16777216
100
AcDbPoint
 10
940.7743850329378
 20
1605.229503562232
 30
0.0
  0
ENDBLK
  5
7E15
330
7CEE
100
AcDbEntity
  8
0
100
AcDbBlockEnd
  0
BLOCK
  5
7E16
330
7CFA
100
AcDbEntity
  8
0
100
AcDbBlockBegin
  2
*D2
 70
     1
 10
0.0
 20
0.0
 30
0.0
  3
*D2
  1

  0
LINE
  5
7E17
330
7CFA
100
AcDbEntity
  8
0
  6
ByBlock
440
 16777216
100
AcDbLine
 10
1520.774385032938
 20
1481.732634008197
 30
0.0
 11
1520.774385032938
 21
1751.649356972287
 31
0.0
  0
LINE
  5
7E18
330
7CFA
100
AcDbEntity
  8
0
  6
ByBlock
440
 16777216
100
AcDbLine
 10
920.7743850329379
 20
1513.332258573456
 30
0.0
 11
920.7743850329379
 21
1751.649356972287
 31
0.0
  0
LINE
  5
7E19
330
7CFA
100
AcDbEntity
  8
0
  6
ByBlock
440
 16777216
100
AcDbLine
 10
1480.774385032938
 20
1731.649356972287
 30
0.0
 11
960.7743850329379
 21
1731.649356972287
 31
0.0
  0
INSERT
  5
7E1A
330
7CFA
100
AcDbEntity
  8
0
  6
ByBlock
440
 16777216
100
AcDbBlockReference
  2
_OPEN
 10
1520.774385032938
 20
1731.649356972287
 30
0.0
 41
40.0
 42
40.0
 43
40.0
  0
INSERT
  5
7E1B
330
7CFA
100
AcDbEntity
  8
0
  6
ByBlock
440
 16777216
100
AcDbBlockReference
  2
_OPEN
 10
920.7743850329379
 20
1731.649356972287
 30
0.0
 41
40.0
 42
40.0
 43
40.0
 50
180.0
  0
MTEXT
  5
7E1C
330
7CFA
100
AcDbEntity
  8
0
  6
ByBlock
440
 16777216
100
AcDbMText
 10
1220.774385032938
 20
1771.649356972287
 30
0.0
 40
60.0
 41
0.0
 46
0.0
 71
     5
 72
     5
  1
\A1;600
 73
     1
 44
1.0
  0
POINT
  5
7E1D
330
7CFA
100
AcDbEntity
  8
DEFPOINTS
  6
ByBlock
 62
     0
440
 16777216
100
AcDbPoint
 10
1520.774385032938
 20
1461.732634008197
 30
0.0
  0
POINT
  5
7E1E
330
7CFA
100
AcDbEntity
  8
DEFPOINTS
  6
ByBlock
 62
     0
440
 16777216
100
AcDbPoint
 10
920.7743850329379
 20
1493.332258573456
 30
0.0
  0
POINT
  5
7E1F
330
7CFA
100
AcDbEntity
  8
DEFPOINTS
  6
ByBlock
 62
     0
440
 16777216
100
AcDbPoint
 10
920.7743850329379
 20
1731.649356972287
 30
0.0
  0
ENDBLK
  5
7E20
330
7CFA
100
AcDbEntity
  8
0
100
AcDbBlockEnd
  0
BLOCK
  5
7E21
330
7D06
100
AcDbEntity
  8
0
100
AcDbBlockBegin
  2
*D3
 70
     1
 10
0.0
 20
0.0
 30
0.0
  3
*D3
  1

  0
LINE
  5
7E22
330
7D06
100
AcDbEntity
  8
0
  6
ByBlock
440
 16777216
100
AcDbLine
 10
3512.906635817507
 20
1339.732634008198
 30
0.0
 11
3713.31995148206
 21
1339.732634008198
 31
0.0
  0
LINE
  5
7E23
330
7D06
100
AcDbEntity
  8
0
  6
ByBlock
440
 16777216
100
AcDbLine
 10
3512.906635817507
 20
779.7326340081976
 30
0.0
 11
3713.31995148206
 21
779.7326340081976
 31
0.0
  0
LINE
  5
7E24
330
7D06
100
AcDbEntity
  8
0
  6
ByBlock
440
 16777216
100
AcDbLine
 10
3693.31995148206
 20
1299.732634008198
 30
0.0
 11
3693.31995148206
 21
819.7326340081977
 31
0.0
  0
INSERT
  5
7E25
330
7D06
100
AcDbEntity
  8
0
  6
ByBlock
440
 16777216
100
AcDbBlockReference
  2
_OPEN
 10
3693.31995148206
 20
1339.732634008198
 30
0.0
 41
40.0
 42
40.0
 43
40.0
 50
90.0
  0
INSERT
  5
7E26
330
7D06
100
AcDbEntity
  8
0
  6
ByBlock
440
 16777216
100
AcDbBlockReference
  2
_OPEN
 10
3693.31995148206
 20
779.7326340081976
 30
0.0
 41
40.0
 42
40.0
 43
40.0
 50
270.0
  0
MTEXT
  5
7E27
330
7D06
100
AcDbEntity
  8
0
  6
ByBlock
440
 16777216
100
AcDbMText
 10
3653.31995148206
 20
1059.732634008198
 30
0.0
 40
60.0
 41
0.0
 46
0.0
 71
     5
 72
     5
  1
\A1;φ 560
 11
0.0
 21
1.0
 31
0.0
 73
     1
 44
1.0
  0
POINT
  5
7E28
330
7D06
100
AcDbEntity
  8
DEFPOINTS
  6
ByBlock
 62
     0
440
 16777216
100
AcDbPoint
 10
3492.906635817507
 20
1339.732634008198
 30
0.0
  0
POINT
  5
7E29
330
7D06
100
AcDbEntity
  8
DEFPOINTS
  6
ByBlock
 62
     0
440
 16777216
100
AcDbPoint
 10
3492.906635817507
 20
779.7326340081976
 30
0.0
  0
POINT
  5
7E2A
330
7D06
100
AcDbEntity
  8
DEFPOINTS
  6
ByBlock
 62
     0
440
 16777216
100
AcDbPoint
 10
3693.31995148206
 20
779.7326340081976
 30
0.0
  0
ENDBLK
  5
7E2B
330
7D06
100
AcDbEntity
  8
0
100
AcDbBlockEnd
  0
BLOCK
  5
7E6C
330
7D58
100
AcDbEntity
  8
0
100
AcDbBlockBegin
  2
*D4
 70
     1
 10
0.0
 20
0.0
 30
0.0
  3
*D4
  1

  0
LINE
  5
7E6D
330
7D58
100
AcDbEntity
  8
0
  6
ByBlock
440
 16777216
100
AcDbLine
 10
2740.906635817508
 20
1469.732634008198
 30
0.0
 11
2740.906635817508
 21
1559.684429060102
 31
0.0
  0
LINE
  5
7E6E
330
7D58
100
AcDbEntity
  8
0
  6
ByBlock
440
 16777216
100
AcDbLine
 10
3490.906635817508
 20
1469.732634008198
 30
0.0
 11
3490.906635817508
 21
1559.684429060102
 31
0.0
  0
LINE
  5
7E6F
330
7D58
100
AcDbEntity
  8
0
  6
ByBlock
440
 16777216
100
AcDbLine
 10
2780.906635817508
 20
1539.684429060102
 30
0.0
 11
3450.906635817509
 21
1539.684429060102
 31
0.0
  0
INSERT
  5
7E70
330
7D58
100
AcDbEntity
  8
0
  6
ByBlock
440
 16777216
100
AcDbBlockReference
  2
_OPEN
 10
2740.906635817508
 20
1539.684429060102
 30
0.0
 41
40.0
 42
40.0
 43
40.0
 50
180.0
  0
INSERT
  5
7E71
330
7D58
100
AcDbEntity
  8
0
  6
ByBlock
440
 16777216
100
AcDbBlockReference
  2
_OPEN
 10
3490.906635817508
 20
1539.684429060102
 30
0.0
 41
40.0
 42
40.0
 43
40.0
  0
MTEXT
  5
7E72
330
7D58
100
AcDbEntity
  8
0
  6
ByBlock
440
 16777216
100
AcDbMText
 10
3115.906635817508
 20
1579.684429060102
 30
0.0
 40
60.0
 41
0.0
 46
0.0
 71
     5
 72
     5
  1
\A1;750
 73
     1
 44
1.0
  0
POINT
  5
7E73
330
7D58
100
AcDbEntity
  8
DEFPOINTS
  6
ByBlock
 62
     0
440
 16777216
100
AcDbPoint
 10
2740.906635817508
 20
1449.732634008198
 30
0.0
  0
POINT
  5
7E74
330
7D58
100
AcDbEntity
  8
DEFPOINTS
  6
ByBlock
 62
     0
440
 16777216
100
AcDbPoint
 10
3490.906635817508
 20
1449.732634008198
 30
0.0
  0
POINT
  5
7E75
330
7D58
100
AcDbEntity
  8
DEFPOINTS
  6
ByBlock
 62
     0
440
 16777216
100
AcDbPoint
 10
3490.906635817508
 20
1539.684429060102
 30
0.0
  0
ENDBLK
  5
7E76
330
7D58
100
AcDbEntity
  8
0
100
AcDbBlockEnd
  0
BLOCK
  5
7E77
330
7D64
100
AcDbEntity
  8
0
100
AcDbBlockBegin
  2
*D5
 70
     1
 10
0.0
 20
0.0
 30
0.0
  3
*D5
  1

  0
LINE
  5
8155
330
7D64
100
AcDbEntity
  8
3
440
 16777216
370
    -2
100
AcDbLine
 10
3839.367632448949
 20
2040.070551816308
 30
0.0
 11
3839.367632448949
 21
2715.323487539223
 31
0.0
  0
LINE
  5
8156
330
7D64
100
AcDbEntity
  8
3
440
 16777216
370
    -2
100
AcDbLine
 10
3369.367632448948
 20
2638.723304077235
 30
0.0
 11
3369.367632448948
 21
2715.323487539223
 31
0.0
  0
LINE
  5
8157
330
7D64
100
AcDbEntity
  8
3
440
 16777216
370
    -2
100
AcDbLine
 10
3799.367632448948
 20
2695.323487539223
 30
0.0
 11
3409.367632448948
 21
2695.323487539223
 31
0.0
  0
INSERT
  5
8158
330
7D64
100
AcDbEntity
  8
3
440
 16777216
370
    -2
100
AcDbBlockReference
  2
_OPEN
 10
3839.367632448949
 20
2695.323487539223
 30
0.0
 41
40.0
 42
40.0
 43
40.0
  0
INSERT
  5
8159
330
7D64
100
AcDbEntity
  8
3
440
 16777216
370
    -2
100
AcDbBlockReference
  2
_OPEN
 10
3369.367632448948
 20
2695.323487539223
 30
0.0
 41
40.0
 42
40.0
 43
40.0
 50
180.0
  0
MTEXT
  5
815A
330
7D64
100
AcDbEntity
  8
3
440
 16777216
100
AcDbMText
 10
3604.367632448948
 20
2751.037773253509
 30
0.0
 40
60.0
 41
0.0
 46
0.0
 71
     5
 72
     1
  1
\A1;(470)
 73
     1
 44
1.0
  0
POINT
  5
815B
330
7D64
100
AcDbEntity
  8
DEFPOINTS
 62
     0
440
 16777216
100
AcDbPoint
 10
3839.367632448949
 20
2020.070551816308
 30
0.0
  0
POINT
  5
815C
330
7D64
100
AcDbEntity
  8
DEFPOINTS
 62
     0
440
 16777216
100
AcDbPoint
 10
3369.367632448948
 20
2618.723304077235
 30
0.0
  0
POINT
  5
815D
330
7D64
100
AcDbEntity
  8
DEFPOINTS
 62
     0
440
 16777216
100
AcDbPoint
 10
3369.367632448948
 20
2695.323487539223
 30
0.0
  0
ENDBLK
  5
7E81
330
7D64
100
AcDbEntity
  8
0
100
AcDbBlockEnd
  0
BLOCK
  5
7E82
330
7D70
100
AcDbEntity
  8
0
100
AcDbBlockBegin
  2
*D6
 70
     1
 10
0.0
 20
0.0
 30
0.0
  3
*D6
  1

  0
LINE
  5
809D
330
7D70
100
AcDbEntity
  8
3
440
 16777216
100
AcDbLine
 10
799.2353816643771
 20
1517.970551816308
 30
0.0
 11
609.4330725594427
 21
1517.970551816308
 31
0.0
  0
LINE
  5
809E
330
7D70
100
AcDbEntity
  8
3
440
 16777216
100
AcDbLine
 10
629.4330725594428
 20
2032.970551816308
 30
0.0
 11
629.4330725594427
 21
1557.970551816308
 31
0.0
  0
INSERT
  5
809F
330
7D70
100
AcDbEntity
  8
3
440
 16777216
100
AcDbBlockReference
  2
_OPEN
 10
629.4330725594428
 20
2072.970551816308
 30
0.0
 41
40.0
 42
40.0
 43
40.0
 50
90.0
  0
INSERT
  5
80A0
330
7D70
100
AcDbEntity
  8
3
440
 16777216
100
AcDbBlockReference
  2
_OPEN
 10
629.4330725594427
 20
1517.970551816308
 30
0.0
 41
40.0
 42
40.0
 43
40.0
 50
270.0
  0
MTEXT
  5
80A1
330
7D70
100
AcDbEntity
  8
3
440
 16777216
100
AcDbMText
 10
589.4330725594425
 20
1795.470551816308
 30
0.0
 40
60.0
 41
0.0
 46
0.0
 71
     5
 72
     5
  1
\A1;555
 11
0.0000000000000001
 21
1.0
 31
0.0
 73
     1
 44
1.0
  0
POINT
  5
80A2
330
7D70
100
AcDbEntity
  8
DEFPOINTS
 62
     0
440
 16777216
100
AcDbPoint
 10
740.6357570991185
 20
2072.970551816308
 30
0.0
  0
POINT
  5
80A3
330
7D70
100
AcDbEntity
  8
DEFPOINTS
 62
     0
440
 16777216
100
AcDbPoint
 10
819.2353816643771
 20
1517.970551816308
 30
0.0
  0
POINT
  5
80A4
330
7D70
100
AcDbEntity
  8
DEFPOINTS
 62
     0
440
 16777216
100
AcDbPoint
 10
629.4330725594427
 20
1517.970551816308
 30
0.0
  0
ENDBLK
  5
7E8B
330
7D70
100
AcDbEntity
  8
0
100
AcDbBlockEnd
  0
BLOCK
  5
7FFE
330
7D96
100
AcDbEntity
  8
0
100
AcDbBlockBegin
  2
*D7
 70
     1
 10
0.0
 20
0.0
 30
0.0
  3
*D7
  1

  0
LINE
  5
815E
330
7D96
100
AcDbEntity
  8
3
440
 16777216
370
    -2
100
AcDbLine
 10
2689.367632448948
 20
2312.970551816308
 30
0.0
 11
2689.367632448948
 21
2715.323487539223
 31
0.0
  0
LINE
  5
815F
330
7D96
100
AcDbEntity
  8
3
440
 16777216
370
    -2
100
AcDbLine
 10
3329.367632448948
 20
2695.323487539223
 30
0.0
 11
2729.367632448948
 21
2695.323487539223
 31
0.0
  0
INSERT
  5
8160
330
7D96
100
AcDbEntity
  8
3
440
 16777216
370
    -2
100
AcDbBlockReference
  2
_OPEN
 10
3369.367632448948
 20
2695.323487539223
 30
0.0
 41
40.0
 42
40.0
 43
40.0
  0
INSERT
  5
8161
330
7D96
100
AcDbEntity
  8
3
440
 16777216
370
    -2
100
AcDbBlockReference
  2
_OPEN
 10
2689.367632448948
 20
2695.323487539223
 30
0.0
 41
40.0
 42
40.0
 43
40.0
 50
180.0
  0
MTEXT
  5
8162
330
7D96
100
AcDbEntity
  8
3
440
 16777216
100
AcDbMText
 10
3029.367632448948
 20
2751.037773253509
 30
0.0
 40
60.0
 41
0.0
 46
0.0
 71
     5
 72
     1
  1
\A1;(680)
 73
     1
 44
1.0
  0
POINT
  5
8163
330
7D96
100
AcDbEntity
  8
DEFPOINTS
 62
     0
440
 16777216
100
AcDbPoint
 10
3369.367632448948
 20
2618.723304077235
 30
0.0
  0
POINT
  5
8164
330
7D96
100
AcDbEntity
  8
DEFPOINTS
 62
     0
440
 16777216
100
AcDbPoint
 10
2689.367632448948
 20
2292.970551816308
 30
0.0
  0
POINT
  5
8165
330
7D96
100
AcDbEntity
  8
DEFPOINTS
 62
     0
440
 16777216
100
AcDbPoint
 10
2689.367632448948
 20
2695.323487539223
 30
0.0
  0
ENDBLK
  5
8007
330
7D96
100
AcDbEntity
  8
0
100
AcDbBlockEnd
  0
BLOCK
  5
7EAF
330
7DA1
100
AcDbEntity
  8
0
100
AcDbBlockBegin
  2
*D8
 70
     1
 10
0.0
 20
0.0
 30
0.0
  3
*D8
  1

  0
LINE
  5
7EB0
330
7DA1
100
AcDbEntity
  8
0
  6
ByBlock
440
 16777216
100
AcDbLine
 10
545.774385032938
 20
3574.073535835267
 30
0.0
 11
349.1807869812233
 21
3574.073535835267
 31
0.0
  0
LINE
  5
7EB1
330
7DA1
100
AcDbEntity
  8
0
  6
ByBlock
440
 16777216
100
AcDbLine
 10
545.7743850329375
 20
2649.073535835267
 30
0.0
 11
349.1807869812233
 21
2649.073535835267
 31
0.0
  0
LINE
  5
7EB2
330
7DA1
100
AcDbEntity
  8
0
  6
ByBlock
440
 16777216
100
AcDbLine
 10
369.1807869812233
 20
3534.073535835267
 30
0.0
 11
369.1807869812233
 21
2689.073535835267
 31
0.0
  0
INSERT
  5
7EB3
330
7DA1
100
AcDbEntity
  8
0
  6
ByBlock
440
 16777216
100
AcDbBlockReference
  2
_OPEN
 10
369.1807869812233
 20
3574.073535835267
 30
0.0
 41
40.0
 42
40.0
 43
40.0
 50
90.0
  0
INSERT
  5
7EB4
330
7DA1
100
AcDbEntity
  8
0
  6
ByBlock
440
 16777216
100
AcDbBlockReference
  2
_OPEN
 10
369.1807869812233
 20
2649.073535835267
 30
0.0
 41
40.0
 42
40.0
 43
40.0
 50
270.0
  0
MTEXT
  5
7EB5
330
7DA1
100
AcDbEntity
  8
0
  6
ByBlock
440
 16777216
100
AcDbMText
 10
329.1807869812233
 20
3111.573535835267
 30
0.0
 40
60.0
 41
0.0
 46
0.0
 71
     5
 72
     5
  1
\A1;925
 11
0.0
 21
1.0
 31
0.0
 73
     1
 44
1.0
  0
POINT
  5
7EB6
330
7DA1
100
AcDbEntity
  8
DEFPOINTS
  6
ByBlock
 62
     0
440
 16777216
100
AcDbPoint
 10
565.774385032938
 20
3574.073535835267
 30
0.0
  0
POINT
  5
7EB7
330
7DA1
100
AcDbEntity
  8
DEFPOINTS
  6
ByBlock
 62
     0
440
 16777216
100
AcDbPoint
 10
565.7743850329374
 20
2649.073535835267
 30
0.0
  0
POINT
  5
7EB8
330
7DA1
100
AcDbEntity
  8
DEFPOINTS
  6
ByBlock
 62
     0
440
 16777216
100
AcDbPoint
 10
369.1807869812233
 20
2649.073535835267
 30
0.0
  0
ENDBLK
  5
7EB9
330
7DA1
100
AcDbEntity
  8
0
100
AcDbBlockEnd
  0
BLOCK
  5
7EBA
330
7DAD
100
AcDbEntity
  8
0
100
AcDbBlockBegin
  2
*D9
 70
     1
 10
0.0
 20
0.0
 30
0.0
  3
*D9
  1

  0
LINE
  5
7EBB
330
7DAD
100
AcDbEntity
  8
0
  6
ByBlock
440
 16777216
100
AcDbLine
 10
565.774385032938
 20
3594.073535835267
 30
0.0
 11
565.774385032938
 21
3749.427487599592
 31
0.0
  0
LINE
  5
7EBC
330
7DAD
100
AcDbEntity
  8
0
  6
ByBlock
440
 16777216
100
AcDbLine
 10
1275.774385032938
 20
3594.073535835268
 30
0.0
 11
1275.774385032938
 21
3749.427487599592
 31
0.0
  0
LINE
  5
7EBD
330
7DAD
100
AcDbEntity
  8
0
  6
ByBlock
440
 16777216
100
AcDbLine
 10
605.7743850329379
 20
3729.427487599592
 30
0.0
 11
1235.774385032938
 21
3729.427487599592
 31
0.0
  0
INSERT
  5
7EBE
330
7DAD
100
AcDbEntity
  8
0
  6
ByBlock
440
 16777216
100
AcDbBlockReference
  2
_OPEN
 10
565.774385032938
 20
3729.427487599592
 30
0.0
 41
40.0
 42
40.0
 43
40.0
 50
180.0
  0
INSERT
  5
7EBF
330
7DAD
100
AcDbEntity
  8
0
  6
ByBlock
440
 16777216
100
AcDbBlockReference
  2
_OPEN
 10
1275.774385032938
 20
3729.427487599592
 30
0.0
 41
40.0
 42
40.0
 43
40.0
  0
MTEXT
  5
7EC0
330
7DAD
100
AcDbEntity
  8
0
  6
ByBlock
440
 16777216
100
AcDbMText
 10
920.774385032938
 20
3769.427487599593
 30
0.0
 40
60.0
 41
0.0
 46
0.0
 71
     5
 72
     5
  1
\A1;710
 73
     1
 44
1.0
  0
POINT
  5
7EC1
330
7DAD
100
AcDbEntity
  8
DEFPOINTS
  6
ByBlock
 62
     0
440
 16777216
100
AcDbPoint
 10
565.774385032938
 20
3574.073535835267
 30
0.0
  0
POINT
  5
7EC2
330
7DAD
100
AcDbEntity
  8
DEFPOINTS
  6
ByBlock
 62
     0
440
 16777216
100
AcDbPoint
 10
1275.774385032938
 20
3574.073535835267
 30
0.0
  0
POINT
  5
7EC3
330
7DAD
100
AcDbEntity
  8
DEFPOINTS
  6
ByBlock
 62
     0
440
 16777216
100
AcDbPoint
 10
1275.774385032938
 20
3729.427487599592
 30
0.0
  0
ENDBLK
  5
7EC4
330
7DAD
100
AcDbEntity
  8
0
100
AcDbBlockEnd
  0
BLOCK
  5
7EC5
330
7DB9
100
AcDbEntity
  8
0
100
AcDbBlockBegin
  2
*D10
 70
     1
 10
0.0
 20
0.0
 30
0.0
  3
*D10
  1

  0
LINE
  5
80AD
330
7DB9
100
AcDbEntity
  8
3
440
 16777216
100
AcDbLine
 10
2169.235381664378
 20
4071.220209319182
 30
0.0
 11
2169.235381664378
 21
4551.574161083508
 31
0.0
  0
LINE
  5
80AE
330
7DB9
100
AcDbEntity
  8
3
440
 16777216
100
AcDbLine
 10
1569.235381664378
 20
4531.574161083508
 30
0.0
 11
2129.235381664378
 21
4531.574161083508
 31
0.0
  0
INSERT
  5
80AF
330
7DB9
100
AcDbEntity
  8
3
440
 16777216
100
AcDbBlockReference
  2
_OPEN
 10
1529.235381664378
 20
4531.574161083508
 30
0.0
 41
40.0
 42
40.0
 43
40.0
 50
180.0
  0
INSERT
  5
80B0
330
7DB9
100
AcDbEntity
  8
3
440
 16777216
100
AcDbBlockReference
  2
_OPEN
 10
2169.235381664378
 20
4531.574161083508
 30
0.0
 41
40.0
 42
40.0
 43
40.0
  0
MTEXT
  5
80B1
330
7DB9
100
AcDbEntity
  8
3
440
 16777216
100
AcDbMText
 10
1849.235381664378
 20
4571.574161083509
 30
0.0
 40
60.0
 41
0.0
 46
0.0
 71
     5
 72
     5
  1
\A1;640
 73
     1
 44
1.0
  0
POINT
  5
80B2
330
7DB9
100
AcDbEntity
  8
DEFPOINTS
 62
     0
440
 16777216
100
AcDbPoint
 10
1529.235381664378
 20
4376.220209319182
 30
0.0
  0
POINT
  5
80B3
330
7DB9
100
AcDbEntity
  8
DEFPOINTS
 62
     0
440
 16777216
100
AcDbPoint
 10
2169.235381664378
 20
4051.220209319182
 30
0.0
  0
POINT
  5
80B4
330
7DB9
100
AcDbEntity
  8
DEFPOINTS
 62
     0
440
 16777216
100
AcDbPoint
 10
2169.235381664378
 20
4531.574161083508
 30
0.0
  0
ENDBLK
  5
7ECE
330
7DB9
100
AcDbEntity
  8
0
100
AcDbBlockEnd
  0
BLOCK
  5
7ECF
330
7DC4
100
AcDbEntity
  8
0
100
AcDbBlockBegin
  2
*D11
 70
     1
 10
0.0
 20
0.0
 30
0.0
  3
*D11
  1

  0
LINE
  5
7ED0
330
7DC4
100
AcDbEntity
  8
0
  6
ByBlock
440
 16777216
100
AcDbLine
 10
1935.774385032938
 20
3249.073535835267
 30
0.0
 11
2134.549116722141
 21
3249.073535835267
 31
0.0
  0
LINE
  5
7ED1
330
7DC4
100
AcDbEntity
  8
0
  6
ByBlock
440
 16777216
100
AcDbLine
 10
1935.774385032937
 20
2649.073535835267
 30
0.0
 11
2134.549116722141
 21
2649.073535835267
 31
0.0
  0
LINE
  5
7ED2
330
7DC4
100
AcDbEntity
  8
0
  6
ByBlock
440
 16777216
100
AcDbLine
 10
2114.549116722141
 20
3209.073535835267
 30
0.0
 11
2114.549116722141
 21
2689.073535835267
 31
0.0
  0
INSERT
  5
7ED3
330
7DC4
100
AcDbEntity
  8
0
  6
ByBlock
440
 16777216
100
AcDbBlockReference
  2
_OPEN
 10
2114.549116722141
 20
3249.073535835267
 30
0.0
 41
40.0
 42
40.0
 43
40.0
 50
90.0
  0
INSERT
  5
7ED4
330
7DC4
100
AcDbEntity
  8
0
  6
ByBlock
440
 16777216
100
AcDbBlockReference
  2
_OPEN
 10
2114.549116722141
 20
2649.073535835267
 30
0.0
 41
40.0
 42
40.0
 43
40.0
 50
270.0
  0
MTEXT
  5
7ED5
330
7DC4
100
AcDbEntity
  8
0
  6
ByBlock
440
 16777216
100
AcDbMText
 10
2074.54911672214
 20
2949.073535835267
 30
0.0
 40
60.0
 41
0.0
 46
0.0
 71
     5
 72
     5
  1
\A1;600
 11
0.0
 21
1.0
 31
0.0
 73
     1
 44
1.0
  0
POINT
  5
7ED6
330
7DC4
100
AcDbEntity
  8
DEFPOINTS
  6
ByBlock
 62
     0
440
 16777216
100
AcDbPoint
 10
1915.774385032938
 20
3249.073535835267
 30
0.0
  0
POINT
  5
7ED7
330
7DC4
100
AcDbEntity
  8
DEFPOINTS
  6
ByBlock
 62
     0
440
 16777216
100
AcDbPoint
 10
1915.774385032937
 20
2649.073535835267
 30
0.0
  0
POINT
  5
7ED8
330
7DC4
100
AcDbEntity
  8
DEFPOINTS
  6
ByBlock
 62
     0
440
 16777216
100
AcDbPoint
 10
2114.549116722141
 20
2649.073535835267
 30
0.0
  0
ENDBLK
  5
7ED9
330
7DC4
100
AcDbEntity
  8
0
100
AcDbBlockEnd
  0
BLOCK
  5
7EDA
330
7DD0
100
AcDbEntity
  8
0
100
AcDbBlockBegin
  2
*D12
 70
     1
 10
0.0
 20
0.0
 30
0.0
  3
*D12
  1

  0
LINE
  5
7EDB
330
7DD0
100
AcDbEntity
  8
0
  6
ByBlock
440
 16777216
100
AcDbLine
 10
1915.774385032937
 20
2629.073535835267
 30
0.0
 11
1915.774385032937
 21
2194.045082035846
 31
0.0
  0
LINE
  5
7EDC
330
7DD0
100
AcDbEntity
  8
0
  6
ByBlock
440
 16777216
100
AcDbLine
 10
565.7743850329374
 20
2629.073535835268
 30
0.0
 11
565.7743850329374
 21
2194.045082035846
 31
0.0
  0
LINE
  5
7EDD
330
7DD0
100
AcDbEntity
  8
0
  6
ByBlock
440
 16777216
100
AcDbLine
 10
1875.774385032937
 20
2214.045082035846
 30
0.0
 11
605.7743850329375
 21
2214.045082035846
 31
0.0
  0
INSERT
  5
7EDE
330
7DD0
100
AcDbEntity
  8
0
  6
ByBlock
440
 16777216
100
AcDbBlockReference
  2
_OPEN
 10
1915.774385032937
 20
2214.045082035846
 30
0.0
 41
40.0
 42
40.0
 43
40.0
  0
INSERT
  5
7EDF
330
7DD0
100
AcDbEntity
  8
0
  6
ByBlock
440
 16777216
100
AcDbBlockReference
  2
_OPEN
 10
565.7743850329374
 20
2214.045082035846
 30
0.0
 41
40.0
 42
40.0
 43
40.0
 50
180.0
  0
MTEXT
  5
7EE0
330
7DD0
100
AcDbEntity
  8
0
  6
ByBlock
440
 16777216
100
AcDbMText
 10
1240.774385032937
 20
2254.045082035846
 30
0.0
 40
60.0
 41
0.0
 46
0.0
 71
     5
 72
     5
  1
\A1;1350
 73
     1
 44
1.0
  0
POINT
  5
7EE1
330
7DD0
100
AcDbEntity
  8
DEFPOINTS
  6
ByBlock
 62
     0
440
 16777216
100
AcDbPoint
 10
1915.774385032937
 20
2649.073535835267
 30
0.0
  0
POINT
  5
7EE2
330
7DD0
100
AcDbEntity
  8
DEFPOINTS
  6
ByBlock
 62
     0
440
 16777216
100
AcDbPoint
 10
565.7743850329374
 20
2649.073535835267
 30
0.0
  0
POINT
  5
7EE3
330
7DD0
100
AcDbEntity
  8
DEFPOINTS
  6
ByBlock
 62
     0
440
 16777216
100
AcDbPoint
 10
565.7743850329374
 20
2214.045082035846
 30
0.0
  0
ENDBLK
  5
7EE4
330
7DD0
100
AcDbEntity
  8
0
100
AcDbBlockEnd
  0
BLOCK
  5
7EE5
330
7DDC
100
AcDbEntity
  8
0
100
AcDbBlockBegin
  2
*D13
 70
     1
 10
0.0
 20
0.0
 30
0.0
  3
*D13
  1

  0
LINE
  5
7EE6
330
7DDC
100
AcDbEntity
  8
0
  6
ByBlock
440
 16777216
100
AcDbLine
 10
888.7743850329378
 20
1449.732634008198
 30
0.0
 11
356.4736767178952
 21
1449.732634008198
 31
0.0
  0
LINE
  5
7EE7
330
7DDC
100
AcDbEntity
  8
0
  6
ByBlock
440
 16777216
100
AcDbLine
 10
510.4350358449996
 20
1059.732634008198
 30
0.0
 11
356.4736767178952
 21
1059.732634008198
 31
0.0
  0
LINE
  5
7EE8
330
7DDC
100
AcDbEntity
  8
0
  6
ByBlock
440
 16777216
100
AcDbLine
 10
376.4736767178952
 20
1409.732634008198
 30
0.0
 11
376.4736767178952
 21
1099.732634008198
 31
0.0
  0
INSERT
  5
7EE9
330
7DDC
100
AcDbEntity
  8
0
  6
ByBlock
440
 16777216
100
AcDbBlockReference
  2
_OPEN
 10
376.4736767178952
 20
1449.732634008198
 30
0.0
 41
40.0
 42
40.0
 43
40.0
 50
90.0
  0
INSERT
  5
7EEA
330
7DDC
100
AcDbEntity
  8
0
  6
ByBlock
440
 16777216
100
AcDbBlockReference
  2
_OPEN
 10
376.4736767178952
 20
1059.732634008198
 30
0.0
 41
40.0
 42
40.0
 43
40.0
 50
270.0
  0
MTEXT
  5
7EEB
330
7DDC
100
AcDbEntity
  8
0
  6
ByBlock
440
 16777216
100
AcDbMText
 10
336.4736767178952
 20
1254.732634008198
 30
0.0
 40
60.0
 41
0.0
 46
0.0
 71
     5
 72
     5
  1
\A1;390
 11
0.0
 21
1.0
 31
0.0
 73
     1
 44
1.0
  0
POINT
  5
7EEC
330
7DDC
100
AcDbEntity
  8
DEFPOINTS
  6
ByBlock
 62
     0
440
 16777216
100
AcDbPoint
 10
908.7743850329378
 20
1449.732634008198
 30
0.0
  0
POINT
  5
7EED
330
7DDC
100
AcDbEntity
  8
DEFPOINTS
  6
ByBlock
 62
     0
440
 16777216
100
AcDbPoint
 10
530.4350358449997
 20
1059.732634008198
 30
0.0
  0
POINT
  5
7EEE
330
7DDC
100
AcDbEntity
  8
DEFPOINTS
  6
ByBlock
 62
     0
440
 16777216
100
AcDbPoint
 10
376.4736767178952
 20
1059.732634008198
 30
0.0
  0
ENDBLK
  5
7EEF
330
7DDC
100
AcDbEntity
  8
0
100
AcDbBlockEnd
  0
BLOCK
  5
7EF0
330
7DE8
100
AcDbEntity
  8
0
100
AcDbBlockBegin
  2
*D14
 70
     1
 10
0.0
 20
0.0
 30
0.0
  3
*D14
  1

  0
LINE
  5
80B5
330
7DE8
100
AcDbEntity
  8
3
440
 16777216
100
AcDbLine
 10
772.5612397927107
 20
2050.970551816309
 30
0.0
 11
772.5612397927107
 21
2764.887274780397
 31
0.0
  0
LINE
  5
80B6
330
7DE8
100
AcDbEntity
  8
3
440
 16777216
100
AcDbLine
 10
1134.235381664378
 20
2744.887274780397
 30
0.0
 11
812.5612397927106
 21
2744.887274780397
 31
0.0
  0
INSERT
  5
80B7
330
7DE8
100
AcDbEntity
  8
3
440
 16777216
100
AcDbBlockReference
  2
_OPEN
 10
1174.235381664378
 20
2744.887274780397
 30
0.0
 41
40.0
 42
40.0
 43
40.0
  0
INSERT
  5
80B8
330
7DE8
100
AcDbEntity
  8
3
440
 16777216
100
AcDbBlockReference
  2
_OPEN
 10
772.5612397927107
 20
2744.887274780397
 30
0.0
 41
40.0
 42
40.0
 43
40.0
 50
180.0
  0
MTEXT
  5
80B9
330
7DE8
100
AcDbEntity
  8
3
440
 16777216
100
AcDbMText
 10
973.3983107285444
 20
2784.887274780397
 30
0.0
 40
60.0
 41
0.0
 46
0.0
 71
     5
 72
     5
  1
\A1;400
 73
     1
 44
1.0
  0
POINT
  5
80BA
330
7DE8
100
AcDbEntity
  8
DEFPOINTS
 62
     0
440
 16777216
100
AcDbPoint
 10
1174.235381664378
 20
2506.570176381566
 30
0.0
  0
POINT
  5
80BB
330
7DE8
100
AcDbEntity
  8
DEFPOINTS
 62
     0
440
 16777216
100
AcDbPoint
 10
772.5612397927107
 20
2030.970551816308
 30
0.0
  0
POINT
  5
80BC
330
7DE8
100
AcDbEntity
  8
DEFPOINTS
 62
     0
440
 16777216
100
AcDbPoint
 10
772.5612397927107
 20
2744.887274780397
 30
0.0
  0
ENDBLK
  5
7EF9
330
7DE8
100
AcDbEntity
  8
0
100
AcDbBlockEnd
  0
BLOCK
  5
7EFA
330
7DF3
100
AcDbEntity
  8
0
100
AcDbBlockBegin
  2
*D15
 70
     1
 10
0.0
 20
0.0
 30
0.0
  3
*D15
  1

  0
LINE
  5
7EFB
330
7DF3
100
AcDbEntity
  8
0
  6
ByBlock
440
 16777216
100
AcDbLine
 10
519.100243161271
 20
1037.732634008198
 30
0.0
 11
519.100243161271
 21
1865.832152144642
 31
0.0
  0
LINE
  5
7EFC
330
7DF3
100
AcDbEntity
  8
0
  6
ByBlock
440
 16777216
100
AcDbLine
 10
1915.774385032937
 20
599.7326340081972
 30
0.0
 11
1915.774385032937
 21
1865.832152144642
 31
0.0
  0
LINE
  5
7EFD
330
7DF3
100
AcDbEntity
  8
0
  6
ByBlock
440
 16777216
100
AcDbLine
 10
559.100243161271
 20
1845.832152144642
 30
0.0
 11
1875.774385032937
 21
1845.832152144642
 31
0.0
  0
INSERT
  5
7EFE
330
7DF3
100
AcDbEntity
  8
0
  6
ByBlock
440
 16777216
100
AcDbBlockReference
  2
_OPEN
 10
519.100243161271
 20
1845.832152144642
 30
0.0
 41
40.0
 42
40.0
 43
40.0
 50
180.0
  0
INSERT
  5
7EFF
330
7DF3
100
AcDbEntity
  8
0
  6
ByBlock
440
 16777216
100
AcDbBlockReference
  2
_OPEN
 10
1915.774385032937
 20
1845.832152144642
 30
0.0
 41
40.0
 42
40.0
 43
40.0
  0
MTEXT
  5
7F00
330
7DF3
100
AcDbEntity
  8
0
  6
ByBlock
440
 16777216
100
AcDbMText
 10
1217.437314097104
 20
1885.832152144642
 30
0.0
 40
60.0
 41
0.0
 46
0.0
 71
     5
 72
     5
  1
\A1;1395
 73
     1
 44
1.0
  0
POINT
  5
7F01
330
7DF3
100
AcDbEntity
  8
DEFPOINTS
  6
ByBlock
 62
     0
440
 16777216
100
AcDbPoint
 10
519.100243161271
 20
1017.732634008198
 30
0.0
  0
POINT
  5
7F02
330
7DF3
100
AcDbEntity
  8
DEFPOINTS
  6
ByBlock
 62
     0
440
 16777216
100
AcDbPoint
 10
1915.774385032937
 20
579.7326340081972
 30
0.0
  0
POINT
  5
7F03
330
7DF3
100
AcDbEntity
  8
DEFPOINTS
  6
ByBlock
 62
     0
440
 16777216
100
AcDbPoint
 10
1915.774385032937
 20
1845.832152144642
 30
0.0
  0
ENDBLK
  5
7F04
330
7DF3
100
AcDbEntity
  8
0
100
AcDbBlockEnd
  0
BLOCK
  5
7FE2
330
7F60
100
AcDbEntity
  8
0
100
AcDbBlockBegin
  2
*D16
 70
     1
 10
0.0
 20
0.0
 30
0.0
  3
*D16
  1

  0
LINE
  5
80BD
330
7F60
100
AcDbEntity
  8
3
 62
     0
440
 16777216
100
AcDbLine
 10
809.2353816643772
 20
1480.970551816308
 30
0.0
 11
609.4330725594427
 21
1480.970551816308
 31
0.0
  0
LINE
  5
80BE
330
7F60
100
AcDbEntity
  8
3
 62
     0
440
 16777216
100
AcDbLine
 10
809.2353816643772
 20
1405.970551816308
 30
0.0
 11
609.4330725594427
 21
1405.970551816308
 31
0.0
  0
LINE
  5
80BF
330
7F60
100
AcDbEntity
  8
3
 62
     0
440
 16777216
100
AcDbLine
 10
629.4330725594427
 20
1520.970551816308
 30
0.0
 11
629.4330725594427
 21
1560.970551816308
 31
0.0
  0
LINE
  5
80C0
330
7F60
100
AcDbEntity
  8
3
 62
     0
440
 16777216
100
AcDbLine
 10
629.4330725594427
 20
1365.970551816308
 30
0.0
 11
629.4330725594426
 21
1188.827694673451
 31
0.0
  0
LINE
  5
80C1
330
7F60
100
AcDbEntity
  8
3
 62
     0
440
 16777216
100
AcDbLine
 10
629.4330725594427
 20
1480.970551816308
 30
0.0
 11
629.4330725594427
 21
1405.970551816308
 31
0.0
  0
INSERT
  5
80C2
330
7F60
100
AcDbEntity
  8
3
 62
     0
440
 16777216
100
AcDbBlockReference
  2
_DOT
 10
629.4330725594427
 20
1480.970551816308
 30
0.0
 41
40.0
 42
40.0
 43
40.0
 50
270.0
  0
INSERT
  5
80C3
330
7F60
100
AcDbEntity
  8
3
 62
     0
440
 16777216
100
AcDbBlockReference
  2
_OPEN
 10
629.4330725594427
 20
1405.970551816308
 30
0.0
 41
40.0
 42
40.0
 43
40.0
 50
90.0
  0
MTEXT
  5
80C4
330
7F60
100
AcDbEntity
  8
3
 62
     0
440
 16777216
100
AcDbMText
 10
579.4330725594424
 20
1257.39912324488
 30
0.0
 40
60.0
 41
0.0
 46
0.0
 71
     5
 72
     5
  1
\A1;75
 11
0.0000000000000001
 21
1.0
 31
0.0
 73
     1
 44
1.0
  0
POINT
  5
80C5
330
7F60
100
AcDbEntity
  8
DEFPOINTS
 62
     0
440
 16777216
100
AcDbPoint
 10
819.2353816643771
 20
1480.970551816308
 30
0.0
  0
POINT
  5
80C6
330
7F60
100
AcDbEntity
  8
DEFPOINTS
 62
     0
440
 16777216
100
AcDbPoint
 10
819.2353816643771
 20
1405.970551816308
 30
0.0
  0
POINT
  5
80C7
330
7F60
100
AcDbEntity
  8
DEFPOINTS
 62
     0
440
 16777216
100
AcDbPoint
 10
629.4330725594427
 20
1405.970551816308
 30
0.0
  0
ENDBLK
  5
7FEE
330
7F60
100
AcDbEntity
  8
0
100
AcDbBlockEnd
  0
BLOCK
  5
7F96
330
7F95
100
AcDbEntity
  8
0
100
AcDbBlockBegin
  2
_DOT
 70
     0
 10
0.0
 20
0.0
 30
0.0
  3
_DOT
  1

  0
LWPOLYLINE
  5
7F9F
330
7F95
100
AcDbEntity
  8
0
  6
ByBlock
 62
     0
100
AcDbPolyline
 90
        2
 70
     1
 43
0.25
 10
-0.125
 20
0.0
 42
1.0
 10
0.125
 20
0.0
 42
1.0
  0
LINE
  5
7FA3
330
7F95
100
AcDbEntity
  8
0
  6
ByBlock
 62
     0
100
AcDbLine
 10
-0.25
 20
0.0
 30
0.0
 11
-1.0
 21
0.0
 31
0.0
  0
ENDBLK
  5
7F9C
330
7F95
100
AcDbEntity
  8
0
100
AcDbBlockEnd
  0
BLOCK
  5
8011
330
8010
100
AcDbEntity
  8
0
100
AcDbBlockBegin
  2
*D18
 70
     1
 10
0.0
 20
0.0
 30
0.0
  3
*D18
  1

  0
LINE
  5
8012
330
8010
100
AcDbEntity
  8
0
  6
ByBlock
 62
     0
440
 16777216
100
AcDbLine
 10
819.2353816643771
 20
1395.970551816308
 30
0.0
 11
819.2353816643771
 21
1259.832637640484
 31
0.0
  0
LINE
  5
8013
330
8010
100
AcDbEntity
  8
0
  6
ByBlock
 62
     0
440
 16777216
100
AcDbLine
 10
1174.235381664377
 20
1395.970551816308
 30
0.0
 11
1174.235381664377
 21
1259.832637640484
 31
0.0
  0
LINE
  5
8014
330
8010
100
AcDbEntity
  8
0
  6
ByBlock
 62
     0
440
 16777216
100
AcDbLine
 10
859.2353816643772
 20
1279.832637640484
 30
0.0
 11
1134.235381664377
 21
1279.832637640484
 31
0.0
  0
INSERT
  5
8015
330
8010
100
AcDbEntity
  8
0
  6
ByBlock
 62
     0
440
 16777216
100
AcDbBlockReference
  2
_OPEN
 10
819.2353816643771
 20
1279.832637640484
 30
0.0
 41
40.0
 42
40.0
 43
40.0
 50
180.0
  0
INSERT
  5
8016
330
8010
100
AcDbEntity
  8
0
  6
ByBlock
 62
     0
440
 16777216
100
AcDbBlockReference
  2
_OPEN
 10
1174.235381664377
 20
1279.832637640484
 30
0.0
 41
40.0
 42
40.0
 43
40.0
  0
MTEXT
  5
8017
330
8010
100
AcDbEntity
  8
0
  6
ByBlock
 62
     0
440
 16777216
100
AcDbMText
 10
996.7353816643774
 20
1329.832637640484
 30
0.0
 40
60.0
 41
0.0
 46
0.0
 71
     5
 72
     5
  1
\A1;355
 73
     1
 44
1.0
  0
POINT
  5
8018
330
8010
100
AcDbEntity
  8
DEFPOINTS
  6
ByBlock
 62
     0
440
 16777216
100
AcDbPoint
 10
819.2353816643771
 20
1405.970551816308
 30
0.0
  0
POINT
  5
8019
330
8010
100
AcDbEntity
  8
DEFPOINTS
  6
ByBlock
 62
     0
440
 16777216
100
AcDbPoint
 10
1174.235381664377
 20
1405.970551816308
 30
0.0
  0
POINT
  5
801A
330
8010
100
AcDbEntity
  8
DEFPOINTS
  6
ByBlock
 62
     0
440
 16777216
100
AcDbPoint
 10
1174.235381664377
 20
1279.832637640484
 30
0.0
  0
ENDBLK
  5
801B
330
8010
100
AcDbEntity
  8
0
100
AcDbBlockEnd
  0
BLOCK
  5
801E
330
801D
100
AcDbEntity
  8
0
100
AcDbBlockBegin
  2
*D19
 70
     1
 10
0.0
 20
0.0
 30
0.0
  3
*D19
  1

  0
LINE
  5
801F
330
801D
100
AcDbEntity
  8
0
  6
ByBlock
 62
     0
440
 16777216
100
AcDbLine
 10
1174.235381664377
 20
1395.970551816308
 30
0.0
 11
1174.235381664377
 21
1259.832637640484
 31
0.0
  0
LINE
  5
8020
330
801D
100
AcDbEntity
  8
0
  6
ByBlock
 62
     0
440
 16777216
100
AcDbLine
 10
2169.235381664377
 20
1395.970551816307
 30
0.0
 11
2169.235381664377
 21
1259.832637640484
 31
0.0
  0
LINE
  5
8021
330
801D
100
AcDbEntity
  8
0
  6
ByBlock
 62
     0
440
 16777216
100
AcDbLine
 10
1214.235381664377
 20
1279.832637640484
 30
0.0
 11
2129.235381664377
 21
1279.832637640484
 31
0.0
  0
INSERT
  5
8022
330
801D
100
AcDbEntity
  8
0
  6
ByBlock
 62
     0
440
 16777216
100
AcDbBlockReference
  2
_OPEN
 10
1174.235381664377
 20
1279.832637640484
 30
0.0
 41
40.0
 42
40.0
 43
40.0
 50
180.0
  0
INSERT
  5
8023
330
801D
100
AcDbEntity
  8
0
  6
ByBlock
 62
     0
440
 16777216
100
AcDbBlockReference
  2
_OPEN
 10
2169.235381664377
 20
1279.832637640484
 30
0.0
 41
40.0
 42
40.0
 43
40.0
  0
MTEXT
  5
8024
330
801D
100
AcDbEntity
  8
0
  6
ByBlock
 62
     0
440
 16777216
100
AcDbMText
 10
1671.735381664377
 20
1329.832637640484
 30
0.0
 40
60.0
 41
0.0
 46
0.0
 71
     5
 72
     5
  1
\A1;995
 73
     1
 44
1.0
  0
POINT
  5
8025
330
801D
100
AcDbEntity
  8
DEFPOINTS
  6
ByBlock
 62
     0
440
 16777216
100
AcDbPoint
 10
1174.235381664377
 20
1405.970551816308
 30
0.0
  0
POINT
  5
8026
330
801D
100
AcDbEntity
  8
DEFPOINTS
  6
ByBlock
 62
     0
440
 16777216
100
AcDbPoint
 10
2169.235381664377
 20
1405.970551816307
 30
0.0
  0
POINT
  5
8027
330
801D
100
AcDbEntity
  8
DEFPOINTS
  6
ByBlock
 62
     0
440
 16777216
100
AcDbPoint
 10
2169.235381664377
 20
1279.832637640484
 30
0.0
  0
ENDBLK
  5
8028
330
801D
100
AcDbEntity
  8
0
100
AcDbBlockEnd
  0
BLOCK
  5
802B
330
802A
100
AcDbEntity
  8
0
100
AcDbBlockBegin
  2
*D20
 70
     1
 10
0.0
 20
0.0
 30
0.0
  3
*D20
  1

  0
LINE
  5
802C
330
802A
100
AcDbEntity
  8
0
  6
ByBlock
 62
     0
440
 16777216
100
AcDbLine
 10
2862.367632448948
 20
1395.970551816308
 30
0.0
 11
2862.367632448948
 21
1259.832637640484
 31
0.0
  0
LINE
  5
802D
330
802A
100
AcDbEntity
  8
0
  6
ByBlock
 62
     0
440
 16777216
100
AcDbLine
 10
3369.367632448948
 20
1395.970551816308
 30
0.0
 11
3369.367632448948
 21
1259.832637640484
 31
0.0
  0
LINE
  5
802E
330
802A
100
AcDbEntity
  8
0
  6
ByBlock
 62
     0
440
 16777216
100
AcDbLine
 10
2902.367632448948
 20
1279.832637640484
 30
0.0
 11
3329.367632448948
 21
1279.832637640484
 31
0.0
  0
INSERT
  5
802F
330
802A
100
AcDbEntity
  8
0
  6
ByBlock
 62
     0
440
 16777216
100
AcDbBlockReference
  2
_OPEN
 10
2862.367632448948
 20
1279.832637640484
 30
0.0
 41
40.0
 42
40.0
 43
40.0
 50
180.0
  0
INSERT
  5
8030
330
802A
100
AcDbEntity
  8
0
  6
ByBlock
 62
     0
440
 16777216
100
AcDbBlockReference
  2
_OPEN
 10
3369.367632448948
 20
1279.832637640484
 30
0.0
 41
40.0
 42
40.0
 43
40.0
  0
MTEXT
  5
8031
330
802A
100
AcDbEntity
  8
0
  6
ByBlock
 62
     0
440
 16777216
100
AcDbMText
 10
3115.867632448948
 20
1329.832637640484
 30
0.0
 40
60.0
 41
0.0
 46
0.0
 71
     5
 72
     5
  1
\A1;507
 73
     1
 44
1.0
  0
POINT
  5
8032
330
802A
100
AcDbEntity
  8
DEFPOINTS
  6
ByBlock
 62
     0
440
 16777216
100
AcDbPoint
 10
2862.367632448948
 20
1405.970551816308
 30
0.0
  0
POINT
  5
8033
330
802A
100
AcDbEntity
  8
DEFPOINTS
  6
ByBlock
 62
     0
440
 16777216
100
AcDbPoint
 10
3369.367632448948
 20
1405.970551816308
 30
0.0
  0
POINT
  5
8034
330
802A
100
AcDbEntity
  8
DEFPOINTS
  6
ByBlock
 62
     0
440
 16777216
100
AcDbPoint
 10
3369.367632448948
 20
1279.832637640484
 30
0.0
  0
ENDBLK
  5
8035
330
802A
100
AcDbEntity
  8
0
100
AcDbBlockEnd
  0
BLOCK
  5
8038
330
8037
100
AcDbEntity
  8
0
100
AcDbBlockBegin
  2
*D21
 70
     1
 10
0.0
 20
0.0
 30
0.0
  3
*D21
  1

  0
LINE
  5
8039
330
8037
100
AcDbEntity
  8
0
  6
ByBlock
 62
     0
440
 16777216
100
AcDbLine
 10
3369.367632448948
 20
1395.970551816308
 30
0.0
 11
3369.367632448948
 21
1259.832637640484
 31
0.0
  0
LINE
  5
803A
330
8037
100
AcDbEntity
  8
0
  6
ByBlock
 62
     0
440
 16777216
100
AcDbLine
 10
3787.367632448948
 20
1395.970551816308
 30
0.0
 11
3787.367632448948
 21
1259.832637640484
 31
0.0
  0
LINE
  5
803B
330
8037
100
AcDbEntity
  8
0
  6
ByBlock
 62
     0
440
 16777216
100
AcDbLine
 10
3409.367632448948
 20
1279.832637640484
 30
0.0
 11
3747.367632448948
 21
1279.832637640484
 31
0.0
  0
INSERT
  5
803C
330
8037
100
AcDbEntity
  8
0
  6
ByBlock
 62
     0
440
 16777216
100
AcDbBlockReference
  2
_OPEN
 10
3369.367632448948
 20
1279.832637640484
 30
0.0
 41
40.0
 42
40.0
 43
40.0
 50
180.0
  0
INSERT
  5
803D
330
8037
100
AcDbEntity
  8
0
  6
ByBlock
 62
     0
440
 16777216
100
AcDbBlockReference
  2
_OPEN
 10
3787.367632448948
 20
1279.832637640484
 30
0.0
 41
40.0
 42
40.0
 43
40.0
  0
MTEXT
  5
803E
330
8037
100
AcDbEntity
  8
0
  6
ByBlock
 62
     0
440
 16777216
100
AcDbMText
 10
3578.367632448948
 20
1329.832637640484
 30
0.0
 40
60.0
 41
0.0
 46
0.0
 71
     5
 72
     5
  1
\A1;418
 73
     1
 44
1.0
  0
POINT
  5
803F
330
8037
100
AcDbEntity
  8
DEFPOINTS
  6
ByBlock
 62
     0
440
 16777216
100
AcDbPoint
 10
3369.367632448948
 20
1405.970551816308
 30
0.0
  0
POINT
  5
8040
330
8037
100
AcDbEntity
  8
DEFPOINTS
  6
ByBlock
 62
     0
440
 16777216
100
AcDbPoint
 10
3787.367632448948
 20
1405.970551816308
 30
0.0
  0
POINT
  5
8041
330
8037
100
AcDbEntity
  8
DEFPOINTS
  6
ByBlock
 62
     0
440
 16777216
100
AcDbPoint
 10
3787.367632448948
 20
1279.832637640484
 30
0.0
  0
ENDBLK
  5
8042
330
8037
100
AcDbEntity
  8
0
100
AcDbBlockEnd
  0
BLOCK
  5
8045
330
8044
100
AcDbEntity
  8
0
100
AcDbBlockBegin
  2
_NONE
 70
     0
 10
0.0
 20
0.0
 30
0.0
  3
_NONE
  1

  0
CIRCLE
  5
8046
330
8044
100
AcDbEntity
  8
0
  6
ByBlock
 62
     0
100
AcDbCircle
 10
0.0
 20
0.0
 30
0.0
 40
0.25
  0
ENDBLK
  5
8047
330
8044
100
AcDbEntity
  8
0
100
AcDbBlockEnd
  0
BLOCK
  5
8049
330
8048
100
AcDbEntity
  8
0
100
AcDbBlockBegin
  2
*D23
 70
     1
 10
0.0
 20
0.0
 30
0.0
  3
*D23
  1

  0
LINE
  5
804A
330
8048
100
AcDbEntity
  8
0
  6
ByBlock
 62
     0
440
 16777216
100
AcDbLine
 10
631.1170755767052
 20
1480.970551816308
 30
0.0
 11
631.1170755767052
 21
1480.970551816308
 31
0.0
  0
LINE
  5
804B
330
8048
100
AcDbEntity
  8
0
  6
ByBlock
 62
     0
440
 16777216
100
AcDbLine
 10
631.1170755767052
 20
1517.970551816308
 30
0.0
 11
631.1170755767052
 21
1597.970551816308
 31
0.0
  0
MTEXT
  5
804C
330
8048
100
AcDbEntity
  8
0
  6
ByBlock
 62
     0
440
 16777216
100
AcDbMText
 10
535.4027898624195
 20
1499.470551816308
 30
0.0
 40
60.0
 41
0.0
 46
0.0
 71
     5
 72
     5
  1
\A1;(37)
 11
0.0
 21
1.0
 31
0.0
 73
     1
 44
1.0
  0
LINE
  5
804D
330
8048
100
AcDbEntity
  8
0
  6
ByBlock
 62
     0
440
 16777216
100
AcDbLine
 10
631.1170755767052
 20
1480.970551816308
 30
0.0
 11
631.1170755767052
 21
1517.970551816308
 31
0.0
  0
POINT
  5
804E
330
8048
100
AcDbEntity
  8
DEFPOINTS
  6
ByBlock
 62
     0
440
 16777216
100
AcDbPoint
 10
819.2353816643771
 20
1480.970551816308
 30
0.0
  0
POINT
  5
804F
330
8048
100
AcDbEntity
  8
DEFPOINTS
  6
ByBlock
 62
     0
440
 16777216
100
AcDbPoint
 10
819.2353816643771
 20
1517.970551816308
 30
0.0
  0
POINT
  5
8050
330
8048
100
AcDbEntity
  8
DEFPOINTS
  6
ByBlock
 62
     0
440
 16777216
100
AcDbPoint
 10
631.1170755767052
 20
1517.970551816308
 30
0.0
  0
ENDBLK
  5
8051
330
8048
100
AcDbEntity
  8
0
100
AcDbBlockEnd
  0
BLOCK
  5
8054
330
8053
100
AcDbEntity
  8
0
100
AcDbBlockBegin
  2
*D24
 70
     1
 10
0.0
 20
0.0
 30
0.0
  3
*D24
  1

  0
LINE
  5
8055
330
8053
100
AcDbEntity
  8
0
  6
ByBlock
 62
     0
440
 16777216
100
AcDbLine
 10
1152.235381664378
 20
2462.970551816308
 30
0.0
 11
434.0579341975753
 21
2462.970551816308
 31
0.0
  0
LINE
  5
8056
330
8053
100
AcDbEntity
  8
0
  6
ByBlock
 62
     0
440
 16777216
100
AcDbLine
 10
809.2353816643772
 20
1405.970551816308
 30
0.0
 11
434.0579341975753
 21
1405.970551816308
 31
0.0
  0
LINE
  5
8057
330
8053
100
AcDbEntity
  8
0
  6
ByBlock
 62
     0
440
 16777216
100
AcDbLine
 10
454.0579341975753
 20
2422.970551816308
 30
0.0
 11
454.0579341975753
 21
1445.970551816308
 31
0.0
  0
INSERT
  5
8058
330
8053
100
AcDbEntity
  8
0
  6
ByBlock
 62
     0
440
 16777216
100
AcDbBlockReference
  2
_OPEN
 10
454.0579341975753
 20
2462.970551816308
 30
0.0
 41
40.0
 42
40.0
 43
40.0
 50
90.0
  0
INSERT
  5
8059
330
8053
100
AcDbEntity
  8
0
  6
ByBlock
 62
     0
440
 16777216
100
AcDbBlockReference
  2
_OPEN
 10
454.0579341975753
 20
1405.970551816308
 30
0.0
 41
40.0
 42
40.0
 43
40.0
 50
270.0
  0
MTEXT
  5
805A
330
8053
100
AcDbEntity
  8
0
  6
ByBlock
 62
     0
440
 16777216
100
AcDbMText
 10
388.3436484832897
 20
1934.470551816308
 30
0.0
 40
60.0
 41
0.0
 46
0.0
 71
     5
 72
     5
  1
\A1;(1057)
 11
0.0
 21
1.0
 31
0.0
 73
     1
 44
1.0
  0
POINT
  5
805B
330
8053
100
AcDbEntity
  8
DEFPOINTS
  6
ByBlock
 62
     0
440
 16777216
100
AcDbPoint
 10
1162.235381664378
 20
2462.970551816308
 30
0.0
  0
POINT
  5
805C
330
8053
100
AcDbEntity
  8
DEFPOINTS
  6
ByBlock
 62
     0
440
 16777216
100
AcDbPoint
 10
819.2353816643771
 20
1405.970551816308
 30
0.0
  0
POINT
  5
805D
330
8053
100
AcDbEntity
  8
DEFPOINTS
  6
ByBlock
 62
     0
440
 16777216
100
AcDbPoint
 10
454.0579341975753
 20
1405.970551816308
 30
0.0
  0
ENDBLK
  5
805E
330
8053
100
AcDbEntity
  8
0
100
AcDbBlockEnd
  0
ENDSEC
  0
SECTION
  2
ENTITIES
  0
LINE
  5
7C17
330
19
100
AcDbEntity
  8
1
100
AcDbLine
 10
1175.235381664378
 20
2477.338061206038
 30
0.0
 11
1175.235381664378
 21
2445.667207491154
 31
0.0
  0
LINE
  5
7C19
330
19
100
AcDbEntity
  8
1
100
AcDbLine
 10
2994.367632448948
 20
2462.970551816308
 30
0.0
 11
2994.367632448948
 21
2012.970551816308
 31
0.0
  0
LINE
  5
7C1A
330
19
100
AcDbEntity
  8
1
100
AcDbLine
 10
3744.367632448948
 20
2462.970551816308
 30
0.0
 11
3744.367632448948
 21
1592.970551816308
 31
0.0
  0
LINE
  5
7C1B
330
19
100
AcDbEntity
  8
2
100
AcDbLine
 10
2626.921231658695
 20
2072.970551816308
 30
0.0
 11
3847.895588078647
 21
2072.970551816308
 31
0.0
  0
LINE
  5
7C1C
330
19
100
AcDbEntity
  8
1
100
AcDbLine
 10
1162.235381664378
 20
2459.970551816308
 30
0.0
 11
1806.235381664378
 21
2459.970551816308
 31
0.0
  0
LINE
  5
7C1D
330
19
100
AcDbEntity
  8
1
100
AcDbLine
 10
1192.235381664378
 20
2462.970551816308
 30
0.0
 11
1776.235381664378
 21
2462.970551816308
 31
0.0
  0
LINE
  5
7C1E
330
19
100
AcDbEntity
  8
1
100
AcDbLine
 10
1194.235381664378
 20
2403.421734371256
 30
0.0
 11
1194.235381664378
 21
2462.970551816308
 31
0.0
  0
LINE
  5
7C1F
330
19
100
AcDbEntity
  8
2
100
AcDbLine
 10
783.8960324764394
 20
2072.970551816308
 30
0.0
 11
1769.581064273333
 21
2072.970551816307
 31
0.0
  0
LINE
  5
7C20
330
19
100
AcDbEntity
  8
1
100
AcDbLine
 10
3748.667632448948
 20
1762.970551816308
 30
0.0
 11
3746.367632448947
 21
1762.970551816308
 31
0.0
  0
DIMENSION
  5
7C21
330
19
100
AcDbEntity
  8
3
100
AcDbDimension
280
     0
  2
*D1
 10
1194.235381664378
 20
2618.467421370342
 30
0.0
 11
1484.235381664378
 21
2658.467421370342
 31
0.0
 12
253.4609966314401
 22
1013.23791780811
 32
0.0
 70
    32
 71
     5
 42
-1.0
 73
     0
 74
     0
 75
     0
  3
MATSU
100
AcDbAlignedDimension
 13
1774.235381664378
 23
2462.970551816308
 33
0.0
 14
1194.235381664378
 24
2462.970551816308
 34
0.0
 50
180.0
100
AcDbRotatedDimension
1001
ACAD
1000
DSTYLE
1002
{
1070
    40
1040
20.0
1002
}
  0
DIMENSION
  5
7C22
330
19
100
AcDbEntity
  8
3
100
AcDbDimension
280
     0
  2
*D2
 10
1174.235381664378
 20
2744.887274780397
 30
0.0
 11
1474.235381664378
 21
2784.887274780397
 31
0.0
 12
253.4609966314401
 22
1013.23791780811
 32
0.0
 70
    32
 71
     5
 42
-1.0
 73
     0
 74
     0
 75
     0
  3
MATSU
100
AcDbAlignedDimension
 13
1774.235381664378
 23
2474.970551816308
 33
0.0
 14
1174.235381664378
 24
2506.570176381566
 34
0.0
 50
180.0
100
AcDbRotatedDimension
1001
ACAD
1000
DSTYLE
1002
{
1070
    40
1040
20.0
1002
}
  0
DIMENSION
  5
7C23
330
19
100
AcDbEntity
  8
3
100
AcDbDimension
280
     0
  2
*D3
 10
3946.7809481135
 20
1792.970551816308
 30
0.0
 11
3906.7809481135
 21
2072.970551816308
 31
0.0
 12
253.4609966314401
 22
1013.23791780811
 32
0.0
 70
    32
  1
φ <>
 71
     5
 42
-1.0
 73
     0
 74
     0
 75
     0
  3
MATSU
100
AcDbAlignedDimension
 13
3746.367632448946
 23
2352.970551816309
 33
0.0
 14
3746.367632448946
 24
1792.970551816308
 34
0.0
 50
90.0
100
AcDbRotatedDimension
1001
ACAD
1000
DSTYLE
1002
{
1070
    40
1040
20.0
1002
}
  0
LINE
  5
7C24
330
19
100
AcDbEntity
  8
2
100
AcDbLine
 10
1174.235381664377
 20
3217.807866883199
 30
0.0
 11
1174.235381664378
 21
4403.987804693571
 31
0.0
  0
LINE
  5
7C25
330
19
100
AcDbEntity
  8
2
100
AcDbLine
 10
723.4905058232743
 20
3958.220209319183
 30
0.0
 11
1774.235381664378
 21
3958.220209319183
 31
0.0
  0
LINE
  5
7C26
330
19
100
AcDbEntity
  8
2
100
AcDbLine
 10
3369.367632448948
 20
2542.279160685584
 30
0.0
 11
3369.367632448948
 21
1405.970551816308
 31
0.0
  0
LINE
  5
7C27
330
19
100
AcDbEntity
  8
2
100
AcDbLine
 10
1174.235381664378
 20
2707.938056017765
 30
0.0
 11
1174.235381664377
 21
1405.970551816308
 31
0.0
  0
LINE
  5
7C30
330
19
100
AcDbEntity
  8
1
100
AcDbLine
 10
1771.773843202839
 20
2432.970551816307
 30
0.0
 11
1194.235381664378
 21
2432.970551816308
 31
0.0
  0
LINE
  5
7C31
330
19
100
AcDbEntity
  8
1
100
AcDbLine
 10
1162.235381664378
 20
2459.970551816308
 30
0.0
 11
1162.235381664378
 21
2462.970551816308
 31
0.0
  0
LINE
  5
7C32
330
19
100
AcDbEntity
  8
1
100
AcDbLine
 10
1162.235381664378
 20
2462.970551816308
 30
0.0
 11
1806.235381664378
 21
2462.970551816308
 31
0.0
  0
LINE
  5
7C33
330
19
100
AcDbEntity
  8
1
100
AcDbLine
 10
1806.235381664378
 20
2462.970551816308
 30
0.0
 11
1806.235381664378
 21
2459.970551816308
 31
0.0
  0
LINE
  5
7C34
330
19
100
AcDbEntity
  8
1
100
AcDbLine
 10
819.2353816643771
 20
1517.970551816308
 30
0.0
 11
2169.235381664377
 21
1517.970551816307
 31
0.0
  0
LINE
  5
7C35
330
19
100
AcDbEntity
  8
1
100
AcDbLine
 10
819.2353816643771
 20
1592.970551816308
 30
0.0
 11
2169.235381664377
 21
1592.970551816307
 31
0.0
  0
LINE
  5
7C36
330
19
100
AcDbEntity
  8
1
100
AcDbLine
 10
819.2353816643771
 20
1480.970551816308
 30
0.0
 11
2169.235381664377
 21
1480.970551816307
 31
0.0
  0
LINE
  5
7C37
330
19
100
AcDbEntity
  8
1
100
AcDbLine
 10
819.2353816643771
 20
1405.970551816308
 30
0.0
 11
2169.235381664377
 21
1405.970551816307
 31
0.0
  0
LINE
  5
7C38
330
19
100
AcDbEntity
  8
1
100
AcDbLine
 10
819.2353816643771
 20
1592.970551816308
 30
0.0
 11
819.2353816643771
 21
1517.970551816308
 31
0.0
  0
LINE
  5
7C39
330
19
100
AcDbEntity
  8
1
100
AcDbLine
 10
2169.235381664377
 20
1592.970551816307
 30
0.0
 11
2169.235381664377
 21
1517.970551816307
 31
0.0
  0
LINE
  5
7C3A
330
19
100
AcDbEntity
  8
1
100
AcDbLine
 10
819.2353816643771
 20
1480.970551816308
 30
0.0
 11
819.2353816643771
 21
1405.970551816308
 31
0.0
  0
LINE
  5
7C3B
330
19
100
AcDbEntity
  8
1
100
AcDbLine
 10
2169.235381664377
 20
1480.970551816307
 30
0.0
 11
2169.235381664377
 21
1405.970551816307
 31
0.0
  0
LINE
  5
7C3C
330
19
100
AcDbEntity
  8
1
100
AcDbLine
 10
2964.367632448948
 20
2462.970551816308
 30
0.0
 11
3774.367632448948
 21
2462.970551816308
 31
0.0
  0
LINE
  5
7C3D
330
19
100
AcDbEntity
  8
1
100
AcDbLine
 10
2862.367632448948
 20
1517.970551816308
 30
0.0
 11
3787.367632448948
 21
1517.970551816308
 31
0.0
  0
LINE
  5
7C3E
330
19
100
AcDbEntity
  8
1
100
AcDbLine
 10
2862.367632448948
 20
1592.970551816307
 30
0.0
 11
3787.367632448948
 21
1592.970551816308
 31
0.0
  0
LINE
  5
7C3F
330
19
100
AcDbEntity
  8
1
100
AcDbLine
 10
2862.367632448948
 20
1480.970551816308
 30
0.0
 11
3787.367632448948
 21
1480.970551816308
 31
0.0
  0
LINE
  5
7C40
330
19
100
AcDbEntity
  8
1
100
AcDbLine
 10
2862.367632448948
 20
1405.970551816308
 30
0.0
 11
3787.367632448948
 21
1405.970551816308
 31
0.0
  0
LINE
  5
7C41
330
19
100
AcDbEntity
  8
1
100
AcDbLine
 10
3787.36763244895
 20
1592.970551816308
 30
0.0
 11
3787.367632448948
 21
1517.970551816308
 31
0.0
  0
LINE
  5
7C42
330
19
100
AcDbEntity
  8
1
100
AcDbLine
 10
2862.367632448948
 20
1592.970551816307
 30
0.0
 11
2862.367632448948
 21
1517.970551816308
 31
0.0
  0
LINE
  5
7C43
330
19
100
AcDbEntity
  8
1
100
AcDbLine
 10
3787.367632448948
 20
1480.970551816308
 30
0.0
 11
3787.367632448948
 21
1405.970551816308
 31
0.0
  0
LINE
  5
7C44
330
19
100
AcDbEntity
  8
1
100
AcDbLine
 10
2862.367632448948
 20
1480.970551816308
 30
0.0
 11
2862.367632448948
 21
1405.970551816308
 31
0.0
  0
DIMENSION
  5
7C4B
330
19
100
AcDbEntity
  8
3
100
AcDbDimension
280
     0
  2
*D4
 10
3744.367632448948
 20
2552.922346868212
 30
0.0
 11
3369.367632448948
 21
2592.922346868212
 31
0.0
 12
253.4609966314401
 22
1013.23791780811
 32
0.0
 70
    32
 71
     5
 42
-1.0
 73
     0
 74
     0
 75
     0
  3
MATSU
100
AcDbAlignedDimension
 13
2994.367632448948
 23
2462.970551816308
 33
0.0
 14
3744.367632448948
 24
2462.970551816308
 34
0.0
100
AcDbRotatedDimension
1001
ACAD
1000
DSTYLE
1002
{
1070
    40
1040
20.0
1002
}
  0
LINE
  5
7C4C
330
19
100
AcDbEntity
  8
1
100
AcDbLine
 10
3839.367632448949
 20
2020.070551816308
 30
0.0
 11
3839.367632448949
 21
1940.070551816308
 31
0.0
  0
LINE
  5
7C4D
330
19
100
AcDbEntity
  8
1
100
AcDbLine
 10
3769.367632448948
 20
2030.070551816308
 30
0.0
 11
3769.367632448948
 21
1930.070551816308
 31
0.0
  0
LINE
  5
7C4E
330
19
100
AcDbEntity
  8
1
100
AcDbLine
 10
3769.367632448948
 20
2030.070551816308
 30
0.0
 11
3829.367632448948
 21
2030.070551816308
 31
0.0
  0
LINE
  5
7C4F
330
19
100
AcDbEntity
  8
1
100
AcDbLine
 10
3769.367632448948
 20
1930.070551816308
 30
0.0
 11
3829.367632448949
 21
1930.070551816308
 31
0.0
  0
LINE
  5
7C50
330
19
100
AcDbEntity
  8
1
100
AcDbLine
 10
3829.367632448948
 20
2030.070551816308
 30
0.0
 11
3839.367632448949
 21
2020.070551816308
 31
0.0
  0
LINE
  5
7C51
330
19
100
AcDbEntity
  8
1
100
AcDbLine
 10
3839.367632448949
 20
1940.070551816308
 30
0.0
 11
3829.367632448949
 21
1930.070551816308
 31
0.0
  0
LINE
  5
7C52
330
19
100
AcDbEntity
  8
1
100
AcDbLine
 10
3024.367632448948
 20
2018.970551816308
 30
0.0
 11
3024.367632448948
 21
2012.970551816308
 31
0.0
  0
LINE
  5
7C53
330
19
100
AcDbEntity
  8
1
100
AcDbLine
 10
2964.367632448948
 20
2018.970551816308
 30
0.0
 11
3024.367632448948
 21
2018.970551816308
 31
0.0
  0
LINE
  5
7C54
330
19
100
AcDbEntity
  8
1
100
AcDbLine
 10
2964.367632448948
 20
2018.970551816308
 30
0.0
 11
2958.367632448948
 21
2012.970551816308
 31
0.0
  0
DIMENSION
  5
7C55
330
19
100
AcDbEntity
  8
3
100
AcDbDimension
280
     0
  2
*D5
 10
3369.367632448948
 20
2695.323487539223
 30
0.0
 11
3604.367632448948
 21
2751.037773253509
 31
0.0
 70
    32
  1
(<>)
 71
     5
 42
470.0
 73
     0
 74
     0
 75
     0
  3
MATSU
100
AcDbAlignedDimension
 13
3839.367632448949
 23
2020.070551816308
 33
0.0
 14
3369.367632448948
 24
2618.723304077235
 34
0.0
100
AcDbRotatedDimension
1001
ACAD
1000
DSTYLE
1002
{
1070
    40
1040
20.0
1002
}
  0
LINE
  5
7C56
330
19
100
AcDbEntity
  8
1
100
AcDbLine
 10
2689.367632448948
 20
2292.970551816308
 30
0.0
 11
2689.367632448948
 21
1607.970551816308
 31
0.0
  0
LINE
  5
7C57
330
19
100
AcDbEntity
  8
1
100
AcDbLine
 10
2849.367632448948
 20
2292.970551816308
 30
0.0
 11
2849.367632448948
 21
2218.191714296573
 31
0.0
  0
LINE
  5
7C58
330
19
100
AcDbEntity
  8
1
100
AcDbLine
 10
819.2353816643771
 20
3451.220209319183
 30
0.0
 11
819.2353816643771
 21
3583.220209319183
 31
0.0
  0
LINE
  5
7C59
330
19
100
AcDbEntity
  8
1
100
AcDbLine
 10
2169.235381664378
 20
3451.220209319183
 30
0.0
 11
2169.235381664379
 21
4051.220209319182
 31
0.0
  0
LINE
  5
7C5A
330
19
100
AcDbEntity
  8
1
100
AcDbLine
 10
819.235381664378
 20
4376.220209319182
 30
0.0
 11
1529.235381664378
 21
4376.220209319182
 31
0.0
  0
LINE
  5
7C5B
330
19
100
AcDbEntity
  8
1
100
AcDbLine
 10
819.2353816643771
 20
3451.220209319183
 30
0.0
 11
2169.235381664378
 21
3451.220209319183
 31
0.0
  0
LINE
  5
7C5C
330
19
100
AcDbEntity
  8
1
100
AcDbLine
 10
1529.235381664378
 20
4333.220209319182
 30
0.0
 11
1529.235381664378
 21
4376.220209319182
 31
0.0
  0
LINE
  5
7C5D
330
19
100
AcDbEntity
  8
1
100
AcDbLine
 10
1774.235381664379
 20
4051.220209319182
 30
0.0
 11
2169.235381664378
 21
4051.220209319182
 31
0.0
  0
LINE
  5
7C5E
330
19
100
AcDbEntity
  8
2
100
AcDbLine
 10
1874.235381664378
 20
4043.129267319183
 30
0.0
 11
1874.235381664378
 21
3253.337906747516
 31
0.0
  0
ARC
  5
7C60
330
19
100
AcDbEntity
  8
1
100
AcDbCircle
 10
1874.235381664377
 20
1827.970551816307
 30
0.0
 40
185.0
100
AcDbArc
 50
287.9452509999999
 51
252.054749
  0
LINE
  5
7C61
330
19
100
AcDbEntity
  8
2
100
AcDbLine
 10
1874.235381664378
 20
2095.687947260221
 30
0.0
 11
1874.235381664377
 21
1405.970551816307
 31
0.0
  0
LINE
  5
7C62
330
19
100
AcDbEntity
  8
1
100
AcDbLine
 10
1817.235381664377
 20
1651.970551816307
 30
0.0
 11
1931.235381664377
 21
1651.970551816307
 31
0.0
  0
LINE
  5
7C64
330
19
100
AcDbEntity
  8
1
100
AcDbLine
 10
1712.235381664377
 20
1723.229584816307
 30
0.0
 11
1712.235381664377
 21
1647.970551816307
 31
0.0
  0
LINE
  5
7C65
330
19
100
AcDbEntity
  8
1
100
AcDbLine
 10
1771.735381664377
 20
1653.119110816307
 30
0.0
 11
1781.242095664376
 21
1668.041718816307
 31
0.0
  0
LINE
  5
7C68
330
19
100
AcDbEntity
  8
1
100
AcDbLine
 10
1771.735381664377
 20
1664.970551816307
 30
0.0
 11
1771.735381664377
 21
1647.970551816307
 31
0.0
  0
LINE
  5
7C69
330
19
100
AcDbEntity
  8
1
100
AcDbLine
 10
1771.735381664377
 20
1647.970551816307
 30
0.0
 11
1712.235381664377
 21
1647.970551816307
 31
0.0
  0
LINE
  5
7C6B
330
19
100
AcDbEntity
  8
1
100
AcDbLine
 10
1768.735381664377
 20
1667.970551816307
 30
0.0
 11
1715.235381664377
 21
1667.970551816307
 31
0.0
  0
ARC
  5
7C6C
330
19
100
AcDbEntity
  8
1
100
AcDbCircle
 10
1715.235381664377
 20
1664.970551816307
 30
0.0
 40
3.0
100
AcDbArc
 50
89.99999999999998
 51
180.0
  0
LINE
  5
7C73
330
19
100
AcDbEntity
  8
1
100
AcDbLine
 10
1763.411468664377
 20
1667.970551816307
 30
0.0
 11
1768.591216664377
 21
1676.101166816307
 31
0.0
  0
ARC
  5
7C75
330
19
100
AcDbEntity
  8
1
100
AcDbCircle
 10
1768.735381664377
 20
1664.970551816307
 30
0.0
 40
3.0
100
AcDbArc
 50
360.0
 51
89.99999999999998
  0
LINE
  5
7C76
330
19
100
AcDbEntity
  8
1
100
AcDbLine
 10
1712.235381664377
 20
1723.229584816307
 30
0.0
 11
1718.619353664377
 21
1727.927338816307
 31
0.0
  0
LINE
  5
7C7B
330
19
100
AcDbEntity
  8
1
100
AcDbLine
 10
1976.735381664377
 20
1653.119110816307
 30
0.0
 11
1967.228667664376
 21
1668.041718816307
 31
0.0
  0
LINE
  5
7C7F
330
19
100
AcDbEntity
  8
1
100
AcDbLine
 10
1976.735381664377
 20
1664.970551816307
 30
0.0
 11
1976.735381664377
 21
1647.970551816307
 31
0.0
  0
LINE
  5
7C80
330
19
100
AcDbEntity
  8
1
100
AcDbLine
 10
2036.235381664377
 20
1723.229584816307
 30
0.0
 11
2036.235381664377
 21
1647.970551816307
 31
0.0
  0
LINE
  5
7C81
330
19
100
AcDbEntity
  8
1
100
AcDbLine
 10
1976.735381664377
 20
1647.970551816307
 30
0.0
 11
2036.235381664377
 21
1647.970551816307
 31
0.0
  0
LINE
  5
7C83
330
19
100
AcDbEntity
  8
1
100
AcDbLine
 10
1979.735381664377
 20
1667.970551816307
 30
0.0
 11
2033.235381664378
 21
1667.970551816307
 31
0.0
  0
LINE
  5
7C85
330
19
100
AcDbEntity
  8
1
100
AcDbLine
 10
1985.059295664377
 20
1667.970551816307
 30
0.0
 11
1979.879546664377
 21
1676.101166816307
 31
0.0
  0
ARC
  5
7C86
330
19
100
AcDbEntity
  8
1
100
AcDbCircle
 10
1979.735381664377
 20
1664.970551816307
 30
0.0
 40
3.0
100
AcDbArc
 50
89.99999999999998
 51
180.0
  0
ARC
  5
7C87
330
19
100
AcDbEntity
  8
1
100
AcDbCircle
 10
2033.235381664378
 20
1664.970551816307
 30
0.0
 40
3.0
100
AcDbArc
 50
360.0
 51
89.99999999999998
  0
LINE
  5
7C92
330
19
100
AcDbEntity
  8
1
100
AcDbLine
 10
2036.235381664377
 20
1723.229584816307
 30
0.0
 11
2029.851470664377
 21
1727.927338816307
 31
0.0
  0
LINE
  5
7C93
330
19
100
AcDbEntity
  8
2
100
AcDbLine
 10
2153.531354050965
 20
1827.970551816307
 30
0.0
 11
1643.453539675382
 21
1827.970551816308
 31
0.0
  0
LINE
  5
7C94
330
19
100
AcDbEntity
  8
1
100
AcDbLine
 10
1850.235381664377
 20
3430.720209319183
 30
0.0
 11
1850.235381664377
 21
3400.720209319183
 31
0.0
  0
LINE
  5
7C95
330
19
100
AcDbEntity
  8
1
100
AcDbLine
 10
1898.235381664377
 20
3430.720209319183
 30
0.0
 11
1898.235381664377
 21
3400.720209319183
 31
0.0
  0
LINE
  5
7C96
330
19
100
AcDbEntity
  8
1
100
AcDbLine
 10
1659.235381664377
 20
1647.970551816307
 30
0.0
 11
1804.235381664377
 21
1647.970551816307
 31
0.0
  0
LINE
  5
7C97
330
19
100
AcDbEntity
  8
1
100
AcDbLine
 10
1804.235381664377
 20
1647.970551816307
 30
0.0
 11
1804.235381664377
 21
1637.970551816307
 31
0.0
  0
LINE
  5
7C98
330
19
100
AcDbEntity
  8
1
100
AcDbLine
 10
1944.235381664377
 20
1647.970551816307
 30
0.0
 11
1944.235381664377
 21
1637.970551816307
 31
0.0
  0
LINE
  5
7C9A
330
19
100
AcDbEntity
  8
1
100
AcDbLine
 10
1804.235381664377
 20
1637.970551816307
 30
0.0
 11
1944.235381664377
 21
1637.970551816307
 31
0.0
  0
LINE
  5
7C9B
330
19
100
AcDbEntity
  8
1
100
AcDbLine
 10
1944.235381664377
 20
1647.970551816307
 30
0.0
 11
2089.235381664377
 21
1647.970551816307
 31
0.0
  0
LINE
  5
7C9E
330
19
100
AcDbEntity
  8
1
100
AcDbLine
 10
2089.235381664378
 20
1647.970551816307
 30
0.0
 11
2099.235381664377
 21
1592.970551816307
 31
0.0
  0
LINE
  5
7C9F
330
19
100
AcDbEntity
  8
1
100
AcDbLine
 10
1659.235381664377
 20
1647.970551816307
 30
0.0
 11
1649.235381664377
 21
1592.970551816307
 31
0.0
  0
DIMENSION
  5
7CA0
330
19
100
AcDbEntity
  8
3
100
AcDbDimension
280
     0
  2
*D6
 10
629.4330725594427
 20
1517.970551816308
 30
0.0
 11
589.4330725594425
 21
1795.470551816308
 31
0.0
 70
    32
 71
     5
 42
-1.0
 73
     0
 74
     0
 75
     0
  3
MATSU
100
AcDbAlignedDimension
 13
740.6357570991185
 23
2072.970551816308
 33
0.0
 14
819.2353816643771
 24
1517.970551816308
 34
0.0
 50
270.0
100
AcDbRotatedDimension
1001
ACAD
1000
DSTYLE
1002
{
1070
   287
1070
     4
1070
    40
1040
20.0
1070
    75
1070
     1
1070
   279
1070
     1
1070
   289
1070
     3
1002
}
  0
CIRCLE
  5
7CA3
330
19
100
AcDbEntity
  8
1
100
AcDbCircle
 10
1174.235381664377
 20
2072.970551816308
 30
0.0
 40
280.0
  0
CIRCLE
  5
7CA4
330
19
100
AcDbEntity
  8
1
100
AcDbCircle
 10
1174.235381664377
 20
2072.970551816308
 30
0.0
 40
310.0
  0
LINE
  5
7CA5
330
19
100
AcDbEntity
  8
1
100
AcDbLine
 10
774.2353816643781
 20
3583.220209319183
 30
0.0
 11
1774.235381664378
 21
3583.220209319183
 31
0.0
  0
LINE
  5
7CA6
330
19
100
AcDbEntity
  8
1
100
AcDbLine
 10
774.235381664379
 20
4333.220209319182
 30
0.0
 11
1774.235381664379
 21
4333.220209319182
 31
0.0
  0
LINE
  5
7CA7
330
19
100
AcDbEntity
  8
1
100
AcDbLine
 10
954.2353816643771
 20
3278.220209319183
 30
0.0
 11
2094.235381664378
 21
3278.220209319183
 31
0.0
  0
LINE
  5
7CA8
330
19
100
AcDbEntity
  8
1
100
AcDbLine
 10
954.2353816643771
 20
3438.220209319183
 30
0.0
 11
2094.235381664378
 21
3438.220209319183
 31
0.0
  0
LINE
  5
7CA9
330
19
100
AcDbEntity
  8
1
100
AcDbLine
 10
2094.235381664378
 20
3278.220209319183
 30
0.0
 11
2094.235381664378
 21
3438.220209319183
 31
0.0
  0
LINE
  5
7CAA
330
19
100
AcDbEntity
  8
1
100
AcDbLine
 10
954.2353816643771
 20
3278.220209319183
 30
0.0
 11
954.2353816643771
 21
3438.220209319183
 31
0.0
  0
LINE
  5
7CAB
330
19
100
AcDbEntity
  8
1
100
AcDbLine
 10
1064.235381664377
 20
3400.720209319183
 30
0.0
 11
1284.235381664377
 21
3400.720209319183
 31
0.0
  0
LINE
  5
7CAC
330
19
100
AcDbEntity
  8
1
100
AcDbLine
 10
1064.235381664377
 20
3315.720209319183
 30
0.0
 11
1284.235381664377
 21
3315.720209319183
 31
0.0
  0
LINE
  5
7CAD
330
19
100
AcDbEntity
  8
1
100
AcDbLine
 10
1064.235381664377
 20
3315.720209319183
 30
0.0
 11
1064.235381664377
 21
3400.720209319183
 31
0.0
  0
LINE
  5
7CAE
330
19
100
AcDbEntity
  8
1
100
AcDbLine
 10
1284.235381664377
 20
3315.720209319183
 30
0.0
 11
1284.235381664377
 21
3400.720209319183
 31
0.0
  0
LINE
  5
7CAF
330
19
100
AcDbEntity
  8
1
100
AcDbLine
 10
1734.735381664378
 20
3315.720209319183
 30
0.0
 11
1734.735381664378
 21
3400.720209319183
 31
0.0
  0
LINE
  5
7CB0
330
19
100
AcDbEntity
  8
1
100
AcDbLine
 10
2013.735381664378
 20
3315.720209319182
 30
0.0
 11
2013.735381664378
 21
3400.720209319183
 31
0.0
  0
LINE
  5
7CB1
330
19
100
AcDbEntity
  8
1
100
AcDbLine
 10
1734.735381664378
 20
3400.720209319183
 30
0.0
 11
2013.735381664378
 21
3400.720209319183
 31
0.0
  0
LINE
  5
7CB2
330
19
100
AcDbEntity
  8
1
100
AcDbLine
 10
1734.735381664378
 20
3315.720209319183
 30
0.0
 11
2013.735381664378
 21
3315.720209319183
 31
0.0
  0
LINE
  5
7CB3
330
19
100
AcDbEntity
  8
1
100
AcDbLine
 10
1151.735381664377
 20
3400.720209319183
 30
0.0
 11
1151.735381664377
 21
3583.220209319183
 31
0.0
  0
LINE
  5
7CB4
330
19
100
AcDbEntity
  8
1
100
AcDbLine
 10
1196.735381664377
 20
3400.720209319183
 30
0.0
 11
1196.735381664377
 21
3583.220209319183
 31
0.0
  0
LINE
  5
7CB5
330
19
100
AcDbEntity
  8
1
100
AcDbLine
 10
2689.367632448948
 20
2292.970551816308
 30
0.0
 11
2849.367632448948
 21
2292.970551816307
 31
0.0
  0
LINE
  5
7CB6
330
19
100
AcDbEntity
  8
2
100
AcDbLine
 10
2631.417186862979
 20
1827.970551816308
 30
0.0
 11
3402.867632448948
 21
1827.970551816308
 31
0.0
  0
LINE
  5
7CB7
330
19
100
AcDbEntity
  8
1
100
AcDbLine
 10
2689.367632448948
 20
1607.970551816308
 30
0.0
 11
2849.367632448948
 21
1607.970551816308
 31
0.0
  0
LINE
  5
7CB8
330
19
100
AcDbEntity
  8
1
100
AcDbLine
 10
2811.867632448948
 20
2182.970551816308
 30
0.0
 11
2811.867632448948
 21
1679.470551816307
 31
0.0
  0
LINE
  5
7CB9
330
19
100
AcDbEntity
  8
1
100
AcDbLine
 10
2726.867632448948
 20
2182.970551816308
 30
0.0
 11
2726.867632448948
 21
1679.470551816307
 31
0.0
  0
LINE
  5
7CBA
330
19
100
AcDbEntity
  8
1
100
AcDbLine
 10
2726.867632448948
 20
2182.970551816308
 30
0.0
 11
2811.867632448948
 21
2182.970551816307
 31
0.0
  0
LINE
  5
7CBB
330
19
100
AcDbEntity
  8
1
100
AcDbLine
 10
2726.867632448948
 20
1962.970551816307
 30
0.0
 11
2811.867632448948
 21
1962.970551816307
 31
0.0
  0
LINE
  5
7CBC
330
19
100
AcDbEntity
  8
1
100
AcDbLine
 10
2726.867632448948
 20
1976.470551816308
 30
0.0
 11
2811.867632448948
 21
1976.470551816308
 31
0.0
  0
LINE
  5
7CBD
330
19
100
AcDbEntity
  8
1
100
AcDbLine
 10
2726.867632448948
 20
1679.470551816307
 30
0.0
 11
2811.867632448948
 21
1679.470551816307
 31
0.0
  0
LINE
  5
7CBE
330
19
100
AcDbEntity
  8
1
100
AcDbLine
 10
2811.867632448949
 20
2095.470551816308
 30
0.0
 11
2994.367632448948
 21
2095.470551816308
 31
0.0
  0
LINE
  5
7CBF
330
19
100
AcDbEntity
  8
1
100
AcDbLine
 10
2811.867632448948
 20
2050.470551816308
 30
0.0
 11
2994.367632448949
 21
2050.470551816308
 31
0.0
  0
DIMENSION
  5
7CC0
330
19
100
AcDbEntity
  8
3
100
AcDbDimension
280
     0
  2
*D7
 10
2689.367632448948
 20
2695.323487539223
 30
0.0
 11
3029.367632448948
 21
2751.037773253509
 31
0.0
 70
    32
  1
(<>)
 71
     5
 42
680.0
 73
     0
 74
     0
 75
     0
  3
MATSU
100
AcDbAlignedDimension
 13
3369.367632448948
 23
2618.723304077235
 33
0.0
 14
2689.367632448948
 24
2292.970551816308
 34
0.0
100
AcDbRotatedDimension
1001
ACAD
1000
DSTYLE
1002
{
1070
   287
1070
     4
1070
    40
1040
20.0
1070
    75
1070
     1
1070
   279
1070
     1
1070
   289
1070
     3
1002
}
  0
LINE
  5
7CC1
330
19
100
AcDbEntity
  8
1
100
AcDbLine
 10
2056.735381664379
 20
3992.220209319183
 30
0.0
 11
2056.735381664378
 21
3430.720209319183
 31
0.0
  0
LINE
  5
7CC2
330
19
100
AcDbEntity
  8
1
100
AcDbLine
 10
1691.735381664379
 20
3583.220209319183
 30
0.0
 11
1691.735381664377
 21
3430.720209319183
 31
0.0
  0
LINE
  5
7CC3
330
19
100
AcDbEntity
  8
1
100
AcDbLine
 10
2056.735381664378
 20
3992.220209319183
 30
0.0
 11
1774.235381664378
 21
3992.220209319183
 31
0.0
  0
LINE
  5
7CC4
330
19
100
AcDbEntity
  8
1
100
AcDbLine
 10
2056.735381664378
 20
3430.720209319183
 30
0.0
 11
1691.735381664377
 21
3430.720209319183
 31
0.0
  0
LINE
  5
7CC5
330
19
100
AcDbEntity
  8
1
100
AcDbLine
 10
3402.867632448948
 20
1645.470551816308
 30
0.0
 11
2841.867632448948
 21
1645.470551816307
 31
0.0
  0
LINE
  5
7CC6
330
19
100
AcDbEntity
  8
1
100
AcDbLine
 10
2841.867632448948
 20
1803.970551816308
 30
0.0
 11
2811.867632448948
 21
1803.970551816308
 31
0.0
  0
LINE
  5
7CC7
330
19
100
AcDbEntity
  8
1
100
AcDbLine
 10
2841.867632448948
 20
1851.970551816307
 30
0.0
 11
2811.867632448948
 21
1851.970551816308
 31
0.0
  0
LINE
  5
7CC8
330
19
100
AcDbEntity
  8
1
100
AcDbLine
 10
2841.867632448949
 20
2012.970551816308
 30
0.0
 11
2841.867632448948
 21
1645.470551816307
 31
0.0
  0
LINE
  5
7CC9
330
19
100
AcDbEntity
  8
1
100
AcDbLine
 10
2849.367632448949
 20
1659.614653826687
 30
0.0
 11
2849.367632448949
 21
1607.970551816308
 31
0.0
  0
DIMENSION
  5
7CCA
330
19
100
AcDbEntity
  8
3
100
AcDbDimension
280
     0
  2
*D8
 10
622.6417836126638
 20
3451.220209319183
 30
0.0
 11
582.6417836126638
 21
3913.720209319182
 31
0.0
 12
253.4609966314401
 22
802.146673483916
 32
0.0
 70
    32
 71
     5
 42
-1.0
 73
     0
 74
     0
 75
     0
  3
MATSU
100
AcDbAlignedDimension
 13
819.235381664378
 23
4376.220209319182
 33
0.0
 14
819.2353816643771
 24
3451.220209319183
 34
0.0
 50
270.0
100
AcDbRotatedDimension
1001
ACAD
1000
DSTYLE
1002
{
1070
    40
1040
20.0
1002
}
  0
DIMENSION
  5
7CCB
330
19
100
AcDbEntity
  8
3
100
AcDbDimension
280
     0
  2
*D9
 10
1529.235381664378
 20
4531.574161083508
 30
0.0
 11
1174.235381664378
 21
4571.574161083509
 31
0.0
 12
253.4609966314401
 22
802.146673483916
 32
0.0
 70
    32
 71
     5
 42
-1.0
 73
     0
 74
     0
 75
     0
  3
MATSU
100
AcDbAlignedDimension
 13
819.235381664378
 23
4376.220209319182
 33
0.0
 14
1529.235381664378
 24
4376.220209319182
 34
0.0
100
AcDbRotatedDimension
1001
ACAD
1000
DSTYLE
1002
{
1070
    40
1040
20.0
1002
}
  0
DIMENSION
  5
7CCC
330
19
100
AcDbEntity
  8
3
100
AcDbDimension
280
     0
  2
*D10
 10
2169.235381664378
 20
4531.574161083508
 30
0.0
 11
1849.235381664378
 21
4571.574161083509
 31
0.0
 70
    32
 71
     5
 42
-1.0
 73
     0
 74
     0
 75
     0
  3
MATSU
100
AcDbAlignedDimension
 13
1529.235381664378
 23
4376.220209319182
 33
0.0
 14
2169.235381664378
 24
4051.220209319182
 34
0.0
100
AcDbRotatedDimension
1001
ACAD
1000
DSTYLE
1002
{
1070
   287
1070
     4
1070
    40
1040
20.0
1070
    75
1070
     1
1070
   279
1070
     1
1070
   289
1070
     3
1002
}
  0
DIMENSION
  5
7CCD
330
19
100
AcDbEntity
  8
3
100
AcDbDimension
280
     0
  2
*D11
 10
2368.01011335358
 20
3451.220209319183
 30
0.0
 11
2328.010113353581
 21
3751.220209319182
 31
0.0
 12
253.4609966314401
 22
802.146673483916
 32
0.0
 70
    32
 71
     5
 42
-1.0
 73
     0
 74
     0
 75
     0
  3
MATSU
100
AcDbAlignedDimension
 13
2169.235381664378
 23
4051.220209319182
 33
0.0
 14
2169.235381664378
 24
3451.220209319183
 34
0.0
 50
270.0
100
AcDbRotatedDimension
1001
ACAD
1000
DSTYLE
1002
{
1070
    40
1040
20.0
1002
}
  0
DIMENSION
  5
7CCE
330
19
100
AcDbEntity
  8
3
100
AcDbDimension
280
     0
  2
*D12
 10
819.2353816643771
 20
3016.191755519761
 30
0.0
 11
1494.235381664377
 21
3056.191755519762
 31
0.0
 12
253.4609966314401
 22
802.146673483916
 32
0.0
 70
    32
 71
     5
 42
-1.0
 73
     0
 74
     0
 75
     0
  3
MATSU
100
AcDbAlignedDimension
 13
2169.235381664378
 23
3451.220209319183
 33
0.0
 14
819.2353816643771
 24
3451.220209319183
 34
0.0
100
AcDbRotatedDimension
1001
ACAD
1000
DSTYLE
1002
{
1070
    40
1040
20.0
1002
}
  0
CIRCLE
  5
7CD5
330
19
100
AcDbEntity
  8
1
100
AcDbCircle
 10
1874.235381664377
 20
1827.970551816307
 30
0.0
 40
139.5
  0
CIRCLE
  5
7CD6
330
19
100
AcDbEntity
  8
1
100
AcDbCircle
 10
1174.235381664377
 20
2072.970551816308
 30
0.0
 40
110.0
  0
ARC
  5
7CD7
330
19
100
AcDbEntity
  8
1
100
AcDbCircle
 10
1174.235381664377
 20
2072.970551816308
 30
0.0
 40
220.0
100
AcDbArc
 50
77.12499844038751
 51
257.1249984403875
  0
ARC
  5
7CD8
330
19
100
AcDbEntity
  8
1
100
AcDbCircle
 10
1874.235381664377
 20
1827.970551816307
 30
0.0
 40
220.0
100
AcDbArc
 50
257.1249984403875
 51
77.12499844038751
  0
LINE
  5
7CD9
330
19
100
AcDbEntity
  8
1
100
AcDbLine
 10
1223.256837994849
 20
2287.439423262119
 30
0.0
 11
1923.256837994848
 21
2042.439423262118
 31
0.0
  0
LINE
  5
7CDA
330
19
100
AcDbEntity
  8
1
100
AcDbLine
 10
1125.213925333906
 20
1858.501680370497
 30
0.0
 11
1825.213925333905
 21
1613.501680370497
 31
0.0
  0
LINE
  5
7CDB
330
19
100
AcDbEntity
  8
1
100
AcDbLine
 10
1194.319869071867
 20
2181.121434224074
 30
0.0
 11
1899.706163422057
 21
1965.125534506156
 31
0.0
  0
LINE
  5
7CDC
330
19
100
AcDbEntity
  8
1
100
AcDbLine
 10
1145.339800385669
 20
1966.833633721963
 30
0.0
 11
1837.590530860925
 21
1693.369642051206
 31
0.0
  0
LINE
  5
7CDD
330
19
100
AcDbEntity
  8
1
100
AcDbLine
 10
2841.867632448948
 20
2012.970551816308
 30
0.0
 11
3402.867632448948
 21
2012.970551816308
 31
0.0
  0
LINE
  5
7CDE
330
19
100
AcDbEntity
  8
1
100
AcDbLine
 10
819.235381664378
 20
4333.220209319182
 30
0.0
 11
819.235381664378
 21
4376.220209319182
 31
0.0
  0
DIMENSION
  5
7CDF
330
19
100
AcDbEntity
  8
3
100
AcDbDimension
280
     0
  2
*D13
 10
629.9346733493348
 20
2072.970551816308
 30
0.0
 11
589.9346733493348
 21
2267.970551816308
 31
0.0
 12
253.4609966314401
 22
1013.23791780811
 32
0.0
 70
    32
 71
     5
 42
-1.0
 73
     0
 74
     0
 75
     0
  3
MATSU
100
AcDbAlignedDimension
 13
1162.235381664378
 23
2462.970551816308
 33
0.0
 14
783.8960324764394
 24
2072.970551816308
 34
0.0
 50
270.0
100
AcDbRotatedDimension
1001
ACAD
1000
DSTYLE
1002
{
1070
    40
1040
20.0
1002
}
  0
DIMENSION
  5
7CE0
330
19
100
AcDbEntity
  8
3
100
AcDbDimension
280
     0
  2
*D14
 10
772.5612397927107
 20
2744.887274780397
 30
0.0
 11
973.3983107285444
 21
2784.887274780397
 31
0.0
 70
    32
  1
400
 71
     5
 42
-1.0
 73
     0
 74
     0
 75
     0
  3
MATSU
100
AcDbAlignedDimension
 13
1174.235381664378
 23
2506.570176381566
 33
0.0
 14
772.5612397927107
 24
2030.970551816308
 34
0.0
100
AcDbRotatedDimension
1001
ACAD
1000
DSTYLE
1002
{
1070
   287
1070
     4
1070
    40
1040
20.0
1070
    75
1070
     1
1070
   279
1070
     1
1070
   289
1070
     3
1002
}
  0
DIMENSION
  5
7CE1
330
19
100
AcDbEntity
  8
3
100
AcDbDimension
280
     0
  2
*D15
 10
2169.235381664377
 20
2859.070069952752
 30
0.0
 11
1470.898310728544
 21
2899.070069952752
 31
0.0
 12
253.4609966314401
 22
1013.23791780811
 32
0.0
 70
    32
  1
1395
 71
     5
 42
-1.0
 73
     0
 74
     0
 75
     0
  3
MATSU
100
AcDbAlignedDimension
 13
772.5612397927107
 23
2030.970551816308
 33
0.0
 14
2169.235381664377
 24
1592.970551816307
 34
0.0
100
AcDbRotatedDimension
1001
ACAD
1000
DSTYLE
1002
{
1070
    40
1040
20.0
1002
}
  0
LINE
  5
7CE3
330
19
100
AcDbEntity
  8
1
100
AcDbLine
 10
2964.367632448948
 20
2462.970551816308
 30
0.0
 11
2964.367632448948
 21
2459.970551816308
 31
0.0
  0
LINE
  5
7CE4
330
19
100
AcDbEntity
  8
1
100
AcDbLine
 10
3774.367632448948
 20
2462.970551816308
 30
0.0
 11
3774.367632448948
 21
2459.970551816308
 31
0.0
  0
LINE
  5
7CE5
330
19
100
AcDbEntity
  8
1
100
AcDbLine
 10
2964.367632448948
 20
2459.970551816308
 30
0.0
 11
3774.367632448948
 21
2459.970551816308
 31
0.0
  0
LINE
  5
7CE6
330
19
100
AcDbEntity
  8
1
100
AcDbLine
 10
1774.235381664378
 20
3583.220209319183
 30
0.0
 11
1774.235381664378
 21
4333.220209319182
 31
0.0
  0
LINE
  5
7CE7
330
19
100
AcDbEntity
  8
1
100
AcDbLine
 10
774.2353816643781
 20
3583.220209319183
 30
0.0
 11
774.2353816643781
 21
4333.220209319182
 31
0.0
  0
LINE
  5
7CE8
330
19
100
AcDbEntity
  8
1
100
AcDbLine
 10
1194.235381664377
 20
3583.220209319183
 30
0.0
 11
1194.235381664378
 21
4333.220209319182
 31
0.0
  0
LINE
  5
7CE9
330
19
100
AcDbEntity
  8
1
100
AcDbLine
 10
1194.235381664378
 20
4333.220209319182
 30
0.0
 11
1774.235381664378
 21
3583.220209319183
 31
0.0
  0
LINE
  5
7CEA
330
19
100
AcDbEntity
  8
1
100
AcDbLine
 10
1774.235381664378
 20
4333.220209319182
 30
0.0
 11
1196.735381664377
 21
3583.220209319183
 31
0.0
  0
LINE
  5
7CEB
330
19
100
AcDbEntity
  8
1
100
AcDbLine
 10
3402.867632448948
 20
2012.970551816307
 30
0.0
 11
3402.867632448948
 21
1645.470551816306
 31
0.0
  0
LINE
  5
7CEC
330
19
100
AcDbEntity
  8
1
100
AcDbLine
 10
3356.753198819652
 20
1645.470551816308
 30
0.0
 11
3356.753198819652
 21
1592.970551816308
 31
0.0
  0
LINE
  5
7CED
330
19
100
AcDbEntity
  8
1
100
AcDbLine
 10
2953.143087522689
 20
1645.470551816308
 30
0.0
 11
2953.143087522689
 21
1592.970551816307
 31
0.0
  0
LINE
  5
7F10
330
19
100
AcDbEntity
  8
1
100
AcDbLine
 10
1774.235381664378
 20
2462.970551816308
 30
0.0
 11
1742.235381664377
 21
2072.970551816307
 31
0.0
  0
ARC
  5
7F11
330
19
100
AcDbEntity
  8
1
100
AcDbCircle
 10
1216.235381664377
 20
2114.970551816307
 30
0.0
 40
527.6741418716661
100
AcDbArc
 50
278.4099760094564
 51
355.434737615583
  0
ARC
  5
7F12
330
19
100
AcDbEntity
  8
1
100
AcDbCircle
 10
1216.235381664377
 20
2030.970551816308
 30
0.0
 40
443.6741418716669
100
AcDbArc
 50
173.1572265873691
 51
260.8268265737641
  0
ARC
  5
7F13
330
19
100
AcDbEntity
  8
1
100
AcDbCircle
 10
1141.235381664377
 20
2039.970551816308
 30
0.0
 40
368.1360719995825
100
AcDbArc
 50
89.99999999999992
 51
173.1572265873689
  0
ARC
  5
7F14
330
19
100
AcDbEntity
  8
1
100
AcDbCircle
 10
1141.235381664379
 20
2105.970551816316
 30
0.0
 40
302.1360719995739
100
AcDbArc
 50
79.89703628222386
 51
90.00000000000026
  0
LINE
  5
7F15
330
19
100
AcDbEntity
  8
4
100
AcDbLine
 10
3700.0
 20
909.0558832129973
 30
0.0
 11
3700.0
 21
509.0558832129972
 31
0.0
  0
LINE
  5
7F16
330
19
100
AcDbEntity
  8
4
100
AcDbLine
 10
2300.0
 20
909.0558832129973
 30
0.0
 11
2300.0
 21
509.0558832129972
 31
0.0
  0
LINE
  5
7F17
330
19
100
AcDbEntity
  8
4
100
AcDbLine
 10
1300.0
 20
909.0558832129973
 30
0.0
 11
1300.0
 21
509.0558832129972
 31
0.0
  0
LINE
  5
7F1A
330
19
100
AcDbEntity
  8
4
100
AcDbLine
 10
1300.0
 20
509.0558832129972
 30
0.0
 11
3700.0
 21
509.0558832129972
 31
0.0
  0
LINE
  5
7F1B
330
19
100
AcDbEntity
  8
4
100
AcDbLine
 10
1300.0
 20
709.0558832129972
 30
0.0
 11
3700.0
 21
709.0558832129972
 31
0.0
  0
TEXT
  5
7F1C
330
19
100
AcDbEntity
  8
4
100
AcDbText
 10
1377.004161693803
 20
772.141934946223
 30
0.0
 40
100.0
  1
機器名称
100
AcDbText
  0
TEXT
  5
7F1D
330
19
100
AcDbEntity
  8
4
100
AcDbText
 10
1372.516212049595
 20
552.3461966770192
 30
0.0
 40
100.0
  1
機器型番
100
AcDbText
  0
TEXT
  5
7F1E
330
19
100
AcDbEntity
  8
4
100
AcDbText
 10
2358.469244649076
 20
769.8755450481622
 30
0.0
 40
80.0
  1
ミツヤリミットロードファン
100
AcDbText
  0
TEXT
  5
7F1F
330
19
100
AcDbEntity
  8
4
100
AcDbText
 10
2373.308991170961
 20
543.375051772884
 30
0.0
 40
100.0
  1
LL#3 1/2-5
100
AcDbText
  0
TEXT
  5
7F21
330
19
100
AcDbEntity
  8
4
100
AcDbText
 10
1556.110534300566
 20
4766.857682665031
 30
0.0
 40
108.0
  1
床置防振ベット
100
AcDbText
  0
TEXT
  5
7F22
330
19
100
AcDbEntity
  8
4
100
AcDbText
 10
632.3351866588928
 20
5067.761952398596
 30
0.0
 40
144.0
  1
遠心式両吸込両持リミットロードファン
100
AcDbText
  0
LINE
  5
7F23
330
19
100
AcDbEntity
  8
4
100
AcDbLine
 10
500.0
 20
4938.817508529609
 30
0.0
 11
3700.0
 21
4938.817508529609
 31
0.0
  0
LINE
  5
7F24
330
19
100
AcDbEntity
  8
4
100
AcDbLine
 10
500.0
 20
5338.81750852961
 30
0.0
 11
3700.0
 21
5338.81750852961
 31
0.0
  0
LINE
  5
7F25
330
19
100
AcDbEntity
  8
4
100
AcDbLine
 10
1300.0
 20
909.0558832129973
 30
0.0
 11
3700.0
 21
909.0558832129973
 31
0.0
  0
LINE
  5
7F26
330
19
100
AcDbEntity
  8
4
100
AcDbLine
 10
500.0
 20
5338.81750852961
 30
0.0
 11
500.0
 21
4938.817508529609
 31
0.0
  0
TEXT
  5
7F27
330
19
100
AcDbEntity
  8
4
100
AcDbText
 10
790.0016218499513
 20
4764.638955092687
 30
0.0
 40
108.0
  1
左回転上向
100
AcDbText
  0
TEXT
  5
7F28
330
19
100
AcDbEntity
  8
4
100
AcDbText
 10
2937.93911849858
 20
5412.122162990618
 30
0.0
 40
112.0
  1
No.
100
AcDbText
  0
TEXT
  5
7F29
330
19
100
AcDbEntity
  8
4
100
AcDbText
 10
2622.592125200026
 20
4766.857682665031
 30
0.0
 40
108.0
  1
縮尺：1/20
100
AcDbText
  0
LINE
  5
7F2A
330
19
100
AcDbEntity
  8
4
100
AcDbLine
 10
3700.0
 20
5338.81750852961
 30
0.0
 11
3700.0
 21
4938.817508529609
 31
0.0
  0
LINE
  5
7F2B
330
19
100
AcDbEntity
  8
4
100
AcDbLine
 10
4200.0
 20
5900.0
 30
0.0
 11
4200.0
 21
5900.0
 31
0.0
  0
LINE
  5
7F2C
330
19
100
AcDbEntity
  8
4
100
AcDbLine
 10
2881.234844719729
 20
5362.527166250802
 30
0.0
 11
2881.234844719729
 21
5573.304523099505
 31
0.0
  0
LINE
  5
7F2D
330
19
100
AcDbEntity
  8
4
100
AcDbLine
 10
2881.234844719729
 20
5573.304523099505
 30
0.0
 11
3700.0
 21
5573.304523099505
 31
0.0
  0
LINE
  5
7F2E
330
19
100
AcDbEntity
  8
4
100
AcDbLine
 10
3700.0
 20
5573.304523099505
 30
0.0
 11
3700.0
 21
5362.527166250802
 31
0.0
  0
LINE
  5
7F2F
330
19
100
AcDbEntity
  8
4
100
AcDbLine
 10
3700.0
 20
5362.527166250802
 30
0.0
 11
2881.234844719729
 21
5362.527166250802
 31
0.0
  0
LINE
  5
7F30
330
19
100
AcDbEntity
  8
4
100
AcDbLine
 10
0.0
 20
0.0
 30
0.0
 11
0.0
 21
5900.0
 31
0.0
  0
LINE
  5
7F31
330
19
100
AcDbEntity
  8
4
100
AcDbLine
 10
0.0
 20
5900.0
 30
0.0
 11
4200.0
 21
5900.0
 31
0.0
  0
LINE
  5
7F32
330
19
100
AcDbEntity
  8
4
100
AcDbLine
 10
4200.0
 20
5900.0
 30
0.0
 11
4200.0
 21
0.0
 31
0.0
  0
LINE
  5
7F33
330
19
100
AcDbEntity
  8
4
100
AcDbLine
 10
4200.0
 20
0.0
 30
0.0
 11
0.0
 21
0.0
 31
0.0
  0
DIMENSION
  5
7F6F
330
19
100
AcDbEntity
  8
3
100
AcDbDimension
280
     0
  2
*D16
 10
629.4330725594427
 20
1405.970551816308
 30
0.0
 11
579.4330725594424
 21
1257.39912324488
 31
0.0
 70
    32
 71
     5
 42
-1.0
 73
     0
 74
     0
 75
     0
  3
IGA
100
AcDbAlignedDimension
 13
819.2353816643771
 23
1480.970551816308
 33
0.0
 14
819.2353816643771
 24
1405.970551816308
 34
0.0
 50
90.0
100
AcDbRotatedDimension
1001
ACAD
1000
DSTYLE
1002
{
1070
   287
1070
     3
1070
    40
1040
20.0
1070
   143
1040
0.039
1070
   172
1070
     1
1070
   271
1070
     0
1070
   279
1070
     0
1070
   288
1070
     1
1070
     6
1000
DOT
1002
}
  0
DIMENSION
  5
801C
330
19
100
AcDbEntity
  8
3
100
AcDbDimension
280
     0
  2
*D18
 10
1174.235381664377
 20
1279.832637640484
 30
0.0
 11
996.7353816643774
 21
1329.832637640484
 31
0.0
 70
    32
 71
     5
 42
-1.0
 73
     0
 74
     0
 75
     0
  3
IGA
100
AcDbAlignedDimension
 13
819.2353816643771
 23
1405.970551816308
 33
0.0
 14
1174.235381664377
 24
1405.970551816308
 34
0.0
100
AcDbRotatedDimension
1001
ACAD
1000
DSTYLE
1002
{
1070
   172
1070
     1
1070
    40
1040
20.0
1070
   271
1070
     0
1070
   143
1040
0.039
1002
}
  0
DIMENSION
  5
8029
330
19
100
AcDbEntity
  8
3
100
AcDbDimension
280
     0
  2
*D19
 10
2169.235381664377
 20
1279.832637640484
 30
0.0
 11
1671.735381664377
 21
1329.832637640484
 31
0.0
 70
    32
 71
     5
 42
-1.0
 73
     0
 74
     0
 75
     0
  3
IGA
100
AcDbAlignedDimension
 13
1174.235381664377
 23
1405.970551816308
 33
0.0
 14
2169.235381664377
 24
1405.970551816307
 34
0.0
100
AcDbRotatedDimension
1001
ACAD
1000
DSTYLE
1002
{
1070
   172
1070
     1
1070
    40
1040
20.0
1070
   271
1070
     0
1070
   143
1040
0.039
1002
}
  0
DIMENSION
  5
8036
330
19
100
AcDbEntity
  8
3
100
AcDbDimension
280
     0
  2
*D20
 10
3369.367632448948
 20
1279.832637640484
 30
0.0
 11
3115.867632448948
 21
1329.832637640484
 31
0.0
 70
    32
 71
     5
 42
-1.0
 73
     0
 74
     0
 75
     0
  3
IGA
100
AcDbAlignedDimension
 13
2862.367632448948
 23
1405.970551816308
 33
0.0
 14
3369.367632448948
 24
1405.970551816308
 34
0.0
100
AcDbRotatedDimension
1001
ACAD
1000
DSTYLE
1002
{
1070
   172
1070
     1
1070
    40
1040
20.0
1070
   271
1070
     0
1070
   143
1040
0.039
1002
}
  0
DIMENSION
  5
8043
330
19
100
AcDbEntity
  8
3
100
AcDbDimension
280
     0
  2
*D21
 10
3787.367632448948
 20
1279.832637640484
 30
0.0
 11
3578.367632448948
 21
1329.832637640484
 31
0.0
 70
    32
 71
     5
 42
-1.0
 73
     0
 74
     0
 75
     0
  3
IGA
100
AcDbAlignedDimension
 13
3369.367632448948
 23
1405.970551816308
 33
0.0
 14
3787.367632448948
 24
1405.970551816308
 34
0.0
100
AcDbRotatedDimension
1001
ACAD
1000
DSTYLE
1002
{
1070
   172
1070
     1
1070
    40
1040
20.0
1070
   271
1070
     0
1070
   143
1040
0.039
1002
}
  0
DIMENSION
  5
8052
330
19
100
AcDbEntity
  8
3
100
AcDbDimension
280
     0
  2
*D23
 10
631.1170755767052
 20
1517.970551816308
 30
0.0
 11
535.4027898624195
 21
1499.470551816308
 31
0.0
 70
    32
 71
     5
 42
-1.0
 73
     0
 74
     0
 75
     0
  3
IGA
100
AcDbAlignedDimension
 13
819.2353816643771
 23
1480.970551816308
 33
0.0
 14
819.2353816643771
 24
1517.970551816308
 34
0.0
 50
90.0
100
AcDbRotatedDimension
1001
ACAD
1000
DSTYLE
1002
{
1070
   172
1070
     1
1070
    76
1070
     1
1070
    75
1070
     1
1070
    40
1040
20.0
1070
     3
1000
(<>)
1070
   271
1070
     0
1070
     7
1000
_NONE
1070
     6
1000
_NONE
1070
   143
1040
0.039
1002
}
  0
DIMENSION
  5
805F
330
19
100
AcDbEntity
  8
3
100
AcDbDimension
280
     0
  2
*D24
 10
454.0579341975753
 20
1405.970551816308
 30
0.0
 11
388.3436484832897
 21
1934.470551816308
 31
0.0
 70
    32
 71
     5
 42
-1.0
 73
     0
 74
     0
 75
     0
  3
IGA
100
AcDbAlignedDimension
 13
1162.235381664378
 23
2462.970551816308
 33
0.0
 14
819.2353816643771
 24
1405.970551816308
 34
0.0
 50
90.0
100
AcDbRotatedDimension
1001
ACAD
1000
DSTYLE
1002
{
1070
   172
1070
     1
1070
    40
1040
20.0
1070
     3
1000
(<>)
1070
   271
1070
     0
1070
   143
1040
0.039
1002
}
  0
ENDSEC
  0
SECTION
  2
OBJECTS
  0
DICTIONARY
  5
C
330
0
100
AcDbDictionary
281
     1
  3
ACAD_CIP_PREVIOUS_PRODUCT_INFO
350
8124
  3
ACAD_COLOR
350
8107
  3
ACAD_DETAILVIEWSTYLE
350
8120
  3
ACAD_GROUP
350
D
  3
ACAD_LAYOUT
350
8068
  3
ACAD_MATERIAL
350
80D5
  3
ACAD_MLEADERSTYLE
350
811C
  3
ACAD_MLINESTYLE
350
E
  3
ACAD_PLOTSETTINGS
350
8069
  3
ACAD_PLOTSTYLENAME
350
8066
  3
ACAD_SCALELIST
350
810A
  3
ACAD_SECTIONVIEWSTYLE
350
811E
  3
ACAD_TABLESTYLE
350
8108
  3
ACAD_VISUALSTYLE
350
80EE
  3
ACDB_RECOMPOSE_DATA
350
8190
  3
AcDbVariableDictionary
350
817F
  3
AcDsDecomposeData
350
8196
  0
DICTIONARY
  5
8173
330
2
100
AcDbDictionary
280
     1
281
     1
  3
ACAD_LAYERSTATES
360
8174
  0
DICTIONARY
  5
8166
330
F
100
AcDbDictionary
280
     1
281
     1
  3
ADSK_XREC_LAYER_RECONCILED
360
8167
  0
DICTIONARY
  5
8168
330
31
100
AcDbDictionary
280
     1
281
     1
  3
ADSK_XREC_LAYER_RECONCILED
360
8169
  0
DICTIONARY
  5
816A
330
76D0
100
AcDbDictionary
280
     1
281
     1
  3
ADSK_XREC_LAYER_RECONCILED
360
816B
  0
DICTIONARY
  5
816C
330
76D1
100
AcDbDictionary
280
     1
281
     1
  3
ADSK_XREC_LAYER_RECONCILED
360
816D
  0
DICTIONARY
  5
816E
330
76D2
100
AcDbDictionary
280
     1
281
     1
  3
ADSK_XREC_LAYER_RECONCILED
360
816F
  0
DICTIONARY
  5
8095
330
19
100
AcDbDictionary
280
     1
281
     1
  3
ACAD_LAYOUTSELFREF
360
8096
  0
DICTIONARY
  5
8093
330
16
100
AcDbDictionary
280
     1
281
     1
  3
ACAD_LAYOUTSELFREF
360
8094
  0
XRECORD
  5
8124
102
{ACAD_REACTORS
330
C
102
}
330
C
100
AcDbXrecord
280
     1
300
ACDLT
300
2023
300

  0
DICTIONARY
  5
8107
102
{ACAD_REACTORS
330
C
102
}
330
C
100
AcDbDictionary
281
     1
  0
DICTIONARY
  5
8120
102
{ACAD_REACTORS
330
C
102
}
330
C
100
AcDbDictionary
281
     1
  3
Metric50
350
8121
  0
DICTIONARY
  5
D
102
{ACAD_REACTORS
330
C
102
}
330
C
100
AcDbDictionary
281
     1
  0
DICTIONARY
  5
8068
102
{ACAD_REACTORS
330
C
102
}
330
C
100
AcDbDictionary
281
     1
  3
Model
350
806A
  3
ﾚｲｱｳﾄ1
350
806B
  0
DICTIONARY
  5
80D5
102
{ACAD_REACTORS
330
C
102
}
330
C
100
AcDbDictionary
281
     1
  3
ByBlock
350
80DE
  3
ByLayer
350
80D6
  3
Global
350
80E6
  0
DICTIONARY
  5
811C
102
{ACAD_REACTORS
330
C
102
}
330
C
100
AcDbDictionary
281
     1
  3
Standard
350
811D
  0
DICTIONARY
  5
E
102
{ACAD_REACTORS
330
C
102
}
330
C
100
AcDbDictionary
281
     1
  3
STANDARD
350
1C
  0
DICTIONARY
  5
8069
102
{ACAD_REACTORS
330
C
102
}
330
C
100
AcDbDictionary
281
     1
  0
ACDBDICTIONARYWDFLT
  5
8066
102
{ACAD_REACTORS
330
C
102
}
330
C
100
AcDbDictionary
281
     1
  3
Normal
350
8067
100
AcDbDictionaryWithDefault
340
8067
  0
DICTIONARY
  5
810A
102
{ACAD_REACTORS
330
C
102
}
330
C
100
AcDbDictionary
281
     1
  3
A0
350
810B
  3
A1
350
810C
  3
A2
350
810D
  3
A3
350
810E
  3
A4
350
810F
  3
A5
350
8110
  3
A6
350
8111
  3
A7
350
8112
  3
A8
350
8113
  3
A9
350
8114
  3
B0
350
8115
  3
B1
350
8116
  3
B2
350
8117
  3
B3
350
8118
  3
B4
350
8119
  3
B5
350
811A
  3
B6
350
811B
  0
DICTIONARY
  5
811E
102
{ACAD_REACTORS
330
C
102
}
330
C
100
AcDbDictionary
281
     1
  3
Metric50
350
811F
  0
DICTIONARY
  5
8108
102
{ACAD_REACTORS
330
C
102
}
330
C
100
AcDbDictionary
281
     1
  3
Standard
350
8109
  0
DICTIONARY
  5
80EE
102
{ACAD_REACTORS
330
C
102
}
330
C
100
AcDbDictionary
281
     1
  3
2dWireframe
350
80F4
  3
Basic
350
80F3
  3
Brighten
350
80FA
  3
ColorChange
350
80FE
  3
Conceptual
350
80F7
  3
Dim
350
80F9
  3
EdgeColorOff
350
8106
  3
Facepattern
350
80FD
  3
Flat
350
80EF
  3
FlatWithEdges
350
80F0
  3
Gouraud
350
80F1
  3
GouraudWithEdges
350
80F2
  3
Hidden
350
80F6
  3
JitterOff
350
8104
  3
Linepattern
350
80FC
  3
OverhangOff
350
8105
  3
Realistic
350
80F8
  3
Shaded
350
8103
  3
Shaded with edges
350
8102
  3
Shades of Gray
350
80FF
  3
Sketchy
350
8100
  3
Thicken
350
80FB
  3
Wireframe
350
80F5
  3
X-Ray
350
8101
  0
XRECORD
  5
8190
102
{ACAD_REACTORS
330
C
102
}
330
C
100
AcDbXrecord
280
     1
 90
        1
330
7CA0
330
7CC0
330
7CCC
330
7CE0
330
8109
  0
DICTIONARY
  5
817F
102
{ACAD_REACTORS
330
C
102
}
330
C
100
AcDbDictionary
281
     1
  3
CANNOSCALE
350
8185
  3
CMLEADERSTYLE
350
8181
  3
CTABLESTYLE
350
8180
  3
CVIEWDETAILSTYLE
350
8182
  3
CVIEWSECTIONSTYLE
350
8183
  3
LAYEREVAL
350
8187
  3
LAYERNOTIFY
350
8188
  3
LIGHTINGUNITS
350
8186
  3
MARKUPASSISTMODE
350
818D
  3
MSLTSCALE
350
8184
  0
DICTIONARY
  5
8196
102
{ACAD_REACTORS
330
C
102
}
330
C
100
AcDbDictionary
281
     1
  3
AcDsRecords
350
8198
  3
AcDsSchemas
350
8197
1001
ACAD
1070
     2
  0
DICTIONARY
  5
8174
102
{ACAD_REACTORS
330
8173
102
}
330
8173
100
AcDbDictionary
281
     1
  0
XRECORD
  5
8167
102
{ACAD_REACTORS
330
8166
102
}
330
8166
100
AcDbXrecord
280
     1
290
     1
  0
XRECORD
  5
8169
102
{ACAD_REACTORS
330
8168
102
}
330
8168
100
AcDbXrecord
280
     1
290
     1
  0
XRECORD
  5
816B
102
{ACAD_REACTORS
330
816A
102
}
330
816A
100
AcDbXrecord
280
     1
290
     1
  0
XRECORD
  5
816D
102
{ACAD_REACTORS
330
816C
102
}
330
816C
100
AcDbXrecord
280
     1
290
     1
  0
XRECORD
  5
816F
102
{ACAD_REACTORS
330
816E
102
}
330
816E
100
AcDbXrecord
280
     1
290
     1
  0
XRECORD
  5
8096
102
{ACAD_REACTORS
330
8095
102
}
330
8095
100
AcDbXrecord
280
     1
340
19
  0
XRECORD
  5
8094
102
{ACAD_REACTORS
330
8093
102
}
330
8093
100
AcDbXrecord
280
     1
340
16
  0
ACDBDETAILVIEWSTYLE
  5
8121
102
{ACAD_XDICTIONARY
360
819B
102
}
102
{ACAD_REACTORS
330
8120
102
}
330
8120
100
AcDbModelDocViewStyle
 70
     0
  3
Metric50
290
     0
100
AcDbDetailViewStyle
 70
     0
 71
     0
 90
        3
 71
     1
340
10
 62
   256
 40
5.0
340
0
 62
   256
 40
5.0
300

 40
0.0
280
     1
 71
     2
340
15
 90
       25
 62
   256
 71
     3
340
10
 62
   256
 40
5.0
 90
        0
 40
15.0
 90
        1
300
%<\AcVar ViewDetailId>% (%<\AcVar ViewScale \f "%sn">%)
 71
     4
340
15
 90
       25
 62
   256
340
15
 90
       25
 62
   256
280
     0
  0
LAYOUT
  5
806A
102
{ACAD_REACTORS
330
8068
102
}
330
8068
100
AcDbPlotSettings
  1

  2
EPSON LP-9300
  4

  6

 40
0.0
 41
0.0
 42
0.0
 43
0.0
 44
0.0
 45
0.0
 46
0.0
 47
0.0
 48
0.0
 49
0.0
140
0.0
141
0.0
142
1.0
143
1.0
 70
  1712
 72
     0
 73
     0
 74
     0
  7

 75
     0
147
1.0
 76
     0
 77
     2
 78
   300
148
0.0
149
0.0
100
AcDbLayout
  1
Model
 70
     1
 71
     0
 10
0.0
 20
0.0
 11
12.0
 21
9.0
 12
0.0
 22
0.0
 32
0.0
 14
0.0
 24
0.0
 34
0.0
 15
0.0
 25
0.0
 35
0.0
146
0.0
 13
0.0
 23
0.0
 33
0.0
 16
1.0
 26
0.0
 36
0.0
 17
0.0
 27
1.0
 37
0.0
 76
     0
330
19
331
80D3
  0
LAYOUT
  5
806B
102
{ACAD_REACTORS
330
8068
102
}
330
8068
100
AcDbPlotSettings
  1

  2
EPSON LP-9300
  4

  6

 40
0.0
 41
0.0
 42
0.0
 43
0.0
 44
0.0
 45
0.0
 46
0.0
 47
0.0
 48
0.0
 49
0.0
140
0.0
141
0.0
142
1.0
143
1.0
 70
   688
 72
     0
 73
     0
 74
     5
  7

 75
    16
147
1.0
 76
     0
 77
     2
 78
   300
148
0.0
149
0.0
100
AcDbLayout
  1
ﾚｲｱｳﾄ1
 70
     1
 71
     1
 10
0.0
 20
0.0
 11
12.0
 21
9.0
 12
0.0
 22
0.0
 32
0.0
 14
1.000000000000000E+20
 24
1.000000000000000E+20
 34
1.000000000000000E+20
 15
-1.000000000000000E+20
 25
-1.000000000000000E+20
 35
-1.000000000000000E+20
146
0.0
 13
0.0
 23
0.0
 33
0.0
 16
1.0
 26
0.0
 36
0.0
 17
0.0
 27
1.0
 37
0.0
 76
     0
330
16
  0
MATERIAL
  5
80DE
102
{ACAD_XDICTIONARY
360
80DF
102
}
102
{ACAD_REACTORS
330
80D5
102
}
330
80D5
100
AcDbMaterial
  1
ByBlock
 72
     0
 43
0.0208333333333333
 43
0.0
 43
0.0
 43
0.0
 43
0.0
 43
0.0208333333333333
 43
0.0
 43
0.0
 43
0.0
 43
0.0
 43
1.0
 43
0.0
 43
0.0
 43
0.0
 43
0.0
 43
1.0
 77
     0
 47
0.0208333333333333
 47
0.0
 47
0.0
 47
0.0
 47
0.0
 47
0.0208333333333333
 47
0.0
 47
0.0
 47
0.0
 47
0.0
 47
1.0
 47
0.0
 47
0.0
 47
0.0
 47
0.0
 47
1.0
171
     0
 49
0.0208333333333333
 49
0.0
 49
0.0
 49
0.0
 49
0.0
 49
0.0208333333333333
 49
0.0
 49
0.0
 49
0.0
 49
0.0
 49
1.0
 49
0.0
 49
0.0
 49
0.0
 49
0.0
 49
1.0
175
     0
142
0.0208333333333333
142
0.0
142
0.0
142
0.0
142
0.0
142
0.0208333333333333
142
0.0
142
0.0
142
0.0
142
0.0
142
1.0
142
0.0
142
0.0
142
0.0
142
0.0
142
1.0
179
     0
144
0.0208333333333333
144
0.0
144
0.0
144
0.0
144
0.0
144
0.0208333333333333
144
0.0
144
0.0
144
0.0
144
0.0
144
1.0
144
0.0
144
0.0
144
0.0
144
0.0
144
1.0
147
0.0208333333333333
147
0.0
147
0.0
147
0.0
147
0.0
147
0.0208333333333333
147
0.0
147
0.0
147
0.0
147
0.0
147
1.0
147
0.0
147
0.0
147
0.0
147
0.0
147
1.0
  0
MATERIAL
  5
80D6
102
{ACAD_XDICTIONARY
360
80D7
102
}
102
{ACAD_REACTORS
330
80D5
102
}
330
80D5
100
AcDbMaterial
  1
ByLayer
 72
     0
 43
0.0208333333333333
 43
0.0
 43
0.0
 43
0.0
 43
0.0
 43
0.0208333333333333
 43
0.0
 43
0.0
 43
0.0
 43
0.0
 43
1.0
 43
0.0
 43
0.0
 43
0.0
 43
0.0
 43
1.0
 77
     0
 47
0.0208333333333333
 47
0.0
 47
0.0
 47
0.0
 47
0.0
 47
0.0208333333333333
 47
0.0
 47
0.0
 47
0.0
 47
0.0
 47
1.0
 47
0.0
 47
0.0
 47
0.0
 47
0.0
 47
1.0
171
     0
 49
0.0208333333333333
 49
0.0
 49
0.0
 49
0.0
 49
0.0
 49
0.0208333333333333
 49
0.0
 49
0.0
 49
0.0
 49
0.0
 49
1.0
 49
0.0
 49
0.0
 49
0.0
 49
0.0
 49
1.0
175
     0
142
0.0208333333333333
142
0.0
142
0.0
142
0.0
142
0.0
142
0.0208333333333333
142
0.0
142
0.0
142
0.0
142
0.0
142
1.0
142
0.0
142
0.0
142
0.0
142
0.0
142
1.0
179
     0
144
0.0208333333333333
144
0.0
144
0.0
144
0.0
144
0.0
144
0.0208333333333333
144
0.0
144
0.0
144
0.0
144
0.0
144
1.0
144
0.0
144
0.0
144
0.0
144
0.0
144
1.0
147
0.0208333333333333
147
0.0
147
0.0
147
0.0
147
0.0
147
0.0208333333333333
147
0.0
147
0.0
147
0.0
147
0.0
147
1.0
147
0.0
147
0.0
147
0.0
147
0.0
147
1.0
  0
MATERIAL
  5
80E6
102
{ACAD_XDICTIONARY
360
80E7
102
}
102
{ACAD_REACTORS
330
80D5
102
}
330
80D5
100
AcDbMaterial
  1
Global
 72
     0
 43
0.0208333333333333
 43
0.0
 43
0.0
 43
0.0
 43
0.0
 43
0.0208333333333333
 43
0.0
 43
0.0
 43
0.0
 43
0.0
 43
1.0
 43
0.0
 43
0.0
 43
0.0
 43
0.0
 43
1.0
 77
     0
 47
0.0208333333333333
 47
0.0
 47
0.0
 47
0.0
 47
0.0
 47
0.0208333333333333
 47
0.0
 47
0.0
 47
0.0
 47
0.0
 47
1.0
 47
0.0
 47
0.0
 47
0.0
 47
0.0
 47
1.0
171
     0
 49
0.0208333333333333
 49
0.0
 49
0.0
 49
0.0
 49
0.0
 49
0.0208333333333333
 49
0.0
 49
0.0
 49
0.0
 49
0.0
 49
1.0
 49
0.0
 49
0.0
 49
0.0
 49
0.0
 49
1.0
175
     0
142
0.0208333333333333
142
0.0
142
0.0
142
0.0
142
0.0
142
0.0208333333333333
142
0.0
142
0.0
142
0.0
142
0.0
142
1.0
142
0.0
142
0.0
142
0.0
142
0.0
142
1.0
179
     0
144
0.0208333333333333
144
0.0
144
0.0
144
0.0
144
0.0
144
0.0208333333333333
144
0.0
144
0.0
144
0.0
144
0.0
144
1.0
144
0.0
144
0.0
144
0.0
144
0.0
144
1.0
147
0.0208333333333333
147
0.0
147
0.0
147
0.0
147
0.0
147
0.0208333333333333
147
0.0
147
0.0
147
0.0
147
0.0
147
1.0
147
0.0
147
0.0
147
0.0
147
0.0
147
1.0
  0
MLEADERSTYLE
  5
811D
102
{ACAD_REACTORS
330
811C
102
}
330
811C
100
AcDbMLeaderStyle
179
     2
170
     2
171
     1
172
     0
 90
        2
 40
0.0
 41
0.0
173
     1
 91
-1056964608
340
13
 92
       -2
290
     1
 42
2.0
291
     1
 43
0.36
  3
Standard
 44
4.0
300

342
10
174
     1
178
     6
175
     1
176
     0
 93
-1056964608
 45
4.0
292
     0
297
     0
 46
4.0
 94
-1056964608
 47
1.0
 49
1.0
140
1.0
293
     1
141
0.0
294
     1
177
     0
142
1.0
295
     0
296
     0
143
0.125
271
     0
272
     9
273
     9
298
     1
  0
MLINESTYLE
  5
1C
102
{ACAD_REACTORS
330
E
102
}
330
E
100
AcDbMlineStyle
  2
STANDARD
 70
     0
  3

 62
     0
 51
90.0
 52
90.0
 71
     2
 49
0.5
 62
   256
  6
BYLAYER
 49
-0.5
 62
   256
  6
BYLAYER
  0
ACDBPLACEHOLDER
  5
8067
102
{ACAD_REACTORS
330
8066
102
}
330
8066
  0
SCALE
  5
810B
102
{ACAD_REACTORS
330
810A
102
}
330
810A
100
AcDbScale
 70
     0
300
1:1
140
1.0
141
1.0
290
     1
  0
SCALE
  5
810C
102
{ACAD_REACTORS
330
810A
102
}
330
810A
100
AcDbScale
 70
     0
300
1:2
140
1.0
141
2.0
290
     0
  0
SCALE
  5
810D
102
{ACAD_REACTORS
330
810A
102
}
330
810A
100
AcDbScale
 70
     0
300
1:4
140
1.0
141
4.0
290
     0
  0
SCALE
  5
810E
102
{ACAD_REACTORS
330
810A
102
}
330
810A
100
AcDbScale
 70
     0
300
1:5
140
1.0
141
5.0
290
     0
  0
SCALE
  5
810F
102
{ACAD_REACTORS
330
810A
102
}
330
810A
100
AcDbScale
 70
     0
300
1:8
140
1.0
141
8.0
290
     0
  0
SCALE
  5
8110
102
{ACAD_REACTORS
330
810A
102
}
330
810A
100
AcDbScale
 70
     0
300
1:10
140
1.0
141
10.0
290
     0
  0
SCALE
  5
8111
102
{ACAD_REACTORS
330
810A
102
}
330
810A
100
AcDbScale
 70
     0
300
1:16
140
1.0
141
16.0
290
     0
  0
SCALE
  5
8112
102
{ACAD_REACTORS
330
810A
102
}
330
810A
100
AcDbScale
 70
     0
300
1:20
140
1.0
141
20.0
290
     0
  0
SCALE
  5
8113
102
{ACAD_REACTORS
330
810A
102
}
330
810A
100
AcDbScale
 70
     0
300
1:30
140
1.0
141
30.0
290
     0
  0
SCALE
  5
8114
102
{ACAD_REACTORS
330
810A
102
}
330
810A
100
AcDbScale
 70
     0
300
1:40
140
1.0
141
40.0
290
     0
  0
SCALE
  5
8115
102
{ACAD_REACTORS
330
810A
102
}
330
810A
100
AcDbScale
 70
     0
300
1:50
140
1.0
141
50.0
290
     0
  0
SCALE
  5
8116
102
{ACAD_REACTORS
330
810A
102
}
330
810A
100
AcDbScale
 70
     0
300
1:100
140
1.0
141
100.0
290
     0
  0
SCALE
  5
8117
102
{ACAD_REACTORS
330
810A
102
}
330
810A
100
AcDbScale
 70
     0
300
2:1
140
2.0
141
1.0
290
     0
  0
SCALE
  5
8118
102
{ACAD_REACTORS
330
810A
102
}
330
810A
100
AcDbScale
 70
     0
300
4:1
140
4.0
141
1.0
290
     0
  0
SCALE
  5
8119
102
{ACAD_REACTORS
330
810A
102
}
330
810A
100
AcDbScale
 70
     0
300
8:1
140
8.0
141
1.0
290
     0
  0
SCALE
  5
811A
102
{ACAD_REACTORS
330
810A
102
}
330
810A
100
AcDbScale
 70
     0
300
10:1
140
10.0
141
1.0
290
     0
  0
SCALE
  5
811B
102
{ACAD_REACTORS
330
810A
102
}
330
810A
100
AcDbScale
 70
     0
300
100:1
140
100.0
141
1.0
290
     0
  0
ACDBSECTIONVIEWSTYLE
  5
811F
102
{ACAD_XDICTIONARY
360
8199
102
}
102
{ACAD_REACTORS
330
811E
102
}
330
811E
100
AcDbModelDocViewStyle
 70
     0
  3
Metric50
290
     0
100
AcDbSectionViewStyle
 70
     0
 71
     0
 90
      102
 71
     1
340
10
 62
   256
 40
5.0
340
0
340
0
 62
   256
 40
5.0
300
I, O, Q, S, X, Z
 40
10.0
 90
        0
 40
2.5
 90
        0
 71
     2
340
15
 90
       25
 62
   256
340
15
 90
       50
 62
   256
 40
5.0
 40
2.5
 40
5.0
 71
     3
340
10
 62
   256
 40
5.0
 90
        0
 40
15.0
 90
        1
300
%<\AcVar ViewSectionStartId>%-%<\AcVar ViewSectionEndId>% (%<\AcVar ViewScale \f "%sn">%)
 71
     4
 62
   256
 62
   257
300
ANSI31
 40
1.0
 90
        0
290
     0
290
     0
 90
        6
 40
0.0
 40
1.570796326794896
 40
0.2617993877991494
 40
1.308996938995747
 40
-0.2617993877991494
 40
1.832595714594046
  0
TABLESTYLE
  5
8109
102
{ACAD_XDICTIONARY
360
818E
102
}
102
{ACAD_REACTORS
330
8108
102
}
330
8108
100
AcDbTableStyle
280
     0
  3
Standard
 70
     0
 71
     0
 40
1.5
 41
1.5
280
     0
281
     0
  7
STANDARD
140
4.5
170
     2
 62
     0
 63
     7
283
     0
 90
      512
 91
        0
  1

274
    -2
284
     1
 64
     0
275
    -2
285
     1
 65
     0
276
    -2
286
     1
 66
     0
277
    -2
287
     1
 67
     0
278
    -2
288
     1
 68
     0
279
    -2
289
     1
 69
     0
  7
STANDARD
140
6.0
170
     5
 62
     0
 63
     7
283
     0
 90
      512
 91
        0
  1

274
    -2
284
     1
 64
     0
275
    -2
285
     1
 65
     0
276
    -2
286
     1
 66
     0
277
    -2
287
     1
 67
     0
278
    -2
288
     1
 68
     0
279
    -2
289
     1
 69
     0
  7
STANDARD
140
4.5
170
     5
 62
     0
 63
     7
283
     0
 90
      512
 91
        0
  1

274
    -2
284
     1
 64
     0
275
    -2
285
     1
 65
     0
276
    -2
286
     1
 66
     0
277
    -2
287
     1
 67
     0
278
    -2
288
     1
 68
     0
279
    -2
289
     1
 69
     0
  0
VISUALSTYLE
  5
80F4
102
{ACAD_REACTORS
330
80EE
102
}
330
80EE
100
AcDbVisualStyle
  2
2dWireframe
 70
     4
177
     3
291
     0
 70
    58
 90
        0
176
     1
 90
        2
176
     1
 90
        0
176
     1
 90
        0
176
     1
 40
0.6
176
     1
 40
30.0
176
     1
 62
     7
420
 16777215
176
     1
 90
        1
176
     1
 90
        4
176
     1
 62
     7
176
     1
 62
   257
176
     1
 90
        1
176
     1
 90
        1
176
     1
 40
1.0
176
     1
 90
        0
176
     1
 62
   257
176
     1
 40
1.0
176
     1
 90
        1
176
     1
 90
        6
176
     1
 90
        2
176
     1
 62
     7
176
     1
 90
        5
176
     1
 90
        0
176
     1
 90
        0
176
     1
290
     0
176
     1
 90
        1
176
     1
 40
0.0
176
     1
 90
        0
176
     1
290
     1
176
     1
290
     1
176
     1
290
     0
176
     1
290
     0
176
     1
290
     0
176
     1
290
     0
176
     1
290
     0
176
     1
290
     0
176
     1
290
     0
176
     1
 90
       50
176
     1
 40
0.0
176
     1
 40
1.0
176
     1
 90
        0
176
     1
 62
    18
420
        0
176
     1
 90
       50
176
     1
 90
        3
176
     1
 62
     5
420
      255
176
     1
290
     0
176
     1
 90
       50
176
     1
 90
       50
176
     1
 90
       50
176
     1
290
     0
176
     1
 90
       50
176
     1
 62
   256
176
     0
 40
1.0
176
     0
 90
        2
176
     1
  1
strokes_ogs.tif
176
     1
290
     0
176
     1
 40
1.0
176
     1
 40
1.0
176
     1
1001
ACAD
1000
AcDbSavedByObjectVersion
1070
     0
  0
VISUALSTYLE
  5
80F3
102
{ACAD_REACTORS
330
80EE
102
}
330
80EE
100
AcDbVisualStyle
  2
Basic
 70
     7
177
     3
291
     1
 70
    58
 90
        1
176
     1
 90
        0
176
     1
 90
        1
176
     1
 90
        0
176
     1
 40
0.6
176
     1
 40
30.0
176
     1
 62
     7
420
 16777215
176
     1
 90
        0
176
     1
 90
        4
176
     1
 62
     7
176
     1
 62
   257
176
     1
 90
        1
176
     1
 90
        1
176
     1
 40
1.0
176
     1
 90
        8
176
     1
 62
     7
176
     1
 40
1.0
176
     1
 90
        1
176
     1
 90
        6
176
     1
 90
        2
176
     1
 62
     7
176
     1
 90
        5
176
     1
 90
        0
176
     1
 90
        0
176
     1
290
     0
176
     1
 90
        1
176
     1
 40
0.0
176
     1
 90
        0
176
     1
290
     0
176
     1
290
     1
176
     1
290
     1
176
     1
290
     0
176
     1
290
     0
176
     1
290
     0
176
     1
290
     0
176
     1
290
     0
176
     1
290
     0
176
     1
 90
       50
176
     1
 40
0.0
176
     1
 40
1.0
176
     1
 90
        0
176
     1
 62
    18
420
        0
176
     1
 90
       50
176
     1
 90
        3
176
     1
 62
     5
420
      255
176
     1
290
     0
176
     1
 90
       50
176
     1
 90
       50
176
     1
 90
       50
176
     1
290
     0
176
     1
 90
       50
176
     1
 62
   256
176
     0
 40
1.0
176
     0
 90
        2
176
     1
  1
strokes_ogs.tif
176
     1
290
     0
176
     1
 40
1.0
176
     1
 40
1.0
176
     1
1001
ACAD
1000
AcDbSavedByObjectVersion
1070
     0
  0
VISUALSTYLE
  5
80FA
102
{ACAD_REACTORS
330
80EE
102
}
330
80EE
100
AcDbVisualStyle
  2
Brighten
 70
    12
177
     3
291
     1
 70
    58
 90
        2
176
     1
 90
        2
176
     1
 90
        0
176
     1
 90
        0
176
     1
 40
0.6
176
     1
 40
30.0
176
     1
 62
     7
420
 16777215
176
     1
 90
        1
176
     1
 90
        4
176
     1
 62
     7
176
     1
 62
   257
176
     1
 90
        1
176
     1
 90
        1
176
     1
 40
1.0
176
     1
 90
        8
176
     1
 62
     7
176
     1
 40
1.0
176
     1
 90
        1
176
     1
 90
        6
176
     1
 90
        2
176
     1
 62
     7
176
     1
 90
        5
176
     1
 90
        0
176
     1
 90
        0
176
     1
290
     0
176
     1
 90
        1
176
     1
 40
50.0
176
     1
 90
        0
176
     1
290
     0
176
     1
290
     1
176
     1
290
     1
176
     1
290
     0
176
     1
290
     0
176
     1
290
     0
176
     1
290
     0
176
     1
290
     0
176
     1
290
     0
176
     1
 90
       50
176
     1
 40
0.0
176
     1
 40
1.0
176
     1
 90
        0
176
     1
 62
    18
420
        0
176
     1
 90
       50
176
     1
 90
        3
176
     1
 62
     5
420
      255
176
     1
290
     0
176
     1
 90
       50
176
     1
 90
       50
176
     1
 90
       50
176
     1
290
     0
176
     1
 90
       50
176
     1
 62
   256
176
     0
 40
1.0
176
     0
 90
        2
176
     1
  1
strokes_ogs.tif
176
     1
290
     0
176
     1
 40
1.0
176
     1
 40
1.0
176
     1
1001
ACAD
1000
AcDbSavedByObjectVersion
1070
     0
  0
VISUALSTYLE
  5
80FE
102
{ACAD_REACTORS
330
80EE
102
}
330
80EE
100
AcDbVisualStyle
  2
ColorChange
 70
    16
177
     3
291
     1
 70
    58
 90
        2
176
     1
 90
        2
176
     1
 90
        3
176
     1
 90
        0
176
     1
 40
0.6
176
     1
 40
30.0
176
     1
 62
     8
420
  8421504
176
     1
 90
        1
176
     1
 90
        4
176
     1
 62
     7
176
     1
 62
   257
176
     1
 90
        1
176
     1
 90
        1
176
     1
 40
1.0
176
     1
 90
        8
176
     1
 62
     8
420
  8421504
176
     1
 40
1.0
176
     1
 90
        1
176
     1
 90
        6
176
     1
 90
        2
176
     1
 62
     7
176
     1
 90
        5
176
     1
 90
        0
176
     1
 90
        0
176
     1
290
     0
176
     1
 90
        1
176
     1
 40
0.0
176
     1
 90
        0
176
     1
290
     0
176
     1
290
     1
176
     1
290
     1
176
     1
290
     0
176
     1
290
     0
176
     1
290
     0
176
     1
290
     0
176
     1
290
     0
176
     1
290
     0
176
     1
 90
       50
176
     1
 40
0.0
176
     1
 40
1.0
176
     1
 90
        0
176
     1
 62
    18
420
        0
176
     1
 90
       50
176
     1
 90
        3
176
     1
 62
     5
420
      255
176
     1
290
     0
176
     1
 90
       50
176
     1
 90
       50
176
     1
 90
       50
176
     1
290
     0
176
     1
 90
       50
176
     1
 62
   256
176
     0
 40
1.0
176
     0
 90
        2
176
     1
  1
strokes_ogs.tif
176
     1
290
     0
176
     1
 40
1.0
176
     1
 40
1.0
176
     1
1001
ACAD
1000
AcDbSavedByObjectVersion
1070
     0
  0
VISUALSTYLE
  5
80F7
102
{ACAD_REACTORS
330
80EE
102
}
330
80EE
100
AcDbVisualStyle
  2
Conceptual
 70
     9
177
     3
291
     0
 70
    58
 90
        3
176
     1
 90
        2
176
     1
 90
        0
176
     1
 90
        0
176
     1
 40
0.6
176
     1
 40
30.0
176
     1
 62
     7
420
 16777215
176
     1
 90
        2
176
     1
 90
        2
176
     1
 62
     7
176
     1
 62
   257
176
     1
 90
        1
176
     1
 90
        1
176
     1
 40
179.0
176
     1
 90
        8
176
     1
 62
     7
176
     1
 40
1.0
176
     1
 90
        1
176
     1
 90
        6
176
     1
 90
        2
176
     1
 62
     7
176
     1
 90
        3
176
     1
 90
        0
176
     1
 90
        0
176
     1
290
     0
176
     1
 90
        1
176
     1
 40
0.0
176
     1
 90
        0
176
     1
290
     0
176
     1
290
     1
176
     1
290
     1
176
     1
290
     0
176
     1
290
     0
176
     1
290
     0
176
     1
290
     0
176
     1
290
     0
176
     1
290
     0
176
     1
 90
       50
176
     1
 40
0.0
176
     1
 40
1.0
176
     1
 90
        0
176
     1
 62
    18
420
        0
176
     1
 90
       50
176
     1
 90
        3
176
     1
 62
     5
420
      255
176
     1
290
     0
176
     1
 90
       50
176
     1
 90
       50
176
     1
 90
       50
176
     1
290
     0
176
     1
 90
       50
176
     1
 62
   256
176
     0
 40
1.0
176
     0
 90
        2
176
     1
  1
strokes_ogs.tif
176
     1
290
     0
176
     1
 40
1.0
176
     1
 40
1.0
176
     1
1001
ACAD
1000
AcDbSavedByObjectVersion
1070
     0
  0
VISUALSTYLE
  5
80F9
102
{ACAD_REACTORS
330
80EE
102
}
330
80EE
100
AcDbVisualStyle
  2
Dim
 70
    11
177
     3
291
     1
 70
    58
 90
        2
176
     1
 90
        2
176
     1
 90
        0
176
     1
 90
        0
176
     1
 40
0.6
176
     1
 40
30.0
176
     1
 62
     7
420
 16777215
176
     1
 90
        1
176
     1
 90
        4
176
     1
 62
     7
176
     1
 62
   257
176
     1
 90
        1
176
     1
 90
        1
176
     1
 40
1.0
176
     1
 90
        8
176
     1
 62
     7
176
     1
 40
1.0
176
     1
 90
        1
176
     1
 90
        6
176
     1
 90
        2
176
     1
 62
     7
176
     1
 90
        5
176
     1
 90
        0
176
     1
 90
        0
176
     1
290
     0
176
     1
 90
        1
176
     1
 40
-50.0
176
     1
 90
        0
176
     1
290
     0
176
     1
290
     1
176
     1
290
     1
176
     1
290
     0
176
     1
290
     0
176
     1
290
     0
176
     1
290
     0
176
     1
290
     0
176
     1
290
     0
176
     1
 90
       50
176
     1
 40
0.0
176
     1
 40
1.0
176
     1
 90
        0
176
     1
 62
    18
420
        0
176
     1
 90
       50
176
     1
 90
        3
176
     1
 62
     5
420
      255
176
     1
290
     0
176
     1
 90
       50
176
     1
 90
       50
176
     1
 90
       50
176
     1
290
     0
176
     1
 90
       50
176
     1
 62
   256
176
     0
 40
1.0
176
     0
 90
        2
176
     1
  1
strokes_ogs.tif
176
     1
290
     0
176
     1
 40
1.0
176
     1
 40
1.0
176
     1
1001
ACAD
1000
AcDbSavedByObjectVersion
1070
     0
  0
VISUALSTYLE
  5
8106
102
{ACAD_REACTORS
330
80EE
102
}
330
80EE
100
AcDbVisualStyle
  2
EdgeColorOff
 70
    22
177
     3
291
     1
 70
    58
 90
        2
176
     0
 90
        2
176
     0
 90
        0
176
     0
 90
        0
176
     0
 40
0.6
176
     0
 40
30.0
176
     0
 62
     7
420
 16777215
176
     0
 90
        1
176
     0
 90
        4
176
     0
 62
     7
176
     0
 62
   257
176
     0
 90
        1
176
     0
 90
        1
176
     0
 40
1.0
176
     0
 90
        8
176
     2
 62
     7
176
     0
 40
1.0
176
     0
 90
        1
176
     0
 90
        6
176
     0
 90
        2
176
     0
 62
     7
176
     0
 90
        5
176
     0
 90
        0
176
     0
 90
        0
176
     0
290
     0
176
     0
 90
        1
176
     0
 40
0.0
176
     0
 90
        0
176
     0
290
     0
176
     0
290
     1
176
     0
290
     1
176
     0
290
     0
176
     0
290
     0
176
     0
290
     0
176
     0
290
     0
176
     0
290
     0
176
     0
290
     0
176
     0
 90
       50
176
     0
 40
0.0
176
     0
 40
1.0
176
     0
 90
        0
176
     0
 62
    18
420
        0
176
     0
 90
       50
176
     0
 90
        3
176
     0
 62
     5
420
      255
176
     0
290
     0
176
     0
 90
       50
176
     0
 90
       50
176
     0
 90
       50
176
     0
290
     0
176
     0
 90
       50
176
     0
 62
   256
176
     0
 40
1.0
176
     0
 90
        2
176
     0
  1
strokes_ogs.tif
176
     0
290
     0
176
     0
 40
1.0
176
     0
 40
1.0
176
     0
1001
ACAD
1000
AcDbSavedByObjectVersion
1070
     0
  0
VISUALSTYLE
  5
80FD
102
{ACAD_REACTORS
330
80EE
102
}
330
80EE
100
AcDbVisualStyle
  2
Facepattern
 70
    15
177
     3
291
     1
 70
    58
 90
        2
176
     1
 90
        2
176
     1
 90
        0
176
     1
 90
        0
176
     1
 40
0.6
176
     1
 40
30.0
176
     1
 62
     7
420
 16777215
176
     1
 90
        1
176
     1
 90
        4
176
     1
 62
     7
176
     1
 62
   257
176
     1
 90
        1
176
     1
 90
        1
176
     1
 40
1.0
176
     1
 90
        8
176
     1
 62
     7
176
     1
 40
1.0
176
     1
 90
        1
176
     1
 90
        6
176
     1
 90
        2
176
     1
 62
     7
176
     1
 90
        5
176
     1
 90
        0
176
     1
 90
        0
176
     1
290
     0
176
     1
 90
        1
176
     1
 40
0.0
176
     1
 90
        0
176
     1
290
     0
176
     1
290
     1
176
     1
290
     1
176
     1
290
     0
176
     1
290
     0
176
     1
290
     0
176
     1
290
     0
176
     1
290
     0
176
     1
290
     0
176
     1
 90
       50
176
     1
 40
0.0
176
     1
 40
1.0
176
     1
 90
        0
176
     1
 62
    18
420
        0
176
     1
 90
       50
176
     1
 90
        3
176
     1
 62
     5
420
      255
176
     1
290
     0
176
     1
 90
       50
176
     1
 90
       50
176
     1
 90
       50
176
     1
290
     0
176
     1
 90
       50
176
     1
 62
   256
176
     0
 40
1.0
176
     0
 90
        2
176
     1
  1
strokes_ogs.tif
176
     1
290
     0
176
     1
 40
1.0
176
     1
 40
1.0
176
     1
1001
ACAD
1000
AcDbSavedByObjectVersion
1070
     0
  0
VISUALSTYLE
  5
80EF
102
{ACAD_REACTORS
330
80EE
102
}
330
80EE
100
AcDbVisualStyle
  2
Flat
 70
     0
177
     3
291
     1
 70
    58
 90
        2
176
     1
 90
        1
176
     1
 90
        1
176
     1
 90
        2
176
     1
 40
0.6
176
     1
 40
30.0
176
     1
 62
     7
420
 16777215
176
     1
 90
        0
176
     1
 90
        0
176
     1
 62
     7
176
     1
 62
   257
176
     1
 90
        1
176
     1
 90
        1
176
     1
 40
1.0
176
     1
 90
        8
176
     1
 62
     7
176
     1
 40
1.0
176
     1
 90
        1
176
     1
 90
        6
176
     1
 90
        2
176
     1
 62
     7
176
     1
 90
        5
176
     1
 90
        0
176
     1
 90
        0
176
     1
290
     0
176
     1
 90
       13
176
     1
 40
0.0
176
     1
 90
        0
176
     1
290
     0
176
     1
290
     1
176
     1
290
     1
176
     1
290
     0
176
     1
290
     0
176
     1
290
     0
176
     1
290
     0
176
     1
290
     0
176
     1
290
     0
176
     1
 90
       50
176
     1
 40
0.0
176
     1
 40
1.0
176
     1
 90
        0
176
     1
 62
    18
420
        0
176
     1
 90
       50
176
     1
 90
        3
176
     1
 62
     5
420
      255
176
     1
290
     0
176
     1
 90
       50
176
     1
 90
       50
176
     1
 90
       50
176
     1
290
     0
176
     1
 90
       50
176
     1
 62
   256
176
     0
 40
1.0
176
     0
 90
        2
176
     1
  1
strokes_ogs.tif
176
     1
290
     0
176
     1
 40
1.0
176
     1
 40
1.0
176
     1
1001
ACAD
1000
AcDbSavedByObjectVersion
1070
     0
  0
VISUALSTYLE
  5
80F0
102
{ACAD_REACTORS
330
80EE
102
}
330
80EE
100
AcDbVisualStyle
  2
FlatWithEdges
 70
     1
177
     3
291
     1
 70
    58
 90
        2
176
     1
 90
        1
176
     1
 90
        1
176
     1
 90
        2
176
     1
 40
0.6
176
     1
 40
30.0
176
     1
 62
     7
420
 16777215
176
     1
 90
        1
176
     1
 90
        0
176
     1
 62
     7
176
     1
 62
   257
176
     1
 90
        1
176
     1
 90
        1
176
     1
 40
1.0
176
     1
 90
        0
176
     1
 62
   257
176
     1
 40
1.0
176
     1
 90
        1
176
     1
 90
        6
176
     1
 90
        2
176
     1
 62
     7
176
     1
 90
        5
176
     1
 90
        0
176
     1
 90
        0
176
     1
290
     0
176
     1
 90
       13
176
     1
 40
0.0
176
     1
 90
        0
176
     1
290
     0
176
     1
290
     1
176
     1
290
     1
176
     1
290
     0
176
     1
290
     0
176
     1
290
     0
176
     1
290
     0
176
     1
290
     0
176
     1
290
     0
176
     1
 90
       50
176
     1
 40
0.0
176
     1
 40
1.0
176
     1
 90
        0
176
     1
 62
    18
420
        0
176
     1
 90
       50
176
     1
 90
        3
176
     1
 62
     5
420
      255
176
     1
290
     0
176
     1
 90
       50
176
     1
 90
       50
176
     1
 90
       50
176
     1
290
     0
176
     1
 90
       50
176
     1
 62
   256
176
     0
 40
1.0
176
     0
 90
        2
176
     1
  1
strokes_ogs.tif
176
     1
290
     0
176
     1
 40
1.0
176
     1
 40
1.0
176
     1
1001
ACAD
1000
AcDbSavedByObjectVersion
1070
     0
  0
VISUALSTYLE
  5
80F1
102
{ACAD_REACTORS
330
80EE
102
}
330
80EE
100
AcDbVisualStyle
  2
Gouraud
 70
     2
177
     3
291
     1
 70
    58
 90
        2
176
     1
 90
        2
176
     1
 90
        1
176
     1
 90
        2
176
     1
 40
0.6
176
     1
 40
30.0
176
     1
 62
     7
420
 16777215
176
     1
 90
        0
176
     1
 90
        0
176
     1
 62
     7
176
     1
 62
   257
176
     1
 90
        1
176
     1
 90
        1
176
     1
 40
1.0
176
     1
 90
        0
176
     1
 62
     7
176
     1
 40
1.0
176
     1
 90
        1
176
     1
 90
        6
176
     1
 90
        2
176
     1
 62
     7
176
     1
 90
        5
176
     1
 90
        0
176
     1
 90
        0
176
     1
290
     0
176
     1
 90
       13
176
     1
 40
0.0
176
     1
 90
        0
176
     1
290
     0
176
     1
290
     1
176
     1
290
     1
176
     1
290
     0
176
     1
290
     0
176
     1
290
     0
176
     1
290
     0
176
     1
290
     0
176
     1
290
     0
176
     1
 90
       50
176
     1
 40
0.0
176
     1
 40
1.0
176
     1
 90
        0
176
     1
 62
    18
420
        0
176
     1
 90
       50
176
     1
 90
        3
176
     1
 62
     5
420
      255
176
     1
290
     0
176
     1
 90
       50
176
     1
 90
       50
176
     1
 90
       50
176
     1
290
     0
176
     1
 90
       50
176
     1
 62
   256
176
     0
 40
1.0
176
     0
 90
        2
176
     1
  1
strokes_ogs.tif
176
     1
290
     0
176
     1
 40
1.0
176
     1
 40
1.0
176
     1
1001
ACAD
1000
AcDbSavedByObjectVersion
1070
     0
  0
VISUALSTYLE
  5
80F2
102
{ACAD_REACTORS
330
80EE
102
}
330
80EE
100
AcDbVisualStyle
  2
GouraudWithEdges
 70
     3
177
     3
291
     1
 70
    58
 90
        2
176
     1
 90
        2
176
     1
 90
        1
176
     1
 90
        2
176
     1
 40
0.6
176
     1
 40
30.0
176
     1
 62
     7
420
 16777215
176
     1
 90
        1
176
     1
 90
        0
176
     1
 62
     7
176
     1
 62
   257
176
     1
 90
        1
176
     1
 90
        1
176
     1
 40
1.0
176
     1
 90
        0
176
     1
 62
   257
176
     1
 40
1.0
176
     1
 90
        1
176
     1
 90
        6
176
     1
 90
        2
176
     1
 62
     7
176
     1
 90
        5
176
     1
 90
        0
176
     1
 90
        0
176
     1
290
     0
176
     1
 90
       13
176
     1
 40
0.0
176
     1
 90
        0
176
     1
290
     0
176
     1
290
     1
176
     1
290
     1
176
     1
290
     0
176
     1
290
     0
176
     1
290
     0
176
     1
290
     0
176
     1
290
     0
176
     1
290
     0
176
     1
 90
       50
176
     1
 40
0.0
176
     1
 40
1.0
176
     1
 90
        0
176
     1
 62
    18
420
        0
176
     1
 90
       50
176
     1
 90
        3
176
     1
 62
     5
420
      255
176
     1
290
     0
176
     1
 90
       50
176
     1
 90
       50
176
     1
 90
       50
176
     1
290
     0
176
     1
 90
       50
176
     1
 62
   256
176
     0
 40
1.0
176
     0
 90
        2
176
     1
  1
strokes_ogs.tif
176
     1
290
     0
176
     1
 40
1.0
176
     1
 40
1.0
176
     1
1001
ACAD
1000
AcDbSavedByObjectVersion
1070
     0
  0
VISUALSTYLE
  5
80F6
102
{ACAD_REACTORS
330
80EE
102
}
330
80EE
100
AcDbVisualStyle
  2
Hidden
 70
     6
177
     3
291
     0
 70
    58
 90
        1
176
     1
 90
        2
176
     1
 90
        2
176
     1
 90
        0
176
     1
 40
0.6
176
     1
 40
30.0
176
     1
 62
     7
420
 16777215
176
     1
 90
        2
176
     1
 90
        2
176
     1
 62
     7
176
     1
 62
   257
176
     1
 90
        2
176
     1
 90
        1
176
     1
 40
40.0
176
     1
 90
        0
176
     1
 62
   257
176
     1
 40
1.0
176
     1
 90
        1
176
     1
 90
        6
176
     1
 90
        2
176
     1
 62
     7
176
     1
 90
        3
176
     1
 90
        0
176
     1
 90
        0
176
     1
290
     0
176
     1
 90
        1
176
     1
 40
0.0
176
     1
 90
        0
176
     1
290
     0
176
     1
290
     1
176
     1
290
     1
176
     1
290
     0
176
     1
290
     0
176
     1
290
     0
176
     1
290
     0
176
     1
290
     0
176
     1
290
     0
176
     1
 90
       50
176
     1
 40
0.0
176
     1
 40
1.0
176
     1
 90
        0
176
     1
 62
    18
420
        0
176
     1
 90
       50
176
     1
 90
        3
176
     1
 62
     5
420
      255
176
     1
290
     0
176
     1
 90
       50
176
     1
 90
       50
176
     1
 90
       50
176
     1
290
     0
176
     1
 90
       50
176
     1
 62
   256
176
     0
 40
1.0
176
     0
 90
        2
176
     1
  1
strokes_ogs.tif
176
     1
290
     0
176
     1
 40
1.0
176
     1
 40
1.0
176
     1
1001
ACAD
1000
AcDbSavedByObjectVersion
1070
     0
  0
VISUALSTYLE
  5
8104
102
{ACAD_REACTORS
330
80EE
102
}
330
80EE
100
AcDbVisualStyle
  2
JitterOff
 70
    20
177
     3
291
     1
 70
    58
 90
        2
176
     0
 90
        2
176
     0
 90
        0
176
     0
 90
        0
176
     0
 40
0.6
176
     0
 40
30.0
176
     0
 62
     7
420
 16777215
176
     0
 90
        1
176
     0
 90
        4
176
     0
 62
     7
176
     0
 62
   257
176
     0
 90
        1
176
     0
 90
        1
176
     0
 40
1.0
176
     0
 90
       10
176
     2
 62
     7
176
     0
 40
1.0
176
     0
 90
        1
176
     0
 90
        6
176
     0
 90
        2
176
     0
 62
     7
176
     0
 90
        5
176
     0
 90
        0
176
     0
 90
        0
176
     0
290
     0
176
     0
 90
        1
176
     0
 40
0.0
176
     0
 90
        0
176
     0
290
     0
176
     0
290
     1
176
     0
290
     1
176
     0
290
     0
176
     0
290
     0
176
     0
290
     0
176
     0
290
     0
176
     0
290
     0
176
     0
290
     0
176
     0
 90
       50
176
     0
 40
0.0
176
     0
 40
1.0
176
     0
 90
        0
176
     0
 62
    18
420
        0
176
     0
 90
       50
176
     0
 90
        3
176
     0
 62
     5
420
      255
176
     0
290
     0
176
     0
 90
       50
176
     0
 90
       50
176
     0
 90
       50
176
     0
290
     0
176
     0
 90
       50
176
     0
 62
   256
176
     0
 40
1.0
176
     0
 90
        2
176
     0
  1
strokes_ogs.tif
176
     0
290
     0
176
     0
 40
1.0
176
     0
 40
1.0
176
     0
1001
ACAD
1000
AcDbSavedByObjectVersion
1070
     0
  0
VISUALSTYLE
  5
80FC
102
{ACAD_REACTORS
330
80EE
102
}
330
80EE
100
AcDbVisualStyle
  2
Linepattern
 70
    14
177
     3
291
     1
 70
    58
 90
        2
176
     1
 90
        2
176
     1
 90
        0
176
     1
 90
        0
176
     1
 40
0.6
176
     1
 40
30.0
176
     1
 62
     7
420
 16777215
176
     1
 90
        1
176
     1
 90
        4
176
     1
 62
     7
176
     1
 62
   257
176
     1
 90
        7
176
     1
 90
        7
176
     1
 40
1.0
176
     1
 90
        8
176
     1
 62
     7
176
     1
 40
1.0
176
     1
 90
        1
176
     1
 90
        6
176
     1
 90
        2
176
     1
 62
     7
176
     1
 90
        5
176
     1
 90
        0
176
     1
 90
        0
176
     1
290
     0
176
     1
 90
        1
176
     1
 40
0.0
176
     1
 90
        0
176
     1
290
     0
176
     1
290
     1
176
     1
290
     1
176
     1
290
     0
176
     1
290
     0
176
     1
290
     0
176
     1
290
     0
176
     1
290
     0
176
     1
290
     0
176
     1
 90
       50
176
     1
 40
0.0
176
     1
 40
1.0
176
     1
 90
        0
176
     1
 62
    18
420
        0
176
     1
 90
       50
176
     1
 90
        3
176
     1
 62
     5
420
      255
176
     1
290
     0
176
     1
 90
       50
176
     1
 90
       50
176
     1
 90
       50
176
     1
290
     0
176
     1
 90
       50
176
     1
 62
   256
176
     0
 40
1.0
176
     0
 90
        2
176
     1
  1
strokes_ogs.tif
176
     1
290
     0
176
     1
 40
1.0
176
     1
 40
1.0
176
     1
1001
ACAD
1000
AcDbSavedByObjectVersion
1070
     0
  0
VISUALSTYLE
  5
8105
102
{ACAD_REACTORS
330
80EE
102
}
330
80EE
100
AcDbVisualStyle
  2
OverhangOff
 70
    21
177
     3
291
     1
 70
    58
 90
        2
176
     0
 90
        2
176
     0
 90
        0
176
     0
 90
        0
176
     0
 40
0.6
176
     0
 40
30.0
176
     0
 62
     7
420
 16777215
176
     0
 90
        1
176
     0
 90
        4
176
     0
 62
     7
176
     0
 62
   257
176
     0
 90
        1
176
     0
 90
        1
176
     0
 40
1.0
176
     0
 90
        9
176
     2
 62
     7
176
     0
 40
1.0
176
     0
 90
        1
176
     0
 90
        6
176
     0
 90
        2
176
     0
 62
     7
176
     0
 90
        5
176
     0
 90
        0
176
     0
 90
        0
176
     0
290
     0
176
     0
 90
        1
176
     0
 40
0.0
176
     0
 90
        0
176
     0
290
     0
176
     0
290
     1
176
     0
290
     1
176
     0
290
     0
176
     0
290
     0
176
     0
290
     0
176
     0
290
     0
176
     0
290
     0
176
     0
290
     0
176
     0
 90
       50
176
     0
 40
0.0
176
     0
 40
1.0
176
     0
 90
        0
176
     0
 62
    18
420
        0
176
     0
 90
       50
176
     0
 90
        3
176
     0
 62
     5
420
      255
176
     0
290
     0
176
     0
 90
       50
176
     0
 90
       50
176
     0
 90
       50
176
     0
290
     0
176
     0
 90
       50
176
     0
 62
   256
176
     0
 40
1.0
176
     0
 90
        2
176
     0
  1
strokes_ogs.tif
176
     0
290
     0
176
     0
 40
1.0
176
     0
 40
1.0
176
     0
1001
ACAD
1000
AcDbSavedByObjectVersion
1070
     0
  0
VISUALSTYLE
  5
80F8
102
{ACAD_REACTORS
330
80EE
102
}
330
80EE
100
AcDbVisualStyle
  2
Realistic
 70
     8
177
     3
291
     0
 70
    58
 90
        2
176
     1
 90
        3
176
     1
 90
        0
176
     1
 90
        2
176
     1
 40
0.6
176
     1
 40
30.0
176
     1
 62
     7
420
 16777215
176
     1
 90
        0
176
     1
 90
        0
176
     1
 62
     7
176
     1
 62
   257
176
     1
 90
        1
176
     1
 90
        1
176
     1
 40
1.0
176
     1
 90
        8
176
     1
 62
   257
176
     1
 40
1.0
176
     1
 90
        1
176
     1
 90
        6
176
     1
 90
        2
176
     1
 62
     7
176
     1
 90
        3
176
     1
 90
        0
176
     1
 90
        0
176
     1
290
     0
176
     1
 90
       13
176
     1
 40
0.0
176
     1
 90
        0
176
     1
290
     0
176
     1
290
     1
176
     1
290
     1
176
     1
290
     0
176
     1
290
     0
176
     1
290
     0
176
     1
290
     0
176
     1
290
     0
176
     1
290
     0
176
     1
 90
       50
176
     1
 40
0.0
176
     1
 40
1.0
176
     1
 90
        0
176
     1
 62
    18
420
        0
176
     1
 90
       50
176
     1
 90
        3
176
     1
 62
     5
420
      255
176
     1
290
     0
176
     1
 90
       50
176
     1
 90
       50
176
     1
 90
       50
176
     1
290
     0
176
     1
 90
       50
176
     1
 62
   256
176
     0
 40
1.0
176
     0
 90
        2
176
     1
  1
strokes_ogs.tif
176
     1
290
     0
176
     1
 40
1.0
176
     1
 40
1.0
176
     1
1001
ACAD
1000
AcDbSavedByObjectVersion
1070
     0
  0
VISUALSTYLE
  5
8103
102
{ACAD_REACTORS
330
80EE
102
}
330
80EE
100
AcDbVisualStyle
  2
Shaded
 70
    27
177
     3
291
     0
 70
    58
 90
        2
176
     1
 90
        2
176
     1
 90
        1
176
     1
 90
        2
176
     1
 40
0.6
176
     1
 40
30.0
176
     1
 62
     7
420
 16777215
176
     1
 90
        0
176
     1
 90
        4
176
     1
 62
     7
176
     1
 62
   257
176
     1
 90
        1
176
     1
 90
        1
176
     1
 40
1.0
176
     1
 90
        8
176
     1
 62
   257
176
     1
 40
1.0
176
     1
 90
        1
176
     1
 90
        6
176
     1
 90
        2
176
     1
 62
     8
420
  7895160
176
     1
 90
        3
176
     1
 90
        0
176
     1
 90
        0
176
     1
290
     0
176
     1
 90
        5
176
     1
 40
0.0
176
     1
 90
        0
176
     1
290
     0
176
     1
290
     1
176
     1
290
     1
176
     1
290
     0
176
     1
290
     0
176
     1
290
     0
176
     1
290
     0
176
     1
290
     0
176
     1
290
     0
176
     1
 90
       50
176
     1
 40
0.0
176
     1
 40
1.0
176
     1
 90
        0
176
     1
 62
    18
420
        0
176
     1
 90
       50
176
     1
 90
        3
176
     1
 62
     5
420
      255
176
     1
290
     0
176
     1
 90
       50
176
     1
 90
       50
176
     1
 90
       50
176
     1
290
     0
176
     1
 90
       50
176
     1
 62
   256
176
     0
 40
1.0
176
     0
 90
        2
176
     1
  1
strokes_ogs.tif
176
     1
290
     0
176
     1
 40
1.0
176
     1
 40
1.0
176
     1
1001
ACAD
1000
AcDbSavedByObjectVersion
1070
     0
  0
VISUALSTYLE
  5
8102
102
{ACAD_REACTORS
330
80EE
102
}
330
80EE
100
AcDbVisualStyle
  2
Shaded with edges
 70
    26
177
     3
291
     0
 70
    58
 90
        2
176
     1
 90
        2
176
     1
 90
        1
176
     1
 90
        2
176
     1
 40
0.6
176
     1
 40
30.0
176
     1
 62
     7
420
 16777215
176
     1
 90
        1
176
     1
 90
        2
176
     1
 62
     7
176
     1
 62
   257
176
     1
 90
        2
176
     1
 90
        1
176
     1
 40
1.0
176
     1
 90
        8
176
     1
 62
   257
176
     1
 40
1.0
176
     1
 90
        1
176
     1
 90
        6
176
     1
 90
        2
176
     1
 62
     7
176
     1
 90
        3
176
     1
 90
        0
176
     1
 90
        0
176
     1
290
     0
176
     1
 90
        5
176
     1
 40
0.0
176
     1
 90
        0
176
     1
290
     0
176
     1
290
     1
176
     1
290
     1
176
     1
290
     0
176
     1
290
     0
176
     1
290
     0
176
     1
290
     0
176
     1
290
     0
176
     1
290
     0
176
     1
 90
       50
176
     1
 40
0.0
176
     1
 40
1.0
176
     1
 90
        0
176
     1
 62
    18
420
        0
176
     1
 90
       50
176
     1
 90
        3
176
     1
 62
     5
420
      255
176
     1
290
     0
176
     1
 90
       50
176
     1
 90
       50
176
     1
 90
       50
176
     1
290
     0
176
     1
 90
       50
176
     1
 62
   256
176
     0
 40
1.0
176
     0
 90
        2
176
     1
  1
strokes_ogs.tif
176
     1
290
     0
176
     1
 40
1.0
176
     1
 40
1.0
176
     1
1001
ACAD
1000
AcDbSavedByObjectVersion
1070
     0
  0
VISUALSTYLE
  5
80FF
102
{ACAD_REACTORS
330
80EE
102
}
330
80EE
100
AcDbVisualStyle
  2
Shades of Gray
 70
    23
177
     3
291
     0
 70
    58
 90
        2
176
     1
 90
        2
176
     1
 90
        3
176
     1
 90
        0
176
     1
 40
0.6
176
     1
 40
30.0
176
     1
 62
     7
420
 16777215
176
     1
 90
        2
176
     1
 90
        2
176
     1
 62
     7
176
     1
 62
     7
176
     1
 90
        1
176
     1
 90
        1
176
     1
 40
40.0
176
     1
 90
        8
176
     1
 62
     7
176
     1
 40
1.0
176
     1
 90
        1
176
     1
 90
        6
176
     1
 90
        2
176
     1
 62
     7
176
     1
 90
        3
176
     1
 90
        0
176
     1
 90
        0
176
     1
290
     0
176
     1
 90
        1
176
     1
 40
0.0
176
     1
 90
        0
176
     1
290
     0
176
     1
290
     1
176
     1
290
     1
176
     1
290
     0
176
     1
290
     0
176
     1
290
     0
176
     1
290
     0
176
     1
290
     0
176
     1
290
     0
176
     1
 90
       50
176
     1
 40
0.0
176
     1
 40
1.0
176
     1
 90
        0
176
     1
 62
    18
420
        0
176
     1
 90
       50
176
     1
 90
        3
176
     1
 62
     5
420
      255
176
     1
290
     0
176
     1
 90
       50
176
     1
 90
       50
176
     1
 90
       50
176
     1
290
     0
176
     1
 90
       50
176
     1
 62
   256
176
     0
 40
1.0
176
     0
 90
        2
176
     1
  1
strokes_ogs.tif
176
     1
290
     0
176
     1
 40
1.0
176
     1
 40
1.0
176
     1
1001
ACAD
1000
AcDbSavedByObjectVersion
1070
     0
  0
VISUALSTYLE
  5
8100
102
{ACAD_REACTORS
330
80EE
102
}
330
80EE
100
AcDbVisualStyle
  2
Sketchy
 70
    24
177
     3
291
     0
 70
    58
 90
        1
176
     1
 90
        2
176
     1
 90
        2
176
     1
 90
        0
176
     1
 40
0.6
176
     1
 40
30.0
176
     1
 62
     7
420
 16777215
176
     1
 90
        2
176
     1
 90
        2
176
     1
 62
     7
176
     1
 62
     7
176
     1
 90
        1
176
     1
 90
        1
176
     1
 40
40.0
176
     1
 90
       11
176
     1
 62
     7
176
     1
 40
1.0
176
     1
 90
        1
176
     1
 90
        6
176
     1
 90
        2
176
     1
 62
     7
176
     1
 90
        6
176
     1
 90
        0
176
     1
 90
        0
176
     1
290
     0
176
     1
 90
        1
176
     1
 40
0.0
176
     1
 90
        0
176
     1
290
     0
176
     1
290
     1
176
     1
290
     1
176
     1
290
     0
176
     1
290
     0
176
     1
290
     0
176
     1
290
     0
176
     1
290
     0
176
     1
290
     0
176
     1
 90
       50
176
     1
 40
0.0
176
     1
 40
1.0
176
     1
 90
        0
176
     1
 62
    18
420
        0
176
     1
 90
       50
176
     1
 90
        3
176
     1
 62
     5
420
      255
176
     1
290
     0
176
     1
 90
       50
176
     1
 90
       50
176
     1
 90
       50
176
     1
290
     0
176
     1
 90
       50
176
     1
 62
   256
176
     0
 40
1.0
176
     0
 90
        2
176
     1
  1
strokes_ogs.tif
176
     1
290
     0
176
     1
 40
1.0
176
     1
 40
1.0
176
     1
1001
ACAD
1000
AcDbSavedByObjectVersion
1070
     0
  0
VISUALSTYLE
  5
80FB
102
{ACAD_REACTORS
330
80EE
102
}
330
80EE
100
AcDbVisualStyle
  2
Thicken
 70
    13
177
     3
291
     1
 70
    58
 90
        2
176
     1
 90
        2
176
     1
 90
        0
176
     1
 90
        0
176
     1
 40
0.6
176
     1
 40
30.0
176
     1
 62
     7
420
 16777215
176
     1
 90
        1
176
     1
 90
        4
176
     1
 62
     7
176
     1
 62
   257
176
     1
 90
        1
176
     1
 90
        1
176
     1
 40
1.0
176
     1
 90
       12
176
     1
 62
     7
176
     1
 40
1.0
176
     1
 90
        1
176
     1
 90
        6
176
     1
 90
        2
176
     1
 62
     7
176
     1
 90
        5
176
     1
 90
        0
176
     1
 90
        0
176
     1
290
     0
176
     1
 90
        1
176
     1
 40
0.0
176
     1
 90
        0
176
     1
290
     0
176
     1
290
     1
176
     1
290
     1
176
     1
290
     0
176
     1
290
     0
176
     1
290
     0
176
     1
290
     0
176
     1
290
     0
176
     1
290
     0
176
     1
 90
       50
176
     1
 40
0.0
176
     1
 40
1.0
176
     1
 90
        0
176
     1
 62
    18
420
        0
176
     1
 90
       50
176
     1
 90
        3
176
     1
 62
     5
420
      255
176
     1
290
     0
176
     1
 90
       50
176
     1
 90
       50
176
     1
 90
       50
176
     1
290
     0
176
     1
 90
       50
176
     1
 62
   256
176
     0
 40
1.0
176
     0
 90
        2
176
     1
  1
strokes_ogs.tif
176
     1
290
     0
176
     1
 40
1.0
176
     1
 40
1.0
176
     1
1001
ACAD
1000
AcDbSavedByObjectVersion
1070
     0
  0
VISUALSTYLE
  5
80F5
102
{ACAD_REACTORS
330
80EE
102
}
330
80EE
100
AcDbVisualStyle
  2
Wireframe
 70
     5
177
     3
291
     0
 70
    58
 90
        0
176
     1
 90
        2
176
     1
 90
        0
176
     1
 90
        0
176
     1
 40
0.6
176
     1
 40
30.0
176
     1
 62
     7
420
 16777215
176
     1
 90
        1
176
     1
 90
        4
176
     1
 62
     7
176
     1
 62
   257
176
     1
 90
        1
176
     1
 90
        1
176
     1
 40
1.0
176
     1
 90
        0
176
     1
 62
   257
176
     1
 40
1.0
176
     1
 90
        1
176
     1
 90
        6
176
     1
 90
        2
176
     1
 62
     7
176
     1
 90
        3
176
     1
 90
        0
176
     1
 90
        0
176
     1
290
     0
176
     1
 90
        1
176
     1
 40
0.0
176
     1
 90
        0
176
     1
290
     0
176
     1
290
     1
176
     1
290
     1
176
     1
290
     0
176
     1
290
     0
176
     1
290
     0
176
     1
290
     0
176
     1
290
     0
176
     1
290
     0
176
     1
 90
       50
176
     1
 40
0.0
176
     1
 40
1.0
176
     1
 90
        0
176
     1
 62
    18
420
        0
176
     1
 90
       50
176
     1
 90
        3
176
     1
 62
     5
420
      255
176
     1
290
     0
176
     1
 90
       50
176
     1
 90
       50
176
     1
 90
       50
176
     1
290
     0
176
     1
 90
       50
176
     1
 62
   256
176
     0
 40
1.0
176
     0
 90
        2
176
     1
  1
strokes_ogs.tif
176
     1
290
     0
176
     1
 40
1.0
176
     1
 40
1.0
176
     1
1001
ACAD
1000
AcDbSavedByObjectVersion
1070
     0
  0
VISUALSTYLE
  5
8101
102
{ACAD_REACTORS
330
80EE
102
}
330
80EE
100
AcDbVisualStyle
  2
X-Ray
 70
    25
177
     3
291
     0
 70
    58
 90
        2
176
     1
 90
        2
176
     1
 90
        1
176
     1
 90
        1
176
     1
 40
0.5
176
     1
 40
30.0
176
     1
 62
     7
420
 16777215
176
     1
 90
        1
176
     1
 90
        0
176
     1
 62
     7
176
     1
 62
   257
176
     1
 90
        1
176
     1
 90
        1
176
     1
 40
1.0
176
     1
 90
        8
176
     1
 62
     7
176
     1
 40
1.0
176
     1
 90
        1
176
     1
 90
        6
176
     1
 90
        2
176
     1
 62
     7
176
     1
 90
        3
176
     1
 90
        0
176
     1
 90
        0
176
     1
290
     0
176
     1
 90
       13
176
     1
 40
0.0
176
     1
 90
        0
176
     1
290
     0
176
     1
290
     1
176
     1
290
     1
176
     1
290
     0
176
     1
290
     0
176
     1
290
     0
176
     1
290
     0
176
     1
290
     0
176
     1
290
     0
176
     1
 90
       50
176
     1
 40
0.0
176
     1
 40
1.0
176
     1
 90
        0
176
     1
 62
    18
420
        0
176
     1
 90
       50
176
     1
 90
        3
176
     1
 62
     5
420
      255
176
     1
290
     0
176
     1
 90
       50
176
     1
 90
       50
176
     1
 90
       50
176
     1
290
     0
176
     1
 90
       50
176
     1
 62
   256
176
     0
 40
1.0
176
     0
 90
        2
176
     1
  1
strokes_ogs.tif
176
     1
290
     0
176
     1
 40
1.0
176
     1
 40
1.0
176
     1
1001
ACAD
1000
AcDbSavedByObjectVersion
1070
     0
  0
DICTIONARYVAR
  5
8185
102
{ACAD_REACTORS
330
817F
102
}
330
817F
100
DictionaryVariables
280
     0
  1
1:1
  0
DICTIONARYVAR
  5
8181
102
{ACAD_REACTORS
330
817F
102
}
330
817F
100
DictionaryVariables
280
     0
  1
STANDARD
  0
DICTIONARYVAR
  5
8180
102
{ACAD_REACTORS
330
817F
102
}
330
817F
100
DictionaryVariables
280
     0
  1
STANDARD
  0
DICTIONARYVAR
  5
8182
102
{ACAD_REACTORS
330
817F
102
}
330
817F
100
DictionaryVariables
280
     0
  1
Metric50
  0
DICTIONARYVAR
  5
8183
102
{ACAD_REACTORS
330
817F
102
}
330
817F
100
DictionaryVariables
280
     0
  1
Metric50
  0
DICTIONARYVAR
  5
8187
102
{ACAD_REACTORS
330
817F
102
}
330
817F
100
DictionaryVariables
280
     0
  1
1
  0
DICTIONARYVAR
  5
8188
102
{ACAD_REACTORS
330
817F
102
}
330
817F
100
DictionaryVariables
280
     0
  1
15
  0
DICTIONARYVAR
  5
8186
102
{ACAD_REACTORS
330
817F
102
}
330
817F
100
DictionaryVariables
280
     0
  1
0
  0
DICTIONARYVAR
  5
818D
102
{ACAD_REACTORS
330
817F
102
}
330
817F
100
DictionaryVariables
280
     0
  1
0
  0
DICTIONARYVAR
  5
8184
102
{ACAD_REACTORS
330
817F
102
}
330
817F
100
DictionaryVariables
280
     0
  1
0
  0
DICTIONARY
  5
8198
102
{ACAD_REACTORS
330
8196
102
}
330
8196
100
AcDbDictionary
281
     1
  0
DICTIONARY
  5
8197
102
{ACAD_REACTORS
330
8196
102
}
330
8196
100
AcDbDictionary
281
     1
  3
2040991934736
350
8191
  3
2040991934752
350
8192
  3
2040991934768
350
8193
  3
2040991934784
350
8194
  3
2040991934800
350
8195
  0
DICTIONARY
  5
819B
330
8121
100
AcDbDictionary
280
     1
281
     1
  3
ACAD_XREC_ROUNDTRIP
360
819C
  0
DICTIONARY
  5
80DF
330
80DE
100
AcDbDictionary
280
     1
281
     1
  3
BUMPTILE
360
80E1
  3
DIFFUSETILE
360
80E0
  3
OPACITYTILE
360
80E4
  3
REFLECTIONTILE
360
80E3
  3
REFRACTIONTILE
360
80E5
  3
SPECULARTILE
360
80E2
  0
DICTIONARY
  5
80D7
330
80D6
100
AcDbDictionary
280
     1
281
     1
  3
BUMPTILE
360
80D9
  3
DIFFUSETILE
360
80D8
  3
OPACITYTILE
360
80DC
  3
REFLECTIONTILE
360
80DB
  3
REFRACTIONTILE
360
80DD
  3
SPECULARTILE
360
80DA
  0
DICTIONARY
  5
80E7
330
80E6
100
AcDbDictionary
280
     1
281
     1
  3
BUMPTILE
360
80E9
  3
DIFFUSETILE
360
80E8
  3
OPACITYTILE
360
80EC
  3
REFLECTIONTILE
360
80EB
  3
REFRACTIONTILE
360
80ED
  3
SPECULARTILE
360
80EA
  0
DICTIONARY
  5
8199
330
811F
100
AcDbDictionary
280
     1
281
     1
  3
ACAD_XREC_ROUNDTRIP
360
819A
  0
DICTIONARY
  5
818E
330
8109
100
AcDbDictionary
280
     1
281
     1
  3
ACAD_ROUNDTRIP_2008_TABLESTYLE_CELLSTYLEMAP
360
818F
  0
XRECORD
  5
8191
102
{ACAD_REACTORS
330
8197
102
}
330
8197
100
AcDbXrecord
280
     1
  1
AcDb_Thumbnail_Schema
102
{ATTRRECORD
341
8192
  2
AcDbDs::TreatedAsObjectData
280
     1
291
     1
102
ATTRRECORD}
102
{ATTRRECORD
341
8193
  2
AcDbDs::Legacy
280
     1
291
     1
102
ATTRRECORD}
  2
AcDbDs::ID
280
    10
 91
        8
102
{ATTRRECORD
341
8194
  2
AcDs:Indexable
280
     1
291
     1
102
ATTRRECORD}
102
{ATTRRECORD
341
8195
  2
AcDbDs::HandleAttribute
280
     7
282
     1
102
ATTRRECORD}
  2
Thumbnail_Data
280
    15
 91
        0
  0
XRECORD
  5
8192
102
{ACAD_REACTORS
330
8197
102
}
330
8197
100
AcDbXrecord
280
     1
  1
AcDbDs::TreatedAsObjectDataSchema
  2
AcDbDs::TreatedAsObjectData
280
     1
 91
        0
  0
XRECORD
  5
8193
102
{ACAD_REACTORS
330
8197
102
}
330
8197
100
AcDbXrecord
280
     1
  1
AcDbDs::LegacySchema
  2
AcDbDs::Legacy
280
     1
 91
        0
  0
XRECORD
  5
8194
102
{ACAD_REACTORS
330
8197
102
}
330
8197
100
AcDbXrecord
280
     1
  1
AcDbDs::IndexedPropertySchema
  2
AcDs:Indexable
280
     1
 91
        0
  0
XRECORD
  5
8195
102
{ACAD_REACTORS
330
8197
102
}
330
8197
100
AcDbXrecord
280
     1
  1
AcDbDs::HandleAttributeSchema
  2
AcDbDs::HandleAttribute
280
     7
 91
        1
284
     1
  0
XRECORD
  5
819C
102
{ACAD_REACTORS
330
819B
102
}
330
819B
100
AcDbXrecord
280
     1
102
DISPLAYNAME
  1
Metric50
102
FLAGS
 90
        0
  0
XRECORD
  5
80E1
102
{ACAD_REACTORS
330
80DF
102
}
330
80DF
100
AcDbXrecord
280
     1
270
     1
271
     1
  0
XRECORD
  5
80E0
102
{ACAD_REACTORS
330
80DF
102
}
330
80DF
100
AcDbXrecord
280
     1
270
     1
271
     1
  0
XRECORD
  5
80E4
102
{ACAD_REACTORS
330
80DF
102
}
330
80DF
100
AcDbXrecord
280
     1
270
     1
271
     1
  0
XRECORD
  5
80E3
102
{ACAD_REACTORS
330
80DF
102
}
330
80DF
100
AcDbXrecord
280
     1
270
     1
271
     1
  0
XRECORD
  5
80E5
102
{ACAD_REACTORS
330
80DF
102
}
330
80DF
100
AcDbXrecord
280
     1
270
     1
271
     1
  0
XRECORD
  5
80E2
102
{ACAD_REACTORS
330
80DF
102
}
330
80DF
100
AcDbXrecord
280
     1
270
     1
271
     1
  0
XRECORD
  5
80D9
102
{ACAD_REACTORS
330
80D7
102
}
330
80D7
100
AcDbXrecord
280
     1
270
     1
271
     1
  0
XRECORD
  5
80D8
102
{ACAD_REACTORS
330
80D7
102
}
330
80D7
100
AcDbXrecord
280
     1
270
     1
271
     1
  0
XRECORD
  5
80DC
102
{ACAD_REACTORS
330
80D7
102
}
330
80D7
100
AcDbXrecord
280
     1
270
     1
271
     1
  0
XRECORD
  5
80DB
102
{ACAD_REACTORS
330
80D7
102
}
330
80D7
100
AcDbXrecord
280
     1
270
     1
271
     1
  0
XRECORD
  5
80DD
102
{ACAD_REACTORS
330
80D7
102
}
330
80D7
100
AcDbXrecord
280
     1
270
     1
271
     1
  0
XRECORD
  5
80DA
102
{ACAD_REACTORS
330
80D7
102
}
330
80D7
100
AcDbXrecord
280
     1
270
     1
271
     1
  0
XRECORD
  5
80E9
102
{ACAD_REACTORS
330
80E7
102
}
330
80E7
100
AcDbXrecord
280
     1
270
     1
271
     1
  0
XRECORD
  5
80E8
102
{ACAD_REACTORS
330
80E7
102
}
330
80E7
100
AcDbXrecord
280
     1
270
     1
271
     1
  0
XRECORD
  5
80EC
102
{ACAD_REACTORS
330
80E7
102
}
330
80E7
100
AcDbXrecord
280
     1
270
     1
271
     1
  0
XRECORD
  5
80EB
102
{ACAD_REACTORS
330
80E7
102
}
330
80E7
100
AcDbXrecord
280
     1
270
     1
271
     1
  0
XRECORD
  5
80ED
102
{ACAD_REACTORS
330
80E7
102
}
330
80E7
100
AcDbXrecord
280
     1
270
     1
271
     1
  0
XRECORD
  5
80EA
102
{ACAD_REACTORS
330
80E7
102
}
330
80E7
100
AcDbXrecord
280
     1
270
     1
271
     1
  0
XRECORD
  5
819A
102
{ACAD_REACTORS
330
8199
102
}
330
8199
100
AcDbXrecord
280
     1
102
DISPLAYNAME
  1
Metric50
102
FLAGS
 90
        0
  0
CELLSTYLEMAP
  5
818F
102
{ACAD_REACTORS
330
818E
102
}
330
818E
100
AcDbCellStyleMap
 90
        3
300
CELLSTYLE
  1
TABLEFORMAT_BEGIN
 90
        5
170
     1
 91
        0
 92
    32768
 62
   257
 93
        1
300
CONTENTFORMAT
  1
CONTENTFORMAT_BEGIN
 90
        0
 91
        0
 92
      512
 93
        0
300

 40
0.0
140
1.0
 94
        5
 62
     0
340
10
144
6.0
309
CONTENTFORMAT_END
171
     1
301
MARGIN
  1
CELLMARGIN_BEGIN
 40
1.5
 40
1.5
 40
1.5
 40
1.5
 40
4.5
 40
4.5
309
CELLMARGIN_END
 94
        6
 95
        1
302
GRIDFORMAT
  1
GRIDFORMAT_BEGIN
 90
        0
 91
        1
 62
     0
 92
       -2
340
0
 93
        0
 40
1.125
309
GRIDFORMAT_END
 95
        2
302
GRIDFORMAT
  1
GRIDFORMAT_BEGIN
 90
        0
 91
        1
 62
     0
 92
       -2
340
0
 93
        0
 40
1.125
309
GRIDFORMAT_END
 95
        4
302
GRIDFORMAT
  1
GRIDFORMAT_BEGIN
 90
        0
 91
        1
 62
     0
 92
       -2
340
0
 93
        0
 40
1.125
309
GRIDFORMAT_END
 95
        8
302
GRIDFORMAT
  1
GRIDFORMAT_BEGIN
 90
        0
 91
        1
 62
     0
 92
       -2
340
0
 93
        0
 40
1.125
309
GRIDFORMAT_END
 95
       16
302
GRIDFORMAT
  1
GRIDFORMAT_BEGIN
 90
        0
 91
        1
 62
     0
 92
       -2
340
0
 93
        0
 40
1.125
309
GRIDFORMAT_END
 95
       32
302
GRIDFORMAT
  1
GRIDFORMAT_BEGIN
 90
        0
 91
        1
 62
     0
 92
       -2
340
0
 93
        0
 40
1.125
309
GRIDFORMAT_END
309
TABLEFORMAT_END
  1
CELLSTYLE_BEGIN
 90
        1
 91
        1
300
_TITLE
309
CELLSTYLE_END
300
CELLSTYLE
  1
TABLEFORMAT_BEGIN
 90
        5
170
     1
 91
        0
 92
        0
 62
   257
 93
        1
300
CONTENTFORMAT
  1
CONTENTFORMAT_BEGIN
 90
        0
 91
        0
 92
      512
 93
        0
300

 40
0.0
140
1.0
 94
        5
 62
     0
340
10
144
4.5
309
CONTENTFORMAT_END
171
     1
301
MARGIN
  1
CELLMARGIN_BEGIN
 40
1.5
 40
1.5
 40
1.5
 40
1.5
 40
4.5
 40
4.5
309
CELLMARGIN_END
 94
        6
 95
        1
302
GRIDFORMAT
  1
GRIDFORMAT_BEGIN
 90
        0
 91
        1
 62
     0
 92
       -2
340
0
 93
        0
 40
1.125
309
GRIDFORMAT_END
 95
        2
302
GRIDFORMAT
  1
GRIDFORMAT_BEGIN
 90
        0
 91
        1
 62
     0
 92
       -2
340
0
 93
        0
 40
1.125
309
GRIDFORMAT_END
 95
        4
302
GRIDFORMAT
  1
GRIDFORMAT_BEGIN
 90
        0
 91
        1
 62
     0
 92
       -2
340
0
 93
        0
 40
1.125
309
GRIDFORMAT_END
 95
        8
302
GRIDFORMAT
  1
GRIDFORMAT_BEGIN
 90
        0
 91
        1
 62
     0
 92
       -2
340
0
 93
        0
 40
1.125
309
GRIDFORMAT_END
 95
       16
302
GRIDFORMAT
  1
GRIDFORMAT_BEGIN
 90
        0
 91
        1
 62
     0
 92
       -2
340
0
 93
        0
 40
1.125
309
GRIDFORMAT_END
 95
       32
302
GRIDFORMAT
  1
GRIDFORMAT_BEGIN
 90
        0
 91
        1
 62
     0
 92
       -2
340
0
 93
        0
 40
1.125
309
GRIDFORMAT_END
309
TABLEFORMAT_END
  1
CELLSTYLE_BEGIN
 90
        2
 91
        1
300
_HEADER
309
CELLSTYLE_END
300
CELLSTYLE
  1
TABLEFORMAT_BEGIN
 90
        5
170
     1
 91
        0
 92
        0
 62
   257
 93
        1
300
CONTENTFORMAT
  1
CONTENTFORMAT_BEGIN
 90
        0
 91
        0
 92
      512
 93
        0
300

 40
0.0
140
1.0
 94
        2
 62
     0
340
10
144
4.5
309
CONTENTFORMAT_END
171
     1
301
MARGIN
  1
CELLMARGIN_BEGIN
 40
1.5
 40
1.5
 40
1.5
 40
1.5
 40
4.5
 40
4.5
309
CELLMARGIN_END
 94
        6
 95
        1
302
GRIDFORMAT
  1
GRIDFORMAT_BEGIN
 90
        0
 91
        1
 62
     0
 92
       -2
340
0
 93
        0
 40
1.125
309
GRIDFORMAT_END
 95
        2
302
GRIDFORMAT
  1
GRIDFORMAT_BEGIN
 90
        0
 91
        1
 62
     0
 92
       -2
340
0
 93
        0
 40
1.125
309
GRIDFORMAT_END
 95
        4
302
GRIDFORMAT
  1
GRIDFORMAT_BEGIN
 90
        0
 91
        1
 62
     0
 92
       -2
340
0
 93
        0
 40
1.125
309
GRIDFORMAT_END
 95
        8
302
GRIDFORMAT
  1
GRIDFORMAT_BEGIN
 90
        0
 91
        1
 62
     0
 92
       -2
340
0
 93
        0
 40
1.125
309
GRIDFORMAT_END
 95
       16
302
GRIDFORMAT
  1
GRIDFORMAT_BEGIN
 90
        0
 91
        1
 62
     0
 92
       -2
340
0
 93
        0
 40
1.125
309
GRIDFORMAT_END
 95
       32
302
GRIDFORMAT
  1
GRIDFORMAT_BEGIN
 90
        0
 91
        1
 62
     0
 92
       -2
340
0
 93
        0
 40
1.125
309
GRIDFORMAT_END
309
TABLEFORMAT_END
  1
CELLSTYLE_BEGIN
 90
        3
 91
        2
300
_DATA
309
CELLSTYLE_END
  0
ENDSEC
  0
SECTION
  2
ACDSDATA
 70
     2
 71
     8
  0
ACDSSCHEMA
 90
        0
  1
AcDb_Thumbnail_Schema
  2
AcDbDs::ID
280
    10
 91
        8
  2
Thumbnail_Data
280
    15
 91
        0
101
ACDSRECORD
 95
        0
 90
        1
  2
AcDbDs::TreatedAsObjectData
280
     1
291
     1
101
ACDSRECORD
 95
        0
 90
        2
  2
AcDbDs::Legacy
280
     1
291
     1
101
ACDSRECORD
  1
AcDbDs::ID
 90
        3
  2
AcDs:Indexable
280
     1
291
     1
101
ACDSRECORD
  1
AcDbDs::ID
 90
        4
  2
AcDbDs::HandleAttribute
280
     7
282
     1
  0
ACDSSCHEMA
 90
        1
  1
AcDbDs::TreatedAsObjectDataSchema
  2
AcDbDs::TreatedAsObjectData
280
     1
 91
        0
  0
ACDSSCHEMA
 90
        2
  1
AcDbDs::LegacySchema
  2
AcDbDs::Legacy
280
     1
 91
        0
  0
ACDSSCHEMA
 90
        3
  1
AcDbDs::IndexedPropertySchema
  2
AcDs:Indexable
280
     1
 91
        0
  0
ACDSSCHEMA
 90
        4
  1
AcDbDs::HandleAttributeSchema
  2
AcDbDs::HandleAttribute
280
     7
 91
        1
284
     1
  0
ACDSRECORD
 90
        0
  2
AcDbDs::ID
280
    10
320
806A
  2
Thumbnail_Data
280
    15
 94
     1774
310
89504E470D0A1A0A0000000D49484452000001000000007C0803000000B13B9E5A00000300504C5445000000000000C8C8C80000000000000000000000000000000000000000000000000000330000660000990000CC0000FF0033000033330033660033990033CC0033FF0066000066330066660066990066CC0066FF0099
310
000099330099660099990099CC0099FF00CC0000CC3300CC6600CC9900CCCC00CCFF00FF0000FF3300FF6600FF9900FFCC00FFFF3300003300333300663300993300CC3300FF3333003333333333663333993333CC3333FF3366003366333366663366993366CC3366FF3399003399333399663399993399CC3399FF33CC00
310
33CC3333CC6633CC9933CCCC33CCFF33FF0033FF3333FF6633FF9933FFCC33FFFF6600006600336600666600996600CC6600FF6633006633336633666633996633CC6633FF6666006666336666666666996666CC6666FF6699006699336699666699996699CC6699FF66CC0066CC3366CC6666CC9966CCCC66CCFF66FF0066
310
FF3366FF6666FF9966FFCC66FFFF9900009900339900669900999900CC9900FF9933009933339933669933999933CC9933FF9966009966339966669966999966CC9966FF9999009999339999669999999999CC9999FF99CC0099CC3399CC6699CC9999CCCC99CCFF99FF0099FF3399FF6699FF9999FFCC99FFFFCC0000CC00
310
33CC0066CC0099CC00CCCC00FFCC3300CC3333CC3366CC3399CC33CCCC33FFCC6600CC6633CC6666CC6699CC66CCCC66FFCC9900CC9933CC9966CC9999CC99CCCC99FFCCCC00CCCC33CCCC66CCCC99CCCCCCCCCCFFCCFF00CCFF33CCFF66CCFF99CCFFCCCCFFFFFF0000FF0033FF0066FF0099FF00CCFF00FFFF3300FF3333
310
FF3366FF3399FF33CCFF33FFFF6600FF6633FF6666FF6699FF66CCFF66FFFF9900FF9933FF9966FF9999FF99CCFF99FFFFCC00FFCC33FFCC66FFCC99FFCCCCFFCCFFFFFF00FFFF33FFFF66FFFF99FFFFCCFFFFFF0000000D0D0D1A1A1A2828283535354343435050505D5D5D6B6B6B787878868686939393A1A1A1AEAEAEBB
310
BBBBC9C9C9D6D6D6E4E4E4F1F1F1FFFFFF00000000000000000000000000000000000000000000000000000000000008F1915C000003A94944415478DAED9D4196C3200886398E1BEE7F19AEE17E9A08A2C6D82CDA3745B0AF1DD3A479C3971F50632DC0174AFE52012B259B3A6D0008000120000480DFF94F17C9CF0B80E1
310
E3D9A502DC03C89E010C5E601BC0477B002601FCD8C902C03F00601D3792CE5D1D44E4E558F51C7E730700508C06351B7853625ECEDC02C852852CAF5B2800EEE21B2BA0D8AA0A6876ECE202D2C8CBAD4FAC6DCB1104A31DE0B033F4D6252C0218A2FF9807ABB7CB316D1EDC0A8086FEE19D4241010CE17F2B003028A0640A
310
390AEA632B001FFA7C8C095A074044FD16B90140BDC9D46E910B00ABE24701F34D4F00924700A7CAB12FCE0000E0B478718103005753B5FA80E21240AD6A2D00F802C07504B700A07DBA0420EA474C25273E6E0E9A0470DAD603102FE064888F55601640C2C405DBD7B361E802C08D0B7805A0CF0A803606B04A832E01B40D
310
A100E01040D719720460DE1D7691058A71387481CB3B3E005000988C8975E3637BF7059A40D88E83695870332A5CF25EE703E9740A47005A05803F05DC1497374666FB5C0080001000B861E00E40DC1E77EE020B0FF8D0697F1B0079778197916AE818035D0060E14F2747D1C2477A85ECE6025700D4194DB54EF615D03485
310
170A7813263600F04401334FD807C024F85D00D0102C694F00700FE0E200DB00A06700A0EF3C5B06305ECB37D3E4A81B2BBACC2BB40880B359B5AB39E81EC0A000B4AC00903C7EB9F0CF01D49C6119C031240A65460C2E009C7C660A20E30AC042E01C075F00C06EFEDC660010C47A7E9DB47EF04E01641780DE1378FD4928
310
3636B1A007001B03903B43C8D30431CD14A068EC0328F23FD27F2A8F3243EE34F25563120A2031803416D3006E1450201CD5AB02868C793484B600201940E6897152BC04411584B800DA5700F09C18449D287B6E3E012007990450274A721B484CC4F3F638C2230580750022019E1D7D3C65C230365DE4333E36B10FB7690A
310
8B06C47CBED44F5DE0AE976D0940B122A9534B16D81E8076F22B00C4AE73E804804E0D9554285F9778DF0EB00C80C3D77C764CBA7E8D14565FB1B43C24B6008001C00F007AEF02CD21347ED7DAF064E9727754E35D7BCF7300A07BA97628FD0220FB00D896C713245647580630BBD8B70A18ABB601007DC7B3ECC400080001
310
20000480005077795F53746E59BBDA22AF25D92CB0EC0880AEC12C8B4FEF0700263F9CA5AB68E7FADB02B2BCEACE0AF01903A60AD0E5D71BE7BF9C6CE718A00032DC5EF7DD00C0340B5C16958F18102DC10010000240000800012000048000600780A19FDEFE033AAD6A177BB7673E0000000049454E44AE426082
  0
ENDSEC
  0
EOF
