  0
SECTION
  2
HEADER
  9
$ACADVER
  1
AC1027
  9
$ACADMAINTVER
 70
   125
  9
$DWGCODEPAGE
  3
ANSI_932
  9
$LASTSAVEDBY
  1
yasukiyo.ogawa
  9
$REQUIREDVERSIONS
160
                 0
  9
$INSBASE
 10
0.0
 20
0.0
 30
0.0
  9
$EXTMIN
 10
0.0
 20
0.0
 30
0.0
  9
$EXTMAX
 10
4200.0
 20
5900.0
 30
0.0
  9
$LIMMIN
 10
0.0
 20
0.0
  9
$LIMMAX
 10
297.0
 20
210.0
  9
$ORTHOMODE
 70
     1
  9
$REGENMODE
 70
     1
  9
$FILLMODE
 70
     0
  9
$QTEXTMODE
 70
     0
  9
$MIRRTEXT
 70
     1
  9
$LTSCALE
 40
100.0
  9
$ATTMODE
 70
     1
  9
$TEXTSIZE
 40
180.0
  9
$TRACEWID
 40
0.05
  9
$TEXTSTYLE
  7
STANDARD
  9
$CLAYER
  8
3
  9
$CELTYPE
  6
BYLAYER
  9
$CECOLOR
 62
   256
  9
$CELTSCALE
 40
1.0
  9
$DISPSILH
 70
     0
  9
$DIMSCALE
 40
20.0
  9
$DIMASZ
 40
2.0
  9
$DIMEXO
 40
0.5
  9
$DIMDLI
 40
10.0
  9
$DIMRND
 40
0.0
  9
$DIMDLE
 40
0.0
  9
$DIMEXE
 40
1.0
  9
$DIMTP
 40
1.0
  9
$DIMTM
 40
1.0
  9
$DIMTXT
 40
3.0
  9
$DIMCEN
 40
0.0
  9
$DIMTSZ
 40
0.0
  9
$DIMTOL
 70
     0
  9
$DIMLIM
 70
     0
  9
$DIMTIH
 70
     0
  9
$DIMTOH
 70
     0
  9
$DIMSE1
 70
     0
  9
$DIMSE2
 70
     0
  9
$DIMTAD
 70
     1
  9
$DIMZIN
 70
     8
  9
$DIMBLK
  1

  9
$DIMASO
 70
     1
  9
$DIMSHO
 70
     1
  9
$DIMPOST
  1

  9
$DIMAPOST
  1

  9
$DIMALT
 70
     0
  9
$DIMALTD
 70
     2
  9
$DIMALTF
 40
0.039
  9
$DIMLFAC
 40
1.0
  9
$DIMTOFL
 70
     1
  9
$DIMTVP
 40
0.0
  9
$DIMTIX
 70
     0
  9
$DIMSOXD
 70
     0
  9
$DIMSAH
 70
     1
  9
$DIMBLK1
  1
OPEN
  9
$DIMBLK2
  1
OPEN
  9
$DIMSTYLE
  2
IGA
  9
$DIMCLRD
 70
     0
  9
$DIMCLRE
 70
     0
  9
$DIMCLRT
 70
     0
  9
$DIMTFAC
 40
10.0
  9
$DIMGAP
 40
1.0
  9
$DIMJUST
 70
     0
  9
$DIMSD1
 70
     0
  9
$DIMSD2
 70
     0
  9
$DIMTOLJ
 70
     1
  9
$DIMTZIN
 70
     8
  9
$DIMALTZ
 70
     0
  9
$DIMALTTZ
 70
     0
  9
$DIMUPT
 70
     0
  9
$DIMDEC
 70
     0
  9
$DIMTDEC
 70
     0
  9
$DIMALTU
 70
     2
  9
$DIMALTTD
 70
     2
  9
$DIMTXSTY
  7
STANDARD
  9
$DIMAUNIT
 70
     0
  9
$DIMADEC
 70
     0
  9
$DIMALTRND
 40
0.0
  9
$DIMAZIN
 70
     0
  9
$DIMDSEP
 70
    46
  9
$DIMATFIT
 70
     3
  9
$DIMFRAC
 70
     0
  9
$DIMLDRBLK
  1
OPEN
  9
$DIMLUNIT
 70
     2
  9
$DIMLWD
 70
    -2
  9
$DIMLWE
 70
    -2
  9
$DIMTMOVE
 70
     2
  9
$DIMFXL
 40
1.0
  9
$DIMFXLON
 70
     0
  9
$DIMJOGANG
 40
0.7853981633974483
  9
$DIMTFILL
 70
     0
  9
$DIMTFILLCLR
 70
     0
  9
$DIMARCSYM
 70
     0
  9
$DIMLTYPE
  6

  9
$DIMLTEX1
  6

  9
$DIMLTEX2
  6

  9
$DIMTXTDIRECTION
 70
     0
  9
$LUNITS
 70
     2
  9
$LUPREC
 70
     3
  9
$SKETCHINC
 40
0.1
  9
$FILLETRAD
 40
50.0
  9
$AUNITS
 70
     0
  9
$AUPREC
 70
     0
  9
$MENU
  1
acad
  9
$ELEVATION
 40
0.0
  9
$PELEVATION
 40
0.0
  9
$THICKNESS
 40
0.0
  9
$LIMCHECK
 70
     0
  9
$CHAMFERA
 40
0.5
  9
$CHAMFERB
 40
0.5
  9
$CHAMFERC
 40
20.0
  9
$CHAMFERD
 40
0.0
  9
$SKPOLY
 70
     0
  9
$TDCREATE
 40
2451373.643043981
  9
$TDUCREATE
 40
2451373.268045255
  9
$TDUPDATE
 40
2460216.747384260
  9
$TDUUPDATE
 40
2460216.372394757
  9
$TDINDWG
 40
0.0971200579
  9
$TDUSRTIMER
 40
0.0971200579
  9
$USRTIMER
 70
     1
  9
$ANGBASE
 50
0.0
  9
$ANGDIR
 70
     0
  9
$PDMODE
 70
     0
  9
$PDSIZE
 40
0.0
  9
$PLINEWID
 40
0.0
  9
$SPLFRAME
 70
     0
  9
$SPLINETYPE
 70
     6
  9
$SPLINESEGS
 70
     8
  9
$HANDSEED
  5
82BE
  9
$SURFTAB1
 70
     6
  9
$SURFTAB2
 70
     6
  9
$SURFTYPE
 70
     6
  9
$SURFU
 70
     6
  9
$SURFV
 70
     6
  9
$UCSBASE
  2

  9
$UCSNAME
  2

  9
$UCSORG
 10
0.0
 20
0.0
 30
0.0
  9
$UCSXDIR
 10
1.0
 20
0.0
 30
0.0
  9
$UCSYDIR
 10
0.0
 20
1.0
 30
0.0
  9
$UCSORTHOREF
  2

  9
$UCSORTHOVIEW
 70
     0
  9
$UCSORGTOP
 10
0.0
 20
0.0
 30
0.0
  9
$UCSORGBOTTOM
 10
0.0
 20
0.0
 30
0.0
  9
$UCSORGLEFT
 10
0.0
 20
0.0
 30
0.0
  9
$UCSORGRIGHT
 10
0.0
 20
0.0
 30
0.0
  9
$UCSORGFRONT
 10
0.0
 20
0.0
 30
0.0
  9
$UCSORGBACK
 10
0.0
 20
0.0
 30
0.0
  9
$PUCSBASE
  2

  9
$PUCSNAME
  2

  9
$PUCSORG
 10
0.0
 20
0.0
 30
0.0
  9
$PUCSXDIR
 10
1.0
 20
0.0
 30
0.0
  9
$PUCSYDIR
 10
0.0
 20
1.0
 30
0.0
  9
$PUCSORTHOREF
  2

  9
$PUCSORTHOVIEW
 70
     0
  9
$PUCSORGTOP
 10
0.0
 20
0.0
 30
0.0
  9
$PUCSORGBOTTOM
 10
0.0
 20
0.0
 30
0.0
  9
$PUCSORGLEFT
 10
0.0
 20
0.0
 30
0.0
  9
$PUCSORGRIGHT
 10
0.0
 20
0.0
 30
0.0
  9
$PUCSORGFRONT
 10
0.0
 20
0.0
 30
0.0
  9
$PUCSORGBACK
 10
0.0
 20
0.0
 30
0.0
  9
$USERI1
 70
     0
  9
$USERI2
 70
     0
  9
$USERI3
 70
     0
  9
$USERI4
 70
     0
  9
$USERI5
 70
     0
  9
$USERR1
 40
0.0
  9
$USERR2
 40
0.0
  9
$USERR3
 40
0.0
  9
$USERR4
 40
0.0
  9
$USERR5
 40
0.0
  9
$WORLDVIEW
 70
     1
  9
$SHADEDGE
 70
     3
  9
$SHADEDIF
 70
    70
  9
$TILEMODE
 70
     1
  9
$MAXACTVP
 70
    16
  9
$PINSBASE
 10
0.0
 20
0.0
 30
0.0
  9
$PLIMCHECK
 70
     0
  9
$PEXTMIN
 10
1.000000000000000E+20
 20
1.000000000000000E+20
 30
1.000000000000000E+20
  9
$PEXTMAX
 10
-1.000000000000000E+20
 20
-1.000000000000000E+20
 30
-1.000000000000000E+20
  9
$PLIMMIN
 10
0.0
 20
0.0
  9
$PLIMMAX
 10
12.0
 20
9.0
  9
$UNITMODE
 70
     0
  9
$VISRETAIN
 70
     0
  9
$PLINEGEN
 70
     0
  9
$PSLTSCALE
 70
     1
  9
$TREEDEPTH
 70
  3020
  9
$CMLSTYLE
  2
STANDARD
  9
$CMLJUST
 70
     0
  9
$CMLSCALE
 40
20.0
  9
$PROXYGRAPHICS
 70
     1
  9
$MEASUREMENT
 70
     1
  9
$CELWEIGHT
370
    -1
  9
$ENDCAPS
280
     0
  9
$JOINSTYLE
280
     0
  9
$LWDISPLAY
290
     0
  9
$INSUNITS
 70
     0
  9
$HYPERLINKBASE
  1

  9
$STYLESHEET
  1

  9
$XEDIT
290
     1
  9
$CEPSNTYPE
380
     0
  9
$PSTYLEMODE
290
     1
  9
$FINGERPRINTGUID
  2
{0AC4CE25-0BEE-4AA1-8771-6C51AC46AC85}
  9
$VERSIONGUID
  2
{623E4B4F-D513-4E65-B99C-0C252708C55A}
  9
$EXTNAMES
290
     1
  9
$PSVPSCALE
 40
0.0
  9
$OLESTARTUP
290
     0
  9
$SORTENTS
280
   127
  9
$INDEXCTL
280
     0
  9
$HIDETEXT
280
     0
  9
$XCLIPFRAME
280
     2
  9
$HALOGAP
280
     0
  9
$OBSCOLOR
 70
   257
  9
$OBSLTYPE
280
     0
  9
$INTERSECTIONDISPLAY
280
     0
  9
$INTERSECTIONCOLOR
 70
   257
  9
$DIMASSOC
280
     1
  9
$PROJECTNAME
  1

  9
$CAMERADISPLAY
290
     0
  9
$LENSLENGTH
 40
50.0
  9
$CAMERAHEIGHT
 40
0.0
  9
$STEPSPERSEC
 40
2.0
  9
$STEPSIZE
 40
6.0
  9
$3DDWFPREC
 40
2.0
  9
$PSOLWIDTH
 40
0.25
  9
$PSOLHEIGHT
 40
4.0
  9
$LOFTANG1
 40
1.570796326794896
  9
$LOFTANG2
 40
1.570796326794896
  9
$LOFTMAG1
 40
0.0
  9
$LOFTMAG2
 40
0.0
  9
$LOFTPARAM
 70
     7
  9
$LOFTNORMALS
280
     1
  9
$LATITUDE
 40
37.795
  9
$LONGITUDE
 40
-122.394
  9
$NORTHDIRECTION
 40
0.0
  9
$TIMEZONE
 70
 -8000
  9
$LIGHTGLYPHDISPLAY
280
     1
  9
$TILEMODELIGHTSYNCH
280
     1
  9
$CMATERIAL
347
8202
  9
$SOLIDHIST
280
     0
  9
$SHOWHIST
280
     1
  9
$DWFFRAME
280
     2
  9
$DGNFRAME
280
     0
  9
$REALWORLDSCALE
290
     1
  9
$INTERFERECOLOR
 62
     1
  9
$INTERFEREOBJVS
345
8224
  9
$INTERFEREVPVS
346
8221
  9
$CSHADOW
280
     0
  9
$SHADOWPLANELOCATION
 40
0.0
  0
ENDSEC
  0
SECTION
  2
CLASSES
  0
CLASS
  1
ACDBDICTIONARYWDFLT
  2
AcDbDictionaryWithDefault
  3
ObjectDBX Classes
 90
        0
 91
        1
280
     0
281
     0
  0
CLASS
  1
MATERIAL
  2
AcDbMaterial
  3
ObjectDBX Classes
 90
     1153
 91
        3
280
     0
281
     0
  0
CLASS
  1
VISUALSTYLE
  2
AcDbVisualStyle
  3
ObjectDBX Classes
 90
     4095
 91
       24
280
     0
281
     0
  0
CLASS
  1
TABLESTYLE
  2
AcDbTableStyle
  3
ObjectDBX Classes
 90
     4095
 91
        1
280
     0
281
     0
  0
CLASS
  1
SCALE
  2
AcDbScale
  3
ObjectDBX Classes
 90
     1153
 91
       17
280
     0
281
     0
  0
CLASS
  1
MLEADERSTYLE
  2
AcDbMLeaderStyle
  3
ACDB_MLEADERSTYLE_CLASS
 90
     4095
 91
        1
280
     0
281
     0
  0
CLASS
  1
ACDBSECTIONVIEWSTYLE
  2
AcDbSectionViewStyle
  3
ObjectDBX Classes
 90
     1025
 91
        1
280
     0
281
     0
  0
CLASS
  1
ACDBDETAILVIEWSTYLE
  2
AcDbDetailViewStyle
  3
ObjectDBX Classes
 90
     1025
 91
        1
280
     0
281
     0
  0
CLASS
  1
DICTIONARYVAR
  2
AcDbDictionaryVar
  3
ObjectDBX Classes
 90
        0
 91
       10
280
     0
281
     0
  0
CLASS
  1
CELLSTYLEMAP
  2
AcDbCellStyleMap
  3
ObjectDBX Classes
 90
     1152
 91
        1
280
     0
281
     0
  0
ENDSEC
  0
SECTION
  2
TABLES
  0
TABLE
  2
VPORT
  5
8
330
0
100
AcDbSymbolTable
 70
     1
1001
ACAD
1000
DbSaveVer
1071
      278
  0
VPORT
  5
81FF
330
8
100
AcDbSymbolTableRecord
100
AcDbViewportTableRecord
  2
*Active
 70
     0
 10
0.0
 20
0.0
 11
1.0
 21
1.0
 12
2694.113519327956
 22
2950.000013737006
 13
0.0
 23
0.0
 14
10.0
 24
10.0
 15
10.0
 25
10.0
 16
0.0
 26
0.0
 36
1.0
 17
0.0
 27
0.0
 37
0.0
 40
5938.142562752639
 41
2.250314465408805
 42
50.0
 43
0.0
 44
0.0
 50
0.0
 51
0.0
 71
     0
 72
   100
 73
     1
 74
     0
 75
     0
 76
     0
 77
     0
 78
     0
281
     0
 65
     1
110
0.0
120
0.0
130
0.0
111
1.0
121
0.0
131
0.0
112
0.0
122
1.0
132
0.0
 79
     0
146
0.0
348
8220
 60
     3
 61
     5
292
     1
282
     1
141
0.0
142
0.0
 63
   250
421
  3355443
1001
ACAD_NAV_VCDISPLAY
1070
     3
  0
ENDTAB
  0
TABLE
  2
LTYPE
  5
5
330
0
100
AcDbSymbolTable
 70
     2
  0
LTYPE
  5
13
330
5
100
AcDbSymbolTableRecord
100
AcDbLinetypeTableRecord
  2
BYBLOCK
 70
     0
  3

 72
    65
 73
     0
 40
0.0
  0
LTYPE
  5
14
330
5
100
AcDbSymbolTableRecord
100
AcDbLinetypeTableRecord
  2
BYLAYER
 70
     0
  3

 72
    65
 73
     0
 40
0.0
  0
LTYPE
  5
15
330
5
100
AcDbSymbolTableRecord
100
AcDbLinetypeTableRecord
  2
CONTINUOUS
 70
     0
  3
Solid line
 72
    65
 73
     0
 40
0.0
  0
LTYPE
  5
1F
330
5
100
AcDbSymbolTableRecord
100
AcDbLinetypeTableRecord
  2
CENTER
 70
     0
  3
____ _ ____ _ ____ _ ____ _ ____ _ ____ _ ____ 
 72
    65
 73
     4
 40
2.0
 49
1.25
 74
     0
 49
-0.25
 74
     0
 49
0.25
 74
     0
 49
-0.25
 74
     0
  0
ENDTAB
  0
TABLE
  2
LAYER
  5
2
102
{ACAD_XDICTIONARY
360
8294
102
}
330
0
100
AcDbSymbolTable
 70
     6
  0
LAYER
  5
F
102
{ACAD_XDICTIONARY
360
8287
102
}
330
2
100
AcDbSymbolTableRecord
100
AcDbLayerTableRecord
  2
0
 70
     0
 62
     7
  6
CONTINUOUS
370
    -3
390
8183
347
8212
348
0
  0
LAYER
  5
31
102
{ACAD_XDICTIONARY
360
8289
102
}
330
2
100
AcDbSymbolTableRecord
100
AcDbLayerTableRecord
  2
3
 70
     0
 62
     2
  6
CONTINUOUS
370
    -3
390
8183
347
8212
348
0
  0
LAYER
  5
76D0
102
{ACAD_XDICTIONARY
360
828B
102
}
330
2
100
AcDbSymbolTableRecord
100
AcDbLayerTableRecord
  2
2
 70
     0
 62
     3
  6
CENTER
370
    -3
390
8183
347
8212
348
0
  0
LAYER
  5
76D1
102
{ACAD_XDICTIONARY
360
828D
102
}
330
2
100
AcDbSymbolTableRecord
100
AcDbLayerTableRecord
  2
1
 70
     0
 62
     4
  6
CONTINUOUS
370
    -3
390
8183
347
8212
348
0
  0
LAYER
  5
76D2
102
{ACAD_XDICTIONARY
360
828F
102
}
330
2
100
AcDbSymbolTableRecord
100
AcDbLayerTableRecord
  2
4
 70
     0
 62
     7
  6
CONTINUOUS
370
    -3
390
8183
347
8212
348
0
  0
LAYER
  5
7B35
330
2
100
AcDbSymbolTableRecord
100
AcDbLayerTableRecord
  2
DEFPOINTS
 70
     0
 62
     7
  6
CONTINUOUS
290
     0
370
    -3
390
8183
347
8212
348
0
  0
ENDTAB
  0
TABLE
  2
STYLE
  5
3
330
0
100
AcDbSymbolTable
 70
     1
  0
STYLE
  5
10
330
3
100
AcDbSymbolTableRecord
100
AcDbTextStyleTableRecord
  2
STANDARD
 70
     0
 40
0.0
 41
1.0
 50
0.0
 71
     0
 42
180.0
  3
simplex.shx
  4
extfont.shx
  0
ENDTAB
  0
TABLE
  2
VIEW
  5
6
330
0
100
AcDbSymbolTable
 70
     0
  0
ENDTAB
  0
TABLE
  2
UCS
  5
7
330
0
100
AcDbSymbolTable
 70
     0
  0
ENDTAB
  0
TABLE
  2
APPID
  5
9
330
0
100
AcDbSymbolTable
 70
     4
  0
APPID
  5
11
330
9
100
AcDbSymbolTableRecord
100
AcDbRegAppTableRecord
  2
ACAD
 70
     0
  0
APPID
  5
8251
330
9
100
AcDbSymbolTableRecord
100
AcDbRegAppTableRecord
  2
AcadAnnoMonitorAlertIconDisabled
 70
     0
  0
APPID
  5
8252
330
9
100
AcDbSymbolTableRecord
100
AcDbRegAppTableRecord
  2
ACAD_EXEMPT_FROM_CAD_STANDARDS
 70
     0
  0
APPID
  5
829A
330
9
100
AcDbSymbolTableRecord
100
AcDbRegAppTableRecord
  2
ACAD_NAV_VCDISPLAY
 70
     0
  0
ENDTAB
  0
TABLE
  2
DIMSTYLE
  5
A
330
0
100
AcDbSymbolTable
 70
     2
100
AcDbDimStyleTable
 71
     1
340
1D
  0
DIMSTYLE
105
1D
102
{ACAD_REACTORS
330
7C25
330
7C26
330
7C27
330
7CE4
330
7FC3
330
813F
330
814C
330
8159
330
8166
330
8173
102
}
330
A
100
AcDbSymbolTableRecord
100
AcDbDimStyleTableRecord
  2
IGA
 70
     0
 40
2.0
 41
2.0
 42
0.5
 43
10.0
 44
1.0
 47
1.0
 48
1.0
 73
     0
 74
     0
 77
     1
 78
     8
140
3.0
141
0.0
143
0.03937
146
10.0
147
1.0
173
     1
271
     1
272
     0
279
     2
284
     8
340
10
341
79FC
343
79FC
344
79FC
  0
DIMSTYLE
105
7B37
102
{ACAD_REACTORS
330
7C4F
330
7C59
330
7CC4
330
7CCE
330
7CCF
330
7CD0
330
7CD1
330
7CD2
330
7CE3
330
7CE5
102
}
330
A
100
AcDbSymbolTableRecord
100
AcDbDimStyleTableRecord
  2
MATSU
 70
     0
 41
2.0
 42
1.0
 43
10.0
 44
1.0
 73
     0
 74
     0
 77
     1
 78
     8
140
3.0
141
0.0
143
0.03937
147
0.5
172
     1
173
     1
176
   256
177
   256
178
   256
284
     8
289
     0
340
10
341
79FC
343
79FC
344
79FC
  0
ENDTAB
  0
TABLE
  2
BLOCK_RECORD
  5
1
330
0
100
AcDbSymbolTable
 70
    24
  0
BLOCK_RECORD
  5
19
102
{ACAD_XDICTIONARY
360
81B1
102
}
330
1
100
AcDbSymbolTableRecord
100
AcDbBlockTableRecord
  2
*MODEL_SPACE
340
8186
 70
     0
280
     1
281
     0
  0
BLOCK_RECORD
  5
16
102
{ACAD_XDICTIONARY
360
81AF
102
}
330
1
100
AcDbSymbolTableRecord
100
AcDbBlockTableRecord
  2
*PAPER_SPACE
340
8187
 70
     0
280
     1
281
     0
  0
BLOCK_RECORD
  5
79FC
330
1
100
AcDbSymbolTableRecord
100
AcDbBlockTableRecord
  2
_OPEN
340
0
102
{BLKREFS
331
7EF1
331
7EF2
331
7F06
331
7F07
331
7E78
331
7E79
331
7EBB
331
7EBC
331
7EC6
331
7EC7
331
7EE6
331
7EE7
331
809B
331
809C
331
8138
331
8139
331
8145
331
8146
331
8152
331
8153
331
815F
331
8160
331
816C
331
816D
331
81BC
331
81BD
331
81C5
331
81C6
331
81CE
331
81CF
331
81DE
331
81DF
331
81E7
331
81E8
331
81EF
331
81F0
331
8279
331
827A
331
8281
331
8282
102
}
 70
     0
280
     1
281
     0
  0
BLOCK_RECORD
  5
7A0A
330
1
100
AcDbSymbolTableRecord
100
AcDbBlockTableRecord
  2
YA_N
340
0
102
{BLKREFS
331
7C19
102
}
 70
     0
280
     1
281
     0
  0
BLOCK_RECORD
  5
7CF6
330
1
100
AcDbSymbolTableRecord
100
AcDbBlockTableRecord
  2
*D2
340
0
 70
     0
280
     1
281
     0
  0
BLOCK_RECORD
  5
7D02
330
1
100
AcDbSymbolTableRecord
100
AcDbBlockTableRecord
  2
*D3
340
0
 70
     0
280
     1
281
     0
  0
BLOCK_RECORD
  5
7D0E
330
1
100
AcDbSymbolTableRecord
100
AcDbBlockTableRecord
  2
*D4
340
0
 70
     0
280
     1
281
     0
  0
BLOCK_RECORD
  5
7D60
330
1
100
AcDbSymbolTableRecord
100
AcDbBlockTableRecord
  2
*D5
340
0
 70
     0
280
     1
281
     0
  0
BLOCK_RECORD
  5
7D6C
330
1
100
AcDbSymbolTableRecord
100
AcDbBlockTableRecord
  2
*D6
340
0
 70
     0
280
     1
281
     0
  0
BLOCK_RECORD
  5
7D9E
330
1
100
AcDbSymbolTableRecord
100
AcDbBlockTableRecord
  2
*D7
340
0
 70
     0
280
     1
281
     0
  0
BLOCK_RECORD
  5
7DA9
330
1
100
AcDbSymbolTableRecord
100
AcDbBlockTableRecord
  2
*D8
340
0
 70
     0
280
     1
281
     0
  0
BLOCK_RECORD
  5
7DB5
330
1
100
AcDbSymbolTableRecord
100
AcDbBlockTableRecord
  2
*D9
340
0
 70
     0
280
     1
281
     0
  0
BLOCK_RECORD
  5
7DC1
330
1
100
AcDbSymbolTableRecord
100
AcDbBlockTableRecord
  2
*D10
340
0
 70
     0
280
     1
281
     0
  0
BLOCK_RECORD
  5
7DCC
330
1
100
AcDbSymbolTableRecord
100
AcDbBlockTableRecord
  2
*D11
340
0
 70
     0
280
     1
281
     0
  0
BLOCK_RECORD
  5
7DD8
330
1
100
AcDbSymbolTableRecord
100
AcDbBlockTableRecord
  2
*D12
340
0
 70
     0
280
     1
281
     0
  0
BLOCK_RECORD
  5
7DE4
330
1
100
AcDbSymbolTableRecord
100
AcDbBlockTableRecord
  2
*D13
340
0
 70
     0
280
     1
281
     0
  0
BLOCK_RECORD
  5
7DF0
330
1
100
AcDbSymbolTableRecord
100
AcDbBlockTableRecord
  2
*D14
340
0
 70
     0
280
     1
281
     0
  0
BLOCK_RECORD
  5
7DFB
330
1
100
AcDbSymbolTableRecord
100
AcDbBlockTableRecord
  2
*D15
340
0
 70
     0
280
     1
281
     0
  0
BLOCK_RECORD
  5
7FB8
330
1
100
AcDbSymbolTableRecord
100
AcDbBlockTableRecord
  2
*D16
340
0
 70
     0
280
     1
281
     0
  0
BLOCK_RECORD
  5
801F
330
1
100
AcDbSymbolTableRecord
100
AcDbBlockTableRecord
  2
_DOT
340
0
 70
     0
280
     1
281
     0
  0
BLOCK_RECORD
  5
80FE
330
1
100
AcDbSymbolTableRecord
100
AcDbBlockTableRecord
  2
_NONE
340
0
 70
     0
280
     1
281
     0
  0
BLOCK_RECORD
  5
8133
330
1
100
AcDbSymbolTableRecord
100
AcDbBlockTableRecord
  2
*D19
340
0
 70
     0
280
     1
281
     0
  0
BLOCK_RECORD
  5
8140
330
1
100
AcDbSymbolTableRecord
100
AcDbBlockTableRecord
  2
*D20
340
0
 70
     0
280
     1
281
     0
  0
BLOCK_RECORD
  5
814D
330
1
100
AcDbSymbolTableRecord
100
AcDbBlockTableRecord
  2
*D21
340
0
 70
     0
280
     1
281
     0
  0
BLOCK_RECORD
  5
815A
330
1
100
AcDbSymbolTableRecord
100
AcDbBlockTableRecord
  2
*D22
340
0
 70
     0
280
     1
281
     0
  0
BLOCK_RECORD
  5
8167
330
1
100
AcDbSymbolTableRecord
100
AcDbBlockTableRecord
  2
*D23
340
0
 70
     0
280
     1
281
     0
  0
ENDTAB
  0
ENDSEC
  0
SECTION
  2
BLOCKS
  0
BLOCK
  5
1A
330
19
100
AcDbEntity
  8
0
100
AcDbBlockBegin
  2
*MODEL_SPACE
 70
     0
 10
0.0
 20
0.0
 30
0.0
  3
*MODEL_SPACE
  1

  0
ENDBLK
  5
1B
330
19
100
AcDbEntity
  8
0
100
AcDbBlockEnd
  0
BLOCK
  5
17
330
16
100
AcDbEntity
 67
     1
  8
0
100
AcDbBlockBegin
  2
*PAPER_SPACE
 70
     0
 10
0.0
 20
0.0
 30
0.0
  3
*PAPER_SPACE
  1

  0
ENDBLK
  5
18
330
16
100
AcDbEntity
 67
     1
  8
0
100
AcDbBlockEnd
  0
BLOCK
  5
7A00
330
79FC
100
AcDbEntity
  8
0
100
AcDbBlockBegin
  2
_OPEN
 70
     0
 10
0.0
 20
0.0
 30
0.0
  3
_OPEN
  1

  0
LINE
  5
79FD
330
79FC
100
AcDbEntity
  8
0
  6
ByBlock
 62
     0
100
AcDbLine
 10
-1.0
 20
0.1666666666666666
 30
0.0
 11
0.0
 21
0.0
 31
0.0
  0
LINE
  5
79FE
330
79FC
100
AcDbEntity
  8
0
  6
ByBlock
 62
     0
100
AcDbLine
 10
0.0
 20
0.0
 30
0.0
 11
-1.0
 21
-0.1666666666666666
 31
0.0
  0
LINE
  5
79FF
330
79FC
100
AcDbEntity
  8
0
  6
ByBlock
 62
     0
100
AcDbLine
 10
0.0
 20
0.0
 30
0.0
 11
-1.0
 21
0.0
 31
0.0
  0
ENDBLK
  5
7A01
330
79FC
100
AcDbEntity
  8
0
100
AcDbBlockEnd
  0
BLOCK
  5
7A0B
330
7A0A
100
AcDbEntity
  8
0
100
AcDbBlockBegin
  2
YA_N
 70
     0
 10
0.0
 20
0.0
 30
0.0
  3
YA_N
  1

  0
ENDBLK
  5
7A0C
330
7A0A
100
AcDbEntity
  8
0
100
AcDbBlockEnd
  0
BLOCK
  5
8083
330
7CF6
100
AcDbEntity
  8
0
100
AcDbBlockBegin
  2
*D2
 70
     1
 10
0.0
 20
0.0
 30
0.0
  3
*D2
  1

  0
LINE
  5
81B9
330
7CF6
100
AcDbEntity
  8
3
 62
     0
440
 16777216
100
AcDbLine
 10
1002.922494027641
 20
2388.534067823637
 30
0.0
 11
1002.922494027641
 21
2554.030937377671
 31
0.0
  0
LINE
  5
81BA
330
7CF6
100
AcDbEntity
  8
3
 62
     0
440
 16777216
100
AcDbLine
 10
1582.922494027642
 20
2388.534067823637
 30
0.0
 11
1582.922494027642
 21
2554.030937377671
 31
0.0
  0
LINE
  5
81BB
330
7CF6
100
AcDbEntity
  8
3
 62
     0
440
 16777216
100
AcDbLine
 10
1042.922494027642
 20
2534.030937377671
 30
0.0
 11
1542.922494027641
 21
2534.030937377671
 31
0.0
  0
INSERT
  5
81BC
330
7CF6
100
AcDbEntity
  8
3
 62
     0
440
 16777216
100
AcDbBlockReference
  2
_OPEN
 10
1002.922494027641
 20
2534.030937377671
 30
0.0
 41
40.0
 42
40.0
 43
40.0
 50
180.0
  0
INSERT
  5
81BD
330
7CF6
100
AcDbEntity
  8
3
 62
     0
440
 16777216
100
AcDbBlockReference
  2
_OPEN
 10
1582.922494027642
 20
2534.030937377671
 30
0.0
 41
40.0
 42
40.0
 43
40.0
  0
MTEXT
  5
81BE
330
7CF6
100
AcDbEntity
  8
3
 62
     0
440
 16777216
100
AcDbMText
 10
1292.922494027642
 20
2584.030937377671
 30
0.0
 40
60.0
 41
0.0
 46
0.0
 71
     5
 72
     5
  1
\A1;580
 73
     1
 44
1.0
  0
POINT
  5
81BF
330
7CF6
100
AcDbEntity
  8
DEFPOINTS
 62
     0
440
 16777216
100
AcDbPoint
 10
1002.922494027641
 20
2378.534067823637
 30
0.0
  0
POINT
  5
81C0
330
7CF6
100
AcDbEntity
  8
DEFPOINTS
 62
     0
440
 16777216
100
AcDbPoint
 10
1582.922494027642
 20
2378.534067823637
 30
0.0
  0
POINT
  5
81C1
330
7CF6
100
AcDbEntity
  8
DEFPOINTS
 62
     0
440
 16777216
100
AcDbPoint
 10
1582.922494027642
 20
2534.030937377671
 30
0.0
  0
ENDBLK
  5
808D
330
7CF6
100
AcDbEntity
  8
0
100
AcDbBlockEnd
  0
BLOCK
  5
806D
330
7D02
100
AcDbEntity
  8
0
100
AcDbBlockBegin
  2
*D3
 70
     1
 10
0.0
 20
0.0
 30
0.0
  3
*D3
  1

  0
LINE
  5
81C2
330
7D02
100
AcDbEntity
  8
3
 62
     0
440
 16777216
100
AcDbLine
 10
1002.922494027641
 20
2400.534067823637
 30
0.0
 11
1002.922494027641
 21
2680.450790787726
 31
0.0
  0
LINE
  5
81C3
330
7D02
100
AcDbEntity
  8
3
 62
     0
440
 16777216
100
AcDbLine
 10
1602.922494027642
 20
2432.133692388895
 30
0.0
 11
1602.922494027642
 21
2680.450790787726
 31
0.0
  0
LINE
  5
81C4
330
7D02
100
AcDbEntity
  8
3
 62
     0
440
 16777216
100
AcDbLine
 10
1042.922494027642
 20
2660.450790787726
 30
0.0
 11
1562.922494027642
 21
2660.450790787726
 31
0.0
  0
INSERT
  5
81C5
330
7D02
100
AcDbEntity
  8
3
 62
     0
440
 16777216
100
AcDbBlockReference
  2
_OPEN
 10
1002.922494027641
 20
2660.450790787726
 30
0.0
 41
40.0
 42
40.0
 43
40.0
 50
180.0
  0
INSERT
  5
81C6
330
7D02
100
AcDbEntity
  8
3
 62
     0
440
 16777216
100
AcDbBlockReference
  2
_OPEN
 10
1602.922494027642
 20
2660.450790787726
 30
0.0
 41
40.0
 42
40.0
 43
40.0
  0
MTEXT
  5
81C7
330
7D02
100
AcDbEntity
  8
3
 62
     0
440
 16777216
100
AcDbMText
 10
1302.922494027642
 20
2710.450790787726
 30
0.0
 40
60.0
 41
0.0
 46
0.0
 71
     5
 72
     5
  1
\A1;600
 73
     1
 44
1.0
  0
POINT
  5
81C8
330
7D02
100
AcDbEntity
  8
DEFPOINTS
 62
     0
440
 16777216
100
AcDbPoint
 10
1002.922494027641
 20
2390.534067823637
 30
0.0
  0
POINT
  5
81C9
330
7D02
100
AcDbEntity
  8
DEFPOINTS
 62
     0
440
 16777216
100
AcDbPoint
 10
1602.922494027642
 20
2422.133692388895
 30
0.0
  0
POINT
  5
81CA
330
7D02
100
AcDbEntity
  8
DEFPOINTS
 62
     0
440
 16777216
100
AcDbPoint
 10
1602.922494027642
 20
2660.450790787726
 30
0.0
  0
ENDBLK
  5
8077
330
7D02
100
AcDbEntity
  8
0
100
AcDbBlockEnd
  0
BLOCK
  5
8062
330
7D0E
100
AcDbEntity
  8
0
100
AcDbBlockBegin
  2
*D4
 70
     1
 10
0.0
 20
0.0
 30
0.0
  3
*D4
  1

  0
LINE
  5
81CB
330
7D0E
100
AcDbEntity
  8
3
 62
     0
440
 16777216
100
AcDbLine
 10
3654.313633794455
 20
2268.534067823637
 30
0.0
 11
3864.726949459008
 21
2268.534067823637
 31
0.0
  0
LINE
  5
81CC
330
7D0E
100
AcDbEntity
  8
3
 62
     0
440
 16777216
100
AcDbLine
 10
3654.313633794455
 20
1708.534067823636
 30
0.0
 11
3864.726949459008
 21
1708.534067823636
 31
0.0
  0
LINE
  5
81CD
330
7D0E
100
AcDbEntity
  8
3
 62
     0
440
 16777216
100
AcDbLine
 10
3844.726949459008
 20
2228.534067823637
 30
0.0
 11
3844.726949459008
 21
1748.534067823636
 31
0.0
  0
INSERT
  5
81CE
330
7D0E
100
AcDbEntity
  8
3
 62
     0
440
 16777216
100
AcDbBlockReference
  2
_OPEN
 10
3844.726949459008
 20
2268.534067823637
 30
0.0
 41
40.0
 42
40.0
 43
40.0
 50
90.0
  0
INSERT
  5
81CF
330
7D0E
100
AcDbEntity
  8
3
 62
     0
440
 16777216
100
AcDbBlockReference
  2
_OPEN
 10
3844.726949459008
 20
1708.534067823636
 30
0.0
 41
40.0
 42
40.0
 43
40.0
 50
270.0
  0
MTEXT
  5
81D0
330
7D0E
100
AcDbEntity
  8
3
 62
     0
440
 16777216
100
AcDbMText
 10
3794.726949459008
 20
1988.534067823637
 30
0.0
 40
60.0
 41
0.0
 46
0.0
 71
     5
 72
     5
  1
\A1;φ 560
 11
0.0000000000000001
 21
1.0
 31
0.0
 73
     1
 44
1.0
  0
POINT
  5
81D1
330
7D0E
100
AcDbEntity
  8
DEFPOINTS
 62
     0
440
 16777216
100
AcDbPoint
 10
3644.313633794455
 20
2268.534067823637
 30
0.0
  0
POINT
  5
81D2
330
7D0E
100
AcDbEntity
  8
DEFPOINTS
 62
     0
440
 16777216
100
AcDbPoint
 10
3644.313633794455
 20
1708.534067823636
 30
0.0
  0
POINT
  5
81D3
330
7D0E
100
AcDbEntity
  8
DEFPOINTS
 62
     0
440
 16777216
100
AcDbPoint
 10
3844.726949459008
 20
1708.534067823636
 30
0.0
  0
ENDBLK
  5
806C
330
7D0E
100
AcDbEntity
  8
0
100
AcDbBlockEnd
  0
BLOCK
  5
7E74
330
7D60
100
AcDbEntity
  8
0
100
AcDbBlockBegin
  2
*D5
 70
     1
 10
0.0
 20
0.0
 30
0.0
  3
*D5
  1

  0
LINE
  5
7E75
330
7D60
100
AcDbEntity
  8
0
  6
ByBlock
440
 16777216
100
AcDbLine
 10
2740.906635817508
 20
1469.732634008198
 30
0.0
 11
2740.906635817508
 21
1559.684429060102
 31
0.0
  0
LINE
  5
7E76
330
7D60
100
AcDbEntity
  8
0
  6
ByBlock
440
 16777216
100
AcDbLine
 10
3490.906635817508
 20
1469.732634008198
 30
0.0
 11
3490.906635817508
 21
1559.684429060102
 31
0.0
  0
LINE
  5
7E77
330
7D60
100
AcDbEntity
  8
0
  6
ByBlock
440
 16777216
100
AcDbLine
 10
2780.906635817508
 20
1539.684429060102
 30
0.0
 11
3450.906635817509
 21
1539.684429060102
 31
0.0
  0
INSERT
  5
7E78
330
7D60
100
AcDbEntity
  8
0
  6
ByBlock
440
 16777216
100
AcDbBlockReference
  2
_OPEN
 10
2740.906635817508
 20
1539.684429060102
 30
0.0
 41
40.0
 42
40.0
 43
40.0
 50
180.0
  0
INSERT
  5
7E79
330
7D60
100
AcDbEntity
  8
0
  6
ByBlock
440
 16777216
100
AcDbBlockReference
  2
_OPEN
 10
3490.906635817508
 20
1539.684429060102
 30
0.0
 41
40.0
 42
40.0
 43
40.0
  0
MTEXT
  5
7E7A
330
7D60
100
AcDbEntity
  8
0
  6
ByBlock
440
 16777216
100
AcDbMText
 10
3115.906635817508
 20
1579.684429060102
 30
0.0
 40
60.0
 41
0.0
 46
0.0
 71
     5
 72
     5
  1
\A1;750
 73
     1
 44
1.0
  0
POINT
  5
7E7B
330
7D60
100
AcDbEntity
  8
DEFPOINTS
  6
ByBlock
 62
     0
440
 16777216
100
AcDbPoint
 10
2740.906635817508
 20
1449.732634008198
 30
0.0
  0
POINT
  5
7E7C
330
7D60
100
AcDbEntity
  8
DEFPOINTS
  6
ByBlock
 62
     0
440
 16777216
100
AcDbPoint
 10
3490.906635817508
 20
1449.732634008198
 30
0.0
  0
POINT
  5
7E7D
330
7D60
100
AcDbEntity
  8
DEFPOINTS
  6
ByBlock
 62
     0
440
 16777216
100
AcDbPoint
 10
3490.906635817508
 20
1539.684429060102
 30
0.0
  0
ENDBLK
  5
7E7E
330
7D60
100
AcDbEntity
  8
0
100
AcDbBlockEnd
  0
BLOCK
  5
7E7F
330
7D6C
100
AcDbEntity
  8
0
100
AcDbBlockBegin
  2
*D6
 70
     1
 10
0.0
 20
0.0
 30
0.0
  3
*D6
  1

  0
LINE
  5
8276
330
7D6C
100
AcDbEntity
  8
3
440
 16777216
370
    -2
100
AcDbLine
 10
3737.313633794457
 20
1955.634067823637
 30
0.0
 11
3737.313633794457
 21
2630.887003546552
 31
0.0
  0
LINE
  5
8277
330
7D6C
100
AcDbEntity
  8
3
440
 16777216
370
    -2
100
AcDbLine
 10
3267.313633794457
 20
2554.286820084564
 30
0.0
 11
3267.313633794457
 21
2630.887003546552
 31
0.0
  0
LINE
  5
8278
330
7D6C
100
AcDbEntity
  8
3
440
 16777216
370
    -2
100
AcDbLine
 10
3697.313633794457
 20
2610.887003546551
 30
0.0
 11
3307.313633794456
 21
2610.887003546551
 31
0.0
  0
INSERT
  5
8279
330
7D6C
100
AcDbEntity
  8
3
440
 16777216
370
    -2
100
AcDbBlockReference
  2
_OPEN
 10
3737.313633794457
 20
2610.887003546551
 30
0.0
 41
40.0
 42
40.0
 43
40.0
  0
INSERT
  5
827A
330
7D6C
100
AcDbEntity
  8
3
440
 16777216
370
    -2
100
AcDbBlockReference
  2
_OPEN
 10
3267.313633794457
 20
2610.887003546551
 30
0.0
 41
40.0
 42
40.0
 43
40.0
 50
180.0
  0
MTEXT
  5
827B
330
7D6C
100
AcDbEntity
  8
3
440
 16777216
100
AcDbMText
 10
3502.313633794456
 20
2666.601289260837
 30
0.0
 40
60.0
 41
0.0
 46
0.0
 71
     5
 72
     1
  1
\A1;(470)
 73
     1
 44
1.0
  0
POINT
  5
827C
330
7D6C
100
AcDbEntity
  8
DEFPOINTS
 62
     0
440
 16777216
100
AcDbPoint
 10
3737.313633794457
 20
1935.634067823637
 30
0.0
  0
POINT
  5
827D
330
7D6C
100
AcDbEntity
  8
DEFPOINTS
 62
     0
440
 16777216
100
AcDbPoint
 10
3267.313633794457
 20
2534.286820084564
 30
0.0
  0
POINT
  5
827E
330
7D6C
100
AcDbEntity
  8
DEFPOINTS
 62
     0
440
 16777216
100
AcDbPoint
 10
3267.313633794457
 20
2610.887003546551
 30
0.0
  0
ENDBLK
  5
7E89
330
7D6C
100
AcDbEntity
  8
0
100
AcDbBlockEnd
  0
BLOCK
  5
80A6
330
7D9E
100
AcDbEntity
  8
0
100
AcDbBlockBegin
  2
*D7
 70
     1
 10
0.0
 20
0.0
 30
0.0
  3
*D7
  1

  0
LINE
  5
827F
330
7D9E
100
AcDbEntity
  8
3
440
 16777216
370
    -2
100
AcDbLine
 10
2587.313633794456
 20
2228.534067823637
 30
0.0
 11
2587.313633794456
 21
2630.887003546552
 31
0.0
  0
LINE
  5
8280
330
7D9E
100
AcDbEntity
  8
3
440
 16777216
370
    -2
100
AcDbLine
 10
3227.313633794457
 20
2610.887003546551
 30
0.0
 11
2627.313633794456
 21
2610.887003546551
 31
0.0
  0
INSERT
  5
8281
330
7D9E
100
AcDbEntity
  8
3
440
 16777216
370
    -2
100
AcDbBlockReference
  2
_OPEN
 10
3267.313633794457
 20
2610.887003546551
 30
0.0
 41
40.0
 42
40.0
 43
40.0
  0
INSERT
  5
8282
330
7D9E
100
AcDbEntity
  8
3
440
 16777216
370
    -2
100
AcDbBlockReference
  2
_OPEN
 10
2587.313633794456
 20
2610.887003546551
 30
0.0
 41
40.0
 42
40.0
 43
40.0
 50
180.0
  0
MTEXT
  5
8283
330
7D9E
100
AcDbEntity
  8
3
440
 16777216
100
AcDbMText
 10
2927.313633794456
 20
2666.601289260837
 30
0.0
 40
60.0
 41
0.0
 46
0.0
 71
     5
 72
     1
  1
\A1;(680)
 73
     1
 44
1.0
  0
POINT
  5
8284
330
7D9E
100
AcDbEntity
  8
DEFPOINTS
 62
     0
440
 16777216
100
AcDbPoint
 10
3267.313633794457
 20
2534.286820084564
 30
0.0
  0
POINT
  5
8285
330
7D9E
100
AcDbEntity
  8
DEFPOINTS
 62
     0
440
 16777216
100
AcDbPoint
 10
2587.313633794456
 20
2208.534067823637
 30
0.0
  0
POINT
  5
8286
330
7D9E
100
AcDbEntity
  8
DEFPOINTS
 62
     0
440
 16777216
100
AcDbPoint
 10
2587.313633794456
 20
2610.887003546551
 30
0.0
  0
ENDBLK
  5
80AF
330
7D9E
100
AcDbEntity
  8
0
100
AcDbBlockEnd
  0
BLOCK
  5
7EB7
330
7DA9
100
AcDbEntity
  8
0
100
AcDbBlockBegin
  2
*D8
 70
     1
 10
0.0
 20
0.0
 30
0.0
  3
*D8
  1

  0
LINE
  5
7EB8
330
7DA9
100
AcDbEntity
  8
0
  6
ByBlock
440
 16777216
100
AcDbLine
 10
1826.515496050694
 20
3574.073535835267
 30
0.0
 11
2023.109094102409
 21
3574.073535835267
 31
0.0
  0
LINE
  5
7EB9
330
7DA9
100
AcDbEntity
  8
0
  6
ByBlock
440
 16777216
100
AcDbLine
 10
1826.515496050694
 20
2649.073535835267
 30
0.0
 11
2023.109094102409
 21
2649.073535835267
 31
0.0
  0
LINE
  5
7EBA
330
7DA9
100
AcDbEntity
  8
0
  6
ByBlock
440
 16777216
100
AcDbLine
 10
2003.109094102409
 20
3534.073535835267
 30
0.0
 11
2003.109094102409
 21
2689.073535835267
 31
0.0
  0
INSERT
  5
7EBB
330
7DA9
100
AcDbEntity
  8
0
  6
ByBlock
440
 16777216
100
AcDbBlockReference
  2
_OPEN
 10
2003.109094102409
 20
3574.073535835267
 30
0.0
 41
40.0
 42
40.0
 43
40.0
 50
90.0
  0
INSERT
  5
7EBC
330
7DA9
100
AcDbEntity
  8
0
  6
ByBlock
440
 16777216
100
AcDbBlockReference
  2
_OPEN
 10
2003.109094102409
 20
2649.073535835267
 30
0.0
 41
40.0
 42
40.0
 43
40.0
 50
270.0
  0
MTEXT
  5
7EBD
330
7DA9
100
AcDbEntity
  8
0
  6
ByBlock
440
 16777216
100
AcDbMText
 10
1963.109094102408
 20
3111.573535835267
 30
0.0
 40
60.0
 41
0.0
 46
0.0
 71
     5
 72
     5
  1
\A1;925
 11
0.0
 21
1.0
 31
0.0
 73
     1
 44
1.0
  0
POINT
  5
7EBE
330
7DA9
100
AcDbEntity
  8
DEFPOINTS
  6
ByBlock
 62
     0
440
 16777216
100
AcDbPoint
 10
1806.515496050694
 20
3574.073535835267
 30
0.0
  0
POINT
  5
7EBF
330
7DA9
100
AcDbEntity
  8
DEFPOINTS
  6
ByBlock
 62
     0
440
 16777216
100
AcDbPoint
 10
1806.515496050694
 20
2649.073535835267
 30
0.0
  0
POINT
  5
7EC0
330
7DA9
100
AcDbEntity
  8
DEFPOINTS
  6
ByBlock
 62
     0
440
 16777216
100
AcDbPoint
 10
2003.109094102409
 20
2649.073535835267
 30
0.0
  0
ENDBLK
  5
7EC1
330
7DA9
100
AcDbEntity
  8
0
100
AcDbBlockEnd
  0
BLOCK
  5
7EC2
330
7DB5
100
AcDbEntity
  8
0
100
AcDbBlockBegin
  2
*D9
 70
     1
 10
0.0
 20
0.0
 30
0.0
  3
*D9
  1

  0
LINE
  5
7EC3
330
7DB5
100
AcDbEntity
  8
0
  6
ByBlock
440
 16777216
100
AcDbLine
 10
1806.515496050694
 20
3594.073535835267
 30
0.0
 11
1806.515496050694
 21
3749.427487599593
 31
0.0
  0
LINE
  5
7EC4
330
7DB5
100
AcDbEntity
  8
0
  6
ByBlock
440
 16777216
100
AcDbLine
 10
1096.515496050694
 20
3594.073535835268
 30
0.0
 11
1096.515496050694
 21
3749.427487599593
 31
0.0
  0
LINE
  5
7EC5
330
7DB5
100
AcDbEntity
  8
0
  6
ByBlock
440
 16777216
100
AcDbLine
 10
1766.515496050694
 20
3729.427487599592
 30
0.0
 11
1136.515496050694
 21
3729.427487599592
 31
0.0
  0
INSERT
  5
7EC6
330
7DB5
100
AcDbEntity
  8
0
  6
ByBlock
440
 16777216
100
AcDbBlockReference
  2
_OPEN
 10
1806.515496050694
 20
3729.427487599592
 30
0.0
 41
40.0
 42
40.0
 43
40.0
  0
INSERT
  5
7EC7
330
7DB5
100
AcDbEntity
  8
0
  6
ByBlock
440
 16777216
100
AcDbBlockReference
  2
_OPEN
 10
1096.515496050694
 20
3729.427487599592
 30
0.0
 41
40.0
 42
40.0
 43
40.0
 50
180.0
  0
MTEXT
  5
7EC8
330
7DB5
100
AcDbEntity
  8
0
  6
ByBlock
440
 16777216
100
AcDbMText
 10
1451.515496050694
 20
3769.427487599593
 30
0.0
 40
60.0
 41
0.0
 46
0.0
 71
     5
 72
     5
  1
\A1;710
 73
     1
 44
1.0
  0
POINT
  5
7EC9
330
7DB5
100
AcDbEntity
  8
DEFPOINTS
  6
ByBlock
 62
     0
440
 16777216
100
AcDbPoint
 10
1806.515496050694
 20
3574.073535835267
 30
0.0
  0
POINT
  5
7ECA
330
7DB5
100
AcDbEntity
  8
DEFPOINTS
  6
ByBlock
 62
     0
440
 16777216
100
AcDbPoint
 10
1096.515496050694
 20
3574.073535835268
 30
0.0
  0
POINT
  5
7ECB
330
7DB5
100
AcDbEntity
  8
DEFPOINTS
  6
ByBlock
 62
     0
440
 16777216
100
AcDbPoint
 10
1096.515496050694
 20
3729.427487599592
 30
0.0
  0
ENDBLK
  5
7ECC
330
7DB5
100
AcDbEntity
  8
0
100
AcDbBlockEnd
  0
BLOCK
  5
7ECD
330
7DC1
100
AcDbEntity
  8
0
100
AcDbBlockBegin
  2
*D10
 70
     1
 10
0.0
 20
0.0
 30
0.0
  3
*D10
  1

  0
LINE
  5
81DC
330
7DC1
100
AcDbEntity
  8
3
440
 16777216
100
AcDbLine
 10
607.9224940276426
 20
4197.874969650706
 30
0.0
 11
607.9224940276426
 21
4678.228921415032
 31
0.0
  0
LINE
  5
81DD
330
7DC1
100
AcDbEntity
  8
3
440
 16777216
100
AcDbLine
 10
1207.922494027642
 20
4658.228921415031
 30
0.0
 11
647.9224940276426
 21
4658.228921415031
 31
0.0
  0
INSERT
  5
81DE
330
7DC1
100
AcDbEntity
  8
3
440
 16777216
100
AcDbBlockReference
  2
_OPEN
 10
1247.922494027642
 20
4658.228921415031
 30
0.0
 41
40.0
 42
40.0
 43
40.0
  0
INSERT
  5
81DF
330
7DC1
100
AcDbEntity
  8
3
440
 16777216
100
AcDbBlockReference
  2
_OPEN
 10
607.9224940276426
 20
4658.228921415031
 30
0.0
 41
40.0
 42
40.0
 43
40.0
 50
180.0
  0
MTEXT
  5
81E0
330
7DC1
100
AcDbEntity
  8
3
440
 16777216
100
AcDbMText
 10
927.9224940276426
 20
4698.228921415031
 30
0.0
 40
60.0
 41
0.0
 46
0.0
 71
     5
 72
     5
  1
\A1;640
 73
     1
 44
1.0
  0
POINT
  5
81E1
330
7DC1
100
AcDbEntity
  8
DEFPOINTS
 62
     0
440
 16777216
100
AcDbPoint
 10
1247.922494027642
 20
4502.874969650707
 30
0.0
  0
POINT
  5
81E2
330
7DC1
100
AcDbEntity
  8
DEFPOINTS
 62
     0
440
 16777216
100
AcDbPoint
 10
607.9224940276426
 20
4177.874969650705
 30
0.0
  0
POINT
  5
81E3
330
7DC1
100
AcDbEntity
  8
DEFPOINTS
 62
     0
440
 16777216
100
AcDbPoint
 10
607.9224940276426
 20
4658.228921415031
 30
0.0
  0
ENDBLK
  5
7ED6
330
7DC1
100
AcDbEntity
  8
0
100
AcDbBlockEnd
  0
BLOCK
  5
8097
330
7DCC
100
AcDbEntity
  8
0
100
AcDbBlockBegin
  2
*D11
 70
     1
 10
0.0
 20
0.0
 30
0.0
  3
*D11
  1

  0
LINE
  5
8098
330
7DCC
100
AcDbEntity
  8
0
  6
ByBlock
440
 16777216
100
AcDbLine
 10
436.5154960506942
 20
4177.874969650705
 30
0.0
 11
301.1060238344162
 21
4177.874969650705
 31
0.0
  0
LINE
  5
8099
330
7DCC
100
AcDbEntity
  8
0
  6
ByBlock
440
 16777216
100
AcDbLine
 10
436.5154960506942
 20
3577.874969650706
 30
0.0
 11
301.1060238344162
 21
3577.874969650706
 31
0.0
  0
LINE
  5
809A
330
7DCC
100
AcDbEntity
  8
0
  6
ByBlock
440
 16777216
100
AcDbLine
 10
321.1060238344162
 20
4137.874969650705
 30
0.0
 11
321.1060238344162
 21
3617.874969650706
 31
0.0
  0
INSERT
  5
809B
330
7DCC
100
AcDbEntity
  8
0
  6
ByBlock
440
 16777216
100
AcDbBlockReference
  2
_OPEN
 10
321.1060238344162
 20
4177.874969650705
 30
0.0
 41
40.0
 42
40.0
 43
40.0
 50
90.0
  0
INSERT
  5
809C
330
7DCC
100
AcDbEntity
  8
0
  6
ByBlock
440
 16777216
100
AcDbBlockReference
  2
_OPEN
 10
321.1060238344162
 20
3577.874969650706
 30
0.0
 41
40.0
 42
40.0
 43
40.0
 50
270.0
  0
MTEXT
  5
809D
330
7DCC
100
AcDbEntity
  8
0
  6
ByBlock
440
 16777216
100
AcDbMText
 10
281.1060238344162
 20
3877.874969650706
 30
0.0
 40
60.0
 41
0.0
 46
0.0
 71
     5
 72
     5
  1
\A1;600
 11
0.0
 21
1.0
 31
0.0
 73
     1
 44
1.0
  0
POINT
  5
809E
330
7DCC
100
AcDbEntity
  8
DEFPOINTS
  6
ByBlock
 62
     0
440
 16777216
100
AcDbPoint
 10
456.5154960506943
 20
4177.874969650705
 30
0.0
  0
POINT
  5
809F
330
7DCC
100
AcDbEntity
  8
DEFPOINTS
  6
ByBlock
 62
     0
440
 16777216
100
AcDbPoint
 10
456.5154960506943
 20
3577.874969650706
 30
0.0
  0
POINT
  5
80A0
330
7DCC
100
AcDbEntity
  8
DEFPOINTS
  6
ByBlock
 62
     0
440
 16777216
100
AcDbPoint
 10
321.1060238344162
 20
3577.874969650706
 30
0.0
  0
ENDBLK
  5
80A1
330
7DCC
100
AcDbEntity
  8
0
100
AcDbBlockEnd
  0
BLOCK
  5
7EE2
330
7DD8
100
AcDbEntity
  8
0
100
AcDbBlockBegin
  2
*D12
 70
     1
 10
0.0
 20
0.0
 30
0.0
  3
*D12
  1

  0
LINE
  5
7EE3
330
7DD8
100
AcDbEntity
  8
0
  6
ByBlock
440
 16777216
100
AcDbLine
 10
456.5154960506941
 20
2629.073535835268
 30
0.0
 11
456.5154960506941
 21
2194.045082035846
 31
0.0
  0
LINE
  5
7EE4
330
7DD8
100
AcDbEntity
  8
0
  6
ByBlock
440
 16777216
100
AcDbLine
 10
1806.515496050694
 20
2629.073535835268
 30
0.0
 11
1806.515496050694
 21
2194.045082035846
 31
0.0
  0
LINE
  5
7EE5
330
7DD8
100
AcDbEntity
  8
0
  6
ByBlock
440
 16777216
100
AcDbLine
 10
496.515496050694
 20
2214.045082035846
 30
0.0
 11
1766.515496050694
 21
2214.045082035846
 31
0.0
  0
INSERT
  5
7EE6
330
7DD8
100
AcDbEntity
  8
0
  6
ByBlock
440
 16777216
100
AcDbBlockReference
  2
_OPEN
 10
456.5154960506941
 20
2214.045082035846
 30
0.0
 41
40.0
 42
40.0
 43
40.0
 50
180.0
  0
INSERT
  5
7EE7
330
7DD8
100
AcDbEntity
  8
0
  6
ByBlock
440
 16777216
100
AcDbBlockReference
  2
_OPEN
 10
1806.515496050694
 20
2214.045082035846
 30
0.0
 41
40.0
 42
40.0
 43
40.0
  0
MTEXT
  5
7EE8
330
7DD8
100
AcDbEntity
  8
0
  6
ByBlock
440
 16777216
100
AcDbMText
 10
1131.515496050694
 20
2254.045082035846
 30
0.0
 40
60.0
 41
0.0
 46
0.0
 71
     5
 72
     5
  1
\A1;1350
 73
     1
 44
1.0
  0
POINT
  5
7EE9
330
7DD8
100
AcDbEntity
  8
DEFPOINTS
  6
ByBlock
 62
     0
440
 16777216
100
AcDbPoint
 10
456.5154960506941
 20
2649.073535835267
 30
0.0
  0
POINT
  5
7EEA
330
7DD8
100
AcDbEntity
  8
DEFPOINTS
  6
ByBlock
 62
     0
440
 16777216
100
AcDbPoint
 10
1806.515496050694
 20
2649.073535835267
 30
0.0
  0
POINT
  5
7EEB
330
7DD8
100
AcDbEntity
  8
DEFPOINTS
  6
ByBlock
 62
     0
440
 16777216
100
AcDbPoint
 10
1806.515496050694
 20
2214.045082035846
 30
0.0
  0
ENDBLK
  5
7EEC
330
7DD8
100
AcDbEntity
  8
0
100
AcDbBlockEnd
  0
BLOCK
  5
7EED
330
7DE4
100
AcDbEntity
  8
0
100
AcDbBlockBegin
  2
*D13
 70
     1
 10
0.0
 20
0.0
 30
0.0
  3
*D13
  1

  0
LINE
  5
7EEE
330
7DE4
100
AcDbEntity
  8
0
  6
ByBlock
440
 16777216
100
AcDbLine
 10
1483.515496050693
 20
1449.732634008198
 30
0.0
 11
2015.816204365736
 21
1449.732634008198
 31
0.0
  0
LINE
  5
7EEF
330
7DE4
100
AcDbEntity
  8
0
  6
ByBlock
440
 16777216
100
AcDbLine
 10
1861.854845238631
 20
1059.732634008198
 30
0.0
 11
2015.816204365736
 21
1059.732634008198
 31
0.0
  0
LINE
  5
7EF0
330
7DE4
100
AcDbEntity
  8
0
  6
ByBlock
440
 16777216
100
AcDbLine
 10
1995.816204365736
 20
1409.732634008198
 30
0.0
 11
1995.816204365736
 21
1099.732634008198
 31
0.0
  0
INSERT
  5
7EF1
330
7DE4
100
AcDbEntity
  8
0
  6
ByBlock
440
 16777216
100
AcDbBlockReference
  2
_OPEN
 10
1995.816204365736
 20
1449.732634008198
 30
0.0
 41
40.0
 42
40.0
 43
40.0
 50
90.0
  0
INSERT
  5
7EF2
330
7DE4
100
AcDbEntity
  8
0
  6
ByBlock
440
 16777216
100
AcDbBlockReference
  2
_OPEN
 10
1995.816204365736
 20
1059.732634008198
 30
0.0
 41
40.0
 42
40.0
 43
40.0
 50
270.0
  0
MTEXT
  5
7EF3
330
7DE4
100
AcDbEntity
  8
0
  6
ByBlock
440
 16777216
100
AcDbMText
 10
1955.816204365736
 20
1254.732634008198
 30
0.0
 40
60.0
 41
0.0
 46
0.0
 71
     5
 72
     5
  1
\A1;390
 11
0.0
 21
1.0
 31
0.0
 73
     1
 44
1.0
  0
POINT
  5
7EF4
330
7DE4
100
AcDbEntity
  8
DEFPOINTS
  6
ByBlock
 62
     0
440
 16777216
100
AcDbPoint
 10
1463.515496050693
 20
1449.732634008198
 30
0.0
  0
POINT
  5
7EF5
330
7DE4
100
AcDbEntity
  8
DEFPOINTS
  6
ByBlock
 62
     0
440
 16777216
100
AcDbPoint
 10
1841.854845238631
 20
1059.732634008198
 30
0.0
  0
POINT
  5
7EF6
330
7DE4
100
AcDbEntity
  8
DEFPOINTS
  6
ByBlock
 62
     0
440
 16777216
100
AcDbPoint
 10
1995.816204365736
 20
1059.732634008198
 30
0.0
  0
ENDBLK
  5
7EF7
330
7DE4
100
AcDbEntity
  8
0
100
AcDbBlockEnd
  0
BLOCK
  5
8078
330
7DF0
100
AcDbEntity
  8
0
100
AcDbBlockBegin
  2
*D14
 70
     1
 10
0.0
 20
0.0
 30
0.0
  3
*D14
  1

  0
LINE
  5
81E4
330
7DF0
100
AcDbEntity
  8
3
 62
     0
440
 16777216
100
AcDbLine
 10
1602.922494027642
 20
2432.133692388895
 30
0.0
 11
1602.922494027642
 21
2680.450790787726
 31
0.0
  0
LINE
  5
81E5
330
7DF0
100
AcDbEntity
  8
3
 62
     0
440
 16777216
100
AcDbLine
 10
2004.596635899309
 20
1956.534067823637
 30
0.0
 11
2004.596635899309
 21
2680.450790787726
 31
0.0
  0
LINE
  5
81E6
330
7DF0
100
AcDbEntity
  8
3
 62
     0
440
 16777216
100
AcDbLine
 10
1642.922494027641
 20
2660.450790787726
 30
0.0
 11
1964.596635899309
 21
2660.450790787726
 31
0.0
  0
INSERT
  5
81E7
330
7DF0
100
AcDbEntity
  8
3
 62
     0
440
 16777216
100
AcDbBlockReference
  2
_OPEN
 10
1602.922494027642
 20
2660.450790787726
 30
0.0
 41
40.0
 42
40.0
 43
40.0
 50
180.0
  0
INSERT
  5
81E8
330
7DF0
100
AcDbEntity
  8
3
 62
     0
440
 16777216
100
AcDbBlockReference
  2
_OPEN
 10
2004.596635899309
 20
2660.450790787726
 30
0.0
 41
40.0
 42
40.0
 43
40.0
  0
MTEXT
  5
81E9
330
7DF0
100
AcDbEntity
  8
3
 62
     0
440
 16777216
100
AcDbMText
 10
1803.759564963475
 20
2710.450790787726
 30
0.0
 40
60.0
 41
0.0
 46
0.0
 71
     5
 72
     5
  1
\A1;400
 73
     1
 44
1.0
  0
POINT
  5
81EA
330
7DF0
100
AcDbEntity
  8
DEFPOINTS
 62
     0
440
 16777216
100
AcDbPoint
 10
1602.922494027642
 20
2422.133692388895
 30
0.0
  0
POINT
  5
81EB
330
7DF0
100
AcDbEntity
  8
DEFPOINTS
 62
     0
440
 16777216
100
AcDbPoint
 10
2004.596635899309
 20
1946.534067823636
 30
0.0
  0
POINT
  5
81EC
330
7DF0
100
AcDbEntity
  8
DEFPOINTS
 62
     0
440
 16777216
100
AcDbPoint
 10
2004.596635899309
 20
2660.450790787726
 30
0.0
  0
ENDBLK
  5
8082
330
7DF0
100
AcDbEntity
  8
0
100
AcDbBlockEnd
  0
BLOCK
  5
7F02
330
7DFB
100
AcDbEntity
  8
0
100
AcDbBlockBegin
  2
*D15
 70
     1
 10
0.0
 20
0.0
 30
0.0
  3
*D15
  1

  0
LINE
  5
7F03
330
7DFB
100
AcDbEntity
  8
0
  6
ByBlock
440
 16777216
100
AcDbLine
 10
1853.18963792236
 20
1037.732634008198
 30
0.0
 11
1853.18963792236
 21
1865.832152144642
 31
0.0
  0
LINE
  5
7F04
330
7DFB
100
AcDbEntity
  8
0
  6
ByBlock
440
 16777216
100
AcDbLine
 10
456.5154960506938
 20
599.7326340081976
 30
0.0
 11
456.5154960506938
 21
1865.832152144642
 31
0.0
  0
LINE
  5
7F05
330
7DFB
100
AcDbEntity
  8
0
  6
ByBlock
440
 16777216
100
AcDbLine
 10
1813.18963792236
 20
1845.832152144642
 30
0.0
 11
496.5154960506938
 21
1845.832152144642
 31
0.0
  0
INSERT
  5
7F06
330
7DFB
100
AcDbEntity
  8
0
  6
ByBlock
440
 16777216
100
AcDbBlockReference
  2
_OPEN
 10
1853.18963792236
 20
1845.832152144642
 30
0.0
 41
40.0
 42
40.0
 43
40.0
  0
INSERT
  5
7F07
330
7DFB
100
AcDbEntity
  8
0
  6
ByBlock
440
 16777216
100
AcDbBlockReference
  2
_OPEN
 10
456.5154960506938
 20
1845.832152144642
 30
0.0
 41
40.0
 42
40.0
 43
40.0
 50
180.0
  0
MTEXT
  5
7F08
330
7DFB
100
AcDbEntity
  8
0
  6
ByBlock
440
 16777216
100
AcDbMText
 10
1154.852566986527
 20
1885.832152144642
 30
0.0
 40
60.0
 41
0.0
 46
0.0
 71
     5
 72
     5
  1
\A1;1395
 73
     1
 44
1.0
  0
POINT
  5
7F09
330
7DFB
100
AcDbEntity
  8
DEFPOINTS
  6
ByBlock
 62
     0
440
 16777216
100
AcDbPoint
 10
1853.18963792236
 20
1017.732634008198
 30
0.0
  0
POINT
  5
7F0A
330
7DFB
100
AcDbEntity
  8
DEFPOINTS
  6
ByBlock
 62
     0
440
 16777216
100
AcDbPoint
 10
456.5154960506938
 20
579.7326340081976
 30
0.0
  0
POINT
  5
7F0B
330
7DFB
100
AcDbEntity
  8
DEFPOINTS
  6
ByBlock
 62
     0
440
 16777216
100
AcDbPoint
 10
456.5154960506938
 20
1845.832152144642
 30
0.0
  0
ENDBLK
  5
7F0C
330
7DFB
100
AcDbEntity
  8
0
100
AcDbBlockEnd
  0
BLOCK
  5
7FB9
330
7FB8
100
AcDbEntity
  8
0
100
AcDbBlockBegin
  2
*D16
 70
     1
 10
0.0
 20
0.0
 30
0.0
  3
*D16
  1

  0
LINE
  5
81ED
330
7FB8
100
AcDbEntity
  8
3
 62
     0
440
 16777216
100
AcDbLine
 10
1967.922494027641
 20
1433.534067823637
 30
0.0
 11
2167.223202342684
 21
1433.534067823637
 31
0.0
  0
LINE
  5
81EE
330
7FB8
100
AcDbEntity
  8
3
 62
     0
440
 16777216
100
AcDbLine
 10
2147.223202342684
 20
1948.534067823636
 30
0.0
 11
2147.223202342684
 21
1473.534067823637
 31
0.0
  0
INSERT
  5
81EF
330
7FB8
100
AcDbEntity
  8
3
 62
     0
440
 16777216
100
AcDbBlockReference
  2
_OPEN
 10
2147.223202342684
 20
1988.534067823637
 30
0.0
 41
40.0
 42
40.0
 43
40.0
 50
90.0
  0
INSERT
  5
81F0
330
7FB8
100
AcDbEntity
  8
3
 62
     0
440
 16777216
100
AcDbBlockReference
  2
_OPEN
 10
2147.223202342684
 20
1433.534067823637
 30
0.0
 41
40.0
 42
40.0
 43
40.0
 50
270.0
  0
MTEXT
  5
81F1
330
7FB8
100
AcDbEntity
  8
3
 62
     0
440
 16777216
100
AcDbMText
 10
2097.223202342684
 20
1711.034067823637
 30
0.0
 40
60.0
 41
0.0
 46
0.0
 71
     5
 72
     5
  1
\A1;555
 11
0.0000000000000001
 21
1.0
 31
0.0
 73
     1
 44
1.0
  0
POINT
  5
81F2
330
7FB8
100
AcDbEntity
  8
DEFPOINTS
 62
     0
440
 16777216
100
AcDbPoint
 10
1993.261843215579
 20
1988.534067823637
 30
0.0
  0
POINT
  5
81F3
330
7FB8
100
AcDbEntity
  8
DEFPOINTS
 62
     0
440
 16777216
100
AcDbPoint
 10
1957.922494027642
 20
1433.534067823637
 30
0.0
  0
POINT
  5
81F4
330
7FB8
100
AcDbEntity
  8
DEFPOINTS
 62
     0
440
 16777216
100
AcDbPoint
 10
2147.223202342684
 20
1433.534067823637
 30
0.0
  0
ENDBLK
  5
7FC2
330
7FB8
100
AcDbEntity
  8
0
100
AcDbBlockEnd
  0
BLOCK
  5
8025
330
801F
100
AcDbEntity
  8
0
100
AcDbBlockBegin
  2
_DOT
 70
     0
 10
0.0
 20
0.0
 30
0.0
  3
_DOT
  1

  0
LWPOLYLINE
  5
8020
330
801F
100
AcDbEntity
  8
0
  6
ByBlock
 62
     0
100
AcDbPolyline
 90
        2
 70
     1
 43
0.25
 10
-0.125
 20
0.0
 42
1.0
 10
0.125
 20
0.0
 42
1.0
  0
LINE
  5
8024
330
801F
100
AcDbEntity
  8
0
  6
ByBlock
 62
     0
100
AcDbLine
 10
-0.25
 20
0.0
 30
0.0
 11
-1.0
 21
0.0
 31
0.0
  0
ENDBLK
  5
8026
330
801F
100
AcDbEntity
  8
0
100
AcDbBlockEnd
  0
BLOCK
  5
80FF
330
80FE
100
AcDbEntity
  8
0
100
AcDbBlockBegin
  2
_NONE
 70
     0
 10
0.0
 20
0.0
 30
0.0
  3
_NONE
  1

  0
CIRCLE
  5
8100
330
80FE
100
AcDbEntity
  8
0
  6
ByBlock
 62
     0
100
AcDbCircle
 10
0.0
 20
0.0
 30
0.0
 40
0.25
  0
ENDBLK
  5
8101
330
80FE
100
AcDbEntity
  8
0
100
AcDbBlockEnd
  0
BLOCK
  5
8134
330
8133
100
AcDbEntity
  8
0
100
AcDbBlockBegin
  2
*D19
 70
     1
 10
0.0
 20
0.0
 30
0.0
  3
*D19
  1

  0
LINE
  5
8135
330
8133
100
AcDbEntity
  8
0
  6
ByBlock
 62
     0
440
 16777216
100
AcDbLine
 10
607.9224940276417
 20
1423.534067823637
 30
0.0
 11
607.9224940276417
 21
1284.331918274354
 31
0.0
  0
LINE
  5
8136
330
8133
100
AcDbEntity
  8
0
  6
ByBlock
 62
     0
440
 16777216
100
AcDbLine
 10
1602.922494027642
 20
1423.534067823637
 30
0.0
 11
1602.922494027642
 21
1284.331918274354
 31
0.0
  0
LINE
  5
8137
330
8133
100
AcDbEntity
  8
0
  6
ByBlock
 62
     0
440
 16777216
100
AcDbLine
 10
647.9224940276417
 20
1304.331918274354
 30
0.0
 11
1562.922494027642
 21
1304.331918274354
 31
0.0
  0
INSERT
  5
8138
330
8133
100
AcDbEntity
  8
0
  6
ByBlock
 62
     0
440
 16777216
100
AcDbBlockReference
  2
_OPEN
 10
607.9224940276417
 20
1304.331918274354
 30
0.0
 41
40.0
 42
40.0
 43
40.0
 50
180.0
  0
INSERT
  5
8139
330
8133
100
AcDbEntity
  8
0
  6
ByBlock
 62
     0
440
 16777216
100
AcDbBlockReference
  2
_OPEN
 10
1602.922494027642
 20
1304.331918274354
 30
0.0
 41
40.0
 42
40.0
 43
40.0
  0
MTEXT
  5
813A
330
8133
100
AcDbEntity
  8
0
  6
ByBlock
 62
     0
440
 16777216
100
AcDbMText
 10
1105.422494027642
 20
1354.331918274354
 30
0.0
 40
60.0
 41
0.0
 46
0.0
 71
     5
 72
     5
  1
\A1;995
 73
     1
 44
1.0
  0
POINT
  5
813B
330
8133
100
AcDbEntity
  8
DEFPOINTS
  6
ByBlock
 62
     0
440
 16777216
100
AcDbPoint
 10
607.9224940276417
 20
1433.534067823637
 30
0.0
  0
POINT
  5
813C
330
8133
100
AcDbEntity
  8
DEFPOINTS
  6
ByBlock
 62
     0
440
 16777216
100
AcDbPoint
 10
1602.922494027642
 20
1433.534067823637
 30
0.0
  0
POINT
  5
813D
330
8133
100
AcDbEntity
  8
DEFPOINTS
  6
ByBlock
 62
     0
440
 16777216
100
AcDbPoint
 10
1602.922494027642
 20
1304.331918274354
 30
0.0
  0
ENDBLK
  5
813E
330
8133
100
AcDbEntity
  8
0
100
AcDbBlockEnd
  0
BLOCK
  5
8141
330
8140
100
AcDbEntity
  8
0
100
AcDbBlockBegin
  2
*D20
 70
     1
 10
0.0
 20
0.0
 30
0.0
  3
*D20
  1

  0
LINE
  5
8142
330
8140
100
AcDbEntity
  8
0
  6
ByBlock
 62
     0
440
 16777216
100
AcDbLine
 10
1602.922494027642
 20
1423.534067823637
 30
0.0
 11
1602.922494027642
 21
1284.331918274354
 31
0.0
  0
LINE
  5
8143
330
8140
100
AcDbEntity
  8
0
  6
ByBlock
 62
     0
440
 16777216
100
AcDbLine
 10
1957.922494027642
 20
1423.534067823637
 30
0.0
 11
1957.922494027642
 21
1284.331918274354
 31
0.0
  0
LINE
  5
8144
330
8140
100
AcDbEntity
  8
0
  6
ByBlock
 62
     0
440
 16777216
100
AcDbLine
 10
1642.922494027641
 20
1304.331918274354
 30
0.0
 11
1917.922494027641
 21
1304.331918274354
 31
0.0
  0
INSERT
  5
8145
330
8140
100
AcDbEntity
  8
0
  6
ByBlock
 62
     0
440
 16777216
100
AcDbBlockReference
  2
_OPEN
 10
1602.922494027642
 20
1304.331918274354
 30
0.0
 41
40.0
 42
40.0
 43
40.0
 50
180.0
  0
INSERT
  5
8146
330
8140
100
AcDbEntity
  8
0
  6
ByBlock
 62
     0
440
 16777216
100
AcDbBlockReference
  2
_OPEN
 10
1957.922494027642
 20
1304.331918274354
 30
0.0
 41
40.0
 42
40.0
 43
40.0
  0
MTEXT
  5
8147
330
8140
100
AcDbEntity
  8
0
  6
ByBlock
 62
     0
440
 16777216
100
AcDbMText
 10
1780.422494027641
 20
1354.331918274354
 30
0.0
 40
60.0
 41
0.0
 46
0.0
 71
     5
 72
     5
  1
\A1;355
 73
     1
 44
1.0
  0
POINT
  5
8148
330
8140
100
AcDbEntity
  8
DEFPOINTS
  6
ByBlock
 62
     0
440
 16777216
100
AcDbPoint
 10
1602.922494027642
 20
1433.534067823637
 30
0.0
  0
POINT
  5
8149
330
8140
100
AcDbEntity
  8
DEFPOINTS
  6
ByBlock
 62
     0
440
 16777216
100
AcDbPoint
 10
1957.922494027642
 20
1433.534067823637
 30
0.0
  0
POINT
  5
814A
330
8140
100
AcDbEntity
  8
DEFPOINTS
  6
ByBlock
 62
     0
440
 16777216
100
AcDbPoint
 10
1957.922494027642
 20
1304.331918274354
 30
0.0
  0
ENDBLK
  5
814B
330
8140
100
AcDbEntity
  8
0
100
AcDbBlockEnd
  0
BLOCK
  5
814E
330
814D
100
AcDbEntity
  8
0
100
AcDbBlockBegin
  2
*D21
 70
     1
 10
0.0
 20
0.0
 30
0.0
  3
*D21
  1

  0
LINE
  5
814F
330
814D
100
AcDbEntity
  8
0
  6
ByBlock
 62
     0
440
 16777216
100
AcDbLine
 10
2760.313633794456
 20
1423.534067823637
 30
0.0
 11
2760.313633794456
 21
1284.331918274354
 31
0.0
  0
LINE
  5
8150
330
814D
100
AcDbEntity
  8
0
  6
ByBlock
 62
     0
440
 16777216
100
AcDbLine
 10
3267.313633794456
 20
1423.534067823637
 30
0.0
 11
3267.313633794456
 21
1284.331918274354
 31
0.0
  0
LINE
  5
8151
330
814D
100
AcDbEntity
  8
0
  6
ByBlock
 62
     0
440
 16777216
100
AcDbLine
 10
2800.313633794456
 20
1304.331918274354
 30
0.0
 11
3227.313633794455
 21
1304.331918274354
 31
0.0
  0
INSERT
  5
8152
330
814D
100
AcDbEntity
  8
0
  6
ByBlock
 62
     0
440
 16777216
100
AcDbBlockReference
  2
_OPEN
 10
2760.313633794456
 20
1304.331918274354
 30
0.0
 41
40.0
 42
40.0
 43
40.0
 50
180.0
  0
INSERT
  5
8153
330
814D
100
AcDbEntity
  8
0
  6
ByBlock
 62
     0
440
 16777216
100
AcDbBlockReference
  2
_OPEN
 10
3267.313633794456
 20
1304.331918274354
 30
0.0
 41
40.0
 42
40.0
 43
40.0
  0
MTEXT
  5
8154
330
814D
100
AcDbEntity
  8
0
  6
ByBlock
 62
     0
440
 16777216
100
AcDbMText
 10
3013.813633794455
 20
1354.331918274354
 30
0.0
 40
60.0
 41
0.0
 46
0.0
 71
     5
 72
     5
  1
\A1;507
 73
     1
 44
1.0
  0
POINT
  5
8155
330
814D
100
AcDbEntity
  8
DEFPOINTS
  6
ByBlock
 62
     0
440
 16777216
100
AcDbPoint
 10
2760.313633794456
 20
1433.534067823637
 30
0.0
  0
POINT
  5
8156
330
814D
100
AcDbEntity
  8
DEFPOINTS
  6
ByBlock
 62
     0
440
 16777216
100
AcDbPoint
 10
3267.313633794456
 20
1433.534067823637
 30
0.0
  0
POINT
  5
8157
330
814D
100
AcDbEntity
  8
DEFPOINTS
  6
ByBlock
 62
     0
440
 16777216
100
AcDbPoint
 10
3267.313633794456
 20
1304.331918274354
 30
0.0
  0
ENDBLK
  5
8158
330
814D
100
AcDbEntity
  8
0
100
AcDbBlockEnd
  0
BLOCK
  5
815B
330
815A
100
AcDbEntity
  8
0
100
AcDbBlockBegin
  2
*D22
 70
     1
 10
0.0
 20
0.0
 30
0.0
  3
*D22
  1

  0
LINE
  5
815C
330
815A
100
AcDbEntity
  8
0
  6
ByBlock
 62
     0
440
 16777216
100
AcDbLine
 10
3267.313633794456
 20
1423.534067823637
 30
0.0
 11
3267.313633794456
 21
1284.331918274354
 31
0.0
  0
LINE
  5
815D
330
815A
100
AcDbEntity
  8
0
  6
ByBlock
 62
     0
440
 16777216
100
AcDbLine
 10
3685.313633794456
 20
1423.534067823637
 30
0.0
 11
3685.313633794456
 21
1284.331918274354
 31
0.0
  0
LINE
  5
815E
330
815A
100
AcDbEntity
  8
0
  6
ByBlock
 62
     0
440
 16777216
100
AcDbLine
 10
3307.313633794456
 20
1304.331918274354
 30
0.0
 11
3645.313633794457
 21
1304.331918274354
 31
0.0
  0
INSERT
  5
815F
330
815A
100
AcDbEntity
  8
0
  6
ByBlock
 62
     0
440
 16777216
100
AcDbBlockReference
  2
_OPEN
 10
3267.313633794456
 20
1304.331918274354
 30
0.0
 41
40.0
 42
40.0
 43
40.0
 50
180.0
  0
INSERT
  5
8160
330
815A
100
AcDbEntity
  8
0
  6
ByBlock
 62
     0
440
 16777216
100
AcDbBlockReference
  2
_OPEN
 10
3685.313633794456
 20
1304.331918274354
 30
0.0
 41
40.0
 42
40.0
 43
40.0
  0
MTEXT
  5
8161
330
815A
100
AcDbEntity
  8
0
  6
ByBlock
 62
     0
440
 16777216
100
AcDbMText
 10
3476.313633794456
 20
1354.331918274354
 30
0.0
 40
60.0
 41
0.0
 46
0.0
 71
     5
 72
     5
  1
\A1;418
 73
     1
 44
1.0
  0
POINT
  5
8162
330
815A
100
AcDbEntity
  8
DEFPOINTS
  6
ByBlock
 62
     0
440
 16777216
100
AcDbPoint
 10
3267.313633794456
 20
1433.534067823637
 30
0.0
  0
POINT
  5
8163
330
815A
100
AcDbEntity
  8
DEFPOINTS
  6
ByBlock
 62
     0
440
 16777216
100
AcDbPoint
 10
3685.313633794456
 20
1433.534067823637
 30
0.0
  0
POINT
  5
8164
330
815A
100
AcDbEntity
  8
DEFPOINTS
  6
ByBlock
 62
     0
440
 16777216
100
AcDbPoint
 10
3685.313633794456
 20
1304.331918274354
 30
0.0
  0
ENDBLK
  5
8165
330
815A
100
AcDbEntity
  8
0
100
AcDbBlockEnd
  0
BLOCK
  5
8168
330
8167
100
AcDbEntity
  8
0
100
AcDbBlockBegin
  2
*D23
 70
     1
 10
0.0
 20
0.0
 30
0.0
  3
*D23
  1

  0
LINE
  5
8169
330
8167
100
AcDbEntity
  8
0
  6
ByBlock
 62
     0
440
 16777216
100
AcDbLine
 10
1624.922494027641
 20
2378.534067823637
 30
0.0
 11
2301.919094893423
 21
2378.534067823637
 31
0.0
  0
LINE
  5
816A
330
8167
100
AcDbEntity
  8
0
  6
ByBlock
 62
     0
440
 16777216
100
AcDbLine
 10
1967.922494027641
 20
1433.534067823637
 30
0.0
 11
2301.919094893423
 21
1433.534067823637
 31
0.0
  0
LINE
  5
816B
330
8167
100
AcDbEntity
  8
0
  6
ByBlock
 62
     0
440
 16777216
100
AcDbLine
 10
2281.919094893423
 20
2338.534067823637
 30
0.0
 11
2281.919094893423
 21
1473.534067823637
 31
0.0
  0
INSERT
  5
816C
330
8167
100
AcDbEntity
  8
0
  6
ByBlock
 62
     0
440
 16777216
100
AcDbBlockReference
  2
_OPEN
 10
2281.919094893423
 20
2378.534067823637
 30
0.0
 41
40.0
 42
40.0
 43
40.0
 50
90.0
  0
INSERT
  5
816D
330
8167
100
AcDbEntity
  8
0
  6
ByBlock
 62
     0
440
 16777216
100
AcDbBlockReference
  2
_OPEN
 10
2281.919094893423
 20
1433.534067823637
 30
0.0
 41
40.0
 42
40.0
 43
40.0
 50
270.0
  0
MTEXT
  5
816E
330
8167
100
AcDbEntity
  8
0
  6
ByBlock
 62
     0
440
 16777216
100
AcDbMText
 10
2231.919094893423
 20
1906.034067823637
 30
0.0
 40
60.0
 41
0.0
 46
0.0
 71
     5
 72
     5
  1
\A1;945
 11
0.0
 21
1.0
 31
0.0
 73
     1
 44
1.0
  0
POINT
  5
816F
330
8167
100
AcDbEntity
  8
DEFPOINTS
  6
ByBlock
 62
     0
440
 16777216
100
AcDbPoint
 10
1614.922494027642
 20
2378.534067823637
 30
0.0
  0
POINT
  5
8170
330
8167
100
AcDbEntity
  8
DEFPOINTS
  6
ByBlock
 62
     0
440
 16777216
100
AcDbPoint
 10
1957.922494027642
 20
1433.534067823637
 30
0.0
  0
POINT
  5
8171
330
8167
100
AcDbEntity
  8
DEFPOINTS
  6
ByBlock
 62
     0
440
 16777216
100
AcDbPoint
 10
2281.919094893423
 20
1433.534067823637
 30
0.0
  0
ENDBLK
  5
8172
330
8167
100
AcDbEntity
  8
0
100
AcDbBlockEnd
  0
ENDSEC
  0
SECTION
  2
ENTITIES
  0
INSERT
  5
7C19
330
19
100
AcDbEntity
  8
0
100
AcDbBlockReference
  2
YA_N
 10
6.0
 20
5.0
 30
0.0
  0
LINE
  5
7C1B
330
19
100
AcDbEntity
  8
1
100
AcDbLine
 10
1601.922494027641
 20
2392.901577213367
 30
0.0
 11
1601.922494027641
 21
2361.230723498483
 31
0.0
  0
LINE
  5
7C1D
330
19
100
AcDbEntity
  8
1
100
AcDbLine
 10
2892.313633794456
 20
2378.534067823637
 30
0.0
 11
2892.313633794456
 21
1508.534067823637
 31
0.0
  0
LINE
  5
7C1E
330
19
100
AcDbEntity
  8
1
100
AcDbLine
 10
3642.313633794457
 20
2378.534067823637
 30
0.0
 11
3642.313633794456
 21
1508.534067823637
 31
0.0
  0
LINE
  5
7C1F
330
19
100
AcDbEntity
  8
2
100
AcDbLine
 10
2524.867233004203
 20
1988.534067823637
 30
0.0
 11
3745.841589424156
 21
1988.534067823637
 31
0.0
  0
LINE
  5
7C20
330
19
100
AcDbEntity
  8
1
100
AcDbLine
 10
1614.922494027642
 20
2375.534067823637
 30
0.0
 11
970.9224940276417
 21
2375.534067823637
 31
0.0
  0
LINE
  5
7C21
330
19
100
AcDbEntity
  8
1
100
AcDbLine
 10
1584.922494027642
 20
2378.534067823637
 30
0.0
 11
1000.922494027641
 21
2378.534067823637
 31
0.0
  0
LINE
  5
7C22
330
19
100
AcDbEntity
  8
1
100
AcDbLine
 10
1582.922494027642
 20
2318.985250378585
 30
0.0
 11
1582.922494027642
 21
2378.534067823637
 31
0.0
  0
LINE
  5
7C23
330
19
100
AcDbEntity
  8
2
100
AcDbLine
 10
1993.261843215579
 20
1988.534067823637
 30
0.0
 11
1007.576811418687
 21
1988.534067823637
 31
0.0
  0
LINE
  5
7C24
330
19
100
AcDbEntity
  8
1
100
AcDbLine
 10
3646.613633794455
 20
1678.534067823636
 30
0.0
 11
3644.313633794455
 21
1678.534067823636
 31
0.0
  0
DIMENSION
  5
7C25
330
19
100
AcDbEntity
  8
3
100
AcDbDimension
280
     0
  2
*D2
 10
1582.922494027642
 20
2534.030937377671
 30
0.0
 11
1292.922494027642
 21
2584.030937377671
 31
0.0
 70
    32
 71
     5
 42
-1.0
 73
     0
 74
     0
 75
     0
  3
IGA
100
AcDbAlignedDimension
 13
1002.922494027641
 23
2378.534067823637
 33
0.0
 14
1582.922494027642
 24
2378.534067823637
 34
0.0
 50
180.0
100
AcDbRotatedDimension
1001
ACAD
1000
DSTYLE
1002
{
1070
   287
1070
     3
1070
    40
1040
20.0
1070
   143
1040
0.039
1070
   172
1070
     1
1070
   271
1070
     0
1070
   279
1070
     0
1070
   288
1070
     1
1002
}
  0
DIMENSION
  5
7C26
330
19
100
AcDbEntity
  8
3
100
AcDbDimension
280
     0
  2
*D3
 10
1602.922494027642
 20
2660.450790787726
 30
0.0
 11
1302.922494027642
 21
2710.450790787726
 31
0.0
 70
    32
 71
     5
 42
-1.0
 73
     0
 74
     0
 75
     0
  3
IGA
100
AcDbAlignedDimension
 13
1002.922494027641
 23
2390.534067823637
 33
0.0
 14
1602.922494027642
 24
2422.133692388895
 34
0.0
 50
180.0
100
AcDbRotatedDimension
1001
ACAD
1000
DSTYLE
1002
{
1070
   287
1070
     3
1070
    40
1040
20.0
1070
   143
1040
0.039
1070
   172
1070
     1
1070
   271
1070
     0
1070
   279
1070
     0
1070
   288
1070
     1
1002
}
  0
DIMENSION
  5
7C27
330
19
100
AcDbEntity
  8
3
100
AcDbDimension
280
     0
  2
*D4
 10
3844.726949459008
 20
1708.534067823636
 30
0.0
 11
3794.726949459008
 21
1988.534067823637
 31
0.0
 70
    32
  1
φ <>
 71
     5
 42
-1.0
 73
     0
 74
     0
 75
     0
  3
IGA
100
AcDbAlignedDimension
 13
3644.313633794455
 23
2268.534067823637
 33
0.0
 14
3644.313633794455
 24
1708.534067823636
 34
0.0
 50
90.0
100
AcDbRotatedDimension
1001
ACAD
1000
DSTYLE
1002
{
1070
   287
1070
     3
1070
    40
1040
20.0
1070
   143
1040
0.039
1070
   172
1070
     1
1070
   271
1070
     0
1070
   279
1070
     0
1070
   288
1070
     1
1002
}
  0
LINE
  5
7C28
330
19
100
AcDbEntity
  8
2
100
AcDbLine
 10
1602.922494027643
 20
3344.462627214722
 30
0.0
 11
1602.922494027643
 21
4530.642565025094
 31
0.0
  0
LINE
  5
7C29
330
19
100
AcDbEntity
  8
2
100
AcDbLine
 10
2053.667369868747
 20
4084.874969650706
 30
0.0
 11
1002.922494027643
 21
4084.874969650706
 31
0.0
  0
LINE
  5
7C2A
330
19
100
AcDbEntity
  8
2
100
AcDbLine
 10
3267.313633794457
 20
2457.842676692913
 30
0.0
 11
3267.313633794456
 21
1433.534067823637
 31
0.0
  0
LINE
  5
7C2B
330
19
100
AcDbEntity
  8
2
100
AcDbLine
 10
1602.922494027642
 20
2623.501572025093
 30
0.0
 11
1602.922494027642
 21
1433.534067823637
 31
0.0
  0
LINE
  5
7C34
330
19
100
AcDbEntity
  8
1
100
AcDbLine
 10
1005.38403248918
 20
2348.534067823637
 30
0.0
 11
1582.922494027642
 21
2348.534067823637
 31
0.0
  0
LINE
  5
7C35
330
19
100
AcDbEntity
  8
1
100
AcDbLine
 10
1614.922494027642
 20
2375.534067823637
 30
0.0
 11
1614.922494027642
 21
2378.534067823637
 31
0.0
  0
LINE
  5
7C36
330
19
100
AcDbEntity
  8
1
100
AcDbLine
 10
1614.922494027642
 20
2378.534067823637
 30
0.0
 11
970.9224940276417
 21
2378.534067823637
 31
0.0
  0
LINE
  5
7C37
330
19
100
AcDbEntity
  8
1
100
AcDbLine
 10
970.9224940276417
 20
2378.534067823637
 30
0.0
 11
970.9224940276417
 21
2375.534067823637
 31
0.0
  0
LINE
  5
7C38
330
19
100
AcDbEntity
  8
1
100
AcDbLine
 10
1957.922494027642
 20
1433.534067823637
 30
0.0
 11
607.9224940276417
 21
1433.534067823637
 31
0.0
  0
LINE
  5
7C39
330
19
100
AcDbEntity
  8
1
100
AcDbLine
 10
1957.922494027642
 20
1508.534067823636
 30
0.0
 11
607.9224940276417
 21
1508.534067823636
 31
0.0
  0
LINE
  5
7C3C
330
19
100
AcDbEntity
  8
1
100
AcDbLine
 10
1957.922494027642
 20
1508.534067823636
 30
0.0
 11
1957.922494027642
 21
1433.534067823637
 31
0.0
  0
LINE
  5
7C3D
330
19
100
AcDbEntity
  8
1
100
AcDbLine
 10
607.9224940276417
 20
1508.534067823636
 30
0.0
 11
607.9224940276417
 21
1433.534067823637
 31
0.0
  0
LINE
  5
7C40
330
19
100
AcDbEntity
  8
1
100
AcDbLine
 10
2862.313633794456
 20
2378.534067823637
 30
0.0
 11
3672.313633794456
 21
2378.534067823637
 31
0.0
  0
LINE
  5
7C41
330
19
100
AcDbEntity
  8
1
100
AcDbLine
 10
2760.313633794456
 20
1433.534067823637
 30
0.0
 11
3685.313633794456
 21
1433.534067823637
 31
0.0
  0
LINE
  5
7C42
330
19
100
AcDbEntity
  8
1
100
AcDbLine
 10
2760.313633794456
 20
1508.534067823636
 30
0.0
 11
3685.313633794456
 21
1508.534067823637
 31
0.0
  0
LINE
  5
7C45
330
19
100
AcDbEntity
  8
1
100
AcDbLine
 10
3685.313633794458
 20
1508.534067823637
 30
0.0
 11
3685.313633794457
 21
1433.534067823637
 31
0.0
  0
LINE
  5
7C46
330
19
100
AcDbEntity
  8
1
100
AcDbLine
 10
2760.313633794456
 20
1508.534067823636
 30
0.0
 11
2760.313633794456
 21
1433.534067823637
 31
0.0
  0
DIMENSION
  5
7C4F
330
19
100
AcDbEntity
  8
3
100
AcDbDimension
280
     0
  2
*D5
 10
3642.313633794457
 20
2468.485862875541
 30
0.0
 11
3267.313633794457
 21
2508.485862875541
 31
0.0
 12
151.4069979769483
 22
928.801433815439
 32
0.0
 70
    32
 71
     5
 42
-1.0
 73
     0
 74
     0
 75
     0
  3
MATSU
100
AcDbAlignedDimension
 13
2892.313633794456
 23
2378.534067823637
 33
0.0
 14
3642.313633794457
 24
2378.534067823637
 34
0.0
100
AcDbRotatedDimension
1001
ACAD
1000
DSTYLE
1002
{
1070
    40
1040
20.0
1002
}
  0
LINE
  5
7C50
330
19
100
AcDbEntity
  8
1
100
AcDbLine
 10
3737.313633794457
 20
1935.634067823637
 30
0.0
 11
3737.313633794457
 21
1855.634067823637
 31
0.0
  0
LINE
  5
7C51
330
19
100
AcDbEntity
  8
1
100
AcDbLine
 10
3667.313633794456
 20
1945.634067823637
 30
0.0
 11
3667.313633794456
 21
1845.634067823637
 31
0.0
  0
LINE
  5
7C52
330
19
100
AcDbEntity
  8
1
100
AcDbLine
 10
3667.313633794456
 20
1945.634067823637
 30
0.0
 11
3727.313633794457
 21
1945.634067823637
 31
0.0
  0
LINE
  5
7C53
330
19
100
AcDbEntity
  8
1
100
AcDbLine
 10
3667.313633794456
 20
1845.634067823637
 30
0.0
 11
3727.313633794457
 21
1845.634067823637
 31
0.0
  0
LINE
  5
7C54
330
19
100
AcDbEntity
  8
1
100
AcDbLine
 10
3727.313633794457
 20
1945.634067823637
 30
0.0
 11
3737.313633794457
 21
1935.634067823637
 31
0.0
  0
LINE
  5
7C55
330
19
100
AcDbEntity
  8
1
100
AcDbLine
 10
3737.313633794457
 20
1855.634067823637
 30
0.0
 11
3727.313633794457
 21
1845.634067823637
 31
0.0
  0
LINE
  5
7C56
330
19
100
AcDbEntity
  8
1
100
AcDbLine
 10
2882.313633794456
 20
1934.534067823636
 30
0.0
 11
2882.313633794456
 21
1928.534067823636
 31
0.0
  0
LINE
  5
7C57
330
19
100
AcDbEntity
  8
1
100
AcDbLine
 10
2822.313633794457
 20
1934.534067823637
 30
0.0
 11
2882.313633794456
 21
1934.534067823636
 31
0.0
  0
LINE
  5
7C58
330
19
100
AcDbEntity
  8
1
100
AcDbLine
 10
2822.313633794457
 20
1934.534067823637
 30
0.0
 11
2816.313633794456
 21
1928.534067823636
 31
0.0
  0
DIMENSION
  5
7C59
330
19
100
AcDbEntity
  8
3
100
AcDbDimension
280
     0
  2
*D6
 10
3267.313633794457
 20
2610.887003546551
 30
0.0
 11
3502.313633794456
 21
2666.601289260837
 31
0.0
 70
    32
  1
(<>)
 71
     5
 42
470.0000000000004
 73
     0
 74
     0
 75
     0
  3
MATSU
100
AcDbAlignedDimension
 13
3737.313633794457
 23
1935.634067823637
 33
0.0
 14
3267.313633794457
 24
2534.286820084564
 34
0.0
100
AcDbRotatedDimension
1001
ACAD
1000
DSTYLE
1002
{
1070
    40
1040
20.0
1002
}
  0
LINE
  5
7C5A
330
19
100
AcDbEntity
  8
1
100
AcDbLine
 10
2587.313633794456
 20
2208.534067823637
 30
0.0
 11
2587.313633794456
 21
1523.534067823637
 31
0.0
  0
LINE
  5
7C5B
330
19
100
AcDbEntity
  8
1
100
AcDbLine
 10
2747.313633794457
 20
2208.534067823637
 30
0.0
 11
2747.313633794457
 21
2133.755230303901
 31
0.0
  0
LINE
  5
7C5C
330
19
100
AcDbEntity
  8
1
100
AcDbLine
 10
1957.922494027642
 20
3577.874969650706
 30
0.0
 11
1957.922494027642
 21
3709.874969650706
 31
0.0
  0
LINE
  5
7C5D
330
19
100
AcDbEntity
  8
1
100
AcDbLine
 10
607.9224940276426
 20
3577.874969650706
 30
0.0
 11
607.9224940276426
 21
4177.874969650705
 31
0.0
  0
LINE
  5
7C5E
330
19
100
AcDbEntity
  8
1
100
AcDbLine
 10
1957.922494027642
 20
4502.874969650705
 30
0.0
 11
1247.922494027642
 21
4502.874969650707
 31
0.0
  0
LINE
  5
7C5F
330
19
100
AcDbEntity
  8
1
100
AcDbLine
 10
1957.922494027642
 20
3577.874969650706
 30
0.0
 11
607.9224940276426
 21
3577.874969650706
 31
0.0
  0
LINE
  5
7C60
330
19
100
AcDbEntity
  8
1
100
AcDbLine
 10
1247.922494027642
 20
4459.874969650705
 30
0.0
 11
1247.922494027642
 21
4502.874969650705
 31
0.0
  0
LINE
  5
7C61
330
19
100
AcDbEntity
  8
1
100
AcDbLine
 10
1002.922494027642
 20
4177.874969650705
 30
0.0
 11
607.9224940276426
 21
4177.874969650705
 31
0.0
  0
LINE
  5
7C62
330
19
100
AcDbEntity
  8
2
100
AcDbLine
 10
902.9224940276426
 20
4169.784027650706
 30
0.0
 11
902.9224940276426
 21
3379.992667079039
 31
0.0
  0
ARC
  5
7C64
330
19
100
AcDbEntity
  8
1
100
AcDbCircle
 10
902.9224940276417
 20
1743.534067823637
 30
0.0
 40
185.0
100
AcDbArc
 50
287.945251
 51
252.054749
  0
LINE
  5
7C65
330
19
100
AcDbEntity
  8
2
100
AcDbLine
 10
902.9224940276417
 20
2011.25146326755
 30
0.0
 11
902.9224940276417
 21
1433.534067823637
 31
0.0
  0
LINE
  5
7C66
330
19
100
AcDbEntity
  8
1
100
AcDbLine
 10
959.9224940276418
 20
1567.534067823636
 30
0.0
 11
845.9224940276417
 21
1567.534067823636
 31
0.0
  0
LINE
  5
7C68
330
19
100
AcDbEntity
  8
1
100
AcDbLine
 10
1064.922494027642
 20
1638.793100823637
 30
0.0
 11
1064.922494027642
 21
1563.534067823636
 31
0.0
  0
LINE
  5
7C69
330
19
100
AcDbEntity
  8
1
100
AcDbLine
 10
1005.422494027642
 20
1568.682626823636
 30
0.0
 11
995.9157800276425
 21
1583.605234823636
 31
0.0
  0
LINE
  5
7C6C
330
19
100
AcDbEntity
  8
1
100
AcDbLine
 10
1005.422494027642
 20
1580.534067823636
 30
0.0
 11
1005.422494027642
 21
1563.534067823636
 31
0.0
  0
LINE
  5
7C6D
330
19
100
AcDbEntity
  8
1
100
AcDbLine
 10
1005.422494027642
 20
1563.534067823636
 30
0.0
 11
1064.922494027642
 21
1563.534067823636
 31
0.0
  0
LINE
  5
7C6F
330
19
100
AcDbEntity
  8
1
100
AcDbLine
 10
1008.422494027642
 20
1583.534067823636
 30
0.0
 11
1061.922494027641
 21
1583.534067823636
 31
0.0
  0
ARC
  5
7C70
330
19
100
AcDbEntity
  8
1
100
AcDbCircle
 10
1061.922494027641
 20
1580.534067823636
 30
0.0
 40
3.0
100
AcDbArc
 50
0.0
 51
90.0
  0
LINE
  5
7C77
330
19
100
AcDbEntity
  8
1
100
AcDbLine
 10
1013.746407027642
 20
1583.534067823636
 30
0.0
 11
1008.566659027642
 21
1591.664682823636
 31
0.0
  0
ARC
  5
7C79
330
19
100
AcDbEntity
  8
1
100
AcDbCircle
 10
1008.422494027642
 20
1580.534067823636
 30
0.0
 40
3.0
100
AcDbArc
 50
90.0
 51
180.0
  0
LINE
  5
7C7A
330
19
100
AcDbEntity
  8
1
100
AcDbLine
 10
1064.922494027642
 20
1638.793100823637
 30
0.0
 11
1058.538522027642
 21
1643.490854823637
 31
0.0
  0
LINE
  5
7C7F
330
19
100
AcDbEntity
  8
1
100
AcDbLine
 10
800.4224940276417
 20
1568.682626823636
 30
0.0
 11
809.9292080276427
 21
1583.605234823636
 31
0.0
  0
LINE
  5
7C83
330
19
100
AcDbEntity
  8
1
100
AcDbLine
 10
800.4224940276417
 20
1580.534067823636
 30
0.0
 11
800.4224940276417
 21
1563.534067823636
 31
0.0
  0
LINE
  5
7C84
330
19
100
AcDbEntity
  8
1
100
AcDbLine
 10
740.9224940276417
 20
1638.793100823637
 30
0.0
 11
740.9224940276417
 21
1563.534067823636
 31
0.0
  0
LINE
  5
7C85
330
19
100
AcDbEntity
  8
1
100
AcDbLine
 10
800.4224940276417
 20
1563.534067823636
 30
0.0
 11
740.9224940276417
 21
1563.534067823636
 31
0.0
  0
LINE
  5
7C87
330
19
100
AcDbEntity
  8
1
100
AcDbLine
 10
797.4224940276417
 20
1583.534067823636
 30
0.0
 11
743.9224940276417
 21
1583.534067823636
 31
0.0
  0
LINE
  5
7C89
330
19
100
AcDbEntity
  8
1
100
AcDbLine
 10
792.0985800276421
 20
1583.534067823636
 30
0.0
 11
797.278329027642
 21
1591.664682823636
 31
0.0
  0
ARC
  5
7C8A
330
19
100
AcDbEntity
  8
1
100
AcDbCircle
 10
797.4224940276417
 20
1580.534067823636
 30
0.0
 40
3.0
100
AcDbArc
 50
0.0
 51
90.0
  0
ARC
  5
7C8B
330
19
100
AcDbEntity
  8
1
100
AcDbCircle
 10
743.9224940276417
 20
1580.534067823636
 30
0.0
 40
3.0
100
AcDbArc
 50
90.0
 51
180.0
  0
LINE
  5
7C96
330
19
100
AcDbEntity
  8
1
100
AcDbLine
 10
740.9224940276417
 20
1638.793100823637
 30
0.0
 11
747.3064050276425
 21
1643.490854823637
 31
0.0
  0
LINE
  5
7C97
330
19
100
AcDbEntity
  8
2
100
AcDbLine
 10
623.6265216410538
 20
1743.534067823637
 30
0.0
 11
1133.704336016637
 21
1743.534067823637
 31
0.0
  0
LINE
  5
7C98
330
19
100
AcDbEntity
  8
1
100
AcDbLine
 10
926.9224940276426
 20
3557.374969650706
 30
0.0
 11
926.9224940276426
 21
3527.374969650707
 31
0.0
  0
LINE
  5
7C99
330
19
100
AcDbEntity
  8
1
100
AcDbLine
 10
878.9224940276426
 20
3557.374969650706
 30
0.0
 11
878.9224940276426
 21
3527.374969650707
 31
0.0
  0
LINE
  5
7C9A
330
19
100
AcDbEntity
  8
1
100
AcDbLine
 10
1117.922494027641
 20
1563.534067823636
 30
0.0
 11
972.9224940276417
 21
1563.534067823636
 31
0.0
  0
LINE
  5
7C9B
330
19
100
AcDbEntity
  8
1
100
AcDbLine
 10
972.9224940276417
 20
1563.534067823636
 30
0.0
 11
972.9224940276417
 21
1553.534067823636
 31
0.0
  0
LINE
  5
7C9C
330
19
100
AcDbEntity
  8
1
100
AcDbLine
 10
832.9224940276416
 20
1563.534067823636
 30
0.0
 11
832.9224940276416
 21
1553.534067823636
 31
0.0
  0
LINE
  5
7C9E
330
19
100
AcDbEntity
  8
1
100
AcDbLine
 10
972.9224940276417
 20
1553.534067823636
 30
0.0
 11
832.9224940276416
 21
1553.534067823636
 31
0.0
  0
LINE
  5
7C9F
330
19
100
AcDbEntity
  8
1
100
AcDbLine
 10
832.9224940276416
 20
1563.534067823636
 30
0.0
 11
687.9224940276426
 21
1563.534067823636
 31
0.0
  0
LINE
  5
7CA2
330
19
100
AcDbEntity
  8
1
100
AcDbLine
 10
687.9224940276426
 20
1563.534067823636
 30
0.0
 11
677.9224940276417
 21
1508.534067823636
 31
0.0
  0
LINE
  5
7CA3
330
19
100
AcDbEntity
  8
1
100
AcDbLine
 10
1117.922494027641
 20
1563.534067823636
 30
0.0
 11
1127.922494027642
 21
1508.534067823636
 31
0.0
  0
CIRCLE
  5
7CA7
330
19
100
AcDbEntity
  8
1
100
AcDbCircle
 10
1602.922494027642
 20
1988.534067823637
 30
0.0
 40
280.0
  0
CIRCLE
  5
7CA8
330
19
100
AcDbEntity
  8
1
100
AcDbCircle
 10
1602.922494027642
 20
1988.534067823637
 30
0.0
 40
310.0
  0
LINE
  5
7CA9
330
19
100
AcDbEntity
  8
1
100
AcDbLine
 10
2002.922494027643
 20
3709.874969650706
 30
0.0
 11
1002.922494027642
 21
3709.874969650706
 31
0.0
  0
LINE
  5
7CAA
330
19
100
AcDbEntity
  8
1
100
AcDbLine
 10
2002.922494027642
 20
4459.874969650705
 30
0.0
 11
1002.922494027642
 21
4459.874969650705
 31
0.0
  0
LINE
  5
7CAB
330
19
100
AcDbEntity
  8
1
100
AcDbLine
 10
1822.922494027643
 20
3404.874969650706
 30
0.0
 11
682.9224940276426
 21
3404.874969650706
 31
0.0
  0
LINE
  5
7CAC
330
19
100
AcDbEntity
  8
1
100
AcDbLine
 10
1822.922494027643
 20
3564.874969650706
 30
0.0
 11
682.9224940276426
 21
3564.874969650707
 31
0.0
  0
LINE
  5
7CAD
330
19
100
AcDbEntity
  8
1
100
AcDbLine
 10
682.9224940276426
 20
3404.874969650706
 30
0.0
 11
682.9224940276426
 21
3564.874969650707
 31
0.0
  0
LINE
  5
7CAE
330
19
100
AcDbEntity
  8
1
100
AcDbLine
 10
1822.922494027643
 20
3404.874969650706
 30
0.0
 11
1822.922494027643
 21
3564.874969650706
 31
0.0
  0
LINE
  5
7CAF
330
19
100
AcDbEntity
  8
1
100
AcDbLine
 10
1712.922494027642
 20
3527.374969650706
 30
0.0
 11
1492.922494027643
 21
3527.374969650706
 31
0.0
  0
LINE
  5
7CB0
330
19
100
AcDbEntity
  8
1
100
AcDbLine
 10
1712.922494027642
 20
3442.374969650706
 30
0.0
 11
1492.922494027643
 21
3442.374969650706
 31
0.0
  0
LINE
  5
7CB1
330
19
100
AcDbEntity
  8
1
100
AcDbLine
 10
1712.922494027642
 20
3442.374969650706
 30
0.0
 11
1712.922494027642
 21
3527.374969650706
 31
0.0
  0
LINE
  5
7CB2
330
19
100
AcDbEntity
  8
1
100
AcDbLine
 10
1492.922494027643
 20
3442.374969650706
 30
0.0
 11
1492.922494027643
 21
3527.374969650706
 31
0.0
  0
LINE
  5
7CB3
330
19
100
AcDbEntity
  8
1
100
AcDbLine
 10
1042.422494027642
 20
3442.374969650706
 30
0.0
 11
1042.422494027642
 21
3527.374969650706
 31
0.0
  0
LINE
  5
7CB4
330
19
100
AcDbEntity
  8
1
100
AcDbLine
 10
763.4224940276426
 20
3442.374969650706
 30
0.0
 11
763.4224940276426
 21
3527.374969650706
 31
0.0
  0
LINE
  5
7CB5
330
19
100
AcDbEntity
  8
1
100
AcDbLine
 10
1042.422494027642
 20
3527.374969650706
 30
0.0
 11
763.4224940276426
 21
3527.374969650706
 31
0.0
  0
LINE
  5
7CB6
330
19
100
AcDbEntity
  8
1
100
AcDbLine
 10
1042.422494027642
 20
3442.374969650706
 30
0.0
 11
763.4224940276426
 21
3442.374969650706
 31
0.0
  0
LINE
  5
7CB7
330
19
100
AcDbEntity
  8
1
100
AcDbLine
 10
1625.422494027642
 20
3527.374969650706
 30
0.0
 11
1625.422494027642
 21
3709.874969650706
 31
0.0
  0
LINE
  5
7CB8
330
19
100
AcDbEntity
  8
1
100
AcDbLine
 10
1580.422494027643
 20
3527.374969650706
 30
0.0
 11
1580.422494027643
 21
3709.874969650706
 31
0.0
  0
LINE
  5
7CB9
330
19
100
AcDbEntity
  8
1
100
AcDbLine
 10
2587.313633794456
 20
2208.534067823637
 30
0.0
 11
2747.313633794457
 21
2208.534067823636
 31
0.0
  0
LINE
  5
7CBA
330
19
100
AcDbEntity
  8
2
100
AcDbLine
 10
2529.363188208487
 20
1743.534067823637
 30
0.0
 11
2932.313633794456
 21
1743.534067823636
 31
0.0
  0
LINE
  5
7CBB
330
19
100
AcDbEntity
  8
1
100
AcDbLine
 10
2587.313633794456
 20
1523.534067823637
 30
0.0
 11
2747.313633794457
 21
1523.534067823637
 31
0.0
  0
LINE
  5
7CBC
330
19
100
AcDbEntity
  8
1
100
AcDbLine
 10
2709.813633794456
 20
2098.534067823637
 30
0.0
 11
2709.813633794456
 21
1595.034067823636
 31
0.0
  0
LINE
  5
7CBD
330
19
100
AcDbEntity
  8
1
100
AcDbLine
 10
2624.813633794456
 20
2098.534067823637
 30
0.0
 11
2624.813633794456
 21
1595.034067823636
 31
0.0
  0
LINE
  5
7CBE
330
19
100
AcDbEntity
  8
1
100
AcDbLine
 10
2624.813633794456
 20
2098.534067823637
 30
0.0
 11
2709.813633794456
 21
2098.534067823636
 31
0.0
  0
LINE
  5
7CBF
330
19
100
AcDbEntity
  8
1
100
AcDbLine
 10
2624.813633794456
 20
1878.534067823636
 30
0.0
 11
2709.813633794456
 21
1878.534067823636
 31
0.0
  0
LINE
  5
7CC0
330
19
100
AcDbEntity
  8
1
100
AcDbLine
 10
2624.813633794456
 20
1892.034067823637
 30
0.0
 11
2709.813633794456
 21
1892.034067823637
 31
0.0
  0
LINE
  5
7CC1
330
19
100
AcDbEntity
  8
1
100
AcDbLine
 10
2624.813633794456
 20
1595.034067823636
 30
0.0
 11
2709.813633794456
 21
1595.034067823636
 31
0.0
  0
LINE
  5
7CC2
330
19
100
AcDbEntity
  8
1
100
AcDbLine
 10
2709.813633794457
 20
2011.034067823636
 30
0.0
 11
2892.313633794456
 21
2011.034067823636
 31
0.0
  0
LINE
  5
7CC3
330
19
100
AcDbEntity
  8
1
100
AcDbLine
 10
2709.813633794456
 20
1966.034067823636
 30
0.0
 11
2892.313633794456
 21
1966.034067823637
 31
0.0
  0
DIMENSION
  5
7CC4
330
19
100
AcDbEntity
  8
3
100
AcDbDimension
280
     0
  2
*D7
 10
2587.313633794456
 20
2610.887003546551
 30
0.0
 11
2927.313633794456
 21
2666.601289260837
 31
0.0
 70
    32
  1
(<>)
 71
     5
 42
680.0
 73
     0
 74
     0
 75
     0
  3
MATSU
100
AcDbAlignedDimension
 13
3267.313633794457
 23
2534.286820084564
 33
0.0
 14
2587.313633794456
 24
2208.534067823637
 34
0.0
100
AcDbRotatedDimension
1001
ACAD
1000
DSTYLE
1002
{
1070
   287
1070
     4
1070
    40
1040
20.0
1070
    75
1070
     1
1070
   279
1070
     1
1070
   289
1070
     3
1002
}
  0
LINE
  5
7CC5
330
19
100
AcDbEntity
  8
1
100
AcDbLine
 10
720.4224940276417
 20
4118.874969650706
 30
0.0
 11
720.4224940276417
 21
3557.374969650707
 31
0.0
  0
LINE
  5
7CC6
330
19
100
AcDbEntity
  8
1
100
AcDbLine
 10
1085.422494027643
 20
3709.874969650706
 30
0.0
 11
1085.422494027642
 21
3557.374969650707
 31
0.0
  0
LINE
  5
7CC7
330
19
100
AcDbEntity
  8
1
100
AcDbLine
 10
720.4224940276426
 20
4118.874969650706
 30
0.0
 11
1002.922494027642
 21
4118.874969650706
 31
0.0
  0
LINE
  5
7CC8
330
19
100
AcDbEntity
  8
1
100
AcDbLine
 10
720.4224940276417
 20
3557.374969650707
 30
0.0
 11
1085.422494027642
 21
3557.374969650706
 31
0.0
  0
LINE
  5
7CC9
330
19
100
AcDbEntity
  8
1
100
AcDbLine
 10
2892.313633794456
 20
1561.034067823636
 30
0.0
 11
2739.813633794456
 21
1561.034067823636
 31
0.0
  0
LINE
  5
7CCA
330
19
100
AcDbEntity
  8
1
100
AcDbLine
 10
2739.813633794456
 20
1719.534067823637
 30
0.0
 11
2709.813633794456
 21
1719.534067823637
 31
0.0
  0
LINE
  5
7CCB
330
19
100
AcDbEntity
  8
1
100
AcDbLine
 10
2739.813633794456
 20
1767.534067823636
 30
0.0
 11
2709.813633794456
 21
1767.534067823637
 31
0.0
  0
LINE
  5
7CCC
330
19
100
AcDbEntity
  8
1
100
AcDbLine
 10
2739.813633794457
 20
1928.534067823636
 30
0.0
 11
2739.813633794456
 21
1561.034067823636
 31
0.0
  0
LINE
  5
7CCD
330
19
100
AcDbEntity
  8
1
100
AcDbLine
 10
2747.313633794457
 20
1575.178169834016
 30
0.0
 11
2747.313633794457
 21
1523.534067823637
 31
0.0
  0
DIMENSION
  5
7CCE
330
19
100
AcDbEntity
  8
3
100
AcDbDimension
280
     0
  2
*D8
 10
2154.516092079357
 20
3577.874969650706
 30
0.0
 11
2114.516092079357
 21
4040.374969650705
 31
0.0
 12
151.4069979769483
 22
928.801433815439
 32
0.0
 70
    32
 71
     5
 42
-1.0
 73
     0
 74
     0
 75
     0
  3
MATSU
100
AcDbAlignedDimension
 13
1957.922494027642
 23
4502.874969650705
 33
0.0
 14
1957.922494027642
 24
3577.874969650706
 34
0.0
 50
90.0
100
AcDbRotatedDimension
1001
ACAD
1000
DSTYLE
1002
{
1070
    40
1040
20.0
1002
}
  0
DIMENSION
  5
7CCF
330
19
100
AcDbEntity
  8
3
100
AcDbDimension
280
     0
  2
*D9
 10
1247.922494027642
 20
4658.228921415031
 30
0.0
 11
1602.922494027643
 21
4698.228921415031
 31
0.0
 12
151.4069979769483
 22
928.801433815439
 32
0.0
 70
    32
 71
     5
 42
-1.0
 73
     0
 74
     0
 75
     0
  3
MATSU
100
AcDbAlignedDimension
 13
1957.922494027642
 23
4502.874969650705
 33
0.0
 14
1247.922494027642
 24
4502.874969650707
 34
0.0
100
AcDbRotatedDimension
1001
ACAD
1000
DSTYLE
1002
{
1070
    40
1040
20.0
1002
}
  0
DIMENSION
  5
7CD0
330
19
100
AcDbEntity
  8
3
100
AcDbDimension
280
     0
  2
*D10
 10
607.9224940276426
 20
4658.228921415031
 30
0.0
 11
927.9224940276426
 21
4698.228921415031
 31
0.0
 70
    32
 71
     5
 42
-1.0
 73
     0
 74
     0
 75
     0
  3
MATSU
100
AcDbAlignedDimension
 13
1247.922494027642
 23
4502.874969650707
 33
0.0
 14
607.9224940276426
 24
4177.874969650705
 34
0.0
100
AcDbRotatedDimension
1001
ACAD
1000
DSTYLE
1002
{
1070
   287
1070
     4
1070
    40
1040
20.0
1070
    75
1070
     1
1070
   279
1070
     1
1070
   289
1070
     3
1002
}
  0
DIMENSION
  5
7CD1
330
19
100
AcDbEntity
  8
3
100
AcDbDimension
280
     0
  2
*D11
 10
472.5130218113645
 20
3577.874969650706
 30
0.0
 11
432.5130218113645
 21
3877.874969650706
 31
0.0
 12
151.4069979769483
 22
0.0
 32
0.0
 70
    32
 71
     5
 42
-1.0
 73
     0
 74
     0
 75
     0
  3
MATSU
100
AcDbAlignedDimension
 13
607.9224940276426
 23
4177.874969650705
 33
0.0
 14
607.9224940276426
 24
3577.874969650706
 34
0.0
 50
90.0
100
AcDbRotatedDimension
1001
ACAD
1000
DSTYLE
1002
{
1070
    40
1040
20.0
1002
}
  0
DIMENSION
  5
7CD2
330
19
100
AcDbEntity
  8
3
100
AcDbDimension
280
     0
  2
*D12
 10
1957.922494027642
 20
3142.846515851285
 30
0.0
 11
1282.922494027643
 21
3182.846515851285
 31
0.0
 12
151.4069979769483
 22
928.801433815439
 32
0.0
 70
    32
 71
     5
 42
-1.0
 73
     0
 74
     0
 75
     0
  3
MATSU
100
AcDbAlignedDimension
 13
607.9224940276426
 23
3577.874969650706
 33
0.0
 14
1957.922494027642
 24
3577.874969650706
 34
0.0
100
AcDbRotatedDimension
1001
ACAD
1000
DSTYLE
1002
{
1070
    40
1040
20.0
1002
}
  0
CIRCLE
  5
7CD9
330
19
100
AcDbEntity
  8
1
100
AcDbCircle
 10
902.9224940276417
 20
1743.534067823637
 30
0.0
 40
139.5
  0
CIRCLE
  5
7CDA
330
19
100
AcDbEntity
  8
1
100
AcDbCircle
 10
1602.922494027642
 20
1988.534067823637
 30
0.0
 40
110.0
  0
ARC
  5
7CDB
330
19
100
AcDbEntity
  8
1
100
AcDbCircle
 10
1602.922494027642
 20
1988.534067823637
 30
0.0
 40
220.0
100
AcDbArc
 50
282.8750015596124
 51
102.8750015596124
  0
ARC
  5
7CDC
330
19
100
AcDbEntity
  8
1
100
AcDbCircle
 10
902.9224940276417
 20
1743.534067823637
 30
0.0
 40
220.0
100
AcDbArc
 50
102.8750015596124
 51
282.8750015596125
  0
LINE
  5
7CDD
330
19
100
AcDbEntity
  8
1
100
AcDbLine
 10
1553.901037697171
 20
2203.002939269447
 30
0.0
 11
853.901037697171
 21
1958.002939269447
 31
0.0
  0
LINE
  5
7CDE
330
19
100
AcDbEntity
  8
1
100
AcDbLine
 10
1651.943950358113
 20
1774.065196377826
 30
0.0
 11
951.9439503581134
 21
1529.065196377826
 31
0.0
  0
LINE
  5
7CDF
330
19
100
AcDbEntity
  8
1
100
AcDbLine
 10
1582.838006620152
 20
2096.684950231403
 30
0.0
 11
877.4517122699625
 21
1880.689050513485
 31
0.0
  0
LINE
  5
7CE0
330
19
100
AcDbEntity
  8
1
100
AcDbLine
 10
1631.81807530635
 20
1882.397149729292
 30
0.0
 11
939.5673448310935
 21
1608.933158058536
 31
0.0
  0
LINE
  5
7CE1
330
19
100
AcDbEntity
  8
1
100
AcDbLine
 10
2739.813633794456
 20
1928.534067823636
 30
0.0
 11
2856.313633794456
 21
1928.534067823636
 31
0.0
  0
LINE
  5
7CE2
330
19
100
AcDbEntity
  8
1
100
AcDbLine
 10
1957.922494027642
 20
4459.874969650705
 30
0.0
 11
1957.922494027642
 21
4502.874969650705
 31
0.0
  0
DIMENSION
  5
7CE3
330
19
100
AcDbEntity
  8
3
100
AcDbDimension
280
     0
  2
*D13
 10
2147.223202342684
 20
1988.534067823637
 30
0.0
 11
2107.223202342684
 21
2183.534067823637
 31
0.0
 12
151.4069979769483
 22
928.801433815439
 32
0.0
 70
    32
 71
     5
 42
-1.0
 73
     0
 74
     0
 75
     0
  3
MATSU
100
AcDbAlignedDimension
 13
1614.922494027642
 23
2378.534067823637
 33
0.0
 14
1993.261843215579
 24
1988.534067823637
 34
0.0
 50
90.0
100
AcDbRotatedDimension
1001
ACAD
1000
DSTYLE
1002
{
1070
    40
1040
20.0
1002
}
  0
DIMENSION
  5
7CE4
330
19
100
AcDbEntity
  8
3
100
AcDbDimension
280
     0
  2
*D14
 10
2004.596635899309
 20
2660.450790787726
 30
0.0
 11
1803.759564963475
 21
2710.450790787726
 31
0.0
 70
    32
  1
400
 71
     5
 42
-1.0
 73
     0
 74
     0
 75
     0
  3
IGA
100
AcDbAlignedDimension
 13
1602.922494027642
 23
2422.133692388895
 33
0.0
 14
2004.596635899309
 24
1946.534067823636
 34
0.0
100
AcDbRotatedDimension
1001
ACAD
1000
DSTYLE
1002
{
1070
   287
1070
     3
1070
    40
1040
20.0
1070
   143
1040
0.039
1070
   172
1070
     1
1070
   271
1070
     0
1070
   279
1070
     0
1070
   288
1070
     1
1002
}
  0
DIMENSION
  5
7CE5
330
19
100
AcDbEntity
  8
3
100
AcDbDimension
280
     0
  2
*D15
 10
607.9224940276417
 20
2774.633585960081
 30
0.0
 11
1306.259564963475
 21
2814.633585960081
 31
0.0
 12
151.4069979769483
 22
928.801433815439
 32
0.0
 70
    32
  1
1395
 71
     5
 42
-1.0
 73
     0
 74
     0
 75
     0
  3
MATSU
100
AcDbAlignedDimension
 13
2004.596635899309
 23
1946.534067823636
 33
0.0
 14
607.9224940276417
 24
1508.534067823636
 34
0.0
100
AcDbRotatedDimension
1001
ACAD
1000
DSTYLE
1002
{
1070
    40
1040
20.0
1002
}
  0
LINE
  5
7CE7
330
19
100
AcDbEntity
  8
1
100
AcDbLine
 10
2862.313633794456
 20
2378.534067823637
 30
0.0
 11
2862.313633794456
 21
2375.534067823637
 31
0.0
  0
LINE
  5
7CE8
330
19
100
AcDbEntity
  8
1
100
AcDbLine
 10
3672.313633794457
 20
2378.534067823637
 30
0.0
 11
3672.313633794456
 21
2375.534067823637
 31
0.0
  0
LINE
  5
7CE9
330
19
100
AcDbEntity
  8
1
100
AcDbLine
 10
2862.313633794456
 20
2375.534067823636
 30
0.0
 11
3672.313633794456
 21
2375.534067823637
 31
0.0
  0
LINE
  5
7CEA
330
19
100
AcDbEntity
  8
1
100
AcDbLine
 10
1002.922494027642
 20
3709.874969650706
 30
0.0
 11
1002.922494027642
 21
4459.874969650705
 31
0.0
  0
LINE
  5
7CEB
330
19
100
AcDbEntity
  8
1
100
AcDbLine
 10
2002.922494027643
 20
3709.874969650706
 30
0.0
 11
2002.922494027643
 21
4459.874969650705
 31
0.0
  0
LINE
  5
7CEC
330
19
100
AcDbEntity
  8
1
100
AcDbLine
 10
1582.922494027642
 20
3709.874969650706
 30
0.0
 11
1582.922494027642
 21
4459.874969650705
 31
0.0
  0
LINE
  5
7CED
330
19
100
AcDbEntity
  8
1
100
AcDbLine
 10
1582.922494027642
 20
4459.874969650705
 30
0.0
 11
1002.922494027642
 21
3709.874969650706
 31
0.0
  0
LINE
  5
7CEE
330
19
100
AcDbEntity
  8
1
100
AcDbLine
 10
1002.922494027642
 20
4459.874969650705
 30
0.0
 11
1580.422494027643
 21
3709.874969650706
 31
0.0
  0
LINE
  5
7CEF
330
19
100
AcDbEntity
  8
1
100
AcDbLine
 10
2882.313633794456
 20
1934.534067823636
 30
0.0
 11
2882.313633794456
 21
1834.534067823636
 31
0.0
  0
LINE
  5
7CF0
330
19
100
AcDbEntity
  8
1
100
AcDbLine
 10
2882.313633794456
 20
1934.534067823636
 30
0.0
 11
2822.313633794456
 21
1934.534067823636
 31
0.0
  0
LINE
  5
7CF1
330
19
100
AcDbEntity
  8
1
100
AcDbLine
 10
2812.313633794455
 20
1844.534067823637
 30
0.0
 11
2822.313633794455
 21
1834.534067823636
 31
0.0
  0
LINE
  5
7CF2
330
19
100
AcDbEntity
  8
1
100
AcDbLine
 10
2822.313633794456
 20
1934.534067823636
 30
0.0
 11
2812.313633794456
 21
1924.534067823637
 31
0.0
  0
LINE
  5
7CF3
330
19
100
AcDbEntity
  8
1
100
AcDbLine
 10
2882.313633794456
 20
1834.534067823636
 30
0.0
 11
2822.313633794455
 21
1834.534067823636
 31
0.0
  0
LINE
  5
7CF4
330
19
100
AcDbEntity
  8
1
100
AcDbLine
 10
2812.313633794456
 20
1924.534067823637
 30
0.0
 11
2812.313633794455
 21
1844.534067823637
 31
0.0
  0
LINE
  5
7CF5
330
19
100
AcDbEntity
  8
1
100
AcDbLine
 10
2882.313633794457
 20
1928.534067823636
 30
0.0
 11
2892.313633794456
 21
1928.534067823636
 31
0.0
  0
LINE
  5
7F18
330
19
100
AcDbEntity
  8
4
100
AcDbLine
 10
3700.0
 20
886.3198574504986
 30
0.0
 11
3700.0
 21
486.3198574504985
 31
0.0
  0
LINE
  5
7F19
330
19
100
AcDbEntity
  8
4
100
AcDbLine
 10
2300.0
 20
886.3198574504986
 30
0.0
 11
2300.0
 21
486.3198574504985
 31
0.0
  0
LINE
  5
7F1A
330
19
100
AcDbEntity
  8
4
100
AcDbLine
 10
1300.0
 20
886.3198574504986
 30
0.0
 11
1300.0
 21
486.3198574504985
 31
0.0
  0
LINE
  5
7F1D
330
19
100
AcDbEntity
  8
4
100
AcDbLine
 10
1300.0
 20
486.3198574504986
 30
0.0
 11
3700.0
 21
486.3198574504986
 31
0.0
  0
LINE
  5
7F1E
330
19
100
AcDbEntity
  8
4
100
AcDbLine
 10
1300.0
 20
686.3198574504986
 30
0.0
 11
3700.0
 21
686.3198574504986
 31
0.0
  0
TEXT
  5
7F1F
330
19
100
AcDbEntity
  8
4
100
AcDbText
 10
1377.004161693803
 20
749.4059091837243
 30
0.0
 40
100.0
  1
機器名称
100
AcDbText
  0
TEXT
  5
7F20
330
19
100
AcDbEntity
  8
4
100
AcDbText
 10
1372.516212049595
 20
529.6101709145204
 30
0.0
 40
100.0
  1
機器型番
100
AcDbText
  0
TEXT
  5
7F21
330
19
100
AcDbEntity
  8
4
100
AcDbText
 10
2356.357070020983
 20
730.252216992326
 30
0.0
 40
80.0
  1
ミツヤリミットロードファン
100
AcDbText
  0
TEXT
  5
7F22
330
19
100
AcDbEntity
  8
4
100
AcDbText
 10
2373.308991170961
 20
520.6390260103853
 30
0.0
 40
100.0
  1
LL#3 1/2-5
100
AcDbText
  0
TEXT
  5
7F24
330
19
100
AcDbEntity
  8
4
100
AcDbText
 10
1566.671428071164
 20
4766.857682665031
 30
0.0
 40
108.0
  1
床置ベット
100
AcDbText
  0
TEXT
  5
7F25
330
19
100
AcDbEntity
  8
4
100
AcDbText
 10
632.3351866588928
 20
5067.761952398596
 30
0.0
 40
144.0
  1
遠心式両吸込両持リミットロードファン
100
AcDbText
  0
LINE
  5
7F26
330
19
100
AcDbEntity
  8
4
100
AcDbLine
 10
500.0
 20
4938.817508529609
 30
0.0
 11
3700.0
 21
4938.817508529609
 31
0.0
  0
LINE
  5
7F27
330
19
100
AcDbEntity
  8
4
100
AcDbLine
 10
500.0
 20
5338.81750852961
 30
0.0
 11
3700.0
 21
5338.81750852961
 31
0.0
  0
LINE
  5
7F28
330
19
100
AcDbEntity
  8
4
100
AcDbLine
 10
1300.0
 20
886.3198574504986
 30
0.0
 11
3700.0
 21
886.3198574504986
 31
0.0
  0
LINE
  5
7F29
330
19
100
AcDbEntity
  8
4
100
AcDbLine
 10
500.0
 20
5338.81750852961
 30
0.0
 11
500.0
 21
4938.817508529609
 31
0.0
  0
TEXT
  5
7F2A
330
19
100
AcDbEntity
  8
4
100
AcDbText
 10
779.4407487094868
 20
4764.638955092687
 30
0.0
 40
108.0
  1
右回転上向
100
AcDbText
  0
TEXT
  5
7F2B
330
19
100
AcDbEntity
  8
4
100
AcDbText
 10
2937.93911849858
 20
5412.122162990618
 30
0.0
 40
112.0
  1
No.
100
AcDbText
  0
TEXT
  5
7F2C
330
19
100
AcDbEntity
  8
4
100
AcDbText
 10
2622.592125200026
 20
4766.857682665031
 30
0.0
 40
108.0
  1
縮尺：1/20
100
AcDbText
  0
LINE
  5
7F2D
330
19
100
AcDbEntity
  8
4
100
AcDbLine
 10
3700.0
 20
5338.81750852961
 30
0.0
 11
3700.0
 21
4938.817508529609
 31
0.0
  0
LINE
  5
7F2E
330
19
100
AcDbEntity
  8
4
100
AcDbLine
 10
4200.0
 20
5900.0
 30
0.0
 11
4200.0
 21
5900.0
 31
0.0
  0
LINE
  5
7F2F
330
19
100
AcDbEntity
  8
4
100
AcDbLine
 10
2881.234844719729
 20
5362.527166250802
 30
0.0
 11
2881.234844719729
 21
5573.304523099505
 31
0.0
  0
LINE
  5
7F30
330
19
100
AcDbEntity
  8
4
100
AcDbLine
 10
2881.234844719729
 20
5573.304523099505
 30
0.0
 11
3700.0
 21
5573.304523099505
 31
0.0
  0
LINE
  5
7F31
330
19
100
AcDbEntity
  8
4
100
AcDbLine
 10
3700.0
 20
5573.304523099505
 30
0.0
 11
3700.0
 21
5362.527166250802
 31
0.0
  0
LINE
  5
7F32
330
19
100
AcDbEntity
  8
4
100
AcDbLine
 10
3700.0
 20
5362.527166250802
 30
0.0
 11
2881.234844719729
 21
5362.527166250802
 31
0.0
  0
LINE
  5
7F33
330
19
100
AcDbEntity
  8
4
100
AcDbLine
 10
0.0
 20
0.0
 30
0.0
 11
0.0
 21
5900.0
 31
0.0
  0
LINE
  5
7F34
330
19
100
AcDbEntity
  8
4
100
AcDbLine
 10
0.0
 20
5900.0
 30
0.0
 11
4200.0
 21
5900.0
 31
0.0
  0
LINE
  5
7F35
330
19
100
AcDbEntity
  8
4
100
AcDbLine
 10
4200.0
 20
5900.0
 30
0.0
 11
4200.0
 21
0.0
 31
0.0
  0
LINE
  5
7F36
330
19
100
AcDbEntity
  8
4
100
AcDbLine
 10
4200.0
 20
0.0
 30
0.0
 11
0.0
 21
0.0
 31
0.0
  0
LINE
  5
7F41
330
19
100
AcDbEntity
  8
1
100
AcDbLine
 10
1002.922494027641
 20
2378.534067823637
 30
0.0
 11
1034.922494027642
 21
1988.534067823637
 31
0.0
  0
ARC
  5
7F42
330
19
100
AcDbEntity
  8
1
100
AcDbCircle
 10
1560.922494027642
 20
2030.534067823637
 30
0.0
 40
527.6741418716661
100
AcDbArc
 50
184.565262384417
 51
261.5900239905436
  0
ARC
  5
7F43
330
19
100
AcDbEntity
  8
1
100
AcDbCircle
 10
1560.922494027642
 20
1946.534067823637
 30
0.0
 40
443.6741418716667
100
AcDbArc
 50
279.1731734262361
 51
6.842773412630916
  0
ARC
  5
7F44
330
19
100
AcDbEntity
  8
1
100
AcDbCircle
 10
1635.922494027641
 20
1955.534067823636
 30
0.0
 40
368.1360719995823
100
AcDbArc
 50
6.842773412630933
 51
89.99999999999996
  0
ARC
  5
7F45
330
19
100
AcDbEntity
  8
1
100
AcDbCircle
 10
1635.922494027641
 20
2021.534067823645
 30
0.0
 40
302.1360719995741
100
AcDbArc
 50
90.0
 51
100.1029637177764
  0
DIMENSION
  5
7FC3
330
19
100
AcDbEntity
  8
3
100
AcDbDimension
280
     0
  2
*D16
 10
2147.223202342684
 20
1433.534067823637
 30
0.0
 11
2097.223202342684
 21
1711.034067823637
 31
0.0
 70
    32
 71
     5
 42
-1.0
 73
     0
 74
     0
 75
     0
  3
IGA
100
AcDbAlignedDimension
 13
1993.261843215579
 23
1988.534067823637
 33
0.0
 14
1957.922494027642
 24
1433.534067823637
 34
0.0
 50
90.0
100
AcDbRotatedDimension
1001
ACAD
1000
DSTYLE
1002
{
1070
   287
1070
     4
1070
    40
1040
20.0
1070
    75
1070
     1
1070
   143
1040
0.039
1070
   172
1070
     1
1070
   271
1070
     0
1070
   279
1070
     1
1070
   288
1070
     1
1002
}
  0
DIMENSION
  5
813F
330
19
100
AcDbEntity
  8
3
100
AcDbDimension
280
     0
  2
*D19
 10
1602.922494027642
 20
1304.331918274354
 30
0.0
 11
1105.422494027642
 21
1354.331918274354
 31
0.0
 70
    32
 71
     5
 42
-1.0
 73
     0
 74
     0
 75
     0
  3
IGA
100
AcDbAlignedDimension
 13
607.9224940276417
 23
1433.534067823637
 33
0.0
 14
1602.922494027642
 24
1433.534067823637
 34
0.0
100
AcDbRotatedDimension
1001
ACAD
1000
DSTYLE
1002
{
1070
   172
1070
     1
1070
    40
1040
20.0
1070
   271
1070
     0
1070
   143
1040
0.039
1002
}
  0
DIMENSION
  5
814C
330
19
100
AcDbEntity
  8
3
100
AcDbDimension
280
     0
  2
*D20
 10
1957.922494027642
 20
1304.331918274354
 30
0.0
 11
1780.422494027641
 21
1354.331918274354
 31
0.0
 70
    32
 71
     5
 42
-1.0
 73
     0
 74
     0
 75
     0
  3
IGA
100
AcDbAlignedDimension
 13
1602.922494027642
 23
1433.534067823637
 33
0.0
 14
1957.922494027642
 24
1433.534067823637
 34
0.0
100
AcDbRotatedDimension
1001
ACAD
1000
DSTYLE
1002
{
1070
   172
1070
     1
1070
    40
1040
20.0
1070
   271
1070
     0
1070
   143
1040
0.039
1002
}
  0
DIMENSION
  5
8159
330
19
100
AcDbEntity
  8
3
100
AcDbDimension
280
     0
  2
*D21
 10
3267.313633794456
 20
1304.331918274354
 30
0.0
 11
3013.813633794455
 21
1354.331918274354
 31
0.0
 70
    32
 71
     5
 42
-1.0
 73
     0
 74
     0
 75
     0
  3
IGA
100
AcDbAlignedDimension
 13
2760.313633794456
 23
1433.534067823637
 33
0.0
 14
3267.313633794456
 24
1433.534067823637
 34
0.0
100
AcDbRotatedDimension
1001
ACAD
1000
DSTYLE
1002
{
1070
   172
1070
     1
1070
    40
1040
20.0
1070
   271
1070
     0
1070
   143
1040
0.039
1002
}
  0
DIMENSION
  5
8166
330
19
100
AcDbEntity
  8
3
100
AcDbDimension
280
     0
  2
*D22
 10
3685.313633794456
 20
1304.331918274354
 30
0.0
 11
3476.313633794456
 21
1354.331918274354
 31
0.0
 70
    32
 71
     5
 42
-1.0
 73
     0
 74
     0
 75
     0
  3
IGA
100
AcDbAlignedDimension
 13
3267.313633794456
 23
1433.534067823637
 33
0.0
 14
3685.313633794456
 24
1433.534067823637
 34
0.0
100
AcDbRotatedDimension
1001
ACAD
1000
DSTYLE
1002
{
1070
   172
1070
     1
1070
    40
1040
20.0
1070
   271
1070
     0
1070
   143
1040
0.039
1002
}
  0
DIMENSION
  5
8173
330
19
100
AcDbEntity
  8
3
100
AcDbDimension
280
     0
  2
*D23
 10
2281.919094893423
 20
1433.534067823637
 30
0.0
 11
2231.919094893423
 21
1906.034067823637
 31
0.0
 70
    32
 71
     5
 42
-1.0
 73
     0
 74
     0
 75
     0
  3
IGA
100
AcDbAlignedDimension
 13
1614.922494027642
 23
2378.534067823637
 33
0.0
 14
1957.922494027642
 24
1433.534067823637
 34
0.0
 50
90.0
100
AcDbRotatedDimension
1001
ACAD
1000
DSTYLE
1002
{
1070
   172
1070
     1
1070
    40
1040
20.0
1070
   271
1070
     0
1070
   143
1040
0.039
1002
}
  0
ENDSEC
  0
SECTION
  2
OBJECTS
  0
DICTIONARY
  5
C
330
0
100
AcDbDictionary
281
     1
  3
ACAD_CIP_PREVIOUS_PRODUCT_INFO
350
8250
  3
ACAD_COLOR
350
8233
  3
ACAD_DETAILVIEWSTYLE
350
824C
  3
ACAD_GROUP
350
D
  3
ACAD_LAYOUT
350
8184
  3
ACAD_MATERIAL
350
8201
  3
ACAD_MLEADERSTYLE
350
8248
  3
ACAD_MLINESTYLE
350
E
  3
ACAD_PLOTSETTINGS
350
8185
  3
ACAD_PLOTSTYLENAME
350
8182
  3
ACAD_SCALELIST
350
8236
  3
ACAD_SECTIONVIEWSTYLE
350
824A
  3
ACAD_TABLESTYLE
350
8234
  3
ACAD_VISUALSTYLE
350
821A
  3
ACDB_RECOMPOSE_DATA
350
82B1
  3
AcDbVariableDictionary
350
82A0
  3
AcDsDecomposeData
350
82B7
  0
DICTIONARY
  5
8294
330
2
100
AcDbDictionary
280
     1
281
     1
  3
ACAD_LAYERSTATES
360
8295
  0
DICTIONARY
  5
8287
330
F
100
AcDbDictionary
280
     1
281
     1
  3
ADSK_XREC_LAYER_RECONCILED
360
8288
  0
DICTIONARY
  5
8289
330
31
100
AcDbDictionary
280
     1
281
     1
  3
ADSK_XREC_LAYER_RECONCILED
360
828A
  0
DICTIONARY
  5
828B
330
76D0
100
AcDbDictionary
280
     1
281
     1
  3
ADSK_XREC_LAYER_RECONCILED
360
828C
  0
DICTIONARY
  5
828D
330
76D1
100
AcDbDictionary
280
     1
281
     1
  3
ADSK_XREC_LAYER_RECONCILED
360
828E
  0
DICTIONARY
  5
828F
330
76D2
100
AcDbDictionary
280
     1
281
     1
  3
ADSK_XREC_LAYER_RECONCILED
360
8290
  0
DICTIONARY
  5
81B1
330
19
100
AcDbDictionary
280
     1
281
     1
  3
ACAD_LAYOUTSELFREF
360
81B2
  0
DICTIONARY
  5
81AF
330
16
100
AcDbDictionary
280
     1
281
     1
  3
ACAD_LAYOUTSELFREF
360
81B0
  0
XRECORD
  5
8250
102
{ACAD_REACTORS
330
C
102
}
330
C
100
AcDbXrecord
280
     1
300
ACDLT
300
2023
300

  0
DICTIONARY
  5
8233
102
{ACAD_REACTORS
330
C
102
}
330
C
100
AcDbDictionary
281
     1
  0
DICTIONARY
  5
824C
102
{ACAD_REACTORS
330
C
102
}
330
C
100
AcDbDictionary
281
     1
  3
Metric50
350
824D
  0
DICTIONARY
  5
D
102
{ACAD_REACTORS
330
C
102
}
330
C
100
AcDbDictionary
281
     1
  0
DICTIONARY
  5
8184
102
{ACAD_REACTORS
330
C
102
}
330
C
100
AcDbDictionary
281
     1
  3
Model
350
8186
  3
ﾚｲｱｳﾄ1
350
8187
  0
DICTIONARY
  5
8201
102
{ACAD_REACTORS
330
C
102
}
330
C
100
AcDbDictionary
281
     1
  3
ByBlock
350
820A
  3
ByLayer
350
8202
  3
Global
350
8212
  0
DICTIONARY
  5
8248
102
{ACAD_REACTORS
330
C
102
}
330
C
100
AcDbDictionary
281
     1
  3
Standard
350
8249
  0
DICTIONARY
  5
E
102
{ACAD_REACTORS
330
C
102
}
330
C
100
AcDbDictionary
281
     1
  3
STANDARD
350
1C
  0
DICTIONARY
  5
8185
102
{ACAD_REACTORS
330
C
102
}
330
C
100
AcDbDictionary
281
     1
  0
ACDBDICTIONARYWDFLT
  5
8182
102
{ACAD_REACTORS
330
C
102
}
330
C
100
AcDbDictionary
281
     1
  3
Normal
350
8183
100
AcDbDictionaryWithDefault
340
8183
  0
DICTIONARY
  5
8236
102
{ACAD_REACTORS
330
C
102
}
330
C
100
AcDbDictionary
281
     1
  3
A0
350
8237
  3
A1
350
8238
  3
A2
350
8239
  3
A3
350
823A
  3
A4
350
823B
  3
A5
350
823C
  3
A6
350
823D
  3
A7
350
823E
  3
A8
350
823F
  3
A9
350
8240
  3
B0
350
8241
  3
B1
350
8242
  3
B2
350
8243
  3
B3
350
8244
  3
B4
350
8245
  3
B5
350
8246
  3
B6
350
8247
  0
DICTIONARY
  5
824A
102
{ACAD_REACTORS
330
C
102
}
330
C
100
AcDbDictionary
281
     1
  3
Metric50
350
824B
  0
DICTIONARY
  5
8234
102
{ACAD_REACTORS
330
C
102
}
330
C
100
AcDbDictionary
281
     1
  3
Standard
350
8235
  0
DICTIONARY
  5
821A
102
{ACAD_REACTORS
330
C
102
}
330
C
100
AcDbDictionary
281
     1
  3
2dWireframe
350
8220
  3
Basic
350
821F
  3
Brighten
350
8226
  3
ColorChange
350
822A
  3
Conceptual
350
8223
  3
Dim
350
8225
  3
EdgeColorOff
350
8232
  3
Facepattern
350
8229
  3
Flat
350
821B
  3
FlatWithEdges
350
821C
  3
Gouraud
350
821D
  3
GouraudWithEdges
350
821E
  3
Hidden
350
8222
  3
JitterOff
350
8230
  3
Linepattern
350
8228
  3
OverhangOff
350
8231
  3
Realistic
350
8224
  3
Shaded
350
822F
  3
Shaded with edges
350
822E
  3
Shades of Gray
350
822B
  3
Sketchy
350
822C
  3
Thicken
350
8227
  3
Wireframe
350
8221
  3
X-Ray
350
822D
  0
XRECORD
  5
82B1
102
{ACAD_REACTORS
330
C
102
}
330
C
100
AcDbXrecord
280
     1
 90
        1
330
7CC4
330
7CD0
330
8235
  0
DICTIONARY
  5
82A0
102
{ACAD_REACTORS
330
C
102
}
330
C
100
AcDbDictionary
281
     1
  3
CANNOSCALE
350
82A6
  3
CMLEADERSTYLE
350
82A2
  3
CTABLESTYLE
350
82A1
  3
CVIEWDETAILSTYLE
350
82A3
  3
CVIEWSECTIONSTYLE
350
82A4
  3
LAYEREVAL
350
82A8
  3
LAYERNOTIFY
350
82A9
  3
LIGHTINGUNITS
350
82A7
  3
MARKUPASSISTMODE
350
82AE
  3
MSLTSCALE
350
82A5
  0
DICTIONARY
  5
82B7
102
{ACAD_REACTORS
330
C
102
}
330
C
100
AcDbDictionary
281
     1
  3
AcDsRecords
350
82B9
  3
AcDsSchemas
350
82B8
1001
ACAD
1070
     2
  0
DICTIONARY
  5
8295
102
{ACAD_REACTORS
330
8294
102
}
330
8294
100
AcDbDictionary
281
     1
  0
XRECORD
  5
8288
102
{ACAD_REACTORS
330
8287
102
}
330
8287
100
AcDbXrecord
280
     1
290
     1
  0
XRECORD
  5
828A
102
{ACAD_REACTORS
330
8289
102
}
330
8289
100
AcDbXrecord
280
     1
290
     1
  0
XRECORD
  5
828C
102
{ACAD_REACTORS
330
828B
102
}
330
828B
100
AcDbXrecord
280
     1
290
     1
  0
XRECORD
  5
828E
102
{ACAD_REACTORS
330
828D
102
}
330
828D
100
AcDbXrecord
280
     1
290
     1
  0
XRECORD
  5
8290
102
{ACAD_REACTORS
330
828F
102
}
330
828F
100
AcDbXrecord
280
     1
290
     1
  0
XRECORD
  5
81B2
102
{ACAD_REACTORS
330
81B1
102
}
330
81B1
100
AcDbXrecord
280
     1
340
19
  0
XRECORD
  5
81B0
102
{ACAD_REACTORS
330
81AF
102
}
330
81AF
100
AcDbXrecord
280
     1
340
16
  0
ACDBDETAILVIEWSTYLE
  5
824D
102
{ACAD_XDICTIONARY
360
82BC
102
}
102
{ACAD_REACTORS
330
824C
102
}
330
824C
100
AcDbModelDocViewStyle
 70
     0
  3
Metric50
290
     0
100
AcDbDetailViewStyle
 70
     0
 71
     0
 90
        3
 71
     1
340
10
 62
   256
 40
5.0
340
0
 62
   256
 40
5.0
300

 40
0.0
280
     1
 71
     2
340
15
 90
       25
 62
   256
 71
     3
340
10
 62
   256
 40
5.0
 90
        0
 40
15.0
 90
        1
300
%<\AcVar ViewDetailId>% (%<\AcVar ViewScale \f "%sn">%)
 71
     4
340
15
 90
       25
 62
   256
340
15
 90
       25
 62
   256
280
     0
  0
LAYOUT
  5
8186
102
{ACAD_REACTORS
330
8184
102
}
330
8184
100
AcDbPlotSettings
  1

  2
EPSON LP-9300
  4

  6

 40
0.0
 41
0.0
 42
0.0
 43
0.0
 44
0.0
 45
0.0
 46
0.0
 47
0.0
 48
0.0
 49
0.0
140
0.0
141
0.0
142
1.0
143
1.0
 70
  1712
 72
     0
 73
     0
 74
     0
  7

 75
     0
147
1.0
 76
     0
 77
     2
 78
   300
148
0.0
149
0.0
100
AcDbLayout
  1
Model
 70
     1
 71
     0
 10
0.0
 20
0.0
 11
12.0
 21
9.0
 12
0.0
 22
0.0
 32
0.0
 14
0.0
 24
0.0
 34
0.0
 15
0.0
 25
0.0
 35
0.0
146
0.0
 13
0.0
 23
0.0
 33
0.0
 16
1.0
 26
0.0
 36
0.0
 17
0.0
 27
1.0
 37
0.0
 76
     0
330
19
331
81FF
  0
LAYOUT
  5
8187
102
{ACAD_REACTORS
330
8184
102
}
330
8184
100
AcDbPlotSettings
  1

  2
EPSON LP-9300
  4

  6

 40
0.0
 41
0.0
 42
0.0
 43
0.0
 44
0.0
 45
0.0
 46
0.0
 47
0.0
 48
0.0
 49
0.0
140
0.0
141
0.0
142
1.0
143
1.0
 70
   688
 72
     0
 73
     0
 74
     5
  7

 75
    16
147
1.0
 76
     0
 77
     2
 78
   300
148
0.0
149
0.0
100
AcDbLayout
  1
ﾚｲｱｳﾄ1
 70
     1
 71
     1
 10
0.0
 20
0.0
 11
12.0
 21
9.0
 12
0.0
 22
0.0
 32
0.0
 14
1.000000000000000E+20
 24
1.000000000000000E+20
 34
1.000000000000000E+20
 15
-1.000000000000000E+20
 25
-1.000000000000000E+20
 35
-1.000000000000000E+20
146
0.0
 13
0.0
 23
0.0
 33
0.0
 16
1.0
 26
0.0
 36
0.0
 17
0.0
 27
1.0
 37
0.0
 76
     0
330
16
  0
MATERIAL
  5
820A
102
{ACAD_XDICTIONARY
360
820B
102
}
102
{ACAD_REACTORS
330
8201
102
}
330
8201
100
AcDbMaterial
  1
ByBlock
 72
     0
 43
0.0208333333333333
 43
0.0
 43
0.0
 43
0.0
 43
0.0
 43
0.0208333333333333
 43
0.0
 43
0.0
 43
0.0
 43
0.0
 43
1.0
 43
0.0
 43
0.0
 43
0.0
 43
0.0
 43
1.0
 77
     0
 47
0.0208333333333333
 47
0.0
 47
0.0
 47
0.0
 47
0.0
 47
0.0208333333333333
 47
0.0
 47
0.0
 47
0.0
 47
0.0
 47
1.0
 47
0.0
 47
0.0
 47
0.0
 47
0.0
 47
1.0
171
     0
 49
0.0208333333333333
 49
0.0
 49
0.0
 49
0.0
 49
0.0
 49
0.0208333333333333
 49
0.0
 49
0.0
 49
0.0
 49
0.0
 49
1.0
 49
0.0
 49
0.0
 49
0.0
 49
0.0
 49
1.0
175
     0
142
0.0208333333333333
142
0.0
142
0.0
142
0.0
142
0.0
142
0.0208333333333333
142
0.0
142
0.0
142
0.0
142
0.0
142
1.0
142
0.0
142
0.0
142
0.0
142
0.0
142
1.0
179
     0
144
0.0208333333333333
144
0.0
144
0.0
144
0.0
144
0.0
144
0.0208333333333333
144
0.0
144
0.0
144
0.0
144
0.0
144
1.0
144
0.0
144
0.0
144
0.0
144
0.0
144
1.0
147
0.0208333333333333
147
0.0
147
0.0
147
0.0
147
0.0
147
0.0208333333333333
147
0.0
147
0.0
147
0.0
147
0.0
147
1.0
147
0.0
147
0.0
147
0.0
147
0.0
147
1.0
  0
MATERIAL
  5
8202
102
{ACAD_XDICTIONARY
360
8203
102
}
102
{ACAD_REACTORS
330
8201
102
}
330
8201
100
AcDbMaterial
  1
ByLayer
 72
     0
 43
0.0208333333333333
 43
0.0
 43
0.0
 43
0.0
 43
0.0
 43
0.0208333333333333
 43
0.0
 43
0.0
 43
0.0
 43
0.0
 43
1.0
 43
0.0
 43
0.0
 43
0.0
 43
0.0
 43
1.0
 77
     0
 47
0.0208333333333333
 47
0.0
 47
0.0
 47
0.0
 47
0.0
 47
0.0208333333333333
 47
0.0
 47
0.0
 47
0.0
 47
0.0
 47
1.0
 47
0.0
 47
0.0
 47
0.0
 47
0.0
 47
1.0
171
     0
 49
0.0208333333333333
 49
0.0
 49
0.0
 49
0.0
 49
0.0
 49
0.0208333333333333
 49
0.0
 49
0.0
 49
0.0
 49
0.0
 49
1.0
 49
0.0
 49
0.0
 49
0.0
 49
0.0
 49
1.0
175
     0
142
0.0208333333333333
142
0.0
142
0.0
142
0.0
142
0.0
142
0.0208333333333333
142
0.0
142
0.0
142
0.0
142
0.0
142
1.0
142
0.0
142
0.0
142
0.0
142
0.0
142
1.0
179
     0
144
0.0208333333333333
144
0.0
144
0.0
144
0.0
144
0.0
144
0.0208333333333333
144
0.0
144
0.0
144
0.0
144
0.0
144
1.0
144
0.0
144
0.0
144
0.0
144
0.0
144
1.0
147
0.0208333333333333
147
0.0
147
0.0
147
0.0
147
0.0
147
0.0208333333333333
147
0.0
147
0.0
147
0.0
147
0.0
147
1.0
147
0.0
147
0.0
147
0.0
147
0.0
147
1.0
  0
MATERIAL
  5
8212
102
{ACAD_XDICTIONARY
360
8213
102
}
102
{ACAD_REACTORS
330
8201
102
}
330
8201
100
AcDbMaterial
  1
Global
 72
     0
 43
0.0208333333333333
 43
0.0
 43
0.0
 43
0.0
 43
0.0
 43
0.0208333333333333
 43
0.0
 43
0.0
 43
0.0
 43
0.0
 43
1.0
 43
0.0
 43
0.0
 43
0.0
 43
0.0
 43
1.0
 77
     0
 47
0.0208333333333333
 47
0.0
 47
0.0
 47
0.0
 47
0.0
 47
0.0208333333333333
 47
0.0
 47
0.0
 47
0.0
 47
0.0
 47
1.0
 47
0.0
 47
0.0
 47
0.0
 47
0.0
 47
1.0
171
     0
 49
0.0208333333333333
 49
0.0
 49
0.0
 49
0.0
 49
0.0
 49
0.0208333333333333
 49
0.0
 49
0.0
 49
0.0
 49
0.0
 49
1.0
 49
0.0
 49
0.0
 49
0.0
 49
0.0
 49
1.0
175
     0
142
0.0208333333333333
142
0.0
142
0.0
142
0.0
142
0.0
142
0.0208333333333333
142
0.0
142
0.0
142
0.0
142
0.0
142
1.0
142
0.0
142
0.0
142
0.0
142
0.0
142
1.0
179
     0
144
0.0208333333333333
144
0.0
144
0.0
144
0.0
144
0.0
144
0.0208333333333333
144
0.0
144
0.0
144
0.0
144
0.0
144
1.0
144
0.0
144
0.0
144
0.0
144
0.0
144
1.0
147
0.0208333333333333
147
0.0
147
0.0
147
0.0
147
0.0
147
0.0208333333333333
147
0.0
147
0.0
147
0.0
147
0.0
147
1.0
147
0.0
147
0.0
147
0.0
147
0.0
147
1.0
  0
MLEADERSTYLE
  5
8249
102
{ACAD_REACTORS
330
8248
102
}
330
8248
100
AcDbMLeaderStyle
179
     2
170
     2
171
     1
172
     0
 90
        2
 40
0.0
 41
0.0
173
     1
 91
-1056964608
340
13
 92
       -2
290
     1
 42
2.0
291
     1
 43
0.36
  3
Standard
 44
4.0
300

342
10
174
     1
178
     6
175
     1
176
     0
 93
-1056964608
 45
4.0
292
     0
297
     0
 46
4.0
 94
-1056964608
 47
1.0
 49
1.0
140
1.0
293
     1
141
0.0
294
     1
177
     0
142
1.0
295
     0
296
     0
143
0.125
271
     0
272
     9
273
     9
298
     1
  0
MLINESTYLE
  5
1C
102
{ACAD_REACTORS
330
E
102
}
330
E
100
AcDbMlineStyle
  2
STANDARD
 70
     0
  3

 62
     0
 51
90.0
 52
90.0
 71
     2
 49
0.5
 62
   256
  6
BYLAYER
 49
-0.5
 62
   256
  6
BYLAYER
  0
ACDBPLACEHOLDER
  5
8183
102
{ACAD_REACTORS
330
8182
102
}
330
8182
  0
SCALE
  5
8237
102
{ACAD_REACTORS
330
8236
102
}
330
8236
100
AcDbScale
 70
     0
300
1:1
140
1.0
141
1.0
290
     1
  0
SCALE
  5
8238
102
{ACAD_REACTORS
330
8236
102
}
330
8236
100
AcDbScale
 70
     0
300
1:2
140
1.0
141
2.0
290
     0
  0
SCALE
  5
8239
102
{ACAD_REACTORS
330
8236
102
}
330
8236
100
AcDbScale
 70
     0
300
1:4
140
1.0
141
4.0
290
     0
  0
SCALE
  5
823A
102
{ACAD_REACTORS
330
8236
102
}
330
8236
100
AcDbScale
 70
     0
300
1:5
140
1.0
141
5.0
290
     0
  0
SCALE
  5
823B
102
{ACAD_REACTORS
330
8236
102
}
330
8236
100
AcDbScale
 70
     0
300
1:8
140
1.0
141
8.0
290
     0
  0
SCALE
  5
823C
102
{ACAD_REACTORS
330
8236
102
}
330
8236
100
AcDbScale
 70
     0
300
1:10
140
1.0
141
10.0
290
     0
  0
SCALE
  5
823D
102
{ACAD_REACTORS
330
8236
102
}
330
8236
100
AcDbScale
 70
     0
300
1:16
140
1.0
141
16.0
290
     0
  0
SCALE
  5
823E
102
{ACAD_REACTORS
330
8236
102
}
330
8236
100
AcDbScale
 70
     0
300
1:20
140
1.0
141
20.0
290
     0
  0
SCALE
  5
823F
102
{ACAD_REACTORS
330
8236
102
}
330
8236
100
AcDbScale
 70
     0
300
1:30
140
1.0
141
30.0
290
     0
  0
SCALE
  5
8240
102
{ACAD_REACTORS
330
8236
102
}
330
8236
100
AcDbScale
 70
     0
300
1:40
140
1.0
141
40.0
290
     0
  0
SCALE
  5
8241
102
{ACAD_REACTORS
330
8236
102
}
330
8236
100
AcDbScale
 70
     0
300
1:50
140
1.0
141
50.0
290
     0
  0
SCALE
  5
8242
102
{ACAD_REACTORS
330
8236
102
}
330
8236
100
AcDbScale
 70
     0
300
1:100
140
1.0
141
100.0
290
     0
  0
SCALE
  5
8243
102
{ACAD_REACTORS
330
8236
102
}
330
8236
100
AcDbScale
 70
     0
300
2:1
140
2.0
141
1.0
290
     0
  0
SCALE
  5
8244
102
{ACAD_REACTORS
330
8236
102
}
330
8236
100
AcDbScale
 70
     0
300
4:1
140
4.0
141
1.0
290
     0
  0
SCALE
  5
8245
102
{ACAD_REACTORS
330
8236
102
}
330
8236
100
AcDbScale
 70
     0
300
8:1
140
8.0
141
1.0
290
     0
  0
SCALE
  5
8246
102
{ACAD_REACTORS
330
8236
102
}
330
8236
100
AcDbScale
 70
     0
300
10:1
140
10.0
141
1.0
290
     0
  0
SCALE
  5
8247
102
{ACAD_REACTORS
330
8236
102
}
330
8236
100
AcDbScale
 70
     0
300
100:1
140
100.0
141
1.0
290
     0
  0
ACDBSECTIONVIEWSTYLE
  5
824B
102
{ACAD_XDICTIONARY
360
82BA
102
}
102
{ACAD_REACTORS
330
824A
102
}
330
824A
100
AcDbModelDocViewStyle
 70
     0
  3
Metric50
290
     0
100
AcDbSectionViewStyle
 70
     0
 71
     0
 90
      102
 71
     1
340
10
 62
   256
 40
5.0
340
0
340
0
 62
   256
 40
5.0
300
I, O, Q, S, X, Z
 40
10.0
 90
        0
 40
2.5
 90
        0
 71
     2
340
15
 90
       25
 62
   256
340
15
 90
       50
 62
   256
 40
5.0
 40
2.5
 40
5.0
 71
     3
340
10
 62
   256
 40
5.0
 90
        0
 40
15.0
 90
        1
300
%<\AcVar ViewSectionStartId>%-%<\AcVar ViewSectionEndId>% (%<\AcVar ViewScale \f "%sn">%)
 71
     4
 62
   256
 62
   257
300
ANSI31
 40
1.0
 90
        0
290
     0
290
     0
 90
        6
 40
0.0
 40
1.570796326794896
 40
0.2617993877991494
 40
1.308996938995747
 40
-0.2617993877991494
 40
1.832595714594046
  0
TABLESTYLE
  5
8235
102
{ACAD_XDICTIONARY
360
82AF
102
}
102
{ACAD_REACTORS
330
8234
102
}
330
8234
100
AcDbTableStyle
280
     0
  3
Standard
 70
     0
 71
     0
 40
1.5
 41
1.5
280
     0
281
     0
  7
STANDARD
140
4.5
170
     2
 62
     0
 63
     7
283
     0
 90
      512
 91
        0
  1

274
    -2
284
     1
 64
     0
275
    -2
285
     1
 65
     0
276
    -2
286
     1
 66
     0
277
    -2
287
     1
 67
     0
278
    -2
288
     1
 68
     0
279
    -2
289
     1
 69
     0
  7
STANDARD
140
6.0
170
     5
 62
     0
 63
     7
283
     0
 90
      512
 91
        0
  1

274
    -2
284
     1
 64
     0
275
    -2
285
     1
 65
     0
276
    -2
286
     1
 66
     0
277
    -2
287
     1
 67
     0
278
    -2
288
     1
 68
     0
279
    -2
289
     1
 69
     0
  7
STANDARD
140
4.5
170
     5
 62
     0
 63
     7
283
     0
 90
      512
 91
        0
  1

274
    -2
284
     1
 64
     0
275
    -2
285
     1
 65
     0
276
    -2
286
     1
 66
     0
277
    -2
287
     1
 67
     0
278
    -2
288
     1
 68
     0
279
    -2
289
     1
 69
     0
  0
VISUALSTYLE
  5
8220
102
{ACAD_REACTORS
330
821A
102
}
330
821A
100
AcDbVisualStyle
  2
2dWireframe
 70
     4
177
     3
291
     0
 70
    58
 90
        0
176
     1
 90
        2
176
     1
 90
        0
176
     1
 90
        0
176
     1
 40
0.6
176
     1
 40
30.0
176
     1
 62
     7
420
 16777215
176
     1
 90
        1
176
     1
 90
        4
176
     1
 62
     7
176
     1
 62
   257
176
     1
 90
        1
176
     1
 90
        1
176
     1
 40
1.0
176
     1
 90
        0
176
     1
 62
   257
176
     1
 40
1.0
176
     1
 90
        1
176
     1
 90
        6
176
     1
 90
        2
176
     1
 62
     7
176
     1
 90
        5
176
     1
 90
        0
176
     1
 90
        0
176
     1
290
     0
176
     1
 90
        1
176
     1
 40
0.0
176
     1
 90
        0
176
     1
290
     1
176
     1
290
     1
176
     1
290
     0
176
     1
290
     0
176
     1
290
     0
176
     1
290
     0
176
     1
290
     0
176
     1
290
     0
176
     1
290
     0
176
     1
 90
       50
176
     1
 40
0.0
176
     1
 40
1.0
176
     1
 90
        0
176
     1
 62
    18
420
        0
176
     1
 90
       50
176
     1
 90
        3
176
     1
 62
     5
420
      255
176
     1
290
     0
176
     1
 90
       50
176
     1
 90
       50
176
     1
 90
       50
176
     1
290
     0
176
     1
 90
       50
176
     1
 62
   256
176
     0
 40
1.0
176
     0
 90
        2
176
     1
  1
strokes_ogs.tif
176
     1
290
     0
176
     1
 40
1.0
176
     1
 40
1.0
176
     1
1001
ACAD
1000
AcDbSavedByObjectVersion
1070
     0
  0
VISUALSTYLE
  5
821F
102
{ACAD_REACTORS
330
821A
102
}
330
821A
100
AcDbVisualStyle
  2
Basic
 70
     7
177
     3
291
     1
 70
    58
 90
        1
176
     1
 90
        0
176
     1
 90
        1
176
     1
 90
        0
176
     1
 40
0.6
176
     1
 40
30.0
176
     1
 62
     7
420
 16777215
176
     1
 90
        0
176
     1
 90
        4
176
     1
 62
     7
176
     1
 62
   257
176
     1
 90
        1
176
     1
 90
        1
176
     1
 40
1.0
176
     1
 90
        8
176
     1
 62
     7
176
     1
 40
1.0
176
     1
 90
        1
176
     1
 90
        6
176
     1
 90
        2
176
     1
 62
     7
176
     1
 90
        5
176
     1
 90
        0
176
     1
 90
        0
176
     1
290
     0
176
     1
 90
        1
176
     1
 40
0.0
176
     1
 90
        0
176
     1
290
     0
176
     1
290
     1
176
     1
290
     1
176
     1
290
     0
176
     1
290
     0
176
     1
290
     0
176
     1
290
     0
176
     1
290
     0
176
     1
290
     0
176
     1
 90
       50
176
     1
 40
0.0
176
     1
 40
1.0
176
     1
 90
        0
176
     1
 62
    18
420
        0
176
     1
 90
       50
176
     1
 90
        3
176
     1
 62
     5
420
      255
176
     1
290
     0
176
     1
 90
       50
176
     1
 90
       50
176
     1
 90
       50
176
     1
290
     0
176
     1
 90
       50
176
     1
 62
   256
176
     0
 40
1.0
176
     0
 90
        2
176
     1
  1
strokes_ogs.tif
176
     1
290
     0
176
     1
 40
1.0
176
     1
 40
1.0
176
     1
1001
ACAD
1000
AcDbSavedByObjectVersion
1070
     0
  0
VISUALSTYLE
  5
8226
102
{ACAD_REACTORS
330
821A
102
}
330
821A
100
AcDbVisualStyle
  2
Brighten
 70
    12
177
     3
291
     1
 70
    58
 90
        2
176
     1
 90
        2
176
     1
 90
        0
176
     1
 90
        0
176
     1
 40
0.6
176
     1
 40
30.0
176
     1
 62
     7
420
 16777215
176
     1
 90
        1
176
     1
 90
        4
176
     1
 62
     7
176
     1
 62
   257
176
     1
 90
        1
176
     1
 90
        1
176
     1
 40
1.0
176
     1
 90
        8
176
     1
 62
     7
176
     1
 40
1.0
176
     1
 90
        1
176
     1
 90
        6
176
     1
 90
        2
176
     1
 62
     7
176
     1
 90
        5
176
     1
 90
        0
176
     1
 90
        0
176
     1
290
     0
176
     1
 90
        1
176
     1
 40
50.0
176
     1
 90
        0
176
     1
290
     0
176
     1
290
     1
176
     1
290
     1
176
     1
290
     0
176
     1
290
     0
176
     1
290
     0
176
     1
290
     0
176
     1
290
     0
176
     1
290
     0
176
     1
 90
       50
176
     1
 40
0.0
176
     1
 40
1.0
176
     1
 90
        0
176
     1
 62
    18
420
        0
176
     1
 90
       50
176
     1
 90
        3
176
     1
 62
     5
420
      255
176
     1
290
     0
176
     1
 90
       50
176
     1
 90
       50
176
     1
 90
       50
176
     1
290
     0
176
     1
 90
       50
176
     1
 62
   256
176
     0
 40
1.0
176
     0
 90
        2
176
     1
  1
strokes_ogs.tif
176
     1
290
     0
176
     1
 40
1.0
176
     1
 40
1.0
176
     1
1001
ACAD
1000
AcDbSavedByObjectVersion
1070
     0
  0
VISUALSTYLE
  5
822A
102
{ACAD_REACTORS
330
821A
102
}
330
821A
100
AcDbVisualStyle
  2
ColorChange
 70
    16
177
     3
291
     1
 70
    58
 90
        2
176
     1
 90
        2
176
     1
 90
        3
176
     1
 90
        0
176
     1
 40
0.6
176
     1
 40
30.0
176
     1
 62
     8
420
  8421504
176
     1
 90
        1
176
     1
 90
        4
176
     1
 62
     7
176
     1
 62
   257
176
     1
 90
        1
176
     1
 90
        1
176
     1
 40
1.0
176
     1
 90
        8
176
     1
 62
     8
420
  8421504
176
     1
 40
1.0
176
     1
 90
        1
176
     1
 90
        6
176
     1
 90
        2
176
     1
 62
     7
176
     1
 90
        5
176
     1
 90
        0
176
     1
 90
        0
176
     1
290
     0
176
     1
 90
        1
176
     1
 40
0.0
176
     1
 90
        0
176
     1
290
     0
176
     1
290
     1
176
     1
290
     1
176
     1
290
     0
176
     1
290
     0
176
     1
290
     0
176
     1
290
     0
176
     1
290
     0
176
     1
290
     0
176
     1
 90
       50
176
     1
 40
0.0
176
     1
 40
1.0
176
     1
 90
        0
176
     1
 62
    18
420
        0
176
     1
 90
       50
176
     1
 90
        3
176
     1
 62
     5
420
      255
176
     1
290
     0
176
     1
 90
       50
176
     1
 90
       50
176
     1
 90
       50
176
     1
290
     0
176
     1
 90
       50
176
     1
 62
   256
176
     0
 40
1.0
176
     0
 90
        2
176
     1
  1
strokes_ogs.tif
176
     1
290
     0
176
     1
 40
1.0
176
     1
 40
1.0
176
     1
1001
ACAD
1000
AcDbSavedByObjectVersion
1070
     0
  0
VISUALSTYLE
  5
8223
102
{ACAD_REACTORS
330
821A
102
}
330
821A
100
AcDbVisualStyle
  2
Conceptual
 70
     9
177
     3
291
     0
 70
    58
 90
        3
176
     1
 90
        2
176
     1
 90
        0
176
     1
 90
        0
176
     1
 40
0.6
176
     1
 40
30.0
176
     1
 62
     7
420
 16777215
176
     1
 90
        2
176
     1
 90
        2
176
     1
 62
     7
176
     1
 62
   257
176
     1
 90
        1
176
     1
 90
        1
176
     1
 40
179.0
176
     1
 90
        8
176
     1
 62
     7
176
     1
 40
1.0
176
     1
 90
        1
176
     1
 90
        6
176
     1
 90
        2
176
     1
 62
     7
176
     1
 90
        3
176
     1
 90
        0
176
     1
 90
        0
176
     1
290
     0
176
     1
 90
        1
176
     1
 40
0.0
176
     1
 90
        0
176
     1
290
     0
176
     1
290
     1
176
     1
290
     1
176
     1
290
     0
176
     1
290
     0
176
     1
290
     0
176
     1
290
     0
176
     1
290
     0
176
     1
290
     0
176
     1
 90
       50
176
     1
 40
0.0
176
     1
 40
1.0
176
     1
 90
        0
176
     1
 62
    18
420
        0
176
     1
 90
       50
176
     1
 90
        3
176
     1
 62
     5
420
      255
176
     1
290
     0
176
     1
 90
       50
176
     1
 90
       50
176
     1
 90
       50
176
     1
290
     0
176
     1
 90
       50
176
     1
 62
   256
176
     0
 40
1.0
176
     0
 90
        2
176
     1
  1
strokes_ogs.tif
176
     1
290
     0
176
     1
 40
1.0
176
     1
 40
1.0
176
     1
1001
ACAD
1000
AcDbSavedByObjectVersion
1070
     0
  0
VISUALSTYLE
  5
8225
102
{ACAD_REACTORS
330
821A
102
}
330
821A
100
AcDbVisualStyle
  2
Dim
 70
    11
177
     3
291
     1
 70
    58
 90
        2
176
     1
 90
        2
176
     1
 90
        0
176
     1
 90
        0
176
     1
 40
0.6
176
     1
 40
30.0
176
     1
 62
     7
420
 16777215
176
     1
 90
        1
176
     1
 90
        4
176
     1
 62
     7
176
     1
 62
   257
176
     1
 90
        1
176
     1
 90
        1
176
     1
 40
1.0
176
     1
 90
        8
176
     1
 62
     7
176
     1
 40
1.0
176
     1
 90
        1
176
     1
 90
        6
176
     1
 90
        2
176
     1
 62
     7
176
     1
 90
        5
176
     1
 90
        0
176
     1
 90
        0
176
     1
290
     0
176
     1
 90
        1
176
     1
 40
-50.0
176
     1
 90
        0
176
     1
290
     0
176
     1
290
     1
176
     1
290
     1
176
     1
290
     0
176
     1
290
     0
176
     1
290
     0
176
     1
290
     0
176
     1
290
     0
176
     1
290
     0
176
     1
 90
       50
176
     1
 40
0.0
176
     1
 40
1.0
176
     1
 90
        0
176
     1
 62
    18
420
        0
176
     1
 90
       50
176
     1
 90
        3
176
     1
 62
     5
420
      255
176
     1
290
     0
176
     1
 90
       50
176
     1
 90
       50
176
     1
 90
       50
176
     1
290
     0
176
     1
 90
       50
176
     1
 62
   256
176
     0
 40
1.0
176
     0
 90
        2
176
     1
  1
strokes_ogs.tif
176
     1
290
     0
176
     1
 40
1.0
176
     1
 40
1.0
176
     1
1001
ACAD
1000
AcDbSavedByObjectVersion
1070
     0
  0
VISUALSTYLE
  5
8232
102
{ACAD_REACTORS
330
821A
102
}
330
821A
100
AcDbVisualStyle
  2
EdgeColorOff
 70
    22
177
     3
291
     1
 70
    58
 90
        2
176
     0
 90
        2
176
     0
 90
        0
176
     0
 90
        0
176
     0
 40
0.6
176
     0
 40
30.0
176
     0
 62
     7
420
 16777215
176
     0
 90
        1
176
     0
 90
        4
176
     0
 62
     7
176
     0
 62
   257
176
     0
 90
        1
176
     0
 90
        1
176
     0
 40
1.0
176
     0
 90
        8
176
     2
 62
     7
176
     0
 40
1.0
176
     0
 90
        1
176
     0
 90
        6
176
     0
 90
        2
176
     0
 62
     7
176
     0
 90
        5
176
     0
 90
        0
176
     0
 90
        0
176
     0
290
     0
176
     0
 90
        1
176
     0
 40
0.0
176
     0
 90
        0
176
     0
290
     0
176
     0
290
     1
176
     0
290
     1
176
     0
290
     0
176
     0
290
     0
176
     0
290
     0
176
     0
290
     0
176
     0
290
     0
176
     0
290
     0
176
     0
 90
       50
176
     0
 40
0.0
176
     0
 40
1.0
176
     0
 90
        0
176
     0
 62
    18
420
        0
176
     0
 90
       50
176
     0
 90
        3
176
     0
 62
     5
420
      255
176
     0
290
     0
176
     0
 90
       50
176
     0
 90
       50
176
     0
 90
       50
176
     0
290
     0
176
     0
 90
       50
176
     0
 62
   256
176
     0
 40
1.0
176
     0
 90
        2
176
     0
  1
strokes_ogs.tif
176
     0
290
     0
176
     0
 40
1.0
176
     0
 40
1.0
176
     0
1001
ACAD
1000
AcDbSavedByObjectVersion
1070
     0
  0
VISUALSTYLE
  5
8229
102
{ACAD_REACTORS
330
821A
102
}
330
821A
100
AcDbVisualStyle
  2
Facepattern
 70
    15
177
     3
291
     1
 70
    58
 90
        2
176
     1
 90
        2
176
     1
 90
        0
176
     1
 90
        0
176
     1
 40
0.6
176
     1
 40
30.0
176
     1
 62
     7
420
 16777215
176
     1
 90
        1
176
     1
 90
        4
176
     1
 62
     7
176
     1
 62
   257
176
     1
 90
        1
176
     1
 90
        1
176
     1
 40
1.0
176
     1
 90
        8
176
     1
 62
     7
176
     1
 40
1.0
176
     1
 90
        1
176
     1
 90
        6
176
     1
 90
        2
176
     1
 62
     7
176
     1
 90
        5
176
     1
 90
        0
176
     1
 90
        0
176
     1
290
     0
176
     1
 90
        1
176
     1
 40
0.0
176
     1
 90
        0
176
     1
290
     0
176
     1
290
     1
176
     1
290
     1
176
     1
290
     0
176
     1
290
     0
176
     1
290
     0
176
     1
290
     0
176
     1
290
     0
176
     1
290
     0
176
     1
 90
       50
176
     1
 40
0.0
176
     1
 40
1.0
176
     1
 90
        0
176
     1
 62
    18
420
        0
176
     1
 90
       50
176
     1
 90
        3
176
     1
 62
     5
420
      255
176
     1
290
     0
176
     1
 90
       50
176
     1
 90
       50
176
     1
 90
       50
176
     1
290
     0
176
     1
 90
       50
176
     1
 62
   256
176
     0
 40
1.0
176
     0
 90
        2
176
     1
  1
strokes_ogs.tif
176
     1
290
     0
176
     1
 40
1.0
176
     1
 40
1.0
176
     1
1001
ACAD
1000
AcDbSavedByObjectVersion
1070
     0
  0
VISUALSTYLE
  5
821B
102
{ACAD_REACTORS
330
821A
102
}
330
821A
100
AcDbVisualStyle
  2
Flat
 70
     0
177
     3
291
     1
 70
    58
 90
        2
176
     1
 90
        1
176
     1
 90
        1
176
     1
 90
        2
176
     1
 40
0.6
176
     1
 40
30.0
176
     1
 62
     7
420
 16777215
176
     1
 90
        0
176
     1
 90
        0
176
     1
 62
     7
176
     1
 62
   257
176
     1
 90
        1
176
     1
 90
        1
176
     1
 40
1.0
176
     1
 90
        8
176
     1
 62
     7
176
     1
 40
1.0
176
     1
 90
        1
176
     1
 90
        6
176
     1
 90
        2
176
     1
 62
     7
176
     1
 90
        5
176
     1
 90
        0
176
     1
 90
        0
176
     1
290
     0
176
     1
 90
       13
176
     1
 40
0.0
176
     1
 90
        0
176
     1
290
     0
176
     1
290
     1
176
     1
290
     1
176
     1
290
     0
176
     1
290
     0
176
     1
290
     0
176
     1
290
     0
176
     1
290
     0
176
     1
290
     0
176
     1
 90
       50
176
     1
 40
0.0
176
     1
 40
1.0
176
     1
 90
        0
176
     1
 62
    18
420
        0
176
     1
 90
       50
176
     1
 90
        3
176
     1
 62
     5
420
      255
176
     1
290
     0
176
     1
 90
       50
176
     1
 90
       50
176
     1
 90
       50
176
     1
290
     0
176
     1
 90
       50
176
     1
 62
   256
176
     0
 40
1.0
176
     0
 90
        2
176
     1
  1
strokes_ogs.tif
176
     1
290
     0
176
     1
 40
1.0
176
     1
 40
1.0
176
     1
1001
ACAD
1000
AcDbSavedByObjectVersion
1070
     0
  0
VISUALSTYLE
  5
821C
102
{ACAD_REACTORS
330
821A
102
}
330
821A
100
AcDbVisualStyle
  2
FlatWithEdges
 70
     1
177
     3
291
     1
 70
    58
 90
        2
176
     1
 90
        1
176
     1
 90
        1
176
     1
 90
        2
176
     1
 40
0.6
176
     1
 40
30.0
176
     1
 62
     7
420
 16777215
176
     1
 90
        1
176
     1
 90
        0
176
     1
 62
     7
176
     1
 62
   257
176
     1
 90
        1
176
     1
 90
        1
176
     1
 40
1.0
176
     1
 90
        0
176
     1
 62
   257
176
     1
 40
1.0
176
     1
 90
        1
176
     1
 90
        6
176
     1
 90
        2
176
     1
 62
     7
176
     1
 90
        5
176
     1
 90
        0
176
     1
 90
        0
176
     1
290
     0
176
     1
 90
       13
176
     1
 40
0.0
176
     1
 90
        0
176
     1
290
     0
176
     1
290
     1
176
     1
290
     1
176
     1
290
     0
176
     1
290
     0
176
     1
290
     0
176
     1
290
     0
176
     1
290
     0
176
     1
290
     0
176
     1
 90
       50
176
     1
 40
0.0
176
     1
 40
1.0
176
     1
 90
        0
176
     1
 62
    18
420
        0
176
     1
 90
       50
176
     1
 90
        3
176
     1
 62
     5
420
      255
176
     1
290
     0
176
     1
 90
       50
176
     1
 90
       50
176
     1
 90
       50
176
     1
290
     0
176
     1
 90
       50
176
     1
 62
   256
176
     0
 40
1.0
176
     0
 90
        2
176
     1
  1
strokes_ogs.tif
176
     1
290
     0
176
     1
 40
1.0
176
     1
 40
1.0
176
     1
1001
ACAD
1000
AcDbSavedByObjectVersion
1070
     0
  0
VISUALSTYLE
  5
821D
102
{ACAD_REACTORS
330
821A
102
}
330
821A
100
AcDbVisualStyle
  2
Gouraud
 70
     2
177
     3
291
     1
 70
    58
 90
        2
176
     1
 90
        2
176
     1
 90
        1
176
     1
 90
        2
176
     1
 40
0.6
176
     1
 40
30.0
176
     1
 62
     7
420
 16777215
176
     1
 90
        0
176
     1
 90
        0
176
     1
 62
     7
176
     1
 62
   257
176
     1
 90
        1
176
     1
 90
        1
176
     1
 40
1.0
176
     1
 90
        0
176
     1
 62
     7
176
     1
 40
1.0
176
     1
 90
        1
176
     1
 90
        6
176
     1
 90
        2
176
     1
 62
     7
176
     1
 90
        5
176
     1
 90
        0
176
     1
 90
        0
176
     1
290
     0
176
     1
 90
       13
176
     1
 40
0.0
176
     1
 90
        0
176
     1
290
     0
176
     1
290
     1
176
     1
290
     1
176
     1
290
     0
176
     1
290
     0
176
     1
290
     0
176
     1
290
     0
176
     1
290
     0
176
     1
290
     0
176
     1
 90
       50
176
     1
 40
0.0
176
     1
 40
1.0
176
     1
 90
        0
176
     1
 62
    18
420
        0
176
     1
 90
       50
176
     1
 90
        3
176
     1
 62
     5
420
      255
176
     1
290
     0
176
     1
 90
       50
176
     1
 90
       50
176
     1
 90
       50
176
     1
290
     0
176
     1
 90
       50
176
     1
 62
   256
176
     0
 40
1.0
176
     0
 90
        2
176
     1
  1
strokes_ogs.tif
176
     1
290
     0
176
     1
 40
1.0
176
     1
 40
1.0
176
     1
1001
ACAD
1000
AcDbSavedByObjectVersion
1070
     0
  0
VISUALSTYLE
  5
821E
102
{ACAD_REACTORS
330
821A
102
}
330
821A
100
AcDbVisualStyle
  2
GouraudWithEdges
 70
     3
177
     3
291
     1
 70
    58
 90
        2
176
     1
 90
        2
176
     1
 90
        1
176
     1
 90
        2
176
     1
 40
0.6
176
     1
 40
30.0
176
     1
 62
     7
420
 16777215
176
     1
 90
        1
176
     1
 90
        0
176
     1
 62
     7
176
     1
 62
   257
176
     1
 90
        1
176
     1
 90
        1
176
     1
 40
1.0
176
     1
 90
        0
176
     1
 62
   257
176
     1
 40
1.0
176
     1
 90
        1
176
     1
 90
        6
176
     1
 90
        2
176
     1
 62
     7
176
     1
 90
        5
176
     1
 90
        0
176
     1
 90
        0
176
     1
290
     0
176
     1
 90
       13
176
     1
 40
0.0
176
     1
 90
        0
176
     1
290
     0
176
     1
290
     1
176
     1
290
     1
176
     1
290
     0
176
     1
290
     0
176
     1
290
     0
176
     1
290
     0
176
     1
290
     0
176
     1
290
     0
176
     1
 90
       50
176
     1
 40
0.0
176
     1
 40
1.0
176
     1
 90
        0
176
     1
 62
    18
420
        0
176
     1
 90
       50
176
     1
 90
        3
176
     1
 62
     5
420
      255
176
     1
290
     0
176
     1
 90
       50
176
     1
 90
       50
176
     1
 90
       50
176
     1
290
     0
176
     1
 90
       50
176
     1
 62
   256
176
     0
 40
1.0
176
     0
 90
        2
176
     1
  1
strokes_ogs.tif
176
     1
290
     0
176
     1
 40
1.0
176
     1
 40
1.0
176
     1
1001
ACAD
1000
AcDbSavedByObjectVersion
1070
     0
  0
VISUALSTYLE
  5
8222
102
{ACAD_REACTORS
330
821A
102
}
330
821A
100
AcDbVisualStyle
  2
Hidden
 70
     6
177
     3
291
     0
 70
    58
 90
        1
176
     1
 90
        2
176
     1
 90
        2
176
     1
 90
        0
176
     1
 40
0.6
176
     1
 40
30.0
176
     1
 62
     7
420
 16777215
176
     1
 90
        2
176
     1
 90
        2
176
     1
 62
     7
176
     1
 62
   257
176
     1
 90
        2
176
     1
 90
        1
176
     1
 40
40.0
176
     1
 90
        0
176
     1
 62
   257
176
     1
 40
1.0
176
     1
 90
        1
176
     1
 90
        6
176
     1
 90
        2
176
     1
 62
     7
176
     1
 90
        3
176
     1
 90
        0
176
     1
 90
        0
176
     1
290
     0
176
     1
 90
        1
176
     1
 40
0.0
176
     1
 90
        0
176
     1
290
     0
176
     1
290
     1
176
     1
290
     1
176
     1
290
     0
176
     1
290
     0
176
     1
290
     0
176
     1
290
     0
176
     1
290
     0
176
     1
290
     0
176
     1
 90
       50
176
     1
 40
0.0
176
     1
 40
1.0
176
     1
 90
        0
176
     1
 62
    18
420
        0
176
     1
 90
       50
176
     1
 90
        3
176
     1
 62
     5
420
      255
176
     1
290
     0
176
     1
 90
       50
176
     1
 90
       50
176
     1
 90
       50
176
     1
290
     0
176
     1
 90
       50
176
     1
 62
   256
176
     0
 40
1.0
176
     0
 90
        2
176
     1
  1
strokes_ogs.tif
176
     1
290
     0
176
     1
 40
1.0
176
     1
 40
1.0
176
     1
1001
ACAD
1000
AcDbSavedByObjectVersion
1070
     0
  0
VISUALSTYLE
  5
8230
102
{ACAD_REACTORS
330
821A
102
}
330
821A
100
AcDbVisualStyle
  2
JitterOff
 70
    20
177
     3
291
     1
 70
    58
 90
        2
176
     0
 90
        2
176
     0
 90
        0
176
     0
 90
        0
176
     0
 40
0.6
176
     0
 40
30.0
176
     0
 62
     7
420
 16777215
176
     0
 90
        1
176
     0
 90
        4
176
     0
 62
     7
176
     0
 62
   257
176
     0
 90
        1
176
     0
 90
        1
176
     0
 40
1.0
176
     0
 90
       10
176
     2
 62
     7
176
     0
 40
1.0
176
     0
 90
        1
176
     0
 90
        6
176
     0
 90
        2
176
     0
 62
     7
176
     0
 90
        5
176
     0
 90
        0
176
     0
 90
        0
176
     0
290
     0
176
     0
 90
        1
176
     0
 40
0.0
176
     0
 90
        0
176
     0
290
     0
176
     0
290
     1
176
     0
290
     1
176
     0
290
     0
176
     0
290
     0
176
     0
290
     0
176
     0
290
     0
176
     0
290
     0
176
     0
290
     0
176
     0
 90
       50
176
     0
 40
0.0
176
     0
 40
1.0
176
     0
 90
        0
176
     0
 62
    18
420
        0
176
     0
 90
       50
176
     0
 90
        3
176
     0
 62
     5
420
      255
176
     0
290
     0
176
     0
 90
       50
176
     0
 90
       50
176
     0
 90
       50
176
     0
290
     0
176
     0
 90
       50
176
     0
 62
   256
176
     0
 40
1.0
176
     0
 90
        2
176
     0
  1
strokes_ogs.tif
176
     0
290
     0
176
     0
 40
1.0
176
     0
 40
1.0
176
     0
1001
ACAD
1000
AcDbSavedByObjectVersion
1070
     0
  0
VISUALSTYLE
  5
8228
102
{ACAD_REACTORS
330
821A
102
}
330
821A
100
AcDbVisualStyle
  2
Linepattern
 70
    14
177
     3
291
     1
 70
    58
 90
        2
176
     1
 90
        2
176
     1
 90
        0
176
     1
 90
        0
176
     1
 40
0.6
176
     1
 40
30.0
176
     1
 62
     7
420
 16777215
176
     1
 90
        1
176
     1
 90
        4
176
     1
 62
     7
176
     1
 62
   257
176
     1
 90
        7
176
     1
 90
        7
176
     1
 40
1.0
176
     1
 90
        8
176
     1
 62
     7
176
     1
 40
1.0
176
     1
 90
        1
176
     1
 90
        6
176
     1
 90
        2
176
     1
 62
     7
176
     1
 90
        5
176
     1
 90
        0
176
     1
 90
        0
176
     1
290
     0
176
     1
 90
        1
176
     1
 40
0.0
176
     1
 90
        0
176
     1
290
     0
176
     1
290
     1
176
     1
290
     1
176
     1
290
     0
176
     1
290
     0
176
     1
290
     0
176
     1
290
     0
176
     1
290
     0
176
     1
290
     0
176
     1
 90
       50
176
     1
 40
0.0
176
     1
 40
1.0
176
     1
 90
        0
176
     1
 62
    18
420
        0
176
     1
 90
       50
176
     1
 90
        3
176
     1
 62
     5
420
      255
176
     1
290
     0
176
     1
 90
       50
176
     1
 90
       50
176
     1
 90
       50
176
     1
290
     0
176
     1
 90
       50
176
     1
 62
   256
176
     0
 40
1.0
176
     0
 90
        2
176
     1
  1
strokes_ogs.tif
176
     1
290
     0
176
     1
 40
1.0
176
     1
 40
1.0
176
     1
1001
ACAD
1000
AcDbSavedByObjectVersion
1070
     0
  0
VISUALSTYLE
  5
8231
102
{ACAD_REACTORS
330
821A
102
}
330
821A
100
AcDbVisualStyle
  2
OverhangOff
 70
    21
177
     3
291
     1
 70
    58
 90
        2
176
     0
 90
        2
176
     0
 90
        0
176
     0
 90
        0
176
     0
 40
0.6
176
     0
 40
30.0
176
     0
 62
     7
420
 16777215
176
     0
 90
        1
176
     0
 90
        4
176
     0
 62
     7
176
     0
 62
   257
176
     0
 90
        1
176
     0
 90
        1
176
     0
 40
1.0
176
     0
 90
        9
176
     2
 62
     7
176
     0
 40
1.0
176
     0
 90
        1
176
     0
 90
        6
176
     0
 90
        2
176
     0
 62
     7
176
     0
 90
        5
176
     0
 90
        0
176
     0
 90
        0
176
     0
290
     0
176
     0
 90
        1
176
     0
 40
0.0
176
     0
 90
        0
176
     0
290
     0
176
     0
290
     1
176
     0
290
     1
176
     0
290
     0
176
     0
290
     0
176
     0
290
     0
176
     0
290
     0
176
     0
290
     0
176
     0
290
     0
176
     0
 90
       50
176
     0
 40
0.0
176
     0
 40
1.0
176
     0
 90
        0
176
     0
 62
    18
420
        0
176
     0
 90
       50
176
     0
 90
        3
176
     0
 62
     5
420
      255
176
     0
290
     0
176
     0
 90
       50
176
     0
 90
       50
176
     0
 90
       50
176
     0
290
     0
176
     0
 90
       50
176
     0
 62
   256
176
     0
 40
1.0
176
     0
 90
        2
176
     0
  1
strokes_ogs.tif
176
     0
290
     0
176
     0
 40
1.0
176
     0
 40
1.0
176
     0
1001
ACAD
1000
AcDbSavedByObjectVersion
1070
     0
  0
VISUALSTYLE
  5
8224
102
{ACAD_REACTORS
330
821A
102
}
330
821A
100
AcDbVisualStyle
  2
Realistic
 70
     8
177
     3
291
     0
 70
    58
 90
        2
176
     1
 90
        3
176
     1
 90
        0
176
     1
 90
        2
176
     1
 40
0.6
176
     1
 40
30.0
176
     1
 62
     7
420
 16777215
176
     1
 90
        0
176
     1
 90
        0
176
     1
 62
     7
176
     1
 62
   257
176
     1
 90
        1
176
     1
 90
        1
176
     1
 40
1.0
176
     1
 90
        8
176
     1
 62
   257
176
     1
 40
1.0
176
     1
 90
        1
176
     1
 90
        6
176
     1
 90
        2
176
     1
 62
     7
176
     1
 90
        3
176
     1
 90
        0
176
     1
 90
        0
176
     1
290
     0
176
     1
 90
       13
176
     1
 40
0.0
176
     1
 90
        0
176
     1
290
     0
176
     1
290
     1
176
     1
290
     1
176
     1
290
     0
176
     1
290
     0
176
     1
290
     0
176
     1
290
     0
176
     1
290
     0
176
     1
290
     0
176
     1
 90
       50
176
     1
 40
0.0
176
     1
 40
1.0
176
     1
 90
        0
176
     1
 62
    18
420
        0
176
     1
 90
       50
176
     1
 90
        3
176
     1
 62
     5
420
      255
176
     1
290
     0
176
     1
 90
       50
176
     1
 90
       50
176
     1
 90
       50
176
     1
290
     0
176
     1
 90
       50
176
     1
 62
   256
176
     0
 40
1.0
176
     0
 90
        2
176
     1
  1
strokes_ogs.tif
176
     1
290
     0
176
     1
 40
1.0
176
     1
 40
1.0
176
     1
1001
ACAD
1000
AcDbSavedByObjectVersion
1070
     0
  0
VISUALSTYLE
  5
822F
102
{ACAD_REACTORS
330
821A
102
}
330
821A
100
AcDbVisualStyle
  2
Shaded
 70
    27
177
     3
291
     0
 70
    58
 90
        2
176
     1
 90
        2
176
     1
 90
        1
176
     1
 90
        2
176
     1
 40
0.6
176
     1
 40
30.0
176
     1
 62
     7
420
 16777215
176
     1
 90
        0
176
     1
 90
        4
176
     1
 62
     7
176
     1
 62
   257
176
     1
 90
        1
176
     1
 90
        1
176
     1
 40
1.0
176
     1
 90
        8
176
     1
 62
   257
176
     1
 40
1.0
176
     1
 90
        1
176
     1
 90
        6
176
     1
 90
        2
176
     1
 62
     8
420
  7895160
176
     1
 90
        3
176
     1
 90
        0
176
     1
 90
        0
176
     1
290
     0
176
     1
 90
        5
176
     1
 40
0.0
176
     1
 90
        0
176
     1
290
     0
176
     1
290
     1
176
     1
290
     1
176
     1
290
     0
176
     1
290
     0
176
     1
290
     0
176
     1
290
     0
176
     1
290
     0
176
     1
290
     0
176
     1
 90
       50
176
     1
 40
0.0
176
     1
 40
1.0
176
     1
 90
        0
176
     1
 62
    18
420
        0
176
     1
 90
       50
176
     1
 90
        3
176
     1
 62
     5
420
      255
176
     1
290
     0
176
     1
 90
       50
176
     1
 90
       50
176
     1
 90
       50
176
     1
290
     0
176
     1
 90
       50
176
     1
 62
   256
176
     0
 40
1.0
176
     0
 90
        2
176
     1
  1
strokes_ogs.tif
176
     1
290
     0
176
     1
 40
1.0
176
     1
 40
1.0
176
     1
1001
ACAD
1000
AcDbSavedByObjectVersion
1070
     0
  0
VISUALSTYLE
  5
822E
102
{ACAD_REACTORS
330
821A
102
}
330
821A
100
AcDbVisualStyle
  2
Shaded with edges
 70
    26
177
     3
291
     0
 70
    58
 90
        2
176
     1
 90
        2
176
     1
 90
        1
176
     1
 90
        2
176
     1
 40
0.6
176
     1
 40
30.0
176
     1
 62
     7
420
 16777215
176
     1
 90
        1
176
     1
 90
        2
176
     1
 62
     7
176
     1
 62
   257
176
     1
 90
        2
176
     1
 90
        1
176
     1
 40
1.0
176
     1
 90
        8
176
     1
 62
   257
176
     1
 40
1.0
176
     1
 90
        1
176
     1
 90
        6
176
     1
 90
        2
176
     1
 62
     7
176
     1
 90
        3
176
     1
 90
        0
176
     1
 90
        0
176
     1
290
     0
176
     1
 90
        5
176
     1
 40
0.0
176
     1
 90
        0
176
     1
290
     0
176
     1
290
     1
176
     1
290
     1
176
     1
290
     0
176
     1
290
     0
176
     1
290
     0
176
     1
290
     0
176
     1
290
     0
176
     1
290
     0
176
     1
 90
       50
176
     1
 40
0.0
176
     1
 40
1.0
176
     1
 90
        0
176
     1
 62
    18
420
        0
176
     1
 90
       50
176
     1
 90
        3
176
     1
 62
     5
420
      255
176
     1
290
     0
176
     1
 90
       50
176
     1
 90
       50
176
     1
 90
       50
176
     1
290
     0
176
     1
 90
       50
176
     1
 62
   256
176
     0
 40
1.0
176
     0
 90
        2
176
     1
  1
strokes_ogs.tif
176
     1
290
     0
176
     1
 40
1.0
176
     1
 40
1.0
176
     1
1001
ACAD
1000
AcDbSavedByObjectVersion
1070
     0
  0
VISUALSTYLE
  5
822B
102
{ACAD_REACTORS
330
821A
102
}
330
821A
100
AcDbVisualStyle
  2
Shades of Gray
 70
    23
177
     3
291
     0
 70
    58
 90
        2
176
     1
 90
        2
176
     1
 90
        3
176
     1
 90
        0
176
     1
 40
0.6
176
     1
 40
30.0
176
     1
 62
     7
420
 16777215
176
     1
 90
        2
176
     1
 90
        2
176
     1
 62
     7
176
     1
 62
     7
176
     1
 90
        1
176
     1
 90
        1
176
     1
 40
40.0
176
     1
 90
        8
176
     1
 62
     7
176
     1
 40
1.0
176
     1
 90
        1
176
     1
 90
        6
176
     1
 90
        2
176
     1
 62
     7
176
     1
 90
        3
176
     1
 90
        0
176
     1
 90
        0
176
     1
290
     0
176
     1
 90
        1
176
     1
 40
0.0
176
     1
 90
        0
176
     1
290
     0
176
     1
290
     1
176
     1
290
     1
176
     1
290
     0
176
     1
290
     0
176
     1
290
     0
176
     1
290
     0
176
     1
290
     0
176
     1
290
     0
176
     1
 90
       50
176
     1
 40
0.0
176
     1
 40
1.0
176
     1
 90
        0
176
     1
 62
    18
420
        0
176
     1
 90
       50
176
     1
 90
        3
176
     1
 62
     5
420
      255
176
     1
290
     0
176
     1
 90
       50
176
     1
 90
       50
176
     1
 90
       50
176
     1
290
     0
176
     1
 90
       50
176
     1
 62
   256
176
     0
 40
1.0
176
     0
 90
        2
176
     1
  1
strokes_ogs.tif
176
     1
290
     0
176
     1
 40
1.0
176
     1
 40
1.0
176
     1
1001
ACAD
1000
AcDbSavedByObjectVersion
1070
     0
  0
VISUALSTYLE
  5
822C
102
{ACAD_REACTORS
330
821A
102
}
330
821A
100
AcDbVisualStyle
  2
Sketchy
 70
    24
177
     3
291
     0
 70
    58
 90
        1
176
     1
 90
        2
176
     1
 90
        2
176
     1
 90
        0
176
     1
 40
0.6
176
     1
 40
30.0
176
     1
 62
     7
420
 16777215
176
     1
 90
        2
176
     1
 90
        2
176
     1
 62
     7
176
     1
 62
     7
176
     1
 90
        1
176
     1
 90
        1
176
     1
 40
40.0
176
     1
 90
       11
176
     1
 62
     7
176
     1
 40
1.0
176
     1
 90
        1
176
     1
 90
        6
176
     1
 90
        2
176
     1
 62
     7
176
     1
 90
        6
176
     1
 90
        0
176
     1
 90
        0
176
     1
290
     0
176
     1
 90
        1
176
     1
 40
0.0
176
     1
 90
        0
176
     1
290
     0
176
     1
290
     1
176
     1
290
     1
176
     1
290
     0
176
     1
290
     0
176
     1
290
     0
176
     1
290
     0
176
     1
290
     0
176
     1
290
     0
176
     1
 90
       50
176
     1
 40
0.0
176
     1
 40
1.0
176
     1
 90
        0
176
     1
 62
    18
420
        0
176
     1
 90
       50
176
     1
 90
        3
176
     1
 62
     5
420
      255
176
     1
290
     0
176
     1
 90
       50
176
     1
 90
       50
176
     1
 90
       50
176
     1
290
     0
176
     1
 90
       50
176
     1
 62
   256
176
     0
 40
1.0
176
     0
 90
        2
176
     1
  1
strokes_ogs.tif
176
     1
290
     0
176
     1
 40
1.0
176
     1
 40
1.0
176
     1
1001
ACAD
1000
AcDbSavedByObjectVersion
1070
     0
  0
VISUALSTYLE
  5
8227
102
{ACAD_REACTORS
330
821A
102
}
330
821A
100
AcDbVisualStyle
  2
Thicken
 70
    13
177
     3
291
     1
 70
    58
 90
        2
176
     1
 90
        2
176
     1
 90
        0
176
     1
 90
        0
176
     1
 40
0.6
176
     1
 40
30.0
176
     1
 62
     7
420
 16777215
176
     1
 90
        1
176
     1
 90
        4
176
     1
 62
     7
176
     1
 62
   257
176
     1
 90
        1
176
     1
 90
        1
176
     1
 40
1.0
176
     1
 90
       12
176
     1
 62
     7
176
     1
 40
1.0
176
     1
 90
        1
176
     1
 90
        6
176
     1
 90
        2
176
     1
 62
     7
176
     1
 90
        5
176
     1
 90
        0
176
     1
 90
        0
176
     1
290
     0
176
     1
 90
        1
176
     1
 40
0.0
176
     1
 90
        0
176
     1
290
     0
176
     1
290
     1
176
     1
290
     1
176
     1
290
     0
176
     1
290
     0
176
     1
290
     0
176
     1
290
     0
176
     1
290
     0
176
     1
290
     0
176
     1
 90
       50
176
     1
 40
0.0
176
     1
 40
1.0
176
     1
 90
        0
176
     1
 62
    18
420
        0
176
     1
 90
       50
176
     1
 90
        3
176
     1
 62
     5
420
      255
176
     1
290
     0
176
     1
 90
       50
176
     1
 90
       50
176
     1
 90
       50
176
     1
290
     0
176
     1
 90
       50
176
     1
 62
   256
176
     0
 40
1.0
176
     0
 90
        2
176
     1
  1
strokes_ogs.tif
176
     1
290
     0
176
     1
 40
1.0
176
     1
 40
1.0
176
     1
1001
ACAD
1000
AcDbSavedByObjectVersion
1070
     0
  0
VISUALSTYLE
  5
8221
102
{ACAD_REACTORS
330
821A
102
}
330
821A
100
AcDbVisualStyle
  2
Wireframe
 70
     5
177
     3
291
     0
 70
    58
 90
        0
176
     1
 90
        2
176
     1
 90
        0
176
     1
 90
        0
176
     1
 40
0.6
176
     1
 40
30.0
176
     1
 62
     7
420
 16777215
176
     1
 90
        1
176
     1
 90
        4
176
     1
 62
     7
176
     1
 62
   257
176
     1
 90
        1
176
     1
 90
        1
176
     1
 40
1.0
176
     1
 90
        0
176
     1
 62
   257
176
     1
 40
1.0
176
     1
 90
        1
176
     1
 90
        6
176
     1
 90
        2
176
     1
 62
     7
176
     1
 90
        3
176
     1
 90
        0
176
     1
 90
        0
176
     1
290
     0
176
     1
 90
        1
176
     1
 40
0.0
176
     1
 90
        0
176
     1
290
     0
176
     1
290
     1
176
     1
290
     1
176
     1
290
     0
176
     1
290
     0
176
     1
290
     0
176
     1
290
     0
176
     1
290
     0
176
     1
290
     0
176
     1
 90
       50
176
     1
 40
0.0
176
     1
 40
1.0
176
     1
 90
        0
176
     1
 62
    18
420
        0
176
     1
 90
       50
176
     1
 90
        3
176
     1
 62
     5
420
      255
176
     1
290
     0
176
     1
 90
       50
176
     1
 90
       50
176
     1
 90
       50
176
     1
290
     0
176
     1
 90
       50
176
     1
 62
   256
176
     0
 40
1.0
176
     0
 90
        2
176
     1
  1
strokes_ogs.tif
176
     1
290
     0
176
     1
 40
1.0
176
     1
 40
1.0
176
     1
1001
ACAD
1000
AcDbSavedByObjectVersion
1070
     0
  0
VISUALSTYLE
  5
822D
102
{ACAD_REACTORS
330
821A
102
}
330
821A
100
AcDbVisualStyle
  2
X-Ray
 70
    25
177
     3
291
     0
 70
    58
 90
        2
176
     1
 90
        2
176
     1
 90
        1
176
     1
 90
        1
176
     1
 40
0.5
176
     1
 40
30.0
176
     1
 62
     7
420
 16777215
176
     1
 90
        1
176
     1
 90
        0
176
     1
 62
     7
176
     1
 62
   257
176
     1
 90
        1
176
     1
 90
        1
176
     1
 40
1.0
176
     1
 90
        8
176
     1
 62
     7
176
     1
 40
1.0
176
     1
 90
        1
176
     1
 90
        6
176
     1
 90
        2
176
     1
 62
     7
176
     1
 90
        3
176
     1
 90
        0
176
     1
 90
        0
176
     1
290
     0
176
     1
 90
       13
176
     1
 40
0.0
176
     1
 90
        0
176
     1
290
     0
176
     1
290
     1
176
     1
290
     1
176
     1
290
     0
176
     1
290
     0
176
     1
290
     0
176
     1
290
     0
176
     1
290
     0
176
     1
290
     0
176
     1
 90
       50
176
     1
 40
0.0
176
     1
 40
1.0
176
     1
 90
        0
176
     1
 62
    18
420
        0
176
     1
 90
       50
176
     1
 90
        3
176
     1
 62
     5
420
      255
176
     1
290
     0
176
     1
 90
       50
176
     1
 90
       50
176
     1
 90
       50
176
     1
290
     0
176
     1
 90
       50
176
     1
 62
   256
176
     0
 40
1.0
176
     0
 90
        2
176
     1
  1
strokes_ogs.tif
176
     1
290
     0
176
     1
 40
1.0
176
     1
 40
1.0
176
     1
1001
ACAD
1000
AcDbSavedByObjectVersion
1070
     0
  0
DICTIONARYVAR
  5
82A6
102
{ACAD_REACTORS
330
82A0
102
}
330
82A0
100
DictionaryVariables
280
     0
  1
1:1
  0
DICTIONARYVAR
  5
82A2
102
{ACAD_REACTORS
330
82A0
102
}
330
82A0
100
DictionaryVariables
280
     0
  1
STANDARD
  0
DICTIONARYVAR
  5
82A1
102
{ACAD_REACTORS
330
82A0
102
}
330
82A0
100
DictionaryVariables
280
     0
  1
STANDARD
  0
DICTIONARYVAR
  5
82A3
102
{ACAD_REACTORS
330
82A0
102
}
330
82A0
100
DictionaryVariables
280
     0
  1
Metric50
  0
DICTIONARYVAR
  5
82A4
102
{ACAD_REACTORS
330
82A0
102
}
330
82A0
100
DictionaryVariables
280
     0
  1
Metric50
  0
DICTIONARYVAR
  5
82A8
102
{ACAD_REACTORS
330
82A0
102
}
330
82A0
100
DictionaryVariables
280
     0
  1
1
  0
DICTIONARYVAR
  5
82A9
102
{ACAD_REACTORS
330
82A0
102
}
330
82A0
100
DictionaryVariables
280
     0
  1
15
  0
DICTIONARYVAR
  5
82A7
102
{ACAD_REACTORS
330
82A0
102
}
330
82A0
100
DictionaryVariables
280
     0
  1
0
  0
DICTIONARYVAR
  5
82AE
102
{ACAD_REACTORS
330
82A0
102
}
330
82A0
100
DictionaryVariables
280
     0
  1
0
  0
DICTIONARYVAR
  5
82A5
102
{ACAD_REACTORS
330
82A0
102
}
330
82A0
100
DictionaryVariables
280
     0
  1
0
  0
DICTIONARY
  5
82B9
102
{ACAD_REACTORS
330
82B7
102
}
330
82B7
100
AcDbDictionary
281
     1
  0
DICTIONARY
  5
82B8
102
{ACAD_REACTORS
330
82B7
102
}
330
82B7
100
AcDbDictionary
281
     1
  3
2040888285856
350
82B2
  3
2040888285872
350
82B3
  3
2040888285888
350
82B4
  3
2040888285904
350
82B5
  3
2040888285920
350
82B6
  0
DICTIONARY
  5
82BC
330
824D
100
AcDbDictionary
280
     1
281
     1
  3
ACAD_XREC_ROUNDTRIP
360
82BD
  0
DICTIONARY
  5
820B
330
820A
100
AcDbDictionary
280
     1
281
     1
  3
BUMPTILE
360
820D
  3
DIFFUSETILE
360
820C
  3
OPACITYTILE
360
8210
  3
REFLECTIONTILE
360
820F
  3
REFRACTIONTILE
360
8211
  3
SPECULARTILE
360
820E
  0
DICTIONARY
  5
8203
330
8202
100
AcDbDictionary
280
     1
281
     1
  3
BUMPTILE
360
8205
  3
DIFFUSETILE
360
8204
  3
OPACITYTILE
360
8208
  3
REFLECTIONTILE
360
8207
  3
REFRACTIONTILE
360
8209
  3
SPECULARTILE
360
8206
  0
DICTIONARY
  5
8213
330
8212
100
AcDbDictionary
280
     1
281
     1
  3
BUMPTILE
360
8215
  3
DIFFUSETILE
360
8214
  3
OPACITYTILE
360
8218
  3
REFLECTIONTILE
360
8217
  3
REFRACTIONTILE
360
8219
  3
SPECULARTILE
360
8216
  0
DICTIONARY
  5
82BA
330
824B
100
AcDbDictionary
280
     1
281
     1
  3
ACAD_XREC_ROUNDTRIP
360
82BB
  0
DICTIONARY
  5
82AF
330
8235
100
AcDbDictionary
280
     1
281
     1
  3
ACAD_ROUNDTRIP_2008_TABLESTYLE_CELLSTYLEMAP
360
82B0
  0
XRECORD
  5
82B2
102
{ACAD_REACTORS
330
82B8
102
}
330
82B8
100
AcDbXrecord
280
     1
  1
AcDb_Thumbnail_Schema
102
{ATTRRECORD
341
82B3
  2
AcDbDs::TreatedAsObjectData
280
     1
291
     1
102
ATTRRECORD}
102
{ATTRRECORD
341
82B4
  2
AcDbDs::Legacy
280
     1
291
     1
102
ATTRRECORD}
  2
AcDbDs::ID
280
    10
 91
        8
102
{ATTRRECORD
341
82B5
  2
AcDs:Indexable
280
     1
291
     1
102
ATTRRECORD}
102
{ATTRRECORD
341
82B6
  2
AcDbDs::HandleAttribute
280
     7
282
     1
102
ATTRRECORD}
  2
Thumbnail_Data
280
    15
 91
        0
  0
XRECORD
  5
82B3
102
{ACAD_REACTORS
330
82B8
102
}
330
82B8
100
AcDbXrecord
280
     1
  1
AcDbDs::TreatedAsObjectDataSchema
  2
AcDbDs::TreatedAsObjectData
280
     1
 91
        0
  0
XRECORD
  5
82B4
102
{ACAD_REACTORS
330
82B8
102
}
330
82B8
100
AcDbXrecord
280
     1
  1
AcDbDs::LegacySchema
  2
AcDbDs::Legacy
280
     1
 91
        0
  0
XRECORD
  5
82B5
102
{ACAD_REACTORS
330
82B8
102
}
330
82B8
100
AcDbXrecord
280
     1
  1
AcDbDs::IndexedPropertySchema
  2
AcDs:Indexable
280
     1
 91
        0
  0
XRECORD
  5
82B6
102
{ACAD_REACTORS
330
82B8
102
}
330
82B8
100
AcDbXrecord
280
     1
  1
AcDbDs::HandleAttributeSchema
  2
AcDbDs::HandleAttribute
280
     7
 91
        1
284
     1
  0
XRECORD
  5
82BD
102
{ACAD_REACTORS
330
82BC
102
}
330
82BC
100
AcDbXrecord
280
     1
102
DISPLAYNAME
  1
Metric50
102
FLAGS
 90
        0
  0
XRECORD
  5
820D
102
{ACAD_REACTORS
330
820B
102
}
330
820B
100
AcDbXrecord
280
     1
270
     1
271
     1
  0
XRECORD
  5
820C
102
{ACAD_REACTORS
330
820B
102
}
330
820B
100
AcDbXrecord
280
     1
270
     1
271
     1
  0
XRECORD
  5
8210
102
{ACAD_REACTORS
330
820B
102
}
330
820B
100
AcDbXrecord
280
     1
270
     1
271
     1
  0
XRECORD
  5
820F
102
{ACAD_REACTORS
330
820B
102
}
330
820B
100
AcDbXrecord
280
     1
270
     1
271
     1
  0
XRECORD
  5
8211
102
{ACAD_REACTORS
330
820B
102
}
330
820B
100
AcDbXrecord
280
     1
270
     1
271
     1
  0
XRECORD
  5
820E
102
{ACAD_REACTORS
330
820B
102
}
330
820B
100
AcDbXrecord
280
     1
270
     1
271
     1
  0
XRECORD
  5
8205
102
{ACAD_REACTORS
330
8203
102
}
330
8203
100
AcDbXrecord
280
     1
270
     1
271
     1
  0
XRECORD
  5
8204
102
{ACAD_REACTORS
330
8203
102
}
330
8203
100
AcDbXrecord
280
     1
270
     1
271
     1
  0
XRECORD
  5
8208
102
{ACAD_REACTORS
330
8203
102
}
330
8203
100
AcDbXrecord
280
     1
270
     1
271
     1
  0
XRECORD
  5
8207
102
{ACAD_REACTORS
330
8203
102
}
330
8203
100
AcDbXrecord
280
     1
270
     1
271
     1
  0
XRECORD
  5
8209
102
{ACAD_REACTORS
330
8203
102
}
330
8203
100
AcDbXrecord
280
     1
270
     1
271
     1
  0
XRECORD
  5
8206
102
{ACAD_REACTORS
330
8203
102
}
330
8203
100
AcDbXrecord
280
     1
270
     1
271
     1
  0
XRECORD
  5
8215
102
{ACAD_REACTORS
330
8213
102
}
330
8213
100
AcDbXrecord
280
     1
270
     1
271
     1
  0
XRECORD
  5
8214
102
{ACAD_REACTORS
330
8213
102
}
330
8213
100
AcDbXrecord
280
     1
270
     1
271
     1
  0
XRECORD
  5
8218
102
{ACAD_REACTORS
330
8213
102
}
330
8213
100
AcDbXrecord
280
     1
270
     1
271
     1
  0
XRECORD
  5
8217
102
{ACAD_REACTORS
330
8213
102
}
330
8213
100
AcDbXrecord
280
     1
270
     1
271
     1
  0
XRECORD
  5
8219
102
{ACAD_REACTORS
330
8213
102
}
330
8213
100
AcDbXrecord
280
     1
270
     1
271
     1
  0
XRECORD
  5
8216
102
{ACAD_REACTORS
330
8213
102
}
330
8213
100
AcDbXrecord
280
     1
270
     1
271
     1
  0
XRECORD
  5
82BB
102
{ACAD_REACTORS
330
82BA
102
}
330
82BA
100
AcDbXrecord
280
     1
102
DISPLAYNAME
  1
Metric50
102
FLAGS
 90
        0
  0
CELLSTYLEMAP
  5
82B0
102
{ACAD_REACTORS
330
82AF
102
}
330
82AF
100
AcDbCellStyleMap
 90
        3
300
CELLSTYLE
  1
TABLEFORMAT_BEGIN
 90
        5
170
     1
 91
        0
 92
    32768
 62
   257
 93
        1
300
CONTENTFORMAT
  1
CONTENTFORMAT_BEGIN
 90
        0
 91
        0
 92
      512
 93
        0
300

 40
0.0
140
1.0
 94
        5
 62
     0
340
10
144
6.0
309
CONTENTFORMAT_END
171
     1
301
MARGIN
  1
CELLMARGIN_BEGIN
 40
1.5
 40
1.5
 40
1.5
 40
1.5
 40
4.5
 40
4.5
309
CELLMARGIN_END
 94
        6
 95
        1
302
GRIDFORMAT
  1
GRIDFORMAT_BEGIN
 90
        0
 91
        1
 62
     0
 92
       -2
340
0
 93
        0
 40
1.125
309
GRIDFORMAT_END
 95
        2
302
GRIDFORMAT
  1
GRIDFORMAT_BEGIN
 90
        0
 91
        1
 62
     0
 92
       -2
340
0
 93
        0
 40
1.125
309
GRIDFORMAT_END
 95
        4
302
GRIDFORMAT
  1
GRIDFORMAT_BEGIN
 90
        0
 91
        1
 62
     0
 92
       -2
340
0
 93
        0
 40
1.125
309
GRIDFORMAT_END
 95
        8
302
GRIDFORMAT
  1
GRIDFORMAT_BEGIN
 90
        0
 91
        1
 62
     0
 92
       -2
340
0
 93
        0
 40
1.125
309
GRIDFORMAT_END
 95
       16
302
GRIDFORMAT
  1
GRIDFORMAT_BEGIN
 90
        0
 91
        1
 62
     0
 92
       -2
340
0
 93
        0
 40
1.125
309
GRIDFORMAT_END
 95
       32
302
GRIDFORMAT
  1
GRIDFORMAT_BEGIN
 90
        0
 91
        1
 62
     0
 92
       -2
340
0
 93
        0
 40
1.125
309
GRIDFORMAT_END
309
TABLEFORMAT_END
  1
CELLSTYLE_BEGIN
 90
        1
 91
        1
300
_TITLE
309
CELLSTYLE_END
300
CELLSTYLE
  1
TABLEFORMAT_BEGIN
 90
        5
170
     1
 91
        0
 92
        0
 62
   257
 93
        1
300
CONTENTFORMAT
  1
CONTENTFORMAT_BEGIN
 90
        0
 91
        0
 92
      512
 93
        0
300

 40
0.0
140
1.0
 94
        5
 62
     0
340
10
144
4.5
309
CONTENTFORMAT_END
171
     1
301
MARGIN
  1
CELLMARGIN_BEGIN
 40
1.5
 40
1.5
 40
1.5
 40
1.5
 40
4.5
 40
4.5
309
CELLMARGIN_END
 94
        6
 95
        1
302
GRIDFORMAT
  1
GRIDFORMAT_BEGIN
 90
        0
 91
        1
 62
     0
 92
       -2
340
0
 93
        0
 40
1.125
309
GRIDFORMAT_END
 95
        2
302
GRIDFORMAT
  1
GRIDFORMAT_BEGIN
 90
        0
 91
        1
 62
     0
 92
       -2
340
0
 93
        0
 40
1.125
309
GRIDFORMAT_END
 95
        4
302
GRIDFORMAT
  1
GRIDFORMAT_BEGIN
 90
        0
 91
        1
 62
     0
 92
       -2
340
0
 93
        0
 40
1.125
309
GRIDFORMAT_END
 95
        8
302
GRIDFORMAT
  1
GRIDFORMAT_BEGIN
 90
        0
 91
        1
 62
     0
 92
       -2
340
0
 93
        0
 40
1.125
309
GRIDFORMAT_END
 95
       16
302
GRIDFORMAT
  1
GRIDFORMAT_BEGIN
 90
        0
 91
        1
 62
     0
 92
       -2
340
0
 93
        0
 40
1.125
309
GRIDFORMAT_END
 95
       32
302
GRIDFORMAT
  1
GRIDFORMAT_BEGIN
 90
        0
 91
        1
 62
     0
 92
       -2
340
0
 93
        0
 40
1.125
309
GRIDFORMAT_END
309
TABLEFORMAT_END
  1
CELLSTYLE_BEGIN
 90
        2
 91
        1
300
_HEADER
309
CELLSTYLE_END
300
CELLSTYLE
  1
TABLEFORMAT_BEGIN
 90
        5
170
     1
 91
        0
 92
        0
 62
   257
 93
        1
300
CONTENTFORMAT
  1
CONTENTFORMAT_BEGIN
 90
        0
 91
        0
 92
      512
 93
        0
300

 40
0.0
140
1.0
 94
        2
 62
     0
340
10
144
4.5
309
CONTENTFORMAT_END
171
     1
301
MARGIN
  1
CELLMARGIN_BEGIN
 40
1.5
 40
1.5
 40
1.5
 40
1.5
 40
4.5
 40
4.5
309
CELLMARGIN_END
 94
        6
 95
        1
302
GRIDFORMAT
  1
GRIDFORMAT_BEGIN
 90
        0
 91
        1
 62
     0
 92
       -2
340
0
 93
        0
 40
1.125
309
GRIDFORMAT_END
 95
        2
302
GRIDFORMAT
  1
GRIDFORMAT_BEGIN
 90
        0
 91
        1
 62
     0
 92
       -2
340
0
 93
        0
 40
1.125
309
GRIDFORMAT_END
 95
        4
302
GRIDFORMAT
  1
GRIDFORMAT_BEGIN
 90
        0
 91
        1
 62
     0
 92
       -2
340
0
 93
        0
 40
1.125
309
GRIDFORMAT_END
 95
        8
302
GRIDFORMAT
  1
GRIDFORMAT_BEGIN
 90
        0
 91
        1
 62
     0
 92
       -2
340
0
 93
        0
 40
1.125
309
GRIDFORMAT_END
 95
       16
302
GRIDFORMAT
  1
GRIDFORMAT_BEGIN
 90
        0
 91
        1
 62
     0
 92
       -2
340
0
 93
        0
 40
1.125
309
GRIDFORMAT_END
 95
       32
302
GRIDFORMAT
  1
GRIDFORMAT_BEGIN
 90
        0
 91
        1
 62
     0
 92
       -2
340
0
 93
        0
 40
1.125
309
GRIDFORMAT_END
309
TABLEFORMAT_END
  1
CELLSTYLE_BEGIN
 90
        3
 91
        2
300
_DATA
309
CELLSTYLE_END
  0
ENDSEC
  0
SECTION
  2
ACDSDATA
 70
     2
 71
     8
  0
ACDSSCHEMA
 90
        0
  1
AcDb_Thumbnail_Schema
  2
AcDbDs::ID
280
    10
 91
        8
  2
Thumbnail_Data
280
    15
 91
        0
101
ACDSRECORD
 95
        0
 90
        1
  2
AcDbDs::TreatedAsObjectData
280
     1
291
     1
101
ACDSRECORD
 95
        0
 90
        2
  2
AcDbDs::Legacy
280
     1
291
     1
101
ACDSRECORD
  1
AcDbDs::ID
 90
        3
  2
AcDs:Indexable
280
     1
291
     1
101
ACDSRECORD
  1
AcDbDs::ID
 90
        4
  2
AcDbDs::HandleAttribute
280
     7
282
     1
  0
ACDSSCHEMA
 90
        1
  1
AcDbDs::TreatedAsObjectDataSchema
  2
AcDbDs::TreatedAsObjectData
280
     1
 91
        0
  0
ACDSSCHEMA
 90
        2
  1
AcDbDs::LegacySchema
  2
AcDbDs::Legacy
280
     1
 91
        0
  0
ACDSSCHEMA
 90
        3
  1
AcDbDs::IndexedPropertySchema
  2
AcDs:Indexable
280
     1
 91
        0
  0
ACDSSCHEMA
 90
        4
  1
AcDbDs::HandleAttributeSchema
  2
AcDbDs::HandleAttribute
280
     7
 91
        1
284
     1
  0
ACDSRECORD
 90
        0
  2
AcDbDs::ID
280
    10
320
8186
  2
Thumbnail_Data
280
    15
 94
     1745
310
89504E470D0A1A0A0000000D49484452000001000000007C0803000000B13B9E5A00000300504C5445000000000000C8C8C80000000000000000000000000000000000000000000000000000330000660000990000CC0000FF0033000033330033660033990033CC0033FF0066000066330066660066990066CC0066FF0099
310
000099330099660099990099CC0099FF00CC0000CC3300CC6600CC9900CCCC00CCFF00FF0000FF3300FF6600FF9900FFCC00FFFF3300003300333300663300993300CC3300FF3333003333333333663333993333CC3333FF3366003366333366663366993366CC3366FF3399003399333399663399993399CC3399FF33CC00
310
33CC3333CC6633CC9933CCCC33CCFF33FF0033FF3333FF6633FF9933FFCC33FFFF6600006600336600666600996600CC6600FF6633006633336633666633996633CC6633FF6666006666336666666666996666CC6666FF6699006699336699666699996699CC6699FF66CC0066CC3366CC6666CC9966CCCC66CCFF66FF0066
310
FF3366FF6666FF9966FFCC66FFFF9900009900339900669900999900CC9900FF9933009933339933669933999933CC9933FF9966009966339966669966999966CC9966FF9999009999339999669999999999CC9999FF99CC0099CC3399CC6699CC9999CCCC99CCFF99FF0099FF3399FF6699FF9999FFCC99FFFFCC0000CC00
310
33CC0066CC0099CC00CCCC00FFCC3300CC3333CC3366CC3399CC33CCCC33FFCC6600CC6633CC6666CC6699CC66CCCC66FFCC9900CC9933CC9966CC9999CC99CCCC99FFCCCC00CCCC33CCCC66CCCC99CCCCCCCCCCFFCCFF00CCFF33CCFF66CCFF99CCFFCCCCFFFFFF0000FF0033FF0066FF0099FF00CCFF00FFFF3300FF3333
310
FF3366FF3399FF33CCFF33FFFF6600FF6633FF6666FF6699FF66CCFF66FFFF9900FF9933FF9966FF9999FF99CCFF99FFFFCC00FFCC33FFCC66FFCC99FFCCCCFFCCFFFFFF00FFFF33FFFF66FFFF99FFFFCCFFFFFF0000000D0D0D1A1A1A2828283535354343435050505D5D5D6B6B6B787878868686939393A1A1A1AEAEAEBB
310
BBBBC9C9C9D6D6D6E4E4E4F1F1F1FFFFFF00000000000000000000000000000000000000000000000000000000000008F1915C0000038C4944415478DAED9D595AC4200C80739CBEE4FE97E11ABC2B654B206D1D3F97C982DAA10CF6939F6C85D801F885927FA9809692555D3600048000100002C0FBFCA537CECF0B80E5D7
310
B34B09700F207B06B068816E003F7A07A012C09B5D2C00FC038026C744A433AB4317F2DA776A4E6BB40000EAA0610E1BDA69B77939B70820F72AE47E3421017065DF9A04D4B14E09206F5851811EE465AA13F763CB6104230E707833F4A8121A012CD69F34B0BEA30FF583C600640E80440133601808EC0198BE6F4E3FB717
310
30BE4C0180540A3FFD860DD10920DD963FB6ADFF02808B02DC9D06000700909797D440390094CA4B52A01E006C555F000003C05E7305A08D7B54FC01603F2E00142F775AFBA35AFC3EFB8E009C431E2EAFABFF04603C0E487DCE8FCFE3510A3D96574F00DC4B8068036C03482B00C10BB802E02E0E5800F88B042F0038BA17
310
60003CDE0D72000ED7032880A90153047CDD0B0825B95812C3ABE265511461DE0C350538CF02801B00DE55A094837738D6E522F3002E4A0070066073FB2E00AC04AEDEB30BC0797EC0FB5F36000480001000FEEA2F7DDDF25B7783C901009003A15A4D52709C84BA01005F9200DAB875D00E604A0019E312188F419763ADCF
310
3E7600F0C6476B615105440017EEC292047CA1719F7F7700EAD9310C831100FB86C8AA1169EB56974EAD48C0BE2B78BE3BA7B8BEF4D5F3BE6E6A08C04AA201006F0010E8C6407A0240FC8115006DF0E59B03E8FB459B049802708EB2278C2005802C7DC82680A6FA6DAA71018028DB002B2A50877DBE1C3D83961A4104C300
310
4A82C4991B5B5EB026CB8E0489B34B69AAB9146BB100A0897C357DC025608C0F81EEA20F094003005A8ACC40514EA1BA0198F7BB2C4232A5022CF84322110280DD061411500F80E409563D6FD3CF01405391450240B91B2CC6ADFE6F00125FD05DE17083D508968ED600007609208EB00704C00221291234100A1300D03C41
310
8F87E01900CA97D56904878D3FC6D03C00A06B008D00C99C65A1B0E806B503C0BB22009012AA350340369FFBF4D2453F3ADDC7DEA659029664E9B4AC0D0AE232AA49BF119CFE6C36CA5B8374F768DF3E549E25B66C8CF25D2FD2B90DBB6D8DD13E0EB2C4EEFB448648000800012000048000A01B80FB678ABE3E326B004002
310
C0DAC831677B00F23D80F1E0D1F9FCCDB001C654E0A9311BB701B20A8CE7CF13E5770A20AF1F3463D70BAC54E6D3E7BD48403C5C3DEE050240000800012000048000600F80A28FDEFE0080EE1DA0E5D481FE0000000049454E44AE426082
  0
ENDSEC
  0
EOF
