  0
SECTION
  2
HEADER
  9
$ACADVER
  1
AC1009
  9
$INSBASE
 10
0.0
 20
0.0
 30
0.0
  9
$EXTMIN
 10
0.0
 20
0.0
 30
0.0
  9
$EXTMAX
 10
5250.0
 20
7375.0
 30
0.0
  9
$LIMMIN
 10
0.0
 20
0.0
  9
$LIMMAX
 10
297.0
 20
210.0
  9
$ORTHOMODE
 70
     0
  9
$REGENMODE
 70
     1
  9
$FILLMODE
 70
     0
  9
$QTEXTMODE
 70
     0
  9
$MIRRTEXT
 70
     1
  9
$DRAGMODE
 70
     2
  9
$LTSCALE
 40
100.0
  9
$OSMODE
 70
    37
  9
$ATTMODE
 70
     1
  9
$TEXTSIZE
 40
180.0
  9
$TRACEWID
 40
0.05
  9
$TEXTSTYLE
  7
STANDARD
  9
$CLAYER
  8
3
  9
$CELTYPE
  6
BYLAYER
  9
$CECOLOR
 62
   256
  9
$DIMSCALE
 40
25.0
  9
$DIMASZ
 40
2.0
  9
$DIMEXO
 40
0.5
  9
$DIMDLI
 40
10.0
  9
$DIMRND
 40
0.0
  9
$DIMDLE
 40
0.0
  9
$DIMEXE
 40
1.0
  9
$DIMTP
 40
1.0
  9
$DIMTM
 40
1.0
  9
$DIMTXT
 40
3.0
  9
$DIMCEN
 40
0.0
  9
$DIMTSZ
 40
0.0
  9
$DIMTOL
 70
     0
  9
$DIMLIM
 70
     0
  9
$DIMTIH
 70
     0
  9
$DIMTOH
 70
     0
  9
$DIMSE1
 70
     0
  9
$DIMSE2
 70
     0
  9
$DIMTAD
 70
     1
  9
$DIMZIN
 70
     8
  9
$DIMBLK
  1

  9
$DIMASO
 70
     1
  9
$DIMSHO
 70
     1
  9
$DIMPOST
  1

  9
$DIMAPOST
  1

  9
$DIMALT
 70
     0
  9
$DIMALTD
 70
     2
  9
$DIMALTF
 40
0.039
  9
$DIMLFAC
 40
1.0
  9
$DIMTOFL
 70
     1
  9
$DIMTVP
 40
0.0
  9
$DIMTIX
 70
     0
  9
$DIMSOXD
 70
     0
  9
$DIMSAH
 70
     1
  9
$DIMBLK1
  1
OPEN
  9
$DIMBLK2
  1
OPEN
  9
$DIMSTYLE
  2
IGA
  9
$DIMCLRD
 70
     0
  9
$DIMCLRE
 70
     0
  9
$DIMCLRT
 70
     0
  9
$DIMTFAC
 40
10.0
  9
$DIMGAP
 40
1.0
  9
$LUNITS
 70
     2
  9
$LUPREC
 70
     3
  9
$SKETCHINC
 40
0.1
  9
$FILLETRAD
 40
50.0
  9
$AUNITS
 70
     0
  9
$AUPREC
 70
     0
  9
$MENU
  1
acad
  9
$ELEVATION
 40
0.0
  9
$PELEVATION
 40
0.0
  9
$THICKNESS
 40
0.0
  9
$LIMCHECK
 70
     0
  9
$BLIPMODE
 70
     0
  9
$CHAMFERA
 40
0.0
  9
$CHAMFERB
 40
0.0
  9
$SKPOLY
 70
     0
  9
$TDCREATE
 40
2451604.5623556711
  9
$TDUPDATE
 40
2454953.6413474651
  9
$TDINDWG
 40
0.0682920949
  9
$TDUSRTIMER
 40
0.0682920949
  9
$USRTIMER
 70
     1
  9
$ANGBASE
 50
0.0
  9
$ANGDIR
 70
     0
  9
$PDMODE
 70
     0
  9
$PDSIZE
 40
0.0
  9
$PLINEWID
 40
0.0
  9
$COORDS
 70
     1
  9
$SPLFRAME
 70
     0
  9
$SPLINETYPE
 70
     6
  9
$SPLINESEGS
 70
     8
  9
$ATTDIA
 70
     0
  9
$ATTREQ
 70
     1
  9
$HANDLING
 70
 10241
  9
$HANDSEED
  5
84C0
  9
$SURFTAB1
 70
     6
  9
$SURFTAB2
 70
     6
  9
$SURFTYPE
 70
     6
  9
$SURFU
 70
     6
  9
$SURFV
 70
     6
  9
$UCSNAME
  2

  9
$UCSORG
 10
0.0
 20
0.0
 30
0.0
  9
$UCSXDIR
 10
1.0
 20
0.0
 30
0.0
  9
$UCSYDIR
 10
0.0
 20
1.0
 30
0.0
  9
$PUCSNAME
  2

  9
$PUCSORG
 10
0.0
 20
0.0
 30
0.0
  9
$PUCSXDIR
 10
1.0
 20
0.0
 30
0.0
  9
$PUCSYDIR
 10
0.0
 20
1.0
 30
0.0
  9
$USERI1
 70
     0
  9
$USERI2
 70
     0
  9
$USERI3
 70
     0
  9
$USERI4
 70
     0
  9
$USERI5
 70
     0
  9
$USERR1
 40
0.0
  9
$USERR2
 40
0.0
  9
$USERR3
 40
0.0
  9
$USERR4
 40
0.0
  9
$USERR5
 40
0.0
  9
$WORLDVIEW
 70
     1
  9
$SHADEDGE
 70
     3
  9
$SHADEDIF
 70
    70
  9
$TILEMODE
 70
     1
  9
$MAXACTVP
 70
    16
  9
$PLIMCHECK
 70
     0
  9
$PEXTMIN
 10
1.0000000000000000E+020
 20
1.0000000000000000E+020
 30
1.0000000000000000E+020
  9
$PEXTMAX
 10
-1.0000000000000000E+020
 20
-1.0000000000000000E+020
 30
-1.0000000000000000E+020
  9
$PLIMMIN
 10
0.0
 20
0.0
  9
$PLIMMAX
 10
12.0
 20
9.0
  9
$UNITMODE
 70
     0
  9
$VISRETAIN
 70
     0
  9
$PLINEGEN
 70
     0
  9
$PSLTSCALE
 70
     1
  0
ENDSEC
  0
SECTION
  2
TABLES
  0
TABLE
  2
VPORT
 70
     2
  0
VPORT
  2
*ACTIVE
 70
     0
 10
0.0
 20
0.0
 11
1.0
 21
1.0
 12
5197.1757272422137
 22
857.46064632159323
 13
0.0
 23
0.0
 14
10.0
 24
10.0
 15
10.0
 25
10.0
 16
0.0
 26
0.0
 36
1.0
 17
0.0
 27
0.0
 37
0.0
 40
2330.508566258869
 41
3.1666666666666661
 42
50.0
 43
0.0
 44
0.0
 50
0.0
 51
0.0
 71
     0
 72
   100
 73
     1
 74
     0
 75
     0
 76
     0
 77
     0
 78
     0
  0
ENDTAB
  0
TABLE
  2
LTYPE
 70
     2
  0
LTYPE
  2
CONTINUOUS
 70
     0
  3
Solid line
 72
    65
 73
     0
 40
0.0
  0
LTYPE
  2
CENTER
 70
     0
  3
____ _ ____ _ ____ _ ____ _ ____ _ ____ _ ____ 
 72
    65
 73
     4
 40
2.0
 49
1.25
 49
-0.25
 49
0.25
 49
-0.25
  0
ENDTAB
  0
TABLE
  2
LAYER
 70
     6
  0
LAYER
  2
0
 70
     0
 62
     7
  6
CONTINUOUS
  0
LAYER
  2
3
 70
     0
 62
     2
  6
CONTINUOUS
  0
LAYER
  2
2
 70
     0
 62
     3
  6
CENTER
  0
LAYER
  2
1
 70
     0
 62
     4
  6
CONTINUOUS
  0
LAYER
  2
4
 70
     0
 62
     7
  6
CONTINUOUS
  0
LAYER
  2
DEFPOINTS
 70
     0
 62
     7
  6
CONTINUOUS
  0
ENDTAB
  0
TABLE
  2
STYLE
 70
     1
  0
STYLE
  2
STANDARD
 70
     0
 40
0.0
 41
1.0
 50
0.0
 71
     0
 42
180.0
  3
simplex.shx
  4
extfont.shx
  0
ENDTAB
  0
TABLE
  2
VIEW
 70
     0
  0
ENDTAB
  0
TABLE
  2
UCS
 70
     0
  0
ENDTAB
  0
TABLE
  2
APPID
 70
     1
  0
APPID
  2
ACAD
 70
     0
  0
ENDTAB
  0
TABLE
  2
DIMSTYLE
 70
     1
  0
DIMSTYLE
  2
IGA
 70
     0
  3

  4

  5

  6
OPEN
  7
OPEN
 40
2.0
 41
2.0
 42
0.5
 43
10.0
 44
1.0
 45
0.0
 46
0.0
 47
1.0
 48
1.0
140
3.0
141
0.0
142
0.0
143
0.03937
144
1.0
145
0.0
146
10.0
147
1.0
 71
     0
 72
     0
 73
     0
 74
     0
 75
     0
 76
     0
 77
     1
 78
     8
170
     0
171
     2
172
     0
173
     1
174
     0
175
     0
176
     0
177
     0
178
     0
  0
ENDTAB
  0
ENDSEC
  0
SECTION
  2
BLOCKS
  0
BLOCK
  8
0
  2
$MODEL_SPACE
 70
     0
 10
0.0
 20
0.0
 30
0.0
  3
$MODEL_SPACE
  1

  0
ENDBLK
  5
1B
  8
0
  0
BLOCK
 67
     1
  8
0
  2
$PAPER_SPACE
 70
     0
 10
0.0
 20
0.0
 30
0.0
  3
$PAPER_SPACE
  1

  0
ENDBLK
  5
18
 67
     1
  8
0
  0
BLOCK
  8
0
  2
_OPEN
 70
     0
 10
0.0
 20
0.0
 30
0.0
  3
_OPEN
  1

  0
LINE
  5
79FD
  8
0
  6
BYBLOCK
 62
     0
 10
-1.0
 20
0.1666666666666666
 30
0.0
 11
0.0
 21
0.0
 31
0.0
  0
LINE
  5
79FE
  8
0
  6
BYBLOCK
 62
     0
 10
0.0
 20
0.0
 30
0.0
 11
-1.0
 21
-0.1666666666666666
 31
0.0
  0
LINE
  5
79FF
  8
0
  6
BYBLOCK
 62
     0
 10
0.0
 20
0.0
 30
0.0
 11
-1.0
 21
0.0
 31
0.0
  0
ENDBLK
  5
7A01
  8
0
  0
BLOCK
  8
0
  2
*D1
 70
     1
 10
0.0
 20
0.0
 30
0.0
  3
*D1
  1

  0
LINE
  5
83F2
  8
3
 62
     0
 10
3792.5155503706678
 20
3081.8548855434829
 30
0.0
 11
3792.5155503706678
 21
3204.7030872504938
 31
0.0
  0
LINE
  5
83F3
  8
3
 62
     0
 10
4217.515550370671
 20
3081.8548855434829
 30
0.0
 11
4217.515550370671
 21
3204.7030872504938
 31
0.0
  0
LINE
  5
83F4
  8
3
 62
     0
 10
3842.5155503706669
 20
3179.7030872504938
 30
0.0
 11
4167.515550370671
 21
3179.7030872504938
 31
0.0
  0
INSERT
  5
83F5
  8
3
 62
     0
  2
_OPEN
 10
3792.5155503706678
 20
3179.7030872504938
 30
0.0
 41
50.0
 42
50.0
 43
50.0
 50
180.0
  0
INSERT
  5
83F6
  8
3
 62
     0
  2
_OPEN
 10
4217.515550370671
 20
3179.7030872504938
 30
0.0
 41
50.0
 42
50.0
 43
50.0
  0
TEXT
  8
3
  40
75
  5
84AD
  62
0
  72
0
  71
0
 10
3866.93
 20
3109.45
 30
0.000000
  1
425
  0
POINT
  5
83F8
  8
DEFPOINTS
 62
     0
 10
3792.5155503706678
 20
3069.3548855434829
 30
0.0
  0
POINT
  5
83F9
  8
DEFPOINTS
 62
     0
 10
4217.515550370671
 20
3069.3548855434829
 30
0.0
  0
POINT
  5
83FA
  8
DEFPOINTS
 62
     0
 10
4217.515550370671
 20
3179.7030872504938
 30
0.0
  0
ENDBLK
  5
8135
  8
0
  0
BLOCK
  8
0
  2
*D2
 70
     1
 10
0.0
 20
0.0
 30
0.0
  3
*D2
  1

  0
LINE
  5
840F
  8
3
 62
     0
 10
4274.3155503706703
 20
2749.3548855434819
 30
0.0
 11
4438.6278381594702
 21
2749.3548855434819
 31
0.0
  0
LINE
  5
8410
  8
3
 62
     0
 10
4274.3155503706703
 20
2189.354885543481
 30
0.0
 11
4438.6278381594702
 21
2189.354885543481
 31
0.0
  0
LINE
  5
8411
  8
3
 62
     0
 10
4413.6278381594693
 20
2699.3548855434829
 30
0.0
 11
4413.6278381594693
 21
2239.354885543481
 31
0.0
  0
INSERT
  5
8412
  8
3
 62
     0
  2
_OPEN
 10
4413.6278381594693
 20
2749.3548855434819
 30
0.0
 41
50.0
 42
50.0
 43
50.0
 50
90.0
  0
INSERT
  5
8413
  8
3
 62
     0
  2
_OPEN
 10
4413.6278381594693
 20
2189.354885543481
 30
0.0
 41
50.0
 42
50.0
 43
50.0
 50
270.0
  0
TEXT
  8
3
  40
75
  5
84AE
  62
0
  72
0
  71
0
 10
4201.13
 20
2336.60
 30
0.000000
  1
φ560
  0
POINT
  5
8415
  8
DEFPOINTS
 62
     0
 10
4261.8155503706703
 20
2749.3548855434819
 30
0.0
  0
POINT
  5
8416
  8
DEFPOINTS
 62
     0
 10
4261.8155503706703
 20
2189.354885543481
 30
0.0
  0
POINT
  5
8417
  8
DEFPOINTS
 62
     0
 10
4413.6278381594693
 20
2189.354885543481
 30
0.0
  0
ENDBLK
  5
8356
  8
0
  0
BLOCK
  8
0
  2
*D3
 70
     1
 10
0.0
 20
0.0
 30
0.0
  3
*D3
  1

  0
LINE
  5
8418
  8
3
 62
     0
 10
997.62717712431902
 20
1811.8502584387249
 30
0.0
 11
997.62717712431902
 21
1647.9344044640679
 31
0.0
  0
LINE
  5
8419
  8
3
 62
     0
 10
1897.6271771243189
 20
1773.2697458546299
 30
0.0
 11
1897.6271771243189
 21
1647.9344044640679
 31
0.0
  0
LINE
  5
841A
  8
3
 62
     0
 10
1047.6271771243189
 20
1672.9344044640679
 30
0.0
 11
1847.6271771243189
 21
1672.9344044640679
 31
0.0
  0
INSERT
  5
841B
  8
3
 62
     0
  2
_OPEN
 10
997.62717712431902
 20
1672.9344044640679
 30
0.0
 41
50.0
 42
50.0
 43
50.0
 50
180.0
  0
INSERT
  5
841C
  8
3
 62
     0
  2
_OPEN
 10
1897.6271771243189
 20
1672.9344044640679
 30
0.0
 41
50.0
 42
50.0
 43
50.0
  0
TEXT
  8
3
  40
75
  5
84AF
  62
0
  72
0
  71
0
 10
1297.63
 20
1602.68
 30
0.000000
  1
900
  0
POINT
  5
841E
  8
DEFPOINTS
 62
     0
 10
997.62717712431902
 20
1824.3502584387249
 30
0.0
  0
POINT
  5
841F
  8
DEFPOINTS
 62
     0
 10
1897.6271771243189
 20
1785.7697458546299
 30
0.0
  0
POINT
  5
8420
  8
DEFPOINTS
 62
     0
 10
1897.6271771243189
 20
1672.9344044640679
 30
0.0
  0
ENDBLK
  5
8235
  8
0
  0
BLOCK
  8
0
  2
*D4
 70
     1
 10
0.0
 20
0.0
 30
0.0
  3
*D4
  1

  0
LINE
  5
824D
  8
0
  6
BYBLOCK
 62
     0
 10
1635.576605973728
 20
1830.2697458546299
 30
0.0
 11
1635.576605973728
 21
1704.9344044640679
 31
0.0
  0
LINE
  5
824E
  8
0
  6
BYBLOCK
 62
     0
 10
1885.576605973728
 20
1868.856170832493
 30
0.0
 11
1885.576605973728
 21
1704.9344044640679
 31
0.0
  0
LINE
  5
824F
  8
0
  6
BYBLOCK
 62
     0
 10
1685.576605973728
 20
1729.9344044640679
 30
0.0
 11
1835.576605973728
 21
1729.9344044640679
 31
0.0
  0
TEXT
  5
8250
  8
3
 62
     0
 10
1666.4813231098569
 20
1748.5786800813109
 30
0.0
 40
75.0
  1
250
  0
INSERT
  5
8251
  8
0
  6
BYBLOCK
 62
     0
  2
_OPEN
 10
1635.576605973728
 20
1729.9344044640679
 30
0.0
 41
50.0
 42
50.0
 43
50.0
 50
180.0
  0
INSERT
  5
8252
  8
0
  6
BYBLOCK
 62
     0
  2
_OPEN
 10
1885.576605973728
 20
1729.9344044640679
 30
0.0
 41
50.0
 42
50.0
 43
50.0
  0
POINT
  5
8253
  8
DEFPOINTS
  6
BYBLOCK
 62
     0
 10
1635.576605973728
 20
1842.7697458546311
 30
0.0
  0
POINT
  5
8254
  8
DEFPOINTS
  6
BYBLOCK
 62
     0
 10
1885.576605973728
 20
1881.356170832493
 30
0.0
  0
POINT
  5
8255
  8
DEFPOINTS
  6
BYBLOCK
 62
     0
 10
1885.576605973728
 20
1729.9344044640679
 30
0.0
  0
ENDBLK
  5
8256
  8
0
  0
BLOCK
  8
0
  2
*D5
 70
     1
 10
0.0
 20
0.0
 30
0.0
  3
*D5
  1

  0
LINE
  5
8421
  8
3
 62
     0
 10
3160.0155503706669
 20
1811.8755579607621
 30
0.0
 11
3160.0155503706669
 21
1651.2467874247559
 31
0.0
  0
LINE
  5
8422
  8
3
 62
     0
 10
4005.0155503706669
 20
1765.2773815651749
 30
0.0
 11
4005.0155503706669
 21
1651.2467874247559
 31
0.0
  0
LINE
  5
8423
  8
3
 62
     0
 10
3210.0155503706669
 20
1676.246787424755
 30
0.0
 11
3955.0155503706669
 21
1676.246787424755
 31
0.0
  0
INSERT
  5
8424
  8
3
 62
     0
  2
_OPEN
 10
3160.0155503706669
 20
1676.246787424755
 30
0.0
 41
50.0
 42
50.0
 43
50.0
 50
180.0
  0
INSERT
  5
8425
  8
3
 62
     0
  2
_OPEN
 10
4005.0155503706669
 20
1676.246787424755
 30
0.0
 41
50.0
 42
50.0
 43
50.0
  0
TEXT
  8
3
  40
75
  5
84B0
  62
0
  72
0
  71
0
 10
3432.52
 20
1606.00
 30
0.000000
  1
845
  0
POINT
  5
8427
  8
DEFPOINTS
 62
     0
 10
3160.0155503706669
 20
1824.3755579607621
 30
0.0
  0
POINT
  5
8428
  8
DEFPOINTS
 62
     0
 10
4005.0155503706669
 20
1777.7773815651749
 30
0.0
  0
POINT
  5
8429
  8
DEFPOINTS
 62
     0
 10
4005.0155503706669
 20
1676.246787424755
 30
0.0
  0
ENDBLK
  5
81F3
  8
0
  0
BLOCK
  8
0
  2
*D6
 70
     1
 10
0.0
 20
0.0
 30
0.0
  3
*D6
  1

  0
LINE
  5
820B
  8
0
  6
BYBLOCK
 62
     0
 10
4005.0155503706669
 20
1822.2773815651749
 30
0.0
 11
4005.0155503706669
 21
1708.0160438565181
 31
0.0
  0
LINE
  5
820C
  8
0
  6
BYBLOCK
 62
     0
 10
4260.0155503706701
 20
1868.8755579607621
 30
0.0
 11
4260.0155503706701
 21
1708.0160438565181
 31
0.0
  0
LINE
  5
820D
  8
0
  6
BYBLOCK
 62
     0
 10
4055.0155503706678
 20
1733.0160438565181
 30
0.0
 11
4210.0155503706692
 21
1733.0160438565181
 31
0.0
  0
TEXT
  5
820E
  8
3
 62
     0
 10
4037.5562613233342
 20
1750.8956239159561
 30
0.0
 40
75.0
  1
255
  0
INSERT
  5
820F
  8
0
  6
BYBLOCK
 62
     0
  2
_OPEN
 10
4005.0155503706669
 20
1733.0160438565181
 30
0.0
 41
50.0
 42
50.0
 43
50.0
 50
180.0
  0
INSERT
  5
8210
  8
0
  6
BYBLOCK
 62
     0
  2
_OPEN
 10
4260.0155503706701
 20
1733.0160438565181
 30
0.0
 41
50.0
 42
50.0
 43
50.0
  0
POINT
  5
8211
  8
DEFPOINTS
  6
BYBLOCK
 62
     0
 10
4005.0155503706669
 20
1834.7773815651749
 30
0.0
  0
POINT
  5
8212
  8
DEFPOINTS
  6
BYBLOCK
 62
     0
 10
4260.0155503706701
 20
1881.3755579607621
 30
0.0
  0
POINT
  5
8213
  8
DEFPOINTS
  6
BYBLOCK
 62
     0
 10
4260.0155503706701
 20
1733.0160438565181
 30
0.0
  0
ENDBLK
  5
8214
  8
0
  0
BLOCK
  8
0
  2
*D7
 70
     1
 10
0.0
 20
0.0
 30
0.0
  3
*D7
  1

  0
LINE
  5
842A
  8
3
 62
     0
 10
2297.1240924022518
 20
3069.354885537271
 30
0.0
 11
2624.4863605000878
 21
3069.354885537271
 31
0.0
  0
LINE
  5
842B
  8
3
 62
     0
 10
2369.6434618869062
 20
2469.354885537271
 30
0.0
 11
2624.4863605000878
 21
2469.354885537271
 31
0.0
  0
LINE
  5
842C
  8
3
 62
     0
 10
2599.4863605000878
 20
3019.354885537271
 30
0.0
 11
2599.4863605000878
 21
2519.354885537271
 31
0.0
  0
INSERT
  5
842D
  8
3
 62
     0
  2
_OPEN
 10
2599.4863605000878
 20
3069.354885537271
 30
0.0
 41
50.0
 42
50.0
 43
50.0
 50
90.0
  0
INSERT
  5
842E
  8
3
 62
     0
  2
_OPEN
 10
2599.4863605000878
 20
2469.354885537271
 30
0.0
 41
50.0
 42
50.0
 43
50.0
 50
270.0
  0
TEXT
  8
3
  40
75
  5
84B1
  62
0
  72
0
  71
0
 10
2386.99
 20
2636.60
 30
0.000000
  1
600
  0
POINT
  5
8430
  8
DEFPOINTS
 62
     0
 10
2284.6240924022518
 20
3069.354885537271
 30
0.0
  0
POINT
  5
8431
  8
DEFPOINTS
 62
     0
 10
2357.1434618869062
 20
2469.354885537271
 30
0.0
  0
POINT
  5
8432
  8
DEFPOINTS
 62
     0
 10
2599.4863605000878
 20
2469.354885537271
 30
0.0
  0
ENDBLK
  5
81AB
  8
0
  0
BLOCK
  8
0
  2
*D8
 70
     1
 10
0.0
 20
0.0
 30
0.0
  3
*D8
  1

  0
LINE
  5
8433
  8
3
 62
     0
 10
2297.1240924022518
 20
3069.354885537271
 30
0.0
 11
2454.042924747474
 21
3069.354885537271
 31
0.0
  0
LINE
  5
8434
  8
3
 62
     0
 10
2275.1270743049049
 20
2489.354885537271
 30
0.0
 11
2454.042924747474
 21
2489.354885537271
 31
0.0
  0
LINE
  5
8435
  8
3
 62
     0
 10
2429.042924747474
 20
3019.354885537271
 30
0.0
 11
2429.042924747474
 21
2539.354885537271
 31
0.0
  0
INSERT
  5
8436
  8
3
 62
     0
  2
_OPEN
 10
2429.042924747474
 20
3069.354885537271
 30
0.0
 41
50.0
 42
50.0
 43
50.0
 50
90.0
  0
INSERT
  5
8437
  8
3
 62
     0
  2
_OPEN
 10
2429.042924747474
 20
2489.354885537271
 30
0.0
 41
50.0
 42
50.0
 43
50.0
 50
270.0
  0
TEXT
  8
3
  40
75
  5
84B2
  62
0
  72
0
  71
0
 10
2216.54
 20
2646.60
 30
0.000000
  1
580
  0
POINT
  5
8439
  8
DEFPOINTS
 62
     0
 10
2284.6240924022518
 20
3069.354885537271
 30
0.0
  0
POINT
  5
843A
  8
DEFPOINTS
 62
     0
 10
2262.6270743049049
 20
2489.354885537271
 30
0.0
  0
POINT
  5
843B
  8
DEFPOINTS
 62
     0
 10
2429.042924747474
 20
2489.354885537271
 30
0.0
  0
ENDBLK
  5
80DB
  8
0
  0
BLOCK
  8
0
  2
*D9
 70
     1
 10
0.0
 20
0.0
 30
0.0
  3
*D9
  1

  0
LINE
  5
843C
  8
3
 62
     0
 10
2369.6434618869062
 20
2469.354885537271
 30
0.0
 11
2624.4863605000878
 21
2469.354885537271
 31
0.0
  0
LINE
  5
843D
  8
3
 62
     0
 10
2160.1271771243191
 20
1994.354885537271
 30
0.0
 11
2624.4863605000878
 21
1994.354885537271
 31
0.0
  0
LINE
  5
843E
  8
3
 62
     0
 10
2599.4863605000878
 20
2419.354885537271
 30
0.0
 11
2599.4863605000878
 21
2044.354885537271
 31
0.0
  0
INSERT
  5
843F
  8
3
 62
     0
  2
_OPEN
 10
2599.4863605000878
 20
2469.354885537271
 30
0.0
 41
50.0
 42
50.0
 43
50.0
 50
90.0
  0
INSERT
  5
8440
  8
3
 62
     0
  2
_OPEN
 10
2599.4863605000878
 20
1994.354885537271
 30
0.0
 41
50.0
 42
50.0
 43
50.0
 50
270.0
  0
TEXT
  8
3
  40
75
  5
84B3
  62
0
  72
0
  71
0
 10
2386.99
 20
2099.10
 30
0.000000
  1
475
  0
POINT
  5
8442
  8
DEFPOINTS
 62
     0
 10
2357.1434618869062
 20
2469.354885537271
 30
0.0
  0
POINT
  5
8443
  8
DEFPOINTS
 62
     0
 10
2147.6271771243191
 20
1994.354885537271
 30
0.0
  0
POINT
  5
8444
  8
DEFPOINTS
 62
     0
 10
2599.4863605000878
 20
1994.354885537271
 30
0.0
  0
ENDBLK
  5
81A0
  8
0
  0
BLOCK
  8
0
  2
*D10
 70
     1
 10
0.0
 20
0.0
 30
0.0
  3
*D10
  1

  0
LINE
  5
83B9
  8
0
  6
BYBLOCK
 62
     0
 10
1898.076605973728
 20
1994.354885537271
 30
0.0
 11
2362.435789349498
 21
1994.354885537271
 31
0.0
  0
LINE
  5
83BA
  8
0
  6
BYBLOCK
 62
     0
 10
1898.076605973728
 20
1899.354885537271
 30
0.0
 11
2362.435789349498
 21
1899.354885537271
 31
0.0
  0
LINE
  5
83BB
  8
0
  6
BYBLOCK
 62
     0
 10
2337.435789349498
 20
2044.354885537271
 30
0.0
 11
2337.435789349498
 21
2094.354885537271
 31
0.0
  0
LINE
  5
83BC
  8
0
  6
BYBLOCK
 62
     0
 10
2337.435789349498
 20
1849.354885537271
 30
0.0
 11
2337.435789349498
 21
1799.354885537271
 31
0.0
  0
TEXT
  5
83BD
  8
3
 62
     0
 10
2482.0786464923549
 20
1913.430260570881
 30
0.0
 40
75.0
  1
(95)
 50
90.0
  0
LINE
  5
83BE
  8
0
  6
BYBLOCK
 62
     0
 10
2337.435789349498
 20
1994.354885537271
 30
0.0
 11
2337.435789349498
 21
1899.354885537271
 31
0.0
  0
INSERT
  5
83BF
  8
0
  6
BYBLOCK
 62
     0
  2
_OPEN
 10
2337.435789349498
 20
1994.354885537271
 30
0.0
 41
50.0
 42
50.0
 43
50.0
 50
270.0
  0
INSERT
  5
83C0
  8
0
  6
BYBLOCK
 62
     0
  2
_DOT
 10
2337.435789349498
 20
1899.354885537271
 30
0.0
 41
50.0
 42
50.0
 43
50.0
 50
90.0
  0
POINT
  5
83C1
  8
DEFPOINTS
  6
BYBLOCK
 62
     0
 10
1885.576605973728
 20
1994.354885537271
 30
0.0
  0
POINT
  5
83C2
  8
DEFPOINTS
  6
BYBLOCK
 62
     0
 10
1885.576605973728
 20
1899.354885537271
 30
0.0
  0
POINT
  5
83C3
  8
DEFPOINTS
  6
BYBLOCK
 62
     0
 10
2337.435789349498
 20
1899.354885537271
 30
0.0
  0
ENDBLK
  5
83C4
  8
0
  0
BLOCK
  8
0
  2
*D11
 70
     1
 10
0.0
 20
0.0
 30
0.0
  3
*D11
  1

  0
LINE
  5
8445
  8
3
 62
     0
 10
2160.1271771243191
 20
1899.354885537271
 30
0.0
 11
2624.4863605000878
 21
1899.354885537271
 31
0.0
  0
LINE
  5
8446
  8
3
 62
     0
 10
2160.1271771243191
 20
1824.354885537271
 30
0.0
 11
2624.4863605000878
 21
1824.354885537271
 31
0.0
  0
LINE
  5
8447
  8
3
 62
     0
 10
2599.4863605000878
 20
1949.354885537271
 30
0.0
 11
2599.4863605000878
 21
1999.354885537271
 31
0.0
  0
LINE
  5
8448
  8
3
 62
     0
 10
2599.4863605000878
 20
1774.354885537271
 30
0.0
 11
2599.4863605000878
 21
1552.9263141086999
 31
0.0
  0
LINE
  5
8449
  8
3
 62
     0
 10
2599.4863605000878
 20
1899.354885537271
 30
0.0
 11
2599.4863605000878
 21
1824.354885537271
 31
0.0
  0
INSERT
  5
844A
  8
3
 62
     0
  2
_DOT
 10
2599.4863605000878
 20
1899.354885537271
 30
0.0
 41
50.0
 42
50.0
 43
50.0
 50
270.0
  0
INSERT
  5
844B
  8
3
 62
     0
  2
_OPEN
 10
2599.4863605000878
 20
1824.354885537271
 30
0.0
 41
50.0
 42
50.0
 43
50.0
 50
90.0
  0
TEXT
  8
3
  40
75
  5
84B4
  62
0
  72
0
  71
0
 10
2386.99
 20
1505.89
 30
0.000000
  1
75
  0
POINT
  5
844D
  8
DEFPOINTS
 62
     0
 10
2147.6271771243191
 20
1899.354885537271
 30
0.0
  0
POINT
  5
844E
  8
DEFPOINTS
 62
     0
 10
2147.6271771243191
 20
1824.354885537271
 30
0.0
  0
POINT
  5
844F
  8
DEFPOINTS
 62
     0
 10
2599.4863605000878
 20
1824.354885537271
 30
0.0
  0
ENDBLK
  5
83B7
  8
0
  0
BLOCK
  8
0
  2
*D12
 70
     1
 10
0.0
 20
0.0
 30
0.0
  3
*D12
  1

  0
LINE
  5
8450
  8
3
 62
     0
 10
2287.6271771243191
 20
3106.8568906181999
 30
0.0
 11
2287.6271771243191
 21
3251.3270301135872
 31
0.0
  0
LINE
  5
8451
  8
3
 62
     0
 10
1897.6271771243189
 20
3119.612679494116
 30
0.0
 11
1897.6271771243189
 21
3251.3270301135872
 31
0.0
  0
LINE
  5
8452
  8
3
 62
     0
 10
2237.6271771243191
 20
3226.3270301135872
 30
0.0
 11
1947.6271771243189
 21
3226.3270301135872
 31
0.0
  0
INSERT
  5
8453
  8
3
 62
     0
  2
_OPEN
 10
2287.6271771243191
 20
3226.3270301135872
 30
0.0
 41
50.0
 42
50.0
 43
50.0
  0
INSERT
  5
8454
  8
3
 62
     0
  2
_OPEN
 10
1897.6271771243189
 20
3226.3270301135872
 30
0.0
 41
50.0
 42
50.0
 43
50.0
 50
180.0
  0
TEXT
  8
3
  40
75
  5
84B5
  62
0
  72
0
  71
0
 10
1942.63
 20
3156.08
 30
0.000000
  1
390
  0
POINT
  5
8456
  8
DEFPOINTS
 62
     0
 10
2287.6271771243191
 20
3094.3568906181999
 30
0.0
  0
POINT
  5
8457
  8
DEFPOINTS
 62
     0
 10
1897.6271771243189
 20
3107.112679494116
 30
0.0
  0
POINT
  5
8458
  8
DEFPOINTS
 62
     0
 10
1897.6271771243189
 20
3226.3270301135872
 30
0.0
  0
ENDBLK
  5
80E6
  8
0
  0
BLOCK
  8
0
  2
*D13
 70
     1
 10
0.0
 20
0.0
 30
0.0
  3
*D13
  1

  0
LINE
  5
8459
  8
3
 62
     0
 10
1897.6271771243189
 20
3119.612679494116
 30
0.0
 11
1897.6271771243189
 21
3251.3270301135872
 31
0.0
  0
LINE
  5
845A
  8
3
 62
     0
 10
1413.6271771243189
 20
2524.3317143575669
 30
0.0
 11
1413.6271771243189
 21
3251.3270301135872
 31
0.0
  0
LINE
  5
845B
  8
3
 62
     0
 10
1847.6271771243189
 20
3226.3270301135872
 30
0.0
 11
1463.6271771243189
 21
3226.3270301135872
 31
0.0
  0
INSERT
  5
845C
  8
3
 62
     0
  2
_OPEN
 10
1897.6271771243189
 20
3226.3270301135872
 30
0.0
 41
50.0
 42
50.0
 43
50.0
  0
INSERT
  5
845D
  8
3
 62
     0
  2
_OPEN
 10
1413.6271771243189
 20
3226.3270301135872
 30
0.0
 41
50.0
 42
50.0
 43
50.0
 50
180.0
  0
TEXT
  8
3
  40
75
  5
84B6
  62
0
  72
0
  71
0
 10
1505.63
 20
3156.08
 30
0.000000
  1
484
  0
POINT
  5
845F
  8
DEFPOINTS
 62
     0
 10
1897.6271771243189
 20
3107.112679494116
 30
0.0
  0
POINT
  5
8460
  8
DEFPOINTS
 62
     0
 10
1413.6271771243189
 20
2511.8317143575669
 30
0.0
  0
POINT
  5
8461
  8
DEFPOINTS
 62
     0
 10
1413.6271771243189
 20
3226.3270301135872
 30
0.0
  0
ENDBLK
  5
80D0
  8
0
  0
BLOCK
  8
0
  2
*D14
 70
     1
 10
0.0
 20
0.0
 30
0.0
  3
*D14
  1

  0
LINE
  5
8462
  8
3
 62
     0
 10
2287.6271771243191
 20
3106.8568906181999
 30
0.0
 11
2287.6271771243191
 21
3391.4264058579151
 31
0.0
  0
LINE
  5
8463
  8
3
 62
     0
 10
997.62717712431902
 20
2081.850258441209
 30
0.0
 11
997.62717712431925
 21
3391.4264058579151
 31
0.0
  0
LINE
  5
8464
  8
3
 62
     0
 10
2237.6271771243191
 20
3366.4264058579151
 30
0.0
 11
1047.6271771243189
 21
3366.4264058579151
 31
0.0
  0
INSERT
  5
8465
  8
3
 62
     0
  2
_OPEN
 10
2287.6271771243191
 20
3366.4264058579151
 30
0.0
 41
50.0
 42
50.0
 43
50.0
  0
INSERT
  5
8466
  8
3
 62
     0
  2
_OPEN
 10
997.62717712431925
 20
3366.4264058579151
 30
0.0
 41
50.0
 42
50.0
 43
50.0
 50
180.0
  0
TEXT
  8
3
  40
75
  5
84B7
  62
0
  72
0
  71
0
 10
1492.63
 20
3296.18
 30
0.000000
  1
1290
  0
POINT
  5
8468
  8
DEFPOINTS
 62
     0
 10
2287.6271771243191
 20
3094.3568906181999
 30
0.0
  0
POINT
  5
8469
  8
DEFPOINTS
 62
     0
 10
997.62717712431902
 20
2069.350258441209
 30
0.0
  0
POINT
  5
846A
  8
DEFPOINTS
 62
     0
 10
997.62717712431925
 20
3366.4264058579151
 30
0.0
  0
ENDBLK
  5
8081
  8
0
  0
BLOCK
  8
0
  2
*D15
 70
     1
 10
0.0
 20
0.0
 30
0.0
  3
*D15
  1

  0
LINE
  5
846B
  8
3
 62
     0
 10
4005.0155503706692
 20
3301.3425207722189
 30
0.0
 11
4005.0155503706692
 21
3401.6466928673608
 31
0.0
  0
LINE
  5
846C
  8
3
 62
     0
 10
3054.5155503706692
 20
2581.8548855434829
 30
0.0
 11
3054.5155503706692
 21
3401.6466928673608
 31
0.0
  0
LINE
  5
846D
  8
3
 62
     0
 10
3955.0155503706692
 20
3376.6466928673599
 30
0.0
 11
3104.5155503706692
 21
3376.6466928673599
 31
0.0
  0
INSERT
  5
846E
  8
3
 62
     0
  2
_OPEN
 10
4005.0155503706692
 20
3376.6466928673599
 30
0.0
 41
50.0
 42
50.0
 43
50.0
  0
INSERT
  5
846F
  8
3
 62
     0
  2
_OPEN
 10
3054.5155503706692
 20
3376.6466928673599
 30
0.0
 41
50.0
 42
50.0
 43
50.0
 50
180.0
  0
TEXT
  8
3
  40
75
  5
84B8
  62
0
  72
0
  71
0
 10
3379.77
 20
3368.90
 30
0.000000
  1
MAX
  0
TEXT
  8
3
  40
75
  5
84B9
  62
0
  72
0
  71
0
 10
3379.77
 20
3271.40
 30
0.000000
  1
1010
  0
POINT
  5
8471
  8
DEFPOINTS
 62
     0
 10
4005.0155503706692
 20
3288.8425207722189
 30
0.0
  0
POINT
  5
8472
  8
DEFPOINTS
 62
     0
 10
3054.5155503706692
 20
2569.3548855434829
 30
0.0
  0
POINT
  5
8473
  8
DEFPOINTS
 62
     0
 10
3054.5155503706692
 20
3376.6466928673599
 30
0.0
  0
ENDBLK
  5
8361
  8
0
  0
BLOCK
  8
0
  2
*D16
 70
     1
 10
0.0
 20
0.0
 30
0.0
  3
*D16
  1

  0
LINE
  5
8474
  8
3
 62
     0
 10
2160.1204817125599
 20
5158.0421513559559
 30
0.0
 11
2585.1653472133689
 21
5158.0421513559559
 31
0.0
  0
LINE
  5
8475
  8
3
 62
     0
 10
2160.1261370457278
 20
4058.0421513704928
 30
0.0
 11
2585.1653472133689
 21
4058.0421513704928
 31
0.0
  0
LINE
  5
8476
  8
3
 62
     0
 10
2560.1653472133689
 20
5108.0421513559559
 30
0.0
 11
2560.1653472133689
 21
4108.0421513704932
 31
0.0
  0
INSERT
  5
8477
  8
3
 62
     0
  2
_OPEN
 10
2560.1653472133698
 20
5158.0421513559559
 30
0.0
 41
50.0
 42
50.0
 43
50.0
 50
90.0
  0
INSERT
  5
8478
  8
3
 62
     0
  2
_OPEN
 10
2560.1653472133689
 20
4058.0421513704928
 30
0.0
 41
50.0
 42
50.0
 43
50.0
 50
270.0
  0
TEXT
  8
3
  40
75
  5
84BA
  62
0
  72
0
  71
0
 10
2347.67
 20
4475.29
 30
0.000000
  1
1100
  0
POINT
  5
847A
  8
DEFPOINTS
 62
     0
 10
2147.620481712559
 20
5158.0421513559559
 30
0.0
  0
POINT
  5
847B
  8
DEFPOINTS
 62
     0
 10
2147.6261370457278
 20
4058.0421513704928
 30
0.0
  0
POINT
  5
847C
  8
DEFPOINTS
 62
     0
 10
2560.1653472133689
 20
4058.0421513704928
 30
0.0
  0
ENDBLK
  5
803B
  8
0
  0
BLOCK
  8
0
  2
*D17
 70
     1
 10
0.0
 20
0.0
 30
0.0
  3
*D17
  1

  0
LINE
  5
847D
  8
3
 62
     0
 10
997.62613706092804
 20
4045.5362389767251
 30
0.0
 11
997.62613706092804
 21
3711.8953862963531
 31
0.0
  0
LINE
  5
847E
  8
3
 62
     0
 10
2147.6261370457278
 20
4045.5421513704928
 30
0.0
 11
2147.6261370457278
 21
3711.8953862963531
 31
0.0
  0
LINE
  5
847F
  8
3
 62
     0
 10
1047.6261370609279
 20
3736.8953862963531
 30
0.0
 11
2097.6261370457278
 21
3736.8953862963531
 31
0.0
  0
INSERT
  5
8480
  8
3
 62
     0
  2
_OPEN
 10
997.62613706092804
 20
3736.8953862963531
 30
0.0
 41
50.0
 42
50.0
 43
50.0
 50
180.0
  0
INSERT
  5
8481
  8
3
 62
     0
  2
_OPEN
 10
2147.6261370457278
 20
3736.8953862963531
 30
0.0
 41
50.0
 42
50.0
 43
50.0
  0
TEXT
  8
3
  40
75
  5
84BB
  62
0
  72
0
  71
0
 10
1422.63
 20
3666.65
 30
0.000000
  1
1150
  0
POINT
  5
8483
  8
DEFPOINTS
 62
     0
 10
997.62613706092804
 20
4058.0362389767251
 30
0.0
  0
POINT
  5
8484
  8
DEFPOINTS
 62
     0
 10
2147.6261370457278
 20
4058.0421513704928
 30
0.0
  0
POINT
  5
8485
  8
DEFPOINTS
 62
     0
 10
2147.6261370457278
 20
3736.8953862963531
 30
0.0
  0
ENDBLK
  5
80BA
  8
0
  0
BLOCK
  8
0
  2
*D18
 70
     1
 10
0.0
 20
0.0
 30
0.0
  3
*D18
  1

  0
LINE
  5
8486
  8
3
 62
     0
 10
985.12613706092804
 20
4058.0362389767251
 30
0.0
 11
762.46262464488586
 21
4058.0362389767251
 31
0.0
  0
LINE
  5
8487
  8
3
 62
     0
 10
985.12305233374173
 20
4658.0362389687962
 30
0.0
 11
762.46262464488609
 21
4658.0362389687962
 31
0.0
  0
LINE
  5
8488
  8
3
 62
     0
 10
787.46262464488586
 20
4108.0362389767251
 30
0.0
 11
787.46262464488609
 21
4608.0362389687962
 31
0.0
  0
INSERT
  5
8489
  8
3
 62
     0
  2
_OPEN
 10
787.46262464488586
 20
4058.0362389767251
 30
0.0
 41
50.0
 42
50.0
 43
50.0
 50
270.0
  0
INSERT
  5
848A
  8
3
 62
     0
  2
_OPEN
 10
787.46262464488609
 20
4658.0362389687962
 30
0.0
 41
50.0
 42
50.0
 43
50.0
 50
90.0
  0
TEXT
  8
3
  40
75
  5
84BC
  62
0
  72
0
  71
0
 10
574.963
 20
4225.29
 30
0.000000
  1
600
  0
POINT
  5
848C
  8
DEFPOINTS
 62
     0
 10
997.62613706092804
 20
4058.0362389767251
 30
0.0
  0
POINT
  5
848D
  8
DEFPOINTS
 62
     0
 10
997.62305233374173
 20
4658.0362389687962
 30
0.0
  0
POINT
  5
848E
  8
DEFPOINTS
 62
     0
 10
787.46262464488609
 20
4658.0362389687962
 30
0.0
  0
ENDBLK
  5
80C5
  8
0
  0
BLOCK
  8
0
  2
*D19
 70
     1
 10
0.0
 20
0.0
 30
0.0
  3
*D19
  1

  0
LINE
  5
848F
  8
3
 62
     0
 10
2147.620481712559
 20
5170.5421513559559
 30
0.0
 11
2147.620481712559
 21
5353.2962753870224
 31
0.0
  0
LINE
  5
8490
  8
3
 62
     0
 10
1647.6204817191681
 20
5170.5395807499699
 30
0.0
 11
1647.6204817191681
 21
5353.2962753870224
 31
0.0
  0
LINE
  5
8491
  8
3
 62
     0
 10
2097.6204817125599
 20
5328.2962753870224
 30
0.0
 11
1697.6204817191681
 21
5328.2962753870224
 31
0.0
  0
INSERT
  5
8492
  8
3
 62
     0
  2
_OPEN
 10
2147.620481712559
 20
5328.2962753870224
 30
0.0
 41
50.0
 42
50.0
 43
50.0
  0
INSERT
  5
8493
  8
3
 62
     0
  2
_OPEN
 10
1647.6204817191681
 20
5328.2962753870224
 30
0.0
 41
50.0
 42
50.0
 43
50.0
 50
180.0
  0
TEXT
  8
3
  40
75
  5
84BD
  62
0
  72
0
  71
0
 10
1747.62
 20
5258.05
 30
0.000000
  1
500
  0
POINT
  5
8495
  8
DEFPOINTS
 62
     0
 10
2147.620481712559
 20
5158.0421513559559
 30
0.0
  0
POINT
  5
8496
  8
DEFPOINTS
 62
     0
 10
1647.6204817191681
 20
5158.0395807499699
 30
0.0
  0
POINT
  5
8497
  8
DEFPOINTS
 62
     0
 10
1647.6204817191681
 20
5328.2962753870224
 30
0.0
  0
ENDBLK
  5
80F1
  8
0
  0
BLOCK
  8
0
  2
*D20
 70
     1
 10
0.0
 20
0.0
 30
0.0
  3
*D20
  1

  0
LINE
  5
8498
  8
3
 62
     0
 10
1647.6204817191681
 20
5170.5395807499699
 30
0.0
 11
1647.6204817191681
 21
5353.2962753870224
 31
0.0
  0
LINE
  5
8499
  8
3
 62
     0
 10
997.6204817277594
 20
4662.1302758181773
 30
0.0
 11
997.6204817277594
 21
5353.2962753870224
 31
0.0
  0
LINE
  5
849A
  8
3
 62
     0
 10
1597.6204817191681
 20
5328.2962753870224
 30
0.0
 11
1047.6204817277589
 21
5328.2962753870224
 31
0.0
  0
INSERT
  5
849B
  8
3
 62
     0
  2
_OPEN
 10
1647.6204817191681
 20
5328.2962753870224
 30
0.0
 41
50.0
 42
50.0
 43
50.0
  0
INSERT
  5
849C
  8
3
 62
     0
  2
_OPEN
 10
997.6204817277594
 20
5328.2962753870224
 30
0.0
 41
50.0
 42
50.0
 43
50.0
 50
180.0
  0
TEXT
  8
3
  40
75
  5
84BE
  62
0
  72
0
  71
0
 10
1172.62
 20
5258.05
 30
0.000000
  1
650
  0
POINT
  5
849E
  8
DEFPOINTS
 62
     0
 10
1647.6204817191681
 20
5158.0395807499699
 30
0.0
  0
POINT
  5
849F
  8
DEFPOINTS
 62
     0
 10
997.6204817277594
 20
4649.6302758181782
 30
0.0
  0
POINT
  5
84A0
  8
DEFPOINTS
 62
     0
 10
997.6204817277594
 20
5328.2962753870224
 30
0.0
  0
ENDBLK
  5
80AF
  8
0
  0
BLOCK
  8
0
  2
_DOT
 70
     0
 10
0.0
 20
0.0
 30
0.0
  3
_DOT
  1

  0
POLYLINE
  5
82EC
  8
0
  6
BYBLOCK
 62
     0
 66
     1
 10
0.0
 20
0.0
 30
0.0
 70
     1
 40
0.25
 41
0.25
  0
VERTEX
  5
84A1
  8
0
  6
BYBLOCK
 62
     0
 10
-0.125
 20
0.0
 30
0.0
 42
1.0
  0
VERTEX
  5
84A2
  8
0
  6
BYBLOCK
 62
     0
 10
0.125
 20
0.0
 30
0.0
 42
1.0
  0
SEQEND
  5
84A3
  8
0
  6
BYBLOCK
 62
     0
  0
LINE
  5
82F0
  8
0
  6
BYBLOCK
 62
     0
 10
-0.25
 20
0.0
 30
0.0
 11
-1.0
 21
0.0
 31
0.0
  0
ENDBLK
  5
82C8
  8
0
  0
BLOCK
  8
0
  2
*D22
 70
     1
 10
0.0
 20
0.0
 30
0.0
  3
*D22
  1

  0
LINE
  5
84A4
  8
3
 62
     0
 10
2300.1271771243191
 20
3094.3568906181999
 30
0.0
 11
2829.9116795888881
 21
3094.3568906181999
 31
0.0
  0
LINE
  5
84A5
  8
3
 62
     0
 10
2160.1271771243191
 20
1824.354885537271
 30
0.0
 11
2829.9116795888881
 21
1824.354885537271
 31
0.0
  0
LINE
  5
84A6
  8
3
 62
     0
 10
2804.9116795888881
 20
3044.3568906181999
 30
0.0
 11
2804.9116795888881
 21
1874.354885537271
 31
0.0
  0
INSERT
  5
84A7
  8
3
 62
     0
  2
_OPEN
 10
2804.9116795888881
 20
3094.3568906181999
 30
0.0
 41
50.0
 42
50.0
 43
50.0
 50
90.0
  0
INSERT
  5
84A8
  8
3
 62
     0
  2
_OPEN
 10
2804.9116795888881
 20
1824.354885537271
 30
0.0
 41
50.0
 42
50.0
 43
50.0
 50
270.0
  0
TEXT
  8
3
  40
75
  5
84BF
  62
0
  72
0
  71
0
 10
2592.41
 20
2334.91
 30
0.000000
  1
1270
  0
POINT
  5
84AA
  8
DEFPOINTS
 62
     0
 10
2287.6271771243191
 20
3094.3568906181999
 30
0.0
  0
POINT
  5
84AB
  8
DEFPOINTS
 62
     0
 10
2147.6271771243191
 20
1824.354885537271
 30
0.0
  0
POINT
  5
84AC
  8
DEFPOINTS
 62
     0
 10
2804.9116795888881
 20
1824.354885537271
 30
0.0
  0
ENDBLK
  5
83AA
  8
0
  0
BLOCK
  8
0
  2
*D23
 70
     1
 10
0.0
 20
0.0
 30
0.0
  3
*D23
  1

  0
LINE
  5
838B
  8
0
  6
BYBLOCK
 62
     0
 10
4220.0155503706683
 20
2786.8548855434851
 30
0.0
 11
4220.0155503706683
 21
3401.6466928673608
 31
0.0
  0
LINE
  5
838C
  8
0
  6
BYBLOCK
 62
     0
 10
4055.0155503706692
 20
3376.6466928673599
 30
0.0
 11
4170.0155503706683
 21
3376.6466928673599
 31
0.0
  0
TEXT
  5
838D
  8
3
 62
     0
 10
4023.2298360849531
 20
3405.6528759649041
 30
0.0
 40
75.0
  1
215
  0
INSERT
  5
838E
  8
0
  6
BYBLOCK
 62
     0
  2
_OPEN
 10
4005.0155503706692
 20
3376.6466928673599
 30
0.0
 41
50.0
 42
50.0
 43
50.0
 50
180.0
  0
INSERT
  5
838F
  8
0
  6
BYBLOCK
 62
     0
  2
_OPEN
 10
4220.0155503706683
 20
3376.6466928673599
 30
0.0
 41
50.0
 42
50.0
 43
50.0
  0
POINT
  5
8390
  8
DEFPOINTS
  6
BYBLOCK
 62
     0
 10
4005.0155503706692
 20
3288.8425207722189
 30
0.0
  0
POINT
  5
8391
  8
DEFPOINTS
  6
BYBLOCK
 62
     0
 10
4220.0155503706683
 20
2774.3548855434842
 30
0.0
  0
POINT
  5
8392
  8
DEFPOINTS
  6
BYBLOCK
 62
     0
 10
4220.0155503706683
 20
3376.6466928673599
 30
0.0
  0
ENDBLK
  5
8393
  8
0
  0
ENDSEC
  0
SECTION
  2
ENTITIES
  0
LINE
  5
7CB7
  8
1
 10
3192.5155503706669
 20
2406.154885543483
 30
0.0
 11
3707.5155503706669
 21
2406.154885543483
 31
0.0
  0
LINE
  5
7CB8
  8
1
 10
3198.0155503706669
 20
2069.3755579607619
 30
0.0
 11
3198.0155503706692
 21
2402.9548855434832
 31
0.0
  0
LINE
  5
7CB9
  8
1
 10
3200.0155503706669
 20
2069.3755579607619
 30
0.0
 11
4260.0155503706701
 21
2069.3755579607619
 31
0.0
  0
LINE
  5
7CBA
  8
1
 10
3160.0155503706669
 20
1994.3755579607621
 30
0.0
 11
4260.0155503706701
 21
1994.3755579607621
 31
0.0
  0
LINE
  5
7CBB
  8
1
 10
1677.6277755643
 20
2352.9537544721761
 30
0.0
 11
1435.769180323812
 21
2352.9525110258701
 31
0.0
  0
LINE
  5
7CBC
  8
1
 10
1677.627821835207
 20
2343.9537544722939
 30
0.0
 11
1435.7692265947189
 21
2343.9525110259892
 31
0.0
  0
LINE
  5
7CBD
  8
1
 10
2230.1291761345642
 20
2343.956594998871
 30
0.0
 11
2117.6278218293942
 21
2343.9560166055621
 31
0.0
  0
LINE
  5
7CBE
  8
1
 10
2230.1291298636561
 20
2352.9565949987532
 30
0.0
 11
2117.6277755584861
 21
2352.956016605443
 31
0.0
  0
LINE
  5
7CBF
  8
1
 10
2117.6292336061988
 20
2069.3560166091902
 30
0.0
 11
2117.6275184978872
 21
2402.9560166047818
 31
0.0
  0
LINE
  5
7CC0
  8
1
 10
1677.629233612015
 20
2069.3537544759229
 30
0.0
 11
1677.6275185037009
 21
2402.9537544715149
 31
0.0
  0
LINE
  5
7CC1
  8
1
 10
1647.627502052218
 20
2406.1536002351131
 30
0.0
 11
2147.627502045611
 21
2406.1561708410991
 31
0.0
  0
LINE
  5
7CC2
  8
1
 10
3157.5155503706669
 20
2494.3548855434829
 30
0.0
 11
3762.5155503706678
 21
2494.3548855434829
 31
0.0
  0
LINE
  5
7CC3
  8
1
 10
3157.5155503706678
 20
2444.3548855434829
 30
0.0
 11
3790.5155503706678
 21
2444.3548855434829
 31
0.0
  0
LINE
  5
7CC4
  8
1
 10
3157.5155503706669
 20
2424.3548855434829
 30
0.0
 11
3157.5155503706669
 21
2514.3548855434819
 31
0.0
  0
LINE
  5
7CC5
  8
1
 10
3137.5155503706669
 20
2162.354885543481
 30
0.0
 11
3137.5155503706669
 21
2340.354885543481
 31
0.0
  0
LINE
  5
7CC6
  8
1
 10
3074.5155503706669
 20
2162.354885543481
 30
0.0
 11
3074.5155503706669
 21
2340.354885543481
 31
0.0
  0
LINE
  5
7CC7
  8
1
 10
3137.5155503706669
 20
2514.3548855434819
 30
0.0
 11
3157.5155503706669
 21
2514.3548855434819
 31
0.0
  0
LINE
  5
7CC8
  8
1
 10
3137.5155503706669
 20
2424.3548855434829
 30
0.0
 11
3157.5155503706669
 21
2424.3548855434829
 31
0.0
  0
LINE
  5
7CC9
  8
1
 10
3159.5155503706669
 20
2216.3755579607619
 30
0.0
 11
3159.5155503706669
 21
2286.3755579607619
 31
0.0
  0
LINE
  5
7CCA
  8
1
 10
3137.5155503706669
 20
2286.3755579607619
 30
0.0
 11
3159.5155503706669
 21
2286.3755579607619
 31
0.0
  0
LINE
  5
7CCB
  8
1
 10
3137.5155503706669
 20
2216.3755579607619
 30
0.0
 11
3159.5155503706669
 21
2216.3755579607619
 31
0.0
  0
LINE
  5
7CCC
  8
1
 10
3054.5155503706692
 20
2096.3548855434829
 30
0.0
 11
3054.5155503706692
 21
2569.3548855434829
 31
0.0
  0
LINE
  5
7CCD
  8
1
 10
3176.5155503706692
 20
2096.3548855434829
 30
0.0
 11
3176.5155503706669
 21
2112.5392339676341
 31
0.0
  0
LINE
  5
7CCE
  8
2
 10
3023.6353086566291
 20
2469.3548855434829
 30
0.0
 11
4288.4420062418349
 21
2469.3548855434829
 31
0.0
  0
LINE
  5
7CCF
  8
2
 10
3023.6353086566291
 20
2251.3755579607619
 30
0.0
 11
3365.320001819025
 21
2251.3755579607619
 31
0.0
  0
LINE
  5
7CD0
  8
1
 10
997.62613706092804
 20
4058.0362389767251
 30
0.0
 11
1183.6266633425239
 21
4058.0371952448559
 31
0.0
  0
LINE
  5
7CD1
  8
1
 10
2147.6261370457278
 20
4058.0421513704928
 30
0.0
 11
2147.6259416796738
 21
4096.0421513704932
 31
0.0
  0
LINE
  5
7CD2
  8
1
 10
2147.620481712559
 20
5158.0421513559559
 30
0.0
 11
1647.6204817191681
 21
5158.0395807499699
 31
0.0
  0
LINE
  5
7CD3
  8
1
 10
1647.623052325154
 20
4658.0395807565756
 30
0.0
 11
1647.6228852357649
 21
4690.539580756149
 31
0.0
  0
LINE
  5
7CD4
  8
1
 10
997.62125114343235
 20
4658.0362389595348
 30
0.0
 11
1647.623052325154
 21
4658.0395807565783
 31
0.0
  0
LINE
  5
7CD5
  8
1
 10
2287.620528452273
 20
5118.0428711253426
 30
0.0
 11
1413.6205284638149
 21
5118.0383777060797
 31
0.0
  0
LINE
  5
7CD6
  8
2
 10
1197.623786273776
 20
4472.314343288348
 30
0.0
 11
1197.628367321438
 21
3812.6765995970841
 31
0.0
  0
LINE
  5
7CD7
  8
2
 10
1897.627433069476
 20
3812.425680412392
 30
0.0
 11
1897.6201420438199
 21
5191.1090508211864
 31
0.0
  0
LINE
  5
7CDE
  8
1
 10
1067.6290022655389
 20
2114.3506183360269
 30
0.0
 11
1117.6290022648791
 21
2114.3508753966248
 31
0.0
  0
LINE
  5
7CDF
  8
1
 10
1067.6290022655389
 20
2114.3506183360269
 30
0.0
 11
1067.62892514736
 21
2129.3506183358281
 31
0.0
  0
LINE
  5
7CE0
  8
1
 10
1067.62892514736
 20
2129.3506183358281
 30
0.0
 11
1116.2824439689809
 21
2129.3508684738808
 31
0.0
  0
LINE
  5
7CE1
  8
1
 10
1117.6289299011071
 20
2128.426111245732
 30
0.0
 11
1117.6290022648791
 21
2114.3508753966248
 31
0.0
  0
LINE
  5
7CE2
  8
1
 10
1134.22975128241
 20
2118.7312607356139
 30
0.0
 11
1261.028208205134
 21
2118.7319126333591
 31
0.0
  0
LINE
  5
7CE3
  8
1
 10
1067.62892514736
 20
2129.3506183358281
 30
0.0
 11
1081.658026934884
 21
2163.5434350962619
 31
0.0
  0
LINE
  5
7CE4
  8
1
 10
1327.628925143923
 20
2129.35195505094
 30
0.0
 11
1313.5994717721039
 21
2163.544627556395
 31
0.0
  0
LINE
  5
7CE5
  8
1
 10
1277.628929898993
 20
2128.4269338396471
 30
0.0
 11
1277.6290022627641
 21
2114.3516979905398
 31
0.0
  0
LINE
  5
7CE6
  8
1
 10
1327.628925143923
 20
2129.35195505094
 30
0.0
 11
1278.9754063223011
 21
2129.3517049128868
 31
0.0
  0
LINE
  5
7CE7
  8
1
 10
1327.6290022621031
 20
2114.3519550511392
 30
0.0
 11
1327.628925143923
 21
2129.35195505094
 31
0.0
  0
LINE
  5
7CE8
  8
2
 10
1022.488215908968
 20
2246.3503862594198
 30
0.0
 11
1350.1283236218251
 21
2246.3520707266639
 31
0.0
  0
ARC
  5
7CE9
  8
1
 10
1197.628323623841
 20
2246.3512866918381
 30
0.0
 40
142.0
 50
296.41767482964838
 51
243.5829143098467
  0
CIRCLE
  5
7CEA
  8
1
 10
1197.628323623841
 20
2246.3512866918381
 30
0.0
 40
19.0
  0
LINE
  5
7CEB
  8
2
 10
1197.629285042957
 20
2059.3488598414319
 30
0.0
 11
1197.627539589015
 21
2442.840181092346
 31
0.0
  0
POLYLINE
  5
7CEC
  8
1
 66
     1
 10
0.0
 20
0.0
 30
0.0
 70
     1
  0
VERTEX
  5
83ED
  8
1
 10
1022.6292336206729
 20
2069.350386982082
 30
0.0
  0
VERTEX
  5
83EE
  8
1
 10
1372.629233616047
 20
2069.3521864062718
 30
0.0
  0
VERTEX
  5
83EF
  8
1
 10
1362.6290022616411
 20
2114.3521349935581
 30
0.0
  0
VERTEX
  5
83F0
  8
1
 10
1032.629002266003
 20
2114.3504383936079
 30
0.0
  0
SEQEND
  5
83F1
  8
1
  0
LINE
  5
7D04
  8
1
 10
2262.6240923923142
 20
3069.3567620717108
 30
0.0
 11
1891.348108798888
 21
3035.1347807331681
 31
0.0
  0
ARC
  5
7D05
  8
1
 10
1864.6273467847491
 20
2436.3547158777119
 30
0.0
 40
367.0
 50
269.33037884545172
 51
0.0002945697482667
  0
ARC
  5
7D06
  8
1
 10
1855.6269611939711
 20
2511.3546696058129
 30
0.0
 40
442.0
 50
179.94336520208299
 51
270.61073269426402
  0
ARC
  5
7D07
  8
1
 10
1939.6269611928601
 20
2511.3551014676191
 30
0.0
 40
526.0
 50
95.266298866979525
 51
180.05191618019359
  0
LINE
  5
7D42
  8
1
 10
1627.6275185043619
 20
2402.953497410916
 30
0.0
 11
2167.6275184972269
 21
2402.9562736653811
 31
0.0
  0
LINE
  5
7D43
  8
1
 10
1627.627775564961
 20
2352.9534974115768
 30
0.0
 11
1627.6275185043619
 21
2402.953497410916
 31
0.0
  0
LINE
  5
7D44
  8
1
 10
2167.6277755578249
 20
2352.9562736660419
 30
0.0
 11
2167.6275184972269
 21
2402.9562736653811
 31
0.0
  0
DIMENSION
  5
7D46
  8
3
  2
*D1
 10
4217.515550370671
 20
3179.7030872504938
 30
0.0
 11
4016.9284327231562
 21
3179.7030872504938
 31
0.0
 70
   128
 13
3792.5155503706678
 23
3069.3548855434829
 33
0.0
 14
4217.515550370671
 24
3069.3548855434829
 34
0.0
1001
ACAD
1000
DSTYLE
1002
{
1070
   287
1070
     3
1070
    40
1040
25.0
1070
   143
1040
0.039
1070
   172
1070
     1
1070
   271
1070
     0
1070
   279
1070
     0
1070
   288
1070
     1
1002
}
  0
LINE
  5
7D47
  8
1
 10
3137.5155503706669
 20
2340.354885543481
 30
0.0
 11
3137.5155503706669
 21
2546.8548855434792
 31
0.0
  0
LINE
  5
7D48
  8
1
 10
3074.5155503706669
 20
2340.354885543481
 30
0.0
 11
3074.5155503706669
 21
2546.8548855434801
 31
0.0
  0
LINE
  5
7D49
  8
1
 10
2284.623963861724
 20
3094.356875178044
 30
0.0
 11
2284.6272028252652
 21
2464.35687518637
 31
0.0
  0
LINE
  5
7D4A
  8
1
 10
4217.5155503706656
 20
2069.3755579607619
 30
0.0
 11
4217.5155503706692
 21
2459.3548855434829
 31
0.0
  0
LINE
  5
7D4B
  8
1
 10
3792.515550370666
 20
2069.3755579607619
 30
0.0
 11
3792.5155503706678
 21
2459.3548855434829
 31
0.0
  0
LINE
  5
7D4C
  8
1
 10
3192.5155503706669
 20
2402.9548855434832
 30
0.0
 11
3707.5155503706669
 21
2402.9548855434832
 31
0.0
  0
LINE
  5
7D4D
  8
1
 10
3707.5155503706669
 20
2406.154885543483
 30
0.0
 11
3707.5155503706669
 21
2402.9548855434832
 31
0.0
  0
LINE
  5
7D4E
  8
1
 10
3697.5155503706669
 20
2402.9548855434832
 30
0.0
 11
3697.5155503706669
 21
2069.3755579607619
 31
0.0
  0
LINE
  5
7D4F
  8
1
 10
3192.5155503706669
 20
2406.154885543483
 30
0.0
 11
3192.5155503706669
 21
2402.9548855434832
 31
0.0
  0
POLYLINE
  5
7D50
  8
1
 66
     1
 10
0.0
 20
0.0
 30
0.0
 70
     1
  0
VERTEX
  5
83FB
  8
1
 10
3697.5155503706669
 20
2352.9548855434832
 30
0.0
  0
VERTEX
  5
83FC
  8
1
 10
3747.5155503706669
 20
2352.9548855434832
 30
0.0
  0
VERTEX
  5
83FD
  8
1
 10
3747.5155503706669
 20
2354.4548855434832
 30
0.0
 42
0.4142135623730951
  0
VERTEX
  5
83FE
  8
1
 10
3743.0155503706669
 20
2358.9548855434832
 30
0.0
  0
VERTEX
  5
83FF
  8
1
 10
3710.0155503706669
 20
2358.9548855434832
 30
0.0
 42
-0.4142135623730951
  0
VERTEX
  5
8400
  8
1
 10
3703.5155503706669
 20
2365.4548855434832
 30
0.0
  0
VERTEX
  5
8401
  8
1
 10
3703.5155503706669
 20
2398.4548855434832
 30
0.0
 42
0.4142135623730951
  0
VERTEX
  5
8402
  8
1
 10
3699.0155503706669
 20
2402.9548855434832
 30
0.0
  0
VERTEX
  5
8403
  8
1
 10
3697.5155503706669
 20
2402.9548855434832
 30
0.0
  0
SEQEND
  5
8404
  8
1
  0
LINE
  5
7D5B
  8
1
 10
3725.5155503706669
 20
2352.9548855434832
 30
0.0
 11
3790.5155503706669
 21
2352.9548855434832
 31
0.0
  0
LINE
  5
7D5C
  8
1
 10
3725.5155503706669
 20
2346.9548855434832
 30
0.0
 11
3790.5155503706669
 21
2346.9548855434832
 31
0.0
  0
LINE
  5
7D5D
  8
1
 10
3725.5155503706669
 20
2346.9548855434832
 30
0.0
 11
3725.5155503706669
 21
2352.9548855434832
 31
0.0
  0
POLYLINE
  5
7D5E
  8
1
 66
     1
 10
0.0
 20
0.0
 30
0.0
 70
     1
  0
VERTEX
  5
8405
  8
1
 10
3790.5155503706669
 20
2069.3755579607619
 30
0.0
  0
VERTEX
  5
8406
  8
1
 10
3790.5155503706669
 20
2109.3755579607619
 30
0.0
  0
VERTEX
  5
8407
  8
1
 10
3788.5155503706678
 20
2109.3755579607619
 30
0.0
 42
0.4142135623730951
  0
VERTEX
  5
8408
  8
1
 10
3785.5155503706669
 20
2106.3755579607619
 30
0.0
  0
VERTEX
  5
8409
  8
1
 10
3785.5155503706669
 20
2078.8755579607619
 30
0.0
 42
-0.4142135623730951
  0
VERTEX
  5
840A
  8
1
 10
3781.0155503706669
 20
2074.3755579607632
 30
0.0
  0
VERTEX
  5
840B
  8
1
 10
3753.5155503706669
 20
2074.3755579607632
 30
0.0
 42
0.4142135623730951
  0
VERTEX
  5
840C
  8
1
 10
3750.5155503706669
 20
2071.3755579607632
 30
0.0
  0
VERTEX
  5
840D
  8
1
 10
3750.5155503706669
 20
2069.3755579607619
 30
0.0
  0
SEQEND
  5
840E
  8
1
  0
LINE
  5
7D69
  8
1
 10
1647.627502052218
 20
2406.1536002351131
 30
0.0
 11
1647.627518504097
 21
2402.9536002351551
 31
0.0
  0
LINE
  5
7D6A
  8
1
 10
2147.627502045611
 20
2406.1561708410991
 30
0.0
 11
2147.6275184974888
 21
2402.9561708411411
 31
0.0
  0
LINE
  5
7D6B
  8
1
 10
2230.1291761345642
 20
2343.956594998871
 30
0.0
 11
2230.1291298636561
 21
2352.9565949987532
 31
0.0
  0
LINE
  5
7D6C
  8
1
 10
3792.5155503706678
 20
3069.3548855434829
 30
0.0
 11
4217.515550370671
 21
3069.3548855434829
 31
0.0
  0
ARC
  5
7D6F
  8
1
 10
2001.632419099855
 20
2461.3256911826652
 30
0.0
 40
227.59448069142181
 50
2.0217292917753742
 51
7.0741700859340151
  0
LINE
  5
7D72
  8
1
 10
4220.0155503706683
 20
2469.3548855434829
 30
0.0
 11
4220.0155503706683
 21
2179.3548855434819
 31
0.0
  0
LINE
  5
7D73
  8
1
 10
4260.0155503706701
 20
1994.3755579607621
 30
0.0
 11
4260.0155503706701
 21
2069.3755579607619
 31
0.0
  0
LINE
  5
7D74
  8
2
 10
4005.0155503706669
 20
1777.7773815651749
 30
0.0
 11
4005.0155503706692
 21
3173.1682764939642
 31
0.0
  0
LINE
  5
7D75
  8
1
 10
3200.0155503706669
 20
1994.3755579607621
 30
0.0
 11
3160.0155503706669
 21
1994.3755579607621
 31
0.0
  0
LINE
  5
7D76
  8
1
 10
3160.0155503706669
 20
1994.3755579607621
 30
0.0
 11
3160.0155503706669
 21
1996.179181652989
 31
0.0
  0
LINE
  5
7D77
  8
1
 10
3160.0155503706669
 20
2067.5719342685361
 30
0.0
 11
3160.0155503706669
 21
2069.3755579607619
 31
0.0
  0
LINE
  5
7D78
  8
1
 10
3160.0155503706669
 20
2069.3755579607619
 30
0.0
 11
3200.0155503706669
 21
2069.3755579607619
 31
0.0
  0
CIRCLE
  5
7D7B
  8
1
 10
1897.6271771243189
 20
2469.354885537271
 30
0.0
 40
72.5
  0
CIRCLE
  5
7D7C
  8
1
 10
1197.628323623841
 20
2246.3512866918381
 30
0.0
 40
89.0
  0
LINE
  5
7D7D
  8
1
 10
3074.5155503706669
 20
2541.8548855434792
 30
0.0
 11
3137.5155503706669
 21
2541.8548855434792
 31
0.0
  0
LINE
  5
7D7E
  8
1
 10
3074.5155503706669
 20
2396.854885543486
 30
0.0
 11
3137.5155503706669
 21
2396.854885543486
 31
0.0
  0
LINE
  5
7D7F
  8
1
 10
3074.5155503706669
 20
2340.354885543481
 30
0.0
 11
3137.5155503706669
 21
2340.354885543481
 31
0.0
  0
LINE
  5
7D80
  8
1
 10
3074.5155503706669
 20
2162.354885543481
 30
0.0
 11
3137.5155503706692
 21
2162.354885543481
 31
0.0
  0
LINE
  5
7D81
  8
1
 10
4220.0155503706683
 20
2164.3548855434819
 30
0.0
 11
4220.0155503706683
 21
2189.3548855434829
 31
0.0
  0
LINE
  5
7D82
  8
1
 10
1877.6327564376461
 20
2539.0432858733702
 30
0.0
 11
1173.083448573994
 21
2331.8998057251179
 31
0.0
  0
LINE
  5
7D83
  8
1
 10
1920.737267657365
 20
2400.6368113824001
 30
0.0
 11
1225.997952002338
 21
2161.993926694824
 31
0.0
  0
LINE
  5
7D84
  8
1
 10
2262.6240923923128
 20
3069.3567620717108
 30
0.0
 11
2262.6270743049049
 21
2489.354885537271
 31
0.0
  0
LINE
  5
7D85
  8
1
 10
4223.0155503706683
 20
2182.354885543481
 30
0.0
 11
4223.0155503706683
 21
2469.3548855434829
 31
0.0
  0
LINE
  5
7D86
  8
1
 10
4260.0155503706683
 20
2189.354885543481
 30
0.0
 11
4260.0155503706683
 21
2749.3548855434819
 31
0.0
  0
DIMENSION
  5
7D87
  8
3
  2
*D2
 10
4413.6278381594693
 20
2189.354885543481
 30
0.0
 11
4413.6278381594693
 21
2469.3548855434819
 31
0.0
 70
   128
 13
4261.8155503706703
 23
2749.3548855434819
 33
0.0
 14
4261.8155503706703
 24
2189.354885543481
 34
0.0
 50
90.0
1001
ACAD
1000
DSTYLE
1002
{
1070
   287
1070
     3
1070
     3
1000
φ<>
1070
    40
1040
25.0
1070
   143
1040
0.039
1070
   172
1070
     1
1070
   271
1070
     0
1070
   279
1070
     0
1070
   288
1070
     1
1002
}
  0
ARC
  5
7D88
  8
1
 10
1197.628323623841
 20
2246.3512866918381
 30
0.0
 40
150.0
 50
103.3878876697971
 51
291.20886316928932
  0
ARC
  5
7D89
  8
1
 10
1895.134983527824
 20
2466.1504363695308
 30
0.0
 40
102.5891975502981
 50
292.14374054274538
 51
101.61916266672741
  0
LINE
  5
7D8A
  8
1
 10
1162.896985605493
 20
2392.275013890177
 30
0.0
 11
1874.4729517787539
 21
2566.6373703361642
 31
0.0
  0
LINE
  5
7D8B
  8
1
 10
1251.8936418702301
 20
2106.51110921906
 30
0.0
 11
1933.8040816613061
 21
2371.1281005554852
 31
0.0
  0
LINE
  5
7D8C
  8
1
 10
3054.5155503706669
 20
2569.3548855434829
 30
0.0
 11
3176.5155503706669
 21
2569.3548855434829
 31
0.0
  0
LINE
  5
7D8D
  8
1
 10
3176.5155503706669
 20
2535.982270507352
 30
0.0
 11
3176.5155503706669
 21
2569.3548855434829
 31
0.0
  0
LINE
  5
7D8E
  8
1
 10
3054.5155503706692
 20
2096.3548855434829
 30
0.0
 11
3176.5155503706692
 21
2096.3548855434829
 31
0.0
  0
LINE
  5
7D8F
  8
1
 10
3771.5671417664498
 20
2469.3548855434829
 30
0.0
 11
3771.5671417664498
 21
2469.3548855434829
 31
0.0
  0
LINE
  5
7D90
  8
1
 10
4242.5155503706692
 20
2749.3548855434819
 30
0.0
 11
4261.8155503706703
 21
2749.3548855434819
 31
0.0
  0
LINE
  5
7D91
  8
1
 10
4261.8155503706703
 20
2749.3548855434819
 30
0.0
 11
4261.8155503706703
 21
2750.3548855434829
 31
0.0
  0
LINE
  5
7D92
  8
1
 10
4242.5155503706701
 20
2752.3548855434819
 30
0.0
 11
4259.8155503706703
 21
2752.3548855434819
 31
0.0
  0
ARC
  5
7D93
  8
1
 10
4259.8155503706703
 20
2750.3548855434829
 30
0.0
 40
2.0
 50
359.9999999999992
 51
89.999999999999588
  0
ARC
  5
7D94
  8
1
 10
4227.0155503706683
 20
2182.354885543481
 30
0.0
 40
4.0
 50
90.0
 51
180.0
  0
ARC
  5
7D95
  8
1
 10
4221.0155503706683
 20
2166.354885543481
 30
0.0
 40
2.0
 50
269.9999999999992
 51
0.0
  0
LINE
  5
7D96
  8
1
 10
4223.0155503706683
 20
2182.354885543481
 30
0.0
 11
4223.0155503706683
 21
2166.354885543481
 31
0.0
  0
ARC
  5
7D97
  8
1
 10
4258.0155503706683
 20
2188.354885543481
 30
0.0
 40
2.0
 50
270.0000000000004
 51
0.0000000000008142
  0
LINE
  5
7D98
  8
1
 10
4227.0155503706683
 20
2186.354885543481
 30
0.0
 11
4258.0155503706683
 21
2186.354885543481
 31
0.0
  0
LINE
  5
7D99
  8
1
 10
4260.0155503706683
 20
2189.354885543481
 30
0.0
 11
4260.0155503706683
 21
2188.354885543481
 31
0.0
  0
LINE
  5
7D9A
  8
1
 10
4220.0155503706683
 20
2189.354885543481
 30
0.0
 11
4260.0155503706683
 21
2189.354885543481
 31
0.0
  0
LINE
  5
7D9B
  8
1
 10
4220.0155503706683
 20
2164.354885543481
 30
0.0
 11
4221.0155503706683
 21
2164.354885543481
 31
0.0
  0
LINE
  5
7D9C
  8
1
 10
4220.0155503706683
 20
2189.354885543481
 30
0.0
 11
4220.0155503706683
 21
2164.354885543481
 31
0.0
  0
LINE
  5
7D9D
  8
1
 10
4219.8155503706676
 20
2054.3755579607619
 30
0.0
 11
4219.8155503706676
 21
2069.3755579607619
 31
0.0
  0
LINE
  5
7D9E
  8
1
 10
4219.8155503706676
 20
2094.3755579607619
 30
0.0
 11
4221.8155503706676
 21
2094.3755579607619
 31
0.0
  0
ARC
  5
7D9F
  8
1
 10
4221.8155503706676
 20
2091.3755579607619
 30
0.0
 40
3.0
 50
0.0
 51
90.0
  0
LINE
  5
7DA0
  8
1
 10
4224.8155503706676
 20
2091.3755579607619
 30
0.0
 11
4224.8155503706676
 21
2069.3755579607619
 31
0.0
  0
ARC
  5
7DA1
  8
1
 10
4229.3155503706676
 20
2063.8755579607619
 30
0.0
 40
4.5
 50
180.0
 51
270.0
  0
LINE
  5
7DA2
  8
1
 10
4229.3155503706676
 20
2059.3755579607619
 30
0.0
 11
4256.8155503706676
 21
2059.3755579607619
 31
0.0
  0
ARC
  5
7DA3
  8
1
 10
4256.8155503706676
 20
2056.3755579607619
 30
0.0
 40
3.0
 50
0.0
 51
90.0
  0
LINE
  5
7DA4
  8
1
 10
4259.8155503706676
 20
2056.3755579607619
 30
0.0
 11
4259.8155503706676
 21
2054.3755579607619
 31
0.0
  0
LINE
  5
7DA5
  8
1
 10
4259.8155503706676
 20
2054.3755579607619
 30
0.0
 11
4219.8155503706676
 21
2054.3755579607619
 31
0.0
  0
LINE
  5
7DA6
  8
1
 10
4219.8155503706676
 20
2069.3755579607619
 30
0.0
 11
4219.8155503706676
 21
2094.3755579607619
 31
0.0
  0
LINE
  5
7DB9
  8
1
 10
3160.0155503706669
 20
1994.3755579607621
 30
0.0
 11
3160.0155503706669
 21
2069.3755579607619
 31
0.0
  0
LINE
  5
7DBA
  8
1
 10
3160.0155503706669
 20
1899.3755579607621
 30
0.0
 11
4260.0155503706701
 21
1899.3755579607621
 31
0.0
  0
LINE
  5
7DBB
  8
1
 10
3160.0155503706669
 20
1824.3755579607621
 30
0.0
 11
4260.0155503706701
 21
1824.3755579607621
 31
0.0
  0
LINE
  5
7DBC
  8
1
 10
3160.0155503706669
 20
1899.3755579607621
 30
0.0
 11
3160.0155503706669
 21
1824.3755579607621
 31
0.0
  0
LINE
  5
7DBD
  8
1
 10
4260.0155503706701
 20
1899.3755579607621
 30
0.0
 11
4260.0155503706701
 21
1824.3755579607621
 31
0.0
  0
LINE
  5
7DBE
  8
2
 10
1897.6271771243189
 20
3107.112679494116
 30
0.0
 11
1897.6271771243189
 21
1785.7697458546299
 31
0.0
  0
LINE
  5
7DBF
  8
1
 10
997.62717712431902
 20
2069.350258441209
 30
0.0
 11
997.62717712431902
 21
1994.354885537271
 31
0.0
  0
LINE
  5
7DC0
  8
1
 10
997.62717712431902
 20
1899.354885537271
 30
0.0
 11
997.62717712431902
 21
1824.3502584387249
 31
0.0
  0
DIMENSION
  5
7DC1
  8
3
  2
*D3
 10
1897.6271771243189
 20
1672.9344044640679
 30
0.0
 11
1447.6271771243189
 21
1735.4344044640679
 31
0.0
 70
     0
 13
997.62717712431902
 23
1824.3502584387249
 33
0.0
 14
1897.6271771243189
 24
1785.7697458546299
 34
0.0
1001
ACAD
1000
DSTYLE
1002
{
1070
   287
1070
     3
1070
    40
1040
25.0
1070
   143
1040
0.039
1070
   172
1070
     1
1070
   271
1070
     0
1070
   279
1070
     0
1070
   288
1070
     1
1002
}
  0
LINE
  5
7DC2
  8
1
 10
2147.6271771243191
 20
2069.3561708349771
 30
0.0
 11
2147.6271771243191
 21
1994.354885537271
 31
0.0
  0
LINE
  5
7DC3
  8
1
 10
2147.6271771243191
 20
1899.354885537271
 30
0.0
 11
2147.6271771243191
 21
1824.354885537271
 31
0.0
  0
DIMENSION
  5
7DC4
  8
3
  2
*D4
 10
2147.6271771243191
 20
1672.9344044640679
 30
0.0
 11
2024.9604656890181
 21
1729.0786800813109
 31
0.0
 12
262.0505711505902
 22
-57.0
 32
0.0
 70
   128
 13
1897.6271771243189
 23
1785.7697458546299
 33
0.0
 14
2147.6271771243191
 24
1824.3561708324919
 34
0.0
1001
ACAD
1000
DSTYLE
1002
{
1070
   288
1070
     1
1070
   172
1070
     1
1070
    40
1040
25.0
1070
   271
1070
     0
1070
   143
1040
0.039
1002
}
  0
DIMENSION
  5
7DC6
  8
3
  2
*D5
 10
4005.0155503706669
 20
1676.246787424755
 30
0.0
 11
3582.5155503706669
 21
1738.746787424755
 31
0.0
 70
     0
 13
3160.0155503706669
 23
1824.3755579607621
 33
0.0
 14
4005.0155503706669
 24
1777.7773815651749
 34
0.0
1001
ACAD
1000
DSTYLE
1002
{
1070
   287
1070
     3
1070
    40
1040
25.0
1070
   143
1040
0.039
1070
   172
1070
     1
1070
   271
1070
     0
1070
   279
1070
     0
1070
   288
1070
     1
1002
}
  0
DIMENSION
  5
7DC7
  8
3
  2
*D6
 10
4260.0155503706701
 20
1676.0160438565181
 30
0.0
 11
4133.9848327519057
 21
1731.3956239159561
 31
0.0
 12
0.0
 22
-57.0
 32
0.0
 70
   128
 13
4005.0155503706669
 23
1777.7773815651749
 33
0.0
 14
4260.0155503706701
 24
1824.3755579607621
 34
0.0
1001
ACAD
1000
DSTYLE
1002
{
1070
   288
1070
     1
1070
   172
1070
     1
1070
    40
1040
25.0
1070
   271
1070
     0
1070
   143
1040
0.039
1002
}
  0
LINE
  5
7DC9
  8
1
 10
2284.623963861724
 20
3094.356875178044
 30
0.0
 11
2287.6271771243191
 21
3094.3568906181999
 31
0.0
  0
LINE
  5
7DCA
  8
1
 10
2284.6272028252652
 20
2464.35687518637
 30
0.0
 11
2287.627202825226
 21
2464.3568906100058
 31
0.0
  0
LINE
  5
7DCB
  8
2
 10
1339.7662093273771
 20
2469.354885537271
 30
0.0
 11
2357.1434618869062
 21
2469.354885537271
 31
0.0
  0
LINE
  5
7DCC
  8
1
 10
2262.6240924019621
 20
3069.354885537271
 30
0.0
 11
2284.6240924022518
 21
3069.354885537271
 31
0.0
  0
DIMENSION
  5
7DCD
  8
3
  2
*D7
 10
2599.4863605000878
 20
2469.354885537271
 30
0.0
 11
2536.9863605000878
 21
2769.354885537271
 31
0.0
 70
     0
 13
2284.6240924022518
 23
3069.354885537271
 33
0.0
 14
2357.1434618869062
 24
2469.354885537271
 34
0.0
 50
90.0
1001
ACAD
1000
DSTYLE
1002
{
1070
   287
1070
     3
1070
    40
1040
25.0
1070
   143
1040
0.039
1070
   172
1070
     1
1070
   271
1070
     0
1070
   279
1070
     0
1070
   288
1070
     1
1002
}
  0
LINE
  5
7DCE
  8
1
 10
2227.4943501662242
 20
2489.3548855372719
 30
0.0
 11
2284.6240924022459
 21
2489.354885537271
 31
0.0
  0
LINE
  5
7DCF
  8
1
 10
2231.6273467798992
 20
2436.3566027025099
 30
0.0
 11
2229.085226686866
 21
2469.354885537271
 31
0.0
  0
DIMENSION
  5
7DD0
  8
3
  2
*D8
 10
2429.042924747474
 20
2489.354885537271
 30
0.0
 11
2366.542924747474
 21
2779.3548855372719
 31
0.0
 70
     0
 13
2284.6240924022518
 23
3069.354885537271
 33
0.0
 14
2262.6270743049049
 24
2489.354885537271
 34
0.0
 50
90.0
1001
ACAD
1000
DSTYLE
1002
{
1070
   287
1070
     3
1070
    40
1040
25.0
1070
   143
1040
0.039
1070
   172
1070
     1
1070
   271
1070
     0
1070
   279
1070
     0
1070
   288
1070
     1
1002
}
  0
LINE
  5
7DD1
  8
1
 10
997.62717712431902
 20
1994.354885537271
 30
0.0
 11
2147.6271771243191
 21
1994.354885537271
 31
0.0
  0
LINE
  5
7DD2
  8
1
 10
997.62717712431902
 20
1899.354885537271
 30
0.0
 11
2147.6271771243191
 21
1899.354885537271
 31
0.0
  0
LINE
  5
7DD3
  8
1
 10
997.62717712431902
 20
1824.354885537271
 30
0.0
 11
2147.6271771243191
 21
1824.354885537271
 31
0.0
  0
DIMENSION
  5
7DD4
  8
3
  2
*D9
 10
2599.4863605000878
 20
1994.354885537271
 30
0.0
 11
2536.9863605000878
 21
2231.854885537271
 31
0.0
 70
     0
 13
2357.1434618869062
 23
2469.354885537271
 33
0.0
 14
2147.6271771243191
 24
1994.354885537271
 34
0.0
 50
90.0
1001
ACAD
1000
DSTYLE
1002
{
1070
   287
1070
     3
1070
    40
1040
25.0
1070
   143
1040
0.039
1070
   172
1070
     1
1070
   271
1070
     0
1070
   279
1070
     0
1070
   288
1070
     1
1002
}
  0
DIMENSION
  5
7DD5
  8
3
  2
*D10
 10
2599.4863605000878
 20
1899.354885537271
 30
0.0
 11
2719.1292176429461
 21
2022.3588319994519
 31
0.0
 12
262.0505711505902
 22
0.0
 32
0.0
 70
   128
  1
(<>)
 13
2147.6271771243191
 23
1994.354885537271
 33
0.0
 14
2147.6271771243191
 24
1899.354885537271
 34
0.0
 50
90.0
1001
ACAD
1000
DSTYLE
1002
{
1070
   288
1070
     1
1070
   172
1070
     1
1070
    40
1040
25.0
1070
   271
1070
     0
1070
     7
1000
_DOT
1070
   143
1040
0.039
1002
}
  0
DIMENSION
  5
7DD6
  8
3
  2
*D11
 10
2599.4863605000878
 20
1824.354885537271
 30
0.0
 11
2536.9863605000878
 21
1638.640599822985
 31
0.0
 70
     0
 13
2147.6271771243191
 23
1899.354885537271
 33
0.0
 14
2147.6271771243191
 24
1824.354885537271
 34
0.0
 50
90.0
1001
ACAD
1000
DSTYLE
1002
{
1070
   287
1070
     3
1070
    40
1040
25.0
1070
   143
1040
0.039
1070
   172
1070
     1
1070
   271
1070
     0
1070
   279
1070
     0
1070
   288
1070
     1
1070
     6
1000
DOT
1002
}
  0
LINE
  5
7DD8
  8
1
 10
2287.6271771243191
 20
3094.3568906181999
 30
0.0
 11
2287.6271771243182
 21
2464.3568906098731
 31
0.0
  0
DIMENSION
  5
7DD9
  8
3
  2
*D12
 10
1897.6271771243189
 20
3226.3270301135872
 30
0.0
 11
2092.6271771243191
 21
3288.8270301135872
 31
0.0
 70
     0
 13
2287.6271771243191
 23
3094.3568906181999
 33
0.0
 14
1897.6271771243189
 24
3107.112679494116
 34
0.0
1001
ACAD
1000
DSTYLE
1002
{
1070
   287
1070
     3
1070
    40
1040
25.0
1070
   143
1040
0.039
1070
   172
1070
     1
1070
   271
1070
     0
1070
   279
1070
     0
1070
   288
1070
     1
1002
}
  0
LINE
  5
7DDA
  8
1
 10
1413.6271771243189
 20
2511.8317143575669
 30
0.0
 11
1413.6271771243189
 21
2510.8784885778532
 31
0.0
  0
DIMENSION
  5
7DDB
  8
3
  2
*D13
 10
1413.6271771243189
 20
3226.3270301135872
 30
0.0
 11
1655.6271771243189
 21
3288.8270301135872
 31
0.0
 70
     0
 13
1897.6271771243189
 23
3107.112679494116
 33
0.0
 14
1413.6271771243189
 24
2511.8317143575669
 34
0.0
1001
ACAD
1000
DSTYLE
1002
{
1070
   287
1070
     3
1070
    40
1040
25.0
1070
   143
1040
0.039
1070
   172
1070
     1
1070
   271
1070
     0
1070
   279
1070
     0
1070
   288
1070
     1
1002
}
  0
DIMENSION
  5
7DDC
  8
3
  2
*D14
 10
997.62717712431925
 20
3366.4264058579151
 30
0.0
 11
1642.6271771243189
 21
3428.9264058579151
 31
0.0
 70
     0
 13
2287.6271771243191
 23
3094.3568906181999
 33
0.0
 14
997.62717712431902
 24
2069.350258441209
 34
0.0
1001
ACAD
1000
DSTYLE
1002
{
1070
   287
1070
     3
1070
    40
1040
25.0
1070
   143
1040
0.039
1070
   172
1070
     1
1070
   271
1070
     0
1070
   279
1070
     0
1070
   288
1070
     1
1002
}
  0
LINE
  5
7DDD
  8
1
 10
1435.769180323812
 20
2352.9525110258701
 30
0.0
 11
1435.7692265947189
 21
2343.9525110259892
 31
0.0
  0
DIMENSION
  5
7DDE
  8
3
  2
*D15
 10
3054.5155503706692
 20
3376.6466928673599
 30
0.0
 11
3529.7655503706692
 21
3501.6466928673599
 31
0.0
 70
     0
  1
MAX\P1010
 13
4005.0155503706692
 23
3288.8425207722189
 33
0.0
 14
3054.5155503706692
 24
2569.3548855434829
 34
0.0
1001
ACAD
1000
DSTYLE
1002
{
1070
   287
1070
     3
1070
    40
1040
25.0
1070
   143
1040
0.039
1070
   172
1070
     1
1070
   271
1070
     0
1070
   279
1070
     0
1070
   288
1070
     1
1002
}
  0
DIMENSION
  5
7DDF
  8
3
  2
*D16
 10
2560.1653472133689
 20
4058.0421513704928
 30
0.0
 11
2497.6653472133689
 21
4608.0421513632236
 31
0.0
 70
     0
 13
2147.620481712559
 23
5158.0421513559559
 33
0.0
 14
2147.6261370457278
 24
4058.0421513704928
 34
0.0
 50
90.0
1001
ACAD
1000
DSTYLE
1002
{
1070
   287
1070
     3
1070
    40
1040
25.0
1070
   143
1040
0.039
1070
   172
1070
     1
1070
   271
1070
     0
1070
   279
1070
     0
1070
   288
1070
     1
1002
}
  0
LINE
  5
7DE0
  8
2
 10
2323.1730122400768
 20
4903.0430539053568
 30
0.0
 11
1356.2442478917101
 21
4903.0380827196186
 31
0.0
  0
LINE
  5
7DE1
  8
1
 10
2287.6227892421939
 20
4690.5428711313161
 30
0.0
 11
1413.6227892537361
 21
4690.5383777120533
 31
0.0
  0
LINE
  5
7DE2
  8
1
 10
2287.6229214521309
 20
4665.5428711316663
 30
0.0
 11
2287.6203962423369
 21
5143.0428711249924
 31
0.0
  0
LINE
  5
7DE3
  8
1
 10
1413.6227892537361
 20
4690.5383777120533
 30
0.0
 11
1413.6205284638149
 21
5118.0383777060797
 31
0.0
  0
LINE
  5
7DE4
  8
1
 10
2287.6229214521309
 20
4665.5428711316654
 30
0.0
 11
2282.6229214521982
 21
4665.5428454256053
 31
0.0
  0
LINE
  5
7DE5
  8
1
 10
2287.6203999219738
 20
5143.0428711250106
 30
0.0
 11
2282.6203962424029
 21
5143.0428454189332
 31
0.0
  0
LINE
  5
7DE6
  8
1
 10
2282.6229214522018
 20
4665.5428446896776
 30
0.0
 11
2282.6203962424029
 21
5143.0428454189332
 31
0.0
  0
LINE
  5
7DE7
  8
1
 10
2247.6227892427228
 20
4690.5426654828361
 30
0.0
 11
2247.6205284528019
 21
5118.0426654768626
 31
0.0
  0
LINE
  5
7DE8
  8
1
 10
1647.620687367647
 20
5118.0395807504992
 30
0.0
 11
1647.6204817191681
 21
5158.0395807499699
 31
0.0
  0
LINE
  5
7DE9
  8
1
 10
2147.620687361039
 20
5118.0421513564834
 30
0.0
 11
2147.620481712559
 21
5158.0421513559559
 31
0.0
  0
LINE
  5
7DEA
  8
1
 10
1922.6269538603569
 20
4006.0408660696489
 30
0.0
 11
1922.6269538603569
 21
4690.5409946103582
 31
0.0
  0
LINE
  5
7DEB
  8
1
 10
1872.6269538603569
 20
4006.0408660696498
 30
0.0
 11
1872.6269538603569
 21
4690.5407375497589
 31
0.0
  0
LINE
  5
7DEC
  8
1
 10
1108.606490948441
 20
3986.0375185372559
 30
0.0
 11
1286.606490948441
 21
3986.0375185372559
 31
0.0
  0
LINE
  5
7DED
  8
1
 10
1108.606490948441
 20
3923.0375185372559
 30
0.0
 11
1286.606490948441
 21
3923.0375185372559
 31
0.0
  0
LINE
  5
7DEE
  8
1
 10
1042.6064909484419
 20
3903.0375185372568
 30
0.0
 11
1997.6269538603569
 21
3903.0408660696512
 31
0.0
  0
LINE
  5
7DF0
  8
1
 10
1042.6064909484419
 20
3903.0375185372568
 30
0.0
 11
1042.6064909484419
 21
4025.0375185372568
 31
0.0
  0
LINE
  5
7DF1
  8
1
 10
1042.6064909484419
 20
4025.0375185372568
 30
0.0
 11
1183.6268925184529
 21
4025.0375185372409
 31
0.0
  0
LINE
  5
7DF2
  8
1
 10
1108.606490948441
 20
3923.0375185372559
 30
0.0
 11
1108.606490948441
 21
3986.0375185372568
 31
0.0
  0
LINE
  5
7DF3
  8
1
 10
1162.6271633657209
 20
4008.0375185372559
 30
0.0
 11
1232.6271633657209
 21
4008.0375185372559
 31
0.0
  0
LINE
  5
7DF4
  8
1
 10
1162.6271633657209
 20
3986.0375185372559
 30
0.0
 11
1162.6271633657209
 21
4008.0375185372559
 31
0.0
  0
LINE
  5
7DF5
  8
1
 10
1232.6271633657209
 20
3986.0375185372559
 30
0.0
 11
1232.6271633657209
 21
4008.0375185372559
 31
0.0
  0
LINE
  5
7DF6
  8
1
 10
1852.6269538603569
 20
4006.0408660696489
 30
0.0
 11
1942.6269538603569
 21
4006.0408660696489
 31
0.0
  0
LINE
  5
7DF7
  8
1
 10
1286.6064909484401
 20
3986.0375185372559
 30
0.0
 11
1970.1269538603531
 21
3986.040841760042
 31
0.0
  0
LINE
  5
7DF8
  8
1
 10
1286.606490948441
 20
3923.0375185372559
 30
0.0
 11
1970.1269538603549
 21
3923.0408417600429
 31
0.0
  0
LINE
  5
7DF9
  8
1
 10
1825.126953860361
 20
3923.0408660696498
 30
0.0
 11
1825.126953860361
 21
3986.0408660696489
 31
0.0
  0
LINE
  5
7DFA
  8
1
 10
1286.606490948441
 20
3923.0375185372559
 30
0.0
 11
1286.6064909484401
 21
3986.0375185372559
 31
0.0
  0
LINE
  5
7DFB
  8
1
 10
1852.6269538603569
 20
3986.0408660696489
 30
0.0
 11
1852.6269538603569
 21
4006.0408660696489
 31
0.0
  0
LINE
  5
7DFC
  8
1
 10
1970.126953860354
 20
3923.040841760042
 30
0.0
 11
1970.1269538603531
 21
3986.0408660696489
 31
0.0
  0
LINE
  5
7DFD
  8
1
 10
1997.6269538603569
 20
3903.0408660696489
 30
0.0
 11
1997.6269538603569
 21
4025.0408660696489
 31
0.0
  0
LINE
  5
7DFE
  8
1
 10
1964.2543388242259
 20
4025.0408660696489
 30
0.0
 11
1997.6269538603581
 21
4025.0408660696489
 31
0.0
  0
LINE
  5
7DFF
  8
1
 10
1942.6269538603569
 20
3986.0408660696489
 30
0.0
 11
1942.6269538603569
 21
4006.0408660696489
 31
0.0
  0
LINE
  5
7E00
  8
1
 10
2147.627502045611
 20
4096.0421513704923
 30
0.0
 11
1922.6269538603569
 21
4096.0421513704941
 31
0.0
  0
LINE
  5
7E01
  8
1
 10
2147.6261370457278
 20
4058.0421513704928
 30
0.0
 11
2147.6261370457278
 21
4098.0421513704932
 31
0.0
  0
LINE
  5
7E02
  8
1
 10
1647.627502052218
 20
4595.5421513704932
 30
0.0
 11
1872.6269538603569
 21
4595.5421513704914
 31
0.0
  0
LINE
  5
7E03
  8
1
 10
2147.6233736442932
 20
4595.5421513704914
 30
0.0
 11
2147.622885229157
 21
4690.5421513621332
 31
0.0
  0
LINE
  5
7E04
  8
1
 10
1922.6269538603569
 20
4595.5421513704932
 30
0.0
 11
2147.627502045611
 21
4595.5421513704932
 31
0.0
  0
LINE
  5
7E05
  8
1
 10
1872.6269538603569
 20
4096.0421513704941
 30
0.0
 11
1647.627502052218
 21
4096.042151370495
 31
0.0
  0
LINE
  5
7E06
  8
1
 10
1922.6269538603569
 20
4025.0375185371572
 30
0.0
 11
1997.6269538603569
 21
4025.037518537149
 31
0.0
  0
LINE
  5
7E07
  8
1
 10
1922.6269538603569
 20
4058.0409946019981
 30
0.0
 11
2147.6261370457278
 21
4058.0421513704928
 31
0.0
  0
LINE
  5
7E08
  8
1
 10
2147.627502045611
 20
4096.0421513704932
 30
0.0
 11
2147.627502045611
 21
4595.5421513704932
 31
0.0
  0
LINE
  5
7E09
  8
1
 10
1647.627502052218
 20
4096.042151370495
 30
0.0
 11
1647.627502052218
 21
4595.5421513704932
 31
0.0
  0
DIMENSION
  5
7E0A
  8
3
  2
*D17
 10
2147.6261370457278
 20
3736.8953862963531
 30
0.0
 11
1572.626137053328
 21
3799.3953862963531
 31
0.0
 70
     0
 13
997.62613706092804
 23
4058.0362389767251
 33
0.0
 14
2147.6261370457278
 24
4058.0421513704928
 34
0.0
1001
ACAD
1000
DSTYLE
1002
{
1070
   287
1070
     3
1070
    40
1040
25.0
1070
   143
1040
0.039
1070
   172
1070
     1
1070
   271
1070
     0
1070
   279
1070
     0
1070
   288
1070
     1
1002
}
  0
DIMENSION
  5
7E0B
  8
3
  2
*D18
 10
787.46262464488609
 20
4658.0362389687962
 30
0.0
 11
724.9626246448853
 21
4358.0362389727597
 31
0.0
 70
     0
 13
997.62613706092804
 23
4058.0362389767251
 33
0.0
 14
997.62305233374173
 24
4658.0362389687962
 34
0.0
 50
90.0
1001
ACAD
1000
DSTYLE
1002
{
1070
   287
1070
     3
1070
    40
1040
25.0
1070
   143
1040
0.039
1070
   172
1070
     1
1070
   271
1070
     0
1070
   279
1070
     0
1070
   288
1070
     1
1002
}
  0
DIMENSION
  5
7E0C
  8
3
  2
*D19
 10
1647.6204817191681
 20
5328.2962753870224
 30
0.0
 11
1897.6204817158639
 21
5390.7962753870224
 31
0.0
 70
     0
 13
2147.620481712559
 23
5158.0421513559559
 33
0.0
 14
1647.6204817191681
 24
5158.0395807499699
 34
0.0
1001
ACAD
1000
DSTYLE
1002
{
1070
   287
1070
     3
1070
    40
1040
25.0
1070
   143
1040
0.039
1070
   172
1070
     1
1070
   271
1070
     0
1070
   279
1070
     0
1070
   288
1070
     1
1002
}
  0
LINE
  5
7E0D
  8
1
 10
997.62613706093362
 20
4058.0362389767251
 30
0.0
 11
997.62125114343235
 21
4658.0362389595348
 31
0.0
  0
DIMENSION
  5
7E0E
  8
3
  2
*D20
 10
997.6204817277594
 20
5328.2962753870224
 30
0.0
 11
1322.6204817234629
 21
5390.7962753870224
 31
0.0
 70
     0
 13
1647.6204817191681
 23
5158.0395807499699
 33
0.0
 14
997.6204817277594
 24
4649.6302758181782
 34
0.0
1001
ACAD
1000
DSTYLE
1002
{
1070
   287
1070
     3
1070
    40
1040
25.0
1070
   143
1040
0.039
1070
   172
1070
     1
1070
   271
1070
     0
1070
   279
1070
     0
1070
   288
1070
     1
1002
}
  0
LINE
  5
7E0F
  8
1
 10
997.62717712431902
 20
2069.354885537271
 30
0.0
 11
2147.6271771243191
 21
2069.354885537271
 31
0.0
  0
LINE
  5
7E10
  8
1
 10
3792.5155503706678
 20
2489.3548855434829
 30
0.0
 11
4217.515550370671
 21
2489.3548855434829
 31
0.0
  0
LINE
  5
7E11
  8
1
 10
4217.515550370671
 20
3069.3548855434829
 30
0.0
 11
3792.5155503706669
 21
2489.3548855434829
 31
0.0
  0
LINE
  5
7E12
  8
1
 10
3792.5155503706678
 20
3069.3548855434829
 30
0.0
 11
4217.5155503706692
 21
2489.3548855434829
 31
0.0
  0
LINE
  5
7E13
  8
1
 10
4224.8155503706676
 20
2063.8755579607619
 30
0.0
 11
4224.8155503706676
 21
2069.3755579607619
 31
0.0
  0
LINE
  5
7E18
  8
1
 10
4217.5155503706692
 20
2489.3548855434829
 30
0.0
 11
4217.515550370671
 21
3069.3548855434829
 31
0.0
  0
LINE
  5
7E19
  8
1
 10
3792.5155503706669
 20
2489.3548855434829
 30
0.0
 11
3792.5155503706678
 21
3069.3548855434829
 31
0.0
  0
LINE
  5
7E1A
  8
1
 10
1339.628323623841
 20
4068.0375185372559
 30
0.0
 11
1339.628323623841
 21
4434.0375185372568
 31
0.0
  0
LINE
  5
7E1B
  8
1
 10
1055.628323623841
 20
4068.037518537255
 30
0.0
 11
1055.628323623841
 21
4434.0375185372541
 31
0.0
  0
LINE
  5
7E1C
  8
1
 10
1055.628323623841
 20
4068.037518537255
 30
0.0
 11
1339.628323623841
 21
4068.0375185372559
 31
0.0
  0
LINE
  5
7E1D
  8
1
 10
1055.6283236238389
 20
4434.0375185372541
 30
0.0
 11
1339.6283236238389
 21
4434.037518537255
 31
0.0
  0
LINE
  5
7E1E
  8
1
 10
1211.626593893023
 20
4068.0375185372559
 30
0.0
 11
1211.62701058061
 21
4008.0375185372559
 31
0.0
  0
LINE
  5
7E1F
  8
1
 10
1183.626593892348
 20
4068.0375185372559
 30
0.0
 11
1183.6270105799349
 21
4008.037518537255
 31
0.0
  0
LINE
  5
7E20
  8
1
 10
1211.6266633421999
 20
4058.0373391987928
 30
0.0
 11
1872.6269538603569
 21
4058.0407375413988
 31
0.0
  0
LINE
  5
7E21
  8
1
 10
1211.626892519128
 20
4025.0375185372382
 30
0.0
 11
1872.6269538603569
 21
4025.0375185371631
 31
0.0
  0
LINE
  5
7E22
  8
1
 10
3198.0155503706669
 20
2265.3771820768002
 30
0.0
 11
3159.5155503706669
 21
2265.3769147022649
 31
0.0
  0
LINE
  5
7E23
  8
1
 10
3198.0155503706678
 20
2237.3771820761258
 30
0.0
 11
3159.5155503706678
 21
2237.3769147015901
 31
0.0
  0
LINE
  5
826E
  8
4
 10
4625.0
 20
1250.0
 30
0.0
 11
4625.0
 21
750.0
 31
0.0
  0
LINE
  5
826F
  8
4
 10
2875.0
 20
1250.0
 30
0.0
 11
2875.0
 21
750.0
 31
0.0
  0
LINE
  5
8270
  8
4
 10
1625.0
 20
1250.0
 30
0.0
 11
1625.0
 21
750.0
 31
0.0
  0
LINE
  5
8273
  8
4
 10
1625.0
 20
750.0
 30
0.0
 11
4625.0
 21
750.0
 31
0.0
  0
LINE
  5
8274
  8
4
 10
1625.0
 20
1000.0
 30
0.0
 11
4625.0
 21
1000.0
 31
0.0
  0
TEXT
  5
8275
  8
4
 10
1721.2552021172539
 20
1078.857564666532
 30
0.0
 40
125.0
  1
機器名称
  0
TEXT
  5
8276
  8
4
 10
1715.6452650619931
 20
804.11289183002725
 30
0.0
 40
125.0
  1
機器型番
  0
TEXT
  5
8277
  8
4
 10
2885.4915223331982
 20
1053.5799427345221
 30
0.0
 40
112.5
  1
ミツヤリミットロードファン
  0
TEXT
  5
8278
  8
4
 10
2966.6362389637011
 20
792.89896069985843
 30
0.0
 40
125.0
  1
LL#3 1/2-1
  0
TEXT
  5
827A
  8
4
 10
1968.9765578034089
 20
5958.5721033312893
 30
0.0
 40
135.0
  1
床置防振ベット
  0
TEXT
  5
827B
  8
4
 10
790.41898332361586
 20
6334.7024404982449
 30
0.0
 40
180.0
  1
遠心式片吸込片持リミットロードファン
  0
LINE
  5
827C
  8
4
 10
625.0
 20
6173.5218856620122
 30
0.0
 11
4625.0
 21
6173.5218856620122
 31
0.0
  0
LINE
  5
827D
  8
4
 10
625.0
 20
6673.5218856620122
 30
0.0
 11
4625.0
 21
6673.5218856620122
 31
0.0
  0
LINE
  5
827E
  8
4
 10
1625.0
 20
1250.0
 30
0.0
 11
4625.0
 21
1250.0
 31
0.0
  0
LINE
  5
827F
  8
4
 10
625.0
 20
6673.5218856620122
 30
0.0
 11
625.0
 21
6173.5218856620122
 31
0.0
  0
TEXT
  5
8280
  8
4
 10
697.95603586361165
 20
5955.7986938658578
 30
0.0
 40
135.0
  1
右回転右横向
  0
TEXT
  5
8281
  8
4
 10
3672.4238981232238
 20
6765.1527037382721
 30
0.0
 40
140.0
  1
No.
  0
TEXT
  5
8282
  8
4
 10
3278.2401565000318
 20
5958.5721033312893
 30
0.0
 40
135.0
  1
縮尺：1/25
  0
LINE
  5
8283
  8
4
 10
4625.0
 20
6673.5218856620122
 30
0.0
 11
4625.0
 21
6173.5218856620122
 31
0.0
  0
LINE
  5
8284
  8
4
 10
5250.0
 20
7375.0
 30
0.0
 11
5250.0
 21
7375.0
 31
0.0
  0
LINE
  5
8285
  8
4
 10
3601.543555899661
 20
6703.1589578135026
 30
0.0
 11
3601.543555899661
 21
6966.6306538743811
 31
0.0
  0
LINE
  5
8286
  8
4
 10
3601.543555899661
 20
6966.6306538743811
 30
0.0
 11
4625.0
 21
6966.6306538743811
 31
0.0
  0
LINE
  5
8287
  8
4
 10
4625.0
 20
6966.6306538743811
 30
0.0
 11
4625.0
 21
6703.1589578135026
 31
0.0
  0
LINE
  5
8288
  8
4
 10
4625.0
 20
6703.1589578135026
 30
0.0
 11
3601.543555899661
 21
6703.1589578135026
 31
0.0
  0
LINE
  5
8289
  8
4
 10
0.0
 20
0.0
 30
0.0
 11
0.0
 21
7375.0
 31
0.0
  0
LINE
  5
828A
  8
4
 10
0.0
 20
7375.0
 30
0.0
 11
5250.0
 21
7375.0
 31
0.0
  0
LINE
  5
828B
  8
4
 10
5250.0
 20
7375.0
 30
0.0
 11
5250.0
 21
0.0
 31
0.0
  0
LINE
  5
828C
  8
4
 10
5250.0
 20
0.0
 30
0.0
 11
0.0
 21
0.0
 31
0.0
  0
LINE
  5
82FB
  8
1
 10
4223.0155503706683
 20
2756.3548855434842
 30
0.0
 11
4223.0155503706674
 21
2469.3548855434829
 31
0.0
  0
LINE
  5
82FC
  8
1
 10
4220.0155503706683
 20
2469.3548855434829
 30
0.0
 11
4220.0155503706683
 21
2759.3548855434829
 31
0.0
  0
LINE
  5
82FD
  8
1
 10
4220.0155503706683
 20
2749.3548855434851
 30
0.0
 11
4220.0155503706683
 21
2774.3548855434842
 31
0.0
  0
LINE
  5
82FE
  8
1
 10
4220.0155503706683
 20
2774.3548855434842
 30
0.0
 11
4221.0155503706683
 21
2774.3548855434842
 31
0.0
  0
LINE
  5
82FF
  8
1
 10
4220.0155503706683
 20
2749.3548855434851
 30
0.0
 11
4260.0155503706683
 21
2749.3548855434851
 31
0.0
  0
LINE
  5
8300
  8
1
 10
4227.0155503706683
 20
2752.3548855434842
 30
0.0
 11
4258.0155503706683
 21
2752.3548855434842
 31
0.0
  0
LINE
  5
8301
  8
1
 10
4223.0155503706683
 20
2756.3548855434842
 30
0.0
 11
4223.0155503706683
 21
2772.3548855434842
 31
0.0
  0
ARC
  5
8302
  8
1
 10
4221.0155503706683
 20
2772.3548855434842
 30
0.0
 40
2.0
 50
0.0
 51
90.00000000000081
  0
ARC
  5
8303
  8
1
 10
4227.0155503706683
 20
2756.3548855434842
 30
0.0
 40
4.0
 50
180.0
 51
270.0
  0
LINE
  5
8304
  8
1
 10
4220.0155503706683
 20
2774.3548855434819
 30
0.0
 11
4220.0155503706683
 21
2749.3548855434819
 31
0.0
  0
LINE
  5
8305
  8
1
 10
4261.8155503706703
 20
2749.3548855434851
 30
0.0
 11
4261.8155503706703
 21
2750.3548855434842
 31
0.0
  0
ARC
  5
8306
  8
1
 10
4259.8155503706703
 20
2750.3548855434842
 30
0.0
 40
2.0
 50
359.9999999999992
 51
89.999999999999588
  0
LINE
  5
8310
  8
1
 10
3762.5155503706678
 20
3099.3548855434819
 30
0.0
 11
4247.5155503706719
 21
3099.3548855434819
 31
0.0
  0
LINE
  5
8311
  8
1
 10
3762.5155503706669
 20
2459.3548855434829
 30
0.0
 11
3762.5155503706669
 21
3099.3548855434819
 31
0.0
  0
LINE
  5
8312
  8
1
 10
4247.5155503706692
 20
2459.3548855434829
 30
0.0
 11
4247.5155503706701
 21
3099.3548855434819
 31
0.0
  0
LINE
  5
8313
  8
1
 10
3762.5155503706669
 20
2459.3548855434829
 30
0.0
 11
4247.5155503706692
 21
2459.3548855434829
 31
0.0
  0
DIMENSION
  5
8340
  8
3
  2
*D22
 10
2804.9116795888881
 20
1824.354885537271
 30
0.0
 11
2804.9116795888872
 21
2467.6579061768971
 31
0.0
 70
   128
 13
2287.6271771243191
 23
3094.3568906181999
 33
0.0
 14
2147.6271771243191
 24
1824.354885537271
 34
0.0
 50
90.0
1001
ACAD
1000
DSTYLE
1002
{
1070
   287
1070
     3
1070
    40
1040
25.0
1070
   143
1040
0.039
1070
   172
1070
     1
1070
   271
1070
     0
1070
   279
1070
     0
1070
   288
1070
     1
1002
}
  0
DIMENSION
  5
837F
  8
3
  2
*D23
 10
4220.0155503706683
 20
3376.6466928673599
 30
0.0
 11
4112.5155503706692
 21
3443.152875964905
 31
0.0
 70
   128
 13
4005.0155503706692
 23
3288.8425207722189
 33
0.0
 14
4220.0155503706683
 24
2774.3548855434842
 34
0.0
1001
ACAD
1000
DSTYLE
1002
{
1070
   288
1070
     1
1070
   172
1070
     1
1070
    75
1070
     1
1070
    40
1040
25.0
1070
   271
1070
     0
1070
   143
1040
0.039
1002
}
  0
ENDSEC
  0
EOF
