  0
SECTION
  2
HEADER
  9
$ACADVER
  1
AC1009
  9
$INSBASE
 10
0.0
 20
0.0
 30
0.0
  9
$EXTMIN
 10
0.0
 20
0.0
 30
0.0
  9
$EXTMAX
 10
5250.0
 20
7375.0
 30
0.0
  9
$LIMMIN
 10
0.0
 20
0.0
  9
$LIMMAX
 10
297.0
 20
210.0
  9
$ORTHOMODE
 70
     0
  9
$REGENMODE
 70
     1
  9
$FILLMODE
 70
     0
  9
$QTEXTMODE
 70
     0
  9
$MIRRTEXT
 70
     1
  9
$DRAGMODE
 70
     2
  9
$LTSCALE
 40
100.0
  9
$OSMODE
 70
    37
  9
$ATTMODE
 70
     1
  9
$TEXTSIZE
 40
180.0
  9
$TRACEWID
 40
0.05
  9
$TEXTSTYLE
  7
STANDARD
  9
$CLAYER
  8
1
  9
$CELTYPE
  6
BYLAYER
  9
$CECOLOR
 62
   256
  9
$DIMSCALE
 40
25.0
  9
$DIMASZ
 40
2.0
  9
$DIMEXO
 40
0.5
  9
$DIMDLI
 40
10.0
  9
$DIMRND
 40
0.0
  9
$DIMDLE
 40
0.0
  9
$DIMEXE
 40
1.0
  9
$DIMTP
 40
1.0
  9
$DIMTM
 40
1.0
  9
$DIMTXT
 40
3.0
  9
$DIMCEN
 40
0.0
  9
$DIMTSZ
 40
0.0
  9
$DIMTOL
 70
     0
  9
$DIMLIM
 70
     0
  9
$DIMTIH
 70
     0
  9
$DIMTOH
 70
     0
  9
$DIMSE1
 70
     0
  9
$DIMSE2
 70
     0
  9
$DIMTAD
 70
     1
  9
$DIMZIN
 70
     8
  9
$DIMBLK
  1

  9
$DIMASO
 70
     1
  9
$DIMSHO
 70
     1
  9
$DIMPOST
  1

  9
$DIMAPOST
  1

  9
$DIMALT
 70
     0
  9
$DIMALTD
 70
     2
  9
$DIMALTF
 40
0.039
  9
$DIMLFAC
 40
1.0
  9
$DIMTOFL
 70
     1
  9
$DIMTVP
 40
0.0
  9
$DIMTIX
 70
     0
  9
$DIMSOXD
 70
     0
  9
$DIMSAH
 70
     1
  9
$DIMBLK1
  1
OPEN
  9
$DIMBLK2
  1
OPEN
  9
$DIMSTYLE
  2
IGA
  9
$DIMCLRD
 70
     0
  9
$DIMCLRE
 70
     0
  9
$DIMCLRT
 70
     0
  9
$DIMTFAC
 40
10.0
  9
$DIMGAP
 40
1.0
  9
$LUNITS
 70
     2
  9
$LUPREC
 70
     3
  9
$SKETCHINC
 40
0.1
  9
$FILLETRAD
 40
50.0
  9
$AUNITS
 70
     0
  9
$AUPREC
 70
     0
  9
$MENU
  1
acad
  9
$ELEVATION
 40
0.0
  9
$PELEVATION
 40
0.0
  9
$THICKNESS
 40
0.0
  9
$LIMCHECK
 70
     0
  9
$BLIPMODE
 70
     0
  9
$CHAMFERA
 40
0.0
  9
$CHAMFERB
 40
0.0
  9
$SKPOLY
 70
     0
  9
$TDCREATE
 40
2451614.4502020832
  9
$TDUPDATE
 40
2454953.6412964701
  9
$TDINDWG
 40
0.0186176852
  9
$TDUSRTIMER
 40
0.0186176852
  9
$USRTIMER
 70
     1
  9
$ANGBASE
 50
0.0
  9
$ANGDIR
 70
     0
  9
$PDMODE
 70
     0
  9
$PDSIZE
 40
0.0
  9
$PLINEWID
 40
0.0
  9
$COORDS
 70
     1
  9
$SPLFRAME
 70
     0
  9
$SPLINETYPE
 70
     6
  9
$SPLINESEGS
 70
     8
  9
$ATTDIA
 70
     0
  9
$ATTREQ
 70
     1
  9
$HANDLING
 70
 10241
  9
$HANDSEED
  5
8494
  9
$SURFTAB1
 70
     6
  9
$SURFTAB2
 70
     6
  9
$SURFTYPE
 70
     6
  9
$SURFU
 70
     6
  9
$SURFV
 70
     6
  9
$UCSNAME
  2

  9
$UCSORG
 10
0.0
 20
0.0
 30
0.0
  9
$UCSXDIR
 10
1.0
 20
0.0
 30
0.0
  9
$UCSYDIR
 10
0.0
 20
1.0
 30
0.0
  9
$PUCSNAME
  2

  9
$PUCSORG
 10
0.0
 20
0.0
 30
0.0
  9
$PUCSXDIR
 10
1.0
 20
0.0
 30
0.0
  9
$PUCSYDIR
 10
0.0
 20
1.0
 30
0.0
  9
$USERI1
 70
     0
  9
$USERI2
 70
     0
  9
$USERI3
 70
     0
  9
$USERI4
 70
     0
  9
$USERI5
 70
     0
  9
$USERR1
 40
0.0
  9
$USERR2
 40
0.0
  9
$USERR3
 40
0.0
  9
$USERR4
 40
0.0
  9
$USERR5
 40
0.0
  9
$WORLDVIEW
 70
     1
  9
$SHADEDGE
 70
     3
  9
$SHADEDIF
 70
    70
  9
$TILEMODE
 70
     1
  9
$MAXACTVP
 70
    16
  9
$PLIMCHECK
 70
     0
  9
$PEXTMIN
 10
1.0000000000000000E+020
 20
1.0000000000000000E+020
 30
1.0000000000000000E+020
  9
$PEXTMAX
 10
-1.0000000000000000E+020
 20
-1.0000000000000000E+020
 30
-1.0000000000000000E+020
  9
$PLIMMIN
 10
0.0
 20
0.0
  9
$PLIMMAX
 10
12.0
 20
9.0
  9
$UNITMODE
 70
     0
  9
$VISRETAIN
 70
     0
  9
$PLINEGEN
 70
     0
  9
$PSLTSCALE
 70
     1
  0
ENDSEC
  0
SECTION
  2
TABLES
  0
TABLE
  2
VPORT
 70
     2
  0
VPORT
  2
*ACTIVE
 70
     0
 10
0.0
 20
0.0
 11
1.0
 21
1.0
 12
4812.4714262694779
 22
887.23358202711461
 13
0.0
 23
0.0
 14
10.0
 24
10.0
 15
10.0
 25
10.0
 16
0.0
 26
0.0
 36
1.0
 17
0.0
 27
0.0
 37
0.0
 40
2049.9122091242361
 41
3.1666666666666661
 42
50.0
 43
0.0
 44
0.0
 50
0.0
 51
0.0
 71
     0
 72
   100
 73
     1
 74
     0
 75
     0
 76
     0
 77
     0
 78
     0
  0
ENDTAB
  0
TABLE
  2
LTYPE
 70
     2
  0
LTYPE
  2
CONTINUOUS
 70
     0
  3
Solid line
 72
    65
 73
     0
 40
0.0
  0
LTYPE
  2
CENTER
 70
     0
  3
____ _ ____ _ ____ _ ____ _ ____ _ ____ _ ____ 
 72
    65
 73
     4
 40
2.0
 49
1.25
 49
-0.25
 49
0.25
 49
-0.25
  0
ENDTAB
  0
TABLE
  2
LAYER
 70
     6
  0
LAYER
  2
0
 70
     0
 62
     7
  6
CONTINUOUS
  0
LAYER
  2
3
 70
     0
 62
     2
  6
CONTINUOUS
  0
LAYER
  2
2
 70
     0
 62
     3
  6
CENTER
  0
LAYER
  2
1
 70
     0
 62
     4
  6
CONTINUOUS
  0
LAYER
  2
4
 70
     0
 62
     7
  6
CONTINUOUS
  0
LAYER
  2
DEFPOINTS
 70
     0
 62
     7
  6
CONTINUOUS
  0
ENDTAB
  0
TABLE
  2
STYLE
 70
     1
  0
STYLE
  2
STANDARD
 70
     0
 40
0.0
 41
1.0
 50
0.0
 71
     0
 42
180.0
  3
simplex.shx
  4
extfont.shx
  0
ENDTAB
  0
TABLE
  2
VIEW
 70
     0
  0
ENDTAB
  0
TABLE
  2
UCS
 70
     0
  0
ENDTAB
  0
TABLE
  2
APPID
 70
     1
  0
APPID
  2
ACAD
 70
     0
  0
ENDTAB
  0
TABLE
  2
DIMSTYLE
 70
     1
  0
DIMSTYLE
  2
IGA
 70
     0
  3

  4

  5

  6
OPEN
  7
OPEN
 40
2.0
 41
2.0
 42
0.5
 43
10.0
 44
1.0
 45
0.0
 46
0.0
 47
1.0
 48
1.0
140
3.0
141
0.0
142
0.0
143
0.03937
144
1.0
145
0.0
146
10.0
147
1.0
 71
     0
 72
     0
 73
     0
 74
     0
 75
     0
 76
     0
 77
     1
 78
     8
170
     0
171
     2
172
     0
173
     1
174
     0
175
     0
176
     0
177
     0
178
     0
  0
ENDTAB
  0
ENDSEC
  0
SECTION
  2
BLOCKS
  0
BLOCK
  8
0
  2
$MODEL_SPACE
 70
     0
 10
0.0
 20
0.0
 30
0.0
  3
$MODEL_SPACE
  1

  0
ENDBLK
  5
1B
  8
0
  0
BLOCK
 67
     1
  8
0
  2
$PAPER_SPACE
 70
     0
 10
0.0
 20
0.0
 30
0.0
  3
$PAPER_SPACE
  1

  0
ENDBLK
  5
18
 67
     1
  8
0
  0
BLOCK
  8
0
  2
_OPEN
 70
     0
 10
0.0
 20
0.0
 30
0.0
  3
_OPEN
  1

  0
LINE
  5
79FD
  8
0
  6
BYBLOCK
 62
     0
 10
-1.0
 20
0.1666666666666666
 30
0.0
 11
0.0
 21
0.0
 31
0.0
  0
LINE
  5
79FE
  8
0
  6
BYBLOCK
 62
     0
 10
0.0
 20
0.0
 30
0.0
 11
-1.0
 21
-0.1666666666666666
 31
0.0
  0
LINE
  5
79FF
  8
0
  6
BYBLOCK
 62
     0
 10
0.0
 20
0.0
 30
0.0
 11
-1.0
 21
0.0
 31
0.0
  0
ENDBLK
  5
7A01
  8
0
  0
BLOCK
  8
0
  2
*D1
 70
     1
 10
0.0
 20
0.0
 30
0.0
  3
*D1
  1

  0
LINE
  5
83C6
  8
3
 62
     0
 10
3792.5155503706678
 20
2962.5380195547309
 30
0.0
 11
3792.5155503706678
 21
3085.3862212617419
 31
0.0
  0
LINE
  5
83C7
  8
3
 62
     0
 10
4217.515550370671
 20
2962.5380195547309
 30
0.0
 11
4217.515550370671
 21
3085.3862212617419
 31
0.0
  0
LINE
  5
83C8
  8
3
 62
     0
 10
3842.5155503706669
 20
3060.3862212617419
 30
0.0
 11
4167.515550370671
 21
3060.3862212617419
 31
0.0
  0
INSERT
  5
83C9
  8
3
 62
     0
  2
_OPEN
 10
3792.5155503706678
 20
3060.3862212617419
 30
0.0
 41
50.0
 42
50.0
 43
50.0
 50
180.0
  0
INSERT
  5
83CA
  8
3
 62
     0
  2
_OPEN
 10
4217.515550370671
 20
3060.3862212617419
 30
0.0
 41
50.0
 42
50.0
 43
50.0
  0
TEXT
  8
3
  40
75
  5
8480
  62
0
  72
0
  71
0
 10
3866.93
 20
2990.14
 30
0.000000
  1
425
  0
POINT
  5
83CC
  8
DEFPOINTS
 62
     0
 10
3792.5155503706678
 20
2950.03801955473
 30
0.0
  0
POINT
  5
83CD
  8
DEFPOINTS
 62
     0
 10
4217.515550370671
 20
2950.03801955473
 30
0.0
  0
POINT
  5
83CE
  8
DEFPOINTS
 62
     0
 10
4217.515550370671
 20
3060.3862212617419
 30
0.0
  0
ENDBLK
  5
814D
  8
0
  0
BLOCK
  8
0
  2
*D2
 70
     1
 10
0.0
 20
0.0
 30
0.0
  3
*D2
  1

  0
LINE
  5
83D9
  8
3
 62
     0
 10
4274.3155503706703
 20
2865.0380195547309
 30
0.0
 11
4438.6278381594702
 21
2865.0380195547309
 31
0.0
  0
LINE
  5
83DA
  8
3
 62
     0
 10
4274.3155503706703
 20
2305.0380195547291
 30
0.0
 11
4438.6278381594702
 21
2305.0380195547291
 31
0.0
  0
LINE
  5
83DB
  8
3
 62
     0
 10
4413.6278381594693
 20
2815.0380195547309
 30
0.0
 11
4413.6278381594693
 21
2355.0380195547291
 31
0.0
  0
INSERT
  5
83DC
  8
3
 62
     0
  2
_OPEN
 10
4413.6278381594693
 20
2865.0380195547309
 30
0.0
 41
50.0
 42
50.0
 43
50.0
 50
90.0
  0
INSERT
  5
83DD
  8
3
 62
     0
  2
_OPEN
 10
4413.6278381594693
 20
2305.0380195547291
 30
0.0
 41
50.0
 42
50.0
 43
50.0
 50
270.0
  0
TEXT
  8
3
  40
75
  5
8481
  62
0
  72
0
  71
0
 10
4201.13
 20
2452.29
 30
0.000000
  1
φ560
  0
POINT
  5
83DF
  8
DEFPOINTS
 62
     0
 10
4261.8155503706703
 20
2865.0380195547309
 30
0.0
  0
POINT
  5
83E0
  8
DEFPOINTS
 62
     0
 10
4261.8155503706703
 20
2305.0380195547291
 30
0.0
  0
POINT
  5
83E1
  8
DEFPOINTS
 62
     0
 10
4413.6278381594693
 20
2305.0380195547291
 30
0.0
  0
ENDBLK
  5
82D4
  8
0
  0
BLOCK
  8
0
  2
*D3
 70
     1
 10
0.0
 20
0.0
 30
0.0
  3
*D3
  1

  0
LINE
  5
83E2
  8
3
 62
     0
 10
735.57660597372876
 20
1692.5333924499739
 30
0.0
 11
735.57660597372876
 21
1521.894732622111
 31
0.0
  0
LINE
  5
83E3
  8
3
 62
     0
 10
1635.576605973728
 20
1644.623476746877
 30
0.0
 11
1635.576605973728
 21
1521.894732622111
 31
0.0
  0
LINE
  5
83E4
  8
3
 62
     0
 10
785.57660597372876
 20
1546.894732622111
 30
0.0
 11
1585.576605973728
 21
1546.894732622111
 31
0.0
  0
INSERT
  5
83E5
  8
3
 62
     0
  2
_OPEN
 10
735.57660597372876
 20
1546.894732622111
 30
0.0
 41
50.0
 42
50.0
 43
50.0
 50
180.0
  0
INSERT
  5
83E6
  8
3
 62
     0
  2
_OPEN
 10
1635.576605973728
 20
1546.894732622111
 30
0.0
 41
50.0
 42
50.0
 43
50.0
  0
TEXT
  8
3
  40
75
  5
8482
  62
0
  72
0
  71
0
 10
1035.58
 20
1476.64
 30
0.000000
  1
900
  0
POINT
  5
83E8
  8
DEFPOINTS
 62
     0
 10
735.57660597372876
 20
1705.0333924499739
 30
0.0
  0
POINT
  5
83E9
  8
DEFPOINTS
 62
     0
 10
1635.576605973728
 20
1657.123476746877
 30
0.0
  0
POINT
  5
83EA
  8
DEFPOINTS
 62
     0
 10
1635.576605973728
 20
1546.894732622111
 30
0.0
  0
ENDBLK
  5
833E
  8
0
  0
BLOCK
  8
0
  2
*D4
 70
     1
 10
0.0
 20
0.0
 30
0.0
  3
*D4
  1

  0
LINE
  5
8340
  8
0
  6
BYBLOCK
 62
     0
 10
1635.576605973728
 20
1701.623476746877
 30
0.0
 11
1635.576605973728
 21
1579.034450729639
 31
0.0
  0
LINE
  5
8341
  8
0
  6
BYBLOCK
 62
     0
 10
1885.576605973728
 20
1749.5393048437411
 30
0.0
 11
1885.576605973728
 21
1579.034450729639
 31
0.0
  0
LINE
  5
8342
  8
0
  6
BYBLOCK
 62
     0
 10
1685.576605973728
 20
1604.034450729639
 30
0.0
 11
1835.576605973728
 21
1604.034450729639
 31
0.0
  0
TEXT
  5
8343
  8
1
 62
     0
 10
1664.1480345451571
 20
1642.33800821107
 30
0.0
 40
75.0
  1
250
  0
INSERT
  5
8344
  8
0
  6
BYBLOCK
 62
     0
  2
_OPEN
 10
1635.576605973728
 20
1604.034450729639
 30
0.0
 41
50.0
 42
50.0
 43
50.0
 50
180.0
  0
INSERT
  5
8345
  8
0
  6
BYBLOCK
 62
     0
  2
_OPEN
 10
1885.576605973728
 20
1604.034450729639
 30
0.0
 41
50.0
 42
50.0
 43
50.0
  0
POINT
  5
8346
  8
DEFPOINTS
  6
BYBLOCK
 62
     0
 10
1635.576605973728
 20
1714.123476746877
 30
0.0
  0
POINT
  5
8347
  8
DEFPOINTS
  6
BYBLOCK
 62
     0
 10
1885.576605973728
 20
1762.0393048437411
 30
0.0
  0
POINT
  5
8348
  8
DEFPOINTS
  6
BYBLOCK
 62
     0
 10
1885.576605973728
 20
1604.034450729639
 30
0.0
  0
ENDBLK
  5
8349
  8
0
  0
BLOCK
  8
0
  2
*D5
 70
     1
 10
0.0
 20
0.0
 30
0.0
  3
*D5
  1

  0
LINE
  5
83EB
  8
3
 62
     0
 10
3160.0155503706669
 20
1692.5380195547309
 30
0.0
 11
3160.0155503706669
 21
1518.1740955264279
 31
0.0
  0
LINE
  5
83EC
  8
3
 62
     0
 10
4005.0155503706669
 20
1645.939843159143
 30
0.0
 11
4005.0155503706669
 21
1518.1740955264279
 31
0.0
  0
LINE
  5
83ED
  8
3
 62
     0
 10
3210.0155503706669
 20
1543.1740955264279
 30
0.0
 11
3955.0155503706669
 21
1543.1740955264279
 31
0.0
  0
INSERT
  5
83EE
  8
3
 62
     0
  2
_OPEN
 10
3160.0155503706669
 20
1543.1740955264279
 30
0.0
 41
50.0
 42
50.0
 43
50.0
 50
180.0
  0
INSERT
  5
83EF
  8
3
 62
     0
  2
_OPEN
 10
4005.0155503706669
 20
1543.1740955264279
 30
0.0
 41
50.0
 42
50.0
 43
50.0
  0
TEXT
  8
3
  40
75
  5
8483
  62
0
  72
0
  71
0
 10
3432.52
 20
1472.92
 30
0.000000
  1
845
  0
POINT
  5
83F1
  8
DEFPOINTS
 62
     0
 10
3160.0155503706669
 20
1705.0380195547309
 30
0.0
  0
POINT
  5
83F2
  8
DEFPOINTS
 62
     0
 10
4005.0155503706669
 20
1658.439843159143
 30
0.0
  0
POINT
  5
83F3
  8
DEFPOINTS
 62
     0
 10
4005.0155503706669
 20
1543.1740955264279
 30
0.0
  0
ENDBLK
  5
8354
  8
0
  0
BLOCK
  8
0
  2
*D6
 70
     1
 10
0.0
 20
0.0
 30
0.0
  3
*D6
  1

  0
LINE
  5
8356
  8
0
  6
BYBLOCK
 62
     0
 10
4005.0155503706669
 20
1702.9398431591439
 30
0.0
 11
4005.0155503706669
 21
1574.877855338734
 31
0.0
  0
LINE
  5
8357
  8
0
  6
BYBLOCK
 62
     0
 10
4260.0155503706701
 20
1749.5380195547309
 30
0.0
 11
4260.0155503706701
 21
1574.877855338734
 31
0.0
  0
LINE
  5
8358
  8
0
  6
BYBLOCK
 62
     0
 10
4055.0155503706678
 20
1599.877855338734
 30
0.0
 11
4210.0155503706692
 21
1599.877855338734
 31
0.0
  0
TEXT
  5
8359
  8
1
 62
     0
 10
4036.0869789420972
 20
1622.0181573096299
 30
0.0
 40
75.0
  1
255
  0
INSERT
  5
835A
  8
0
  6
BYBLOCK
 62
     0
  2
_OPEN
 10
4005.0155503706669
 20
1599.877855338734
 30
0.0
 41
50.0
 42
50.0
 43
50.0
 50
180.0
  0
INSERT
  5
835B
  8
0
  6
BYBLOCK
 62
     0
  2
_OPEN
 10
4260.0155503706701
 20
1599.877855338734
 30
0.0
 41
50.0
 42
50.0
 43
50.0
  0
POINT
  5
835C
  8
DEFPOINTS
  6
BYBLOCK
 62
     0
 10
4005.0155503706669
 20
1715.4398431591439
 30
0.0
  0
POINT
  5
835D
  8
DEFPOINTS
  6
BYBLOCK
 62
     0
 10
4260.0155503706701
 20
1762.0380195547309
 30
0.0
  0
POINT
  5
835E
  8
DEFPOINTS
  6
BYBLOCK
 62
     0
 10
4260.0155503706701
 20
1599.877855338734
 30
0.0
  0
ENDBLK
  5
835F
  8
0
  0
BLOCK
  8
0
  2
*D7
 70
     1
 10
0.0
 20
0.0
 30
0.0
  3
*D7
  1

  0
LINE
  5
83F4
  8
3
 62
     0
 10
2035.073521251662
 20
1985.03801954852
 30
0.0
 11
2318.5142510151231
 21
1985.03801954852
 31
0.0
  0
LINE
  5
83F5
  8
3
 62
     0
 10
2107.5928907363159
 20
2585.03801954852
 30
0.0
 11
2318.5142510151231
 21
2585.03801954852
 31
0.0
  0
LINE
  5
83F6
  8
3
 62
     0
 10
2293.5142510151231
 20
2035.03801954852
 30
0.0
 11
2293.5142510151231
 21
2535.03801954852
 31
0.0
  0
INSERT
  5
83F7
  8
3
 62
     0
  2
_OPEN
 10
2293.5142510151231
 20
1985.03801954852
 30
0.0
 41
50.0
 42
50.0
 43
50.0
 50
270.0
  0
INSERT
  5
83F8
  8
3
 62
     0
  2
_OPEN
 10
2293.5142510151231
 20
2585.03801954852
 30
0.0
 41
50.0
 42
50.0
 43
50.0
 50
90.0
  0
TEXT
  8
3
  40
75
  5
8484
  62
0
  72
0
  71
0
 10
2081.01
 20
2152.29
 30
0.000000
  1
600
  0
POINT
  5
83FA
  8
DEFPOINTS
 62
     0
 10
2022.573521251662
 20
1985.03801954852
 30
0.0
  0
POINT
  5
83FB
  8
DEFPOINTS
 62
     0
 10
2095.092890736315
 20
2585.03801954852
 30
0.0
  0
POINT
  5
83FC
  8
DEFPOINTS
 62
     0
 10
2293.5142510151231
 20
2585.03801954852
 30
0.0
  0
ENDBLK
  5
8238
  8
0
  0
BLOCK
  8
0
  2
*D8
 70
     1
 10
0.0
 20
0.0
 30
0.0
  3
*D8
  1

  0
LINE
  5
83FD
  8
3
 62
     0
 10
2035.073521251662
 20
1985.03801954852
 30
0.0
 11
2191.9923535968842
 21
1985.03801954852
 31
0.0
  0
LINE
  5
83FE
  8
3
 62
     0
 10
2013.0765031543151
 20
2565.03801954852
 30
0.0
 11
2191.9923535968842
 21
2565.03801954852
 31
0.0
  0
LINE
  5
83FF
  8
3
 62
     0
 10
2166.9923535968842
 20
2035.03801954852
 30
0.0
 11
2166.9923535968842
 21
2515.03801954852
 31
0.0
  0
INSERT
  5
8400
  8
3
 62
     0
  2
_OPEN
 10
2166.9923535968842
 20
1985.03801954852
 30
0.0
 41
50.0
 42
50.0
 43
50.0
 50
270.0
  0
INSERT
  5
8401
  8
3
 62
     0
  2
_OPEN
 10
2166.9923535968842
 20
2565.03801954852
 30
0.0
 41
50.0
 42
50.0
 43
50.0
 50
90.0
  0
TEXT
  8
3
  40
75
  5
8485
  62
0
  72
0
  71
0
 10
1954.49
 20
2142.29
 30
0.000000
  1
580
  0
POINT
  5
8403
  8
DEFPOINTS
 62
     0
 10
2022.573521251662
 20
1985.03801954852
 30
0.0
  0
POINT
  5
8404
  8
DEFPOINTS
 62
     0
 10
2000.5765031543151
 20
2565.03801954852
 30
0.0
  0
POINT
  5
8405
  8
DEFPOINTS
 62
     0
 10
2166.9923535968842
 20
2565.03801954852
 30
0.0
  0
ENDBLK
  5
80E6
  8
0
  0
BLOCK
  8
0
  2
*D9
 70
     1
 10
0.0
 20
0.0
 30
0.0
  3
*D9
  1

  0
LINE
  5
8406
  8
3
 62
     0
 10
4005.0155503706692
 20
3184.7882529462281
 30
0.0
 11
4005.0155503706692
 21
3254.6157566872712
 31
0.0
  0
LINE
  5
8407
  8
3
 62
     0
 10
3054.5155503706692
 20
2697.5380195547309
 30
0.0
 11
3054.5155503706692
 21
3254.6157566872712
 31
0.0
  0
LINE
  5
8408
  8
3
 62
     0
 10
3955.0155503706692
 20
3229.6157566872712
 30
0.0
 11
3104.5155503706692
 21
3229.6157566872712
 31
0.0
  0
INSERT
  5
8409
  8
3
 62
     0
  2
_OPEN
 10
4005.0155503706692
 20
3229.6157566872712
 30
0.0
 41
50.0
 42
50.0
 43
50.0
  0
INSERT
  5
840A
  8
3
 62
     0
  2
_OPEN
 10
3054.5155503706692
 20
3229.6157566872712
 30
0.0
 41
50.0
 42
50.0
 43
50.0
 50
180.0
  0
TEXT
  8
3
  40
75
  5
8486
  62
0
  72
0
  71
0
 10
3379.77
 20
3221.87
 30
0.000000
  1
MAX
  0
TEXT
  8
3
  40
75
  5
8487
  62
0
  72
0
  71
0
 10
3379.77
 20
3124.37
 30
0.000000
  1
1010
  0
POINT
  5
840C
  8
DEFPOINTS
 62
     0
 10
4005.0155503706692
 20
3172.2882529462281
 30
0.0
  0
POINT
  5
840D
  8
DEFPOINTS
 62
     0
 10
3054.5155503706692
 20
2685.0380195547309
 30
0.0
  0
POINT
  5
840E
  8
DEFPOINTS
 62
     0
 10
3054.5155503706692
 20
3229.6157566872712
 30
0.0
  0
ENDBLK
  5
8305
  8
0
  0
BLOCK
  8
0
  2
*D10
 70
     1
 10
0.0
 20
0.0
 30
0.0
  3
*D10
  1

  0
LINE
  5
840F
  8
3
 62
     0
 10
735.5755659103379
 20
4117.5803328609163
 30
0.0
 11
735.5755659103379
 21
3783.9394801805429
 31
0.0
  0
LINE
  5
8410
  8
3
 62
     0
 10
1885.5755658951391
 20
4117.5862452546817
 30
0.0
 11
1885.5755658951391
 21
3783.9394801805429
 31
0.0
  0
LINE
  5
8411
  8
3
 62
     0
 10
785.5755659103379
 20
3808.9394801805429
 30
0.0
 11
1835.5755658951391
 21
3808.9394801805429
 31
0.0
  0
INSERT
  5
8412
  8
3
 62
     0
  2
_OPEN
 10
735.5755659103379
 20
3808.9394801805429
 30
0.0
 41
50.0
 42
50.0
 43
50.0
 50
180.0
  0
INSERT
  5
8413
  8
3
 62
     0
  2
_OPEN
 10
1885.5755658951391
 20
3808.9394801805429
 30
0.0
 41
50.0
 42
50.0
 43
50.0
  0
TEXT
  8
3
  40
75
  5
8488
  62
0
  72
0
  71
0
 10
1160.58
 20
3738.69
 30
0.000000
  1
1150
  0
POINT
  5
8415
  8
DEFPOINTS
 62
     0
 10
735.5755659103379
 20
4130.0803328609163
 30
0.0
  0
POINT
  5
8416
  8
DEFPOINTS
 62
     0
 10
1885.5755658951391
 20
4130.0862452546817
 30
0.0
  0
POINT
  5
8417
  8
DEFPOINTS
 62
     0
 10
1885.5755658951391
 20
3808.9394801805429
 30
0.0
  0
ENDBLK
  5
80D0
  8
0
  0
BLOCK
  8
0
  2
*D11
 70
     1
 10
0.0
 20
0.0
 30
0.0
  3
*D11
  1

  0
LINE
  5
8418
  8
3
 62
     0
 10
1885.569910561969
 20
5242.586245240147
 30
0.0
 11
1885.569910561969
 21
5425.3403692712136
 31
0.0
  0
LINE
  5
8419
  8
3
 62
     0
 10
1385.5699105685781
 20
5242.5836746341602
 30
0.0
 11
1385.5699105685781
 21
5425.3403692712136
 31
0.0
  0
LINE
  5
841A
  8
3
 62
     0
 10
1835.569910561969
 20
5400.3403692712154
 30
0.0
 11
1435.5699105685781
 21
5400.3403692712154
 31
0.0
  0
INSERT
  5
841B
  8
3
 62
     0
  2
_OPEN
 10
1885.569910561969
 20
5400.3403692712154
 30
0.0
 41
50.0
 42
50.0
 43
50.0
  0
INSERT
  5
841C
  8
3
 62
     0
  2
_OPEN
 10
1385.5699105685781
 20
5400.3403692712154
 30
0.0
 41
50.0
 42
50.0
 43
50.0
 50
180.0
  0
TEXT
  8
3
  40
75
  5
8489
  62
0
  72
0
  71
0
 10
1485.57
 20
5330.09
 30
0.000000
  1
500
  0
POINT
  5
841E
  8
DEFPOINTS
 62
     0
 10
1885.569910561969
 20
5230.0862452401479
 30
0.0
  0
POINT
  5
841F
  8
DEFPOINTS
 62
     0
 10
1385.5699105685781
 20
5230.0836746341602
 30
0.0
  0
POINT
  5
8420
  8
DEFPOINTS
 62
     0
 10
1385.5699105685781
 20
5400.3403692712154
 30
0.0
  0
ENDBLK
  5
80C5
  8
0
  0
BLOCK
  8
0
  2
*D12
 70
     1
 10
0.0
 20
0.0
 30
0.0
  3
*D12
  1

  0
LINE
  5
8421
  8
3
 62
     0
 10
1385.5699105685781
 20
5242.5836746341602
 30
0.0
 11
1385.5699105685781
 21
5425.3403692712118
 31
0.0
  0
LINE
  5
8422
  8
3
 62
     0
 10
735.56991057716914
 20
4734.1743697023676
 30
0.0
 11
735.56991057716914
 21
5425.3403692712118
 31
0.0
  0
LINE
  5
8423
  8
3
 62
     0
 10
1335.5699105685781
 20
5400.3403692712118
 30
0.0
 11
785.56991057716914
 21
5400.3403692712118
 31
0.0
  0
INSERT
  5
8424
  8
3
 62
     0
  2
_OPEN
 10
1385.5699105685781
 20
5400.3403692712118
 30
0.0
 41
50.0
 42
50.0
 43
50.0
  0
INSERT
  5
8425
  8
3
 62
     0
  2
_OPEN
 10
735.56991057716914
 20
5400.3403692712118
 30
0.0
 41
50.0
 42
50.0
 43
50.0
 50
180.0
  0
TEXT
  8
3
  40
75
  5
848A
  62
0
  72
0
  71
0
 10
910.570
 20
5330.09
 30
0.000000
  1
650
  0
POINT
  5
8427
  8
DEFPOINTS
 62
     0
 10
1385.5699105685781
 20
5230.0836746341602
 30
0.0
  0
POINT
  5
8428
  8
DEFPOINTS
 62
     0
 10
735.56991057716914
 20
4721.6743697023694
 30
0.0
  0
POINT
  5
8429
  8
DEFPOINTS
 62
     0
 10
735.56991057716914
 20
5400.3403692712118
 30
0.0
  0
ENDBLK
  5
80BA
  8
0
  0
BLOCK
  8
0
  2
*D13
 70
     1
 10
0.0
 20
0.0
 30
0.0
  3
*D13
  1

  0
LINE
  5
842A
  8
3
 62
     0
 10
1648.076605973728
 20
2985.03801954852
 30
0.0
 11
2447.1079900216491
 21
2985.03801954852
 31
0.0
  0
LINE
  5
842B
  8
3
 62
     0
 10
2136.8690058660441
 20
2585.03801954852
 30
0.0
 11
2447.1079900216491
 21
2585.03801954852
 31
0.0
  0
LINE
  5
842C
  8
3
 62
     0
 10
2422.1079900216491
 20
2935.03801954852
 30
0.0
 11
2422.1079900216491
 21
2635.03801954852
 31
0.0
  0
INSERT
  5
842D
  8
3
 62
     0
  2
_OPEN
 10
2422.1079900216491
 20
2985.03801954852
 30
0.0
 41
50.0
 42
50.0
 43
50.0
 50
90.0
  0
INSERT
  5
842E
  8
3
 62
     0
  2
_OPEN
 10
2422.1079900216491
 20
2585.03801954852
 30
0.0
 41
50.0
 42
50.0
 43
50.0
 50
270.0
  0
TEXT
  8
3
  40
75
  5
848B
  62
0
  72
0
  71
0
 10
2209.61
 20
2652.29
 30
0.000000
  1
400
  0
POINT
  5
8430
  8
DEFPOINTS
 62
     0
 10
1635.576605973728
 20
2985.03801954852
 30
0.0
  0
POINT
  5
8431
  8
DEFPOINTS
 62
     0
 10
2124.3690058660441
 20
2585.03801954852
 30
0.0
  0
POINT
  5
8432
  8
DEFPOINTS
 62
     0
 10
2422.1079900216491
 20
2585.03801954852
 30
0.0
  0
ENDBLK
  5
8222
  8
0
  0
BLOCK
  8
0
  2
*D14
 70
     1
 10
0.0
 20
0.0
 30
0.0
  3
*D14
  1

  0
LINE
  5
8433
  8
3
 62
     0
 10
2136.8690058660441
 20
2585.03801954852
 30
0.0
 11
2447.1079900216491
 21
2585.03801954852
 31
0.0
  0
LINE
  5
8434
  8
3
 62
     0
 10
1898.076605973728
 20
1875.03801954852
 30
0.0
 11
2447.1079900216491
 21
1875.03801954852
 31
0.0
  0
LINE
  5
8435
  8
3
 62
     0
 10
2422.1079900216491
 20
2535.03801954852
 30
0.0
 11
2422.1079900216491
 21
1925.0380195485191
 31
0.0
  0
INSERT
  5
8436
  8
3
 62
     0
  2
_OPEN
 10
2422.1079900216491
 20
2585.03801954852
 30
0.0
 41
50.0
 42
50.0
 43
50.0
 50
90.0
  0
INSERT
  5
8437
  8
3
 62
     0
  2
_OPEN
 10
2422.1079900216491
 20
1875.03801954852
 30
0.0
 41
50.0
 42
50.0
 43
50.0
 50
270.0
  0
TEXT
  8
3
  40
75
  5
848C
  62
0
  72
0
  71
0
 10
2209.61
 20
2097.29
 30
0.000000
  1
710
  0
POINT
  5
8439
  8
DEFPOINTS
 62
     0
 10
2124.3690058660441
 20
2585.03801954852
 30
0.0
  0
POINT
  5
843A
  8
DEFPOINTS
 62
     0
 10
1885.576605973728
 20
1875.03801954852
 30
0.0
  0
POINT
  5
843B
  8
DEFPOINTS
 62
     0
 10
2422.1079900216491
 20
1875.03801954852
 30
0.0
  0
ENDBLK
  5
8243
  8
0
  0
BLOCK
  8
0
  2
*D15
 70
     1
 10
0.0
 20
0.0
 30
0.0
  3
*D15
  1

  0
LINE
  5
838F
  8
0
  6
BYBLOCK
 62
     0
 10
1898.076605973728
 20
1875.03801954852
 30
0.0
 11
2447.1079900216491
 21
1875.03801954852
 31
0.0
  0
LINE
  5
8390
  8
0
  6
BYBLOCK
 62
     0
 10
1898.076605973728
 20
1780.03801954852
 30
0.0
 11
2447.1079900216491
 21
1780.03801954852
 31
0.0
  0
LINE
  5
8391
  8
0
  6
BYBLOCK
 62
     0
 10
2422.1079900216491
 20
1925.0380195485191
 30
0.0
 11
2422.1079900216491
 21
1975.0380195485191
 31
0.0
  0
LINE
  5
8392
  8
0
  6
BYBLOCK
 62
     0
 10
2422.1079900216491
 20
1730.03801954852
 30
0.0
 11
2422.1079900216491
 21
1680.03801954852
 31
0.0
  0
TEXT
  5
8393
  8
1
 62
     0
 10
2566.750847164506
 20
1783.596028529425
 30
0.0
 40
75.0
  1
(95)
 50
90.0
  0
LINE
  5
8394
  8
0
  6
BYBLOCK
 62
     0
 10
2422.1079900216491
 20
1875.03801954852
 30
0.0
 11
2422.1079900216491
 21
1780.03801954852
 31
0.0
  0
INSERT
  5
8395
  8
0
  6
BYBLOCK
 62
     0
  2
_OPEN
 10
2422.1079900216491
 20
1875.03801954852
 30
0.0
 41
50.0
 42
50.0
 43
50.0
 50
270.0
  0
INSERT
  5
8396
  8
0
  6
BYBLOCK
 62
     0
  2
_DOT
 10
2422.1079900216491
 20
1780.03801954852
 30
0.0
 41
50.0
 42
50.0
 43
50.0
 50
90.0
  0
POINT
  5
8397
  8
DEFPOINTS
  6
BYBLOCK
 62
     0
 10
1885.576605973728
 20
1875.03801954852
 30
0.0
  0
POINT
  5
8398
  8
DEFPOINTS
  6
BYBLOCK
 62
     0
 10
1885.576605973728
 20
1780.03801954852
 30
0.0
  0
POINT
  5
8399
  8
DEFPOINTS
  6
BYBLOCK
 62
     0
 10
2422.1079900216491
 20
1780.03801954852
 30
0.0
  0
ENDBLK
  5
839A
  8
0
  0
BLOCK
  8
0
  2
*D16
 70
     1
 10
0.0
 20
0.0
 30
0.0
  3
*D16
  1

  0
LINE
  5
843C
  8
3
 62
     0
 10
1898.076605973728
 20
1780.03801954852
 30
0.0
 11
2447.1079900216491
 21
1780.03801954852
 31
0.0
  0
LINE
  5
843D
  8
3
 62
     0
 10
1898.076605973728
 20
1705.03801954852
 30
0.0
 11
2447.1079900216491
 21
1705.03801954852
 31
0.0
  0
LINE
  5
843E
  8
3
 62
     0
 10
2422.1079900216491
 20
1830.03801954852
 30
0.0
 11
2422.1079900216491
 21
1880.03801954852
 31
0.0
  0
LINE
  5
843F
  8
3
 62
     0
 10
2422.1079900216491
 20
1655.03801954852
 30
0.0
 11
2422.1079900216491
 21
1433.609448119948
 31
0.0
  0
LINE
  5
8440
  8
3
 62
     0
 10
2422.1079900216491
 20
1780.03801954852
 30
0.0
 11
2422.1079900216491
 21
1705.03801954852
 31
0.0
  0
INSERT
  5
8441
  8
3
 62
     0
  2
_DOT
 10
2422.1079900216491
 20
1780.03801954852
 30
0.0
 41
50.0
 42
50.0
 43
50.0
 50
270.0
  0
INSERT
  5
8442
  8
3
 62
     0
  2
_OPEN
 10
2422.1079900216491
 20
1705.03801954852
 30
0.0
 41
50.0
 42
50.0
 43
50.0
 50
90.0
  0
TEXT
  8
3
  40
75
  5
848D
  62
0
  72
0
  71
0
 10
2209.61
 20
1386.57
 30
0.000000
  1
75
  0
POINT
  5
8444
  8
DEFPOINTS
 62
     0
 10
1885.576605973728
 20
1780.03801954852
 30
0.0
  0
POINT
  5
8445
  8
DEFPOINTS
 62
     0
 10
1885.576605973728
 20
1705.03801954852
 30
0.0
  0
POINT
  5
8446
  8
DEFPOINTS
 62
     0
 10
2422.1079900216491
 20
1705.03801954852
 30
0.0
  0
ENDBLK
  5
838D
  8
0
  0
BLOCK
  8
0
  2
*D17
 70
     1
 10
0.0
 20
0.0
 30
0.0
  3
*D17
  1

  0
LINE
  5
8447
  8
3
 62
     0
 10
2025.576605973728
 20
2602.536014475917
 30
0.0
 11
2025.576605973728
 21
3198.9808550409471
 31
0.0
  0
LINE
  5
8448
  8
3
 62
     0
 10
1635.576605973728
 20
3116.905917343483
 30
0.0
 11
1635.576605973728
 21
3198.9808550409471
 31
0.0
  0
LINE
  5
8449
  8
3
 62
     0
 10
1975.576605973728
 20
3173.9808550409471
 30
0.0
 11
1685.576605973728
 21
3173.9808550409471
 31
0.0
  0
INSERT
  5
844A
  8
3
 62
     0
  2
_OPEN
 10
2025.576605973728
 20
3173.9808550409471
 30
0.0
 41
50.0
 42
50.0
 43
50.0
  0
INSERT
  5
844B
  8
3
 62
     0
  2
_OPEN
 10
1635.576605973728
 20
3173.9808550409471
 30
0.0
 41
50.0
 42
50.0
 43
50.0
 50
180.0
  0
TEXT
  8
3
  40
75
  5
848E
  62
0
  72
0
  71
0
 10
1680.58
 20
3103.73
 30
0.000000
  1
390
  0
POINT
  5
844D
  8
DEFPOINTS
 62
     0
 10
2025.576605973728
 20
2590.036014475917
 30
0.0
  0
POINT
  5
844E
  8
DEFPOINTS
 62
     0
 10
1635.576605973728
 20
3104.405917343483
 30
0.0
  0
POINT
  5
844F
  8
DEFPOINTS
 62
     0
 10
1635.576605973728
 20
3173.9808550409471
 30
0.0
  0
ENDBLK
  5
807F
  8
0
  0
BLOCK
  8
0
  2
*D18
 70
     1
 10
0.0
 20
0.0
 30
0.0
  3
*D18
  1

  0
LINE
  5
8450
  8
3
 62
     0
 10
1635.576605973728
 20
3116.905917343483
 30
0.0
 11
1635.576605973728
 21
3198.9808550409471
 31
0.0
  0
LINE
  5
8451
  8
3
 62
     0
 10
1151.576605973728
 20
2597.53801954852
 30
0.0
 11
1151.576605973728
 21
3198.9808550409471
 31
0.0
  0
LINE
  5
8452
  8
3
 62
     0
 10
1585.576605973728
 20
3173.9808550409471
 30
0.0
 11
1201.576605973728
 21
3173.9808550409471
 31
0.0
  0
INSERT
  5
8453
  8
3
 62
     0
  2
_OPEN
 10
1635.576605973728
 20
3173.9808550409471
 30
0.0
 41
50.0
 42
50.0
 43
50.0
  0
INSERT
  5
8454
  8
3
 62
     0
  2
_OPEN
 10
1151.576605973728
 20
3173.9808550409471
 30
0.0
 41
50.0
 42
50.0
 43
50.0
 50
180.0
  0
TEXT
  8
3
  40
75
  5
848F
  62
0
  72
0
  71
0
 10
1243.58
 20
3103.73
 30
0.000000
  1
484
  0
POINT
  5
8456
  8
DEFPOINTS
 62
     0
 10
1635.576605973728
 20
3104.405917343483
 30
0.0
  0
POINT
  5
8457
  8
DEFPOINTS
 62
     0
 10
1151.576605973728
 20
2585.03801954852
 30
0.0
  0
POINT
  5
8458
  8
DEFPOINTS
 62
     0
 10
1151.576605973728
 20
3173.9808550409471
 30
0.0
  0
ENDBLK
  5
8074
  8
0
  0
BLOCK
  8
0
  2
*D19
 70
     1
 10
0.0
 20
0.0
 30
0.0
  3
*D19
  1

  0
LINE
  5
8459
  8
3
 62
     0
 10
2025.576605973728
 20
2602.536014475917
 30
0.0
 11
2025.576605973728
 21
3339.3159771851219
 31
0.0
  0
LINE
  5
845A
  8
3
 62
     0
 10
735.57660597372876
 20
1962.5380195485191
 30
0.0
 11
735.57660597372887
 21
3339.3159771851219
 31
0.0
  0
LINE
  5
845B
  8
3
 62
     0
 10
1975.576605973728
 20
3314.3159771851219
 30
0.0
 11
785.57660597372887
 21
3314.3159771851219
 31
0.0
  0
INSERT
  5
845C
  8
3
 62
     0
  2
_OPEN
 10
2025.576605973728
 20
3314.3159771851219
 30
0.0
 41
50.0
 42
50.0
 43
50.0
  0
INSERT
  5
845D
  8
3
 62
     0
  2
_OPEN
 10
735.57660597372887
 20
3314.3159771851219
 30
0.0
 41
50.0
 42
50.0
 43
50.0
 50
180.0
  0
TEXT
  8
3
  40
75
  5
8490
  62
0
  72
0
  71
0
 10
1230.58
 20
3244.07
 30
0.000000
  1
1290
  0
POINT
  5
845F
  8
DEFPOINTS
 62
     0
 10
2025.576605973728
 20
2590.036014475917
 30
0.0
  0
POINT
  5
8460
  8
DEFPOINTS
 62
     0
 10
735.57660597372876
 20
1950.03801954852
 30
0.0
  0
POINT
  5
8461
  8
DEFPOINTS
 62
     0
 10
735.57660597372887
 20
3314.3159771851219
 30
0.0
  0
ENDBLK
  5
819C
  8
0
  0
BLOCK
  8
0
  2
*D20
 70
     1
 10
0.0
 20
0.0
 30
0.0
  3
*D20
  1

  0
LINE
  5
8462
  8
3
 62
     0
 10
1648.076605973728
 20
2985.03801954852
 30
0.0
 11
2652.9360794292488
 21
2985.03801954852
 31
0.0
  0
LINE
  5
8463
  8
3
 62
     0
 10
1898.076605973728
 20
1705.03801954852
 30
0.0
 11
2652.9360794292488
 21
1705.0380195485191
 31
0.0
  0
LINE
  5
8464
  8
3
 62
     0
 10
2627.9360794292488
 20
2935.03801954852
 30
0.0
 11
2627.9360794292488
 21
1755.0380195485191
 31
0.0
  0
INSERT
  5
8465
  8
3
 62
     0
  2
_OPEN
 10
2627.9360794292488
 20
2985.03801954852
 30
0.0
 41
50.0
 42
50.0
 43
50.0
 50
90.0
  0
INSERT
  5
8466
  8
3
 62
     0
  2
_OPEN
 10
2627.9360794292488
 20
1705.0380195485191
 30
0.0
 41
50.0
 42
50.0
 43
50.0
 50
270.0
  0
TEXT
  8
3
  40
75
  5
8491
  62
0
  72
0
  71
0
 10
2415.44
 20
2212.29
 30
0.000000
  1
1280
  0
POINT
  5
8468
  8
DEFPOINTS
 62
     0
 10
1635.576605973728
 20
2985.03801954852
 30
0.0
  0
POINT
  5
8469
  8
DEFPOINTS
 62
     0
 10
1885.576605973728
 20
1705.03801954852
 30
0.0
  0
POINT
  5
846A
  8
DEFPOINTS
 62
     0
 10
2627.9360794292488
 20
1705.0380195485191
 30
0.0
  0
ENDBLK
  5
8380
  8
0
  0
BLOCK
  8
0
  2
*D21
 70
     1
 10
0.0
 20
0.0
 30
0.0
  3
*D21
  1

  0
LINE
  5
846B
  8
3
 62
     0
 10
1898.069910561969
 20
5230.0862452401479
 30
0.0
 11
2249.2683001244768
 21
5230.0862452401461
 31
0.0
  0
LINE
  5
846C
  8
3
 62
     0
 10
1898.0755658951391
 20
4130.0862452546817
 30
0.0
 11
2249.2683001244759
 21
4130.0862452546808
 31
0.0
  0
LINE
  5
846D
  8
3
 62
     0
 10
2224.2683001244768
 20
5180.0862452401461
 30
0.0
 11
2224.2683001244759
 21
4180.0862452546808
 31
0.0
  0
INSERT
  5
846E
  8
3
 62
     0
  2
_OPEN
 10
2224.2683001244768
 20
5230.0862452401461
 30
0.0
 41
50.0
 42
50.0
 43
50.0
 50
90.0
  0
INSERT
  5
846F
  8
3
 62
     0
  2
_OPEN
 10
2224.2683001244759
 20
4130.0862452546808
 30
0.0
 41
50.0
 42
50.0
 43
50.0
 50
270.0
  0
TEXT
  8
3
  40
75
  5
8492
  62
0
  72
0
  71
0
 10
2011.77
 20
4547.34
 30
0.000000
  1
1100
  0
POINT
  5
8471
  8
DEFPOINTS
 62
     0
 10
1885.569910561969
 20
5230.0862452401479
 30
0.0
  0
POINT
  5
8472
  8
DEFPOINTS
 62
     0
 10
1885.5755658951391
 20
4130.0862452546817
 30
0.0
  0
POINT
  5
8473
  8
DEFPOINTS
 62
     0
 10
2224.2683001244759
 20
4130.0862452546808
 30
0.0
  0
ENDBLK
  5
8053
  8
0
  0
BLOCK
  8
0
  2
*D22
 70
     1
 10
0.0
 20
0.0
 30
0.0
  3
*D22
  1

  0
LINE
  5
8474
  8
3
 62
     0
 10
723.07067999284118
 20
4730.080332843725
 30
0.0
 11
525.07999823455623
 21
4730.080332843725
 31
0.0
  0
LINE
  5
8475
  8
3
 62
     0
 10
723.07556591034324
 20
4130.0803328609163
 30
0.0
 11
525.07999823455611
 21
4130.0803328609163
 31
0.0
  0
LINE
  5
8476
  8
3
 62
     0
 10
550.07999823455623
 20
4680.080332843726
 30
0.0
 11
550.07999823455611
 21
4180.0803328609163
 31
0.0
  0
INSERT
  5
8477
  8
3
 62
     0
  2
_OPEN
 10
550.07999823455623
 20
4730.080332843725
 30
0.0
 41
50.0
 42
50.0
 43
50.0
 50
90.0
  0
INSERT
  5
8478
  8
3
 62
     0
  2
_OPEN
 10
550.07999823455611
 20
4130.0803328609163
 30
0.0
 41
50.0
 42
50.0
 43
50.0
 50
270.0
  0
TEXT
  8
3
  40
75
  5
8493
  62
0
  72
0
  71
0
 10
337.580
 20
4297.33
 30
0.000000
  1
600
  0
POINT
  5
847A
  8
DEFPOINTS
 62
     0
 10
735.57067999284118
 20
4730.080332843725
 30
0.0
  0
POINT
  5
847B
  8
DEFPOINTS
 62
     0
 10
735.57556591034324
 20
4130.0803328609163
 30
0.0
  0
POINT
  5
847C
  8
DEFPOINTS
 62
     0
 10
550.07999823455611
 20
4130.0803328609163
 30
0.0
  0
ENDBLK
  5
8048
  8
0
  0
BLOCK
  8
0
  2
_DOT
 70
     0
 10
0.0
 20
0.0
 30
0.0
  3
_DOT
  1

  0
POLYLINE
  5
82BB
  8
0
  6
BYBLOCK
 62
     0
 66
     1
 10
0.0
 20
0.0
 30
0.0
 70
     1
 40
0.25
 41
0.25
  0
VERTEX
  5
847D
  8
0
  6
BYBLOCK
 62
     0
 10
-0.125
 20
0.0
 30
0.0
 42
1.0
  0
VERTEX
  5
847E
  8
0
  6
BYBLOCK
 62
     0
 10
0.125
 20
0.0
 30
0.0
 42
1.0
  0
SEQEND
  5
847F
  8
0
  6
BYBLOCK
 62
     0
  0
LINE
  5
82BF
  8
0
  6
BYBLOCK
 62
     0
 10
-0.25
 20
0.0
 30
0.0
 11
-1.0
 21
0.0
 31
0.0
  0
ENDBLK
  5
829D
  8
0
  0
BLOCK
  8
0
  2
*D24
 70
     1
 10
0.0
 20
0.0
 30
0.0
  3
*D24
  1

  0
LINE
  5
832B
  8
0
  6
BYBLOCK
 62
     0
 10
4220.0155503706692
 20
2902.5380195547332
 30
0.0
 11
4220.0155503706692
 21
3254.6157566872712
 31
0.0
  0
LINE
  5
832C
  8
0
  6
BYBLOCK
 62
     0
 10
4055.0155503706692
 20
3229.6157566872712
 30
0.0
 11
4170.0155503706692
 21
3229.6157566872712
 31
0.0
  0
TEXT
  5
832D
  8
1
 62
     0
 10
4023.2298360849541
 20
3264.4727854018311
 30
0.0
 40
75.0
  1
215
  0
INSERT
  5
832E
  8
0
  6
BYBLOCK
 62
     0
  2
_OPEN
 10
4005.0155503706692
 20
3229.6157566872712
 30
0.0
 41
50.0
 42
50.0
 43
50.0
 50
180.0
  0
INSERT
  5
832F
  8
0
  6
BYBLOCK
 62
     0
  2
_OPEN
 10
4220.0155503706692
 20
3229.6157566872712
 30
0.0
 41
50.0
 42
50.0
 43
50.0
  0
POINT
  5
8330
  8
DEFPOINTS
  6
BYBLOCK
 62
     0
 10
4005.0155503706692
 20
3172.2882529462281
 30
0.0
  0
POINT
  5
8331
  8
DEFPOINTS
  6
BYBLOCK
 62
     0
 10
4220.0155503706692
 20
2890.0380195547332
 30
0.0
  0
POINT
  5
8332
  8
DEFPOINTS
  6
BYBLOCK
 62
     0
 10
4220.0155503706692
 20
3229.6157566872712
 30
0.0
  0
ENDBLK
  5
8333
  8
0
  0
ENDSEC
  0
SECTION
  2
ENTITIES
  0
LINE
  5
7CB8
  8
1
 10
3192.5155503706669
 20
2521.8380195547311
 30
0.0
 11
3707.5155503706669
 21
2521.8380195547311
 31
0.0
  0
LINE
  5
7CB9
  8
1
 10
3198.0155503706669
 20
1950.0380195547309
 30
0.0
 11
3198.0155503706669
 21
2127.0377701324401
 31
0.0
  0
LINE
  5
7CBA
  8
1
 10
3200.0155503706669
 20
1950.0380195547309
 30
0.0
 11
4260.0155503706701
 21
1950.0380195547309
 31
0.0
  0
LINE
  5
7CBB
  8
1
 10
3160.0155503706669
 20
1875.03801955473
 30
0.0
 11
4260.0155503706701
 21
1875.0380195547309
 31
0.0
  0
LINE
  5
7CBC
  8
1
 10
1855.5760075337471
 20
2468.6368884834251
 30
0.0
 11
2000.5760075318331
 21
2468.6361430076881
 31
0.0
  0
LINE
  5
7CBD
  8
1
 10
1855.575961262839
 20
2459.6368884835429
 30
0.0
 11
2000.5759612609249
 21
2459.6361430078068
 31
0.0
  0
LINE
  5
7CBE
  8
1
 10
1158.229795405781
 20
2459.640473687999
 30
0.0
 11
1415.575961268652
 21
2459.6391506168102
 31
0.0
  0
LINE
  5
7CBF
  8
1
 10
1156.8643406869371
 20
2468.6404807082108
 30
0.0
 11
1415.5760075395599
 21
2468.6391506166919
 31
0.0
  0
LINE
  5
7CC0
  8
1
 10
1415.5745494918469
 20
1950.0391506204389
 30
0.0
 11
1415.576264600159
 21
2518.6391506160312
 31
0.0
  0
LINE
  5
7CC1
  8
1
 10
1855.5745494860321
 20
1950.0368884871721
 30
0.0
 11
1855.576264594346
 21
2518.636888482763
 31
0.0
  0
LINE
  5
7CC2
  8
1
 10
1885.576281045827
 20
2521.8367342463612
 30
0.0
 11
1385.576281052435
 21
2521.8393048523471
 31
0.0
  0
LINE
  5
7CC3
  8
1
 10
3157.5155503706669
 20
2610.0380195547309
 30
0.0
 11
3792.5155503706669
 21
2610.0380195547309
 31
0.0
  0
LINE
  5
7CC4
  8
1
 10
3157.5155503706678
 20
2560.0380195547309
 30
0.0
 11
3762.515550370666
 21
2560.0380195547318
 31
0.0
  0
LINE
  5
7CC5
  8
1
 10
3157.5155503706669
 20
2540.0380195547309
 30
0.0
 11
3157.5155503706669
 21
2630.0380195547309
 31
0.0
  0
LINE
  5
7CC6
  8
1
 10
3137.515550370666
 20
2038.017097715159
 30
0.0
 11
3137.515550370666
 21
2216.0170977151588
 31
0.0
  0
LINE
  5
7CC7
  8
1
 10
3074.5155503706669
 20
2038.017097715159
 30
0.0
 11
3074.5155503706669
 21
2216.0170977151588
 31
0.0
  0
LINE
  5
7CC8
  8
1
 10
3137.5155503706669
 20
2630.0380195547309
 30
0.0
 11
3157.5155503706669
 21
2630.0380195547309
 31
0.0
  0
LINE
  5
7CC9
  8
1
 10
3137.5155503706669
 20
2540.0380195547309
 30
0.0
 11
3157.5155503706669
 21
2540.0380195547309
 31
0.0
  0
LINE
  5
7CCA
  8
1
 10
3159.5155503706669
 20
2092.0377701324401
 30
0.0
 11
3159.5155503706669
 21
2162.0377701324401
 31
0.0
  0
LINE
  5
7CCB
  8
1
 10
3137.515550370666
 20
2162.0377701324401
 30
0.0
 11
3159.5155503706669
 21
2162.0377701324401
 31
0.0
  0
LINE
  5
7CCC
  8
1
 10
3137.515550370666
 20
2092.0377701324401
 30
0.0
 11
3159.5155503706669
 21
2092.0377701324401
 31
0.0
  0
LINE
  5
7CCD
  8
1
 10
3054.5155503706678
 20
1972.0170977151599
 30
0.0
 11
3054.5155503706692
 21
2685.0380195547309
 31
0.0
  0
LINE
  5
7CCE
  8
1
 10
3176.5155503706678
 20
1972.0170977151611
 30
0.0
 11
3176.5155503706669
 21
1988.201446139311
 31
0.0
  0
LINE
  5
7CCF
  8
2
 10
3023.6353086566291
 20
2585.0380195547309
 30
0.0
 11
4288.4420062418349
 21
2585.0380195547309
 31
0.0
  0
LINE
  5
7CD0
  8
2
 10
3023.6353086566291
 20
2127.0377701324401
 30
0.0
 11
3363.9739658970361
 21
2127.0377701324401
 31
0.0
  0
LINE
  5
7CD1
  8
1
 10
735.5755659103379
 20
4130.0803328609163
 30
0.0
 11
921.57609219193455
 21
4130.0812891290479
 31
0.0
  0
LINE
  5
7CD2
  8
1
 10
1885.5755658951391
 20
4130.0862452546817
 30
0.0
 11
1885.575370529084
 21
4168.0862452546817
 31
0.0
  0
LINE
  5
7CD3
  8
1
 10
1885.569910561969
 20
5230.0862452401479
 30
0.0
 11
1385.5699105685781
 21
5230.0836746341602
 31
0.0
  0
LINE
  5
7CD4
  8
1
 10
1385.5724811745631
 20
4730.0836746407667
 30
0.0
 11
1385.5723140851751
 21
4762.5836746403384
 31
0.0
  0
LINE
  5
7CD5
  8
1
 10
735.57067999284118
 20
4730.080332843725
 30
0.0
 11
1385.5724811745631
 21
4730.0836746407685
 31
0.0
  0
LINE
  5
7CD6
  8
1
 10
2025.569957301683
 20
5190.0869650095328
 30
0.0
 11
1151.569957313224
 21
5190.0824715902709
 31
0.0
  0
LINE
  5
7CD7
  8
2
 10
935.57317836696302
 20
4549.6510675272766
 30
0.0
 11
935.57779617084805
 21
3884.7206934812748
 31
0.0
  0
LINE
  5
7CD8
  8
2
 10
1635.5768619188859
 20
3884.4697742965818
 30
0.0
 11
1635.569570893229
 21
5263.1531447053767
 31
0.0
  0
LINE
  5
7CDF
  8
1
 10
805.57843111494913
 20
1995.0382509024639
 30
0.0
 11
855.57843111428883
 21
1995.0385079630621
 31
0.0
  0
LINE
  5
7CE0
  8
1
 10
805.57843111494913
 20
1995.0382509024639
 30
0.0
 11
805.57835399676969
 21
2010.038250902265
 31
0.0
  0
LINE
  5
7CE1
  8
1
 10
805.57835399676969
 20
2010.038250902265
 30
0.0
 11
854.23187281839091
 21
2010.038501040319
 31
0.0
  0
LINE
  5
7CE2
  8
1
 10
855.57835875051751
 20
2009.1137438121691
 30
0.0
 11
855.57843111428883
 21
1995.0385079630621
 31
0.0
  0
LINE
  5
7CE3
  8
1
 10
872.17918013182043
 20
1999.4188933020521
 30
0.0
 11
998.97763705454418
 21
1999.4195451997959
 31
0.0
  0
LINE
  5
7CE4
  8
1
 10
805.57835399676969
 20
2010.038250902265
 30
0.0
 11
819.60745578429385
 21
2044.2310676626989
 31
0.0
  0
LINE
  5
7CE5
  8
1
 10
1065.5783539933329
 20
2010.0395876173779
 30
0.0
 11
1051.548900621513
 21
2044.232260122832
 31
0.0
  0
LINE
  5
7CE6
  8
1
 10
1015.578358748402
 20
2009.1145664060839
 30
0.0
 11
1015.578431112174
 21
1995.0393305569769
 31
0.0
  0
LINE
  5
7CE7
  8
1
 10
1065.5783539933329
 20
2010.0395876173779
 30
0.0
 11
1016.92483517171
 21
2010.0393374793241
 31
0.0
  0
LINE
  5
7CE8
  8
1
 10
1065.5784311115131
 20
1995.039587617576
 30
0.0
 11
1065.5783539933329
 21
2010.0395876173779
 31
0.0
  0
LINE
  5
7CE9
  8
2
 10
758.70187168895143
 20
2127.0380099018798
 30
0.0
 11
1088.077752471235
 21
2127.039703293101
 31
0.0
  0
ARC
  5
7CEA
  8
1
 10
935.57775247325105
 20
2127.0389192582752
 30
0.0
 40
142.0
 50
296.41767482964838
 51
243.5829143098467
  0
CIRCLE
  5
7CEB
  8
1
 10
935.57775247325105
 20
2127.0389192582752
 30
0.0
 40
19.0
  0
LINE
  5
7CEC
  8
2
 10
935.57871389236698
 20
1940.03199385268
 30
0.0
 11
935.57696843842496
 21
2279.5389192562602
 31
0.0
  0
POLYLINE
  5
7CED
  8
1
 66
     1
 10
0.0
 20
0.0
 30
0.0
 70
     1
  0
VERTEX
  5
83C1
  8
1
 10
760.57866247008315
 20
1950.03801954852
 30
0.0
  0
VERTEX
  5
83C2
  8
1
 10
1110.578662465457
 20
1950.0398189727091
 30
0.0
  0
VERTEX
  5
83C3
  8
1
 10
1100.578431111051
 20
1995.039767559995
 30
0.0
  0
VERTEX
  5
83C4
  8
1
 10
770.57843111541285
 20
1995.0380709600449
 30
0.0
  0
SEQEND
  5
83C5
  8
1
  0
LINE
  5
7D05
  8
1
 10
2000.573521241723
 20
1985.0361430140799
 30
0.0
 11
1629.297537648298
 21
2019.2581243526231
 31
0.0
  0
ARC
  5
7D06
  8
1
 10
1602.576775634159
 20
2618.0381892080791
 30
0.0
 40
367.0
 50
359.99970543025171
 51
90.669621154548238
  0
ARC
  5
7D07
  8
1
 10
1593.576390043381
 20
2543.0382354799781
 30
0.0
 40
442.0
 50
89.389267305735942
 51
180.0566347979169
  0
ARC
  5
7D08
  8
1
 10
1677.5763900422701
 20
2543.0378036181719
 30
0.0
 40
526.0
 50
179.9480838198063
 51
264.73370113302042
  0
LINE
  5
7D43
  8
1
 10
1905.5762645936841
 20
2518.636631422165
 30
0.0
 11
1365.5762646008191
 21
2518.6394076766301
 31
0.0
  0
LINE
  5
7D44
  8
1
 10
1905.5760075330861
 20
2468.6366314228262
 30
0.0
 11
1905.5762645936841
 21
2518.636631422165
 31
0.0
  0
LINE
  5
7D45
  8
1
 10
1365.5760075402211
 20
2468.6394076772899
 30
0.0
 11
1365.5762646008191
 21
2518.6394076766301
 31
0.0
  0
DIMENSION
  5
7D47
  8
3
  2
*D1
 10
4217.515550370671
 20
3060.3862212617419
 30
0.0
 11
4016.9284327231562
 21
3060.3862212617419
 31
0.0
 70
   128
 13
3792.5155503706678
 23
2950.03801955473
 33
0.0
 14
4217.515550370671
 24
2950.03801955473
 34
0.0
1001
ACAD
1000
DSTYLE
1002
{
1070
   287
1070
     3
1070
    40
1040
25.0
1070
   143
1040
0.039
1070
   172
1070
     1
1070
   271
1070
     0
1070
   279
1070
     0
1070
   288
1070
     1
1002
}
  0
LINE
  5
7D48
  8
1
 10
3137.515550370666
 20
2216.0170977151588
 30
0.0
 11
3137.5155503706669
 21
2662.5380195547282
 31
0.0
  0
LINE
  5
7D49
  8
1
 10
3074.5155503706669
 20
2216.0170977151588
 30
0.0
 11
3074.5155503706669
 21
2662.5380195547282
 31
0.0
  0
LINE
  5
7D4A
  8
1
 10
2022.573392711133
 20
1960.036029907747
 30
0.0
 11
2022.5766316746749
 21
2590.036029899421
 31
0.0
  0
LINE
  5
7D4B
  8
1
 10
4217.5155503706656
 20
1985.0380195547309
 30
0.0
 11
4217.5155503706683
 21
2565.0380195547309
 31
0.0
  0
LINE
  5
7D4C
  8
1
 10
3792.515550370666
 20
1985.0380195547309
 30
0.0
 11
3792.515550370666
 21
2565.0380195547309
 31
0.0
  0
LINE
  5
7D4D
  8
1
 10
3192.5155503706669
 20
2518.6380195547308
 30
0.0
 11
3707.5155503706669
 21
2518.6380195547322
 31
0.0
  0
LINE
  5
7D4E
  8
1
 10
3707.5155503706669
 20
2521.8380195547311
 30
0.0
 11
3707.5155503706669
 21
2518.6380195547322
 31
0.0
  0
LINE
  5
7D4F
  8
1
 10
3697.5155503706669
 20
2518.6380195547322
 30
0.0
 11
3697.5155503706669
 21
1950.0380195547309
 31
0.0
  0
LINE
  5
7D50
  8
1
 10
3192.5155503706669
 20
2521.8380195547311
 30
0.0
 11
3192.5155503706669
 21
2518.6380195547308
 31
0.0
  0
POLYLINE
  5
7D51
  8
1
 66
     1
 10
0.0
 20
0.0
 30
0.0
 70
     1
  0
VERTEX
  5
83CF
  8
1
 10
3697.5155503706669
 20
2468.6380195547308
 30
0.0
  0
VERTEX
  5
83D0
  8
1
 10
3747.5155503706669
 20
2468.6380195547308
 30
0.0
  0
VERTEX
  5
83D1
  8
1
 10
3747.5155503706669
 20
2470.1380195547322
 30
0.0
 42
0.4142135623730951
  0
VERTEX
  5
83D2
  8
1
 10
3743.0155503706669
 20
2474.6380195547308
 30
0.0
  0
VERTEX
  5
83D3
  8
1
 10
3710.0155503706669
 20
2474.6380195547308
 30
0.0
 42
-0.4142135623730951
  0
VERTEX
  5
83D4
  8
1
 10
3703.5155503706669
 20
2481.1380195547322
 30
0.0
  0
VERTEX
  5
83D5
  8
1
 10
3703.5155503706669
 20
2514.1380195547322
 30
0.0
 42
0.4142135623730951
  0
VERTEX
  5
83D6
  8
1
 10
3699.0155503706669
 20
2518.6380195547322
 30
0.0
  0
VERTEX
  5
83D7
  8
1
 10
3697.5155503706669
 20
2518.6380195547322
 30
0.0
  0
SEQEND
  5
83D8
  8
1
  0
LINE
  5
7D5C
  8
1
 10
3725.5155503706669
 20
2468.6380195547308
 30
0.0
 11
3790.5155503706669
 21
2468.6380195547308
 31
0.0
  0
LINE
  5
7D5D
  8
1
 10
3725.5155503706669
 20
2462.6380195547308
 30
0.0
 11
3790.5155503706669
 21
2462.6380195547308
 31
0.0
  0
LINE
  5
7D5E
  8
1
 10
3725.5155503706669
 20
2462.6380195547308
 30
0.0
 11
3725.5155503706669
 21
2468.6380195547308
 31
0.0
  0
LINE
  5
7D5F
  8
1
 10
1885.576281045827
 20
2521.8367342463612
 30
0.0
 11
1885.576264593949
 21
2518.6367342464041
 31
0.0
  0
LINE
  5
7D60
  8
1
 10
1385.576281052435
 20
2521.8393048523471
 30
0.0
 11
1385.5762646005569
 21
2518.6393048523901
 31
0.0
  0
ARC
  5
7D63
  8
1
 10
1739.5818479492641
 20
2593.0672139031258
 30
0.0
 40
227.59448069142181
 50
318.08993753405417
 51
357.97827070822461
  0
ARC
  5
7D64
  8
1
 10
1954.1757489294821
 20
2418.336381560589
 30
0.0
 40
50.600000000000001
 50
153.3373351108568
 51
286.91691766312488
  0
LINE
  5
7D65
  8
1
 10
2022.5755839741389
 20
2386.2512915035809
 30
0.0
 11
1968.8995746603571
 21
2369.9259595850799
 31
0.0
  0
LINE
  5
7D66
  8
1
 10
4220.0155503706701
 20
2585.0380195547318
 30
0.0
 11
4220.0155503706692
 21
2295.03801955473
 31
0.0
  0
LINE
  5
7D67
  8
1
 10
4260.0155503706701
 20
1875.0380195547309
 30
0.0
 11
4260.0155503706701
 21
1950.0380195547309
 31
0.0
  0
LINE
  5
7D68
  8
2
 10
4005.0155503706669
 20
1658.439843159143
 30
0.0
 11
4005.0155503706692
 21
3053.8514105052118
 31
0.0
  0
LINE
  5
7D69
  8
1
 10
3200.0155503706669
 20
1875.0380195547309
 30
0.0
 11
3160.0155503706669
 21
1875.0380195547309
 31
0.0
  0
LINE
  5
7D6A
  8
1
 10
3160.0155503706669
 20
1875.0380195547309
 30
0.0
 11
3160.0155503706669
 21
1876.841643246958
 31
0.0
  0
LINE
  5
7D6B
  8
1
 10
3160.0155503706669
 20
1948.234395862504
 30
0.0
 11
3160.0155503706669
 21
1950.0380195547309
 31
0.0
  0
LINE
  5
7D6C
  8
1
 10
3160.0155503706669
 20
1950.0380195547309
 30
0.0
 11
3200.0155503706669
 21
1950.0380195547309
 31
0.0
  0
CIRCLE
  5
7D6F
  8
1
 10
1635.576605973728
 20
2585.03801954852
 30
0.0
 40
72.5
  0
CIRCLE
  5
7D70
  8
1
 10
935.57775247325105
 20
2127.0389192582752
 30
0.0
 40
89.0
  0
LINE
  5
7D71
  8
1
 10
3074.5155503706669
 20
2657.5380195547282
 30
0.0
 11
3137.5155503706669
 21
2657.5380195547282
 31
0.0
  0
LINE
  5
7D72
  8
1
 10
3074.5155503706669
 20
2512.538019554735
 30
0.0
 11
3137.5155503706669
 21
2512.538019554735
 31
0.0
  0
LINE
  5
7D73
  8
1
 10
3074.5155503706669
 20
2216.0170977151588
 30
0.0
 11
3137.515550370666
 21
2216.0170977151588
 31
0.0
  0
LINE
  5
7D74
  8
1
 10
3074.5155503706669
 20
2038.017097715159
 30
0.0
 11
3137.5155503706678
 21
2038.017097715159
 31
0.0
  0
LINE
  5
7D75
  8
1
 10
4220.0155503706692
 20
2280.0380195547309
 30
0.0
 11
4220.0155503706692
 21
2305.0380195547309
 31
0.0
  0
LINE
  5
7D76
  8
1
 10
2000.573521241723
 20
1985.0361430140799
 30
0.0
 11
2000.5765031543151
 21
2565.03801954852
 31
0.0
  0
LINE
  5
7D77
  8
1
 10
4223.0155503706692
 20
2298.0380195547291
 30
0.0
 11
4223.0155503706692
 21
2585.0380195547309
 31
0.0
  0
LINE
  5
7D78
  8
1
 10
4260.0155503706701
 20
2305.0380195547291
 30
0.0
 11
4260.0155503706701
 21
2865.0380195547309
 31
0.0
  0
DIMENSION
  5
7D79
  8
3
  2
*D2
 10
4413.6278381594693
 20
2305.0380195547291
 30
0.0
 11
4413.6278381594693
 21
2585.03801955473
 31
0.0
 70
   128
 13
4261.8155503706703
 23
2865.0380195547309
 33
0.0
 14
4261.8155503706703
 24
2305.0380195547291
 34
0.0
 50
90.0
1001
ACAD
1000
DSTYLE
1002
{
1070
   287
1070
     3
1070
     3
1000
φ<>
1070
    40
1040
25.0
1070
   143
1040
0.039
1070
   172
1070
     1
1070
   271
1070
     0
1070
   279
1070
     0
1070
   288
1070
     1
1002
}
  0
ARC
  5
7D7A
  8
1
 10
935.57775247325105
 20
2127.0389192582752
 30
0.0
 40
150.0
 50
119.8414661332792
 51
306.36957587583788
  0
ARC
  5
7D7B
  8
1
 10
1633.084412377234
 20
2581.8335703807788
 30
0.0
 40
102.5891975502981
 50
306.369575875838
 51
119.8414661332792
  0
LINE
  5
7D7C
  8
1
 10
3054.5155503706669
 20
2685.0380195547309
 30
0.0
 11
3176.5155503706669
 21
2685.0380195547309
 31
0.0
  0
LINE
  5
7D7D
  8
1
 10
3176.5155503706669
 20
2651.6654045186001
 30
0.0
 11
3176.5155503706669
 21
2685.0380195547318
 31
0.0
  0
LINE
  5
7D7E
  8
1
 10
3054.5155503706678
 20
1972.0170977151599
 30
0.0
 11
3176.5155503706678
 21
1972.0170977151611
 31
0.0
  0
LINE
  5
7D80
  8
1
 10
4240.7155503706681
 20
2865.0380195547309
 30
0.0
 11
4260.0155503706701
 21
2865.0380195547309
 31
0.0
  0
LINE
  5
7D81
  8
1
 10
4260.0155503706701
 20
2865.0380195547309
 30
0.0
 11
4260.0155503706701
 21
2866.0380195547309
 31
0.0
  0
LINE
  5
7D82
  8
1
 10
4240.7155503706681
 20
2868.0380195547309
 30
0.0
 11
4258.0155503706692
 21
2868.0380195547309
 31
0.0
  0
ARC
  5
7D83
  8
1
 10
4258.0155503706692
 20
2866.0380195547309
 30
0.0
 40
2.0
 50
359.9999999999992
 51
89.999999999999588
  0
ARC
  5
7D84
  8
1
 10
4227.0155503706683
 20
2298.0380195547291
 30
0.0
 40
4.0
 50
90.0
 51
180.0
  0
ARC
  5
7D85
  8
1
 10
4221.0155503706692
 20
2282.0380195547291
 30
0.0
 40
2.0
 50
269.9999999999992
 51
0.0
  0
LINE
  5
7D86
  8
1
 10
4223.0155503706692
 20
2298.0380195547291
 30
0.0
 11
4223.0155503706692
 21
2282.0380195547291
 31
0.0
  0
ARC
  5
7D87
  8
1
 10
4258.0155503706692
 20
2304.0380195547291
 30
0.0
 40
2.0
 50
270.0000000000004
 51
0.0000000000008142
  0
LINE
  5
7D88
  8
1
 10
4227.0155503706683
 20
2302.0380195547291
 30
0.0
 11
4258.0155503706692
 21
2302.0380195547291
 31
0.0
  0
LINE
  5
7D89
  8
1
 10
4260.0155503706701
 20
2305.0380195547291
 30
0.0
 11
4260.0155503706701
 21
2304.0380195547291
 31
0.0
  0
LINE
  5
7D8A
  8
1
 10
4220.0155503706692
 20
2305.0380195547291
 30
0.0
 11
4260.0155503706701
 21
2305.0380195547291
 31
0.0
  0
LINE
  5
7D8B
  8
1
 10
4220.0155503706692
 20
2280.0380195547291
 30
0.0
 11
4221.0155503706692
 21
2280.0380195547291
 31
0.0
  0
LINE
  5
7D8C
  8
1
 10
4220.0155503706692
 20
2305.0380195547291
 30
0.0
 11
4220.0155503706692
 21
2280.0380195547291
 31
0.0
  0
LINE
  5
7D9F
  8
1
 10
3160.0155503706669
 20
1875.03801955473
 30
0.0
 11
3160.0155503706669
 21
1950.0380195547309
 31
0.0
  0
LINE
  5
7DA0
  8
1
 10
3160.0155503706669
 20
1780.03801955473
 30
0.0
 11
4260.0155503706701
 21
1780.0380195547309
 31
0.0
  0
LINE
  5
7DA1
  8
1
 10
3160.0155503706669
 20
1705.0380195547309
 30
0.0
 11
4260.0155503706701
 21
1705.0380195547309
 31
0.0
  0
LINE
  5
7DA2
  8
1
 10
3160.0155503706669
 20
1780.03801955473
 30
0.0
 11
3160.0155503706669
 21
1705.0380195547309
 31
0.0
  0
LINE
  5
7DA3
  8
1
 10
4260.0155503706701
 20
1780.0380195547309
 30
0.0
 11
4260.0155503706701
 21
1705.0380195547309
 31
0.0
  0
LINE
  5
7DA4
  8
2
 10
1635.576605973728
 20
3104.405917343483
 30
0.0
 11
1635.576605973728
 21
1657.123476746877
 31
0.0
  0
LINE
  5
7DA5
  8
1
 10
735.57660597372876
 20
1950.03801954852
 30
0.0
 11
735.57660597372876
 21
1875.03801954852
 31
0.0
  0
LINE
  5
7DA6
  8
1
 10
735.57660597372876
 20
1780.03801954852
 30
0.0
 11
735.57660597372876
 21
1705.0333924499739
 31
0.0
  0
DIMENSION
  5
7DA7
  8
3
  2
*D3
 10
1635.576605973728
 20
1546.894732622111
 30
0.0
 11
1185.576605973728
 21
1609.394732622111
 31
0.0
 70
     0
 13
735.57660597372876
 23
1705.0333924499739
 33
0.0
 14
1635.576605973728
 24
1657.123476746877
 34
0.0
1001
ACAD
1000
DSTYLE
1002
{
1070
   287
1070
     3
1070
    40
1040
25.0
1070
   143
1040
0.039
1070
   172
1070
     1
1070
   271
1070
     0
1070
   279
1070
     0
1070
   288
1070
     1
1002
}
  0
LINE
  5
7DA8
  8
1
 10
1885.576605973728
 20
1950.0393048462249
 30
0.0
 11
1885.576605973728
 21
1875.03801954852
 31
0.0
  0
LINE
  5
7DA9
  8
1
 10
1885.576605973728
 20
1780.03801954852
 30
0.0
 11
1885.576605973728
 21
1705.03801954852
 31
0.0
  0
DIMENSION
  5
7DAA
  8
3
  2
*D4
 10
1885.576605973728
 20
1547.034450729639
 30
0.0
 11
1760.576605973728
 21
1622.83800821107
 31
0.0
 12
0.0
 22
-57.0
 32
0.0
 70
   128
 13
1635.576605973728
 23
1657.123476746877
 33
0.0
 14
1885.576605973728
 24
1705.0393048437411
 34
0.0
1001
ACAD
1000
DSTYLE
1002
{
1070
   288
1070
     1
1070
   172
1070
     1
1070
    40
1040
25.0
1070
   271
1070
     0
1070
   143
1040
0.039
1002
}
  0
DIMENSION
  5
7DAC
  8
3
  2
*D5
 10
4005.0155503706669
 20
1543.1740955264279
 30
0.0
 11
3582.5155503706669
 21
1605.6740955264279
 31
0.0
 70
     0
 13
3160.0155503706669
 23
1705.0380195547309
 33
0.0
 14
4005.0155503706669
 24
1658.439843159143
 34
0.0
1001
ACAD
1000
DSTYLE
1002
{
1070
   287
1070
     3
1070
    40
1040
25.0
1070
   143
1040
0.039
1070
   172
1070
     1
1070
   271
1070
     0
1070
   279
1070
     0
1070
   288
1070
     1
1002
}
  0
DIMENSION
  5
7DAD
  8
3
  2
*D6
 10
4260.0155503706701
 20
1542.877855338734
 30
0.0
 11
4132.5155503706683
 21
1602.5181573096299
 31
0.0
 12
0.0
 22
-57.0
 32
0.0
 70
   128
 13
4005.0155503706669
 23
1658.439843159143
 33
0.0
 14
4260.0155503706701
 24
1705.0380195547309
 34
0.0
1001
ACAD
1000
DSTYLE
1002
{
1070
   288
1070
     1
1070
   172
1070
     1
1070
    40
1040
25.0
1070
   271
1070
     0
1070
   143
1040
0.039
1002
}
  0
LINE
  5
7DAF
  8
1
 10
2022.5733927111339
 20
1960.036029907747
 30
0.0
 11
2025.5766059737291
 21
1960.036014467591
 31
0.0
  0
LINE
  5
7DB0
  8
1
 10
2022.5766316746749
 20
2590.036029899421
 30
0.0
 11
2025.5766316746351
 21
2590.0360144757851
 31
0.0
  0
LINE
  5
7DB1
  8
2
 10
2124.3690058660441
 20
2585.03801954852
 30
0.0
 11
1084.512049214816
 21
2585.03801954852
 31
0.0
  0
LINE
  5
7DB2
  8
1
 10
2000.5735212513709
 20
1985.03801954852
 30
0.0
 11
2022.573521251662
 21
1985.03801954852
 31
0.0
  0
DIMENSION
  5
7DB3
  8
3
  2
*D7
 10
2293.5142510151231
 20
2585.03801954852
 30
0.0
 11
2231.0142510151222
 21
2285.03801954852
 31
0.0
 70
     0
 13
2022.573521251662
 23
1985.03801954852
 33
0.0
 14
2095.092890736315
 24
2585.03801954852
 34
0.0
 50
90.0
1001
ACAD
1000
DSTYLE
1002
{
1070
   287
1070
     3
1070
    40
1040
25.0
1070
   143
1040
0.039
1070
   172
1070
     1
1070
   271
1070
     0
1070
   279
1070
     0
1070
   288
1070
     1
1002
}
  0
LINE
  5
7DB4
  8
1
 10
1965.443779015633
 20
2565.0380195485191
 30
0.0
 11
2022.5735212516561
 21
2565.03801954852
 31
0.0
  0
LINE
  5
7DB5
  8
1
 10
1969.5767756293089
 20
2618.0363023832811
 30
0.0
 11
1967.0346555362751
 21
2585.03801954852
 31
0.0
  0
DIMENSION
  5
7DB6
  8
3
  2
*D8
 10
2166.9923535968842
 20
2565.03801954852
 30
0.0
 11
2104.4923535968842
 21
2275.03801954852
 31
0.0
 70
     0
 13
2022.573521251662
 23
1985.03801954852
 33
0.0
 14
2000.5765031543151
 24
2565.03801954852
 34
0.0
 50
90.0
1001
ACAD
1000
DSTYLE
1002
{
1070
   287
1070
     3
1070
    40
1040
25.0
1070
   143
1040
0.039
1070
   172
1070
     1
1070
   271
1070
     0
1070
   279
1070
     0
1070
   288
1070
     1
1002
}
  0
LINE
  5
7DB7
  8
1
 10
735.57660597372876
 20
1875.03801954852
 30
0.0
 11
1885.576605973728
 21
1875.03801954852
 31
0.0
  0
LINE
  5
7DB8
  8
1
 10
735.57660597372876
 20
1780.03801954852
 30
0.0
 11
1885.576605973728
 21
1780.03801954852
 31
0.0
  0
LINE
  5
7DB9
  8
1
 10
735.57660597372876
 20
1705.03801954852
 30
0.0
 11
1885.576605973728
 21
1705.03801954852
 31
0.0
  0
LINE
  5
7DBA
  8
1
 10
2025.5766059737291
 20
1960.036014467591
 30
0.0
 11
2025.576605973728
 21
2590.0360144759179
 31
0.0
  0
LINE
  5
7DBB
  8
1
 10
1678.053434794024
 20
1951.03801954852
 30
0.0
 11
1677.1002090143099
 21
1951.03801954852
 31
0.0
  0
DIMENSION
  5
7DBC
  8
3
  2
*D9
 10
3054.5155503706692
 20
3229.6157566872712
 30
0.0
 11
3529.7655503706692
 21
3354.6157566872712
 31
0.0
 70
     0
  1
MAX\P1010
 13
4005.0155503706692
 23
3172.2882529462281
 33
0.0
 14
3054.5155503706692
 24
2685.0380195547309
 34
0.0
1001
ACAD
1000
DSTYLE
1002
{
1070
   287
1070
     3
1070
    40
1040
25.0
1070
   143
1040
0.039
1070
   172
1070
     1
1070
   271
1070
     0
1070
   279
1070
     0
1070
   288
1070
     1
1002
}
  0
LINE
  5
7DBD
  8
2
 10
2061.1224410894861
 20
4975.0871477895471
 30
0.0
 11
1094.19367674112
 21
4975.0821766038089
 31
0.0
  0
LINE
  5
7DBE
  8
1
 10
2025.572218091605
 20
4762.5869650155073
 30
0.0
 11
1151.5722181031449
 21
4762.5824715962444
 31
0.0
  0
LINE
  5
7DBF
  8
1
 10
2025.5723503015411
 20
4737.5869650158556
 30
0.0
 11
2025.569825091746
 21
5215.0869650091827
 31
0.0
  0
LINE
  5
7DC0
  8
1
 10
1151.5722181031449
 20
4762.5824715962444
 30
0.0
 11
1151.5699573132249
 21
5190.0824715902709
 31
0.0
  0
LINE
  5
7DC1
  8
1
 10
2025.5723503015411
 20
4737.5869650158556
 30
0.0
 11
2020.5723503016079
 21
4737.5869393097964
 31
0.0
  0
LINE
  5
7DC2
  8
1
 10
2025.569828771384
 20
5215.0869650092018
 30
0.0
 11
2020.5698250918131
 21
5215.0869393031226
 31
0.0
  0
LINE
  5
7DC3
  8
1
 10
2020.5723503016111
 20
4737.5869385738688
 30
0.0
 11
2020.5698250918131
 21
5215.0869393031226
 31
0.0
  0
LINE
  5
7DC4
  8
1
 10
1985.572218092133
 20
4762.5867593670282
 30
0.0
 11
1985.5699573022121
 21
5190.0867593610537
 31
0.0
  0
LINE
  5
7DC5
  8
1
 10
1385.5701162170569
 20
5190.0836746346886
 30
0.0
 11
1385.5699105685781
 21
5230.0836746341602
 31
0.0
  0
LINE
  5
7DC6
  8
1
 10
1885.5701162104481
 20
5190.0862452406727
 30
0.0
 11
1885.569910561969
 21
5230.0862452401479
 31
0.0
  0
LINE
  5
7DC7
  8
1
 10
1660.5763827097669
 20
4078.0849599538401
 30
0.0
 11
1660.5763827097669
 21
4762.5850884945494
 31
0.0
  0
LINE
  5
7DC8
  8
1
 10
1610.5763827097669
 20
4078.0849599538401
 30
0.0
 11
1610.5763827097669
 21
4762.5848314339491
 31
0.0
  0
LINE
  5
7DC9
  8
1
 10
846.55591979785004
 20
4058.0816124214462
 30
0.0
 11
1024.55591979785
 21
4058.0816124214462
 31
0.0
  0
LINE
  5
7DCA
  8
1
 10
846.55591979785083
 20
3995.0816124214462
 30
0.0
 11
1024.55591979785
 21
3995.0816124214462
 31
0.0
  0
LINE
  5
7DCB
  8
1
 10
780.55591979785174
 20
3975.081612421448
 30
0.0
 11
1735.5763827097669
 21
3975.084959953841
 31
0.0
  0
LINE
  5
7DCD
  8
1
 10
780.55591979785174
 20
3975.081612421448
 30
0.0
 11
780.55591979785095
 21
4097.0816124214471
 31
0.0
  0
LINE
  5
7DCE
  8
1
 10
780.55591979785095
 20
4097.0816124214471
 30
0.0
 11
921.57632136786196
 21
4097.0816124214316
 31
0.0
  0
LINE
  5
7DCF
  8
1
 10
846.55591979785083
 20
3995.0816124214462
 30
0.0
 11
846.55591979785004
 21
4058.081612421448
 31
0.0
  0
LINE
  5
7DD0
  8
1
 10
900.57659221513131
 20
4080.0816124214462
 30
0.0
 11
970.57659221513131
 21
4080.0816124214462
 31
0.0
  0
LINE
  5
7DD1
  8
1
 10
900.57659221513131
 20
4058.0816124214462
 30
0.0
 11
900.57659221513131
 21
4080.0816124214462
 31
0.0
  0
LINE
  5
7DD2
  8
1
 10
970.57659221513131
 20
4058.0816124214462
 30
0.0
 11
970.57659221513131
 21
4080.0816124214462
 31
0.0
  0
LINE
  5
7DD3
  8
1
 10
1590.5763827097669
 20
4078.0849599538401
 30
0.0
 11
1680.5763827097669
 21
4078.0849599538401
 31
0.0
  0
LINE
  5
7DD4
  8
1
 10
1024.55591979785
 20
4058.0816124214462
 30
0.0
 11
1713.076382709763
 21
4058.0849599538392
 31
0.0
  0
LINE
  5
7DD5
  8
1
 10
1024.55591979785
 20
3995.0816124214462
 30
0.0
 11
1713.0763827097639
 21
3995.0849599538392
 31
0.0
  0
LINE
  5
7DD6
  8
1
 10
1563.0763827097701
 20
3995.0849599538392
 30
0.0
 11
1563.0763827097701
 21
4058.0849599538392
 31
0.0
  0
LINE
  5
7DD7
  8
1
 10
1024.55591979785
 20
3995.0816124214462
 30
0.0
 11
1024.55591979785
 21
4058.0816124214462
 31
0.0
  0
LINE
  5
7DD8
  8
1
 10
1590.5763827097669
 20
4058.0849599538392
 30
0.0
 11
1590.5763827097669
 21
4078.0849599538401
 31
0.0
  0
LINE
  5
7DD9
  8
1
 10
1708.0763827097639
 20
3995.0849599538392
 30
0.0
 11
1708.0763827097639
 21
4058.0849599538392
 31
0.0
  0
LINE
  5
7DDA
  8
1
 10
1735.5763827097669
 20
3975.0849599538392
 30
0.0
 11
1735.5763827097669
 21
4097.0849599538387
 31
0.0
  0
LINE
  5
7DDB
  8
1
 10
1702.2037676736361
 20
4097.0849599538387
 30
0.0
 11
1735.576382709768
 21
4097.0849599538387
 31
0.0
  0
LINE
  5
7DDC
  8
1
 10
1680.5763827097669
 20
4058.0849599538392
 30
0.0
 11
1680.5763827097669
 21
4078.0849599538401
 31
0.0
  0
LINE
  5
7DDD
  8
1
 10
1885.576930895021
 20
4168.0862452546817
 30
0.0
 11
1660.576382709768
 21
4168.0862452546844
 31
0.0
  0
LINE
  5
7DDE
  8
1
 10
1885.5755658951391
 20
4130.0862452546817
 30
0.0
 11
1885.5755658951391
 21
4170.0862452546817
 31
0.0
  0
LINE
  5
7DDF
  8
1
 10
1385.576930901628
 20
4667.5862452546817
 30
0.0
 11
1610.5763827097669
 21
4667.5862452546817
 31
0.0
  0
LINE
  5
7DE0
  8
1
 10
1885.572802493703
 20
4667.5862452546817
 30
0.0
 11
1885.572314078566
 21
4762.5862452463243
 31
0.0
  0
LINE
  5
7DE1
  8
1
 10
1660.576382709768
 20
4667.5862452546817
 30
0.0
 11
1885.576930895021
 21
4667.5862452546817
 31
0.0
  0
LINE
  5
7DE2
  8
1
 10
1610.5763827097669
 20
4168.0862452546844
 30
0.0
 11
1385.576930901628
 21
4168.0862452546862
 31
0.0
  0
LINE
  5
7DE3
  8
1
 10
1660.5763827097669
 20
4097.0816124213488
 30
0.0
 11
1735.5763827097669
 21
4097.0816124213397
 31
0.0
  0
LINE
  5
7DE4
  8
1
 10
1660.5763827097669
 20
4130.0850884861893
 30
0.0
 11
1885.5755658951391
 21
4130.0862452546817
 31
0.0
  0
LINE
  5
7DE5
  8
1
 10
1885.576930895021
 20
4168.0862452546817
 30
0.0
 11
1885.576930895021
 21
4667.5862452546817
 31
0.0
  0
LINE
  5
7DE6
  8
1
 10
1385.5769309016291
 20
4168.0862452546862
 30
0.0
 11
1385.576930901628
 21
4667.5862452546817
 31
0.0
  0
DIMENSION
  5
7DE7
  8
3
  2
*D10
 10
1885.5755658951391
 20
3808.9394801805429
 30
0.0
 11
1310.5755659027379
 21
3871.4394801805429
 31
0.0
 70
     0
 13
735.5755659103379
 23
4130.0803328609163
 33
0.0
 14
1885.5755658951391
 24
4130.0862452546817
 34
0.0
 50
0.0000000000000799
1001
ACAD
1000
DSTYLE
1002
{
1070
   287
1070
     3
1070
    40
1040
25.0
1070
   143
1040
0.039
1070
   172
1070
     1
1070
   271
1070
     0
1070
   279
1070
     0
1070
   288
1070
     1
1002
}
  0
DIMENSION
  5
7DE8
  8
3
  2
*D11
 10
1385.5699105685781
 20
5400.3403692712154
 30
0.0
 11
1635.5699105652741
 21
5462.8403692712154
 31
0.0
 70
     0
 13
1885.569910561969
 23
5230.0862452401479
 33
0.0
 14
1385.5699105685781
 24
5230.0836746341602
 34
0.0
 50
0.0000000000000799
1001
ACAD
1000
DSTYLE
1002
{
1070
   287
1070
     3
1070
    40
1040
25.0
1070
   143
1040
0.039
1070
   172
1070
     1
1070
   271
1070
     0
1070
   279
1070
     0
1070
   288
1070
     1
1002
}
  0
LINE
  5
7DE9
  8
1
 10
735.57556591034324
 20
4130.0803328609163
 30
0.0
 11
735.57067999284118
 21
4730.080332843725
 31
0.0
  0
DIMENSION
  5
7DEA
  8
3
  2
*D12
 10
735.56991057716914
 20
5400.3403692712118
 30
0.0
 11
1060.5699105728729
 21
5462.8403692712118
 31
0.0
 70
     0
 13
1385.5699105685781
 23
5230.0836746341602
 33
0.0
 14
735.56991057716914
 24
4721.6743697023694
 34
0.0
 50
0.0000000000000799
1001
ACAD
1000
DSTYLE
1002
{
1070
   287
1070
     3
1070
    40
1040
25.0
1070
   143
1040
0.039
1070
   172
1070
     1
1070
   271
1070
     0
1070
   279
1070
     0
1070
   288
1070
     1
1002
}
  0
LINE
  5
7DEB
  8
1
 10
735.57660597372876
 20
1950.03801954852
 30
0.0
 11
1885.576605973728
 21
1950.03801954852
 31
0.0
  0
LINE
  5
7DEC
  8
1
 10
4217.5155503706692
 20
2605.0380195547309
 30
0.0
 11
4217.515550370671
 21
2985.0380195547309
 31
0.0
  0
LINE
  5
7DED
  8
1
 10
3792.5155503706678
 20
2595.0380195547309
 30
0.0
 11
3792.515550370666
 21
2985.0380195547309
 31
0.0
  0
LINE
  5
7DEE
  8
1
 10
1077.5777524732509
 20
4140.0816124214471
 30
0.0
 11
1077.5777524732509
 21
4506.0816124214462
 31
0.0
  0
LINE
  5
7DEF
  8
1
 10
793.57775247325105
 20
4140.0816124214452
 30
0.0
 11
793.57775247325105
 21
4506.0816124214462
 31
0.0
  0
LINE
  5
7DF0
  8
1
 10
793.57775247325105
 20
4140.0816124214452
 30
0.0
 11
1077.5777524732509
 21
4140.0816124214471
 31
0.0
  0
LINE
  5
7DF1
  8
1
 10
793.57775247324935
 20
4506.0816124214462
 30
0.0
 11
1077.5777524732489
 21
4506.0816124214462
 31
0.0
  0
LINE
  5
7DF2
  8
1
 10
949.57602274243345
 20
4140.0816124214462
 30
0.0
 11
949.5764394300204
 21
4080.0816124214471
 31
0.0
  0
LINE
  5
7DF3
  8
1
 10
921.57602274175861
 20
4140.0816124214462
 30
0.0
 11
921.57643942934556
 21
4080.0816124214448
 31
0.0
  0
LINE
  5
7DF4
  8
1
 10
949.57609219160986
 20
4130.0814330829844
 30
0.0
 11
1610.5763827097669
 21
4130.08483142559
 31
0.0
  0
LINE
  5
7DF5
  8
1
 10
949.57632136853863
 20
4097.0816124214289
 30
0.0
 11
1610.5763827097669
 21
4097.0816124213552
 31
0.0
  0
LINE
  5
7DF6
  8
1
 10
3198.0155503706669
 20
2141.0393942484779
 30
0.0
 11
3159.5155503706669
 21
2141.0391268739431
 31
0.0
  0
LINE
  5
7DF7
  8
1
 10
3198.0155503706669
 20
2113.0393942478031
 30
0.0
 11
3159.5155503706678
 21
2113.0391268732678
 31
0.0
  0
LINE
  5
7DF8
  8
1
 10
4223.0155503706692
 20
2872.0380195547332
 30
0.0
 11
4223.0155503706692
 21
2585.0380195547309
 31
0.0
  0
LINE
  5
7DF9
  8
1
 10
4220.0155503706692
 20
2585.0380195547309
 30
0.0
 11
4220.0155503706692
 21
2875.0380195547318
 31
0.0
  0
LINE
  5
7DFA
  8
1
 10
4220.0155503706692
 20
2865.0380195547332
 30
0.0
 11
4220.0155503706692
 21
2890.0380195547332
 31
0.0
  0
ARC
  5
7DFB
  8
1
 10
4258.0155503706692
 20
2866.0380195547332
 30
0.0
 40
2.0
 50
359.9999999999992
 51
89.999999999999588
  0
LINE
  5
7DFC
  8
1
 10
4220.0155503706692
 20
2890.0380195547309
 30
0.0
 11
4220.0155503706692
 21
2865.0380195547309
 31
0.0
  0
LINE
  5
7DFD
  8
1
 10
4227.0155503706683
 20
2868.0380195547332
 30
0.0
 11
4258.0155503706692
 21
2868.0380195547332
 31
0.0
  0
LINE
  5
7DFE
  8
1
 10
4220.0155503706692
 20
2890.0380195547332
 30
0.0
 11
4221.0155503706692
 21
2890.0380195547332
 31
0.0
  0
LINE
  5
7DFF
  8
1
 10
4223.0155503706692
 20
2872.0380195547332
 30
0.0
 11
4223.0155503706692
 21
2888.0380195547332
 31
0.0
  0
ARC
  5
7E00
  8
1
 10
4221.0155503706692
 20
2888.0380195547332
 30
0.0
 40
2.0
 50
0.0
 51
90.00000000000081
  0
ARC
  5
7E01
  8
1
 10
4227.0155503706683
 20
2872.0380195547332
 30
0.0
 40
4.0
 50
180.0
 51
270.0
  0
LINE
  5
7E02
  8
1
 10
4220.0155503706692
 20
2865.0380195547332
 30
0.0
 11
4260.0155503706701
 21
2865.0380195547332
 31
0.0
  0
LINE
  5
7E03
  8
1
 10
4260.0155503706701
 20
2865.0380195547332
 30
0.0
 11
4260.0155503706701
 21
2866.0380195547332
 31
0.0
  0
LINE
  5
7E04
  8
1
 10
1582.0358378331689
 20
2670.820010308631
 30
0.0
 11
860.93747489572695
 21
2257.1497526394742
 31
0.0
  0
LINE
  5
7E05
  8
1
 10
1693.9189246103731
 20
2499.2278467572301
 30
0.0
 11
1024.526462989257
 21
2006.2576007626581
 31
0.0
  0
LINE
  5
7E06
  8
1
 10
1597.086735328714
 20
2646.4772566672382
 30
0.0
 11
888.3281181641986
 21
2202.4608793074599
 31
0.0
  0
LINE
  5
7E07
  8
1
 10
1676.459787893554
 20
2525.1646912953611
 30
0.0
 11
985.76538269207049
 21
2053.5392473337079
 31
0.0
  0
DIMENSION
  5
7E08
  8
3
  2
*D13
 10
2422.1079900216491
 20
2585.03801954852
 30
0.0
 11
2359.6079900216482
 21
2785.03801954852
 31
0.0
 70
     0
 13
1635.576605973728
 23
2985.03801954852
 33
0.0
 14
2124.3690058660441
 24
2585.03801954852
 34
0.0
 50
270.0
1001
ACAD
1000
DSTYLE
1002
{
1070
   287
1070
     3
1070
    40
1040
25.0
1070
   143
1040
0.039
1070
   172
1070
     1
1070
   271
1070
     0
1070
   279
1070
     0
1070
   288
1070
     1
1002
}
  0
DIMENSION
  5
7E09
  8
3
  2
*D14
 10
2422.1079900216491
 20
1875.03801954852
 30
0.0
 11
2359.6079900216482
 21
2230.03801954852
 31
0.0
 70
     0
 13
2124.3690058660441
 23
2585.03801954852
 33
0.0
 14
1885.576605973728
 24
1875.03801954852
 34
0.0
 50
270.0
1001
ACAD
1000
DSTYLE
1002
{
1070
   287
1070
     3
1070
    40
1040
25.0
1070
   143
1040
0.039
1070
   172
1070
     1
1070
   271
1070
     0
1070
   279
1070
     0
1070
   288
1070
     1
1002
}
  0
DIMENSION
  5
7E0A
  8
3
  2
*D15
 10
2422.1079900216491
 20
1780.03801954852
 30
0.0
 11
2541.750847164506
 21
1892.5245999579961
 31
0.0
 70
   128
  1
(<>)
 13
1885.576605973728
 23
1875.03801954852
 33
0.0
 14
1885.576605973728
 24
1780.03801954852
 34
0.0
 50
270.0
1001
ACAD
1000
DSTYLE
1002
{
1070
   288
1070
     1
1070
   172
1070
     1
1070
    40
1040
25.0
1070
   271
1070
     0
1070
     7
1000
_DOT
1070
   143
1040
0.039
1002
}
  0
DIMENSION
  5
7E0B
  8
3
  2
*D16
 10
2422.1079900216491
 20
1705.03801954852
 30
0.0
 11
2359.6079900216482
 21
1519.323733834234
 31
0.0
 70
     0
 13
1885.576605973728
 23
1780.03801954852
 33
0.0
 14
1885.576605973728
 24
1705.03801954852
 34
0.0
 50
270.0
1001
ACAD
1000
DSTYLE
1002
{
1070
   287
1070
     3
1070
    40
1040
25.0
1070
   143
1040
0.039
1070
   172
1070
     1
1070
   271
1070
     0
1070
   279
1070
     0
1070
   288
1070
     1
1070
     6
1000
DOT
1002
}
  0
DIMENSION
  5
7E0C
  8
3
  2
*D17
 10
1635.576605973728
 20
3173.9808550409471
 30
0.0
 11
1830.576605973728
 21
3236.4808550409471
 31
0.0
 70
     0
 13
2025.576605973728
 23
2590.036014475917
 33
0.0
 14
1635.576605973728
 24
3104.405917343483
 34
0.0
1001
ACAD
1000
DSTYLE
1002
{
1070
   287
1070
     3
1070
    40
1040
25.0
1070
   143
1040
0.039
1070
   172
1070
     1
1070
   271
1070
     0
1070
   279
1070
     0
1070
   288
1070
     1
1002
}
  0
DIMENSION
  5
7E0D
  8
3
  2
*D18
 10
1151.576605973728
 20
3173.9808550409471
 30
0.0
 11
1393.576605973728
 21
3236.4808550409471
 31
0.0
 70
     0
 13
1635.576605973728
 23
3104.405917343483
 33
0.0
 14
1151.576605973728
 24
2585.03801954852
 34
0.0
1001
ACAD
1000
DSTYLE
1002
{
1070
   287
1070
     3
1070
    40
1040
25.0
1070
   143
1040
0.039
1070
   172
1070
     1
1070
   271
1070
     0
1070
   279
1070
     0
1070
   288
1070
     1
1002
}
  0
LINE
  5
7E0E
  8
1
 10
3792.515550370666
 20
2985.0380195547309
 30
0.0
 11
4217.5155503706701
 21
2985.0380195547309
 31
0.0
  0
LINE
  5
7E0F
  8
1
 10
3792.515550370666
 20
1985.0380195547309
 30
0.0
 11
4217.5155503706656
 21
1985.0380195547309
 31
0.0
  0
LINE
  5
7E10
  8
1
 10
3792.515550370666
 20
2565.0380195547309
 30
0.0
 11
4217.5155503706656
 21
2565.0380195547309
 31
0.0
  0
LINE
  5
7E11
  8
1
 10
4217.5155503706692
 20
2565.0380195547309
 30
0.0
 11
3792.515550370666
 21
1985.0380195547309
 31
0.0
  0
LINE
  5
7E12
  8
1
 10
3792.5155503706669
 20
2565.0380195547309
 30
0.0
 11
4217.5155503706656
 21
1985.0380195547309
 31
0.0
  0
LINE
  5
7E13
  8
1
 10
3198.0155503706669
 20
2113.0386195150968
 30
0.0
 11
3159.5158465209252
 21
2113.0384796841022
 31
0.0
  0
LINE
  5
7E14
  8
1
 10
3198.0155503706669
 20
2141.0386195152819
 30
0.0
 11
3159.5155503706669
 21
2141.0384796832109
 31
0.0
  0
LINE
  5
7E15
  8
1
 10
3198.0155503706669
 20
2127.0377701324401
 30
0.0
 11
3198.0155503706692
 21
2518.6380195547308
 31
0.0
  0
DIMENSION
  5
7E16
  8
3
  2
*D19
 10
735.57660597372887
 20
3314.3159771851219
 30
0.0
 11
1380.576605973728
 21
3376.8159771851219
 31
0.0
 70
     0
 13
2025.576605973728
 23
2590.036014475917
 33
0.0
 14
735.57660597372876
 24
1950.03801954852
 34
0.0
1001
ACAD
1000
DSTYLE
1002
{
1070
   287
1070
     3
1070
    40
1040
25.0
1070
   143
1040
0.039
1070
   172
1070
     1
1070
   271
1070
     0
1070
   279
1070
     0
1070
   288
1070
     1
1002
}
  0
DIMENSION
  5
7E17
  8
3
  2
*D20
 10
2627.9360794292488
 20
1705.0380195485191
 30
0.0
 11
2565.4360794292479
 21
2345.03801954852
 31
0.0
 70
     0
 13
1635.576605973728
 23
2985.03801954852
 33
0.0
 14
1885.576605973728
 24
1705.03801954852
 34
0.0
 50
270.0
1001
ACAD
1000
DSTYLE
1002
{
1070
   287
1070
     3
1070
    40
1040
25.0
1070
   143
1040
0.039
1070
   172
1070
     1
1070
   271
1070
     0
1070
   279
1070
     0
1070
   288
1070
     1
1002
}
  0
DIMENSION
  5
7E18
  8
3
  2
*D21
 10
2224.2683001244759
 20
4130.0862452546808
 30
0.0
 11
2161.7683001244759
 21
4680.0862452474148
 31
0.0
 70
     0
 13
1885.569910561969
 23
5230.0862452401479
 33
0.0
 14
1885.5755658951391
 24
4130.0862452546817
 34
0.0
 50
90.0
1001
ACAD
1000
DSTYLE
1002
{
1070
   287
1070
     3
1070
    40
1040
25.0
1070
   143
1040
0.039
1070
   172
1070
     1
1070
   271
1070
     0
1070
   279
1070
     0
1070
   288
1070
     1
1002
}
  0
DIMENSION
  5
7E19
  8
3
  2
*D22
 10
550.07999823455611
 20
4130.0803328609163
 30
0.0
 11
487.57999823455538
 21
4430.0803328523207
 31
0.0
 70
     0
 13
735.57067999284118
 23
4730.080332843725
 33
0.0
 14
735.57556591034324
 24
4130.0803328609163
 34
0.0
 50
90.0
1001
ACAD
1000
DSTYLE
1002
{
1070
   287
1070
     3
1070
    40
1040
25.0
1070
   143
1040
0.039
1070
   172
1070
     1
1070
   271
1070
     0
1070
   279
1070
     0
1070
   288
1070
     1
1002
}
  0
LINE
  5
825E
  8
4
 10
4625.0
 20
1250.0
 30
0.0
 11
4625.0
 21
750.0
 31
0.0
  0
LINE
  5
825F
  8
4
 10
2875.0
 20
1250.0
 30
0.0
 11
2875.0
 21
750.0
 31
0.0
  0
LINE
  5
8260
  8
4
 10
1625.0
 20
1250.0
 30
0.0
 11
1625.0
 21
750.0
 31
0.0
  0
LINE
  5
8263
  8
4
 10
1625.0
 20
750.0
 30
0.0
 11
4625.0
 21
750.0
 31
0.0
  0
LINE
  5
8264
  8
4
 10
1625.0
 20
1000.0
 30
0.0
 11
4625.0
 21
1000.0
 31
0.0
  0
TEXT
  5
8265
  8
4
 10
1721.2552021172539
 20
1078.857564666532
 30
0.0
 40
125.0
  1
機器名称
  0
TEXT
  5
8266
  8
4
 10
1715.6452650619931
 20
804.11289183002725
 30
0.0
 40
125.0
  1
機器型番
  0
TEXT
  5
8267
  8
4
 10
2892.3267777207452
 20
1056.0440408650741
 30
0.0
 40
112.5
  1
ミツヤリミットロードファン
  0
TEXT
  5
8268
  8
4
 10
2966.6362389637011
 20
792.89896069985843
 30
0.0
 40
125.0
  1
LL#3 1/2-1
  0
TEXT
  5
826A
  8
4
 10
2094.5427776928659
 20
5958.5721033312893
 30
0.0
 40
135.0
  1
床置防振ベット
  0
TEXT
  5
826B
  8
4
 10
790.41898332361586
 20
6334.7024404982449
 30
0.0
 40
180.0
  1
遠心式片吸込片持リミットロードファン
  0
LINE
  5
826C
  8
4
 10
625.0
 20
6173.5218856620122
 30
0.0
 11
4625.0
 21
6173.5218856620122
 31
0.0
  0
LINE
  5
826D
  8
4
 10
625.0
 20
6673.5218856620122
 30
0.0
 11
4625.0
 21
6673.5218856620122
 31
0.0
  0
LINE
  5
826E
  8
4
 10
1625.0
 20
1250.0
 30
0.0
 11
4625.0
 21
1250.0
 31
0.0
  0
LINE
  5
826F
  8
4
 10
625.0
 20
6673.5218856620122
 30
0.0
 11
625.0
 21
6173.5218856620122
 31
0.0
  0
TEXT
  5
8270
  8
4
 10
1004.89569708611
 20
5955.7986938658578
 30
0.0
 40
135.0
  1
左回転右横向
  0
TEXT
  5
8271
  8
4
 10
3672.4238981232238
 20
6765.1527037382721
 30
0.0
 40
140.0
  1
No.
  0
TEXT
  5
8272
  8
4
 10
3278.2401565000318
 20
5958.5721033312893
 30
0.0
 40
135.0
  1
縮尺：1/25
  0
LINE
  5
8273
  8
4
 10
4625.0
 20
6673.5218856620122
 30
0.0
 11
4625.0
 21
6173.5218856620122
 31
0.0
  0
LINE
  5
8274
  8
4
 10
5250.0
 20
7375.0
 30
0.0
 11
5250.0
 21
7375.0
 31
0.0
  0
LINE
  5
8275
  8
4
 10
3601.543555899661
 20
6703.1589578135026
 30
0.0
 11
3601.543555899661
 21
6966.6306538743811
 31
0.0
  0
LINE
  5
8276
  8
4
 10
3601.543555899661
 20
6966.6306538743811
 30
0.0
 11
4625.0
 21
6966.6306538743811
 31
0.0
  0
LINE
  5
8277
  8
4
 10
4625.0
 20
6966.6306538743811
 30
0.0
 11
4625.0
 21
6703.1589578135026
 31
0.0
  0
LINE
  5
8278
  8
4
 10
4625.0
 20
6703.1589578135026
 30
0.0
 11
3601.543555899661
 21
6703.1589578135026
 31
0.0
  0
LINE
  5
8279
  8
4
 10
0.0
 20
0.0
 30
0.0
 11
0.0
 21
7375.0
 31
0.0
  0
LINE
  5
827A
  8
4
 10
0.0
 20
7375.0
 30
0.0
 11
5250.0
 21
7375.0
 31
0.0
  0
LINE
  5
827B
  8
4
 10
5250.0
 20
7375.0
 30
0.0
 11
5250.0
 21
0.0
 31
0.0
  0
LINE
  5
827C
  8
4
 10
5250.0
 20
0.0
 30
0.0
 11
0.0
 21
0.0
 31
0.0
  0
DIMENSION
  5
8313
  8
3
  2
*D24
 10
4220.0155503706692
 20
3229.6157566872712
 30
0.0
 11
4112.5155503706692
 21
3301.9727854018311
 31
0.0
 70
   128
 13
4005.0155503706692
 23
3172.2882529462281
 33
0.0
 14
4220.0155503706692
 24
2890.0380195547332
 34
0.0
1001
ACAD
1000
DSTYLE
1002
{
1070
   288
1070
     1
1070
   172
1070
     1
1070
    75
1070
     1
1070
    40
1040
25.0
1070
   271
1070
     0
1070
   143
1040
0.039
1002
}
  0
LINE
  5
8365
  8
1
 10
4247.5155503706674
 20
1955.0380195547309
 30
0.0
 11
4247.5155503706692
 21
2595.0380195547318
 31
0.0
  0
LINE
  5
8366
  8
1
 10
3762.5155503706651
 20
1955.0380195547309
 30
0.0
 11
4247.5155503706674
 21
1955.0380195547309
 31
0.0
  0
LINE
  5
8367
  8
1
 10
3762.5155503706651
 20
1955.0380195547309
 30
0.0
 11
3762.515550370666
 21
2595.0380195547309
 31
0.0
  0
LINE
  5
8368
  8
1
 10
3762.5155503706651
 20
2595.0380195547309
 30
0.0
 11
4247.5155503706683
 21
2595.0380195547309
 31
0.0
  0
LINE
  5
8369
  8
1
 10
4217.5155503706683
 20
2595.0380195547309
 30
0.0
 11
4217.5155503706692
 21
2605.0380195547309
 31
0.0
  0
ENDSEC
  0
EOF
