  0
SECTION
  2
HEADER
  9
$ACADVER
  1
AC1009
  9
$INSBASE
 10
0.0
 20
0.0
 30
0.0
  9
$EXTMIN
 10
0.0
 20
0.0
 30
0.0
  9
$EXTMAX
 10
5250.0
 20
7375.0
 30
0.0
  9
$LIMMIN
 10
0.0
 20
0.0
  9
$LIMMAX
 10
297.0
 20
210.0
  9
$ORTHOMODE
 70
     0
  9
$REGENMODE
 70
     1
  9
$FILLMODE
 70
     0
  9
$QTEXTMODE
 70
     0
  9
$MIRRTEXT
 70
     1
  9
$DRAGMODE
 70
     2
  9
$LTSCALE
 40
100.0
  9
$OSMODE
 70
    37
  9
$ATTMODE
 70
     1
  9
$TEXTSIZE
 40
180.0
  9
$TRACEWID
 40
0.05
  9
$TEXTSTYLE
  7
STANDARD
  9
$CLAYER
  8
1
  9
$CELTYPE
  6
BYLAYER
  9
$CECOLOR
 62
   256
  9
$DIMSCALE
 40
25.0
  9
$DIMASZ
 40
2.0
  9
$DIMEXO
 40
0.5
  9
$DIMDLI
 40
10.0
  9
$DIMRND
 40
0.0
  9
$DIMDLE
 40
0.0
  9
$DIMEXE
 40
1.0
  9
$DIMTP
 40
1.0
  9
$DIMTM
 40
1.0
  9
$DIMTXT
 40
3.0
  9
$DIMCEN
 40
0.0
  9
$DIMTSZ
 40
0.0
  9
$DIMTOL
 70
     0
  9
$DIMLIM
 70
     0
  9
$DIMTIH
 70
     0
  9
$DIMTOH
 70
     0
  9
$DIMSE1
 70
     0
  9
$DIMSE2
 70
     0
  9
$DIMTAD
 70
     1
  9
$DIMZIN
 70
     8
  9
$DIMBLK
  1

  9
$DIMASO
 70
     1
  9
$DIMSHO
 70
     1
  9
$DIMPOST
  1

  9
$DIMAPOST
  1

  9
$DIMALT
 70
     0
  9
$DIMALTD
 70
     2
  9
$DIMALTF
 40
0.039
  9
$DIMLFAC
 40
1.0
  9
$DIMTOFL
 70
     1
  9
$DIMTVP
 40
0.0
  9
$DIMTIX
 70
     0
  9
$DIMSOXD
 70
     0
  9
$DIMSAH
 70
     1
  9
$DIMBLK1
  1
OPEN
  9
$DIMBLK2
  1
OPEN
  9
$DIMSTYLE
  2
IGA
  9
$DIMCLRD
 70
     0
  9
$DIMCLRE
 70
     0
  9
$DIMCLRT
 70
     0
  9
$DIMTFAC
 40
10.0
  9
$DIMGAP
 40
1.0
  9
$LUNITS
 70
     2
  9
$LUPREC
 70
     3
  9
$SKETCHINC
 40
0.1
  9
$FILLETRAD
 40
50.0
  9
$AUNITS
 70
     0
  9
$AUPREC
 70
     0
  9
$MENU
  1
acad
  9
$ELEVATION
 40
0.0
  9
$PELEVATION
 40
0.0
  9
$THICKNESS
 40
0.0
  9
$LIMCHECK
 70
     0
  9
$BLIPMODE
 70
     0
  9
$CHAMFERA
 40
0.5
  9
$CHAMFERB
 40
0.5
  9
$SKPOLY
 70
     0
  9
$TDCREATE
 40
2451614.442163541
  9
$TDUPDATE
 40
2454953.6412393278
  9
$TDINDWG
 40
0.0170679977
  9
$TDUSRTIMER
 40
0.0170679977
  9
$USRTIMER
 70
     1
  9
$ANGBASE
 50
0.0
  9
$ANGDIR
 70
     0
  9
$PDMODE
 70
     0
  9
$PDSIZE
 40
0.0
  9
$PLINEWID
 40
0.0
  9
$COORDS
 70
     1
  9
$SPLFRAME
 70
     0
  9
$SPLINETYPE
 70
     6
  9
$SPLINESEGS
 70
     8
  9
$ATTDIA
 70
     0
  9
$ATTREQ
 70
     1
  9
$HANDLING
 70
 10241
  9
$HANDSEED
  5
83BD
  9
$SURFTAB1
 70
     6
  9
$SURFTAB2
 70
     6
  9
$SURFTYPE
 70
     6
  9
$SURFU
 70
     6
  9
$SURFV
 70
     6
  9
$UCSNAME
  2

  9
$UCSORG
 10
0.0
 20
0.0
 30
0.0
  9
$UCSXDIR
 10
1.0
 20
0.0
 30
0.0
  9
$UCSYDIR
 10
0.0
 20
1.0
 30
0.0
  9
$PUCSNAME
  2

  9
$PUCSORG
 10
0.0
 20
0.0
 30
0.0
  9
$PUCSXDIR
 10
1.0
 20
0.0
 30
0.0
  9
$PUCSYDIR
 10
0.0
 20
1.0
 30
0.0
  9
$USERI1
 70
     0
  9
$USERI2
 70
     0
  9
$USERI3
 70
     0
  9
$USERI4
 70
     0
  9
$USERI5
 70
     0
  9
$USERR1
 40
0.0
  9
$USERR2
 40
0.0
  9
$USERR3
 40
0.0
  9
$USERR4
 40
0.0
  9
$USERR5
 40
0.0
  9
$WORLDVIEW
 70
     1
  9
$SHADEDGE
 70
     3
  9
$SHADEDIF
 70
    70
  9
$TILEMODE
 70
     1
  9
$MAXACTVP
 70
    16
  9
$PLIMCHECK
 70
     0
  9
$PEXTMIN
 10
1.0000000000000000E+020
 20
1.0000000000000000E+020
 30
1.0000000000000000E+020
  9
$PEXTMAX
 10
-1.0000000000000000E+020
 20
-1.0000000000000000E+020
 30
-1.0000000000000000E+020
  9
$PLIMMIN
 10
0.0
 20
0.0
  9
$PLIMMAX
 10
12.0
 20
9.0
  9
$UNITMODE
 70
     0
  9
$VISRETAIN
 70
     0
  9
$PLINEGEN
 70
     0
  9
$PSLTSCALE
 70
     1
  0
ENDSEC
  0
SECTION
  2
TABLES
  0
TABLE
  2
VPORT
 70
     2
  0
VPORT
  2
*ACTIVE
 70
     0
 10
0.0
 20
0.0
 11
1.0
 21
1.0
 12
4927.8047244223726
 22
869.36981643347826
 13
0.0
 23
0.0
 14
10.0
 24
10.0
 15
10.0
 25
10.0
 16
0.0
 26
0.0
 36
1.0
 17
0.0
 27
0.0
 37
0.0
 40
2198.0047315245051
 41
3.1666666666666661
 42
50.0
 43
0.0
 44
0.0
 50
0.0
 51
0.0
 71
     0
 72
   100
 73
     1
 74
     0
 75
     0
 76
     0
 77
     0
 78
     0
  0
ENDTAB
  0
TABLE
  2
LTYPE
 70
     2
  0
LTYPE
  2
CONTINUOUS
 70
     0
  3
Solid line
 72
    65
 73
     0
 40
0.0
  0
LTYPE
  2
CENTER
 70
     0
  3
____ _ ____ _ ____ _ ____ _ ____ _ ____ _ ____ 
 72
    65
 73
     4
 40
2.0
 49
1.25
 49
-0.25
 49
0.25
 49
-0.25
  0
ENDTAB
  0
TABLE
  2
LAYER
 70
     6
  0
LAYER
  2
0
 70
     0
 62
     7
  6
CONTINUOUS
  0
LAYER
  2
3
 70
     0
 62
     2
  6
CONTINUOUS
  0
LAYER
  2
2
 70
     0
 62
     3
  6
CENTER
  0
LAYER
  2
1
 70
     0
 62
     4
  6
CONTINUOUS
  0
LAYER
  2
4
 70
     0
 62
     7
  6
CONTINUOUS
  0
LAYER
  2
DEFPOINTS
 70
     0
 62
     7
  6
CONTINUOUS
  0
ENDTAB
  0
TABLE
  2
STYLE
 70
     1
  0
STYLE
  2
STANDARD
 70
     0
 40
0.0
 41
1.0
 50
0.0
 71
     0
 42
180.0
  3
simplex.shx
  4
extfont.shx
  0
ENDTAB
  0
TABLE
  2
VIEW
 70
     0
  0
ENDTAB
  0
TABLE
  2
UCS
 70
     0
  0
ENDTAB
  0
TABLE
  2
APPID
 70
     1
  0
APPID
  2
ACAD
 70
     0
  0
ENDTAB
  0
TABLE
  2
DIMSTYLE
 70
     1
  0
DIMSTYLE
  2
IGA
 70
     0
  3

  4

  5

  6
OPEN
  7
OPEN
 40
2.0
 41
2.0
 42
0.5
 43
10.0
 44
1.0
 45
0.0
 46
0.0
 47
1.0
 48
1.0
140
3.0
141
0.0
142
0.0
143
0.03937
144
1.0
145
0.0
146
10.0
147
1.0
 71
     0
 72
     0
 73
     0
 74
     0
 75
     0
 76
     0
 77
     1
 78
     8
170
     0
171
     2
172
     0
173
     1
174
     0
175
     0
176
     0
177
     0
178
     0
  0
ENDTAB
  0
ENDSEC
  0
SECTION
  2
BLOCKS
  0
BLOCK
  8
0
  2
$MODEL_SPACE
 70
     0
 10
0.0
 20
0.0
 30
0.0
  3
$MODEL_SPACE
  1

  0
ENDBLK
  5
1B
  8
0
  0
BLOCK
 67
     1
  8
0
  2
$PAPER_SPACE
 70
     0
 10
0.0
 20
0.0
 30
0.0
  3
$PAPER_SPACE
  1

  0
ENDBLK
  5
18
 67
     1
  8
0
  0
BLOCK
  8
0
  2
_OPEN
 70
     0
 10
0.0
 20
0.0
 30
0.0
  3
_OPEN
  1

  0
LINE
  5
79FD
  8
0
  6
BYBLOCK
 62
     0
 10
-1.0
 20
0.1666666666666666
 30
0.0
 11
0.0
 21
0.0
 31
0.0
  0
LINE
  5
79FE
  8
0
  6
BYBLOCK
 62
     0
 10
0.0
 20
0.0
 30
0.0
 11
-1.0
 21
-0.1666666666666666
 31
0.0
  0
LINE
  5
79FF
  8
0
  6
BYBLOCK
 62
     0
 10
0.0
 20
0.0
 30
0.0
 11
-1.0
 21
0.0
 31
0.0
  0
ENDBLK
  5
7A01
  8
0
  0
BLOCK
  8
0
  2
*D1
 70
     1
 10
0.0
 20
0.0
 30
0.0
  3
*D1
  1

  0
LINE
  5
82F9
  8
3
 62
     0
 10
3792.5155503706678
 20
2823.1240274236802
 30
0.0
 11
3792.5155503706678
 21
2945.9722291306921
 31
0.0
  0
LINE
  5
82FA
  8
3
 62
     0
 10
4217.515550370671
 20
2823.1240274236802
 30
0.0
 11
4217.515550370671
 21
2945.9722291306921
 31
0.0
  0
LINE
  5
82FB
  8
3
 62
     0
 10
3842.5155503706669
 20
2920.9722291306921
 30
0.0
 11
4167.515550370671
 21
2920.9722291306921
 31
0.0
  0
INSERT
  5
82FC
  8
3
 62
     0
  2
_OPEN
 10
3792.5155503706678
 20
2920.9722291306921
 30
0.0
 41
50.0
 42
50.0
 43
50.0
 50
180.0
  0
INSERT
  5
82FD
  8
3
 62
     0
  2
_OPEN
 10
4217.515550370671
 20
2920.9722291306921
 30
0.0
 41
50.0
 42
50.0
 43
50.0
  0
TEXT
  8
3
  40
75
  5
83AA
  62
0
  72
0
  71
0
 10
3866.93
 20
2850.72
 30
0.000000
  1
425
  0
POINT
  5
82FF
  8
DEFPOINTS
 62
     0
 10
3792.5155503706678
 20
2810.6240274236802
 30
0.0
  0
POINT
  5
8300
  8
DEFPOINTS
 62
     0
 10
4217.515550370671
 20
2810.6240274236802
 30
0.0
  0
POINT
  5
8301
  8
DEFPOINTS
 62
     0
 10
4217.515550370671
 20
2920.9722291306921
 30
0.0
  0
ENDBLK
  5
811D
  8
0
  0
BLOCK
  8
0
  2
*D2
 70
     1
 10
0.0
 20
0.0
 30
0.0
  3
*D2
  1

  0
LINE
  5
830C
  8
3
 62
     0
 10
4274.3155503706703
 20
2725.6240274236802
 30
0.0
 11
4438.6278381594702
 21
2725.6240274236802
 31
0.0
  0
LINE
  5
830D
  8
3
 62
     0
 10
4274.3155503706703
 20
2165.6240274236789
 30
0.0
 11
4438.6278381594702
 21
2165.6240274236789
 31
0.0
  0
LINE
  5
830E
  8
3
 62
     0
 10
4413.6278381594693
 20
2675.6240274236802
 30
0.0
 11
4413.6278381594693
 21
2215.6240274236779
 31
0.0
  0
INSERT
  5
830F
  8
3
 62
     0
  2
_OPEN
 10
4413.6278381594693
 20
2725.6240274236802
 30
0.0
 41
50.0
 42
50.0
 43
50.0
 50
90.0
  0
INSERT
  5
8310
  8
3
 62
     0
  2
_OPEN
 10
4413.6278381594693
 20
2165.6240274236789
 30
0.0
 41
50.0
 42
50.0
 43
50.0
 50
270.0
  0
TEXT
  8
3
  40
75
  5
83AB
  62
0
  72
0
  71
0
 10
4201.13
 20
2312.87
 30
0.000000
  1
φ560
  0
POINT
  5
8312
  8
DEFPOINTS
 62
     0
 10
4261.8155503706703
 20
2725.6240274236802
 30
0.0
  0
POINT
  5
8313
  8
DEFPOINTS
 62
     0
 10
4261.8155503706703
 20
2165.6240274236789
 30
0.0
  0
POINT
  5
8314
  8
DEFPOINTS
 62
     0
 10
4413.6278381594693
 20
2165.6240274236789
 30
0.0
  0
ENDBLK
  5
8256
  8
0
  0
BLOCK
  8
0
  2
*D3
 70
     1
 10
0.0
 20
0.0
 30
0.0
  3
*D3
  1

  0
LINE
  5
8315
  8
3
 62
     0
 10
2535.576605973728
 20
1703.119400318923
 30
0.0
 11
2535.576605973728
 21
1522.838082076137
 31
0.0
  0
LINE
  5
8316
  8
3
 62
     0
 10
1635.576605973728
 20
1664.5388877348289
 30
0.0
 11
1635.576605973728
 21
1522.838082076137
 31
0.0
  0
LINE
  5
8317
  8
3
 62
     0
 10
2485.576605973728
 20
1547.838082076137
 30
0.0
 11
1685.576605973728
 21
1547.838082076137
 31
0.0
  0
INSERT
  5
8318
  8
3
 62
     0
  2
_OPEN
 10
2535.576605973728
 20
1547.838082076137
 30
0.0
 41
50.0
 42
50.0
 43
50.0
  0
INSERT
  5
8319
  8
3
 62
     0
  2
_OPEN
 10
1635.576605973728
 20
1547.838082076137
 30
0.0
 41
50.0
 42
50.0
 43
50.0
 50
180.0
  0
TEXT
  8
3
  40
75
  5
83AC
  62
0
  72
0
  71
0
 10
1935.58
 20
1477.59
 30
0.000000
  1
900
  0
POINT
  5
831B
  8
DEFPOINTS
 62
     0
 10
2535.576605973728
 20
1715.6194003189239
 30
0.0
  0
POINT
  5
831C
  8
DEFPOINTS
 62
     0
 10
1635.576605973728
 20
1677.0388877348289
 30
0.0
  0
POINT
  5
831D
  8
DEFPOINTS
 62
     0
 10
1635.576605973728
 20
1547.838082076137
 30
0.0
  0
ENDBLK
  5
8240
  8
0
  0
BLOCK
  8
0
  2
*D4
 70
     1
 10
0.0
 20
0.0
 30
0.0
  3
*D4
  1

  0
LINE
  5
8242
  8
0
  6
BYBLOCK
 62
     0
 10
1635.576605973728
 20
1721.538887734828
 30
0.0
 11
1635.576605973728
 21
1578.8147101155989
 31
0.0
  0
LINE
  5
8243
  8
0
  6
BYBLOCK
 62
     0
 10
1385.5766059737291
 20
1760.1253127126899
 30
0.0
 11
1385.5766059737291
 21
1578.8147101155989
 31
0.0
  0
LINE
  5
8244
  8
0
  6
BYBLOCK
 62
     0
 10
1585.5766059737291
 20
1603.8147101155989
 30
0.0
 11
1435.5766059737291
 21
1603.8147101155989
 31
0.0
  0
TEXT
  5
8245
  8
1
 62
     0
 10
1414.1480345451571
 20
1622.7940750345911
 30
0.0
 40
75.0
  1
250
  0
INSERT
  5
8246
  8
0
  6
BYBLOCK
 62
     0
  2
_OPEN
 10
1635.576605973728
 20
1603.8147101155989
 30
0.0
 41
50.0
 42
50.0
 43
50.0
  0
INSERT
  5
8247
  8
0
  6
BYBLOCK
 62
     0
  2
_OPEN
 10
1385.5766059737291
 20
1603.8147101155989
 30
0.0
 41
50.0
 42
50.0
 43
50.0
 50
180.0
  0
POINT
  5
8248
  8
DEFPOINTS
  6
BYBLOCK
 62
     0
 10
1635.576605973728
 20
1734.038887734828
 30
0.0
  0
POINT
  5
8249
  8
DEFPOINTS
  6
BYBLOCK
 62
     0
 10
1385.5766059737291
 20
1772.6253127126899
 30
0.0
  0
POINT
  5
824A
  8
DEFPOINTS
  6
BYBLOCK
 62
     0
 10
1385.5766059737291
 20
1603.8147101155989
 30
0.0
  0
ENDBLK
  5
824B
  8
0
  0
BLOCK
  8
0
  2
*D5
 70
     1
 10
0.0
 20
0.0
 30
0.0
  3
*D5
  1

  0
LINE
  5
831E
  8
3
 62
     0
 10
3160.0155503706669
 20
1703.12402742368
 30
0.0
 11
3160.0155503706669
 21
1537.85458650652
 31
0.0
  0
LINE
  5
831F
  8
3
 62
     0
 10
4005.0155503706669
 20
1626.7651211878249
 30
0.0
 11
4005.0155503706669
 21
1537.85458650652
 31
0.0
  0
LINE
  5
8320
  8
3
 62
     0
 10
3210.0155503706669
 20
1562.85458650652
 30
0.0
 11
3955.0155503706669
 21
1562.85458650652
 31
0.0
  0
INSERT
  5
8321
  8
3
 62
     0
  2
_OPEN
 10
3160.0155503706669
 20
1562.85458650652
 30
0.0
 41
50.0
 42
50.0
 43
50.0
 50
180.0
  0
INSERT
  5
8322
  8
3
 62
     0
  2
_OPEN
 10
4005.0155503706669
 20
1562.85458650652
 30
0.0
 41
50.0
 42
50.0
 43
50.0
  0
TEXT
  8
3
  40
75
  5
83AD
  62
0
  72
0
  71
0
 10
3432.52
 20
1492.60
 30
0.000000
  1
845
  0
POINT
  5
8324
  8
DEFPOINTS
 62
     0
 10
3160.0155503706669
 20
1715.62402742368
 30
0.0
  0
POINT
  5
8325
  8
DEFPOINTS
 62
     0
 10
4005.0155503706669
 20
1639.2651211878249
 30
0.0
  0
POINT
  5
8326
  8
DEFPOINTS
 62
     0
 10
4005.0155503706669
 20
1562.85458650652
 30
0.0
  0
ENDBLK
  5
822A
  8
0
  0
BLOCK
  8
0
  2
*D6
 70
     1
 10
0.0
 20
0.0
 30
0.0
  3
*D6
  1

  0
LINE
  5
822C
  8
0
  6
BYBLOCK
 62
     0
 10
4005.0155503706669
 20
1640.885394177323
 30
0.0
 11
4005.0155503706669
 21
1595.058314822875
 31
0.0
  0
LINE
  5
822D
  8
0
  6
BYBLOCK
 62
     0
 10
4260.0155503706701
 20
1760.12402742368
 30
0.0
 11
4260.0155503706701
 21
1595.058314822875
 31
0.0
  0
LINE
  5
822E
  8
0
  6
BYBLOCK
 62
     0
 10
4055.0155503706678
 20
1620.058314822875
 30
0.0
 11
4210.0155503706692
 21
1620.058314822875
 31
0.0
  0
TEXT
  5
822F
  8
1
 62
     0
 10
4036.0869789420972
 20
1637.7721186671531
 30
0.0
 40
75.0
  1
255
  0
INSERT
  5
8230
  8
0
  6
BYBLOCK
 62
     0
  2
_OPEN
 10
4005.0155503706669
 20
1620.058314822875
 30
0.0
 41
50.0
 42
50.0
 43
50.0
 50
180.0
  0
INSERT
  5
8231
  8
0
  6
BYBLOCK
 62
     0
  2
_OPEN
 10
4260.0155503706701
 20
1620.058314822875
 30
0.0
 41
50.0
 42
50.0
 43
50.0
  0
POINT
  5
8232
  8
DEFPOINTS
  6
BYBLOCK
 62
     0
 10
4005.0155503706669
 20
1653.385394177323
 30
0.0
  0
POINT
  5
8233
  8
DEFPOINTS
  6
BYBLOCK
 62
     0
 10
4260.0155503706701
 20
1772.62402742368
 30
0.0
  0
POINT
  5
8234
  8
DEFPOINTS
  6
BYBLOCK
 62
     0
 10
4260.0155503706701
 20
1620.058314822875
 30
0.0
  0
ENDBLK
  5
8235
  8
0
  0
BLOCK
  8
0
  2
*D7
 70
     1
 10
0.0
 20
0.0
 30
0.0
  3
*D7
  1

  0
LINE
  5
8327
  8
3
 62
     0
 10
2235.576605973728
 20
2845.1209426954028
 30
0.0
 11
2235.576605973728
 21
3134.714636260413
 31
0.0
  0
LINE
  5
8328
  8
3
 62
     0
 10
1635.576605973728
 20
2917.6403121800558
 30
0.0
 11
1635.576605973728
 21
3134.714636260413
 31
0.0
  0
LINE
  5
8329
  8
3
 62
     0
 10
2185.576605973728
 20
3109.714636260413
 30
0.0
 11
1685.576605973728
 21
3109.714636260413
 31
0.0
  0
INSERT
  5
832A
  8
3
 62
     0
  2
_OPEN
 10
2235.576605973728
 20
3109.714636260413
 30
0.0
 41
50.0
 42
50.0
 43
50.0
  0
INSERT
  5
832B
  8
3
 62
     0
  2
_OPEN
 10
1635.576605973728
 20
3109.714636260413
 30
0.0
 41
50.0
 42
50.0
 43
50.0
 50
180.0
  0
TEXT
  8
3
  40
75
  5
83AE
  62
0
  72
0
  71
0
 10
1785.58
 20
3039.46
 30
0.000000
  1
600
  0
POINT
  5
832D
  8
DEFPOINTS
 62
     0
 10
2235.576605973728
 20
2832.6209426954019
 30
0.0
  0
POINT
  5
832E
  8
DEFPOINTS
 62
     0
 10
1635.576605973728
 20
2905.1403121800572
 30
0.0
  0
POINT
  5
832F
  8
DEFPOINTS
 62
     0
 10
1635.576605973728
 20
3109.714636260413
 30
0.0
  0
ENDBLK
  5
8198
  8
0
  0
BLOCK
  8
0
  2
*D8
 70
     1
 10
0.0
 20
0.0
 30
0.0
  3
*D8
  1

  0
LINE
  5
8330
  8
3
 62
     0
 10
2235.576605973728
 20
2845.1209426954028
 30
0.0
 11
2235.576605973728
 21
3002.039775040625
 31
0.0
  0
LINE
  5
8331
  8
3
 62
     0
 10
1655.576605973728
 20
2823.123924598056
 30
0.0
 11
1655.576605973728
 21
3002.039775040625
 31
0.0
  0
LINE
  5
8332
  8
3
 62
     0
 10
2185.576605973728
 20
2977.039775040625
 30
0.0
 11
1705.576605973728
 21
2977.039775040625
 31
0.0
  0
INSERT
  5
8333
  8
3
 62
     0
  2
_OPEN
 10
2235.576605973728
 20
2977.039775040625
 30
0.0
 41
50.0
 42
50.0
 43
50.0
  0
INSERT
  5
8334
  8
3
 62
     0
  2
_OPEN
 10
1655.576605973728
 20
2977.039775040625
 30
0.0
 41
50.0
 42
50.0
 43
50.0
 50
180.0
  0
TEXT
  8
3
  40
75
  5
83AF
  62
0
  72
0
  71
0
 10
1795.58
 20
2906.79
 30
0.000000
  1
580
  0
POINT
  5
8336
  8
DEFPOINTS
 62
     0
 10
2235.576605973728
 20
2832.6209426954019
 30
0.0
  0
POINT
  5
8337
  8
DEFPOINTS
 62
     0
 10
1655.576605973728
 20
2810.623924598056
 30
0.0
  0
POINT
  5
8338
  8
DEFPOINTS
 62
     0
 10
1655.576605973728
 20
2977.039775040625
 30
0.0
  0
ENDBLK
  5
80B6
  8
0
  0
BLOCK
  8
0
  2
*D9
 70
     1
 10
0.0
 20
0.0
 30
0.0
  3
*D9
  1

  0
LINE
  5
8339
  8
3
 62
     0
 10
4005.0155503706692
 20
3043.679715023507
 30
0.0
 11
4005.0155503706692
 21
3113.5072187645501
 31
0.0
  0
LINE
  5
833A
  8
3
 62
     0
 10
3054.5155503706692
 20
2558.1240274236802
 30
0.0
 11
3054.5155503706692
 21
3113.5072187645501
 31
0.0
  0
LINE
  5
833B
  8
3
 62
     0
 10
3955.0155503706692
 20
3088.5072187645501
 30
0.0
 11
3104.5155503706692
 21
3088.5072187645501
 31
0.0
  0
INSERT
  5
833C
  8
3
 62
     0
  2
_OPEN
 10
4005.0155503706692
 20
3088.5072187645501
 30
0.0
 41
50.0
 42
50.0
 43
50.0
  0
INSERT
  5
833D
  8
3
 62
     0
  2
_OPEN
 10
3054.5155503706692
 20
3088.5072187645501
 30
0.0
 41
50.0
 42
50.0
 43
50.0
 50
180.0
  0
TEXT
  8
3
  40
75
  5
83B0
  62
0
  72
0
  71
0
 10
3379.77
 20
3080.76
 30
0.000000
  1
MAX
  0
TEXT
  8
3
  40
75
  5
83B1
  62
0
  72
0
  71
0
 10
3379.77
 20
2983.26
 30
0.000000
  1
1010
  0
POINT
  5
833F
  8
DEFPOINTS
 62
     0
 10
4005.0155503706692
 20
3031.179715023507
 30
0.0
  0
POINT
  5
8340
  8
DEFPOINTS
 62
     0
 10
3054.5155503706692
 20
2545.6240274236811
 30
0.0
  0
POINT
  5
8341
  8
DEFPOINTS
 62
     0
 10
3054.5155503706692
 20
3088.5072187645501
 30
0.0
  0
ENDBLK
  5
8261
  8
0
  0
BLOCK
  8
0
  2
*D10
 70
     1
 10
0.0
 20
0.0
 30
0.0
  3
*D10
  1

  0
LINE
  5
8342
  8
3
 62
     0
 10
2535.575692314515
 20
4065.4539572713679
 30
0.0
 11
2535.579221165402
 21
3731.813104609656
 31
0.0
  0
LINE
  5
8343
  8
3
 62
     0
 10
1385.5756923315039
 20
4065.4477063509398
 30
0.0
 11
1385.5792212449239
 21
3731.8009412954621
 31
0.0
  0
LINE
  5
8344
  8
3
 62
     0
 10
2485.5789567483248
 20
3756.8125757685111
 30
0.0
 11
1435.578956822254
 21
3756.8014701338111
 31
0.0
  0
INSERT
  5
8345
  8
3
 62
     0
  2
_OPEN
 10
2535.5789567455281
 20
3756.8131046082581
 30
0.0
 41
50.0
 42
50.0
 43
50.0
 50
0.000606005711532
  0
INSERT
  5
8346
  8
3
 62
     0
  2
_OPEN
 10
1385.57895682505
 20
3756.8009412940642
 30
0.0
 41
50.0
 42
50.0
 43
50.0
 50
180.00060600571149
  0
TEXT
  8
3
  40
75
  5
83B2
  62
0
  72
0
  71
0
 10
1810.58
 20
3686.56
 30
0.000000
  1
1150
  0
POINT
  5
8348
  8
DEFPOINTS
 62
     0
 10
2535.575560104578
 20
4077.953957270669
 30
0.0
  0
POINT
  5
8349
  8
DEFPOINTS
 62
     0
 10
1385.5755601215669
 20
4077.9477063502391
 30
0.0
  0
POINT
  5
834A
  8
DEFPOINTS
 62
     0
 10
1385.57895682505
 20
3756.8009412940642
 30
0.0
  0
ENDBLK
  5
80A0
  8
0
  0
BLOCK
  8
0
  2
*D11
 70
     1
 10
0.0
 20
0.0
 30
0.0
  3
*D11
  1

  0
LINE
  5
834B
  8
3
 62
     0
 10
1385.5694487703511
 20
5190.4477063332924
 30
0.0
 11
1385.567515817454
 21
5373.2018303541399
 31
0.0
  0
LINE
  5
834C
  8
3
 62
     0
 10
1885.5694487629651
 20
5190.4504241247832
 30
0.0
 11
1885.56751578288
 21
5373.2071187516167
 31
0.0
  0
LINE
  5
834D
  8
3
 62
     0
 10
1435.5677802345319
 20
5348.2023591952866
 30
0.0
 11
1835.5677802055509
 21
5348.2065899132667
 31
0.0
  0
INSERT
  5
834E
  8
3
 62
     0
  2
_OPEN
 10
1385.567780237328
 20
5348.2018303555396
 30
0.0
 41
50.0
 42
50.0
 43
50.0
 50
180.00060600571149
  0
INSERT
  5
834F
  8
3
 62
     0
  2
_OPEN
 10
1885.567780202754
 20
5348.2071187530146
 30
0.0
 41
50.0
 42
50.0
 43
50.0
 50
0.0006060057115299
  0
TEXT
  8
3
  40
75
  5
83B3
  62
0
  72
0
  71
0
 10
1485.57
 20
5277.95
 30
0.000000
  1
500
  0
POINT
  5
8351
  8
DEFPOINTS
 62
     0
 10
1385.569580980288
 20
5177.9477063339909
 30
0.0
  0
POINT
  5
8352
  8
DEFPOINTS
 62
     0
 10
1885.569580972902
 20
5177.9504241254817
 30
0.0
  0
POINT
  5
8353
  8
DEFPOINTS
 62
     0
 10
1885.567780202754
 20
5348.2071187530146
 30
0.0
  0
ENDBLK
  5
8095
  8
0
  0
BLOCK
  8
0
  2
*D12
 70
     1
 10
0.0
 20
0.0
 30
0.0
  3
*D12
  1

  0
LINE
  5
8354
  8
3
 62
     0
 10
1885.5694487629651
 20
5190.4504241247832
 30
0.0
 11
1885.56751578288
 21
5373.2071187516131
 31
0.0
  0
LINE
  5
8355
  8
3
 62
     0
 10
2535.5748260589871
 20
4682.0479941381473
 30
0.0
 11
2535.5675157379319
 21
5373.2139936683316
 31
0.0
  0
LINE
  5
8356
  8
3
 62
     0
 10
1935.567780199957
 20
5348.2076475927588
 30
0.0
 11
2485.5677801606021
 21
5348.2134648299816
 31
0.0
  0
INSERT
  5
8357
  8
3
 62
     0
  2
_OPEN
 10
1885.567780202754
 20
5348.2071187530119
 30
0.0
 41
50.0
 42
50.0
 43
50.0
 50
180.00060600571149
  0
INSERT
  5
8358
  8
3
 62
     0
  2
_OPEN
 10
2535.5677801578049
 20
5348.2139936697304
 30
0.0
 41
50.0
 42
50.0
 43
50.0
 50
0.0006060057115299
  0
TEXT
  8
3
  40
75
  5
83B4
  62
0
  72
0
  71
0
 10
2060.57
 20
5277.96
 30
0.000000
  1
650
  0
POINT
  5
835A
  8
DEFPOINTS
 62
     0
 10
1885.569580972902
 20
5177.9504241254817
 30
0.0
  0
POINT
  5
835B
  8
DEFPOINTS
 62
     0
 10
2535.5749582689241
 20
4669.5479941388467
 30
0.0
  0
POINT
  5
835C
  8
DEFPOINTS
 62
     0
 10
2535.5677801578049
 20
5348.2139936697304
 30
0.0
  0
ENDBLK
  5
808A
  8
0
  0
BLOCK
  8
0
  2
*D13
 70
     1
 10
0.0
 20
0.0
 30
0.0
  3
*D13
  1

  0
LINE
  5
835D
  8
3
 62
     0
 10
1618.07861104633
 20
2835.6240274174679
 30
0.0
 11
958.1859464700475
 21
2835.6240274174688
 31
0.0
  0
LINE
  5
835E
  8
3
 62
     0
 10
1163.56032121114
 20
2445.6240274174688
 30
0.0
 11
958.18594647004727
 21
2445.6240274174688
 31
0.0
  0
LINE
  5
835F
  8
3
 62
     0
 10
983.18594647004727
 20
2785.6240274174688
 30
0.0
 11
983.18594647004727
 21
2495.6240274174688
 31
0.0
  0
INSERT
  5
8360
  8
3
 62
     0
  2
_OPEN
 10
983.1859464700475
 20
2835.6240274174688
 30
0.0
 41
50.0
 42
50.0
 43
50.0
 50
90.0
  0
INSERT
  5
8361
  8
3
 62
     0
  2
_OPEN
 10
983.18594647004727
 20
2445.6240274174688
 30
0.0
 41
50.0
 42
50.0
 43
50.0
 50
270.0
  0
TEXT
  8
3
  40
75
  5
83B5
  62
0
  72
0
  71
0
 10
770.686
 20
2507.87
 30
0.000000
  1
390
  0
POINT
  5
8363
  8
DEFPOINTS
 62
     0
 10
1630.57861104633
 20
2835.6240274174679
 30
0.0
  0
POINT
  5
8364
  8
DEFPOINTS
 62
     0
 10
1176.06032121114
 20
2445.6240274174688
 30
0.0
  0
POINT
  5
8365
  8
DEFPOINTS
 62
     0
 10
983.18594647004727
 20
2445.6240274174688
 30
0.0
  0
ENDBLK
  5
807F
  8
0
  0
BLOCK
  8
0
  2
*D14
 70
     1
 10
0.0
 20
0.0
 30
0.0
  3
*D14
  1

  0
LINE
  5
8366
  8
3
 62
     0
 10
1163.56032121114
 20
2445.6240274174688
 30
0.0
 11
958.1859464700475
 21
2445.6240274174688
 31
0.0
  0
LINE
  5
8367
  8
3
 62
     0
 10
1373.076605973728
 20
1885.6240274174691
 30
0.0
 11
958.18594647004727
 21
1885.6240274174691
 31
0.0
  0
LINE
  5
8368
  8
3
 62
     0
 10
983.1859464700475
 20
2395.6240274174688
 30
0.0
 11
983.18594647004727
 21
1935.6240274174691
 31
0.0
  0
INSERT
  5
8369
  8
3
 62
     0
  2
_OPEN
 10
983.1859464700475
 20
2445.6240274174688
 30
0.0
 41
50.0
 42
50.0
 43
50.0
 50
90.0
  0
INSERT
  5
836A
  8
3
 62
     0
  2
_OPEN
 10
983.18594647004727
 20
1885.6240274174691
 30
0.0
 41
50.0
 42
50.0
 43
50.0
 50
270.0
  0
TEXT
  8
3
  40
75
  5
83B6
  62
0
  72
0
  71
0
 10
770.686
 20
2032.87
 30
0.000000
  1
560
  0
POINT
  5
836C
  8
DEFPOINTS
 62
     0
 10
1176.06032121114
 20
2445.6240274174688
 30
0.0
  0
POINT
  5
836D
  8
DEFPOINTS
 62
     0
 10
1385.576605973728
 20
1885.6240274174691
 30
0.0
  0
POINT
  5
836E
  8
DEFPOINTS
 62
     0
 10
983.18594647004727
 20
1885.6240274174691
 30
0.0
  0
ENDBLK
  5
8074
  8
0
  0
BLOCK
  8
0
  2
*D15
 70
     1
 10
0.0
 20
0.0
 30
0.0
  3
*D15
  1

  0
LINE
  5
82BE
  8
0
  6
BYBLOCK
 62
     0
 10
1373.076605973728
 20
1885.6240274174691
 30
0.0
 11
958.18594647004727
 21
1885.6240274174691
 31
0.0
  0
LINE
  5
82BF
  8
0
  6
BYBLOCK
 62
     0
 10
1373.0766059737291
 20
1790.6240274174691
 30
0.0
 11
958.18594647004727
 21
1790.6240274174691
 31
0.0
  0
LINE
  5
82C0
  8
0
  6
BYBLOCK
 62
     0
 10
983.18594647004727
 20
1935.6240274174691
 30
0.0
 11
983.18594647004727
 21
1985.6240274174691
 31
0.0
  0
LINE
  5
82C1
  8
0
  6
BYBLOCK
 62
     0
 10
983.18594647004727
 20
1740.6240274174691
 30
0.0
 11
983.18594647004727
 21
1690.6240274174691
 31
0.0
  0
TEXT
  5
82C2
  8
1
 62
     0
 10
888.54308932719016
 20
1786.168369131545
 30
0.0
 40
75.0
  1
(95)
 50
90.0
  0
LINE
  5
82C3
  8
0
  6
BYBLOCK
 62
     0
 10
983.18594647004727
 20
1885.6240274174691
 30
0.0
 11
983.18594647004727
 21
1790.6240274174691
 31
0.0
  0
INSERT
  5
82C4
  8
0
  6
BYBLOCK
 62
     0
  2
_OPEN
 10
983.18594647004727
 20
1885.6240274174691
 30
0.0
 41
50.0
 42
50.0
 43
50.0
 50
270.0
  0
INSERT
  5
82C5
  8
0
  6
BYBLOCK
 62
     0
  2
_DOT
 10
983.18594647004727
 20
1790.6240274174691
 30
0.0
 41
50.0
 42
50.0
 43
50.0
 50
90.0
  0
POINT
  5
82C6
  8
DEFPOINTS
  6
BYBLOCK
 62
     0
 10
1385.576605973728
 20
1885.6240274174691
 30
0.0
  0
POINT
  5
82C7
  8
DEFPOINTS
  6
BYBLOCK
 62
     0
 10
1385.5766059737291
 20
1790.6240274174691
 30
0.0
  0
POINT
  5
82C8
  8
DEFPOINTS
  6
BYBLOCK
 62
     0
 10
983.18594647004727
 20
1790.6240274174691
 30
0.0
  0
ENDBLK
  5
82C9
  8
0
  0
BLOCK
  8
0
  2
*D16
 70
     1
 10
0.0
 20
0.0
 30
0.0
  3
*D16
  1

  0
LINE
  5
836F
  8
3
 62
     0
 10
1373.0766059737291
 20
1790.6240274174691
 30
0.0
 11
958.18594647004727
 21
1790.6240274174691
 31
0.0
  0
LINE
  5
8370
  8
3
 62
     0
 10
1373.0766059737291
 20
1715.6240274174691
 30
0.0
 11
958.18594647004727
 21
1715.6240274174691
 31
0.0
  0
LINE
  5
8371
  8
3
 62
     0
 10
983.1859464700475
 20
1840.6240274174691
 30
0.0
 11
983.1859464700475
 21
1890.6240274174691
 31
0.0
  0
LINE
  5
8372
  8
3
 62
     0
 10
983.18594647004727
 20
1665.6240274174691
 30
0.0
 11
983.18594647004727
 21
1444.1954559888979
 31
0.0
  0
LINE
  5
8373
  8
3
 62
     0
 10
983.18594647004727
 20
1790.6240274174691
 30
0.0
 11
983.18594647004727
 21
1715.6240274174691
 31
0.0
  0
INSERT
  5
8374
  8
3
 62
     0
  2
_DOT
 10
983.18594647004727
 20
1790.6240274174691
 30
0.0
 41
50.0
 42
50.0
 43
50.0
 50
270.0
  0
INSERT
  5
8375
  8
3
 62
     0
  2
_OPEN
 10
983.18594647004727
 20
1715.6240274174691
 30
0.0
 41
50.0
 42
50.0
 43
50.0
 50
90.0
  0
TEXT
  8
3
  40
75
  5
83B7
  62
0
  72
0
  71
0
 10
770.686
 20
1397.16
 30
0.000000
  1
75
  0
POINT
  5
8377
  8
DEFPOINTS
 62
     0
 10
1385.5766059737291
 20
1790.6240274174691
 30
0.0
  0
POINT
  5
8378
  8
DEFPOINTS
 62
     0
 10
1385.5766059737291
 20
1715.6240274174691
 30
0.0
  0
POINT
  5
8379
  8
DEFPOINTS
 62
     0
 10
983.18594647004727
 20
1715.6240274174691
 30
0.0
  0
ENDBLK
  5
82BC
  8
0
  0
BLOCK
  8
0
  2
*D17
 70
     1
 10
0.0
 20
0.0
 30
0.0
  3
*D17
  1

  0
LINE
  5
837A
  8
3
 62
     0
 10
1618.07861104633
 20
2835.6240274174679
 30
0.0
 11
729.64625915622719
 21
2835.6240274174688
 31
0.0
  0
LINE
  5
837B
  8
3
 62
     0
 10
1373.0766059737291
 20
1715.6240274174691
 30
0.0
 11
729.64625915622685
 21
1715.6240274174691
 31
0.0
  0
LINE
  5
837C
  8
3
 62
     0
 10
754.64625915622719
 20
2785.6240274174688
 30
0.0
 11
754.64625915622685
 21
1765.6240274174691
 31
0.0
  0
INSERT
  5
837D
  8
3
 62
     0
  2
_OPEN
 10
754.64625915622719
 20
2835.6240274174688
 30
0.0
 41
50.0
 42
50.0
 43
50.0
 50
90.0
  0
INSERT
  5
837E
  8
3
 62
     0
  2
_OPEN
 10
754.64625915622685
 20
1715.6240274174691
 30
0.0
 41
50.0
 42
50.0
 43
50.0
 50
270.0
  0
TEXT
  8
3
  40
75
  5
83B8
  62
0
  72
0
  71
0
 10
542.146
 20
2171.37
 30
0.000000
  1
1120
  0
POINT
  5
8380
  8
DEFPOINTS
 62
     0
 10
1630.57861104633
 20
2835.6240274174679
 30
0.0
  0
POINT
  5
8381
  8
DEFPOINTS
 62
     0
 10
1385.5766059737291
 20
1715.6240274174691
 30
0.0
  0
POINT
  5
8382
  8
DEFPOINTS
 62
     0
 10
754.64625915622685
 20
1715.6240274174691
 30
0.0
  0
ENDBLK
  5
82AF
  8
0
  0
BLOCK
  8
0
  2
*D18
 70
     1
 10
0.0
 20
0.0
 30
0.0
  3
*D18
  1

  0
LINE
  5
8383
  8
3
 62
     0
 10
1635.576605973728
 20
2917.6403121800558
 30
0.0
 11
1635.576605973728
 21
3134.714636260413
 31
0.0
  0
LINE
  5
8384
  8
3
 62
     0
 10
1235.576605973728
 20
2425.4770852860602
 30
0.0
 11
1235.576605973728
 21
3134.714636260413
 31
0.0
  0
LINE
  5
8385
  8
3
 62
     0
 10
1585.5766059737291
 20
3109.714636260413
 30
0.0
 11
1285.5766059737271
 21
3109.714636260413
 31
0.0
  0
INSERT
  5
8386
  8
3
 62
     0
  2
_OPEN
 10
1635.576605973728
 20
3109.714636260413
 30
0.0
 41
50.0
 42
50.0
 43
50.0
  0
INSERT
  5
8387
  8
3
 62
     0
  2
_OPEN
 10
1235.576605973728
 20
3109.714636260413
 30
0.0
 41
50.0
 42
50.0
 43
50.0
 50
180.0
  0
TEXT
  8
3
  40
75
  5
83B9
  62
0
  72
0
  71
0
 10
1285.58
 20
3039.46
 30
0.000000
  1
400
  0
POINT
  5
8389
  8
DEFPOINTS
 62
     0
 10
1635.576605973728
 20
2905.1403121800572
 30
0.0
  0
POINT
  5
838A
  8
DEFPOINTS
 62
     0
 10
1235.576605973728
 20
2412.9770852860602
 30
0.0
  0
POINT
  5
838B
  8
DEFPOINTS
 62
     0
 10
1235.576605973728
 20
3109.714636260413
 30
0.0
  0
ENDBLK
  5
81A3
  8
0
  0
BLOCK
  8
0
  2
*D19
 70
     1
 10
0.0
 20
0.0
 30
0.0
  3
*D19
  1

  0
LINE
  5
838C
  8
3
 62
     0
 10
1235.576605973728
 20
2458.1240274174688
 30
0.0
 11
1235.576605973728
 21
3274.1784113053031
 31
0.0
  0
LINE
  5
838D
  8
3
 62
     0
 10
2535.576605973728
 20
1973.1240274174691
 30
0.0
 11
2535.576605973728
 21
3274.1784113053031
 31
0.0
  0
LINE
  5
838E
  8
3
 62
     0
 10
1285.5766059737271
 20
3249.1784113053031
 30
0.0
 11
2485.576605973728
 21
3249.1784113053031
 31
0.0
  0
INSERT
  5
838F
  8
3
 62
     0
  2
_OPEN
 10
1235.576605973728
 20
3249.1784113053031
 30
0.0
 41
50.0
 42
50.0
 43
50.0
 50
180.0
  0
INSERT
  5
8390
  8
3
 62
     0
  2
_OPEN
 10
2535.576605973728
 20
3249.1784113053031
 30
0.0
 41
50.0
 42
50.0
 43
50.0
  0
TEXT
  8
3
  40
75
  5
83BA
  62
0
  72
0
  71
0
 10
1735.58
 20
3178.93
 30
0.000000
  1
1300
  0
POINT
  5
8392
  8
DEFPOINTS
 62
     0
 10
1235.576605973728
 20
2445.6240274174688
 30
0.0
  0
POINT
  5
8393
  8
DEFPOINTS
 62
     0
 10
2535.576605973728
 20
1960.6240274174691
 30
0.0
  0
POINT
  5
8394
  8
DEFPOINTS
 62
     0
 10
2535.576605973728
 20
3249.1784113053031
 30
0.0
  0
ENDBLK
  5
818D
  8
0
  0
BLOCK
  8
0
  2
*D20
 70
     1
 10
0.0
 20
0.0
 30
0.0
  3
*D20
  1

  0
LINE
  5
8395
  8
3
 62
     0
 10
1373.069580980288
 20
5177.9477063339909
 30
0.0
 11
1031.3212228303471
 21
5177.9477063339909
 31
0.0
  0
LINE
  5
8396
  8
3
 62
     0
 10
1373.075560121566
 20
4077.9477063502391
 30
0.0
 11
1031.3212228303471
 21
4077.9477063502391
 31
0.0
  0
LINE
  5
8397
  8
3
 62
     0
 10
1056.3212228303471
 20
5127.9477063339909
 30
0.0
 11
1056.3212228303471
 21
4127.94770635024
 31
0.0
  0
INSERT
  5
8398
  8
3
 62
     0
  2
_OPEN
 10
1056.3212228303471
 20
5177.9477063339909
 30
0.0
 41
50.0
 42
50.0
 43
50.0
 50
90.0
  0
INSERT
  5
8399
  8
3
 62
     0
  2
_OPEN
 10
1056.3212228303471
 20
4077.9477063502391
 30
0.0
 41
50.0
 42
50.0
 43
50.0
 50
270.0
  0
TEXT
  8
3
  40
75
  5
83BB
  62
0
  72
0
  71
0
 10
843.821
 20
4495.20
 30
0.000000
  1
1100
  0
POINT
  5
839B
  8
DEFPOINTS
 62
     0
 10
1385.569580980288
 20
5177.9477063339909
 30
0.0
  0
POINT
  5
839C
  8
DEFPOINTS
 62
     0
 10
1385.5755601215669
 20
4077.9477063502391
 30
0.0
  0
POINT
  5
839D
  8
DEFPOINTS
 62
     0
 10
1056.3212228303471
 20
4077.9477063502391
 30
0.0
  0
ENDBLK
  5
802E
  8
0
  0
BLOCK
  8
0
  2
*D21
 70
     1
 10
0.0
 20
0.0
 30
0.0
  3
*D21
  1

  0
LINE
  5
839E
  8
3
 62
     0
 10
2548.0740999451032
 20
4677.9539572715939
 30
0.0
 11
2809.281522999348
 21
4677.9539572715939
 31
0.0
  0
LINE
  5
839F
  8
3
 62
     0
 10
2548.075560104573
 20
4077.9539572706681
 30
0.0
 11
2809.281522999348
 21
4077.9539572706681
 31
0.0
  0
LINE
  5
83A0
  8
3
 62
     0
 10
2784.281522999348
 20
4627.9539572715948
 30
0.0
 11
2784.281522999348
 21
4127.9539572706681
 31
0.0
  0
INSERT
  5
83A1
  8
3
 62
     0
  2
_OPEN
 10
2784.281522999348
 20
4677.9539572715939
 30
0.0
 41
50.0
 42
50.0
 43
50.0
 50
90.0
  0
INSERT
  5
83A2
  8
3
 62
     0
  2
_OPEN
 10
2784.281522999348
 20
4077.9539572706681
 30
0.0
 41
50.0
 42
50.0
 43
50.0
 50
270.0
  0
TEXT
  8
3
  40
75
  5
83BC
  62
0
  72
0
  71
0
 10
2571.78
 20
4245.20
 30
0.000000
  1
600
  0
POINT
  5
83A4
  8
DEFPOINTS
 62
     0
 10
2535.5740999451032
 20
4677.9539572715939
 30
0.0
  0
POINT
  5
83A5
  8
DEFPOINTS
 62
     0
 10
2535.575560104573
 20
4077.9539572706681
 30
0.0
  0
POINT
  5
83A6
  8
DEFPOINTS
 62
     0
 10
2784.281522999348
 20
4077.9539572706681
 30
0.0
  0
ENDBLK
  5
8023
  8
0
  0
BLOCK
  8
0
  2
_DOT
 70
     0
 10
0.0
 20
0.0
 30
0.0
  3
_DOT
  1

  0
POLYLINE
  5
81EC
  8
0
  6
BYBLOCK
 62
     0
 66
     1
 10
0.0
 20
0.0
 30
0.0
 70
     1
 40
0.25
 41
0.25
  0
VERTEX
  5
83A7
  8
0
  6
BYBLOCK
 62
     0
 10
-0.125
 20
0.0
 30
0.0
 42
1.0
  0
VERTEX
  5
83A8
  8
0
  6
BYBLOCK
 62
     0
 10
0.125
 20
0.0
 30
0.0
 42
1.0
  0
SEQEND
  5
83A9
  8
0
  6
BYBLOCK
 62
     0
  0
LINE
  5
81F0
  8
0
  6
BYBLOCK
 62
     0
 10
-0.25
 20
0.0
 30
0.0
 11
-1.0
 21
0.0
 31
0.0
  0
ENDBLK
  5
81CE
  8
0
  0
BLOCK
  8
0
  2
*D23
 70
     1
 10
0.0
 20
0.0
 30
0.0
  3
*D23
  1

  0
LINE
  5
8288
  8
0
  6
BYBLOCK
 62
     0
 10
4220.0155503706692
 20
2763.124027423682
 30
0.0
 11
4220.0155503706692
 21
3113.5072187645501
 31
0.0
  0
LINE
  5
8289
  8
0
  6
BYBLOCK
 62
     0
 10
4055.0155503706692
 20
3088.5072187645501
 30
0.0
 11
4170.0155503706692
 21
3088.5072187645501
 31
0.0
  0
TEXT
  5
828A
  8
1
 62
     0
 10
4023.2298360849541
 20
3121.8851151439671
 30
0.0
 40
75.0
  1
215
  0
INSERT
  5
828B
  8
0
  6
BYBLOCK
 62
     0
  2
_OPEN
 10
4005.0155503706692
 20
3088.5072187645501
 30
0.0
 41
50.0
 42
50.0
 43
50.0
 50
180.0
  0
INSERT
  5
828C
  8
0
  6
BYBLOCK
 62
     0
  2
_OPEN
 10
4220.0155503706692
 20
3088.5072187645501
 30
0.0
 41
50.0
 42
50.0
 43
50.0
  0
POINT
  5
828D
  8
DEFPOINTS
  6
BYBLOCK
 62
     0
 10
4005.0155503706692
 20
3031.179715023507
 30
0.0
  0
POINT
  5
828E
  8
DEFPOINTS
  6
BYBLOCK
 62
     0
 10
4220.0155503706692
 20
2750.6240274236829
 30
0.0
  0
POINT
  5
828F
  8
DEFPOINTS
  6
BYBLOCK
 62
     0
 10
4220.0155503706692
 20
3088.5072187645501
 30
0.0
  0
ENDBLK
  5
8290
  8
0
  0
ENDSEC
  0
SECTION
  2
ENTITIES
  0
LINE
  5
7CA7
  8
1
 10
3192.5155503706669
 20
2382.4240274236799
 30
0.0
 11
3707.5155503706669
 21
2382.4240274236799
 31
0.0
  0
LINE
  5
7CA8
  8
1
 10
3198.0155503706669
 20
1960.62402742368
 30
0.0
 11
3198.0155503706678
 21
2123.626560544707
 31
0.0
  0
LINE
  5
7CA9
  8
1
 10
3200.0155503706669
 20
1960.62402742368
 30
0.0
 11
4260.0155503706701
 21
1960.62402742368
 31
0.0
  0
LINE
  5
7CAA
  8
1
 10
3160.0155503706669
 20
1885.62402742368
 30
0.0
 11
4260.0155503706701
 21
1885.62402742368
 31
0.0
  0
LINE
  5
7CAB
  8
1
 10
1855.5760075337471
 20
2329.2228963523739
 30
0.0
 11
2179.1589418484132
 21
2329.2212327439179
 31
0.0
  0
LINE
  5
7CAC
  8
1
 10
1855.575961262839
 20
2320.2228963524922
 30
0.0
 11
2176.227382594187
 21
2320.2212478155661
 31
0.0
  0
LINE
  5
7CAD
  8
1
 10
1243.5155507288009
 20
2320.2260430848019
 30
0.0
 11
1415.575961268652
 21
2320.225158485759
 31
0.0
  0
LINE
  5
7CAE
  8
1
 10
1241.8827209284409
 20
2329.2260514796449
 30
0.0
 11
1415.5760075395599
 21
2329.2251584856408
 31
0.0
  0
LINE
  5
7CAF
  8
1
 10
1415.5745494918469
 20
1960.6251584893889
 30
0.0
 11
1415.5762646001581
 21
2379.2251584849801
 31
0.0
  0
LINE
  5
7CB0
  8
1
 10
1855.5745494860321
 20
1960.6228963561209
 30
0.0
 11
1855.576264594346
 21
2379.2228963517118
 31
0.0
  0
LINE
  5
7CB1
  8
1
 10
1885.576281045827
 20
2382.4227421153109
 30
0.0
 11
1385.576281052435
 21
2382.425312721296
 31
0.0
  0
LINE
  5
7CB2
  8
1
 10
3157.5155503706669
 20
2470.6240274236811
 30
0.0
 11
3792.5155503706669
 21
2470.6240274236802
 31
0.0
  0
LINE
  5
7CB3
  8
1
 10
3157.5155503706678
 20
2420.6240274236811
 30
0.0
 11
3790.5155503706678
 21
2420.6240274236811
 31
0.0
  0
LINE
  5
7CB4
  8
1
 10
3157.5155503706669
 20
2400.6240274236802
 30
0.0
 11
3157.5155503706669
 21
2490.6240274236811
 31
0.0
  0
LINE
  5
7CB5
  8
1
 10
3137.5155503706669
 20
2048.605038744769
 30
0.0
 11
3137.5155503706669
 21
2226.605038744769
 31
0.0
  0
LINE
  5
7CB6
  8
1
 10
3074.5155503706669
 20
2048.605038744769
 30
0.0
 11
3074.5155503706669
 21
2226.605038744769
 31
0.0
  0
LINE
  5
7CB7
  8
1
 10
3137.5155503706669
 20
2490.6240274236811
 30
0.0
 11
3157.5155503706669
 21
2490.6240274236811
 31
0.0
  0
LINE
  5
7CB8
  8
1
 10
3137.5155503706669
 20
2400.6240274236802
 30
0.0
 11
3157.5155503706669
 21
2400.6240274236802
 31
0.0
  0
LINE
  5
7CB9
  8
1
 10
3159.5155503706669
 20
2102.6257111620498
 30
0.0
 11
3159.5155503706669
 21
2172.6257111620512
 31
0.0
  0
LINE
  5
7CBA
  8
1
 10
3137.5155503706669
 20
2172.6257111620512
 30
0.0
 11
3159.5155503706669
 21
2172.6257111620512
 31
0.0
  0
LINE
  5
7CBB
  8
1
 10
3137.5155503706669
 20
2102.6257111620498
 30
0.0
 11
3159.5155503706669
 21
2102.6257111620498
 31
0.0
  0
LINE
  5
7CBC
  8
1
 10
3054.5155503706692
 20
1982.6050387447699
 30
0.0
 11
3054.5155503706692
 21
2545.6240274236811
 31
0.0
  0
LINE
  5
7CBD
  8
1
 10
3176.5155503706692
 20
1982.605038744771
 30
0.0
 11
3176.5155503706669
 21
1998.7893871689209
 31
0.0
  0
LINE
  5
7CBE
  8
2
 10
3023.6353086566291
 20
2445.6240274236811
 30
0.0
 11
4288.4420062418349
 21
2445.6240274236811
 31
0.0
  0
LINE
  5
7CBF
  8
2
 10
3023.6353086566291
 20
2137.6257111620498
 30
0.0
 11
3634.6763329140672
 21
2137.6257111620498
 31
0.0
  0
LINE
  5
7CC0
  8
1
 10
2535.575560104578
 20
4077.9539572706681
 30
0.0
 11
2349.575033823271
 21
4077.952946249372
 31
0.0
  0
LINE
  5
7CC1
  8
1
 10
1385.5755601215669
 20
4077.9477063502391
 30
0.0
 11
1385.575353569413
 21
4115.9477063501809
 31
0.0
  0
LINE
  5
7CC2
  8
1
 10
1385.569580980288
 20
5177.9477063339909
 30
0.0
 11
1885.5695809729009
 21
5177.9504241254817
 31
0.0
  0
LINE
  5
7CC3
  8
1
 10
1885.5722987643919
 20
4677.9504241328659
 30
0.0
 11
1885.572285175434
 21
4680.4504241328304
 31
0.0
  0
LINE
  5
7CC4
  8
1
 10
2535.5740999451032
 20
4677.9539572715939
 30
0.0
 11
1885.5722987643919
 21
4677.9504241328677
 31
0.0
  0
LINE
  5
7CC5
  8
1
 10
1235.5699573127381
 20
5137.9468909979969
 30
0.0
 11
1625.5699573069801
 21
5137.9490108753598
 31
0.0
  0
LINE
  5
7CC6
  8
2
 10
2335.5735221489672
 20
4494.1625957967781
 30
0.0
 11
2335.5759249738489
 21
3832.592202522173
 31
0.0
  0
LINE
  5
7CC7
  8
2
 10
1635.5768619188859
 20
3832.3338795909081
 30
0.0
 11
1635.569570893229
 21
5211.0172499997016
 31
0.0
  0
LINE
  5
7CCE
  8
1
 10
2465.5747808325059
 20
2005.624258771413
 30
0.0
 11
2415.574780833168
 21
2005.624515832011
 31
0.0
  0
LINE
  5
7CCF
  8
1
 10
2465.5747808325059
 20
2005.624258771413
 30
0.0
 11
2465.5748579506871
 21
2020.624258771215
 31
0.0
  0
LINE
  5
7CD0
  8
1
 10
2465.5748579506871
 20
2020.624258771215
 30
0.0
 11
2416.9213391290659
 21
2020.6245089092679
 31
0.0
  0
LINE
  5
7CD1
  8
1
 10
2415.5748531969389
 20
2019.699751681118
 30
0.0
 11
2415.574780833168
 21
2005.624515832011
 31
0.0
  0
LINE
  5
7CD2
  8
1
 10
2398.974031815636
 20
2010.0049011710009
 30
0.0
 11
2272.1755748929122
 21
2010.005553068745
 31
0.0
  0
LINE
  5
7CD3
  8
1
 10
2465.5748579506871
 20
2020.624258771215
 30
0.0
 11
2451.5457561631629
 21
2054.8170755316478
 31
0.0
  0
LINE
  5
7CD4
  8
1
 10
2205.5748579541232
 20
2020.625595486327
 30
0.0
 11
2219.6043113259429
 21
2054.8182679917809
 31
0.0
  0
LINE
  5
7CD5
  8
1
 10
2255.574853199053
 20
2019.7005742750339
 30
0.0
 11
2255.5747808352821
 21
2005.6253384259271
 31
0.0
  0
LINE
  5
7CD6
  8
1
 10
2205.5748579541232
 20
2020.625595486327
 30
0.0
 11
2254.2283767757458
 21
2020.6253453482741
 31
0.0
  0
LINE
  5
7CD7
  8
1
 10
2205.5747808359429
 20
2005.6255954865251
 30
0.0
 11
2205.5748579541232
 21
2020.625595486327
 31
0.0
  0
LINE
  5
7CD8
  8
2
 10
2559.088094519781
 20
2137.6237780013898
 30
0.0
 11
2183.0754594762211
 21
2137.6257111620498
 31
0.0
  0
ARC
  5
7CD9
  8
1
 10
2335.5754594742052
 20
2137.6249271272241
 30
0.0
 40
142.0
 50
296.41708569015321
 51
243.58232517035151
  0
CIRCLE
  5
7CDA
  8
1
 10
2335.5754594742052
 20
2137.6249271272241
 30
0.0
 40
19.0
  0
LINE
  5
7CDB
  8
2
 10
2335.574498055089
 20
1950.61800172163
 30
0.0
 11
2335.5762435090301
 21
2290.1249271252091
 31
0.0
  0
POLYLINE
  5
7CDC
  8
1
 66
     1
 10
0.0
 20
0.0
 30
0.0
 70
     1
  0
VERTEX
  5
82F4
  8
1
 10
2510.5745494773728
 20
1960.6240274174691
 30
0.0
  0
VERTEX
  5
82F5
  8
1
 10
2160.5745494819989
 20
1960.6258268416591
 30
0.0
  0
VERTEX
  5
82F6
  8
1
 10
2170.5747808364049
 20
2005.6257754289441
 30
0.0
  0
VERTEX
  5
82F7
  8
1
 10
2500.5747808320448
 20
2005.624078828994
 30
0.0
  0
SEQEND
  5
82F8
  8
1
  0
LINE
  5
7CF4
  8
1
 10
2235.5784825081678
 20
2810.6209426854639
 30
0.0
 11
2201.3565011696251
 21
2439.3449590920391
 31
0.0
  0
ARC
  5
7CF5
  8
1
 10
1602.5764363141691
 20
2412.6241970779001
 30
0.0
 40
367.0
 50
89.999705430251765
 51
180.6696211545482
  0
ARC
  5
7CF6
  8
1
 10
1677.5763900422689
 20
2403.6238114871221
 30
0.0
 40
442.0
 50
179.3892673057359
 51
270.0566347979169
  0
ARC
  5
7CF7
  8
1
 10
1677.576821904076
 20
2487.6238114860112
 30
0.0
 40
526.0
 50
269.94808381980619
 51
354.73370113302042
  0
LINE
  5
7D32
  8
1
 10
1905.5762645936841
 20
2379.2226392911139
 30
0.0
 11
1365.5762646008191
 21
2379.2254155455789
 31
0.0
  0
LINE
  5
7D33
  8
1
 10
1905.5760075330861
 20
2329.2226392917751
 30
0.0
 11
1905.5762645936841
 21
2379.2226392911139
 31
0.0
  0
LINE
  5
7D34
  8
1
 10
1365.5760075402211
 20
2329.2254155462392
 30
0.0
 11
1365.5762646008191
 21
2379.2254155455789
 31
0.0
  0
DIMENSION
  5
7D36
  8
3
  2
*D1
 10
4217.515550370671
 20
2920.9722291306921
 30
0.0
 11
4016.9284327231562
 21
2920.9722291306921
 31
0.0
 70
   128
 13
3792.5155503706678
 23
2810.6240274236802
 33
0.0
 14
4217.515550370671
 24
2810.6240274236802
 34
0.0
1001
ACAD
1000
DSTYLE
1002
{
1070
   287
1070
     3
1070
    40
1040
25.0
1070
   143
1040
0.039
1070
   172
1070
     1
1070
   271
1070
     0
1070
   279
1070
     0
1070
   288
1070
     1
1002
}
  0
LINE
  5
7D37
  8
1
 10
3137.5155503706669
 20
2226.605038744769
 30
0.0
 11
3137.5155503706669
 21
2523.124027423677
 31
0.0
  0
LINE
  5
7D38
  8
1
 10
3074.5155503706669
 20
2226.605038744769
 30
0.0
 11
3074.5155503706669
 21
2523.124027423677
 31
0.0
  0
LINE
  5
7D39
  8
1
 10
2260.578595614501
 20
2832.620814154875
 30
0.0
 11
1630.5785956228269
 21
2832.6240531184171
 31
0.0
  0
LINE
  5
7D3A
  8
1
 10
4217.5155503706656
 20
1960.62402742368
 30
0.0
 11
4217.5155503706692
 21
2465.6240274236811
 31
0.0
  0
LINE
  5
7D3B
  8
1
 10
3792.515550370666
 20
1960.62402742368
 30
0.0
 11
3792.5155503706669
 21
2440.6240274236802
 31
0.0
  0
LINE
  5
7D3C
  8
1
 10
3192.5155503706669
 20
2379.2240274236801
 30
0.0
 11
3707.5155503706669
 21
2379.224027423681
 31
0.0
  0
LINE
  5
7D3D
  8
1
 10
3707.5155503706669
 20
2382.4240274236799
 30
0.0
 11
3707.5155503706669
 21
2379.224027423681
 31
0.0
  0
LINE
  5
7D3E
  8
1
 10
3697.5155503706669
 20
2379.224027423681
 30
0.0
 11
3697.5155503706669
 21
1960.62402742368
 31
0.0
  0
LINE
  5
7D3F
  8
1
 10
3192.5155503706669
 20
2382.4240274236799
 30
0.0
 11
3192.5155503706669
 21
2379.2240274236801
 31
0.0
  0
POLYLINE
  5
7D40
  8
1
 66
     1
 10
0.0
 20
0.0
 30
0.0
 70
     1
  0
VERTEX
  5
8302
  8
1
 10
3697.5155503706669
 20
2329.224027423681
 30
0.0
  0
VERTEX
  5
8303
  8
1
 10
3747.5155503706669
 20
2329.224027423681
 30
0.0
  0
VERTEX
  5
8304
  8
1
 10
3747.5155503706669
 20
2330.724027423681
 30
0.0
 42
0.4142135623730951
  0
VERTEX
  5
8305
  8
1
 10
3743.0155503706669
 20
2335.2240274236801
 30
0.0
  0
VERTEX
  5
8306
  8
1
 10
3710.0155503706669
 20
2335.2240274236801
 30
0.0
 42
-0.4142135623730951
  0
VERTEX
  5
8307
  8
1
 10
3703.5155503706669
 20
2341.724027423681
 30
0.0
  0
VERTEX
  5
8308
  8
1
 10
3703.5155503706669
 20
2374.724027423681
 30
0.0
 42
0.4142135623730951
  0
VERTEX
  5
8309
  8
1
 10
3699.0155503706669
 20
2379.224027423681
 30
0.0
  0
VERTEX
  5
830A
  8
1
 10
3697.5155503706669
 20
2379.224027423681
 30
0.0
  0
SEQEND
  5
830B
  8
1
  0
LINE
  5
7D4B
  8
1
 10
3725.5155503706669
 20
2329.224027423681
 30
0.0
 11
3790.5155503706669
 21
2329.224027423681
 31
0.0
  0
LINE
  5
7D4C
  8
1
 10
3725.5155503706669
 20
2323.224027423681
 30
0.0
 11
3790.5155503706669
 21
2323.224027423681
 31
0.0
  0
LINE
  5
7D4D
  8
1
 10
3725.5155503706669
 20
2323.224027423681
 30
0.0
 11
3725.5155503706669
 21
2329.224027423681
 31
0.0
  0
LINE
  5
7D4E
  8
1
 10
1885.576281045827
 20
2382.4227421153109
 30
0.0
 11
1885.576264593949
 21
2379.222742115353
 31
0.0
  0
LINE
  5
7D4F
  8
1
 10
1385.576281052435
 20
2382.425312721296
 30
0.0
 11
1385.576264600556
 21
2379.2253127213389
 31
0.0
  0
LINE
  5
7D50
  8
1
 10
3792.5155503706678
 20
2810.6240274236802
 30
0.0
 11
4217.515550370671
 21
2810.6240274236802
 31
0.0
  0
ARC
  5
7D53
  8
1
 10
1627.547411619121
 20
2549.629269393005
 30
0.0
 40
227.59448069142181
 50
48.089937534054201
 51
87.978270708224613
  0
ARC
  5
7D54
  8
1
 10
1802.278243961659
 20
2764.2231703732232
 30
0.0
 40
50.600000000000001
 50
243.3373351108568
 51
16.916917663124821
  0
LINE
  5
7D55
  8
1
 10
1834.3633340186659
 20
2832.6230054178791
 30
0.0
 11
1850.688665937168
 21
2778.9469961040982
 31
0.0
  0
LINE
  5
7D56
  8
1
 10
4220.0155503706701
 20
2445.6240274236811
 30
0.0
 11
4220.0155503706692
 21
2155.6240274236802
 31
0.0
  0
LINE
  5
7D57
  8
1
 10
4260.0155503706701
 20
1885.62402742368
 30
0.0
 11
4260.0155503706701
 21
1960.62402742368
 31
0.0
  0
LINE
  5
7D58
  8
2
 10
4005.0155503706669
 20
1639.29056758809
 30
0.0
 11
4005.0155503706692
 21
2914.4374183741611
 31
0.0
  0
LINE
  5
7D59
  8
1
 10
3200.0155503706669
 20
1885.62402742368
 30
0.0
 11
3160.0155503706669
 21
1885.62402742368
 31
0.0
  0
LINE
  5
7D5A
  8
1
 10
3160.0155503706669
 20
1885.62402742368
 30
0.0
 11
3160.0155503706669
 21
1887.4276511159071
 31
0.0
  0
LINE
  5
7D5B
  8
1
 10
3160.0155503706669
 20
1958.820403731454
 30
0.0
 11
3160.0155503706669
 21
1960.62402742368
 31
0.0
  0
LINE
  5
7D5C
  8
1
 10
3160.0155503706669
 20
1960.62402742368
 30
0.0
 11
3200.0155503706669
 21
1960.62402742368
 31
0.0
  0
CIRCLE
  5
7D5F
  8
1
 10
1635.576605973728
 20
2445.6240274174688
 30
0.0
 40
72.5
  0
CIRCLE
  5
7D60
  8
1
 10
2335.5754594742052
 20
2137.6249271272241
 30
0.0
 40
89.0
  0
LINE
  5
7D61
  8
1
 10
3074.5155503706669
 20
2518.124027423677
 30
0.0
 11
3137.5155503706669
 21
2518.124027423677
 31
0.0
  0
LINE
  5
7D62
  8
1
 10
3074.5155503706669
 20
2373.1240274236839
 30
0.0
 11
3137.5155503706669
 21
2373.1240274236839
 31
0.0
  0
LINE
  5
7D63
  8
1
 10
3074.5155503706669
 20
2226.605038744769
 30
0.0
 11
3137.5155503706669
 21
2226.605038744769
 31
0.0
  0
LINE
  5
7D64
  8
1
 10
3074.5155503706669
 20
2048.605038744769
 30
0.0
 11
3137.5155503706692
 21
2048.605038744769
 31
0.0
  0
LINE
  5
7D65
  8
1
 10
4220.0155503706692
 20
2140.6240274236802
 30
0.0
 11
4220.0155503706692
 21
2165.6240274236802
 31
0.0
  0
LINE
  5
7D66
  8
1
 10
1655.5710266604001
 20
2515.3124277535671
 30
0.0
 11
2360.1203345240519
 21
2223.1734461605042
 31
0.0
  0
LINE
  5
7D67
  8
1
 10
1612.466515440681
 20
2376.9059532625979
 30
0.0
 11
2307.2058310957082
 21
2053.26756713021
 31
0.0
  0
LINE
  5
7D68
  8
1
 10
2235.5784825081678
 20
2810.6209426854639
 30
0.0
 11
1655.576605973728
 21
2810.623924598056
 31
0.0
  0
LINE
  5
7D69
  8
1
 10
4223.0155503706692
 20
2158.6240274236779
 30
0.0
 11
4223.0155503706692
 21
2445.6240274236811
 31
0.0
  0
LINE
  5
7D6A
  8
1
 10
4260.0155503706701
 20
2165.6240274236789
 30
0.0
 11
4260.0155503706701
 21
2725.6240274236802
 31
0.0
  0
DIMENSION
  5
7D6B
  8
3
  2
*D2
 10
4413.6278381594693
 20
2165.6240274236789
 30
0.0
 11
4413.6278381594693
 21
2445.6240274236789
 31
0.0
 70
   128
 13
4261.8155503706703
 23
2725.6240274236802
 33
0.0
 14
4261.8155503706703
 24
2165.6240274236789
 34
0.0
 50
90.0
1001
ACAD
1000
DSTYLE
1002
{
1070
   287
1070
     3
1070
     3
1000
φ<>
1070
    40
1040
25.0
1070
   143
1040
0.039
1070
   172
1070
     1
1070
   271
1070
     0
1070
   279
1070
     0
1070
   288
1070
     1
1002
}
  0
ARC
  5
7D6C
  8
1
 10
2335.5754594742052
 20
2137.6249271272241
 30
0.0
 40
150.0
 50
248.7911368307106
 51
76.612112330202805
  0
ARC
  5
7D6D
  8
1
 10
1638.0687995702219
 20
2442.4195782497281
 30
0.0
 40
102.5891975502981
 50
78.380837333272595
 51
247.85625945725451
  0
LINE
  5
7D6E
  8
1
 10
2370.306797492553
 20
2283.5486543255629
 30
0.0
 11
1658.730831319293
 21
2542.906512216362
 31
0.0
  0
LINE
  5
7D6F
  8
1
 10
2281.3101412278161
 20
1997.7847496544471
 30
0.0
 11
1599.3997014367401
 21
2347.397242435683
 31
0.0
  0
LINE
  5
7D70
  8
1
 10
3054.5155503706669
 20
2545.6240274236811
 30
0.0
 11
3176.5155503706669
 21
2545.6240274236811
 31
0.0
  0
LINE
  5
7D71
  8
1
 10
3176.5155503706669
 20
2512.2514123875499
 30
0.0
 11
3176.5155503706669
 21
2545.6240274236811
 31
0.0
  0
LINE
  5
7D72
  8
1
 10
3054.5155503706692
 20
1982.6050387447699
 30
0.0
 11
3176.5155503706692
 21
1982.605038744771
 31
0.0
  0
LINE
  5
7D73
  8
1
 10
3771.5671417664498
 20
2445.6240274236811
 30
0.0
 11
3771.5671417664498
 21
2445.6240274236811
 31
0.0
  0
LINE
  5
7D74
  8
1
 10
4240.7155503706681
 20
2725.6240274236802
 30
0.0
 11
4260.0155503706701
 21
2725.6240274236802
 31
0.0
  0
LINE
  5
7D75
  8
1
 10
4260.0155503706701
 20
2725.6240274236802
 30
0.0
 11
4260.0155503706701
 21
2726.6240274236802
 31
0.0
  0
LINE
  5
7D76
  8
1
 10
4240.7155503706681
 20
2728.6240274236811
 30
0.0
 11
4258.0155503706692
 21
2728.6240274236811
 31
0.0
  0
ARC
  5
7D77
  8
1
 10
4258.0155503706692
 20
2726.6240274236802
 30
0.0
 40
2.0
 50
359.9999999999992
 51
89.999999999999588
  0
ARC
  5
7D78
  8
1
 10
4227.0155503706683
 20
2158.6240274236779
 30
0.0
 40
4.0
 50
90.0
 51
180.0
  0
ARC
  5
7D79
  8
1
 10
4221.0155503706692
 20
2142.6240274236779
 30
0.0
 40
2.0
 50
269.9999999999992
 51
0.0
  0
LINE
  5
7D7A
  8
1
 10
4223.0155503706692
 20
2158.6240274236779
 30
0.0
 11
4223.0155503706692
 21
2142.6240274236779
 31
0.0
  0
ARC
  5
7D7B
  8
1
 10
4258.0155503706692
 20
2164.6240274236779
 30
0.0
 40
2.0
 50
270.0000000000004
 51
0.0000000000008142
  0
LINE
  5
7D7C
  8
1
 10
4227.0155503706683
 20
2162.6240274236779
 30
0.0
 11
4258.0155503706692
 21
2162.6240274236779
 31
0.0
  0
LINE
  5
7D7D
  8
1
 10
4260.0155503706701
 20
2165.6240274236789
 30
0.0
 11
4260.0155503706701
 21
2164.6240274236779
 31
0.0
  0
LINE
  5
7D7E
  8
1
 10
4220.0155503706692
 20
2165.6240274236789
 30
0.0
 11
4260.0155503706701
 21
2165.6240274236789
 31
0.0
  0
LINE
  5
7D7F
  8
1
 10
4220.0155503706692
 20
2140.6240274236789
 30
0.0
 11
4221.0155503706692
 21
2140.6240274236789
 31
0.0
  0
LINE
  5
7D80
  8
1
 10
4220.0155503706692
 20
2165.6240274236789
 30
0.0
 11
4220.0155503706692
 21
2140.6240274236789
 31
0.0
  0
LINE
  5
7D93
  8
1
 10
3160.0155503706669
 20
1885.62402742368
 30
0.0
 11
3160.0155503706669
 21
1960.62402742368
 31
0.0
  0
LINE
  5
7D94
  8
1
 10
3160.0155503706669
 20
1790.62402742368
 30
0.0
 11
4260.0155503706701
 21
1790.62402742368
 31
0.0
  0
LINE
  5
7D95
  8
1
 10
3160.0155503706669
 20
1715.62402742368
 30
0.0
 11
4260.0155503706701
 21
1715.62402742368
 31
0.0
  0
LINE
  5
7D96
  8
1
 10
3160.0155503706669
 20
1790.62402742368
 30
0.0
 11
3160.0155503706669
 21
1715.62402742368
 31
0.0
  0
LINE
  5
7D97
  8
1
 10
4260.0155503706701
 20
1790.62402742368
 30
0.0
 11
4260.0155503706701
 21
1715.62402742368
 31
0.0
  0
LINE
  5
7D98
  8
2
 10
1635.576605973728
 20
3108.207531094758
 30
0.0
 11
1635.576605973728
 21
1677.0388877348289
 31
0.0
  0
LINE
  5
7D99
  8
1
 10
2535.576605973728
 20
1960.6240274174691
 30
0.0
 11
2535.576605973728
 21
1885.6240274174691
 31
0.0
  0
LINE
  5
7D9A
  8
1
 10
2535.576605973728
 20
1790.6194003199139
 30
0.0
 11
2535.576605973728
 21
1715.6194003189239
 31
0.0
  0
DIMENSION
  5
7D9B
  8
3
  2
*D3
 10
1635.576605973728
 20
1547.838082076137
 30
0.0
 11
2085.5766059737289
 21
1610.338082076137
 31
0.0
 70
     0
 13
2535.576605973728
 23
1715.6194003189239
 33
0.0
 14
1635.576605973728
 24
1677.0388877348289
 34
0.0
1001
ACAD
1000
DSTYLE
1002
{
1070
   287
1070
     3
1070
    40
1040
25.0
1070
   143
1040
0.039
1070
   172
1070
     1
1070
   271
1070
     0
1070
   279
1070
     0
1070
   288
1070
     1
1002
}
  0
LINE
  5
7D9C
  8
1
 10
1385.5766059737291
 20
1960.6253127151749
 30
0.0
 11
1385.576605973728
 21
1885.6240274174691
 31
0.0
  0
LINE
  5
7D9D
  8
1
 10
1385.5766059737291
 20
1790.6240274174691
 30
0.0
 11
1385.5766059737291
 21
1715.6240274174691
 31
0.0
  0
DIMENSION
  5
7D9E
  8
3
  2
*D4
 10
1385.5766059737291
 20
1546.8147101155989
 30
0.0
 11
1510.5766059737291
 21
1603.2940750345911
 31
0.0
 12
0.0
 22
-57.0
 32
0.0
 70
   128
 13
1635.576605973728
 23
1677.0388877348289
 33
0.0
 14
1385.5766059737291
 24
1715.6253127126899
 34
0.0
1001
ACAD
1000
DSTYLE
1002
{
1070
   288
1070
     1
1070
   172
1070
     1
1070
    40
1040
25.0
1070
   271
1070
     0
1070
   143
1040
0.039
1002
}
  0
DIMENSION
  5
7DA0
  8
3
  2
*D5
 10
4005.0155503706669
 20
1562.85458650652
 30
0.0
 11
3582.5155503706669
 21
1625.35458650652
 31
0.0
 70
     0
 13
3160.0155503706669
 23
1715.62402742368
 33
0.0
 14
4005.0155503706669
 24
1639.2651211878249
 34
0.0
1001
ACAD
1000
DSTYLE
1002
{
1070
   287
1070
     3
1070
    40
1040
25.0
1070
   143
1040
0.039
1070
   172
1070
     1
1070
   271
1070
     0
1070
   279
1070
     0
1070
   288
1070
     1
1002
}
  0
DIMENSION
  5
7DA1
  8
3
  2
*D6
 10
4260.0155503706701
 20
1563.058314822875
 30
0.0
 11
4132.5155503706683
 21
1618.2721186671531
 31
0.0
 12
0.0
 22
-57.0
 32
0.0
 70
   128
 13
4005.0155503706669
 23
1596.385394177323
 33
0.0
 14
4260.0155503706701
 24
1715.62402742368
 34
0.0
1001
ACAD
1000
DSTYLE
1002
{
1070
   288
1070
     1
1070
   172
1070
     1
1070
    40
1040
25.0
1070
   271
1070
     0
1070
   143
1040
0.039
1002
}
  0
LINE
  5
7DA3
  8
1
 10
2260.578595614501
 20
2832.620814154875
 30
0.0
 11
2260.5786110546569
 21
2835.6240274174702
 31
0.0
  0
LINE
  5
7DA4
  8
1
 10
1630.5785956228269
 20
2832.6240531184162
 30
0.0
 11
1630.578611046463
 21
2835.6240531183762
 31
0.0
  0
LINE
  5
7DA5
  8
2
 10
2274.653726753304
 20
2445.6240274174688
 30
0.0
 11
1176.06032121114
 21
2445.6240274174688
 31
0.0
  0
LINE
  5
7DA6
  8
1
 10
2235.576605973728
 20
2810.6209426951118
 30
0.0
 11
2235.576605973728
 21
2832.6209426954019
 31
0.0
  0
DIMENSION
  5
7DA7
  8
3
  2
*D7
 10
1635.576605973728
 20
3109.714636260413
 30
0.0
 11
1935.576605973728
 21
3172.214636260413
 31
0.0
 70
     0
 13
2235.576605973728
 23
2832.6209426954019
 33
0.0
 14
1635.576605973728
 24
2905.1403121800572
 34
0.0
 50
180.0
1001
ACAD
1000
DSTYLE
1002
{
1070
   287
1070
     3
1070
    40
1040
25.0
1070
   143
1040
0.039
1070
   172
1070
     1
1070
   271
1070
     0
1070
   279
1070
     0
1070
   288
1070
     1
1002
}
  0
LINE
  5
7DA8
  8
1
 10
1655.576605973728
 20
2775.4912004593739
 30
0.0
 11
1655.576605973728
 21
2832.620942695396
 31
0.0
  0
LINE
  5
7DA9
  8
1
 10
1602.5783231389671
 20
2779.6241970730498
 30
0.0
 11
1635.576605973728
 21
2777.0820769800171
 31
0.0
  0
DIMENSION
  5
7DAA
  8
3
  2
*D8
 10
1655.576605973728
 20
2977.039775040625
 30
0.0
 11
1945.576605973728
 21
3039.539775040625
 31
0.0
 70
     0
 13
2235.576605973728
 23
2832.6209426954019
 33
0.0
 14
1655.576605973728
 24
2810.623924598056
 34
0.0
 50
180.0
1001
ACAD
1000
DSTYLE
1002
{
1070
   287
1070
     3
1070
    40
1040
25.0
1070
   143
1040
0.039
1070
   172
1070
     1
1070
   271
1070
     0
1070
   279
1070
     0
1070
   288
1070
     1
1002
}
  0
LINE
  5
7DAB
  8
1
 10
2535.576605973728
 20
1885.6240274174691
 30
0.0
 11
1385.576605973728
 21
1885.6240274174691
 31
0.0
  0
LINE
  5
7DAC
  8
1
 10
2535.576605973728
 20
1790.6240274174691
 30
0.0
 11
1385.5766059737291
 21
1790.6240274174691
 31
0.0
  0
LINE
  5
7DAD
  8
1
 10
2535.576605973728
 20
1715.6240274174691
 30
0.0
 11
1385.5766059737291
 21
1715.6240274174691
 31
0.0
  0
LINE
  5
7DAE
  8
1
 10
2260.5786110546569
 20
2835.6240274174702
 30
0.0
 11
1630.57861104633
 21
2835.6240274174679
 31
0.0
  0
LINE
  5
7DAF
  8
1
 10
1678.053434794024
 20
1961.6240274174691
 30
0.0
 11
1677.1002090143099
 21
1961.6240274174691
 31
0.0
  0
DIMENSION
  5
7DB0
  8
3
  2
*D9
 10
3054.5155503706692
 20
3088.5072187645501
 30
0.0
 11
3529.7655503706692
 21
3213.5072187645501
 31
0.0
 70
     0
  1
MAX\P1010
 13
4005.0155503706692
 23
3031.179715023507
 33
0.0
 14
3054.5155503706692
 24
2545.6240274236811
 34
0.0
1001
ACAD
1000
DSTYLE
1002
{
1070
   287
1070
     3
1070
    40
1040
25.0
1070
   143
1040
0.039
1070
   172
1070
     1
1070
   271
1070
     0
1070
   279
1070
     0
1070
   288
1070
     1
1002
}
  0
LINE
  5
7DB1
  8
2
 10
1210.0197475357579
 20
4922.9467521145361
 30
0.0
 11
2314.0919463720352
 21
4922.9527533905921
 31
0.0
  0
LINE
  5
7DB2
  8
1
 10
1235.572218102659
 20
4710.4468910039714
 30
0.0
 11
1625.5722180969019
 21
4710.4490108813334
 31
0.0
  0
LINE
  5
7DB3
  8
1
 10
1885.56979839622
 20
5137.9504241260729
 30
0.0
 11
1885.5695809729009
 21
5177.9504241254817
 31
0.0
  0
LINE
  5
7DB4
  8
1
 10
1385.5697984036069
 20
5137.9477063345803
 30
0.0
 11
1385.569580980288
 21
5177.9477063339909
 31
0.0
  0
LINE
  5
7DB5
  8
1
 10
1610.575293301285
 20
4025.9488008225312
 30
0.0
 11
1610.5680534837809
 21
4710.4489293249526
 31
0.0
  0
LINE
  5
7DB6
  8
1
 10
1660.575293298489
 20
4025.9493296622782
 30
0.0
 11
1660.568370787551
 21
4680.4492011053844
 31
0.0
  0
LINE
  5
7DB7
  8
1
 10
2424.5959677389769
 20
4005.9540630187789
 30
0.0
 11
2246.5959677489318
 21
4005.952180349278
 31
0.0
  0
LINE
  5
7DB8
  8
1
 10
2424.5966340770578
 20
3942.9540630223032
 30
0.0
 11
2246.5966340870141
 21
3942.952180352801
 31
0.0
  0
LINE
  5
7DB9
  8
1
 10
2490.5968456092642
 20
3922.9547610918898
 30
0.0
 11
1535.5763827153601
 21
3922.948007568672
 31
0.0
  0
LINE
  5
7DBB
  8
1
 10
2490.5968456092642
 20
3922.9547610918898
 30
0.0
 11
2490.5955552402802
 21
4044.954761085065
 31
0.0
  0
LINE
  5
7DBC
  8
1
 10
2490.5955552402802
 20
4044.954761085065
 30
0.0
 11
2349.5751536781572
 21
4044.953269541179
 31
0.0
  0
LINE
  5
7DBD
  8
1
 10
2424.5966340770578
 20
3942.9540630223032
 30
0.0
 11
2424.5959677389769
 21
4005.9540630187812
 31
0.0
  0
LINE
  5
7DBE
  8
1
 10
2370.5750626352269
 20
4027.9534916519729
 30
0.0
 11
2300.5750626391432
 21
4027.952751276327
 31
0.0
  0
LINE
  5
7DBF
  8
1
 10
2370.5752953247161
 20
4005.9534916532039
 30
0.0
 11
2370.5750626352269
 21
4027.9534916519729
 31
0.0
  0
LINE
  5
7DC0
  8
1
 10
2300.5752953286319
 20
4005.9527512775571
 30
0.0
 11
2300.5750626391432
 21
4027.952751276327
 31
0.0
  0
LINE
  5
7DC1
  8
1
 10
1680.5752932973701
 20
4025.949541198177
 30
0.0
 11
1590.5752933024039
 21
4025.948589286631
 31
0.0
  0
LINE
  5
7DC2
  8
1
 10
2246.5959677489318
 20
4005.952180349278
 30
0.0
 11
1558.075504840124
 21
4005.9482455419129
 31
0.0
  0
LINE
  5
7DC3
  8
1
 10
2246.5966340870141
 20
3942.952180352801
 30
0.0
 11
1558.0761711782061
 21
3942.9482455454372
 31
0.0
  0
LINE
  5
7DC4
  8
1
 10
1708.0761711698101
 20
3942.9498320646799
 30
0.0
 11
1708.0755048317269
 21
4005.9498320611569
 31
0.0
  0
LINE
  5
7DC5
  8
1
 10
2246.5966340870141
 20
3942.952180352801
 30
0.0
 11
2246.5959677489318
 21
4005.952180349278
 31
0.0
  0
LINE
  5
7DC6
  8
1
 10
1680.575504833269
 20
4005.9495411992948
 30
0.0
 11
1680.5752932973701
 21
4025.949541198177
 31
0.0
  0
LINE
  5
7DC7
  8
1
 10
1563.0761711779271
 20
3942.9482984294118
 30
0.0
 11
1563.0755048398451
 21
4005.9482984258889
 31
0.0
  0
LINE
  5
7DC8
  8
1
 10
1535.5763827153601
 20
3922.9480075686702
 30
0.0
 11
1535.5750923463761
 21
4044.9480075618462
 31
0.0
  0
LINE
  5
7DC9
  8
1
 10
1568.9477073806411
 20
4044.948360537152
 30
0.0
 11
1535.5750923463761
 21
4044.9480075618462
 31
0.0
  0
LINE
  5
7DCA
  8
1
 10
1590.575504838303
 20
4005.9485892877501
 30
0.0
 11
1590.5752933024039
 21
4025.948589286631
 31
0.0
  0
LINE
  5
7DCB
  8
1
 10
1385.573793203477
 20
4115.9477063336772
 30
0.0
 11
1610.574341376144
 21
4115.9500861183396
 31
0.0
  0
LINE
  5
7DCC
  8
1
 10
1385.5755601215669
 20
4077.9477063502391
 30
0.0
 11
1385.575137049769
 21
4117.9477063480026
 31
0.0
  0
LINE
  5
7DCD
  8
1
 10
1885.5685100598239
 20
4615.4529947032133
 30
0.0
 11
1660.5690582642701
 21
4615.450614930146
 31
0.0
  0
LINE
  5
7DCE
  8
1
 10
1385.572638495715
 20
4615.4477063494023
 30
0.0
 11
1385.572122115331
 21
4710.4477063408958
 31
0.0
  0
LINE
  5
7DCF
  8
1
 10
1610.5690582670661
 20
4615.4500860904
 30
0.0
 11
1385.5685100943981
 21
4615.4477063057366
 31
0.0
  0
LINE
  5
7DD0
  8
1
 10
1660.574341373348
 20
4115.9506149580884
 30
0.0
 11
1885.5737931689009
 21
4115.9529947311567
 31
0.0
  0
LINE
  5
7DD1
  8
1
 10
1610.575092377587
 20
4044.9454532889772
 30
0.0
 11
1535.575092381783
 21
4044.9446600293459
 31
0.0
  0
LINE
  5
7DD2
  8
1
 10
1610.574743306589
 20
4077.94892935197
 30
0.0
 11
1385.5755601215669
 21
4077.9477063502391
 31
0.0
  0
LINE
  5
7DD3
  8
1
 10
1385.573793203477
 20
4115.9477063336772
 30
0.0
 11
1385.5685100943981
 21
4615.4477063057366
 31
0.0
  0
LINE
  5
7DD4
  8
1
 10
1885.5737931689009
 20
4115.9529947311567
 30
0.0
 11
1885.5685100598221
 21
4615.4529947032133
 31
0.0
  0
DIMENSION
  5
7DD5
  8
3
  2
*D10
 10
1385.57895682505
 20
3756.8009412940642
 30
0.0
 11
1960.5782957356039
 21
3819.3070229476639
 31
0.0
 70
     0
 13
2535.575560104578
 23
4077.9539572706681
 33
0.0
 14
1385.5755601215669
 24
4077.9477063502391
 34
0.0
 50
0.000606005711532
1001
ACAD
1000
DSTYLE
1002
{
1070
   287
1070
     3
1070
    40
1040
25.0
1070
   143
1040
0.039
1070
   172
1070
     1
1070
   271
1070
     0
1070
   279
1070
     0
1070
   288
1070
     1
1002
}
  0
DIMENSION
  5
7DD6
  8
3
  2
*D11
 10
1885.567780202754
 20
5348.2071187530146
 30
0.0
 11
1635.567119170357
 21
5410.704474550781
 31
0.0
 70
     0
 13
1385.569580980288
 23
5177.9477063339909
 33
0.0
 14
1885.569580972902
 24
5177.9504241254817
 34
0.0
 50
0.000606005711532
1001
ACAD
1000
DSTYLE
1002
{
1070
   287
1070
     3
1070
    40
1040
25.0
1070
   143
1040
0.039
1070
   172
1070
     1
1070
   271
1070
     0
1070
   279
1070
     0
1070
   288
1070
     1
1002
}
  0
LINE
  5
7DD7
  8
1
 10
2535.575560104573
 20
4077.9539572706681
 30
0.0
 11
2535.5740999451032
 21
4677.9539572715939
 31
0.0
  0
DIMENSION
  5
7DD8
  8
3
  2
*D12
 10
2535.5677801578049
 20
5348.2139936697304
 30
0.0
 11
2210.5671191305951
 21
5410.710556207875
 31
0.0
 70
     0
 13
1885.569580972902
 23
5177.9504241254817
 33
0.0
 14
2535.5749582689241
 24
4669.5479941388448
 34
0.0
 50
0.000606005711532
1001
ACAD
1000
DSTYLE
1002
{
1070
   287
1070
     3
1070
    40
1040
25.0
1070
   143
1040
0.039
1070
   172
1070
     1
1070
   271
1070
     0
1070
   279
1070
     0
1070
   288
1070
     1
1002
}
  0
LINE
  5
7DD9
  8
1
 10
2535.576605973728
 20
1960.6240274174691
 30
0.0
 11
1385.576605973728
 21
1960.6240274174691
 31
0.0
  0
LINE
  5
7DDA
  8
1
 10
3767.515550370666
 20
2835.6240274236802
 30
0.0
 11
4242.515550370671
 21
2835.6240274236802
 31
0.0
  0
LINE
  5
7DDB
  8
1
 10
4217.5155503706692
 20
2465.6240274236811
 30
0.0
 11
4217.515550370671
 21
2835.6240274236802
 31
0.0
  0
LINE
  5
7DDC
  8
1
 10
3792.5155503706678
 20
2445.6240274236811
 30
0.0
 11
3792.515550370666
 21
2835.6240274236802
 31
0.0
  0
LINE
  5
7DDD
  8
1
 10
2193.5732677793112
 20
4087.9516195436381
 30
0.0
 11
2193.5693966723579
 21
4453.9516195231681
 31
0.0
  0
LINE
  5
7DDE
  8
1
 10
2477.573267763426
 20
4087.9546233534052
 30
0.0
 11
2477.5693966564731
 21
4453.9546233329329
 31
0.0
  0
LINE
  5
7DDF
  8
1
 10
2477.573267763426
 20
4087.9546233534052
 30
0.0
 11
2193.5732677793112
 21
4087.9516195436381
 31
0.0
  0
LINE
  5
7DE0
  8
1
 10
2477.569396656475
 20
4453.9546233329329
 30
0.0
 11
2193.5693966723602
 21
4453.9516195231663
 31
0.0
  0
LINE
  5
7DE1
  8
1
 10
2321.5749975029689
 20
4087.9529733916879
 30
0.0
 11
2321.575215423079
 21
4027.9529733906361
 31
0.0
  0
LINE
  5
7DE2
  8
1
 10
2349.5749975020781
 20
4087.9532695419448
 30
0.0
 11
2349.5752154221882
 21
4027.9532695408939
 31
0.0
  0
LINE
  5
7DE3
  8
1
 10
2321.5750338236389
 20
4077.9527940530488
 30
0.0
 11
1660.574743306511
 21
4077.9492011311199
 31
0.0
  0
LINE
  5
7DE4
  8
1
 10
2321.5751536790472
 20
4044.9529733909162
 30
0.0
 11
1660.575092374791
 21
4044.945982128731
 31
0.0
  0
DIMENSION
  5
7DE5
  8
3
  2
*D13
 10
983.18594647004727
 20
2445.6240274174688
 30
0.0
 11
920.68594647004693
 21
2640.6240274174688
 31
0.0
 70
     0
 13
1630.57861104633
 23
2835.6240274174679
 33
0.0
 14
1176.06032121114
 24
2445.6240274174688
 34
0.0
 50
270.0
1001
ACAD
1000
DSTYLE
1002
{
1070
   287
1070
     3
1070
    40
1040
25.0
1070
   143
1040
0.039
1070
   172
1070
     1
1070
   271
1070
     0
1070
   279
1070
     0
1070
   288
1070
     1
1002
}
  0
DIMENSION
  5
7DE6
  8
3
  2
*D14
 10
983.18594647004727
 20
1885.6240274174691
 30
0.0
 11
920.68594647004693
 21
2165.6240274174688
 31
0.0
 70
     0
 13
1176.06032121114
 23
2445.6240274174688
 33
0.0
 14
1385.576605973728
 24
1885.6240274174691
 34
0.0
 50
270.0
1001
ACAD
1000
DSTYLE
1002
{
1070
   287
1070
     3
1070
    40
1040
25.0
1070
   143
1040
0.039
1070
   172
1070
     1
1070
   271
1070
     0
1070
   279
1070
     0
1070
   288
1070
     1
1002
}
  0
DIMENSION
  5
7DE7
  8
3
  2
*D15
 10
983.18594647004727
 20
1790.6240274174691
 30
0.0
 11
863.54308932719016
 21
1895.096940560117
 31
0.0
 70
   128
  1
(<>)
 13
1385.576605973728
 23
1885.6240274174691
 33
0.0
 14
1385.5766059737291
 24
1790.6240274174691
 34
0.0
 50
270.0
1001
ACAD
1000
DSTYLE
1002
{
1070
   288
1070
     1
1070
   172
1070
     1
1070
    40
1040
25.0
1070
   271
1070
     0
1070
     7
1000
_DOT
1070
   143
1040
0.039
1002
}
  0
DIMENSION
  5
7DE8
  8
3
  2
*D16
 10
983.18594647004727
 20
1715.6240274174691
 30
0.0
 11
920.68594647004716
 21
1529.909741703183
 31
0.0
 70
     0
 13
1385.5766059737291
 23
1790.6240274174691
 33
0.0
 14
1385.5766059737291
 24
1715.6240274174691
 34
0.0
 50
270.0
1001
ACAD
1000
DSTYLE
1002
{
1070
   287
1070
     3
1070
    40
1040
25.0
1070
   143
1040
0.039
1070
   172
1070
     1
1070
   271
1070
     0
1070
   279
1070
     0
1070
   288
1070
     1
1070
     6
1000
DOT
1002
}
  0
DIMENSION
  5
7DE9
  8
3
  2
*D17
 10
754.64625915622685
 20
1715.6240274174691
 30
0.0
 11
754.64625915622673
 21
2304.1240274174688
 31
0.0
 70
   128
 13
1630.57861104633
 23
2835.6240274174679
 33
0.0
 14
1385.5766059737291
 24
1715.6240274174691
 34
0.0
 50
270.0
1001
ACAD
1000
DSTYLE
1002
{
1070
   287
1070
     3
1070
    40
1040
25.0
1070
   143
1040
0.039
1070
   172
1070
     1
1070
   271
1070
     0
1070
   279
1070
     0
1070
   288
1070
     1
1002
}
  0
LINE
  5
7DEA
  8
1
 10
1235.576605973728
 20
2412.9770852860602
 30
0.0
 11
1235.576605973728
 21
2403.186909481728
 31
0.0
  0
DIMENSION
  5
7DEB
  8
3
  2
*D18
 10
1235.576605973728
 20
3109.714636260413
 30
0.0
 11
1435.576605973728
 21
3172.214636260413
 31
0.0
 70
     0
 13
1635.576605973728
 23
2905.1403121800572
 33
0.0
 14
1235.576605973728
 24
2412.9770852860602
 34
0.0
1001
ACAD
1000
DSTYLE
1002
{
1070
   287
1070
     3
1070
    40
1040
25.0
1070
   143
1040
0.039
1070
   172
1070
     1
1070
   271
1070
     0
1070
   279
1070
     0
1070
   288
1070
     1
1002
}
  0
LINE
  5
7DEC
  8
1
 10
3767.515550370666
 20
2830.6240274236789
 30
0.0
 11
4242.515550370671
 21
2830.6240274236802
 31
0.0
  0
LINE
  5
7DED
  8
1
 10
3767.515550370666
 20
2835.6240274236802
 30
0.0
 11
3767.515550370666
 21
2830.6240274236789
 31
0.0
  0
LINE
  5
7DEE
  8
1
 10
4242.515550370671
 20
2835.6240274236802
 30
0.0
 11
4242.515550370671
 21
2830.6240274236802
 31
0.0
  0
LINE
  5
7DEF
  8
1
 10
4223.0155503706692
 20
2732.624027423682
 30
0.0
 11
4223.0155503706692
 21
2445.6240274236811
 31
0.0
  0
LINE
  5
7DF0
  8
1
 10
4220.0155503706692
 20
2445.6240274236811
 30
0.0
 11
4220.0155503706692
 21
2735.624027423682
 31
0.0
  0
LINE
  5
7DF1
  8
1
 10
4220.0155503706692
 20
2725.624027423682
 30
0.0
 11
4220.0155503706692
 21
2750.6240274236829
 31
0.0
  0
ARC
  5
7DF2
  8
1
 10
4258.0155503706692
 20
2726.624027423682
 30
0.0
 40
2.0
 50
359.9999999999992
 51
89.999999999999588
  0
LINE
  5
7DF3
  8
1
 10
4220.0155503706692
 20
2750.6240274236802
 30
0.0
 11
4220.0155503706692
 21
2725.6240274236802
 31
0.0
  0
LINE
  5
7DF4
  8
1
 10
4227.0155503706683
 20
2728.624027423682
 30
0.0
 11
4258.0155503706692
 21
2728.624027423682
 31
0.0
  0
LINE
  5
7DF5
  8
1
 10
4220.0155503706692
 20
2750.6240274236829
 30
0.0
 11
4221.0155503706692
 21
2750.6240274236829
 31
0.0
  0
LINE
  5
7DF6
  8
1
 10
4223.0155503706692
 20
2732.624027423682
 30
0.0
 11
4223.0155503706692
 21
2748.624027423682
 31
0.0
  0
ARC
  5
7DF7
  8
1
 10
4221.0155503706692
 20
2748.624027423682
 30
0.0
 40
2.0
 50
0.0
 51
90.00000000000081
  0
ARC
  5
7DF8
  8
1
 10
4227.0155503706683
 20
2732.624027423682
 30
0.0
 40
4.0
 50
180.0
 51
270.0
  0
LINE
  5
7DF9
  8
1
 10
4220.0155503706692
 20
2725.624027423682
 30
0.0
 11
4260.0155503706701
 21
2725.624027423682
 31
0.0
  0
LINE
  5
7DFA
  8
1
 10
4260.0155503706701
 20
2725.624027423682
 30
0.0
 11
4260.0155503706701
 21
2726.624027423682
 31
0.0
  0
DIMENSION
  5
7DFB
  8
3
  2
*D19
 10
2535.576605973728
 20
3249.1784113053031
 30
0.0
 11
1885.576605973728
 21
3311.6784113053031
 31
0.0
 70
     0
 13
1235.576605973728
 23
2445.6240274174688
 33
0.0
 14
2535.576605973728
 24
1960.6240274174691
 34
0.0
1001
ACAD
1000
DSTYLE
1002
{
1070
   287
1070
     3
1070
    40
1040
25.0
1070
   143
1040
0.039
1070
   172
1070
     1
1070
   271
1070
     0
1070
   279
1070
     0
1070
   288
1070
     1
1002
}
  0
DIMENSION
  5
7DFC
  8
3
  2
*D20
 10
1056.3212228303471
 20
4077.9477063502391
 30
0.0
 11
993.82122283034664
 21
4627.9477063421155
 31
0.0
 70
     0
 13
1385.569580980288
 23
5177.9477063339909
 33
0.0
 14
1385.5755601215669
 24
4077.9477063502391
 34
0.0
 50
90.0
1001
ACAD
1000
DSTYLE
1002
{
1070
   287
1070
     3
1070
    40
1040
25.0
1070
   143
1040
0.039
1070
   172
1070
     1
1070
   271
1070
     0
1070
   279
1070
     0
1070
   288
1070
     1
1002
}
  0
DIMENSION
  5
7DFD
  8
3
  2
*D21
 10
2784.281522999348
 20
4077.9539572706681
 30
0.0
 11
2721.781522999348
 21
4377.9539572711328
 31
0.0
 70
     0
 13
2535.5740999451032
 23
4677.9539572715939
 33
0.0
 14
2535.575560104573
 24
4077.9539572706681
 34
0.0
 50
90.0
1001
ACAD
1000
DSTYLE
1002
{
1070
   287
1070
     3
1070
    40
1040
25.0
1070
   143
1040
0.039
1070
   172
1070
     1
1070
   271
1070
     0
1070
   279
1070
     0
1070
   288
1070
     1
1002
}
  0
LINE
  5
7DFE
  8
1
 10
2235.5722180878979
 20
4710.4523265869539
 30
0.0
 11
2235.5699572979761
 21
5137.9523265809794
 31
0.0
  0
LINE
  5
7DFF
  8
1
 10
1235.572218102659
 20
4710.4468910039714
 30
0.0
 11
1235.5699573127381
 21
5137.9468909979969
 31
0.0
  0
LINE
  5
7E00
  8
1
 10
1655.5722180964599
 20
4710.449173948823
 30
0.0
 11
1655.5699573060861
 21
5137.9492593104424
 31
0.0
  0
LINE
  5
7E01
  8
1
 10
2235.5699572979761
 20
5137.9523265809794
 30
0.0
 11
1660.568053483702
 21
4710.449201104102
 31
0.0
  0
LINE
  5
7E02
  8
1
 10
1655.5699573065381
 20
5137.9491739428504
 30
0.0
 11
2235.5722180878979
 21
4710.4523265869529
 31
0.0
  0
LINE
  5
7E03
  8
1
 10
3585.5172003129628
 20
1995.6322394794249
 30
0.0
 11
3585.5141965031971
 21
2279.6322394635399
 31
0.0
  0
LINE
  5
7E04
  8
1
 10
3219.5172003334342
 20
1995.6283683724739
 30
0.0
 11
3585.5172003129628
 21
1995.632239479427
 31
0.0
  0
LINE
  5
7E05
  8
1
 10
3219.5141965236699
 20
2279.6283683565889
 30
0.0
 11
3585.514196503198
 21
2279.6322394635422
 31
0.0
  0
LINE
  5
7E06
  8
1
 10
3219.5158465219761
 20
2123.626638633822
 30
0.0
 11
3159.5158465209252
 21
2123.6264207137119
 31
0.0
  0
LINE
  5
7E07
  8
1
 10
3219.5155503717178
 20
2151.6266386329312
 30
0.0
 11
3159.5155503706669
 21
2151.6264207128211
 31
0.0
  0
LINE
  5
7E08
  8
1
 10
3219.5172003334342
 20
1995.6283683724739
 30
0.0
 11
3219.5141965236699
 21
2279.6283683565889
 31
0.0
  0
LINE
  5
7E09
  8
1
 10
3198.0155503706678
 20
2151.6265605448921
 30
0.0
 11
3198.0155503706692
 21
2379.2240274236801
 31
0.0
  0
LINE
  5
7E0A
  8
1
 10
3265.539104680945
 20
1995.6288551367199
 30
0.0
 11
3265.539104680945
 21
1960.62402742368
 31
0.0
  0
LINE
  5
7E0B
  8
1
 10
3515.2957792255129
 20
1995.631496761855
 30
0.0
 11
3515.295779225512
 21
1960.62402742368
 31
0.0
  0
LINE
  5
81A4
  8
4
 10
4625.0
 20
1250.0
 30
0.0
 11
4625.0
 21
750.0
 31
0.0
  0
LINE
  5
81A5
  8
4
 10
2875.0
 20
1250.0
 30
0.0
 11
2875.0
 21
750.0
 31
0.0
  0
LINE
  5
81A6
  8
4
 10
1625.0
 20
1250.0
 30
0.0
 11
1625.0
 21
750.0
 31
0.0
  0
LINE
  5
81A9
  8
4
 10
1625.0
 20
750.0
 30
0.0
 11
4625.0
 21
750.0
 31
0.0
  0
LINE
  5
81AA
  8
4
 10
1625.0
 20
1000.0
 30
0.0
 11
4625.0
 21
1000.0
 31
0.0
  0
TEXT
  5
81AB
  8
4
 10
1721.2552021172539
 20
1078.857564666532
 30
0.0
 40
125.0
  1
機器名称
  0
TEXT
  5
81AC
  8
4
 10
1715.6452650619931
 20
804.11289183002725
 30
0.0
 40
125.0
  1
機器型番
  0
TEXT
  5
81AD
  8
4
 10
2885.3956475917198
 20
1057.4381806146721
 30
0.0
 40
112.5
  1
ミツヤリミットロードファン
  0
TEXT
  5
81AE
  8
4
 10
2966.6362389637011
 20
792.89896069985843
 30
0.0
 40
125.0
  1
LL#3 1/2-1
  0
TEXT
  5
81B0
  8
4
 10
1982.9283631643009
 20
5958.5721033312893
 30
0.0
 40
135.0
  1
床置防振ベット
  0
TEXT
  5
81B1
  8
4
 10
790.41898332361586
 20
6334.7024404982449
 30
0.0
 40
180.0
  1
遠心式片吸込片持リミットロードファン
  0
LINE
  5
81B2
  8
4
 10
625.0
 20
6173.5218856620122
 30
0.0
 11
4625.0
 21
6173.5218856620122
 31
0.0
  0
LINE
  5
81B3
  8
4
 10
625.0
 20
6673.5218856620122
 30
0.0
 11
4625.0
 21
6673.5218856620122
 31
0.0
  0
LINE
  5
81B4
  8
4
 10
1625.0
 20
1250.0
 30
0.0
 11
4625.0
 21
1250.0
 31
0.0
  0
LINE
  5
81B5
  8
4
 10
625.0
 20
6673.5218856620122
 30
0.0
 11
625.0
 21
6173.5218856620122
 31
0.0
  0
TEXT
  5
81B6
  8
4
 10
893.28128255754575
 20
5955.7986938658578
 30
0.0
 40
135.0
  1
左回転上向
  0
TEXT
  5
81B7
  8
4
 10
3672.4238981232238
 20
6765.1527037382721
 30
0.0
 40
140.0
  1
No.
  0
TEXT
  5
81B8
  8
4
 10
3278.2401565000318
 20
5958.5721033312893
 30
0.0
 40
135.0
  1
縮尺：1/25
  0
LINE
  5
81B9
  8
4
 10
4625.0
 20
6673.5218856620122
 30
0.0
 11
4625.0
 21
6173.5218856620122
 31
0.0
  0
LINE
  5
81BA
  8
4
 10
5250.0
 20
7375.0
 30
0.0
 11
5250.0
 21
7375.0
 31
0.0
  0
LINE
  5
81BB
  8
4
 10
3601.543555899661
 20
6703.1589578135026
 30
0.0
 11
3601.543555899661
 21
6966.6306538743811
 31
0.0
  0
LINE
  5
81BC
  8
4
 10
3601.543555899661
 20
6966.6306538743811
 30
0.0
 11
4625.0
 21
6966.6306538743811
 31
0.0
  0
LINE
  5
81BD
  8
4
 10
4625.0
 20
6966.6306538743811
 30
0.0
 11
4625.0
 21
6703.1589578135026
 31
0.0
  0
LINE
  5
81BE
  8
4
 10
4625.0
 20
6703.1589578135026
 30
0.0
 11
3601.543555899661
 21
6703.1589578135026
 31
0.0
  0
LINE
  5
81BF
  8
4
 10
0.0
 20
0.0
 30
0.0
 11
0.0
 21
7375.0
 31
0.0
  0
LINE
  5
81C0
  8
4
 10
0.0
 20
7375.0
 30
0.0
 11
5250.0
 21
7375.0
 31
0.0
  0
LINE
  5
81C1
  8
4
 10
5250.0
 20
7375.0
 30
0.0
 11
5250.0
 21
0.0
 31
0.0
  0
LINE
  5
81C2
  8
4
 10
5250.0
 20
0.0
 30
0.0
 11
0.0
 21
0.0
 31
0.0
  0
DIMENSION
  5
8270
  8
3
  2
*D23
 10
4220.0155503706692
 20
3088.5072187645501
 30
0.0
 11
4112.5155503706692
 21
3159.3851151439671
 31
0.0
 70
   128
 13
4005.0155503706692
 23
3031.179715023507
 33
0.0
 14
4220.0155503706692
 24
2750.6240274236829
 34
0.0
1001
ACAD
1000
DSTYLE
1002
{
1070
   288
1070
     1
1070
   172
1070
     1
1070
    75
1070
     1
1070
    40
1040
25.0
1070
   271
1070
     0
1070
   143
1040
0.039
1002
}
  0
LINE
  5
8297
  8
1
 10
1625.569798655056
 20
5167.9490108749415
 30
0.0
 11
2265.5697986456089
 21
5167.952489648048
 31
0.0
  0
LINE
  5
8298
  8
1
 10
2265.5723767393788
 20
4680.4524896548628
 30
0.0
 11
2265.5697986456089
 21
5167.9524896480498
 31
0.0
  0
LINE
  5
8299
  8
1
 10
1625.5723767488259
 20
4680.4490108817536
 30
0.0
 11
2265.5723767393788
 21
4680.4524896548619
 31
0.0
  0
LINE
  5
829A
  8
1
 10
1625.5723767488259
 20
4680.4490108817536
 30
0.0
 11
1625.569798655057
 21
5167.9490108749415
 31
0.0
  0
LINE
  5
829B
  8
1
 10
1655.5699573065381
 20
5137.9491739428504
 30
0.0
 11
2235.5699572979761
 21
5137.9523265809794
 31
0.0
  0
LINE
  5
829C
  8
1
 10
1655.5722180964599
 20
4710.449173948823
 30
0.0
 11
2235.572218087897
 21
4710.4523265869529
 31
0.0
  0
ENDSEC
  0
EOF
