  0
SECTION
  2
HEADER
  9
$ACADVER
  1
AC1009
  9
$INSBASE
 10
0.0
 20
0.0
 30
0.0
  9
$EXTMIN
 10
0.0
 20
0.0
 30
0.0
  9
$EXTMAX
 10
5250.0
 20
7375.0
 30
0.0
  9
$LIMMIN
 10
0.0
 20
0.0
  9
$LIMMAX
 10
297.0
 20
210.0
  9
$ORTHOMODE
 70
     0
  9
$REGENMODE
 70
     1
  9
$FILLMODE
 70
     0
  9
$QTEXTMODE
 70
     0
  9
$MIRRTEXT
 70
     1
  9
$DRAGMODE
 70
     2
  9
$LTSCALE
 40
100.0
  9
$OSMODE
 70
    37
  9
$ATTMODE
 70
     1
  9
$TEXTSIZE
 40
180.0
  9
$TRACEWID
 40
0.05
  9
$TEXTSTYLE
  7
STANDARD
  9
$CLAYER
  8
1
  9
$CELTYPE
  6
BYLAYER
  9
$CECOLOR
 62
   256
  9
$DIMSCALE
 40
25.0
  9
$DIMASZ
 40
2.0
  9
$DIMEXO
 40
0.5
  9
$DIMDLI
 40
10.0
  9
$DIMRND
 40
0.0
  9
$DIMDLE
 40
0.0
  9
$DIMEXE
 40
1.0
  9
$DIMTP
 40
1.0
  9
$DIMTM
 40
1.0
  9
$DIMTXT
 40
3.0
  9
$DIMCEN
 40
0.0
  9
$DIMTSZ
 40
0.0
  9
$DIMTOL
 70
     0
  9
$DIMLIM
 70
     0
  9
$DIMTIH
 70
     0
  9
$DIMTOH
 70
     0
  9
$DIMSE1
 70
     0
  9
$DIMSE2
 70
     0
  9
$DIMTAD
 70
     1
  9
$DIMZIN
 70
     8
  9
$DIMBLK
  1

  9
$DIMASO
 70
     1
  9
$DIMSHO
 70
     1
  9
$DIMPOST
  1

  9
$DIMAPOST
  1

  9
$DIMALT
 70
     0
  9
$DIMALTD
 70
     2
  9
$DIMALTF
 40
0.039
  9
$DIMLFAC
 40
1.0
  9
$DIMTOFL
 70
     1
  9
$DIMTVP
 40
0.0
  9
$DIMTIX
 70
     0
  9
$DIMSOXD
 70
     0
  9
$DIMSAH
 70
     1
  9
$DIMBLK1
  1
OPEN
  9
$DIMBLK2
  1
OPEN
  9
$DIMSTYLE
  2
IGA
  9
$DIMCLRD
 70
     0
  9
$DIMCLRE
 70
     0
  9
$DIMCLRT
 70
     0
  9
$DIMTFAC
 40
10.0
  9
$DIMGAP
 40
1.0
  9
$LUNITS
 70
     2
  9
$LUPREC
 70
     3
  9
$SKETCHINC
 40
0.1
  9
$FILLETRAD
 40
50.0
  9
$AUNITS
 70
     0
  9
$AUPREC
 70
     0
  9
$MENU
  1
acad
  9
$ELEVATION
 40
0.0
  9
$PELEVATION
 40
0.0
  9
$THICKNESS
 40
0.0
  9
$LIMCHECK
 70
     0
  9
$BLIPMODE
 70
     0
  9
$CHAMFERA
 40
0.5
  9
$CHAMFERB
 40
0.5
  9
$SKPOLY
 70
     0
  9
$TDCREATE
 40
2451613.4680420128
  9
$TDUPDATE
 40
2454953.6410810868
  9
$TDINDWG
 40
0.0114896875
  9
$TDUSRTIMER
 40
0.0114896875
  9
$USRTIMER
 70
     1
  9
$ANGBASE
 50
0.0
  9
$ANGDIR
 70
     0
  9
$PDMODE
 70
     0
  9
$PDSIZE
 40
0.0
  9
$PLINEWID
 40
0.0
  9
$COORDS
 70
     1
  9
$SPLFRAME
 70
     0
  9
$SPLINETYPE
 70
     6
  9
$SPLINESEGS
 70
     8
  9
$ATTDIA
 70
     0
  9
$ATTREQ
 70
     1
  9
$HANDLING
 70
 10241
  9
$HANDSEED
  5
8300
  9
$SURFTAB1
 70
     6
  9
$SURFTAB2
 70
     6
  9
$SURFTYPE
 70
     6
  9
$SURFU
 70
     6
  9
$SURFV
 70
     6
  9
$UCSNAME
  2

  9
$UCSORG
 10
0.0
 20
0.0
 30
0.0
  9
$UCSXDIR
 10
1.0
 20
0.0
 30
0.0
  9
$UCSYDIR
 10
0.0
 20
1.0
 30
0.0
  9
$PUCSNAME
  2

  9
$PUCSORG
 10
0.0
 20
0.0
 30
0.0
  9
$PUCSXDIR
 10
1.0
 20
0.0
 30
0.0
  9
$PUCSYDIR
 10
0.0
 20
1.0
 30
0.0
  9
$USERI1
 70
     0
  9
$USERI2
 70
     0
  9
$USERI3
 70
     0
  9
$USERI4
 70
     0
  9
$USERI5
 70
     0
  9
$USERR1
 40
0.0
  9
$USERR2
 40
0.0
  9
$USERR3
 40
0.0
  9
$USERR4
 40
0.0
  9
$USERR5
 40
0.0
  9
$WORLDVIEW
 70
     1
  9
$SHADEDGE
 70
     3
  9
$SHADEDIF
 70
    70
  9
$TILEMODE
 70
     1
  9
$MAXACTVP
 70
    16
  9
$PLIMCHECK
 70
     0
  9
$PEXTMIN
 10
1.0000000000000000E+020
 20
1.0000000000000000E+020
 30
1.0000000000000000E+020
  9
$PEXTMAX
 10
-1.0000000000000000E+020
 20
-1.0000000000000000E+020
 30
-1.0000000000000000E+020
  9
$PLIMMIN
 10
0.0
 20
0.0
  9
$PLIMMAX
 10
12.0
 20
9.0
  9
$UNITMODE
 70
     0
  9
$VISRETAIN
 70
     0
  9
$PLINEGEN
 70
     0
  9
$PSLTSCALE
 70
     1
  0
ENDSEC
  0
SECTION
  2
TABLES
  0
TABLE
  2
VPORT
 70
     2
  0
VPORT
  2
*ACTIVE
 70
     0
 10
0.0
 20
0.0
 11
1.0
 21
1.0
 12
4866.0994859039802
 22
863.41523137753575
 13
0.0
 23
0.0
 14
10.0
 24
10.0
 15
10.0
 25
10.0
 16
0.0
 26
0.0
 36
1.0
 17
0.0
 27
0.0
 37
0.0
 40
2159.0330019339399
 41
3.1666666666666661
 42
50.0
 43
0.0
 44
0.0
 50
0.0
 51
0.0
 71
     0
 72
   100
 73
     1
 74
     0
 75
     0
 76
     0
 77
     0
 78
     0
  0
ENDTAB
  0
TABLE
  2
LTYPE
 70
     2
  0
LTYPE
  2
CONTINUOUS
 70
     0
  3
Solid line
 72
    65
 73
     0
 40
0.0
  0
LTYPE
  2
CENTER
 70
     0
  3
____ _ ____ _ ____ _ ____ _ ____ _ ____ _ ____ 
 72
    65
 73
     4
 40
2.0
 49
1.25
 49
-0.25
 49
0.25
 49
-0.25
  0
ENDTAB
  0
TABLE
  2
LAYER
 70
     6
  0
LAYER
  2
0
 70
     0
 62
     7
  6
CONTINUOUS
  0
LAYER
  2
3
 70
     0
 62
     2
  6
CONTINUOUS
  0
LAYER
  2
2
 70
     0
 62
     3
  6
CENTER
  0
LAYER
  2
1
 70
     0
 62
     4
  6
CONTINUOUS
  0
LAYER
  2
4
 70
     0
 62
     7
  6
CONTINUOUS
  0
LAYER
  2
DEFPOINTS
 70
     0
 62
     7
  6
CONTINUOUS
  0
ENDTAB
  0
TABLE
  2
STYLE
 70
     1
  0
STYLE
  2
STANDARD
 70
     0
 40
0.0
 41
1.0
 50
0.0
 71
     0
 42
180.0
  3
simplex.shx
  4
extfont.shx
  0
ENDTAB
  0
TABLE
  2
VIEW
 70
     0
  0
ENDTAB
  0
TABLE
  2
UCS
 70
     0
  0
ENDTAB
  0
TABLE
  2
APPID
 70
     1
  0
APPID
  2
ACAD
 70
     0
  0
ENDTAB
  0
TABLE
  2
DIMSTYLE
 70
     1
  0
DIMSTYLE
  2
IGA
 70
     0
  3

  4

  5

  6
OPEN
  7
OPEN
 40
2.0
 41
2.0
 42
0.5
 43
10.0
 44
1.0
 45
0.0
 46
0.0
 47
1.0
 48
1.0
140
3.0
141
0.0
142
0.0
143
0.03937
144
1.0
145
0.0
146
10.0
147
1.0
 71
     0
 72
     0
 73
     0
 74
     0
 75
     0
 76
     0
 77
     1
 78
     8
170
     0
171
     2
172
     0
173
     1
174
     0
175
     0
176
     0
177
     0
178
     0
  0
ENDTAB
  0
ENDSEC
  0
SECTION
  2
BLOCKS
  0
BLOCK
  8
0
  2
$MODEL_SPACE
 70
     0
 10
0.0
 20
0.0
 30
0.0
  3
$MODEL_SPACE
  1

  0
ENDBLK
  5
1B
  8
0
  0
BLOCK
 67
     1
  8
0
  2
$PAPER_SPACE
 70
     0
 10
0.0
 20
0.0
 30
0.0
  3
$PAPER_SPACE
  1

  0
ENDBLK
  5
18
 67
     1
  8
0
  0
BLOCK
  8
0
  2
_OPEN
 70
     0
 10
0.0
 20
0.0
 30
0.0
  3
_OPEN
  1

  0
LINE
  5
79FD
  8
0
  6
BYBLOCK
 62
     0
 10
-1.0
 20
0.1666666666666666
 30
0.0
 11
0.0
 21
0.0
 31
0.0
  0
LINE
  5
79FE
  8
0
  6
BYBLOCK
 62
     0
 10
0.0
 20
0.0
 30
0.0
 11
-1.0
 21
-0.1666666666666666
 31
0.0
  0
LINE
  5
79FF
  8
0
  6
BYBLOCK
 62
     0
 10
0.0
 20
0.0
 30
0.0
 11
-1.0
 21
0.0
 31
0.0
  0
ENDBLK
  5
7A01
  8
0
  0
BLOCK
  8
0
  2
*D1
 70
     1
 10
0.0
 20
0.0
 30
0.0
  3
*D1
  1

  0
LINE
  5
8229
  8
3
 62
     0
 10
3792.5155503706678
 20
2809.1826299277009
 30
0.0
 11
3792.5155503706678
 21
2932.0308316347118
 31
0.0
  0
LINE
  5
822A
  8
3
 62
     0
 10
4217.515550370671
 20
2809.1826299277009
 30
0.0
 11
4217.515550370671
 21
2932.0308316347118
 31
0.0
  0
LINE
  5
822B
  8
3
 62
     0
 10
3842.5155503706669
 20
2907.0308316347118
 30
0.0
 11
4167.515550370671
 21
2907.0308316347118
 31
0.0
  0
INSERT
  5
822C
  8
3
 62
     0
  2
_OPEN
 10
3792.5155503706678
 20
2907.0308316347118
 30
0.0
 41
50.0
 42
50.0
 43
50.0
 50
180.0
  0
INSERT
  5
822D
  8
3
 62
     0
  2
_OPEN
 10
4217.515550370671
 20
2907.0308316347118
 30
0.0
 41
50.0
 42
50.0
 43
50.0
  0
TEXT
  8
3
  40
75
  5
82EC
  62
0
  72
0
  71
0
 10
3866.93
 20
2836.78
 30
0.000000
  1
425
  0
POINT
  5
822F
  8
DEFPOINTS
 62
     0
 10
3792.5155503706678
 20
2796.6826299277009
 30
0.0
  0
POINT
  5
8230
  8
DEFPOINTS
 62
     0
 10
4217.515550370671
 20
2796.6826299277009
 30
0.0
  0
POINT
  5
8231
  8
DEFPOINTS
 62
     0
 10
4217.515550370671
 20
2907.0308316347118
 30
0.0
  0
ENDBLK
  5
810F
  8
0
  0
BLOCK
  8
0
  2
*D2
 70
     1
 10
0.0
 20
0.0
 30
0.0
  3
*D2
  1

  0
LINE
  5
823C
  8
3
 62
     0
 10
4274.3155503706703
 20
2711.6826299277018
 30
0.0
 11
4438.6278381594702
 21
2711.6826299277018
 31
0.0
  0
LINE
  5
823D
  8
3
 62
     0
 10
4274.3155503706703
 20
2151.6826299276991
 30
0.0
 11
4438.6278381594702
 21
2151.6826299276991
 31
0.0
  0
LINE
  5
823E
  8
3
 62
     0
 10
4413.6278381594693
 20
2661.6826299277009
 30
0.0
 11
4413.6278381594693
 21
2201.6826299277
 31
0.0
  0
INSERT
  5
823F
  8
3
 62
     0
  2
_OPEN
 10
4413.6278381594693
 20
2711.6826299277018
 30
0.0
 41
50.0
 42
50.0
 43
50.0
 50
90.0
  0
INSERT
  5
8240
  8
3
 62
     0
  2
_OPEN
 10
4413.6278381594693
 20
2151.6826299276991
 30
0.0
 41
50.0
 42
50.0
 43
50.0
 50
270.0
  0
TEXT
  8
3
  40
75
  5
82ED
  62
0
  72
0
  71
0
 10
4201.13
 20
2298.93
 30
0.000000
  1
560
  0
POINT
  5
8242
  8
DEFPOINTS
 62
     0
 10
4261.8155503706703
 20
2711.6826299277018
 30
0.0
  0
POINT
  5
8243
  8
DEFPOINTS
 62
     0
 10
4261.8155503706703
 20
2151.6826299276991
 30
0.0
  0
POINT
  5
8244
  8
DEFPOINTS
 62
     0
 10
4413.6278381594693
 20
2151.6826299276991
 30
0.0
  0
ENDBLK
  5
8104
  8
0
  0
BLOCK
  8
0
  2
*D3
 70
     1
 10
0.0
 20
0.0
 30
0.0
  3
*D3
  1

  0
LINE
  5
8245
  8
3
 62
     0
 10
735.57660597372876
 20
1746.1780028229441
 30
0.0
 11
735.57660597372876
 21
1605.577663424272
 31
0.0
  0
LINE
  5
8246
  8
3
 62
     0
 10
1635.576605973728
 20
1663.7534252675639
 30
0.0
 11
1635.576605973728
 21
1605.577663424272
 31
0.0
  0
LINE
  5
8247
  8
3
 62
     0
 10
785.57660597372876
 20
1630.577663424272
 30
0.0
 11
1585.5766059737291
 21
1630.577663424272
 31
0.0
  0
INSERT
  5
8248
  8
3
 62
     0
  2
_OPEN
 10
735.57660597372876
 20
1630.577663424272
 30
0.0
 41
50.0
 42
50.0
 43
50.0
 50
180.0
  0
INSERT
  5
8249
  8
3
 62
     0
  2
_OPEN
 10
1635.576605973728
 20
1630.577663424272
 30
0.0
 41
50.0
 42
50.0
 43
50.0
  0
TEXT
  8
3
  40
75
  5
82EE
  62
0
  72
0
  71
0
 10
1035.58
 20
1560.33
 30
0.000000
  1
900
  0
POINT
  5
824B
  8
DEFPOINTS
 62
     0
 10
735.57660597372876
 20
1758.6780028229441
 30
0.0
  0
POINT
  5
824C
  8
DEFPOINTS
 62
     0
 10
1635.576605973728
 20
1676.253425267565
 30
0.0
  0
POINT
  5
824D
  8
DEFPOINTS
 62
     0
 10
1635.576605973728
 20
1630.577663424272
 30
0.0
  0
ENDBLK
  5
8148
  8
0
  0
BLOCK
  8
0
  2
*D4
 70
     1
 10
0.0
 20
0.0
 30
0.0
  3
*D4
  1

  0
LINE
  5
8160
  8
0
  6
BYBLOCK
 62
     0
 10
1635.576605973728
 20
1660.6661675766829
 30
0.0
 11
1635.576605973728
 21
1605.577663424272
 31
0.0
  0
LINE
  5
8161
  8
0
  6
BYBLOCK
 62
     0
 10
1885.576605973728
 20
1746.183915216712
 30
0.0
 11
1885.576605973728
 21
1605.577663424272
 31
0.0
  0
LINE
  5
8162
  8
0
  6
BYBLOCK
 62
     0
 10
1685.576605973728
 20
1630.577663424272
 30
0.0
 11
1835.576605973728
 21
1630.577663424272
 31
0.0
  0
TEXT
  5
8163
  8
1
 62
     0
 10
1664.1480345451571
 20
1650.3217315119571
 30
0.0
 40
75.0
  1
250
  0
INSERT
  5
8164
  8
0
  6
BYBLOCK
 62
     0
  2
_OPEN
 10
1635.576605973728
 20
1630.577663424272
 30
0.0
 41
50.0
 42
50.0
 43
50.0
 50
180.0
  0
INSERT
  5
8165
  8
0
  6
BYBLOCK
 62
     0
  2
_OPEN
 10
1885.576605973728
 20
1630.577663424272
 30
0.0
 41
50.0
 42
50.0
 43
50.0
  0
POINT
  5
8166
  8
DEFPOINTS
  6
BYBLOCK
 62
     0
 10
1635.576605973728
 20
1673.1661675766829
 30
0.0
  0
POINT
  5
8167
  8
DEFPOINTS
  6
BYBLOCK
 62
     0
 10
1885.576605973728
 20
1758.6839152167111
 30
0.0
  0
POINT
  5
8168
  8
DEFPOINTS
  6
BYBLOCK
 62
     0
 10
1885.576605973728
 20
1630.577663424272
 30
0.0
  0
ENDBLK
  5
8169
  8
0
  0
BLOCK
  8
0
  2
*D5
 70
     1
 10
0.0
 20
0.0
 30
0.0
  3
*D5
  1

  0
LINE
  5
824E
  8
3
 62
     0
 10
735.57660597372876
 20
1746.1780028229441
 30
0.0
 11
735.57660597372876
 21
1484.8687536549751
 31
0.0
  0
LINE
  5
824F
  8
3
 62
     0
 10
1885.576605973728
 20
1746.183915216712
 30
0.0
 11
1885.576605973728
 21
1484.8687536549751
 31
0.0
  0
LINE
  5
8250
  8
3
 62
     0
 10
785.57660597372876
 20
1509.8687536549751
 30
0.0
 11
1835.576605973728
 21
1509.8687536549751
 31
0.0
  0
INSERT
  5
8251
  8
3
 62
     0
  2
_OPEN
 10
735.57660597372876
 20
1509.8687536549751
 30
0.0
 41
50.0
 42
50.0
 43
50.0
 50
180.0
  0
INSERT
  5
8252
  8
3
 62
     0
  2
_OPEN
 10
1885.576605973728
 20
1509.8687536549751
 30
0.0
 41
50.0
 42
50.0
 43
50.0
  0
TEXT
  8
3
  40
75
  5
82EF
  62
0
  72
0
  71
0
 10
1160.58
 20
1439.62
 30
0.000000
  1
1150
  0
POINT
  5
8254
  8
DEFPOINTS
 62
     0
 10
735.57660597372876
 20
1758.6780028229441
 30
0.0
  0
POINT
  5
8255
  8
DEFPOINTS
 62
     0
 10
1885.576605973728
 20
1758.6839152167111
 30
0.0
  0
POINT
  5
8256
  8
DEFPOINTS
 62
     0
 10
1885.576605973728
 20
1509.8687536549751
 30
0.0
  0
ENDBLK
  5
80E1
  8
0
  0
BLOCK
  8
0
  2
*D6
 70
     1
 10
0.0
 20
0.0
 30
0.0
  3
*D6
  1

  0
LINE
  5
8257
  8
3
 62
     0
 10
3160.0155503706669
 20
1746.1826299277011
 30
0.0
 11
3160.0155503706669
 21
1610.6739188508079
 31
0.0
  0
LINE
  5
8258
  8
3
 62
     0
 10
4005.0155503706669
 20
1699.5844535321139
 30
0.0
 11
4005.0155503706669
 21
1610.6739188508079
 31
0.0
  0
LINE
  5
8259
  8
3
 62
     0
 10
3210.0155503706669
 20
1635.6739188508079
 30
0.0
 11
3955.0155503706669
 21
1635.6739188508079
 31
0.0
  0
INSERT
  5
825A
  8
3
 62
     0
  2
_OPEN
 10
3160.0155503706669
 20
1635.6739188508079
 30
0.0
 41
50.0
 42
50.0
 43
50.0
 50
180.0
  0
INSERT
  5
825B
  8
3
 62
     0
  2
_OPEN
 10
4005.0155503706669
 20
1635.6739188508079
 30
0.0
 41
50.0
 42
50.0
 43
50.0
  0
TEXT
  8
3
  40
75
  5
82F0
  62
0
  72
0
  71
0
 10
3432.52
 20
1565.42
 30
0.000000
  1
845
  0
POINT
  5
825D
  8
DEFPOINTS
 62
     0
 10
3160.0155503706669
 20
1758.6826299277011
 30
0.0
  0
POINT
  5
825E
  8
DEFPOINTS
 62
     0
 10
4005.0155503706669
 20
1712.0844535321139
 30
0.0
  0
POINT
  5
825F
  8
DEFPOINTS
 62
     0
 10
4005.0155503706669
 20
1635.6739188508079
 30
0.0
  0
ENDBLK
  5
80D6
  8
0
  0
BLOCK
  8
0
  2
*D7
 70
     1
 10
0.0
 20
0.0
 30
0.0
  3
*D7
  1

  0
LINE
  5
8181
  8
0
  6
BYBLOCK
 62
     0
 10
4005.0155503706669
 20
1699.5844535321139
 30
0.0
 11
4005.0155503706669
 21
1653.757374177666
 31
0.0
  0
LINE
  5
8182
  8
0
  6
BYBLOCK
 62
     0
 10
4260.0155503706701
 20
1746.1826299277011
 30
0.0
 11
4260.0155503706701
 21
1653.757374177666
 31
0.0
  0
LINE
  5
8183
  8
0
  6
BYBLOCK
 62
     0
 10
4055.0155503706678
 20
1678.757374177666
 30
0.0
 11
4210.0155503706692
 21
1678.757374177666
 31
0.0
  0
TEXT
  5
8184
  8
1
 62
     0
 10
4036.0869789420972
 20
1695.204952139356
 30
0.0
 40
75.0
  1
255
  0
INSERT
  5
8185
  8
0
  6
BYBLOCK
 62
     0
  2
_OPEN
 10
4005.0155503706669
 20
1678.757374177666
 30
0.0
 41
50.0
 42
50.0
 43
50.0
 50
180.0
  0
INSERT
  5
8186
  8
0
  6
BYBLOCK
 62
     0
  2
_OPEN
 10
4260.0155503706701
 20
1678.757374177666
 30
0.0
 41
50.0
 42
50.0
 43
50.0
  0
POINT
  5
8187
  8
DEFPOINTS
  6
BYBLOCK
 62
     0
 10
4005.0155503706669
 20
1712.0844535321139
 30
0.0
  0
POINT
  5
8188
  8
DEFPOINTS
  6
BYBLOCK
 62
     0
 10
4260.0155503706701
 20
1758.6826299277011
 30
0.0
  0
POINT
  5
8189
  8
DEFPOINTS
  6
BYBLOCK
 62
     0
 10
4260.0155503706701
 20
1678.757374177666
 30
0.0
  0
ENDBLK
  5
818A
  8
0
  0
BLOCK
  8
0
  2
*D8
 70
     1
 10
0.0
 20
0.0
 30
0.0
  3
*D8
  1

  0
LINE
  5
8260
  8
3
 62
     0
 10
3160.0155503706669
 20
1746.1826299277011
 30
0.0
 11
3160.0155503706669
 21
1481.688124525424
 31
0.0
  0
LINE
  5
8261
  8
3
 62
     0
 10
4260.0155503706701
 20
1746.1826299277011
 30
0.0
 11
4260.0155503706701
 21
1481.688124525424
 31
0.0
  0
LINE
  5
8262
  8
3
 62
     0
 10
3210.0155503706669
 20
1506.688124525424
 30
0.0
 11
4210.0155503706692
 21
1506.688124525424
 31
0.0
  0
INSERT
  5
8263
  8
3
 62
     0
  2
_OPEN
 10
3160.0155503706669
 20
1506.688124525424
 30
0.0
 41
50.0
 42
50.0
 43
50.0
 50
180.0
  0
INSERT
  5
8264
  8
3
 62
     0
  2
_OPEN
 10
4260.0155503706701
 20
1506.688124525424
 30
0.0
 41
50.0
 42
50.0
 43
50.0
  0
TEXT
  8
3
  40
75
  5
82F1
  62
0
  72
0
  71
0
 10
3560.02
 20
1436.44
 30
0.000000
  1
1100
  0
POINT
  5
8266
  8
DEFPOINTS
 62
     0
 10
3160.0155503706669
 20
1758.6826299277011
 30
0.0
  0
POINT
  5
8267
  8
DEFPOINTS
 62
     0
 10
4260.0155503706701
 20
1758.6826299277011
 30
0.0
  0
POINT
  5
8268
  8
DEFPOINTS
 62
     0
 10
4260.0155503706701
 20
1506.688124525424
 30
0.0
  0
ENDBLK
  5
80BE
  8
0
  0
BLOCK
  8
0
  2
*D9
 70
     1
 10
0.0
 20
0.0
 30
0.0
  3
*D9
  1

  0
LINE
  5
8269
  8
3
 62
     0
 10
1035.5766059737291
 20
2831.179545199423
 30
0.0
 11
1035.5766059737291
 21
3124.7263718957679
 31
0.0
  0
LINE
  5
826A
  8
3
 62
     0
 10
1635.576605973728
 20
2903.6989146840779
 30
0.0
 11
1635.576605973728
 21
3124.7263718957679
 31
0.0
  0
LINE
  5
826B
  8
3
 62
     0
 10
1085.5766059737291
 20
3099.7263718957679
 30
0.0
 11
1585.5766059737291
 21
3099.7263718957679
 31
0.0
  0
INSERT
  5
826C
  8
3
 62
     0
  2
_OPEN
 10
1035.5766059737291
 20
3099.7263718957679
 30
0.0
 41
50.0
 42
50.0
 43
50.0
 50
180.0
  0
INSERT
  5
826D
  8
3
 62
     0
  2
_OPEN
 10
1635.576605973728
 20
3099.7263718957679
 30
0.0
 41
50.0
 42
50.0
 43
50.0
  0
TEXT
  8
3
  40
75
  5
82F2
  62
0
  72
0
  71
0
 10
1185.58
 20
3029.48
 30
0.000000
  1
600
  0
POINT
  5
826F
  8
DEFPOINTS
 62
     0
 10
1035.5766059737291
 20
2818.679545199424
 30
0.0
  0
POINT
  5
8270
  8
DEFPOINTS
 62
     0
 10
1635.576605973728
 20
2891.198914684077
 30
0.0
  0
POINT
  5
8271
  8
DEFPOINTS
 62
     0
 10
1635.576605973728
 20
3099.7263718957679
 30
0.0
  0
ENDBLK
  5
81AB
  8
0
  0
BLOCK
  8
0
  2
*D10
 70
     1
 10
0.0
 20
0.0
 30
0.0
  3
*D10
  1

  0
LINE
  5
8272
  8
3
 62
     0
 10
1035.5766059737291
 20
2831.179545199423
 30
0.0
 11
1035.5766059737291
 21
2988.0983775446471
 31
0.0
  0
LINE
  5
8273
  8
3
 62
     0
 10
1615.576605973728
 20
2809.1825271020771
 30
0.0
 11
1615.576605973728
 21
2988.0983775446471
 31
0.0
  0
LINE
  5
8274
  8
3
 62
     0
 10
1085.5766059737291
 20
2963.0983775446462
 30
0.0
 11
1565.5766059737291
 21
2963.0983775446462
 31
0.0
  0
INSERT
  5
8275
  8
3
 62
     0
  2
_OPEN
 10
1035.5766059737291
 20
2963.0983775446462
 30
0.0
 41
50.0
 42
50.0
 43
50.0
 50
180.0
  0
INSERT
  5
8276
  8
3
 62
     0
  2
_OPEN
 10
1615.576605973728
 20
2963.0983775446462
 30
0.0
 41
50.0
 42
50.0
 43
50.0
  0
TEXT
  8
3
  40
75
  5
82F3
  62
0
  72
0
  71
0
 10
1175.58
 20
2892.85
 30
0.000000
  1
580
  0
POINT
  5
8278
  8
DEFPOINTS
 62
     0
 10
1035.5766059737291
 20
2818.679545199424
 30
0.0
  0
POINT
  5
8279
  8
DEFPOINTS
 62
     0
 10
1615.576605973728
 20
2796.6825271020771
 30
0.0
  0
POINT
  5
827A
  8
DEFPOINTS
 62
     0
 10
1615.576605973728
 20
2963.0983775446462
 30
0.0
  0
ENDBLK
  5
80A8
  8
0
  0
BLOCK
  8
0
  2
*D11
 70
     1
 10
0.0
 20
0.0
 30
0.0
  3
*D11
  1

  0
LINE
  5
827B
  8
3
 62
     0
 10
4005.0155503706692
 20
3020.696155245565
 30
0.0
 11
4005.0155503706692
 21
3090.5236589866081
 31
0.0
  0
LINE
  5
827C
  8
3
 62
     0
 10
3054.5155503706692
 20
2544.1826299277018
 30
0.0
 11
3054.5155503706692
 21
3090.5236589866081
 31
0.0
  0
LINE
  5
827D
  8
3
 62
     0
 10
3955.0155503706692
 20
3065.5236589866081
 30
0.0
 11
3104.5155503706692
 21
3065.5236589866081
 31
0.0
  0
INSERT
  5
827E
  8
3
 62
     0
  2
_OPEN
 10
4005.0155503706692
 20
3065.5236589866081
 30
0.0
 41
50.0
 42
50.0
 43
50.0
  0
INSERT
  5
827F
  8
3
 62
     0
  2
_OPEN
 10
3054.5155503706692
 20
3065.5236589866081
 30
0.0
 41
50.0
 42
50.0
 43
50.0
 50
180.0
  0
TEXT
  8
3
  40
75
  5
82F4
  62
0
  72
0
  71
0
 10
3379.77
 20
2995.27
 30
0.000000
  1
1000
  0
POINT
  5
8281
  8
DEFPOINTS
 62
     0
 10
4005.0155503706692
 20
3008.196155245565
 30
0.0
  0
POINT
  5
8282
  8
DEFPOINTS
 62
     0
 10
3054.5155503706692
 20
2531.6826299277009
 30
0.0
  0
POINT
  5
8283
  8
DEFPOINTS
 62
     0
 10
3054.5155503706692
 20
3065.5236589866081
 30
0.0
  0
ENDBLK
  5
8195
  8
0
  0
BLOCK
  8
0
  2
*D12
 70
     1
 10
0.0
 20
0.0
 30
0.0
  3
*D12
  1

  0
LINE
  5
8284
  8
3
 62
     0
 10
1898.0699105619699
 20
5251.2870676351367
 30
0.0
 11
2323.1147760627791
 21
5251.2870676351358
 31
0.0
  0
LINE
  5
8285
  8
3
 62
     0
 10
1898.075565895138
 20
4151.2870676496732
 30
0.0
 11
2323.1147760627791
 21
4151.2870676496723
 31
0.0
  0
LINE
  5
8286
  8
3
 62
     0
 10
2298.1147760627791
 20
5201.2870676351358
 30
0.0
 11
2298.1147760627791
 21
4201.2870676496723
 31
0.0
  0
INSERT
  5
8287
  8
3
 62
     0
  2
_OPEN
 10
2298.1147760627791
 20
5251.2870676351358
 30
0.0
 41
50.0
 42
50.0
 43
50.0
 50
90.0
  0
INSERT
  5
8288
  8
3
 62
     0
  2
_OPEN
 10
2298.1147760627791
 20
4151.2870676496723
 30
0.0
 41
50.0
 42
50.0
 43
50.0
 50
270.0
  0
TEXT
  8
3
  40
75
  5
82F5
  62
0
  72
0
  71
0
 10
2085.61
 20
4568.54
 30
0.000000
  1
1100
  0
POINT
  5
828A
  8
DEFPOINTS
 62
     0
 10
1885.5699105619699
 20
5251.2870676351367
 30
0.0
  0
POINT
  5
828B
  8
DEFPOINTS
 62
     0
 10
1885.575565895138
 20
4151.2870676496732
 30
0.0
  0
POINT
  5
828C
  8
DEFPOINTS
 62
     0
 10
2298.1147760627791
 20
4151.2870676496723
 30
0.0
  0
ENDBLK
  5
8092
  8
0
  0
BLOCK
  8
0
  2
*D13
 70
     1
 10
0.0
 20
0.0
 30
0.0
  3
*D13
  1

  0
LINE
  5
828D
  8
3
 62
     0
 10
735.5755659103379
 20
4138.781155255906
 30
0.0
 11
735.5755659103379
 21
3805.140302575533
 31
0.0
  0
LINE
  5
828E
  8
3
 62
     0
 10
1885.575565895138
 20
4138.7870676496732
 30
0.0
 11
1885.575565895138
 21
3805.140302575533
 31
0.0
  0
LINE
  5
828F
  8
3
 62
     0
 10
785.5755659103379
 20
3830.140302575533
 30
0.0
 11
1835.575565895138
 21
3830.140302575533
 31
0.0
  0
INSERT
  5
8290
  8
3
 62
     0
  2
_OPEN
 10
735.5755659103379
 20
3830.140302575533
 30
0.0
 41
50.0
 42
50.0
 43
50.0
 50
180.0
  0
INSERT
  5
8291
  8
3
 62
     0
  2
_OPEN
 10
1885.575565895138
 20
3830.140302575533
 30
0.0
 41
50.0
 42
50.0
 43
50.0
  0
TEXT
  8
3
  40
75
  5
82F6
  62
0
  72
0
  71
0
 10
1160.58
 20
3759.89
 30
0.000000
  1
1150
  0
POINT
  5
8293
  8
DEFPOINTS
 62
     0
 10
735.5755659103379
 20
4151.281155255906
 30
0.0
  0
POINT
  5
8294
  8
DEFPOINTS
 62
     0
 10
1885.575565895138
 20
4151.2870676496732
 30
0.0
  0
POINT
  5
8295
  8
DEFPOINTS
 62
     0
 10
1885.575565895138
 20
3830.140302575533
 30
0.0
  0
ENDBLK
  5
8087
  8
0
  0
BLOCK
  8
0
  2
*D14
 70
     1
 10
0.0
 20
0.0
 30
0.0
  3
*D14
  1

  0
LINE
  5
8296
  8
3
 62
     0
 10
723.0755659103379
 20
4151.281155255906
 30
0.0
 11
500.41205349429561
 21
4151.281155255906
 31
0.0
  0
LINE
  5
8297
  8
3
 62
     0
 10
723.07248118315135
 20
4751.2811552479761
 30
0.0
 11
500.41205349429578
 21
4751.2811552479761
 31
0.0
  0
LINE
  5
8298
  8
3
 62
     0
 10
525.41205349429561
 20
4201.281155255906
 30
0.0
 11
525.41205349429583
 21
4701.2811552479761
 31
0.0
  0
INSERT
  5
8299
  8
3
 62
     0
  2
_OPEN
 10
525.41205349429561
 20
4151.281155255906
 30
0.0
 41
50.0
 42
50.0
 43
50.0
 50
270.0
  0
INSERT
  5
829A
  8
3
 62
     0
  2
_OPEN
 10
525.41205349429583
 20
4751.2811552479761
 30
0.0
 41
50.0
 42
50.0
 43
50.0
 50
90.0
  0
TEXT
  8
3
  40
75
  5
82F7
  62
0
  72
0
  71
0
 10
312.912
 20
4318.53
 30
0.000000
  1
600
  0
POINT
  5
829C
  8
DEFPOINTS
 62
     0
 10
735.5755659103379
 20
4151.281155255906
 30
0.0
  0
POINT
  5
829D
  8
DEFPOINTS
 62
     0
 10
735.57248118315135
 20
4751.2811552479761
 30
0.0
  0
POINT
  5
829E
  8
DEFPOINTS
 62
     0
 10
525.41205349429583
 20
4751.2811552479761
 30
0.0
  0
ENDBLK
  5
807C
  8
0
  0
BLOCK
  8
0
  2
*D15
 70
     1
 10
0.0
 20
0.0
 30
0.0
  3
*D15
  1

  0
LINE
  5
829F
  8
3
 62
     0
 10
1885.5699105619699
 20
5263.7870676351367
 30
0.0
 11
1885.5699105619699
 21
5446.5411916662033
 31
0.0
  0
LINE
  5
82A0
  8
3
 62
     0
 10
1385.5699105685781
 20
5263.7844970291508
 30
0.0
 11
1385.5699105685781
 21
5446.5411916662033
 31
0.0
  0
LINE
  5
82A1
  8
3
 62
     0
 10
1835.5699105619699
 20
5421.5411916662042
 30
0.0
 11
1435.5699105685781
 21
5421.5411916662042
 31
0.0
  0
INSERT
  5
82A2
  8
3
 62
     0
  2
_OPEN
 10
1885.5699105619699
 20
5421.5411916662042
 30
0.0
 41
50.0
 42
50.0
 43
50.0
  0
INSERT
  5
82A3
  8
3
 62
     0
  2
_OPEN
 10
1385.5699105685781
 20
5421.5411916662042
 30
0.0
 41
50.0
 42
50.0
 43
50.0
 50
180.0
  0
TEXT
  8
3
  40
75
  5
82F8
  62
0
  72
0
  71
0
 10
1485.57
 20
5351.29
 30
0.000000
  1
500
  0
POINT
  5
82A5
  8
DEFPOINTS
 62
     0
 10
1885.5699105619699
 20
5251.2870676351367
 30
0.0
  0
POINT
  5
82A6
  8
DEFPOINTS
 62
     0
 10
1385.5699105685781
 20
5251.2844970291508
 30
0.0
  0
POINT
  5
82A7
  8
DEFPOINTS
 62
     0
 10
1385.5699105685781
 20
5421.5411916662042
 30
0.0
  0
ENDBLK
  5
8071
  8
0
  0
BLOCK
  8
0
  2
*D16
 70
     1
 10
0.0
 20
0.0
 30
0.0
  3
*D16
  1

  0
LINE
  5
82A8
  8
3
 62
     0
 10
1385.5699105685781
 20
5263.7844970291508
 30
0.0
 11
1385.5699105685781
 21
5446.5411916662033
 31
0.0
  0
LINE
  5
82A9
  8
3
 62
     0
 10
735.56991057716914
 20
4755.3751920973591
 30
0.0
 11
735.56991057716914
 21
5446.5411916662033
 31
0.0
  0
LINE
  5
82AA
  8
3
 62
     0
 10
1335.5699105685781
 20
5421.5411916662042
 30
0.0
 11
785.56991057716914
 21
5421.5411916662042
 31
0.0
  0
INSERT
  5
82AB
  8
3
 62
     0
  2
_OPEN
 10
1385.5699105685781
 20
5421.5411916662042
 30
0.0
 41
50.0
 42
50.0
 43
50.0
  0
INSERT
  5
82AC
  8
3
 62
     0
  2
_OPEN
 10
735.56991057716914
 20
5421.5411916662042
 30
0.0
 41
50.0
 42
50.0
 43
50.0
 50
180.0
  0
TEXT
  8
3
  40
75
  5
82F9
  62
0
  72
0
  71
0
 10
910.570
 20
5351.29
 30
0.000000
  1
650
  0
POINT
  5
82AE
  8
DEFPOINTS
 62
     0
 10
1385.5699105685781
 20
5251.2844970291508
 30
0.0
  0
POINT
  5
82AF
  8
DEFPOINTS
 62
     0
 10
735.56991057716914
 20
4742.8751920973591
 30
0.0
  0
POINT
  5
82B0
  8
DEFPOINTS
 62
     0
 10
735.56991057716914
 20
5421.5411916662042
 30
0.0
  0
ENDBLK
  5
8066
  8
0
  0
BLOCK
  8
0
  2
*D17
 70
     1
 10
0.0
 20
0.0
 30
0.0
  3
*D17
  1

  0
LINE
  5
82B1
  8
3
 62
     0
 10
1653.074600901125
 20
2821.6826299214899
 30
0.0
 11
2312.967265477409
 21
2821.6826299214899
 31
0.0
  0
LINE
  5
82B2
  8
3
 62
     0
 10
2107.5928907363159
 20
2431.6826299214899
 30
0.0
 11
2312.967265477409
 21
2431.6826299214899
 31
0.0
  0
LINE
  5
82B3
  8
3
 62
     0
 10
2287.967265477409
 20
2771.6826299214899
 30
0.0
 11
2287.967265477409
 21
2481.6826299214899
 31
0.0
  0
INSERT
  5
82B4
  8
3
 62
     0
  2
_OPEN
 10
2287.967265477409
 20
2821.6826299214899
 30
0.0
 41
50.0
 42
50.0
 43
50.0
 50
90.0
  0
INSERT
  5
82B5
  8
3
 62
     0
  2
_OPEN
 10
2287.967265477409
 20
2431.6826299214899
 30
0.0
 41
50.0
 42
50.0
 43
50.0
 50
270.0
  0
TEXT
  8
3
  40
75
  5
82FA
  62
0
  72
0
  71
0
 10
2075.47
 20
2493.93
 30
0.000000
  1
390
  0
POINT
  5
82B7
  8
DEFPOINTS
 62
     0
 10
1640.574600901125
 20
2821.6826299214899
 30
0.0
  0
POINT
  5
82B8
  8
DEFPOINTS
 62
     0
 10
2095.092890736315
 20
2431.6826299214899
 30
0.0
  0
POINT
  5
82B9
  8
DEFPOINTS
 62
     0
 10
2287.967265477409
 20
2431.6826299214899
 30
0.0
  0
ENDBLK
  5
805B
  8
0
  0
BLOCK
  8
0
  2
*D18
 70
     1
 10
0.0
 20
0.0
 30
0.0
  3
*D18
  1

  0
LINE
  5
82BA
  8
3
 62
     0
 10
2107.5928907363159
 20
2431.6826299214899
 30
0.0
 11
2312.967265477409
 21
2431.6826299214899
 31
0.0
  0
LINE
  5
82BB
  8
3
 62
     0
 10
1898.076605973728
 20
1871.6826299214899
 30
0.0
 11
2312.967265477409
 21
1871.6826299214899
 31
0.0
  0
LINE
  5
82BC
  8
3
 62
     0
 10
2287.967265477409
 20
2381.6826299214899
 30
0.0
 11
2287.967265477409
 21
1921.6826299214899
 31
0.0
  0
INSERT
  5
82BD
  8
3
 62
     0
  2
_OPEN
 10
2287.967265477409
 20
2431.6826299214899
 30
0.0
 41
50.0
 42
50.0
 43
50.0
 50
90.0
  0
INSERT
  5
82BE
  8
3
 62
     0
  2
_OPEN
 10
2287.967265477409
 20
1871.6826299214899
 30
0.0
 41
50.0
 42
50.0
 43
50.0
 50
270.0
  0
TEXT
  8
3
  40
75
  5
82FB
  62
0
  72
0
  71
0
 10
2075.47
 20
2018.93
 30
0.000000
  1
560
  0
POINT
  5
82C0
  8
DEFPOINTS
 62
     0
 10
2095.092890736315
 20
2431.6826299214899
 30
0.0
  0
POINT
  5
82C1
  8
DEFPOINTS
 62
     0
 10
1885.576605973728
 20
1871.6826299214899
 30
0.0
  0
POINT
  5
82C2
  8
DEFPOINTS
 62
     0
 10
2287.967265477409
 20
1871.6826299214899
 30
0.0
  0
ENDBLK
  5
8050
  8
0
  0
BLOCK
  8
0
  2
*D19
 70
     1
 10
0.0
 20
0.0
 30
0.0
  3
*D19
  1

  0
LINE
  5
81D8
  8
0
  6
BYBLOCK
 62
     0
 10
1898.076605973728
 20
1871.6826299214899
 30
0.0
 11
2312.967265477409
 21
1871.6826299214899
 31
0.0
  0
LINE
  5
81D9
  8
0
  6
BYBLOCK
 62
     0
 10
1898.076605973728
 20
1833.6826299214899
 30
0.0
 11
2312.967265477409
 21
1833.6826299214899
 31
0.0
  0
LINE
  5
81DA
  8
0
  6
BYBLOCK
 62
     0
 10
2287.967265477409
 20
1921.6826299214899
 30
0.0
 11
2287.967265477409
 21
1971.6826299214899
 31
0.0
  0
LINE
  5
81DB
  8
0
  6
BYBLOCK
 62
     0
 10
2287.967265477409
 20
1783.6826299214899
 30
0.0
 11
2287.967265477409
 21
1733.6826299214899
 31
0.0
  0
TEXT
  5
81DC
  8
1
 62
     0
 10
2425.467265477409
 20
1791.9683442072039
 30
0.0
 40
75.0
  1
38
 50
90.0
  0
LINE
  5
81DD
  8
0
  6
BYBLOCK
 62
     0
 10
2287.967265477409
 20
1871.6826299214899
 30
0.0
 11
2287.967265477409
 21
1833.6826299214899
 31
0.0
  0
INSERT
  5
81DE
  8
0
  6
BYBLOCK
 62
     0
  2
_OPEN
 10
2287.967265477409
 20
1871.6826299214899
 30
0.0
 41
50.0
 42
50.0
 43
50.0
 50
270.0
  0
INSERT
  5
81DF
  8
0
  6
BYBLOCK
 62
     0
  2
_DOT
 10
2287.967265477409
 20
1833.6826299214899
 30
0.0
 41
50.0
 42
50.0
 43
50.0
 50
90.0
  0
POINT
  5
81E0
  8
DEFPOINTS
  6
BYBLOCK
 62
     0
 10
1885.576605973728
 20
1871.6826299214899
 30
0.0
  0
POINT
  5
81E1
  8
DEFPOINTS
  6
BYBLOCK
 62
     0
 10
1885.576605973728
 20
1833.6826299214899
 30
0.0
  0
POINT
  5
81E2
  8
DEFPOINTS
  6
BYBLOCK
 62
     0
 10
2287.967265477409
 20
1833.6826299214899
 30
0.0
  0
ENDBLK
  5
81E3
  8
0
  0
BLOCK
  8
0
  2
*D20
 70
     1
 10
0.0
 20
0.0
 30
0.0
  3
*D20
  1

  0
LINE
  5
82C3
  8
3
 62
     0
 10
1898.076605973728
 20
1833.6826299214899
 30
0.0
 11
2312.967265477409
 21
1833.6826299214899
 31
0.0
  0
LINE
  5
82C4
  8
3
 62
     0
 10
1898.076605973728
 20
1758.6826299214899
 30
0.0
 11
2312.967265477409
 21
1758.6826299214899
 31
0.0
  0
LINE
  5
82C5
  8
3
 62
     0
 10
2287.967265477409
 20
1883.6826299214899
 30
0.0
 11
2287.967265477409
 21
1933.6826299214899
 31
0.0
  0
LINE
  5
82C6
  8
3
 62
     0
 10
2287.967265477409
 20
1708.6826299214899
 30
0.0
 11
2287.967265477409
 21
1487.2540584929191
 31
0.0
  0
LINE
  5
82C7
  8
3
 62
     0
 10
2287.967265477409
 20
1833.6826299214899
 30
0.0
 11
2287.967265477409
 21
1758.6826299214899
 31
0.0
  0
INSERT
  5
82C8
  8
3
 62
     0
  2
_DOT
 10
2287.967265477409
 20
1833.6826299214899
 30
0.0
 41
50.0
 42
50.0
 43
50.0
 50
270.0
  0
INSERT
  5
82C9
  8
3
 62
     0
  2
_OPEN
 10
2287.967265477409
 20
1758.6826299214899
 30
0.0
 41
50.0
 42
50.0
 43
50.0
 50
90.0
  0
TEXT
  8
3
  40
75
  5
82FC
  62
0
  72
0
  71
0
 10
2075.47
 20
1440.22
 30
0.000000
  1
75
  0
POINT
  5
82CB
  8
DEFPOINTS
 62
     0
 10
1885.576605973728
 20
1833.6826299214899
 30
0.0
  0
POINT
  5
82CC
  8
DEFPOINTS
 62
     0
 10
1885.576605973728
 20
1758.6826299214899
 30
0.0
  0
POINT
  5
82CD
  8
DEFPOINTS
 62
     0
 10
2287.967265477409
 20
1758.6826299214899
 30
0.0
  0
ENDBLK
  5
81F0
  8
0
  0
BLOCK
  8
0
  2
*D21
 70
     1
 10
0.0
 20
0.0
 30
0.0
  3
*D21
  1

  0
LINE
  5
82CE
  8
3
 62
     0
 10
1653.074600901125
 20
2821.6826299214899
 30
0.0
 11
2502.5858410490891
 21
2821.6826299214899
 31
0.0
  0
LINE
  5
82CF
  8
3
 62
     0
 10
1898.076605973728
 20
1758.6826299214899
 30
0.0
 11
2502.5858410490891
 21
1758.6826299214899
 31
0.0
  0
LINE
  5
82D0
  8
3
 62
     0
 10
2477.5858410490891
 20
2771.6826299214899
 30
0.0
 11
2477.5858410490891
 21
1808.6826299214899
 31
0.0
  0
INSERT
  5
82D1
  8
3
 62
     0
  2
_OPEN
 10
2477.5858410490891
 20
2821.6826299214899
 30
0.0
 41
50.0
 42
50.0
 43
50.0
 50
90.0
  0
INSERT
  5
82D2
  8
3
 62
     0
  2
_OPEN
 10
2477.5858410490891
 20
1758.6826299214899
 30
0.0
 41
50.0
 42
50.0
 43
50.0
 50
270.0
  0
TEXT
  8
3
  40
75
  5
82FD
  62
0
  72
0
  71
0
 10
2265.09
 20
2157.43
 30
0.000000
  1
1063
  0
POINT
  5
82D4
  8
DEFPOINTS
 62
     0
 10
1640.574600901125
 20
2821.6826299214899
 30
0.0
  0
POINT
  5
82D5
  8
DEFPOINTS
 62
     0
 10
1885.576605973728
 20
1758.6826299214899
 30
0.0
  0
POINT
  5
82D6
  8
DEFPOINTS
 62
     0
 10
2477.5858410490891
 20
1758.6826299214899
 30
0.0
  0
ENDBLK
  5
8174
  8
0
  0
BLOCK
  8
0
  2
*D22
 70
     1
 10
0.0
 20
0.0
 30
0.0
  3
*D22
  1

  0
LINE
  5
82D7
  8
3
 62
     0
 10
1635.576605973728
 20
2903.6989146840779
 30
0.0
 11
1635.576605973728
 21
3124.7263718957679
 31
0.0
  0
LINE
  5
82D8
  8
3
 62
     0
 10
2035.576605973728
 20
2411.5356877900808
 30
0.0
 11
2035.576605973728
 21
3124.7263718957679
 31
0.0
  0
LINE
  5
82D9
  8
3
 62
     0
 10
1685.576605973728
 20
3099.7263718957679
 30
0.0
 11
1985.576605973728
 21
3099.7263718957679
 31
0.0
  0
INSERT
  5
82DA
  8
3
 62
     0
  2
_OPEN
 10
1635.576605973728
 20
3099.7263718957679
 30
0.0
 41
50.0
 42
50.0
 43
50.0
 50
180.0
  0
INSERT
  5
82DB
  8
3
 62
     0
  2
_OPEN
 10
2035.576605973728
 20
3099.7263718957679
 30
0.0
 41
50.0
 42
50.0
 43
50.0
  0
TEXT
  8
3
  40
75
  5
82FE
  62
0
  72
0
  71
0
 10
1685.58
 20
3029.48
 30
0.000000
  1
400
  0
POINT
  5
82DD
  8
DEFPOINTS
 62
     0
 10
1635.576605973728
 20
2891.198914684077
 30
0.0
  0
POINT
  5
82DE
  8
DEFPOINTS
 62
     0
 10
2035.576605973728
 20
2399.0356877900808
 30
0.0
  0
POINT
  5
82DF
  8
DEFPOINTS
 62
     0
 10
2035.576605973728
 20
3099.7263718957679
 30
0.0
  0
ENDBLK
  5
81A0
  8
0
  0
BLOCK
  8
0
  2
*D23
 70
     1
 10
0.0
 20
0.0
 30
0.0
  3
*D23
  1

  0
LINE
  5
82E0
  8
3
 62
     0
 10
2035.576605973728
 20
2444.1826299214899
 30
0.0
 11
2035.576605973728
 21
3262.029109528969
 31
0.0
  0
LINE
  5
82E1
  8
3
 62
     0
 10
735.57660597372796
 20
1959.1826299214899
 30
0.0
 11
735.57660597372796
 21
3262.029109528969
 31
0.0
  0
LINE
  5
82E2
  8
3
 62
     0
 10
1985.576605973728
 20
3237.0291095289681
 30
0.0
 11
785.57660597372796
 21
3237.0291095289681
 31
0.0
  0
INSERT
  5
82E3
  8
3
 62
     0
  2
_OPEN
 10
2035.576605973728
 20
3237.0291095289681
 30
0.0
 41
50.0
 42
50.0
 43
50.0
  0
INSERT
  5
82E4
  8
3
 62
     0
  2
_OPEN
 10
735.57660597372796
 20
3237.0291095289681
 30
0.0
 41
50.0
 42
50.0
 43
50.0
 50
180.0
  0
TEXT
  8
3
  40
75
  5
82FF
  62
0
  72
0
  71
0
 10
1235.58
 20
3166.78
 30
0.000000
  1
1300
  0
POINT
  5
82E6
  8
DEFPOINTS
 62
     0
 10
2035.576605973728
 20
2431.6826299214899
 30
0.0
  0
POINT
  5
82E7
  8
DEFPOINTS
 62
     0
 10
735.57660597372796
 20
1946.6826299214899
 30
0.0
  0
POINT
  5
82E8
  8
DEFPOINTS
 62
     0
 10
735.57660597372796
 20
3237.0291095289681
 30
0.0
  0
ENDBLK
  5
811A
  8
0
  0
BLOCK
  8
0
  2
_DOT
 70
     0
 10
0.0
 20
0.0
 30
0.0
  3
_DOT
  1

  0
POLYLINE
  5
81F4
  8
0
  6
BYBLOCK
 62
     0
 66
     1
 10
0.0
 20
0.0
 30
0.0
 70
     1
 40
0.25
 41
0.25
  0
VERTEX
  5
82E9
  8
0
  6
BYBLOCK
 62
     0
 10
-0.125
 20
0.0
 30
0.0
 42
1.0
  0
VERTEX
  5
82EA
  8
0
  6
BYBLOCK
 62
     0
 10
0.125
 20
0.0
 30
0.0
 42
1.0
  0
SEQEND
  5
82EB
  8
0
  6
BYBLOCK
 62
     0
  0
LINE
  5
81F8
  8
0
  6
BYBLOCK
 62
     0
 10
-0.25
 20
0.0
 30
0.0
 11
-1.0
 21
0.0
 31
0.0
  0
ENDBLK
  5
81D6
  8
0
  0
ENDSEC
  0
SECTION
  2
ENTITIES
  0
LINE
  5
7CA0
  8
1
 10
3192.5155503706669
 20
2368.482629927702
 30
0.0
 11
3707.5155503706669
 21
2368.482629927702
 31
0.0
  0
LINE
  5
7CA1
  8
1
 10
3198.0155503706669
 20
1946.6826299277011
 30
0.0
 11
3198.0155503706692
 21
2365.2826299277008
 31
0.0
  0
LINE
  5
7CA2
  8
1
 10
3200.0155503706669
 20
1946.6826299277011
 30
0.0
 11
4260.0155503706701
 21
1946.6826299277011
 31
0.0
  0
LINE
  5
7CA3
  8
1
 10
3160.0155503706669
 20
1871.6826299277011
 30
0.0
 11
4260.0155503706701
 21
1871.6826299277011
 31
0.0
  0
LINE
  5
7CA4
  8
1
 10
1415.57720441371
 20
2315.281498856395
 30
0.0
 11
1091.9942700990439
 21
2315.279835247939
 31
0.0
  0
LINE
  5
7CA5
  8
1
 10
1415.577250684616
 20
2306.2814988565128
 30
0.0
 11
1094.9258293532689
 21
2306.2798503195881
 31
0.0
  0
LINE
  5
7CA6
  8
1
 10
2027.637661218655
 20
2306.284645588823
 30
0.0
 11
1855.5772506788039
 21
2306.2837609897811
 31
0.0
  0
LINE
  5
7CA7
  8
1
 10
2029.270491019015
 20
2315.284653983666
 30
0.0
 11
1855.577204407896
 21
2315.2837609896619
 31
0.0
  0
LINE
  5
7CA8
  8
1
 10
1855.578662455609
 20
1946.6837609934089
 30
0.0
 11
1855.5769473472969
 21
2365.2837609889998
 31
0.0
  0
LINE
  5
7CA9
  8
1
 10
1415.5786624614241
 20
1946.681498860142
 30
0.0
 11
1415.5769473531111
 21
2365.2814988557338
 31
0.0
  0
LINE
  5
7CAA
  8
1
 10
1385.576930901628
 20
2368.481344619332
 30
0.0
 11
1885.576930895021
 21
2368.483915225318
 31
0.0
  0
LINE
  5
7CAB
  8
1
 10
3157.5155503706669
 20
2456.6826299277009
 30
0.0
 11
3792.5155503706669
 21
2456.6826299277009
 31
0.0
  0
LINE
  5
7CAC
  8
1
 10
3157.5155503706678
 20
2406.6826299277009
 30
0.0
 11
3790.5155503706678
 21
2406.6826299277009
 31
0.0
  0
LINE
  5
7CAD
  8
1
 10
3157.5155503706669
 20
2386.6826299277009
 30
0.0
 11
3157.5155503706669
 21
2476.6826299277009
 31
0.0
  0
LINE
  5
7CAE
  8
1
 10
3137.5155503706669
 20
2034.6636412487901
 30
0.0
 11
3137.5155503706669
 21
2212.6636412487901
 31
0.0
  0
LINE
  5
7CAF
  8
1
 10
3074.5155503706669
 20
2034.6636412487901
 30
0.0
 11
3074.5155503706669
 21
2212.6636412487901
 31
0.0
  0
LINE
  5
7CB0
  8
1
 10
3137.5155503706669
 20
2476.6826299277009
 30
0.0
 11
3157.5155503706669
 21
2476.6826299277009
 31
0.0
  0
LINE
  5
7CB1
  8
1
 10
3137.5155503706669
 20
2386.6826299277009
 30
0.0
 11
3157.5155503706669
 21
2386.6826299277009
 31
0.0
  0
LINE
  5
7CB2
  8
1
 10
3159.5155503706669
 20
2088.6843136660709
 30
0.0
 11
3159.5155503706669
 21
2158.6843136660709
 31
0.0
  0
LINE
  5
7CB3
  8
1
 10
3137.5155503706669
 20
2158.6843136660709
 30
0.0
 11
3159.5155503706669
 21
2158.6843136660709
 31
0.0
  0
LINE
  5
7CB4
  8
1
 10
3137.5155503706669
 20
2088.6843136660709
 30
0.0
 11
3159.5155503706669
 21
2088.6843136660709
 31
0.0
  0
LINE
  5
7CB5
  8
1
 10
3054.5155503706692
 20
1968.6636412487919
 30
0.0
 11
3054.5155503706692
 21
2531.6826299277009
 31
0.0
  0
LINE
  5
7CB6
  8
1
 10
3176.5155503706692
 20
1968.6636412487919
 30
0.0
 11
3176.5155503706669
 21
1984.847989672942
 31
0.0
  0
LINE
  5
7CB7
  8
2
 10
3023.6353086566291
 20
2431.6826299277009
 30
0.0
 11
4288.4420062418349
 21
2431.6826299277009
 31
0.0
  0
LINE
  5
7CB8
  8
2
 10
3023.6353086566291
 20
2123.6843136660718
 30
0.0
 11
3208.579861127716
 21
2123.6843136660718
 31
0.0
  0
LINE
  5
7CB9
  8
1
 10
735.5755659103379
 20
4151.281155255906
 30
0.0
 11
921.57609219193455
 21
4151.2821115240386
 31
0.0
  0
LINE
  5
7CBA
  8
1
 10
1885.575565895138
 20
4151.2870676496732
 30
0.0
 11
1885.575370529084
 21
4189.2870676496732
 31
0.0
  0
LINE
  5
7CBB
  8
1
 10
1885.5699105619699
 20
5251.2870676351367
 30
0.0
 11
1385.5699105685781
 21
5251.2844970291508
 31
0.0
  0
LINE
  5
7CBC
  8
1
 10
1385.5724811745631
 20
4751.2844970357573
 30
0.0
 11
1385.5723140851751
 21
4783.784497035329
 31
0.0
  0
LINE
  5
7CBD
  8
1
 10
735.57067999284197
 20
4751.2811552387166
 30
0.0
 11
1385.5724811745631
 21
4751.2844970357582
 31
0.0
  0
LINE
  5
7CBE
  8
1
 10
2035.5699573015511
 20
5211.2878388166428
 30
0.0
 11
1035.569957314756
 21
5211.2826976046726
 31
0.0
  0
LINE
  5
7CBF
  8
2
 10
935.5724811805112
 20
4671.2416985055424
 30
0.0
 11
935.57779617084805
 21
3905.9215158762659
 31
0.0
  0
LINE
  5
7CC0
  8
2
 10
1635.5768619188859
 20
3905.6705966915729
 30
0.0
 11
1635.569570893229
 21
5284.3539671003682
 31
0.0
  0
LINE
  5
7CC7
  8
1
 10
805.57843111494913
 20
1991.6828612754341
 30
0.0
 11
855.57843111428883
 21
1991.6831183360321
 31
0.0
  0
LINE
  5
7CC8
  8
1
 10
805.57843111494913
 20
1991.6828612754341
 30
0.0
 11
805.57835399676969
 21
2006.6828612752361
 31
0.0
  0
LINE
  5
7CC9
  8
1
 10
805.57835399676969
 20
2006.6828612752361
 30
0.0
 11
854.23187281839091
 21
2006.683111413289
 31
0.0
  0
LINE
  5
7CCA
  8
1
 10
855.57835875051751
 20
2005.7583541851391
 30
0.0
 11
855.57843111428883
 21
1991.6831183360321
 31
0.0
  0
LINE
  5
7CCB
  8
1
 10
872.17918013182043
 20
1996.063503675022
 30
0.0
 11
998.97763705454418
 21
1996.064155572767
 31
0.0
  0
LINE
  5
7CCC
  8
1
 10
805.57835399676969
 20
2006.6828612752361
 30
0.0
 11
819.60745578429385
 21
2040.8756780356689
 31
0.0
  0
LINE
  5
7CCD
  8
1
 10
1065.5783539933329
 20
2006.6841979903479
 30
0.0
 11
1051.548900621513
 21
2040.876870495802
 31
0.0
  0
LINE
  5
7CCE
  8
1
 10
1015.578358748402
 20
2005.759176779055
 30
0.0
 11
1015.578431112174
 21
1991.683940929948
 31
0.0
  0
LINE
  5
7CCF
  8
1
 10
1065.5783539933329
 20
2006.6841979903479
 30
0.0
 11
1016.92483517171
 21
2006.683947852295
 31
0.0
  0
LINE
  5
7CD0
  8
1
 10
1065.5784311115131
 20
1991.684197990546
 30
0.0
 11
1065.5783539933329
 21
2006.6841979903479
 31
0.0
  0
LINE
  5
7CD1
  8
2
 10
712.06511742767543
 20
2123.6823805054109
 30
0.0
 11
1088.077752471235
 21
2123.6843136660718
 31
0.0
  0
ARC
  5
7CD2
  8
1
 10
935.57775247325105
 20
2123.6835296312461
 30
0.0
 40
142.0
 50
296.41767482964838
 51
243.5829143098467
  0
CIRCLE
  5
7CD3
  8
1
 10
935.57775247325105
 20
2123.6835296312461
 30
0.0
 40
19.0
  0
LINE
  5
7CD4
  8
2
 10
935.57871389236698
 20
1936.6766042256511
 30
0.0
 11
935.57696843842496
 21
2276.1835296292302
 31
0.0
  0
POLYLINE
  5
7CD5
  8
1
 66
     1
 10
0.0
 20
0.0
 30
0.0
 70
     1
  0
VERTEX
  5
8224
  8
1
 10
760.57866247008315
 20
1946.6826299214899
 30
0.0
  0
VERTEX
  5
8225
  8
1
 10
1110.578662465457
 20
1946.68442934568
 30
0.0
  0
VERTEX
  5
8226
  8
1
 10
1100.578431111051
 20
1991.6843779329649
 30
0.0
  0
VERTEX
  5
8227
  8
1
 10
770.57843111541285
 20
1991.6826813330149
 30
0.0
  0
SEQEND
  5
8228
  8
1
  0
LINE
  5
7CED
  8
1
 10
1035.5747294392879
 20
2796.679545189485
 30
0.0
 11
1069.796710777832
 21
2425.4035615960602
 31
0.0
  0
ARC
  5
7CEE
  8
1
 10
1668.576775633288
 20
2398.6827995819208
 30
0.0
 40
367.0
 50
359.33037884545172
 51
90.000294569748249
  0
ARC
  5
7CEF
  8
1
 10
1593.5768219051861
 20
2389.6824139911419
 30
0.0
 40
442.0
 50
269.94336520208299
 51
0.6107326942640601
  0
ARC
  5
7CF0
  8
1
 10
1593.576390043381
 20
2473.6824139900332
 30
0.0
 40
526.0
 50
185.2662988669795
 51
270.0519161801937
  0
LINE
  5
7D2B
  8
1
 10
1365.5769473537721
 20
2365.281241795135
 30
0.0
 11
1905.576947346636
 21
2365.2840180495991
 31
0.0
  0
LINE
  5
7D2C
  8
1
 10
1365.57720441437
 20
2315.2812417957948
 30
0.0
 11
1365.5769473537721
 21
2365.281241795135
 31
0.0
  0
LINE
  5
7D2D
  8
1
 10
1905.5772044072351
 20
2315.2840180502599
 30
0.0
 11
1905.576947346636
 21
2365.2840180495991
 31
0.0
  0
LINE
  5
7D2E
  8
1
 10
4221.8155503706703
 20
2431.6826299277009
 30
0.0
 11
4221.8155503706703
 21
2411.6826299277
 31
0.0
  0
DIMENSION
  5
7D2F
  8
3
  2
*D1
 10
4217.515550370671
 20
2907.0308316347118
 30
0.0
 11
4016.9284327231562
 21
2907.0308316347118
 31
0.0
 70
   128
 13
3792.5155503706678
 23
2796.6826299277009
 33
0.0
 14
4217.515550370671
 24
2796.6826299277009
 34
0.0
1001
ACAD
1000
DSTYLE
1002
{
1070
   287
1070
     3
1070
    40
1040
25.0
1070
   143
1040
0.039
1070
   172
1070
     1
1070
   271
1070
     0
1070
   279
1070
     0
1070
   288
1070
     1
1002
}
  0
LINE
  5
7D30
  8
1
 10
3137.5155503706669
 20
2212.6636412487901
 30
0.0
 11
3137.5155503706669
 21
2509.1826299276981
 31
0.0
  0
LINE
  5
7D31
  8
1
 10
3074.5155503706669
 20
2212.6636412487901
 30
0.0
 11
3074.5155503706669
 21
2509.1826299276981
 31
0.0
  0
LINE
  5
7D32
  8
1
 10
1010.574616332956
 20
2818.6794166588952
 30
0.0
 11
1640.574616324629
 21
2818.6826556224378
 31
0.0
  0
LINE
  5
7D33
  8
1
 10
4217.5155503706656
 20
1946.6826299277011
 30
0.0
 11
4217.5155503706692
 21
2451.6826299277009
 31
0.0
  0
LINE
  5
7D34
  8
1
 10
3792.515550370666
 20
1946.6826299277011
 30
0.0
 11
3792.5155503706669
 21
2426.6826299277018
 31
0.0
  0
LINE
  5
7D35
  8
1
 10
3192.5155503706669
 20
2365.2826299277008
 30
0.0
 11
3707.5155503706669
 21
2365.2826299277021
 31
0.0
  0
LINE
  5
7D36
  8
1
 10
3707.5155503706669
 20
2368.482629927702
 30
0.0
 11
3707.5155503706669
 21
2365.2826299277021
 31
0.0
  0
LINE
  5
7D37
  8
1
 10
3697.5155503706669
 20
2365.2826299277021
 30
0.0
 11
3697.5155503706669
 21
1946.6826299277011
 31
0.0
  0
LINE
  5
7D38
  8
1
 10
3192.5155503706669
 20
2368.482629927702
 30
0.0
 11
3192.5155503706669
 21
2365.2826299277008
 31
0.0
  0
POLYLINE
  5
7D39
  8
1
 66
     1
 10
0.0
 20
0.0
 30
0.0
 70
     1
  0
VERTEX
  5
8232
  8
1
 10
3697.5155503706669
 20
2315.2826299277021
 30
0.0
  0
VERTEX
  5
8233
  8
1
 10
3747.5155503706669
 20
2315.2826299277021
 30
0.0
  0
VERTEX
  5
8234
  8
1
 10
3747.5155503706669
 20
2316.7826299277021
 30
0.0
 42
0.4142135623730951
  0
VERTEX
  5
8235
  8
1
 10
3743.0155503706669
 20
2321.2826299277021
 30
0.0
  0
VERTEX
  5
8236
  8
1
 10
3710.0155503706669
 20
2321.2826299277021
 30
0.0
 42
-0.4142135623730951
  0
VERTEX
  5
8237
  8
1
 10
3703.5155503706669
 20
2327.7826299277021
 30
0.0
  0
VERTEX
  5
8238
  8
1
 10
3703.5155503706669
 20
2360.7826299277021
 30
0.0
 42
0.4142135623730951
  0
VERTEX
  5
8239
  8
1
 10
3699.0155503706669
 20
2365.2826299277021
 30
0.0
  0
VERTEX
  5
823A
  8
1
 10
3697.5155503706669
 20
2365.2826299277021
 30
0.0
  0
SEQEND
  5
823B
  8
1
  0
LINE
  5
7D44
  8
1
 10
3725.5155503706669
 20
2315.2826299277021
 30
0.0
 11
3790.5155503706669
 21
2315.2826299277021
 31
0.0
  0
LINE
  5
7D45
  8
1
 10
3725.5155503706669
 20
2309.2826299277021
 30
0.0
 11
3790.5155503706669
 21
2309.2826299277021
 31
0.0
  0
LINE
  5
7D46
  8
1
 10
3725.5155503706669
 20
2309.2826299277021
 30
0.0
 11
3725.5155503706669
 21
2315.2826299277021
 31
0.0
  0
LINE
  5
7D47
  8
1
 10
1385.576930901628
 20
2368.481344619332
 30
0.0
 11
1385.576947353507
 21
2365.2813446193741
 31
0.0
  0
LINE
  5
7D48
  8
1
 10
1885.576930895021
 20
2368.483915225318
 30
0.0
 11
1885.576947346899
 21
2365.28391522536
 31
0.0
  0
LINE
  5
7D49
  8
1
 10
3792.5155503706678
 20
2796.6826299277009
 30
0.0
 11
4217.515550370671
 21
2796.6826299277009
 31
0.0
  0
ARC
  5
7D4C
  8
1
 10
1643.6058003283349
 20
2535.6878718970261
 30
0.0
 40
227.59448069142181
 50
92.021729291775372
 51
131.9100624659458
  0
ARC
  5
7D4D
  8
1
 10
1468.874967985797
 20
2750.2817728772438
 30
0.0
 40
50.600000000000001
 50
163.08308233687509
 51
296.66266488914312
  0
LINE
  5
7D4E
  8
1
 10
1436.78987792879
 20
2818.6816079219011
 30
0.0
 11
1420.464546010289
 21
2765.0055986081188
 31
0.0
  0
LINE
  5
7D4F
  8
1
 10
4221.8155503706703
 20
2411.6826299277
 30
0.0
 11
4221.8155503706703
 21
2141.6826299277
 31
0.0
  0
LINE
  5
7D50
  8
1
 10
4260.0155503706701
 20
1871.6826299277011
 30
0.0
 11
4260.0155503706701
 21
1946.6826299277011
 31
0.0
  0
LINE
  5
7D51
  8
2
 10
4005.0155503706669
 20
1669.59621407802
 30
0.0
 11
4005.0155503706692
 21
2900.4960208781831
 31
0.0
  0
LINE
  5
7D52
  8
1
 10
3200.0155503706669
 20
1871.6826299277011
 30
0.0
 11
3160.0155503706669
 21
1871.6826299277011
 31
0.0
  0
LINE
  5
7D53
  8
1
 10
3160.0155503706669
 20
1871.6826299277011
 30
0.0
 11
3160.0155503706669
 21
1873.486253619928
 31
0.0
  0
LINE
  5
7D54
  8
1
 10
3160.0155503706669
 20
1944.8790062354749
 30
0.0
 11
3160.0155503706669
 21
1946.6826299277011
 31
0.0
  0
LINE
  5
7D55
  8
1
 10
3160.0155503706669
 20
1946.6826299277011
 30
0.0
 11
3200.0155503706669
 21
1946.6826299277011
 31
0.0
  0
CIRCLE
  5
7D58
  8
1
 10
1635.576605973728
 20
2431.6826299214899
 30
0.0
 40
72.5
  0
CIRCLE
  5
7D59
  8
1
 10
935.57775247325105
 20
2123.6835296312461
 30
0.0
 40
89.0
  0
LINE
  5
7D5A
  8
1
 10
3074.5155503706669
 20
2504.1826299276991
 30
0.0
 11
3137.5155503706669
 21
2504.1826299276981
 31
0.0
  0
LINE
  5
7D5B
  8
1
 10
3074.5155503706669
 20
2359.182629927705
 30
0.0
 11
3137.5155503706669
 21
2359.182629927705
 31
0.0
  0
LINE
  5
7D5C
  8
1
 10
3074.5155503706669
 20
2212.6636412487901
 30
0.0
 11
3137.5155503706669
 21
2212.6636412487901
 31
0.0
  0
LINE
  5
7D5D
  8
1
 10
3074.5155503706669
 20
2034.6636412487901
 30
0.0
 11
3137.5155503706692
 21
2034.6636412487901
 31
0.0
  0
LINE
  5
7D5E
  8
1
 10
4221.8155503706703
 20
2126.6826299277009
 30
0.0
 11
4221.8155503706703
 21
2151.6826299277009
 31
0.0
  0
LINE
  5
7D5F
  8
1
 10
1615.5821852870549
 20
2501.3710302575892
 30
0.0
 11
911.03287742340387
 21
2209.2320486645249
 31
0.0
  0
LINE
  5
7D60
  8
1
 10
1658.686696506775
 20
2362.964555766619
 30
0.0
 11
963.94738085174856
 21
2039.3261696342311
 31
0.0
  0
LINE
  5
7D61
  8
1
 10
1035.5747294392879
 20
2796.679545189485
 30
0.0
 11
1615.576605973728
 21
2796.6825271020771
 31
0.0
  0
LINE
  5
7D62
  8
1
 10
4224.8155503706703
 20
2144.6826299277
 30
0.0
 11
4224.8155503706703
 21
2431.6826299277009
 31
0.0
  0
LINE
  5
7D63
  8
1
 10
4261.8155503706703
 20
2151.6826299276991
 30
0.0
 11
4261.8155503706703
 21
2711.6826299277018
 31
0.0
  0
DIMENSION
  5
7D64
  8
3
  2
*D2
 10
4413.6278381594693
 20
2151.6826299276991
 30
0.0
 11
4413.6278381594693
 21
2431.6826299277009
 31
0.0
 70
   128
 13
4261.8155503706703
 23
2711.6826299277018
 33
0.0
 14
4261.8155503706703
 24
2151.6826299276991
 34
0.0
 50
90.0
1001
ACAD
1000
DSTYLE
1002
{
1070
   287
1070
     3
1070
    40
1040
25.0
1070
   143
1040
0.039
1070
   172
1070
     1
1070
   271
1070
     0
1070
   279
1070
     0
1070
   288
1070
     1
1002
}
  0
ARC
  5
7D65
  8
1
 10
935.57775247325105
 20
2123.6835296312461
 30
0.0
 40
150.0
 50
103.3878876697971
 51
291.20886316928932
  0
ARC
  5
7D66
  8
1
 10
1633.084412377234
 20
2428.4781807537488
 30
0.0
 40
102.5891975502981
 50
292.14374054274538
 51
101.61916266672741
  0
LINE
  5
7D67
  8
1
 10
900.84641445490342
 20
2269.6072568295849
 30
0.0
 11
1612.4223806281641
 21
2528.9651147203831
 31
0.0
  0
LINE
  5
7D68
  8
1
 10
989.84307071964031
 20
1983.843352158467
 30
0.0
 11
1671.7535105107161
 21
2333.4558449397041
 31
0.0
  0
LINE
  5
7D69
  8
1
 10
3054.5155503706669
 20
2531.6826299277009
 30
0.0
 11
3176.5155503706669
 21
2531.6826299277009
 31
0.0
  0
LINE
  5
7D6A
  8
1
 10
3176.5155503706669
 20
2498.310014891571
 30
0.0
 11
3176.5155503706669
 21
2531.6826299277018
 31
0.0
  0
LINE
  5
7D6B
  8
1
 10
3054.5155503706692
 20
1968.6636412487919
 30
0.0
 11
3176.5155503706692
 21
1968.6636412487919
 31
0.0
  0
LINE
  5
7D6C
  8
1
 10
3771.5671417664498
 20
2431.6826299277009
 30
0.0
 11
3771.5671417664498
 21
2431.6826299277009
 31
0.0
  0
LINE
  5
7D6D
  8
1
 10
4242.5155503706692
 20
2711.6826299277018
 30
0.0
 11
4261.8155503706703
 21
2711.6826299277018
 31
0.0
  0
LINE
  5
7D6E
  8
1
 10
4261.8155503706703
 20
2711.6826299277018
 30
0.0
 11
4261.8155503706703
 21
2712.6826299277018
 31
0.0
  0
LINE
  5
7D6F
  8
1
 10
4242.5155503706701
 20
2714.6826299277018
 30
0.0
 11
4259.8155503706703
 21
2714.6826299277018
 31
0.0
  0
ARC
  5
7D70
  8
1
 10
4259.8155503706703
 20
2712.6826299277018
 30
0.0
 40
2.0
 50
359.9999999999992
 51
89.999999999999588
  0
ARC
  5
7D71
  8
1
 10
4228.8155503706703
 20
2144.6826299277
 30
0.0
 40
4.0
 50
90.0
 51
180.0
  0
ARC
  5
7D72
  8
1
 10
4222.8155503706703
 20
2128.6826299277
 30
0.0
 40
2.0
 50
269.9999999999992
 51
0.0
  0
LINE
  5
7D73
  8
1
 10
4224.8155503706703
 20
2144.6826299277
 30
0.0
 11
4224.8155503706703
 21
2128.6826299277
 31
0.0
  0
ARC
  5
7D74
  8
1
 10
4259.8155503706703
 20
2150.6826299277
 30
0.0
 40
2.0
 50
270.0000000000004
 51
0.0000000000008142
  0
LINE
  5
7D75
  8
1
 10
4228.8155503706703
 20
2148.6826299276991
 30
0.0
 11
4259.8155503706703
 21
2148.6826299276991
 31
0.0
  0
LINE
  5
7D76
  8
1
 10
4261.8155503706703
 20
2151.6826299276991
 30
0.0
 11
4261.8155503706703
 21
2150.6826299277
 31
0.0
  0
LINE
  5
7D77
  8
1
 10
4221.8155503706703
 20
2151.6826299276991
 30
0.0
 11
4261.8155503706703
 21
2151.6826299276991
 31
0.0
  0
LINE
  5
7D78
  8
1
 10
4221.8155503706703
 20
2126.6826299276991
 30
0.0
 11
4222.8155503706703
 21
2126.6826299276991
 31
0.0
  0
LINE
  5
7D79
  8
1
 10
4221.8155503706703
 20
2151.6826299276991
 30
0.0
 11
4221.8155503706703
 21
2126.6826299276991
 31
0.0
  0
LINE
  5
7D8C
  8
1
 10
3160.0155503706669
 20
1871.6826299277011
 30
0.0
 11
3160.0155503706669
 21
1946.6826299277011
 31
0.0
  0
LINE
  5
7D8D
  8
1
 10
3160.0155503706669
 20
1833.6826299277011
 30
0.0
 11
4260.0155503706701
 21
1833.6826299277011
 31
0.0
  0
LINE
  5
7D8E
  8
1
 10
3160.0155503706669
 20
1758.6826299277011
 30
0.0
 11
4260.0155503706701
 21
1758.6826299277011
 31
0.0
  0
LINE
  5
7D8F
  8
1
 10
3160.0155503706669
 20
1833.6826299277011
 30
0.0
 11
3160.0155503706669
 21
1758.6826299277011
 31
0.0
  0
LINE
  5
7D90
  8
1
 10
4260.0155503706701
 20
1833.6826299277011
 30
0.0
 11
4260.0155503706701
 21
1758.6826299277011
 31
0.0
  0
LINE
  5
7D91
  8
2
 10
1635.576605973728
 20
3098.2192667301128
 30
0.0
 11
1635.576605973728
 21
1673.1661675766829
 31
0.0
  0
LINE
  5
7D92
  8
1
 10
735.57660597372796
 20
1946.6826299214899
 30
0.0
 11
735.57660597372876
 21
1871.6826299214899
 31
0.0
  0
LINE
  5
7D93
  8
1
 10
735.57660597372876
 20
1833.6780028239359
 30
0.0
 11
735.57660597372876
 21
1758.6780028229441
 31
0.0
  0
DIMENSION
  5
7D94
  8
3
  2
*D3
 10
1635.576605973728
 20
1630.577663424272
 30
0.0
 11
1185.576605973728
 21
1693.077663424272
 31
0.0
 70
     0
 13
735.57660597372876
 23
1758.6780028229441
 33
0.0
 14
1635.576605973728
 24
1676.253425267565
 34
0.0
1001
ACAD
1000
DSTYLE
1002
{
1070
   287
1070
     3
1070
    40
1040
25.0
1070
   143
1040
0.039
1070
   172
1070
     1
1070
   271
1070
     0
1070
   279
1070
     0
1070
   288
1070
     1
1002
}
  0
LINE
  5
7D95
  8
1
 10
1885.576605973728
 20
1946.683915219196
 30
0.0
 11
1885.576605973728
 21
1871.6826299214899
 31
0.0
  0
LINE
  5
7D96
  8
1
 10
1885.576605973728
 20
1833.6826299214899
 30
0.0
 11
1885.576605973728
 21
1758.6826299214899
 31
0.0
  0
DIMENSION
  5
7D97
  8
3
  2
*D4
 10
1885.576605973728
 20
1630.577663424272
 30
0.0
 11
1760.576605973728
 21
1687.8217315119571
 31
0.0
 70
   128
 13
1635.576605973728
 23
1673.1661675766829
 33
0.0
 14
1885.576605973728
 24
1758.6839152167111
 34
0.0
1001
ACAD
1000
DSTYLE
1002
{
1070
   288
1070
     1
1070
   172
1070
     1
1070
    40
1040
25.0
1070
   271
1070
     0
1070
   143
1040
0.039
1002
}
  0
DIMENSION
  5
7D98
  8
3
  2
*D5
 10
1885.576605973728
 20
1509.8687536549751
 30
0.0
 11
1310.576605973728
 21
1572.3687536549751
 31
0.0
 70
     0
 13
735.57660597372876
 23
1758.6780028229441
 33
0.0
 14
1885.576605973728
 24
1758.6839152167111
 34
0.0
1001
ACAD
1000
DSTYLE
1002
{
1070
   287
1070
     3
1070
    40
1040
25.0
1070
   143
1040
0.039
1070
   172
1070
     1
1070
   271
1070
     0
1070
   279
1070
     0
1070
   288
1070
     1
1002
}
  0
DIMENSION
  5
7D99
  8
3
  2
*D6
 10
4005.0155503706669
 20
1635.6739188508079
 30
0.0
 11
3582.5155503706669
 21
1698.1739188508079
 31
0.0
 70
     0
 13
3160.0155503706669
 23
1758.6826299277011
 33
0.0
 14
4005.0155503706669
 24
1712.0844535321139
 34
0.0
1001
ACAD
1000
DSTYLE
1002
{
1070
   287
1070
     3
1070
    40
1040
25.0
1070
   143
1040
0.039
1070
   172
1070
     1
1070
   271
1070
     0
1070
   279
1070
     0
1070
   288
1070
     1
1002
}
  0
DIMENSION
  5
7D9A
  8
3
  2
*D7
 10
4260.0155503706701
 20
1636.2691347235709
 30
0.0
 11
4132.5155503706683
 21
1690.216712685261
 31
0.0
 12
0.0
 22
-42.488239454094582
 32
0.0
 70
   128
 13
4005.0155503706669
 23
1669.59621407802
 33
0.0
 14
4260.0155503706701
 24
1716.194390473607
 34
0.0
1001
ACAD
1000
DSTYLE
1002
{
1070
   288
1070
     1
1070
   172
1070
     1
1070
    40
1040
25.0
1070
   271
1070
     0
1070
   143
1040
0.039
1002
}
  0
DIMENSION
  5
7D9B
  8
3
  2
*D8
 10
4260.0155503706701
 20
1506.688124525424
 30
0.0
 11
3710.0155503706678
 21
1569.188124525424
 31
0.0
 70
     0
 13
3160.0155503706669
 23
1758.6826299277011
 33
0.0
 14
4260.0155503706701
 24
1758.6826299277011
 34
0.0
1001
ACAD
1000
DSTYLE
1002
{
1070
   287
1070
     3
1070
    40
1040
25.0
1070
   143
1040
0.039
1070
   172
1070
     1
1070
   271
1070
     0
1070
   279
1070
     0
1070
   288
1070
     1
1002
}
  0
LINE
  5
7D9C
  8
1
 10
1010.574616332956
 20
2818.6794166588961
 30
0.0
 11
1010.5746008928
 21
2821.6826299214899
 31
0.0
  0
LINE
  5
7D9D
  8
1
 10
1640.574616324629
 20
2818.6826556224369
 30
0.0
 11
1640.5746009009929
 21
2821.6826556223982
 31
0.0
  0
LINE
  5
7D9E
  8
2
 10
996.49948519415193
 20
2431.6826299214899
 30
0.0
 11
2095.092890736315
 21
2431.6826299214899
 31
0.0
  0
LINE
  5
7D9F
  8
1
 10
1035.5766059737291
 20
2796.6795451991329
 30
0.0
 11
1035.5766059737291
 21
2818.679545199424
 31
0.0
  0
DIMENSION
  5
7DA0
  8
3
  2
*D9
 10
1635.576605973728
 20
3099.7263718957679
 30
0.0
 11
1335.5766059737291
 21
3162.2263718957679
 31
0.0
 70
     0
 13
1035.5766059737291
 23
2818.679545199424
 33
0.0
 14
1635.576605973728
 24
2891.198914684077
 34
0.0
 50
180.0
1001
ACAD
1000
DSTYLE
1002
{
1070
   287
1070
     3
1070
    40
1040
25.0
1070
   143
1040
0.039
1070
   172
1070
     1
1070
   271
1070
     0
1070
   279
1070
     0
1070
   288
1070
     1
1002
}
  0
LINE
  5
7DA1
  8
1
 10
1615.576605973728
 20
2761.549802963395
 30
0.0
 11
1615.576605973728
 21
2818.6795451994171
 31
0.0
  0
LINE
  5
7DA2
  8
1
 10
1668.574888808489
 20
2765.6827995770709
 30
0.0
 11
1635.576605973728
 21
2763.1406794840368
 31
0.0
  0
DIMENSION
  5
7DA3
  8
3
  2
*D10
 10
1615.576605973728
 20
2963.0983775446462
 30
0.0
 11
1325.576605973728
 21
3025.5983775446462
 31
0.0
 70
     0
 13
1035.5766059737291
 23
2818.679545199424
 33
0.0
 14
1615.576605973728
 24
2796.6825271020771
 34
0.0
 50
180.0
1001
ACAD
1000
DSTYLE
1002
{
1070
   287
1070
     3
1070
    40
1040
25.0
1070
   143
1040
0.039
1070
   172
1070
     1
1070
   271
1070
     0
1070
   279
1070
     0
1070
   288
1070
     1
1002
}
  0
LINE
  5
7DA4
  8
1
 10
735.57660597372876
 20
1871.6826299214899
 30
0.0
 11
1885.576605973728
 21
1871.6826299214899
 31
0.0
  0
LINE
  5
7DA5
  8
1
 10
735.57660597372876
 20
1833.6826299214899
 30
0.0
 11
1885.576605973728
 21
1833.6826299214899
 31
0.0
  0
LINE
  5
7DA6
  8
1
 10
735.57660597372876
 20
1758.6826299214899
 30
0.0
 11
1885.576605973728
 21
1758.6826299214899
 31
0.0
  0
LINE
  5
7DA7
  8
1
 10
1010.5746008928
 20
2821.6826299214899
 30
0.0
 11
1640.5746009011259
 21
2821.6826299214899
 31
0.0
  0
LINE
  5
7DA8
  8
1
 10
1593.0997771534319
 20
1947.6826299214899
 30
0.0
 11
1594.0530029331451
 21
1947.6826299214899
 31
0.0
  0
DIMENSION
  5
7DA9
  8
3
  2
*D11
 10
3054.5155503706692
 20
3065.5236589866081
 30
0.0
 11
3529.7655503706692
 21
3128.0236589866081
 31
0.0
 70
     0
  1
1000
 13
4005.0155503706692
 23
3008.196155245565
 33
0.0
 14
3054.5155503706692
 24
2531.6826299277009
 34
0.0
1001
ACAD
1000
DSTYLE
1002
{
1070
   287
1070
     3
1070
    40
1040
25.0
1070
   143
1040
0.039
1070
   172
1070
     1
1070
   271
1070
     0
1070
   279
1070
     0
1070
   288
1070
     1
1002
}
  0
DIMENSION
  5
7DAA
  8
3
  2
*D12
 10
2298.1147760627791
 20
4151.2870676496723
 30
0.0
 11
2235.6147760627782
 21
4701.2870676424036
 31
0.0
 70
     0
 13
1885.5699105619699
 23
5251.2870676351367
 33
0.0
 14
1885.575565895138
 24
4151.2870676496732
 34
0.0
 50
90.0
1001
ACAD
1000
DSTYLE
1002
{
1070
   287
1070
     3
1070
    40
1040
25.0
1070
   143
1040
0.039
1070
   172
1070
     1
1070
   271
1070
     0
1070
   279
1070
     0
1070
   288
1070
     1
1002
}
  0
LINE
  5
7DAB
  8
2
 10
2061.1224410894861
 20
4996.2879701845377
 30
0.0
 11
1094.19367674112
 21
4996.2829989987986
 31
0.0
  0
LINE
  5
7DAC
  8
1
 10
2035.5722180914729
 20
4783.7878388226163
 30
0.0
 11
1035.5722181046769
 21
4783.7826976106462
 31
0.0
  0
LINE
  5
7DAD
  8
1
 10
1385.5701162170569
 20
5211.2844970296792
 30
0.0
 11
1385.5699105685781
 21
5251.2844970291508
 31
0.0
  0
LINE
  5
7DAE
  8
1
 10
1885.5701162104481
 20
5211.2870676356642
 30
0.0
 11
1885.5699105619699
 21
5251.2870676351367
 31
0.0
  0
LINE
  5
7DAF
  8
1
 10
1660.5763827097669
 20
4099.2857823488303
 30
0.0
 11
1660.5763827097669
 21
4783.7859108895391
 31
0.0
  0
LINE
  5
7DB0
  8
1
 10
1610.5763827097669
 20
4099.2857823488303
 30
0.0
 11
1610.5763827097669
 21
4783.7856538289398
 31
0.0
  0
LINE
  5
7DB1
  8
1
 10
846.55591979785083
 20
4079.2824348164372
 30
0.0
 11
1024.5559197978509
 21
4079.2824348164372
 31
0.0
  0
LINE
  5
7DB2
  8
1
 10
846.55591979785083
 20
4016.2824348164359
 30
0.0
 11
1024.5559197978509
 21
4016.2824348164359
 31
0.0
  0
LINE
  5
7DB3
  8
1
 10
780.55591979785174
 20
3996.2824348164381
 30
0.0
 11
1735.5763827097669
 21
3996.2857823488321
 31
0.0
  0
LINE
  5
7DB4
  8
1
 10
935.57659221513131
 20
3965.4021931023981
 30
0.0
 11
935.57659221513131
 21
4134.237350444886
 31
0.0
  0
LINE
  5
7DB5
  8
1
 10
780.55591979785174
 20
3996.2824348164381
 30
0.0
 11
780.55591979785174
 21
4118.2824348164377
 31
0.0
  0
LINE
  5
7DB6
  8
1
 10
780.55591979785174
 20
4118.2824348164377
 30
0.0
 11
921.57632136786287
 21
4118.2824348164222
 31
0.0
  0
LINE
  5
7DB7
  8
1
 10
846.55591979785083
 20
4016.2824348164359
 30
0.0
 11
846.55591979785083
 21
4079.2824348164381
 31
0.0
  0
LINE
  5
7DB8
  8
1
 10
900.57659221513131
 20
4101.2824348164349
 30
0.0
 11
970.57659221513131
 21
4101.2824348164349
 31
0.0
  0
LINE
  5
7DB9
  8
1
 10
900.57659221513131
 20
4079.2824348164372
 30
0.0
 11
900.57659221513131
 21
4101.2824348164349
 31
0.0
  0
LINE
  5
7DBA
  8
1
 10
970.57659221513131
 20
4079.2824348164372
 30
0.0
 11
970.57659221513131
 21
4101.2824348164349
 31
0.0
  0
LINE
  5
7DBB
  8
1
 10
1590.5763827097669
 20
4099.2857823488303
 30
0.0
 11
1680.5763827097669
 21
4099.2857823488303
 31
0.0
  0
LINE
  5
7DBC
  8
1
 10
1024.55591979785
 20
4079.2824348164372
 30
0.0
 11
1713.076382709763
 21
4079.2857823488298
 31
0.0
  0
LINE
  5
7DBD
  8
1
 10
1024.5559197978509
 20
4016.2824348164359
 30
0.0
 11
1713.0763827097639
 21
4016.2857823488298
 31
0.0
  0
LINE
  5
7DBE
  8
1
 10
1563.0763827097701
 20
4016.2857823488298
 30
0.0
 11
1563.0763827097701
 21
4079.2857823488298
 31
0.0
  0
LINE
  5
7DBF
  8
1
 10
1024.5559197978509
 20
4016.2824348164359
 30
0.0
 11
1024.55591979785
 21
4079.2824348164372
 31
0.0
  0
LINE
  5
7DC0
  8
1
 10
1590.5763827097669
 20
4079.2857823488298
 30
0.0
 11
1590.5763827097669
 21
4099.2857823488303
 31
0.0
  0
LINE
  5
7DC1
  8
1
 10
1708.0763827097639
 20
4016.2857823488298
 30
0.0
 11
1708.076382709763
 21
4079.2857823488298
 31
0.0
  0
LINE
  5
7DC2
  8
1
 10
1735.5763827097669
 20
3996.2857823488312
 30
0.0
 11
1735.5763827097669
 21
4118.2857823488303
 31
0.0
  0
LINE
  5
7DC3
  8
1
 10
1702.2037676736361
 20
4118.2857823488303
 30
0.0
 11
1735.576382709768
 21
4118.2857823488303
 31
0.0
  0
LINE
  5
7DC4
  8
1
 10
1680.5763827097669
 20
4079.2857823488298
 30
0.0
 11
1680.5763827097669
 21
4099.2857823488303
 31
0.0
  0
LINE
  5
7DC5
  8
1
 10
1885.576930895021
 20
4189.2870676496732
 30
0.0
 11
1660.5763827097669
 21
4189.287067649675
 31
0.0
  0
LINE
  5
7DC6
  8
1
 10
1885.575565895138
 20
4151.2870676496732
 30
0.0
 11
1885.575565895138
 21
4191.2870676496732
 31
0.0
  0
LINE
  5
7DC7
  8
1
 10
1385.576930901628
 20
4688.7870676496732
 30
0.0
 11
1610.5763827097669
 21
4688.7870676496732
 31
0.0
  0
LINE
  5
7DC8
  8
1
 10
1885.572802493703
 20
4688.7870676496732
 30
0.0
 11
1885.572314078566
 21
4783.7870676413149
 31
0.0
  0
LINE
  5
7DC9
  8
1
 10
1660.5763827097669
 20
4688.7870676496732
 30
0.0
 11
1885.576930895021
 21
4688.7870676496732
 31
0.0
  0
LINE
  5
7DCA
  8
1
 10
1610.5763827097669
 20
4189.287067649675
 30
0.0
 11
1385.576930901628
 21
4189.2870676496768
 31
0.0
  0
LINE
  5
7DCB
  8
1
 10
1660.5763827097669
 20
4118.2824348163394
 30
0.0
 11
1735.5763827097669
 21
4118.2824348163304
 31
0.0
  0
LINE
  5
7DCC
  8
1
 10
1660.5763827097669
 20
4151.285910881179
 30
0.0
 11
1885.575565895138
 21
4151.2870676496732
 31
0.0
  0
LINE
  5
7DCD
  8
1
 10
1885.576930895021
 20
4189.2870676496732
 30
0.0
 11
1885.576930895021
 21
4688.7870676496732
 31
0.0
  0
LINE
  5
7DCE
  8
1
 10
1385.576930901628
 20
4189.2870676496768
 30
0.0
 11
1385.576930901628
 21
4688.7870676496732
 31
0.0
  0
DIMENSION
  5
7DCF
  8
3
  2
*D13
 10
1885.575565895138
 20
3830.140302575533
 30
0.0
 11
1310.5755659027379
 21
3892.640302575533
 31
0.0
 70
     0
 13
735.5755659103379
 23
4151.281155255906
 33
0.0
 14
1885.575565895138
 24
4151.2870676496732
 34
0.0
1001
ACAD
1000
DSTYLE
1002
{
1070
   287
1070
     3
1070
    40
1040
25.0
1070
   143
1040
0.039
1070
   172
1070
     1
1070
   271
1070
     0
1070
   279
1070
     0
1070
   288
1070
     1
1002
}
  0
DIMENSION
  5
7DD0
  8
3
  2
*D14
 10
525.41205349429583
 20
4751.2811552479761
 30
0.0
 11
462.91205349429498
 21
4451.2811552519406
 31
0.0
 70
     0
 13
735.5755659103379
 23
4151.281155255906
 33
0.0
 14
735.57248118315135
 24
4751.2811552479761
 34
0.0
 50
90.0
1001
ACAD
1000
DSTYLE
1002
{
1070
   287
1070
     3
1070
    40
1040
25.0
1070
   143
1040
0.039
1070
   172
1070
     1
1070
   271
1070
     0
1070
   279
1070
     0
1070
   288
1070
     1
1002
}
  0
DIMENSION
  5
7DD1
  8
3
  2
*D15
 10
1385.5699105685781
 20
5421.5411916662042
 30
0.0
 11
1635.5699105652741
 21
5484.0411916662042
 31
0.0
 70
     0
 13
1885.5699105619699
 23
5251.2870676351367
 33
0.0
 14
1385.5699105685781
 24
5251.2844970291508
 34
0.0
1001
ACAD
1000
DSTYLE
1002
{
1070
   287
1070
     3
1070
    40
1040
25.0
1070
   143
1040
0.039
1070
   172
1070
     1
1070
   271
1070
     0
1070
   279
1070
     0
1070
   288
1070
     1
1002
}
  0
LINE
  5
7DD2
  8
1
 10
735.57556591034324
 20
4151.281155255906
 30
0.0
 11
735.57067999284197
 21
4751.2811552387147
 31
0.0
  0
DIMENSION
  5
7DD3
  8
3
  2
*D16
 10
735.56991057716914
 20
5421.5411916662042
 30
0.0
 11
1060.5699105728729
 21
5484.0411916662042
 31
0.0
 70
     0
 13
1385.5699105685781
 23
5251.2844970291508
 33
0.0
 14
735.56991057716914
 24
4742.8751920973591
 34
0.0
1001
ACAD
1000
DSTYLE
1002
{
1070
   287
1070
     3
1070
    40
1040
25.0
1070
   143
1040
0.039
1070
   172
1070
     1
1070
   271
1070
     0
1070
   279
1070
     0
1070
   288
1070
     1
1002
}
  0
LINE
  5
7DD4
  8
1
 10
735.57660597372796
 20
1946.6826299214899
 30
0.0
 11
1885.576605973728
 21
1946.6826299214899
 31
0.0
  0
LINE
  5
7DD5
  8
1
 10
3767.515550370666
 20
2821.6826299277009
 30
0.0
 11
4242.515550370671
 21
2821.6826299277018
 31
0.0
  0
LINE
  5
7DD6
  8
1
 10
4217.5155503706692
 20
2451.6826299277009
 30
0.0
 11
4217.515550370671
 21
2821.6826299277018
 31
0.0
  0
LINE
  5
7DD7
  8
1
 10
3792.5155503706678
 20
2431.6826299277009
 30
0.0
 11
3792.515550370666
 21
2821.6826299277009
 31
0.0
  0
LINE
  5
7DD8
  8
1
 10
1077.5777524732509
 20
4161.2824348164368
 30
0.0
 11
1077.5777524732509
 21
4527.2824348164368
 31
0.0
  0
LINE
  5
7DD9
  8
1
 10
793.57775247325105
 20
4161.2824348164359
 30
0.0
 11
793.57775247325105
 21
4527.2824348164349
 31
0.0
  0
LINE
  5
7DDA
  8
1
 10
793.57775247325105
 20
4161.2824348164359
 30
0.0
 11
1077.5777524732509
 21
4161.2824348164368
 31
0.0
  0
LINE
  5
7DDB
  8
1
 10
793.57775247324935
 20
4527.2824348164349
 30
0.0
 11
1077.5777524732489
 21
4527.2824348164368
 31
0.0
  0
LINE
  5
7DDC
  8
1
 10
949.57602274243345
 20
4161.2824348164359
 30
0.0
 11
949.5764394300204
 21
4101.2824348164359
 31
0.0
  0
LINE
  5
7DDD
  8
1
 10
921.57602274175861
 20
4161.2824348164359
 30
0.0
 11
921.57643942934556
 21
4101.2824348164349
 31
0.0
  0
LINE
  5
7DDE
  8
1
 10
949.57609219160986
 20
4151.2822554779741
 30
0.0
 11
1610.5763827097669
 21
4151.2856538205824
 31
0.0
  0
LINE
  5
7DDF
  8
1
 10
949.57632136853772
 20
4118.2824348164186
 30
0.0
 11
1610.5763827097669
 21
4118.2824348163449
 31
0.0
  0
LINE
  5
7DE0
  8
1
 10
3198.0155503706669
 20
2137.6859377821102
 30
0.0
 11
3159.5155503706669
 21
2137.6856704075749
 31
0.0
  0
LINE
  5
7DE1
  8
1
 10
3198.0155503706678
 20
2109.6859377814339
 30
0.0
 11
3159.5155503706678
 21
2109.6856704069
 31
0.0
  0
DIMENSION
  5
7DE2
  8
3
  2
*D17
 10
2287.967265477409
 20
2431.6826299214899
 30
0.0
 11
2225.467265477409
 21
2626.6826299214908
 31
0.0
 70
     0
 13
1640.574600901125
 23
2821.6826299214899
 33
0.0
 14
2095.092890736315
 24
2431.6826299214899
 34
0.0
 50
90.0
1001
ACAD
1000
DSTYLE
1002
{
1070
   287
1070
     3
1070
    40
1040
25.0
1070
   143
1040
0.039
1070
   172
1070
     1
1070
   271
1070
     0
1070
   279
1070
     0
1070
   288
1070
     1
1002
}
  0
DIMENSION
  5
7DE3
  8
3
  2
*D18
 10
2287.967265477409
 20
1871.6826299214899
 30
0.0
 11
2225.467265477409
 21
2151.6826299214908
 31
0.0
 70
     0
 13
2095.092890736315
 23
2431.6826299214899
 33
0.0
 14
1885.576605973728
 24
1871.6826299214899
 34
0.0
 50
90.0
1001
ACAD
1000
DSTYLE
1002
{
1070
   287
1070
     3
1070
    40
1040
25.0
1070
   143
1040
0.039
1070
   172
1070
     1
1070
   271
1070
     0
1070
   279
1070
     0
1070
   288
1070
     1
1002
}
  0
DIMENSION
  5
7DE4
  8
3
  2
*D19
 10
2287.967265477409
 20
1833.6826299214899
 30
0.0
 11
2387.967265477409
 21
1852.6826299214899
 31
0.0
 70
     0
 13
1885.576605973728
 23
1871.6826299214899
 33
0.0
 14
1885.576605973728
 24
1833.6826299214899
 34
0.0
 50
90.0
1001
ACAD
1000
DSTYLE
1002
{
1070
   288
1070
     1
1070
   172
1070
     1
1070
    40
1040
25.0
1070
   271
1070
     0
1070
     7
1000
_DOT
1070
   143
1040
0.039
1002
}
  0
DIMENSION
  5
7DE5
  8
3
  2
*D20
 10
2287.967265477409
 20
1758.6826299214899
 30
0.0
 11
2225.467265477409
 21
1572.9683442072039
 31
0.0
 70
     0
 13
1885.576605973728
 23
1833.6826299214899
 33
0.0
 14
1885.576605973728
 24
1758.6826299214899
 34
0.0
 50
90.0
1001
ACAD
1000
DSTYLE
1002
{
1070
   287
1070
     3
1070
    40
1040
25.0
1070
   143
1040
0.039
1070
   172
1070
     1
1070
   271
1070
     0
1070
   279
1070
     0
1070
   288
1070
     1
1070
     6
1000
DOT
1002
}
  0
DIMENSION
  5
7DE6
  8
3
  2
*D21
 10
2477.5858410490891
 20
1758.6826299214899
 30
0.0
 11
2415.0858410490878
 21
2290.1826299214908
 31
0.0
 70
     0
 13
1640.574600901125
 23
2821.6826299214899
 33
0.0
 14
1885.576605973728
 24
1758.6826299214899
 34
0.0
 50
90.0
1001
ACAD
1000
DSTYLE
1002
{
1070
   287
1070
     3
1070
    40
1040
25.0
1070
   143
1040
0.039
1070
   172
1070
     1
1070
   271
1070
     0
1070
   279
1070
     0
1070
   288
1070
     1
1002
}
  0
LINE
  5
7DE7
  8
1
 10
2035.576605973728
 20
2399.0356877900808
 30
0.0
 11
2035.576605973728
 21
2389.2455119857491
 31
0.0
  0
DIMENSION
  5
7DE8
  8
3
  2
*D22
 10
2035.576605973728
 20
3099.7263718957679
 30
0.0
 11
1835.576605973728
 21
3162.2263718957679
 31
0.0
 70
     0
 13
1635.576605973728
 23
2891.198914684077
 33
0.0
 14
2035.576605973728
 24
2399.0356877900808
 34
0.0
1001
ACAD
1000
DSTYLE
1002
{
1070
   287
1070
     3
1070
    40
1040
25.0
1070
   143
1040
0.039
1070
   172
1070
     1
1070
   271
1070
     0
1070
   279
1070
     0
1070
   288
1070
     1
1002
}
  0
LINE
  5
7DE9
  8
1
 10
3767.515550370666
 20
2816.6826299277009
 30
0.0
 11
4242.515550370671
 21
2816.6826299277018
 31
0.0
  0
LINE
  5
7DEA
  8
1
 10
3767.515550370666
 20
2821.6826299277009
 30
0.0
 11
3767.515550370666
 21
2816.6826299277009
 31
0.0
  0
LINE
  5
7DEB
  8
1
 10
4242.515550370671
 20
2821.6826299277018
 30
0.0
 11
4242.515550370671
 21
2816.6826299277018
 31
0.0
  0
LINE
  5
7DEC
  8
1
 10
4224.8155503706703
 20
2718.6826299277041
 30
0.0
 11
4224.8155503706703
 21
2431.6826299277009
 31
0.0
  0
LINE
  5
7DED
  8
1
 10
4221.8155503706703
 20
2431.6826299277009
 30
0.0
 11
4221.8155503706703
 21
2721.6826299277018
 31
0.0
  0
LINE
  5
7DEE
  8
1
 10
4221.8155503706703
 20
2711.6826299277031
 30
0.0
 11
4221.8155503706703
 21
2736.6826299277031
 31
0.0
  0
ARC
  5
7DEF
  8
1
 10
4259.8155503706703
 20
2712.6826299277031
 30
0.0
 40
2.0
 50
359.9999999999992
 51
89.999999999999588
  0
LINE
  5
7DF0
  8
1
 10
4221.8155503706703
 20
2736.6826299277018
 30
0.0
 11
4221.8155503706703
 21
2711.6826299277018
 31
0.0
  0
LINE
  5
7DF1
  8
1
 10
4228.8155503706703
 20
2714.6826299277041
 30
0.0
 11
4259.8155503706703
 21
2714.6826299277041
 31
0.0
  0
LINE
  5
7DF2
  8
1
 10
4221.8155503706703
 20
2736.6826299277031
 30
0.0
 11
4222.8155503706703
 21
2736.6826299277031
 31
0.0
  0
LINE
  5
7DF3
  8
1
 10
4224.8155503706703
 20
2718.6826299277041
 30
0.0
 11
4224.8155503706703
 21
2734.6826299277041
 31
0.0
  0
ARC
  5
7DF4
  8
1
 10
4222.8155503706703
 20
2734.6826299277041
 30
0.0
 40
2.0
 50
0.0
 51
90.00000000000081
  0
ARC
  5
7DF5
  8
1
 10
4228.8155503706703
 20
2718.6826299277041
 30
0.0
 40
4.0
 50
180.0
 51
270.0
  0
LINE
  5
7DF6
  8
1
 10
4221.8155503706703
 20
2711.6826299277031
 30
0.0
 11
4261.8155503706703
 21
2711.6826299277031
 31
0.0
  0
LINE
  5
7DF7
  8
1
 10
4261.8155503706703
 20
2711.6826299277031
 30
0.0
 11
4261.8155503706703
 21
2712.6826299277031
 31
0.0
  0
DIMENSION
  5
7DF8
  8
3
  2
*D23
 10
735.57660597372796
 20
3237.0291095289681
 30
0.0
 11
1385.576605973728
 21
3299.5291095289681
 31
0.0
 70
     0
 13
2035.576605973728
 23
2431.6826299214899
 33
0.0
 14
735.57660597372796
 24
1946.6826299214899
 34
0.0
1001
ACAD
1000
DSTYLE
1002
{
1070
   287
1070
     3
1070
    40
1040
25.0
1070
   143
1040
0.039
1070
   172
1070
     1
1070
   271
1070
     0
1070
   279
1070
     0
1070
   288
1070
     1
1002
}
  0
LINE
  5
7DF9
  8
1
 10
1035.5722181046769
 20
4783.7826976106462
 30
0.0
 11
1035.569957314756
 21
5211.2826976046717
 31
0.0
  0
LINE
  5
7DFA
  8
1
 10
1615.5722180970181
 20
4783.7856795135904
 30
0.0
 11
1615.5699573066461
 21
5211.2857648752088
 31
0.0
  0
LINE
  5
7DFB
  8
1
 10
1615.5699573070981
 20
5211.2856795076141
 30
0.0
 11
1035.5722181046769
 21
4783.7826976106462
 31
0.0
  0
LINE
  5
7DFC
  8
1
 10
1035.5699573147549
 20
5211.2826976046726
 30
0.0
 11
1615.5722180970181
 21
4783.7856795135904
 31
0.0
  0
LINE
  5
7DFD
  8
1
 10
2035.5722180914729
 20
4783.7878388226163
 30
0.0
 11
2035.5699573015511
 21
5211.2878388166428
 31
0.0
  0
LINE
  5
81AC
  8
4
 10
4625.0
 20
1250.0
 30
0.0
 11
4625.0
 21
750.0
 31
0.0
  0
LINE
  5
81AD
  8
4
 10
2875.0
 20
1250.0
 30
0.0
 11
2875.0
 21
750.0
 31
0.0
  0
LINE
  5
81AE
  8
4
 10
1625.0
 20
1250.0
 30
0.0
 11
1625.0
 21
750.0
 31
0.0
  0
LINE
  5
81B1
  8
4
 10
1625.0
 20
750.0
 30
0.0
 11
4625.0
 21
750.0
 31
0.0
  0
LINE
  5
81B2
  8
4
 10
1625.0
 20
1000.0
 30
0.0
 11
4625.0
 21
1000.0
 31
0.0
  0
TEXT
  5
81B3
  8
4
 10
1721.2552021172539
 20
1078.857564666532
 30
0.0
 40
125.0
  1
機器名称
  0
TEXT
  5
81B4
  8
4
 10
1715.6452650619931
 20
804.11289183002725
 30
0.0
 40
125.0
  1
機器型番
  0
TEXT
  5
81B5
  8
4
 10
2895.8474917469698
 20
1057.4381806146721
 30
0.0
 40
112.5
  1
ミツヤリミットロードファン
  0
TEXT
  5
81B6
  8
4
 10
2966.6362389637011
 20
792.89896069985843
 30
0.0
 40
125.0
  1
LL#3 1/2-1
  0
TEXT
  5
81B8
  8
4
 10
2038.7355562492851
 20
5958.5721033312893
 30
0.0
 40
135.0
  1
床置防振ベット
  0
TEXT
  5
81B9
  8
4
 10
790.41898332361586
 20
6334.7024404982449
 30
0.0
 40
180.0
  1
遠心式片吸込片持リミットロードファン
  0
LINE
  5
81BA
  8
4
 10
625.0
 20
6173.5218856620122
 30
0.0
 11
4625.0
 21
6173.5218856620122
 31
0.0
  0
LINE
  5
81BB
  8
4
 10
625.0
 20
6673.5218856620122
 30
0.0
 11
4625.0
 21
6673.5218856620122
 31
0.0
  0
LINE
  5
81BC
  8
4
 10
1625.0
 20
1250.0
 30
0.0
 11
4625.0
 21
1250.0
 31
0.0
  0
LINE
  5
81BD
  8
4
 10
625.0
 20
6673.5218856620122
 30
0.0
 11
625.0
 21
6173.5218856620122
 31
0.0
  0
TEXT
  5
81BE
  8
4
 10
949.08847564252926
 20
5955.7986938658578
 30
0.0
 40
135.0
  1
右回転上向
  0
TEXT
  5
81BF
  8
4
 10
3672.4238981232238
 20
6765.1527037382721
 30
0.0
 40
140.0
  1
No.
  0
TEXT
  5
81C0
  8
4
 10
3278.2401565000318
 20
5958.5721033312893
 30
0.0
 40
135.0
  1
縮尺：1/25
  0
LINE
  5
81C1
  8
4
 10
4625.0
 20
6673.5218856620122
 30
0.0
 11
4625.0
 21
6173.5218856620122
 31
0.0
  0
LINE
  5
81C2
  8
4
 10
5250.0
 20
7375.0
 30
0.0
 11
5250.0
 21
7375.0
 31
0.0
  0
LINE
  5
81C3
  8
4
 10
3601.543555899661
 20
6703.1589578135026
 30
0.0
 11
3601.543555899661
 21
6966.6306538743811
 31
0.0
  0
LINE
  5
81C4
  8
4
 10
3601.543555899661
 20
6966.6306538743811
 30
0.0
 11
4625.0
 21
6966.6306538743811
 31
0.0
  0
LINE
  5
81C5
  8
4
 10
4625.0
 20
6966.6306538743811
 30
0.0
 11
4625.0
 21
6703.1589578135026
 31
0.0
  0
LINE
  5
81C6
  8
4
 10
4625.0
 20
6703.1589578135026
 30
0.0
 11
3601.543555899661
 21
6703.1589578135026
 31
0.0
  0
LINE
  5
81C7
  8
4
 10
0.0
 20
0.0
 30
0.0
 11
0.0
 21
7375.0
 31
0.0
  0
LINE
  5
81C8
  8
4
 10
0.0
 20
7375.0
 30
0.0
 11
5250.0
 21
7375.0
 31
0.0
  0
LINE
  5
81C9
  8
4
 10
5250.0
 20
7375.0
 30
0.0
 11
5250.0
 21
0.0
 31
0.0
  0
LINE
  5
81CA
  8
4
 10
5250.0
 20
0.0
 30
0.0
 11
0.0
 21
0.0
 31
0.0
  0
ENDSEC
  0
EOF
