  0
SECTION
  2
HEADER
  9
$ACADVER
  1
AC1009
  9
$INSBASE
 10
0.0
 20
0.0
 30
0.0
  9
$EXTMIN
 10
0.0
 20
0.0
 30
0.0
  9
$EXTMAX
 10
5250.0
 20
7375.0
 30
0.0
  9
$LIMMIN
 10
0.0
 20
0.0
  9
$LIMMAX
 10
297.0
 20
210.0
  9
$ORTHOMODE
 70
     0
  9
$REGENMODE
 70
     1
  9
$FILLMODE
 70
     0
  9
$QTEXTMODE
 70
     0
  9
$MIRRTEXT
 70
     1
  9
$DRAGMODE
 70
     2
  9
$LTSCALE
 40
100.0
  9
$OSMODE
 70
    37
  9
$ATTMODE
 70
     1
  9
$TEXTSIZE
 40
180.0
  9
$TRACEWID
 40
0.05
  9
$TEXTSTYLE
  7
STANDARD
  9
$CLAYER
  8
1
  9
$CELTYPE
  6
BYLAYER
  9
$CECOLOR
 62
   256
  9
$DIMSCALE
 40
25.0
  9
$DIMASZ
 40
2.0
  9
$DIMEXO
 40
0.5
  9
$DIMDLI
 40
10.0
  9
$DIMRND
 40
0.0
  9
$DIMDLE
 40
0.0
  9
$DIMEXE
 40
1.0
  9
$DIMTP
 40
1.0
  9
$DIMTM
 40
1.0
  9
$DIMTXT
 40
3.0
  9
$DIMCEN
 40
0.0
  9
$DIMTSZ
 40
0.0
  9
$DIMTOL
 70
     0
  9
$DIMLIM
 70
     0
  9
$DIMTIH
 70
     0
  9
$DIMTOH
 70
     0
  9
$DIMSE1
 70
     0
  9
$DIMSE2
 70
     0
  9
$DIMTAD
 70
     1
  9
$DIMZIN
 70
     8
  9
$DIMBLK
  1

  9
$DIMASO
 70
     1
  9
$DIMSHO
 70
     1
  9
$DIMPOST
  1

  9
$DIMAPOST
  1

  9
$DIMALT
 70
     0
  9
$DIMALTD
 70
     2
  9
$DIMALTF
 40
0.039
  9
$DIMLFAC
 40
1.0
  9
$DIMTOFL
 70
     1
  9
$DIMTVP
 40
0.0
  9
$DIMTIX
 70
     0
  9
$DIMSOXD
 70
     0
  9
$DIMSAH
 70
     1
  9
$DIMBLK1
  1
OPEN
  9
$DIMBLK2
  1
OPEN
  9
$DIMSTYLE
  2
IGA
  9
$DIMCLRD
 70
     0
  9
$DIMCLRE
 70
     0
  9
$DIMCLRT
 70
     0
  9
$DIMTFAC
 40
10.0
  9
$DIMGAP
 40
1.0
  9
$LUNITS
 70
     2
  9
$LUPREC
 70
     3
  9
$SKETCHINC
 40
0.1
  9
$FILLETRAD
 40
50.0
  9
$AUNITS
 70
     0
  9
$AUPREC
 70
     0
  9
$MENU
  1
acad
  9
$ELEVATION
 40
0.0
  9
$PELEVATION
 40
0.0
  9
$THICKNESS
 40
0.0
  9
$LIMCHECK
 70
     0
  9
$BLIPMODE
 70
     0
  9
$CHAMFERA
 40
0.5
  9
$CHAMFERB
 40
0.5
  9
$SKPOLY
 70
     0
  9
$TDCREATE
 40
2451614.442163541
  9
$TDUPDATE
 40
2454953.6409213999
  9
$TDINDWG
 40
0.0084267593
  9
$TDUSRTIMER
 40
0.0084267593
  9
$USRTIMER
 70
     1
  9
$ANGBASE
 50
0.0
  9
$ANGDIR
 70
     0
  9
$PDMODE
 70
     0
  9
$PDSIZE
 40
0.0
  9
$PLINEWID
 40
0.0
  9
$COORDS
 70
     1
  9
$SPLFRAME
 70
     0
  9
$SPLINETYPE
 70
     6
  9
$SPLINESEGS
 70
     8
  9
$ATTDIA
 70
     0
  9
$ATTREQ
 70
     1
  9
$HANDLING
 70
 10241
  9
$HANDSEED
  5
82F1
  9
$SURFTAB1
 70
     6
  9
$SURFTAB2
 70
     6
  9
$SURFTYPE
 70
     6
  9
$SURFU
 70
     6
  9
$SURFV
 70
     6
  9
$UCSNAME
  2

  9
$UCSORG
 10
0.0
 20
0.0
 30
0.0
  9
$UCSXDIR
 10
1.0
 20
0.0
 30
0.0
  9
$UCSYDIR
 10
0.0
 20
1.0
 30
0.0
  9
$PUCSNAME
  2

  9
$PUCSORG
 10
0.0
 20
0.0
 30
0.0
  9
$PUCSXDIR
 10
1.0
 20
0.0
 30
0.0
  9
$PUCSYDIR
 10
0.0
 20
1.0
 30
0.0
  9
$USERI1
 70
     0
  9
$USERI2
 70
     0
  9
$USERI3
 70
     0
  9
$USERI4
 70
     0
  9
$USERI5
 70
     0
  9
$USERR1
 40
0.0
  9
$USERR2
 40
0.0
  9
$USERR3
 40
0.0
  9
$USERR4
 40
0.0
  9
$USERR5
 40
0.0
  9
$WORLDVIEW
 70
     1
  9
$SHADEDGE
 70
     3
  9
$SHADEDIF
 70
    70
  9
$TILEMODE
 70
     1
  9
$MAXACTVP
 70
    16
  9
$PLIMCHECK
 70
     0
  9
$PEXTMIN
 10
1.0000000000000000E+020
 20
1.0000000000000000E+020
 30
1.0000000000000000E+020
  9
$PEXTMAX
 10
-1.0000000000000000E+020
 20
-1.0000000000000000E+020
 30
-1.0000000000000000E+020
  9
$PLIMMIN
 10
0.0
 20
0.0
  9
$PLIMMAX
 10
12.0
 20
9.0
  9
$UNITMODE
 70
     0
  9
$VISRETAIN
 70
     0
  9
$PLINEGEN
 70
     0
  9
$PSLTSCALE
 70
     1
  0
ENDSEC
  0
SECTION
  2
TABLES
  0
TABLE
  2
VPORT
 70
     2
  0
VPORT
  2
*ACTIVE
 70
     0
 10
0.0
 20
0.0
 11
1.0
 21
1.0
 12
5101.4320896710351
 22
869.36981643347826
 13
0.0
 23
0.0
 14
10.0
 24
10.0
 15
10.0
 25
10.0
 16
0.0
 26
0.0
 36
1.0
 17
0.0
 27
0.0
 37
0.0
 40
2322.714212000109
 41
3.1666666666666661
 42
50.0
 43
0.0
 44
0.0
 50
0.0
 51
0.0
 71
     0
 72
   100
 73
     1
 74
     0
 75
     0
 76
     0
 77
     0
 78
     0
  0
ENDTAB
  0
TABLE
  2
LTYPE
 70
     2
  0
LTYPE
  2
CONTINUOUS
 70
     0
  3
Solid line
 72
    65
 73
     0
 40
0.0
  0
LTYPE
  2
CENTER
 70
     0
  3
____ _ ____ _ ____ _ ____ _ ____ _ ____ _ ____ 
 72
    65
 73
     4
 40
2.0
 49
1.25
 49
-0.25
 49
0.25
 49
-0.25
  0
ENDTAB
  0
TABLE
  2
LAYER
 70
     6
  0
LAYER
  2
0
 70
     0
 62
     7
  6
CONTINUOUS
  0
LAYER
  2
3
 70
     0
 62
     2
  6
CONTINUOUS
  0
LAYER
  2
2
 70
     0
 62
     3
  6
CENTER
  0
LAYER
  2
1
 70
     0
 62
     4
  6
CONTINUOUS
  0
LAYER
  2
4
 70
     0
 62
     7
  6
CONTINUOUS
  0
LAYER
  2
DEFPOINTS
 70
     0
 62
     7
  6
CONTINUOUS
  0
ENDTAB
  0
TABLE
  2
STYLE
 70
     1
  0
STYLE
  2
STANDARD
 70
     0
 40
0.0
 41
1.0
 50
0.0
 71
     0
 42
180.0
  3
simplex.shx
  4
extfont.shx
  0
ENDTAB
  0
TABLE
  2
VIEW
 70
     0
  0
ENDTAB
  0
TABLE
  2
UCS
 70
     0
  0
ENDTAB
  0
TABLE
  2
APPID
 70
     1
  0
APPID
  2
ACAD
 70
     0
  0
ENDTAB
  0
TABLE
  2
DIMSTYLE
 70
     1
  0
DIMSTYLE
  2
IGA
 70
     0
  3

  4

  5

  6
OPEN
  7
OPEN
 40
2.0
 41
2.0
 42
0.5
 43
10.0
 44
1.0
 45
0.0
 46
0.0
 47
1.0
 48
1.0
140
3.0
141
0.0
142
0.0
143
0.03937
144
1.0
145
0.0
146
10.0
147
1.0
 71
     0
 72
     0
 73
     0
 74
     0
 75
     0
 76
     0
 77
     1
 78
     8
170
     0
171
     2
172
     0
173
     1
174
     0
175
     0
176
     0
177
     0
178
     0
  0
ENDTAB
  0
ENDSEC
  0
SECTION
  2
BLOCKS
  0
BLOCK
  8
0
  2
$MODEL_SPACE
 70
     0
 10
0.0
 20
0.0
 30
0.0
  3
$MODEL_SPACE
  1

  0
ENDBLK
  5
1B
  8
0
  0
BLOCK
 67
     1
  8
0
  2
$PAPER_SPACE
 70
     0
 10
0.0
 20
0.0
 30
0.0
  3
$PAPER_SPACE
  1

  0
ENDBLK
  5
18
 67
     1
  8
0
  0
BLOCK
  8
0
  2
_OPEN
 70
     0
 10
0.0
 20
0.0
 30
0.0
  3
_OPEN
  1

  0
LINE
  5
79FD
  8
0
  6
BYBLOCK
 62
     0
 10
-1.0
 20
0.1666666666666666
 30
0.0
 11
0.0
 21
0.0
 31
0.0
  0
LINE
  5
79FE
  8
0
  6
BYBLOCK
 62
     0
 10
0.0
 20
0.0
 30
0.0
 11
-1.0
 21
-0.1666666666666666
 31
0.0
  0
LINE
  5
79FF
  8
0
  6
BYBLOCK
 62
     0
 10
0.0
 20
0.0
 30
0.0
 11
-1.0
 21
0.0
 31
0.0
  0
ENDBLK
  5
7A01
  8
0
  0
BLOCK
  8
0
  2
*D1
 70
     1
 10
0.0
 20
0.0
 30
0.0
  3
*D1
  1

  0
LINE
  5
821A
  8
3
 62
     0
 10
3792.5155503706678
 20
2823.1240274236802
 30
0.0
 11
3792.5155503706678
 21
2945.9722291306921
 31
0.0
  0
LINE
  5
821B
  8
3
 62
     0
 10
4217.515550370671
 20
2823.1240274236802
 30
0.0
 11
4217.515550370671
 21
2945.9722291306921
 31
0.0
  0
LINE
  5
821C
  8
3
 62
     0
 10
3842.5155503706669
 20
2920.9722291306921
 30
0.0
 11
4167.515550370671
 21
2920.9722291306921
 31
0.0
  0
INSERT
  5
821D
  8
3
 62
     0
  2
_OPEN
 10
3792.5155503706678
 20
2920.9722291306921
 30
0.0
 41
50.0
 42
50.0
 43
50.0
 50
180.0
  0
INSERT
  5
821E
  8
3
 62
     0
  2
_OPEN
 10
4217.515550370671
 20
2920.9722291306921
 30
0.0
 41
50.0
 42
50.0
 43
50.0
  0
TEXT
  8
3
  40
75
  5
82DD
  62
0
  72
0
  71
0
 10
3866.93
 20
2850.72
 30
0.000000
  1
425
  0
POINT
  5
8220
  8
DEFPOINTS
 62
     0
 10
3792.5155503706678
 20
2810.6240274236802
 30
0.0
  0
POINT
  5
8221
  8
DEFPOINTS
 62
     0
 10
4217.515550370671
 20
2810.6240274236802
 30
0.0
  0
POINT
  5
8222
  8
DEFPOINTS
 62
     0
 10
4217.515550370671
 20
2920.9722291306921
 30
0.0
  0
ENDBLK
  5
811D
  8
0
  0
BLOCK
  8
0
  2
*D2
 70
     1
 10
0.0
 20
0.0
 30
0.0
  3
*D2
  1

  0
LINE
  5
822D
  8
3
 62
     0
 10
4274.3155503706703
 20
2725.6240274236802
 30
0.0
 11
4438.6278381594702
 21
2725.6240274236802
 31
0.0
  0
LINE
  5
822E
  8
3
 62
     0
 10
4274.3155503706703
 20
2165.6240274236789
 30
0.0
 11
4438.6278381594702
 21
2165.6240274236789
 31
0.0
  0
LINE
  5
822F
  8
3
 62
     0
 10
4413.6278381594693
 20
2675.6240274236802
 30
0.0
 11
4413.6278381594693
 21
2215.6240274236779
 31
0.0
  0
INSERT
  5
8230
  8
3
 62
     0
  2
_OPEN
 10
4413.6278381594693
 20
2725.6240274236802
 30
0.0
 41
50.0
 42
50.0
 43
50.0
 50
90.0
  0
INSERT
  5
8231
  8
3
 62
     0
  2
_OPEN
 10
4413.6278381594693
 20
2165.6240274236789
 30
0.0
 41
50.0
 42
50.0
 43
50.0
 50
270.0
  0
TEXT
  8
3
  40
75
  5
82DE
  62
0
  72
0
  71
0
 10
4201.13
 20
2312.87
 30
0.000000
  1
560
  0
POINT
  5
8233
  8
DEFPOINTS
 62
     0
 10
4261.8155503706703
 20
2725.6240274236802
 30
0.0
  0
POINT
  5
8234
  8
DEFPOINTS
 62
     0
 10
4261.8155503706703
 20
2165.6240274236789
 30
0.0
  0
POINT
  5
8235
  8
DEFPOINTS
 62
     0
 10
4413.6278381594693
 20
2165.6240274236789
 30
0.0
  0
ENDBLK
  5
8112
  8
0
  0
BLOCK
  8
0
  2
*D3
 70
     1
 10
0.0
 20
0.0
 30
0.0
  3
*D3
  1

  0
LINE
  5
8236
  8
3
 62
     0
 10
2535.576605973728
 20
1760.1194003189239
 30
0.0
 11
2535.576605973728
 21
1619.51906092025
 31
0.0
  0
LINE
  5
8237
  8
3
 62
     0
 10
1635.576605973728
 20
1721.538887734828
 30
0.0
 11
1635.576605973728
 21
1619.51906092025
 31
0.0
  0
LINE
  5
8238
  8
3
 62
     0
 10
2485.576605973728
 20
1644.51906092025
 30
0.0
 11
1685.576605973728
 21
1644.51906092025
 31
0.0
  0
INSERT
  5
8239
  8
3
 62
     0
  2
_OPEN
 10
2535.576605973728
 20
1644.51906092025
 30
0.0
 41
50.0
 42
50.0
 43
50.0
  0
INSERT
  5
823A
  8
3
 62
     0
  2
_OPEN
 10
1635.576605973728
 20
1644.51906092025
 30
0.0
 41
50.0
 42
50.0
 43
50.0
 50
180.0
  0
TEXT
  8
3
  40
75
  5
82DF
  62
0
  72
0
  71
0
 10
1935.58
 20
1574.27
 30
0.000000
  1
900
  0
POINT
  5
823C
  8
DEFPOINTS
 62
     0
 10
2535.576605973728
 20
1772.619400318923
 30
0.0
  0
POINT
  5
823D
  8
DEFPOINTS
 62
     0
 10
1635.576605973728
 20
1734.038887734828
 30
0.0
  0
POINT
  5
823E
  8
DEFPOINTS
 62
     0
 10
1635.576605973728
 20
1644.51906092025
 30
0.0
  0
ENDBLK
  5
8107
  8
0
  0
BLOCK
  8
0
  2
*D4
 70
     1
 10
0.0
 20
0.0
 30
0.0
  3
*D4
  1

  0
LINE
  5
8135
  8
0
  6
BYBLOCK
 62
     0
 10
1635.576605973728
 20
1721.538887734828
 30
0.0
 11
1635.576605973728
 21
1618.495688959712
 31
0.0
  0
LINE
  5
8136
  8
0
  6
BYBLOCK
 62
     0
 10
1385.5766059737291
 20
1760.1253127126899
 30
0.0
 11
1385.5766059737291
 21
1618.495688959712
 31
0.0
  0
LINE
  5
8137
  8
0
  6
BYBLOCK
 62
     0
 10
1585.5766059737291
 20
1643.495688959712
 30
0.0
 11
1435.5766059737291
 21
1643.495688959712
 31
0.0
  0
TEXT
  5
8138
  8
1
 62
     0
 10
1414.1480345451571
 20
1662.4750538787041
 30
0.0
 40
75.0
  1
250
  0
INSERT
  5
8139
  8
0
  6
BYBLOCK
 62
     0
  2
_OPEN
 10
1635.576605973728
 20
1643.495688959712
 30
0.0
 41
50.0
 42
50.0
 43
50.0
  0
INSERT
  5
813A
  8
0
  6
BYBLOCK
 62
     0
  2
_OPEN
 10
1385.5766059737291
 20
1643.495688959712
 30
0.0
 41
50.0
 42
50.0
 43
50.0
 50
180.0
  0
POINT
  5
813B
  8
DEFPOINTS
  6
BYBLOCK
 62
     0
 10
1635.576605973728
 20
1734.038887734828
 30
0.0
  0
POINT
  5
813C
  8
DEFPOINTS
  6
BYBLOCK
 62
     0
 10
1385.5766059737291
 20
1772.6253127126899
 30
0.0
  0
POINT
  5
813D
  8
DEFPOINTS
  6
BYBLOCK
 62
     0
 10
1385.5766059737291
 20
1643.495688959712
 30
0.0
  0
ENDBLK
  5
813E
  8
0
  0
BLOCK
  8
0
  2
*D5
 70
     1
 10
0.0
 20
0.0
 30
0.0
  3
*D5
  1

  0
LINE
  5
823F
  8
3
 62
     0
 10
2535.576605973728
 20
1760.1194003189239
 30
0.0
 11
2535.576605973728
 21
1498.810151150954
 31
0.0
  0
LINE
  5
8240
  8
3
 62
     0
 10
1385.5766059737291
 20
1760.1253127126899
 30
0.0
 11
1385.5766059737291
 21
1498.810151150954
 31
0.0
  0
LINE
  5
8241
  8
3
 62
     0
 10
2485.576605973728
 20
1523.810151150954
 30
0.0
 11
1435.5766059737291
 21
1523.810151150954
 31
0.0
  0
INSERT
  5
8242
  8
3
 62
     0
  2
_OPEN
 10
2535.576605973728
 20
1523.810151150954
 30
0.0
 41
50.0
 42
50.0
 43
50.0
  0
INSERT
  5
8243
  8
3
 62
     0
  2
_OPEN
 10
1385.5766059737291
 20
1523.810151150954
 30
0.0
 41
50.0
 42
50.0
 43
50.0
 50
180.0
  0
TEXT
  8
3
  40
75
  5
82E0
  62
0
  72
0
  71
0
 10
1810.58
 20
1453.56
 30
0.000000
  1
1150
  0
POINT
  5
8245
  8
DEFPOINTS
 62
     0
 10
2535.576605973728
 20
1772.619400318923
 30
0.0
  0
POINT
  5
8246
  8
DEFPOINTS
 62
     0
 10
1385.5766059737291
 20
1772.6253127126899
 30
0.0
  0
POINT
  5
8247
  8
DEFPOINTS
 62
     0
 10
1385.5766059737291
 20
1523.810151150954
 30
0.0
  0
ENDBLK
  5
80EF
  8
0
  0
BLOCK
  8
0
  2
*D6
 70
     1
 10
0.0
 20
0.0
 30
0.0
  3
*D6
  1

  0
LINE
  5
8248
  8
3
 62
     0
 10
3160.0155503706669
 20
1760.12402742368
 30
0.0
 11
3160.0155503706669
 21
1624.615316346787
 31
0.0
  0
LINE
  5
8249
  8
3
 62
     0
 10
4005.0155503706669
 20
1713.525851028093
 30
0.0
 11
4005.0155503706669
 21
1624.615316346787
 31
0.0
  0
LINE
  5
824A
  8
3
 62
     0
 10
3210.0155503706669
 20
1649.615316346787
 30
0.0
 11
3955.0155503706669
 21
1649.615316346787
 31
0.0
  0
INSERT
  5
824B
  8
3
 62
     0
  2
_OPEN
 10
3160.0155503706669
 20
1649.615316346787
 30
0.0
 41
50.0
 42
50.0
 43
50.0
 50
180.0
  0
INSERT
  5
824C
  8
3
 62
     0
  2
_OPEN
 10
4005.0155503706669
 20
1649.615316346787
 30
0.0
 41
50.0
 42
50.0
 43
50.0
  0
TEXT
  8
3
  40
75
  5
82E1
  62
0
  72
0
  71
0
 10
3432.52
 20
1579.37
 30
0.000000
  1
845
  0
POINT
  5
824E
  8
DEFPOINTS
 62
     0
 10
3160.0155503706669
 20
1772.62402742368
 30
0.0
  0
POINT
  5
824F
  8
DEFPOINTS
 62
     0
 10
4005.0155503706669
 20
1726.025851028093
 30
0.0
  0
POINT
  5
8250
  8
DEFPOINTS
 62
     0
 10
4005.0155503706669
 20
1649.615316346787
 30
0.0
  0
ENDBLK
  5
80E4
  8
0
  0
BLOCK
  8
0
  2
*D7
 70
     1
 10
0.0
 20
0.0
 30
0.0
  3
*D7
  1

  0
LINE
  5
816E
  8
0
  6
BYBLOCK
 62
     0
 10
4005.0155503706669
 20
1670.64612401759
 30
0.0
 11
4005.0155503706669
 21
1624.819044663142
 31
0.0
  0
LINE
  5
816F
  8
0
  6
BYBLOCK
 62
     0
 10
4260.0155503706701
 20
1760.12402742368
 30
0.0
 11
4260.0155503706701
 21
1624.819044663142
 31
0.0
  0
LINE
  5
8170
  8
0
  6
BYBLOCK
 62
     0
 10
4055.0155503706678
 20
1649.8190446631429
 30
0.0
 11
4210.0155503706692
 21
1649.8190446631429
 31
0.0
  0
TEXT
  5
8171
  8
1
 62
     0
 10
4036.0869789420972
 20
1667.5328485074201
 30
0.0
 40
75.0
  1
255
  0
INSERT
  5
8172
  8
0
  6
BYBLOCK
 62
     0
  2
_OPEN
 10
4005.0155503706669
 20
1649.8190446631429
 30
0.0
 41
50.0
 42
50.0
 43
50.0
 50
180.0
  0
INSERT
  5
8173
  8
0
  6
BYBLOCK
 62
     0
  2
_OPEN
 10
4260.0155503706701
 20
1649.8190446631429
 30
0.0
 41
50.0
 42
50.0
 43
50.0
  0
POINT
  5
8174
  8
DEFPOINTS
  6
BYBLOCK
 62
     0
 10
4005.0155503706669
 20
1683.14612401759
 30
0.0
  0
POINT
  5
8175
  8
DEFPOINTS
  6
BYBLOCK
 62
     0
 10
4260.0155503706701
 20
1772.62402742368
 30
0.0
  0
POINT
  5
8176
  8
DEFPOINTS
  6
BYBLOCK
 62
     0
 10
4260.0155503706701
 20
1649.8190446631429
 30
0.0
  0
ENDBLK
  5
8177
  8
0
  0
BLOCK
  8
0
  2
*D8
 70
     1
 10
0.0
 20
0.0
 30
0.0
  3
*D8
  1

  0
LINE
  5
8251
  8
3
 62
     0
 10
3160.0155503706669
 20
1760.12402742368
 30
0.0
 11
3160.0155503706669
 21
1495.6295220214031
 31
0.0
  0
LINE
  5
8252
  8
3
 62
     0
 10
4260.0155503706701
 20
1760.12402742368
 30
0.0
 11
4260.0155503706701
 21
1495.6295220214031
 31
0.0
  0
LINE
  5
8253
  8
3
 62
     0
 10
3210.0155503706669
 20
1520.6295220214031
 30
0.0
 11
4210.0155503706692
 21
1520.6295220214031
 31
0.0
  0
INSERT
  5
8254
  8
3
 62
     0
  2
_OPEN
 10
3160.0155503706669
 20
1520.6295220214031
 30
0.0
 41
50.0
 42
50.0
 43
50.0
 50
180.0
  0
INSERT
  5
8255
  8
3
 62
     0
  2
_OPEN
 10
4260.0155503706701
 20
1520.6295220214031
 30
0.0
 41
50.0
 42
50.0
 43
50.0
  0
TEXT
  8
3
  40
75
  5
82E2
  62
0
  72
0
  71
0
 10
3560.02
 20
1450.38
 30
0.000000
  1
1100
  0
POINT
  5
8257
  8
DEFPOINTS
 62
     0
 10
3160.0155503706669
 20
1772.62402742368
 30
0.0
  0
POINT
  5
8258
  8
DEFPOINTS
 62
     0
 10
4260.0155503706701
 20
1772.62402742368
 30
0.0
  0
POINT
  5
8259
  8
DEFPOINTS
 62
     0
 10
4260.0155503706701
 20
1520.6295220214031
 30
0.0
  0
ENDBLK
  5
80CC
  8
0
  0
BLOCK
  8
0
  2
*D9
 70
     1
 10
0.0
 20
0.0
 30
0.0
  3
*D9
  1

  0
LINE
  5
825A
  8
3
 62
     0
 10
2235.576605973728
 20
2845.1209426954028
 30
0.0
 11
2235.576605973728
 21
3134.714636260413
 31
0.0
  0
LINE
  5
825B
  8
3
 62
     0
 10
1635.576605973728
 20
2917.6403121800558
 30
0.0
 11
1635.576605973728
 21
3134.714636260413
 31
0.0
  0
LINE
  5
825C
  8
3
 62
     0
 10
2185.576605973728
 20
3109.714636260413
 30
0.0
 11
1685.576605973728
 21
3109.714636260413
 31
0.0
  0
INSERT
  5
825D
  8
3
 62
     0
  2
_OPEN
 10
2235.576605973728
 20
3109.714636260413
 30
0.0
 41
50.0
 42
50.0
 43
50.0
  0
INSERT
  5
825E
  8
3
 62
     0
  2
_OPEN
 10
1635.576605973728
 20
3109.714636260413
 30
0.0
 41
50.0
 42
50.0
 43
50.0
 50
180.0
  0
TEXT
  8
3
  40
75
  5
82E3
  62
0
  72
0
  71
0
 10
1785.58
 20
3039.46
 30
0.000000
  1
600
  0
POINT
  5
8260
  8
DEFPOINTS
 62
     0
 10
2235.576605973728
 20
2832.6209426954019
 30
0.0
  0
POINT
  5
8261
  8
DEFPOINTS
 62
     0
 10
1635.576605973728
 20
2905.1403121800572
 30
0.0
  0
POINT
  5
8262
  8
DEFPOINTS
 62
     0
 10
1635.576605973728
 20
3109.714636260413
 30
0.0
  0
ENDBLK
  5
8198
  8
0
  0
BLOCK
  8
0
  2
*D10
 70
     1
 10
0.0
 20
0.0
 30
0.0
  3
*D10
  1

  0
LINE
  5
8263
  8
3
 62
     0
 10
2235.576605973728
 20
2845.1209426954028
 30
0.0
 11
2235.576605973728
 21
3002.039775040625
 31
0.0
  0
LINE
  5
8264
  8
3
 62
     0
 10
1655.576605973728
 20
2823.123924598056
 30
0.0
 11
1655.576605973728
 21
3002.039775040625
 31
0.0
  0
LINE
  5
8265
  8
3
 62
     0
 10
2185.576605973728
 20
2977.039775040625
 30
0.0
 11
1705.576605973728
 21
2977.039775040625
 31
0.0
  0
INSERT
  5
8266
  8
3
 62
     0
  2
_OPEN
 10
2235.576605973728
 20
2977.039775040625
 30
0.0
 41
50.0
 42
50.0
 43
50.0
  0
INSERT
  5
8267
  8
3
 62
     0
  2
_OPEN
 10
1655.576605973728
 20
2977.039775040625
 30
0.0
 41
50.0
 42
50.0
 43
50.0
 50
180.0
  0
TEXT
  8
3
  40
75
  5
82E4
  62
0
  72
0
  71
0
 10
1795.58
 20
2906.79
 30
0.000000
  1
580
  0
POINT
  5
8269
  8
DEFPOINTS
 62
     0
 10
2235.576605973728
 20
2832.6209426954019
 30
0.0
  0
POINT
  5
826A
  8
DEFPOINTS
 62
     0
 10
1655.576605973728
 20
2810.623924598056
 30
0.0
  0
POINT
  5
826B
  8
DEFPOINTS
 62
     0
 10
1655.576605973728
 20
2977.039775040625
 30
0.0
  0
ENDBLK
  5
80B6
  8
0
  0
BLOCK
  8
0
  2
*D11
 70
     1
 10
0.0
 20
0.0
 30
0.0
  3
*D11
  1

  0
LINE
  5
826C
  8
3
 62
     0
 10
4005.0155503706692
 20
3043.679715023507
 30
0.0
 11
4005.0155503706692
 21
3113.5072187645501
 31
0.0
  0
LINE
  5
826D
  8
3
 62
     0
 10
3054.5155503706692
 20
2558.1240274236802
 30
0.0
 11
3054.5155503706692
 21
3113.5072187645501
 31
0.0
  0
LINE
  5
826E
  8
3
 62
     0
 10
3955.0155503706692
 20
3088.5072187645501
 30
0.0
 11
3104.5155503706692
 21
3088.5072187645501
 31
0.0
  0
INSERT
  5
826F
  8
3
 62
     0
  2
_OPEN
 10
4005.0155503706692
 20
3088.5072187645501
 30
0.0
 41
50.0
 42
50.0
 43
50.0
  0
INSERT
  5
8270
  8
3
 62
     0
  2
_OPEN
 10
3054.5155503706692
 20
3088.5072187645501
 30
0.0
 41
50.0
 42
50.0
 43
50.0
 50
180.0
  0
TEXT
  8
3
  40
75
  5
82E5
  62
0
  72
0
  71
0
 10
3379.77
 20
3018.26
 30
0.000000
  1
1000
  0
POINT
  5
8272
  8
DEFPOINTS
 62
     0
 10
4005.0155503706692
 20
3031.179715023507
 30
0.0
  0
POINT
  5
8273
  8
DEFPOINTS
 62
     0
 10
3054.5155503706692
 20
2545.6240274236811
 30
0.0
  0
POINT
  5
8274
  8
DEFPOINTS
 62
     0
 10
3054.5155503706692
 20
3088.5072187645501
 30
0.0
  0
ENDBLK
  5
8182
  8
0
  0
BLOCK
  8
0
  2
*D12
 70
     1
 10
0.0
 20
0.0
 30
0.0
  3
*D12
  1

  0
LINE
  5
8275
  8
3
 62
     0
 10
2535.575692314515
 20
4152.7320718680121
 30
0.0
 11
2535.579221165402
 21
3819.0912192062988
 31
0.0
  0
LINE
  5
8276
  8
3
 62
     0
 10
1385.5756923315039
 20
4152.7258209475831
 30
0.0
 11
1385.5792212449239
 21
3819.0790558921049
 31
0.0
  0
LINE
  5
8277
  8
3
 62
     0
 10
2485.5789567483248
 20
3844.090690365153
 30
0.0
 11
1435.5789568222531
 21
3844.0795847304539
 31
0.0
  0
INSERT
  5
8278
  8
3
 62
     0
  2
_OPEN
 10
2535.5789567455281
 20
3844.0912192049009
 30
0.0
 41
50.0
 42
50.0
 43
50.0
 50
0.000606005711532
  0
INSERT
  5
8279
  8
3
 62
     0
  2
_OPEN
 10
1385.57895682505
 20
3844.0790558907061
 30
0.0
 41
50.0
 42
50.0
 43
50.0
 50
180.00060600571149
  0
TEXT
  8
3
  40
75
  5
82E6
  62
0
  72
0
  71
0
 10
1810.58
 20
3773.84
 30
0.000000
  1
1150
  0
POINT
  5
827B
  8
DEFPOINTS
 62
     0
 10
2535.575560104578
 20
4165.2320718673127
 30
0.0
  0
POINT
  5
827C
  8
DEFPOINTS
 62
     0
 10
1385.5755601215669
 20
4165.2258209468837
 30
0.0
  0
POINT
  5
827D
  8
DEFPOINTS
 62
     0
 10
1385.57895682505
 20
3844.0790558907061
 30
0.0
  0
ENDBLK
  5
80A0
  8
0
  0
BLOCK
  8
0
  2
*D13
 70
     1
 10
0.0
 20
0.0
 30
0.0
  3
*D13
  1

  0
LINE
  5
827E
  8
3
 62
     0
 10
1385.5694487703511
 20
5277.7258209299362
 30
0.0
 11
1385.567515817454
 21
5460.4799449507836
 31
0.0
  0
LINE
  5
827F
  8
3
 62
     0
 10
1885.5694487629651
 20
5277.728538721427
 30
0.0
 11
1885.56751578288
 21
5460.4852333482604
 31
0.0
  0
LINE
  5
8280
  8
3
 62
     0
 10
1435.5677802345319
 20
5435.4804737919312
 30
0.0
 11
1835.56778020555
 21
5435.4847045099114
 31
0.0
  0
INSERT
  5
8281
  8
3
 62
     0
  2
_OPEN
 10
1385.567780237328
 20
5435.4799449521843
 30
0.0
 41
50.0
 42
50.0
 43
50.0
 50
180.00060600571149
  0
INSERT
  5
8282
  8
3
 62
     0
  2
_OPEN
 10
1885.5677802027531
 20
5435.4852333496592
 30
0.0
 41
50.0
 42
50.0
 43
50.0
 50
0.0006060057115299
  0
TEXT
  8
3
  40
75
  5
82E7
  62
0
  72
0
  71
0
 10
1485.57
 20
5365.23
 30
0.000000
  1
500
  0
POINT
  5
8284
  8
DEFPOINTS
 62
     0
 10
1385.569580980288
 20
5265.2258209306347
 30
0.0
  0
POINT
  5
8285
  8
DEFPOINTS
 62
     0
 10
1885.569580972902
 20
5265.2285387221264
 30
0.0
  0
POINT
  5
8286
  8
DEFPOINTS
 62
     0
 10
1885.5677802027531
 20
5435.4852333496592
 30
0.0
  0
ENDBLK
  5
8095
  8
0
  0
BLOCK
  8
0
  2
*D14
 70
     1
 10
0.0
 20
0.0
 30
0.0
  3
*D14
  1

  0
LINE
  5
8287
  8
3
 62
     0
 10
1885.5694487629651
 20
5277.728538721427
 30
0.0
 11
1885.56751578288
 21
5460.4852333482559
 31
0.0
  0
LINE
  5
8288
  8
3
 62
     0
 10
2535.5748260589871
 20
4769.3261087347901
 30
0.0
 11
2535.5675157379319
 21
5460.4921082649753
 31
0.0
  0
LINE
  5
8289
  8
3
 62
     0
 10
1935.567780199957
 20
5435.4857621894034
 30
0.0
 11
2485.5677801606021
 21
5435.4915794266253
 31
0.0
  0
INSERT
  5
828A
  8
3
 62
     0
  2
_OPEN
 10
1885.5677802027531
 20
5435.4852333496547
 30
0.0
 41
50.0
 42
50.0
 43
50.0
 50
180.00060600571149
  0
INSERT
  5
828B
  8
3
 62
     0
  2
_OPEN
 10
2535.5677801578049
 20
5435.4921082663732
 30
0.0
 41
50.0
 42
50.0
 43
50.0
 50
0.0006060057115299
  0
TEXT
  8
3
  40
75
  5
82E8
  62
0
  72
0
  71
0
 10
2060.57
 20
5365.24
 30
0.000000
  1
650
  0
POINT
  5
828D
  8
DEFPOINTS
 62
     0
 10
1885.569580972902
 20
5265.2285387221264
 30
0.0
  0
POINT
  5
828E
  8
DEFPOINTS
 62
     0
 10
2535.5749582689241
 20
4756.8261087354904
 30
0.0
  0
POINT
  5
828F
  8
DEFPOINTS
 62
     0
 10
2535.5677801578049
 20
5435.4921082663732
 30
0.0
  0
ENDBLK
  5
808A
  8
0
  0
BLOCK
  8
0
  2
*D15
 70
     1
 10
0.0
 20
0.0
 30
0.0
  3
*D15
  1

  0
LINE
  5
8290
  8
3
 62
     0
 10
1618.07861104633
 20
2835.6240274174679
 30
0.0
 11
958.1859464700475
 21
2835.6240274174688
 31
0.0
  0
LINE
  5
8291
  8
3
 62
     0
 10
1163.56032121114
 20
2445.6240274174688
 30
0.0
 11
958.18594647004727
 21
2445.6240274174688
 31
0.0
  0
LINE
  5
8292
  8
3
 62
     0
 10
983.18594647004727
 20
2785.6240274174688
 30
0.0
 11
983.18594647004727
 21
2495.6240274174688
 31
0.0
  0
INSERT
  5
8293
  8
3
 62
     0
  2
_OPEN
 10
983.1859464700475
 20
2835.6240274174688
 30
0.0
 41
50.0
 42
50.0
 43
50.0
 50
90.0
  0
INSERT
  5
8294
  8
3
 62
     0
  2
_OPEN
 10
983.18594647004727
 20
2445.6240274174688
 30
0.0
 41
50.0
 42
50.0
 43
50.0
 50
270.0
  0
TEXT
  8
3
  40
75
  5
82E9
  62
0
  72
0
  71
0
 10
770.686
 20
2507.87
 30
0.000000
  1
390
  0
POINT
  5
8296
  8
DEFPOINTS
 62
     0
 10
1630.57861104633
 20
2835.6240274174679
 30
0.0
  0
POINT
  5
8297
  8
DEFPOINTS
 62
     0
 10
1176.06032121114
 20
2445.6240274174688
 30
0.0
  0
POINT
  5
8298
  8
DEFPOINTS
 62
     0
 10
983.18594647004727
 20
2445.6240274174688
 30
0.0
  0
ENDBLK
  5
807F
  8
0
  0
BLOCK
  8
0
  2
*D16
 70
     1
 10
0.0
 20
0.0
 30
0.0
  3
*D16
  1

  0
LINE
  5
8299
  8
3
 62
     0
 10
1163.56032121114
 20
2445.6240274174688
 30
0.0
 11
958.1859464700475
 21
2445.6240274174688
 31
0.0
  0
LINE
  5
829A
  8
3
 62
     0
 10
1373.076605973728
 20
1885.6240274174691
 30
0.0
 11
958.18594647004727
 21
1885.6240274174691
 31
0.0
  0
LINE
  5
829B
  8
3
 62
     0
 10
983.1859464700475
 20
2395.6240274174688
 30
0.0
 11
983.18594647004727
 21
1935.6240274174691
 31
0.0
  0
INSERT
  5
829C
  8
3
 62
     0
  2
_OPEN
 10
983.1859464700475
 20
2445.6240274174688
 30
0.0
 41
50.0
 42
50.0
 43
50.0
 50
90.0
  0
INSERT
  5
829D
  8
3
 62
     0
  2
_OPEN
 10
983.18594647004727
 20
1885.6240274174691
 30
0.0
 41
50.0
 42
50.0
 43
50.0
 50
270.0
  0
TEXT
  8
3
  40
75
  5
82EA
  62
0
  72
0
  71
0
 10
770.686
 20
2032.87
 30
0.000000
  1
560
  0
POINT
  5
829F
  8
DEFPOINTS
 62
     0
 10
1176.06032121114
 20
2445.6240274174688
 30
0.0
  0
POINT
  5
82A0
  8
DEFPOINTS
 62
     0
 10
1385.576605973728
 20
1885.6240274174691
 30
0.0
  0
POINT
  5
82A1
  8
DEFPOINTS
 62
     0
 10
983.18594647004727
 20
1885.6240274174691
 30
0.0
  0
ENDBLK
  5
8074
  8
0
  0
BLOCK
  8
0
  2
*D17
 70
     1
 10
0.0
 20
0.0
 30
0.0
  3
*D17
  1

  0
LINE
  5
81D0
  8
0
  6
BYBLOCK
 62
     0
 10
1373.076605973728
 20
1885.6240274174691
 30
0.0
 11
958.18594647004727
 21
1885.6240274174691
 31
0.0
  0
LINE
  5
81D1
  8
0
  6
BYBLOCK
 62
     0
 10
1373.0766059737291
 20
1847.6240274174691
 30
0.0
 11
958.18594647004727
 21
1847.6240274174691
 31
0.0
  0
LINE
  5
81D2
  8
0
  6
BYBLOCK
 62
     0
 10
983.18594647004727
 20
1935.6240274174691
 30
0.0
 11
983.18594647004727
 21
1985.6240274174691
 31
0.0
  0
LINE
  5
81D3
  8
0
  6
BYBLOCK
 62
     0
 10
983.18594647004727
 20
1797.6240274174691
 30
0.0
 11
983.18594647004727
 21
1747.6240274174691
 31
0.0
  0
TEXT
  5
81D4
  8
1
 62
     0
 10
920.68594647004727
 20
1805.909741703183
 30
0.0
 40
75.0
  1
38
 50
90.0
  0
LINE
  5
81D5
  8
0
  6
BYBLOCK
 62
     0
 10
983.18594647004727
 20
1885.6240274174691
 30
0.0
 11
983.18594647004727
 21
1847.6240274174691
 31
0.0
  0
INSERT
  5
81D6
  8
0
  6
BYBLOCK
 62
     0
  2
_OPEN
 10
983.18594647004727
 20
1885.6240274174691
 30
0.0
 41
50.0
 42
50.0
 43
50.0
 50
270.0
  0
INSERT
  5
81D7
  8
0
  6
BYBLOCK
 62
     0
  2
_DOT
 10
983.18594647004727
 20
1847.6240274174691
 30
0.0
 41
50.0
 42
50.0
 43
50.0
 50
90.0
  0
POINT
  5
81D8
  8
DEFPOINTS
  6
BYBLOCK
 62
     0
 10
1385.576605973728
 20
1885.6240274174691
 30
0.0
  0
POINT
  5
81D9
  8
DEFPOINTS
  6
BYBLOCK
 62
     0
 10
1385.5766059737291
 20
1847.6240274174691
 30
0.0
  0
POINT
  5
81DA
  8
DEFPOINTS
  6
BYBLOCK
 62
     0
 10
983.18594647004727
 20
1847.6240274174691
 30
0.0
  0
ENDBLK
  5
81DB
  8
0
  0
BLOCK
  8
0
  2
*D18
 70
     1
 10
0.0
 20
0.0
 30
0.0
  3
*D18
  1

  0
LINE
  5
82A2
  8
3
 62
     0
 10
1373.0766059737291
 20
1847.6240274174691
 30
0.0
 11
958.1859464700475
 21
1847.6240274174691
 31
0.0
  0
LINE
  5
82A3
  8
3
 62
     0
 10
1373.0766059737291
 20
1772.6240274174691
 30
0.0
 11
958.18594647004727
 21
1772.6240274174691
 31
0.0
  0
LINE
  5
82A4
  8
3
 62
     0
 10
983.1859464700475
 20
1897.6240274174691
 30
0.0
 11
983.1859464700475
 21
1947.6240274174691
 31
0.0
  0
LINE
  5
82A5
  8
3
 62
     0
 10
983.18594647004727
 20
1722.6240274174691
 30
0.0
 11
983.18594647004727
 21
1501.1954559888979
 31
0.0
  0
LINE
  5
82A6
  8
3
 62
     0
 10
983.1859464700475
 20
1847.6240274174691
 30
0.0
 11
983.18594647004727
 21
1772.6240274174691
 31
0.0
  0
INSERT
  5
82A7
  8
3
 62
     0
  2
_DOT
 10
983.1859464700475
 20
1847.6240274174691
 30
0.0
 41
50.0
 42
50.0
 43
50.0
 50
270.0
  0
INSERT
  5
82A8
  8
3
 62
     0
  2
_OPEN
 10
983.18594647004727
 20
1772.6240274174691
 30
0.0
 41
50.0
 42
50.0
 43
50.0
 50
90.0
  0
TEXT
  8
3
  40
75
  5
82EB
  62
0
  72
0
  71
0
 10
770.686
 20
1454.16
 30
0.000000
  1
75
  0
POINT
  5
82AA
  8
DEFPOINTS
 62
     0
 10
1385.5766059737291
 20
1847.6240274174691
 30
0.0
  0
POINT
  5
82AB
  8
DEFPOINTS
 62
     0
 10
1385.5766059737291
 20
1772.6240274174691
 30
0.0
  0
POINT
  5
82AC
  8
DEFPOINTS
 62
     0
 10
983.18594647004727
 20
1772.6240274174691
 30
0.0
  0
ENDBLK
  5
81E8
  8
0
  0
BLOCK
  8
0
  2
*D19
 70
     1
 10
0.0
 20
0.0
 30
0.0
  3
*D19
  1

  0
LINE
  5
82AD
  8
3
 62
     0
 10
1618.07861104633
 20
2835.6240274174679
 30
0.0
 11
767.56514975583684
 21
2835.6240274174688
 31
0.0
  0
LINE
  5
82AE
  8
3
 62
     0
 10
1373.0766059737291
 20
1772.6240274174691
 30
0.0
 11
767.5651497558365
 21
1772.6240274174691
 31
0.0
  0
LINE
  5
82AF
  8
3
 62
     0
 10
792.56514975583673
 20
2785.6240274174688
 30
0.0
 11
792.56514975583661
 21
1822.6240274174691
 31
0.0
  0
INSERT
  5
82B0
  8
3
 62
     0
  2
_OPEN
 10
792.56514975583684
 20
2835.6240274174688
 30
0.0
 41
50.0
 42
50.0
 43
50.0
 50
90.0
  0
INSERT
  5
82B1
  8
3
 62
     0
  2
_OPEN
 10
792.5651497558365
 20
1772.6240274174691
 30
0.0
 41
50.0
 42
50.0
 43
50.0
 50
270.0
  0
TEXT
  8
3
  40
75
  5
82EC
  62
0
  72
0
  71
0
 10
580.065
 20
2171.37
 30
0.000000
  1
1063
  0
POINT
  5
82B3
  8
DEFPOINTS
 62
     0
 10
1630.57861104633
 20
2835.6240274174679
 30
0.0
  0
POINT
  5
82B4
  8
DEFPOINTS
 62
     0
 10
1385.5766059737291
 20
1772.6240274174691
 30
0.0
  0
POINT
  5
82B5
  8
DEFPOINTS
 62
     0
 10
792.5651497558365
 20
1772.6240274174691
 30
0.0
  0
ENDBLK
  5
8156
  8
0
  0
BLOCK
  8
0
  2
*D20
 70
     1
 10
0.0
 20
0.0
 30
0.0
  3
*D20
  1

  0
LINE
  5
82B6
  8
3
 62
     0
 10
1635.576605973728
 20
2917.6403121800558
 30
0.0
 11
1635.576605973728
 21
3134.714636260413
 31
0.0
  0
LINE
  5
82B7
  8
3
 62
     0
 10
1235.576605973728
 20
2425.4770852860602
 30
0.0
 11
1235.576605973728
 21
3134.714636260413
 31
0.0
  0
LINE
  5
82B8
  8
3
 62
     0
 10
1585.5766059737291
 20
3109.714636260413
 30
0.0
 11
1285.5766059737271
 21
3109.714636260413
 31
0.0
  0
INSERT
  5
82B9
  8
3
 62
     0
  2
_OPEN
 10
1635.576605973728
 20
3109.714636260413
 30
0.0
 41
50.0
 42
50.0
 43
50.0
  0
INSERT
  5
82BA
  8
3
 62
     0
  2
_OPEN
 10
1235.576605973728
 20
3109.714636260413
 30
0.0
 41
50.0
 42
50.0
 43
50.0
 50
180.0
  0
TEXT
  8
3
  40
75
  5
82ED
  62
0
  72
0
  71
0
 10
1285.58
 20
3039.46
 30
0.000000
  1
400
  0
POINT
  5
82BC
  8
DEFPOINTS
 62
     0
 10
1635.576605973728
 20
2905.1403121800572
 30
0.0
  0
POINT
  5
82BD
  8
DEFPOINTS
 62
     0
 10
1235.576605973728
 20
2412.9770852860602
 30
0.0
  0
POINT
  5
82BE
  8
DEFPOINTS
 62
     0
 10
1235.576605973728
 20
3109.714636260413
 30
0.0
  0
ENDBLK
  5
81A3
  8
0
  0
BLOCK
  8
0
  2
*D21
 70
     1
 10
0.0
 20
0.0
 30
0.0
  3
*D21
  1

  0
LINE
  5
82BF
  8
3
 62
     0
 10
1235.576605973728
 20
2458.1240274174688
 30
0.0
 11
1235.576605973728
 21
3274.1784113053031
 31
0.0
  0
LINE
  5
82C0
  8
3
 62
     0
 10
2535.576605973728
 20
1973.1240274174691
 30
0.0
 11
2535.576605973728
 21
3274.1784113053031
 31
0.0
  0
LINE
  5
82C1
  8
3
 62
     0
 10
1285.5766059737271
 20
3249.1784113053031
 30
0.0
 11
2485.576605973728
 21
3249.1784113053031
 31
0.0
  0
INSERT
  5
82C2
  8
3
 62
     0
  2
_OPEN
 10
1235.576605973728
 20
3249.1784113053031
 30
0.0
 41
50.0
 42
50.0
 43
50.0
 50
180.0
  0
INSERT
  5
82C3
  8
3
 62
     0
  2
_OPEN
 10
2535.576605973728
 20
3249.1784113053031
 30
0.0
 41
50.0
 42
50.0
 43
50.0
  0
TEXT
  8
3
  40
75
  5
82EE
  62
0
  72
0
  71
0
 10
1735.58
 20
3178.93
 30
0.000000
  1
1300
  0
POINT
  5
82C5
  8
DEFPOINTS
 62
     0
 10
1235.576605973728
 20
2445.6240274174688
 30
0.0
  0
POINT
  5
82C6
  8
DEFPOINTS
 62
     0
 10
2535.576605973728
 20
1960.6240274174691
 30
0.0
  0
POINT
  5
82C7
  8
DEFPOINTS
 62
     0
 10
2535.576605973728
 20
3249.1784113053031
 30
0.0
  0
ENDBLK
  5
818D
  8
0
  0
BLOCK
  8
0
  2
*D22
 70
     1
 10
0.0
 20
0.0
 30
0.0
  3
*D22
  1

  0
LINE
  5
82C8
  8
3
 62
     0
 10
1373.069580980288
 20
5265.2258209306337
 30
0.0
 11
1031.3212228303471
 21
5265.2258209306337
 31
0.0
  0
LINE
  5
82C9
  8
3
 62
     0
 10
1373.075560121566
 20
4165.2258209468837
 30
0.0
 11
1031.3212228303471
 21
4165.2258209468837
 31
0.0
  0
LINE
  5
82CA
  8
3
 62
     0
 10
1056.3212228303471
 20
5215.2258209306337
 30
0.0
 11
1056.3212228303471
 21
4215.2258209468837
 31
0.0
  0
INSERT
  5
82CB
  8
3
 62
     0
  2
_OPEN
 10
1056.3212228303471
 20
5265.2258209306337
 30
0.0
 41
50.0
 42
50.0
 43
50.0
 50
90.0
  0
INSERT
  5
82CC
  8
3
 62
     0
  2
_OPEN
 10
1056.3212228303471
 20
4165.2258209468837
 30
0.0
 41
50.0
 42
50.0
 43
50.0
 50
270.0
  0
TEXT
  8
3
  40
75
  5
82EF
  62
0
  72
0
  71
0
 10
843.821
 20
4582.48
 30
0.000000
  1
1100
  0
POINT
  5
82CE
  8
DEFPOINTS
 62
     0
 10
1385.569580980288
 20
5265.2258209306337
 30
0.0
  0
POINT
  5
82CF
  8
DEFPOINTS
 62
     0
 10
1385.5755601215669
 20
4165.2258209468837
 30
0.0
  0
POINT
  5
82D0
  8
DEFPOINTS
 62
     0
 10
1056.3212228303471
 20
4165.2258209468837
 30
0.0
  0
ENDBLK
  5
802E
  8
0
  0
BLOCK
  8
0
  2
*D23
 70
     1
 10
0.0
 20
0.0
 30
0.0
  3
*D23
  1

  0
LINE
  5
82D1
  8
3
 62
     0
 10
2548.0740999451032
 20
4765.2320718682386
 30
0.0
 11
2809.281522999348
 21
4765.2320718682386
 31
0.0
  0
LINE
  5
82D2
  8
3
 62
     0
 10
2548.075560104573
 20
4165.2320718673127
 30
0.0
 11
2809.281522999348
 21
4165.2320718673127
 31
0.0
  0
LINE
  5
82D3
  8
3
 62
     0
 10
2784.281522999348
 20
4715.2320718682377
 30
0.0
 11
2784.281522999348
 21
4215.2320718673127
 31
0.0
  0
INSERT
  5
82D4
  8
3
 62
     0
  2
_OPEN
 10
2784.281522999348
 20
4765.2320718682386
 30
0.0
 41
50.0
 42
50.0
 43
50.0
 50
90.0
  0
INSERT
  5
82D5
  8
3
 62
     0
  2
_OPEN
 10
2784.281522999348
 20
4165.2320718673127
 30
0.0
 41
50.0
 42
50.0
 43
50.0
 50
270.0
  0
TEXT
  8
3
  40
75
  5
82F0
  62
0
  72
0
  71
0
 10
2571.78
 20
4332.48
 30
0.000000
  1
600
  0
POINT
  5
82D7
  8
DEFPOINTS
 62
     0
 10
2535.5740999451032
 20
4765.2320718682386
 30
0.0
  0
POINT
  5
82D8
  8
DEFPOINTS
 62
     0
 10
2535.575560104573
 20
4165.2320718673127
 30
0.0
  0
POINT
  5
82D9
  8
DEFPOINTS
 62
     0
 10
2784.281522999348
 20
4165.2320718673127
 30
0.0
  0
ENDBLK
  5
8023
  8
0
  0
BLOCK
  8
0
  2
_DOT
 70
     0
 10
0.0
 20
0.0
 30
0.0
  3
_DOT
  1

  0
POLYLINE
  5
81EC
  8
0
  6
BYBLOCK
 62
     0
 66
     1
 10
0.0
 20
0.0
 30
0.0
 70
     1
 40
0.25
 41
0.25
  0
VERTEX
  5
82DA
  8
0
  6
BYBLOCK
 62
     0
 10
-0.125
 20
0.0
 30
0.0
 42
1.0
  0
VERTEX
  5
82DB
  8
0
  6
BYBLOCK
 62
     0
 10
0.125
 20
0.0
 30
0.0
 42
1.0
  0
SEQEND
  5
82DC
  8
0
  6
BYBLOCK
 62
     0
  0
LINE
  5
81F0
  8
0
  6
BYBLOCK
 62
     0
 10
-0.25
 20
0.0
 30
0.0
 11
-1.0
 21
0.0
 31
0.0
  0
ENDBLK
  5
81CE
  8
0
  0
ENDSEC
  0
SECTION
  2
ENTITIES
  0
LINE
  5
7CA7
  8
1
 10
3192.5155503706669
 20
2382.4240274236799
 30
0.0
 11
3707.5155503706669
 21
2382.4240274236799
 31
0.0
  0
LINE
  5
7CA8
  8
1
 10
3198.0155503706669
 20
1960.62402742368
 30
0.0
 11
3198.0155503706678
 21
2123.626560544707
 31
0.0
  0
LINE
  5
7CA9
  8
1
 10
3200.0155503706669
 20
1960.62402742368
 30
0.0
 11
4260.0155503706701
 21
1960.62402742368
 31
0.0
  0
LINE
  5
7CAA
  8
1
 10
3160.0155503706669
 20
1885.62402742368
 30
0.0
 11
4260.0155503706701
 21
1885.62402742368
 31
0.0
  0
LINE
  5
7CAB
  8
1
 10
1855.5760075337471
 20
2329.2228963523739
 30
0.0
 11
2179.1589418484132
 21
2329.2212327439179
 31
0.0
  0
LINE
  5
7CAC
  8
1
 10
1855.575961262839
 20
2320.2228963524922
 30
0.0
 11
2176.227382594187
 21
2320.2212478155661
 31
0.0
  0
LINE
  5
7CAD
  8
1
 10
1243.5155507288009
 20
2320.2260430848019
 30
0.0
 11
1415.575961268652
 21
2320.225158485759
 31
0.0
  0
LINE
  5
7CAE
  8
1
 10
1241.8827209284409
 20
2329.2260514796449
 30
0.0
 11
1415.5760075395599
 21
2329.2251584856408
 31
0.0
  0
LINE
  5
7CAF
  8
1
 10
1415.5745494918469
 20
1960.6251584893889
 30
0.0
 11
1415.5762646001581
 21
2379.2251584849801
 31
0.0
  0
LINE
  5
7CB0
  8
1
 10
1855.5745494860321
 20
1960.6228963561209
 30
0.0
 11
1855.576264594346
 21
2379.2228963517118
 31
0.0
  0
LINE
  5
7CB1
  8
1
 10
1885.576281045827
 20
2382.4227421153109
 30
0.0
 11
1385.576281052435
 21
2382.425312721296
 31
0.0
  0
LINE
  5
7CB2
  8
1
 10
3157.5155503706669
 20
2470.6240274236811
 30
0.0
 11
3792.5155503706669
 21
2470.6240274236802
 31
0.0
  0
LINE
  5
7CB3
  8
1
 10
3157.5155503706678
 20
2420.6240274236811
 30
0.0
 11
3790.5155503706678
 21
2420.6240274236811
 31
0.0
  0
LINE
  5
7CB4
  8
1
 10
3157.5155503706669
 20
2400.6240274236802
 30
0.0
 11
3157.5155503706669
 21
2490.6240274236811
 31
0.0
  0
LINE
  5
7CB5
  8
1
 10
3137.5155503706669
 20
2048.605038744769
 30
0.0
 11
3137.5155503706669
 21
2226.605038744769
 31
0.0
  0
LINE
  5
7CB6
  8
1
 10
3074.5155503706669
 20
2048.605038744769
 30
0.0
 11
3074.5155503706669
 21
2226.605038744769
 31
0.0
  0
LINE
  5
7CB7
  8
1
 10
3137.5155503706669
 20
2490.6240274236811
 30
0.0
 11
3157.5155503706669
 21
2490.6240274236811
 31
0.0
  0
LINE
  5
7CB8
  8
1
 10
3137.5155503706669
 20
2400.6240274236802
 30
0.0
 11
3157.5155503706669
 21
2400.6240274236802
 31
0.0
  0
LINE
  5
7CB9
  8
1
 10
3159.5155503706669
 20
2102.6257111620498
 30
0.0
 11
3159.5155503706669
 21
2172.6257111620512
 31
0.0
  0
LINE
  5
7CBA
  8
1
 10
3137.5155503706669
 20
2172.6257111620512
 30
0.0
 11
3159.5155503706669
 21
2172.6257111620512
 31
0.0
  0
LINE
  5
7CBB
  8
1
 10
3137.5155503706669
 20
2102.6257111620498
 30
0.0
 11
3159.5155503706669
 21
2102.6257111620498
 31
0.0
  0
LINE
  5
7CBC
  8
1
 10
3054.5155503706692
 20
1982.6050387447699
 30
0.0
 11
3054.5155503706692
 21
2545.6240274236811
 31
0.0
  0
LINE
  5
7CBD
  8
1
 10
3176.5155503706692
 20
1982.605038744771
 30
0.0
 11
3176.5155503706669
 21
1998.7893871689209
 31
0.0
  0
LINE
  5
7CBE
  8
2
 10
3023.6353086566291
 20
2445.6240274236811
 30
0.0
 11
4288.4420062418349
 21
2445.6240274236811
 31
0.0
  0
LINE
  5
7CBF
  8
2
 10
3023.6353086566291
 20
2137.6257111620498
 30
0.0
 11
3634.6763329140672
 21
2137.6257111620498
 31
0.0
  0
LINE
  5
7CC0
  8
1
 10
2535.575560104578
 20
4165.2320718673127
 30
0.0
 11
2349.575033823271
 21
4165.2310608460166
 31
0.0
  0
LINE
  5
7CC1
  8
1
 10
1385.5755601215669
 20
4165.2258209468837
 30
0.0
 11
1385.575353569413
 21
4203.2258209468237
 31
0.0
  0
LINE
  5
7CC2
  8
1
 10
1385.569580980288
 20
5265.2258209306337
 30
0.0
 11
1885.5695809729009
 21
5265.2285387221264
 31
0.0
  0
LINE
  5
7CC3
  8
1
 10
1885.5722987643919
 20
4765.2285387295105
 30
0.0
 11
1885.5721221079441
 21
4797.7285387290312
 31
0.0
  0
LINE
  5
7CC4
  8
1
 10
2535.5740999451032
 20
4765.2320718682386
 30
0.0
 11
1885.5722987643919
 21
4765.2285387295124
 31
0.0
  0
LINE
  5
7CC5
  8
1
 10
1235.5699573127381
 20
5225.2250055946406
 30
0.0
 11
2235.5699572979761
 21
5225.2304411776222
 31
0.0
  0
LINE
  5
7CC6
  8
2
 10
2335.5731453295411
 20
4685.1904997615002
 30
0.0
 11
2335.5759249738489
 21
3919.8703171188158
 31
0.0
  0
LINE
  5
7CC7
  8
2
 10
1635.5768619188859
 20
3919.6119941875509
 30
0.0
 11
1635.569570893229
 21
5298.2953645963462
 31
0.0
  0
LINE
  5
7CCE
  8
1
 10
2465.5747808325059
 20
2005.624258771413
 30
0.0
 11
2415.574780833168
 21
2005.624515832011
 31
0.0
  0
LINE
  5
7CCF
  8
1
 10
2465.5747808325059
 20
2005.624258771413
 30
0.0
 11
2465.5748579506871
 21
2020.624258771215
 31
0.0
  0
LINE
  5
7CD0
  8
1
 10
2465.5748579506871
 20
2020.624258771215
 30
0.0
 11
2416.9213391290659
 21
2020.6245089092679
 31
0.0
  0
LINE
  5
7CD1
  8
1
 10
2415.5748531969389
 20
2019.699751681118
 30
0.0
 11
2415.574780833168
 21
2005.624515832011
 31
0.0
  0
LINE
  5
7CD2
  8
1
 10
2398.974031815636
 20
2010.0049011710009
 30
0.0
 11
2272.1755748929122
 21
2010.005553068745
 31
0.0
  0
LINE
  5
7CD3
  8
1
 10
2465.5748579506871
 20
2020.624258771215
 30
0.0
 11
2451.5457561631629
 21
2054.8170755316478
 31
0.0
  0
LINE
  5
7CD4
  8
1
 10
2205.5748579541232
 20
2020.625595486327
 30
0.0
 11
2219.6043113259429
 21
2054.8182679917809
 31
0.0
  0
LINE
  5
7CD5
  8
1
 10
2255.574853199053
 20
2019.7005742750339
 30
0.0
 11
2255.5747808352821
 21
2005.6253384259271
 31
0.0
  0
LINE
  5
7CD6
  8
1
 10
2205.5748579541232
 20
2020.625595486327
 30
0.0
 11
2254.2283767757458
 21
2020.6253453482741
 31
0.0
  0
LINE
  5
7CD7
  8
1
 10
2205.5747808359429
 20
2005.6255954865251
 30
0.0
 11
2205.5748579541232
 21
2020.625595486327
 31
0.0
  0
LINE
  5
7CD8
  8
2
 10
2559.088094519781
 20
2137.6237780013898
 30
0.0
 11
2183.0754594762211
 21
2137.6257111620498
 31
0.0
  0
ARC
  5
7CD9
  8
1
 10
2335.5754594742052
 20
2137.6249271272241
 30
0.0
 40
142.0
 50
296.41708569015321
 51
243.58232517035151
  0
CIRCLE
  5
7CDA
  8
1
 10
2335.5754594742052
 20
2137.6249271272241
 30
0.0
 40
19.0
  0
LINE
  5
7CDB
  8
2
 10
2335.574498055089
 20
1950.61800172163
 30
0.0
 11
2335.5762435090301
 21
2290.1249271252091
 31
0.0
  0
POLYLINE
  5
7CDC
  8
1
 66
     1
 10
0.0
 20
0.0
 30
0.0
 70
     1
  0
VERTEX
  5
8215
  8
1
 10
2510.5745494773728
 20
1960.6240274174691
 30
0.0
  0
VERTEX
  5
8216
  8
1
 10
2160.5745494819989
 20
1960.6258268416591
 30
0.0
  0
VERTEX
  5
8217
  8
1
 10
2170.5747808364049
 20
2005.6257754289441
 30
0.0
  0
VERTEX
  5
8218
  8
1
 10
2500.5747808320448
 20
2005.624078828994
 30
0.0
  0
SEQEND
  5
8219
  8
1
  0
LINE
  5
7CF4
  8
1
 10
2235.5784825081678
 20
2810.6209426854639
 30
0.0
 11
2201.3565011696251
 21
2439.3449590920391
 31
0.0
  0
ARC
  5
7CF5
  8
1
 10
1602.5764363141691
 20
2412.6241970779001
 30
0.0
 40
367.0
 50
89.999705430251765
 51
180.6696211545482
  0
ARC
  5
7CF6
  8
1
 10
1677.5763900422689
 20
2403.6238114871221
 30
0.0
 40
442.0
 50
179.3892673057359
 51
270.0566347979169
  0
ARC
  5
7CF7
  8
1
 10
1677.576821904076
 20
2487.6238114860112
 30
0.0
 40
526.0
 50
269.94808381980619
 51
354.73370113302042
  0
LINE
  5
7D32
  8
1
 10
1905.5762645936841
 20
2379.2226392911139
 30
0.0
 11
1365.5762646008191
 21
2379.2254155455789
 31
0.0
  0
LINE
  5
7D33
  8
1
 10
1905.5760075330861
 20
2329.2226392917751
 30
0.0
 11
1905.5762645936841
 21
2379.2226392911139
 31
0.0
  0
LINE
  5
7D34
  8
1
 10
1365.5760075402211
 20
2329.2254155462392
 30
0.0
 11
1365.5762646008191
 21
2379.2254155455789
 31
0.0
  0
LINE
  5
7D35
  8
1
 10
4221.8155503706703
 20
2445.6240274236811
 30
0.0
 11
4221.8155503706703
 21
2425.6240274236802
 31
0.0
  0
DIMENSION
  5
7D36
  8
3
  2
*D1
 10
4217.515550370671
 20
2920.9722291306921
 30
0.0
 11
4016.9284327231562
 21
2920.9722291306921
 31
0.0
 70
   128
 13
3792.5155503706678
 23
2810.6240274236802
 33
0.0
 14
4217.515550370671
 24
2810.6240274236802
 34
0.0
1001
ACAD
1000
DSTYLE
1002
{
1070
   287
1070
     3
1070
    40
1040
25.0
1070
   143
1040
0.039
1070
   172
1070
     1
1070
   271
1070
     0
1070
   279
1070
     0
1070
   288
1070
     1
1002
}
  0
LINE
  5
7D37
  8
1
 10
3137.5155503706669
 20
2226.605038744769
 30
0.0
 11
3137.5155503706669
 21
2523.124027423677
 31
0.0
  0
LINE
  5
7D38
  8
1
 10
3074.5155503706669
 20
2226.605038744769
 30
0.0
 11
3074.5155503706669
 21
2523.124027423677
 31
0.0
  0
LINE
  5
7D39
  8
1
 10
2260.578595614501
 20
2832.620814154875
 30
0.0
 11
1630.5785956228269
 21
2832.6240531184171
 31
0.0
  0
LINE
  5
7D3A
  8
1
 10
4217.5155503706656
 20
1960.62402742368
 30
0.0
 11
4217.5155503706692
 21
2465.6240274236811
 31
0.0
  0
LINE
  5
7D3B
  8
1
 10
3792.515550370666
 20
1960.62402742368
 30
0.0
 11
3792.5155503706669
 21
2440.6240274236802
 31
0.0
  0
LINE
  5
7D3C
  8
1
 10
3192.5155503706669
 20
2379.2240274236801
 30
0.0
 11
3707.5155503706669
 21
2379.224027423681
 31
0.0
  0
LINE
  5
7D3D
  8
1
 10
3707.5155503706669
 20
2382.4240274236799
 30
0.0
 11
3707.5155503706669
 21
2379.224027423681
 31
0.0
  0
LINE
  5
7D3E
  8
1
 10
3697.5155503706669
 20
2379.224027423681
 30
0.0
 11
3697.5155503706669
 21
1960.62402742368
 31
0.0
  0
LINE
  5
7D3F
  8
1
 10
3192.5155503706669
 20
2382.4240274236799
 30
0.0
 11
3192.5155503706669
 21
2379.2240274236801
 31
0.0
  0
POLYLINE
  5
7D40
  8
1
 66
     1
 10
0.0
 20
0.0
 30
0.0
 70
     1
  0
VERTEX
  5
8223
  8
1
 10
3697.5155503706669
 20
2329.224027423681
 30
0.0
  0
VERTEX
  5
8224
  8
1
 10
3747.5155503706669
 20
2329.224027423681
 30
0.0
  0
VERTEX
  5
8225
  8
1
 10
3747.5155503706669
 20
2330.724027423681
 30
0.0
 42
0.4142135623730951
  0
VERTEX
  5
8226
  8
1
 10
3743.0155503706669
 20
2335.2240274236801
 30
0.0
  0
VERTEX
  5
8227
  8
1
 10
3710.0155503706669
 20
2335.2240274236801
 30
0.0
 42
-0.4142135623730951
  0
VERTEX
  5
8228
  8
1
 10
3703.5155503706669
 20
2341.724027423681
 30
0.0
  0
VERTEX
  5
8229
  8
1
 10
3703.5155503706669
 20
2374.724027423681
 30
0.0
 42
0.4142135623730951
  0
VERTEX
  5
822A
  8
1
 10
3699.0155503706669
 20
2379.224027423681
 30
0.0
  0
VERTEX
  5
822B
  8
1
 10
3697.5155503706669
 20
2379.224027423681
 30
0.0
  0
SEQEND
  5
822C
  8
1
  0
LINE
  5
7D4B
  8
1
 10
3725.5155503706669
 20
2329.224027423681
 30
0.0
 11
3790.5155503706669
 21
2329.224027423681
 31
0.0
  0
LINE
  5
7D4C
  8
1
 10
3725.5155503706669
 20
2323.224027423681
 30
0.0
 11
3790.5155503706669
 21
2323.224027423681
 31
0.0
  0
LINE
  5
7D4D
  8
1
 10
3725.5155503706669
 20
2323.224027423681
 30
0.0
 11
3725.5155503706669
 21
2329.224027423681
 31
0.0
  0
LINE
  5
7D4E
  8
1
 10
1885.576281045827
 20
2382.4227421153109
 30
0.0
 11
1885.576264593949
 21
2379.222742115353
 31
0.0
  0
LINE
  5
7D4F
  8
1
 10
1385.576281052435
 20
2382.425312721296
 30
0.0
 11
1385.576264600556
 21
2379.2253127213389
 31
0.0
  0
LINE
  5
7D50
  8
1
 10
3792.5155503706678
 20
2810.6240274236802
 30
0.0
 11
4217.515550370671
 21
2810.6240274236802
 31
0.0
  0
ARC
  5
7D53
  8
1
 10
1627.547411619121
 20
2549.629269393005
 30
0.0
 40
227.59448069142181
 50
48.089937534054201
 51
87.978270708224613
  0
ARC
  5
7D54
  8
1
 10
1802.278243961659
 20
2764.2231703732232
 30
0.0
 40
50.600000000000001
 50
243.3373351108568
 51
16.916917663124821
  0
LINE
  5
7D55
  8
1
 10
1834.3633340186659
 20
2832.6230054178791
 30
0.0
 11
1850.688665937168
 21
2778.9469961040982
 31
0.0
  0
LINE
  5
7D56
  8
1
 10
4221.8155503706703
 20
2425.6240274236802
 30
0.0
 11
4221.8155503706703
 21
2155.6240274236802
 31
0.0
  0
LINE
  5
7D57
  8
1
 10
4260.0155503706701
 20
1885.62402742368
 30
0.0
 11
4260.0155503706701
 21
1960.62402742368
 31
0.0
  0
LINE
  5
7D58
  8
2
 10
4005.0155503706669
 20
1683.14612401759
 30
0.0
 11
4005.0155503706692
 21
2914.4374183741611
 31
0.0
  0
LINE
  5
7D59
  8
1
 10
3200.0155503706669
 20
1885.62402742368
 30
0.0
 11
3160.0155503706669
 21
1885.62402742368
 31
0.0
  0
LINE
  5
7D5A
  8
1
 10
3160.0155503706669
 20
1885.62402742368
 30
0.0
 11
3160.0155503706669
 21
1887.4276511159071
 31
0.0
  0
LINE
  5
7D5B
  8
1
 10
3160.0155503706669
 20
1958.820403731454
 30
0.0
 11
3160.0155503706669
 21
1960.62402742368
 31
0.0
  0
LINE
  5
7D5C
  8
1
 10
3160.0155503706669
 20
1960.62402742368
 30
0.0
 11
3200.0155503706669
 21
1960.62402742368
 31
0.0
  0
CIRCLE
  5
7D5F
  8
1
 10
1635.576605973728
 20
2445.6240274174688
 30
0.0
 40
72.5
  0
CIRCLE
  5
7D60
  8
1
 10
2335.5754594742052
 20
2137.6249271272241
 30
0.0
 40
89.0
  0
LINE
  5
7D61
  8
1
 10
3074.5155503706669
 20
2518.124027423677
 30
0.0
 11
3137.5155503706669
 21
2518.124027423677
 31
0.0
  0
LINE
  5
7D62
  8
1
 10
3074.5155503706669
 20
2373.1240274236839
 30
0.0
 11
3137.5155503706669
 21
2373.1240274236839
 31
0.0
  0
LINE
  5
7D63
  8
1
 10
3074.5155503706669
 20
2226.605038744769
 30
0.0
 11
3137.5155503706669
 21
2226.605038744769
 31
0.0
  0
LINE
  5
7D64
  8
1
 10
3074.5155503706669
 20
2048.605038744769
 30
0.0
 11
3137.5155503706692
 21
2048.605038744769
 31
0.0
  0
LINE
  5
7D65
  8
1
 10
4221.8155503706703
 20
2140.6240274236802
 30
0.0
 11
4221.8155503706703
 21
2165.6240274236802
 31
0.0
  0
LINE
  5
7D66
  8
1
 10
1655.5710266604001
 20
2515.3124277535671
 30
0.0
 11
2360.1203345240519
 21
2223.1734461605042
 31
0.0
  0
LINE
  5
7D67
  8
1
 10
1612.466515440681
 20
2376.9059532625979
 30
0.0
 11
2307.2058310957082
 21
2053.26756713021
 31
0.0
  0
LINE
  5
7D68
  8
1
 10
2235.5784825081678
 20
2810.6209426854639
 30
0.0
 11
1655.576605973728
 21
2810.623924598056
 31
0.0
  0
LINE
  5
7D69
  8
1
 10
4224.8155503706703
 20
2158.6240274236779
 30
0.0
 11
4224.8155503706703
 21
2445.6240274236811
 31
0.0
  0
LINE
  5
7D6A
  8
1
 10
4261.8155503706703
 20
2165.6240274236789
 30
0.0
 11
4261.8155503706703
 21
2725.6240274236802
 31
0.0
  0
DIMENSION
  5
7D6B
  8
3
  2
*D2
 10
4413.6278381594693
 20
2165.6240274236789
 30
0.0
 11
4413.6278381594693
 21
2445.6240274236789
 31
0.0
 70
   128
 13
4261.8155503706703
 23
2725.6240274236802
 33
0.0
 14
4261.8155503706703
 24
2165.6240274236789
 34
0.0
 50
90.0
1001
ACAD
1000
DSTYLE
1002
{
1070
   287
1070
     3
1070
    40
1040
25.0
1070
   143
1040
0.039
1070
   172
1070
     1
1070
   271
1070
     0
1070
   279
1070
     0
1070
   288
1070
     1
1002
}
  0
ARC
  5
7D6C
  8
1
 10
2335.5754594742052
 20
2137.6249271272241
 30
0.0
 40
150.0
 50
248.7911368307106
 51
76.612112330202805
  0
ARC
  5
7D6D
  8
1
 10
1638.0687995702219
 20
2442.4195782497281
 30
0.0
 40
102.5891975502981
 50
78.380837333272595
 51
247.85625945725451
  0
LINE
  5
7D6E
  8
1
 10
2370.306797492553
 20
2283.5486543255629
 30
0.0
 11
1658.730831319293
 21
2542.906512216362
 31
0.0
  0
LINE
  5
7D6F
  8
1
 10
2281.3101412278161
 20
1997.7847496544471
 30
0.0
 11
1599.3997014367401
 21
2347.397242435683
 31
0.0
  0
LINE
  5
7D70
  8
1
 10
3054.5155503706669
 20
2545.6240274236811
 30
0.0
 11
3176.5155503706669
 21
2545.6240274236811
 31
0.0
  0
LINE
  5
7D71
  8
1
 10
3176.5155503706669
 20
2512.2514123875499
 30
0.0
 11
3176.5155503706669
 21
2545.6240274236811
 31
0.0
  0
LINE
  5
7D72
  8
1
 10
3054.5155503706692
 20
1982.6050387447699
 30
0.0
 11
3176.5155503706692
 21
1982.605038744771
 31
0.0
  0
LINE
  5
7D73
  8
1
 10
3771.5671417664498
 20
2445.6240274236811
 30
0.0
 11
3771.5671417664498
 21
2445.6240274236811
 31
0.0
  0
LINE
  5
7D74
  8
1
 10
4242.5155503706692
 20
2725.6240274236802
 30
0.0
 11
4261.8155503706703
 21
2725.6240274236802
 31
0.0
  0
LINE
  5
7D75
  8
1
 10
4261.8155503706703
 20
2725.6240274236802
 30
0.0
 11
4261.8155503706703
 21
2726.6240274236802
 31
0.0
  0
LINE
  5
7D76
  8
1
 10
4242.5155503706701
 20
2728.6240274236811
 30
0.0
 11
4259.8155503706703
 21
2728.6240274236811
 31
0.0
  0
ARC
  5
7D77
  8
1
 10
4259.8155503706703
 20
2726.6240274236802
 30
0.0
 40
2.0
 50
359.9999999999992
 51
89.999999999999588
  0
ARC
  5
7D78
  8
1
 10
4228.8155503706703
 20
2158.6240274236779
 30
0.0
 40
4.0
 50
90.0
 51
180.0
  0
ARC
  5
7D79
  8
1
 10
4222.8155503706703
 20
2142.6240274236779
 30
0.0
 40
2.0
 50
269.9999999999992
 51
0.0
  0
LINE
  5
7D7A
  8
1
 10
4224.8155503706703
 20
2158.6240274236779
 30
0.0
 11
4224.8155503706703
 21
2142.6240274236779
 31
0.0
  0
ARC
  5
7D7B
  8
1
 10
4259.8155503706703
 20
2164.6240274236779
 30
0.0
 40
2.0
 50
270.0000000000004
 51
0.0000000000008142
  0
LINE
  5
7D7C
  8
1
 10
4228.8155503706703
 20
2162.6240274236779
 30
0.0
 11
4259.8155503706703
 21
2162.6240274236779
 31
0.0
  0
LINE
  5
7D7D
  8
1
 10
4261.8155503706703
 20
2165.6240274236789
 30
0.0
 11
4261.8155503706703
 21
2164.6240274236779
 31
0.0
  0
LINE
  5
7D7E
  8
1
 10
4221.8155503706703
 20
2165.6240274236789
 30
0.0
 11
4261.8155503706703
 21
2165.6240274236789
 31
0.0
  0
LINE
  5
7D7F
  8
1
 10
4221.8155503706703
 20
2140.6240274236789
 30
0.0
 11
4222.8155503706703
 21
2140.6240274236789
 31
0.0
  0
LINE
  5
7D80
  8
1
 10
4221.8155503706703
 20
2165.6240274236789
 30
0.0
 11
4221.8155503706703
 21
2140.6240274236789
 31
0.0
  0
LINE
  5
7D93
  8
1
 10
3160.0155503706669
 20
1885.62402742368
 30
0.0
 11
3160.0155503706669
 21
1960.62402742368
 31
0.0
  0
LINE
  5
7D94
  8
1
 10
3160.0155503706669
 20
1847.62402742368
 30
0.0
 11
4260.0155503706701
 21
1847.62402742368
 31
0.0
  0
LINE
  5
7D95
  8
1
 10
3160.0155503706669
 20
1772.62402742368
 30
0.0
 11
4260.0155503706701
 21
1772.62402742368
 31
0.0
  0
LINE
  5
7D96
  8
1
 10
3160.0155503706669
 20
1847.62402742368
 30
0.0
 11
3160.0155503706669
 21
1772.62402742368
 31
0.0
  0
LINE
  5
7D97
  8
1
 10
4260.0155503706701
 20
1847.62402742368
 30
0.0
 11
4260.0155503706701
 21
1772.62402742368
 31
0.0
  0
LINE
  5
7D98
  8
2
 10
1635.576605973728
 20
3108.207531094758
 30
0.0
 11
1635.576605973728
 21
1734.038887734828
 31
0.0
  0
LINE
  5
7D99
  8
1
 10
2535.576605973728
 20
1960.6240274174691
 30
0.0
 11
2535.576605973728
 21
1885.6240274174691
 31
0.0
  0
LINE
  5
7D9A
  8
1
 10
2535.576605973728
 20
1847.6194003199139
 30
0.0
 11
2535.576605973728
 21
1772.619400318923
 31
0.0
  0
DIMENSION
  5
7D9B
  8
3
  2
*D3
 10
1635.576605973728
 20
1644.51906092025
 30
0.0
 11
2085.5766059737289
 21
1707.01906092025
 31
0.0
 70
     0
 13
2535.576605973728
 23
1772.619400318923
 33
0.0
 14
1635.576605973728
 24
1734.038887734828
 34
0.0
1001
ACAD
1000
DSTYLE
1002
{
1070
   287
1070
     3
1070
    40
1040
25.0
1070
   143
1040
0.039
1070
   172
1070
     1
1070
   271
1070
     0
1070
   279
1070
     0
1070
   288
1070
     1
1002
}
  0
LINE
  5
7D9C
  8
1
 10
1385.5766059737291
 20
1960.6253127151749
 30
0.0
 11
1385.576605973728
 21
1885.6240274174691
 31
0.0
  0
LINE
  5
7D9D
  8
1
 10
1385.5766059737291
 20
1847.6240274174691
 30
0.0
 11
1385.5766059737291
 21
1772.6240274174691
 31
0.0
  0
DIMENSION
  5
7D9E
  8
3
  2
*D4
 10
1385.5766059737291
 20
1643.495688959712
 30
0.0
 11
1510.5766059737291
 21
1699.9750538787041
 31
0.0
 70
   128
 13
1635.576605973728
 23
1734.038887734828
 33
0.0
 14
1385.5766059737291
 24
1772.6253127126899
 34
0.0
1001
ACAD
1000
DSTYLE
1002
{
1070
   288
1070
     1
1070
   172
1070
     1
1070
    40
1040
25.0
1070
   271
1070
     0
1070
   143
1040
0.039
1002
}
  0
DIMENSION
  5
7D9F
  8
3
  2
*D5
 10
1385.5766059737291
 20
1523.810151150954
 30
0.0
 11
1960.576605973728
 21
1586.310151150954
 31
0.0
 70
     0
 13
2535.576605973728
 23
1772.619400318923
 33
0.0
 14
1385.5766059737291
 24
1772.6253127126899
 34
0.0
1001
ACAD
1000
DSTYLE
1002
{
1070
   287
1070
     3
1070
    40
1040
25.0
1070
   143
1040
0.039
1070
   172
1070
     1
1070
   271
1070
     0
1070
   279
1070
     0
1070
   288
1070
     1
1002
}
  0
DIMENSION
  5
7DA0
  8
3
  2
*D6
 10
4005.0155503706669
 20
1649.615316346787
 30
0.0
 11
3582.5155503706669
 21
1712.115316346787
 31
0.0
 70
     0
 13
3160.0155503706669
 23
1772.62402742368
 33
0.0
 14
4005.0155503706669
 24
1726.025851028093
 34
0.0
1001
ACAD
1000
DSTYLE
1002
{
1070
   287
1070
     3
1070
    40
1040
25.0
1070
   143
1040
0.039
1070
   172
1070
     1
1070
   271
1070
     0
1070
   279
1070
     0
1070
   288
1070
     1
1002
}
  0
DIMENSION
  5
7DA1
  8
3
  2
*D7
 10
4260.0155503706701
 20
1649.8190446631429
 30
0.0
 11
4132.5155503706683
 21
1705.0328485074201
 31
0.0
 70
   128
 13
4005.0155503706669
 23
1683.14612401759
 33
0.0
 14
4260.0155503706701
 24
1772.62402742368
 34
0.0
1001
ACAD
1000
DSTYLE
1002
{
1070
   288
1070
     1
1070
   172
1070
     1
1070
    40
1040
25.0
1070
   271
1070
     0
1070
   143
1040
0.039
1002
}
  0
DIMENSION
  5
7DA2
  8
3
  2
*D8
 10
4260.0155503706701
 20
1520.6295220214031
 30
0.0
 11
3710.0155503706678
 21
1583.1295220214031
 31
0.0
 70
     0
 13
3160.0155503706669
 23
1772.62402742368
 33
0.0
 14
4260.0155503706701
 24
1772.62402742368
 34
0.0
1001
ACAD
1000
DSTYLE
1002
{
1070
   287
1070
     3
1070
    40
1040
25.0
1070
   143
1040
0.039
1070
   172
1070
     1
1070
   271
1070
     0
1070
   279
1070
     0
1070
   288
1070
     1
1002
}
  0
LINE
  5
7DA3
  8
1
 10
2260.578595614501
 20
2832.620814154875
 30
0.0
 11
2260.5786110546569
 21
2835.6240274174702
 31
0.0
  0
LINE
  5
7DA4
  8
1
 10
1630.5785956228269
 20
2832.6240531184162
 30
0.0
 11
1630.578611046463
 21
2835.6240531183762
 31
0.0
  0
LINE
  5
7DA5
  8
2
 10
2274.653726753304
 20
2445.6240274174688
 30
0.0
 11
1176.06032121114
 21
2445.6240274174688
 31
0.0
  0
LINE
  5
7DA6
  8
1
 10
2235.576605973728
 20
2810.6209426951118
 30
0.0
 11
2235.576605973728
 21
2832.6209426954019
 31
0.0
  0
DIMENSION
  5
7DA7
  8
3
  2
*D9
 10
1635.576605973728
 20
3109.714636260413
 30
0.0
 11
1935.576605973728
 21
3172.214636260413
 31
0.0
 70
     0
 13
2235.576605973728
 23
2832.6209426954019
 33
0.0
 14
1635.576605973728
 24
2905.1403121800572
 34
0.0
 50
180.0
1001
ACAD
1000
DSTYLE
1002
{
1070
   287
1070
     3
1070
    40
1040
25.0
1070
   143
1040
0.039
1070
   172
1070
     1
1070
   271
1070
     0
1070
   279
1070
     0
1070
   288
1070
     1
1002
}
  0
LINE
  5
7DA8
  8
1
 10
1655.576605973728
 20
2775.4912004593739
 30
0.0
 11
1655.576605973728
 21
2832.620942695396
 31
0.0
  0
LINE
  5
7DA9
  8
1
 10
1602.5783231389671
 20
2779.6241970730498
 30
0.0
 11
1635.576605973728
 21
2777.0820769800171
 31
0.0
  0
DIMENSION
  5
7DAA
  8
3
  2
*D10
 10
1655.576605973728
 20
2977.039775040625
 30
0.0
 11
1945.576605973728
 21
3039.539775040625
 31
0.0
 70
     0
 13
2235.576605973728
 23
2832.6209426954019
 33
0.0
 14
1655.576605973728
 24
2810.623924598056
 34
0.0
 50
180.0
1001
ACAD
1000
DSTYLE
1002
{
1070
   287
1070
     3
1070
    40
1040
25.0
1070
   143
1040
0.039
1070
   172
1070
     1
1070
   271
1070
     0
1070
   279
1070
     0
1070
   288
1070
     1
1002
}
  0
LINE
  5
7DAB
  8
1
 10
2535.576605973728
 20
1885.6240274174691
 30
0.0
 11
1385.576605973728
 21
1885.6240274174691
 31
0.0
  0
LINE
  5
7DAC
  8
1
 10
2535.576605973728
 20
1847.6240274174691
 30
0.0
 11
1385.5766059737291
 21
1847.6240274174691
 31
0.0
  0
LINE
  5
7DAD
  8
1
 10
2535.576605973728
 20
1772.6240274174691
 30
0.0
 11
1385.5766059737291
 21
1772.6240274174691
 31
0.0
  0
LINE
  5
7DAE
  8
1
 10
2260.5786110546569
 20
2835.6240274174702
 30
0.0
 11
1630.57861104633
 21
2835.6240274174679
 31
0.0
  0
LINE
  5
7DAF
  8
1
 10
1678.053434794024
 20
1961.6240274174691
 30
0.0
 11
1677.1002090143099
 21
1961.6240274174691
 31
0.0
  0
DIMENSION
  5
7DB0
  8
3
  2
*D11
 10
3054.5155503706692
 20
3088.5072187645501
 30
0.0
 11
3529.7655503706692
 21
3151.0072187645501
 31
0.0
 70
     0
  1
1000
 13
4005.0155503706692
 23
3031.179715023507
 33
0.0
 14
3054.5155503706692
 24
2545.6240274236811
 34
0.0
1001
ACAD
1000
DSTYLE
1002
{
1070
   287
1070
     3
1070
    40
1040
25.0
1070
   143
1040
0.039
1070
   172
1070
     1
1070
   271
1070
     0
1070
   279
1070
     0
1070
   288
1070
     1
1002
}
  0
LINE
  5
7DB1
  8
2
 10
1210.0197475357579
 20
5010.2248667111799
 30
0.0
 11
2314.0919463720352
 21
5010.2308679872349
 31
0.0
  0
LINE
  5
7DB2
  8
1
 10
1235.572218102659
 20
4797.7250056006142
 30
0.0
 11
2235.572218087897
 21
4797.7304411835958
 31
0.0
  0
LINE
  5
7DB3
  8
1
 10
1885.56979839622
 20
5225.2285387227166
 30
0.0
 11
1885.5695809729009
 21
5265.2285387221264
 31
0.0
  0
LINE
  5
7DB4
  8
1
 10
1385.5697984036069
 20
5225.225820931224
 30
0.0
 11
1385.569580980288
 21
5265.2258209306337
 31
0.0
  0
LINE
  5
7DB5
  8
1
 10
1610.575293301285
 20
4113.2269154191754
 30
0.0
 11
1610.5680534837809
 21
4797.7270439215963
 31
0.0
  0
LINE
  5
7DB6
  8
1
 10
1660.575293298489
 20
4113.2274442589223
 30
0.0
 11
1660.568053483702
 21
4797.7273157007448
 31
0.0
  0
LINE
  5
7DB7
  8
1
 10
2424.5959677389769
 20
4093.2321776154222
 30
0.0
 11
2246.5959677489318
 21
4093.2302949459208
 31
0.0
  0
LINE
  5
7DB8
  8
1
 10
2424.5966340770578
 20
4030.232177618946
 30
0.0
 11
2246.5966340870141
 21
4030.2302949494451
 31
0.0
  0
LINE
  5
7DB9
  8
1
 10
2490.5968456092642
 20
4010.232875688534
 30
0.0
 11
1535.5763827153601
 21
4010.2261221653162
 31
0.0
  0
LINE
  5
7DBA
  8
1
 10
2335.5764998146401
 20
3979.3509943543559
 30
0.0
 11
2335.5747140797989
 21
4148.1861516873996
 31
0.0
  0
LINE
  5
7DBB
  8
1
 10
2490.5968456092642
 20
4010.232875688534
 30
0.0
 11
2490.5955552402802
 21
4132.2328756817096
 31
0.0
  0
LINE
  5
7DBC
  8
1
 10
2490.5955552402802
 20
4132.2328756817096
 30
0.0
 11
2349.5751536781572
 21
4132.2313841378218
 31
0.0
  0
LINE
  5
7DBD
  8
1
 10
2424.5966340770578
 20
4030.232177618946
 30
0.0
 11
2424.5959677389769
 21
4093.2321776154249
 31
0.0
  0
LINE
  5
7DBE
  8
1
 10
2370.5750626352269
 20
4115.231606248617
 30
0.0
 11
2300.5750626391432
 21
4115.2308658729708
 31
0.0
  0
LINE
  5
7DBF
  8
1
 10
2370.5752953247161
 20
4093.2316062498471
 30
0.0
 11
2370.5750626352269
 21
4115.231606248617
 31
0.0
  0
LINE
  5
7DC0
  8
1
 10
2300.5752953286319
 20
4093.2308658741999
 30
0.0
 11
2300.5750626391432
 21
4115.2308658729708
 31
0.0
  0
LINE
  5
7DC1
  8
1
 10
1680.5752932973701
 20
4113.2276557948207
 30
0.0
 11
1590.5752933024039
 21
4113.2267038832751
 31
0.0
  0
LINE
  5
7DC2
  8
1
 10
2246.5959677489318
 20
4093.2302949459208
 30
0.0
 11
1558.075504840124
 21
4093.2263601385571
 31
0.0
  0
LINE
  5
7DC3
  8
1
 10
2246.5966340870141
 20
4030.2302949494451
 30
0.0
 11
1558.0761711782061
 21
4030.2263601420809
 31
0.0
  0
LINE
  5
7DC4
  8
1
 10
1708.0761711698101
 20
4030.227946661324
 30
0.0
 11
1708.0755048317269
 21
4093.2279466578002
 31
0.0
  0
LINE
  5
7DC5
  8
1
 10
2246.5966340870141
 20
4030.2302949494451
 30
0.0
 11
2246.5959677489318
 21
4093.2302949459208
 31
0.0
  0
LINE
  5
7DC6
  8
1
 10
1680.575504833269
 20
4093.227655795939
 30
0.0
 11
1680.5752932973701
 21
4113.2276557948207
 31
0.0
  0
LINE
  5
7DC7
  8
1
 10
1563.0761711779271
 20
4030.226413026056
 30
0.0
 11
1563.0755048398451
 21
4093.2264130225331
 31
0.0
  0
LINE
  5
7DC8
  8
1
 10
1535.5763827153601
 20
4010.226122165313
 30
0.0
 11
1535.5750923463761
 21
4132.2261221584904
 31
0.0
  0
LINE
  5
7DC9
  8
1
 10
1568.9477073806411
 20
4132.2264751337962
 30
0.0
 11
1535.5750923463761
 21
4132.2261221584904
 31
0.0
  0
LINE
  5
7DCA
  8
1
 10
1590.575504838303
 20
4093.2267038843929
 30
0.0
 11
1590.5752933024039
 21
4113.2267038832751
 31
0.0
  0
LINE
  5
7DCB
  8
1
 10
1385.573793203477
 20
4203.2258209303191
 30
0.0
 11
1610.574341376144
 21
4203.2282007149843
 31
0.0
  0
LINE
  5
7DCC
  8
1
 10
1385.5755601215669
 20
4165.2258209468837
 30
0.0
 11
1385.575137049769
 21
4205.2258209446463
 31
0.0
  0
LINE
  5
7DCD
  8
1
 10
1885.5685100598239
 20
4702.7311092998571
 30
0.0
 11
1660.5690582642701
 21
4702.7287295267897
 31
0.0
  0
LINE
  5
7DCE
  8
1
 10
1385.572638495715
 20
4702.725820946046
 30
0.0
 11
1385.572122115331
 21
4797.7258209375386
 31
0.0
  0
LINE
  5
7DCF
  8
1
 10
1610.5690582670661
 20
4702.7282006870437
 30
0.0
 11
1385.5685100943981
 21
4702.7258209023812
 31
0.0
  0
LINE
  5
7DD0
  8
1
 10
1660.574341373348
 20
4203.2287295547321
 30
0.0
 11
1885.5737931689009
 21
4203.2311093278004
 31
0.0
  0
LINE
  5
7DD1
  8
1
 10
1610.575092377587
 20
4132.2235678856196
 30
0.0
 11
1535.575092381783
 21
4132.2227746259896
 31
0.0
  0
LINE
  5
7DD2
  8
1
 10
1610.574743306589
 20
4165.2270439486138
 30
0.0
 11
1385.5755601215669
 21
4165.2258209468837
 31
0.0
  0
LINE
  5
7DD3
  8
1
 10
1385.573793203477
 20
4203.22582093032
 30
0.0
 11
1385.5685100943981
 21
4702.7258209023812
 31
0.0
  0
LINE
  5
7DD4
  8
1
 10
1885.5737931689009
 20
4203.2311093278004
 30
0.0
 11
1885.5685100598221
 21
4702.7311092998571
 31
0.0
  0
DIMENSION
  5
7DD5
  8
3
  2
*D12
 10
1385.57895682505
 20
3844.0790558907061
 30
0.0
 11
1960.5782957356039
 21
3906.585137544309
 31
0.0
 70
     0
 13
2535.575560104578
 23
4165.2320718673127
 33
0.0
 14
1385.5755601215669
 24
4165.2258209468837
 34
0.0
 50
0.000606005711532
1001
ACAD
1000
DSTYLE
1002
{
1070
   287
1070
     3
1070
    40
1040
25.0
1070
   143
1040
0.039
1070
   172
1070
     1
1070
   271
1070
     0
1070
   279
1070
     0
1070
   288
1070
     1
1002
}
  0
DIMENSION
  5
7DD6
  8
3
  2
*D13
 10
1885.5677802027531
 20
5435.4852333496592
 30
0.0
 11
1635.567119170357
 21
5497.9825891474247
 31
0.0
 70
     0
 13
1385.569580980288
 23
5265.2258209306337
 33
0.0
 14
1885.569580972902
 24
5265.2285387221264
 34
0.0
 50
0.000606005711532
1001
ACAD
1000
DSTYLE
1002
{
1070
   287
1070
     3
1070
    40
1040
25.0
1070
   143
1040
0.039
1070
   172
1070
     1
1070
   271
1070
     0
1070
   279
1070
     0
1070
   288
1070
     1
1002
}
  0
LINE
  5
7DD7
  8
1
 10
2535.575560104573
 20
4165.2320718673127
 30
0.0
 11
2535.5740999451032
 21
4765.2320718682386
 31
0.0
  0
DIMENSION
  5
7DD8
  8
3
  2
*D14
 10
2535.5677801578049
 20
5435.4921082663732
 30
0.0
 11
2210.5671191305951
 21
5497.9886708045178
 31
0.0
 70
     0
 13
1885.569580972902
 23
5265.2285387221264
 33
0.0
 14
2535.5749582689241
 24
4756.8261087354904
 34
0.0
 50
0.000606005711532
1001
ACAD
1000
DSTYLE
1002
{
1070
   287
1070
     3
1070
    40
1040
25.0
1070
   143
1040
0.039
1070
   172
1070
     1
1070
   271
1070
     0
1070
   279
1070
     0
1070
   288
1070
     1
1002
}
  0
LINE
  5
7DD9
  8
1
 10
2535.576605973728
 20
1960.6240274174691
 30
0.0
 11
1385.576605973728
 21
1960.6240274174691
 31
0.0
  0
LINE
  5
7DDA
  8
1
 10
3767.515550370666
 20
2835.6240274236802
 30
0.0
 11
4242.515550370671
 21
2835.6240274236802
 31
0.0
  0
LINE
  5
7DDB
  8
1
 10
4217.5155503706692
 20
2465.6240274236811
 30
0.0
 11
4217.515550370671
 21
2835.6240274236802
 31
0.0
  0
LINE
  5
7DDC
  8
1
 10
3792.5155503706678
 20
2445.6240274236811
 30
0.0
 11
3792.515550370666
 21
2835.6240274236802
 31
0.0
  0
LINE
  5
7DDD
  8
1
 10
2193.5732677793112
 20
4175.2297341402827
 30
0.0
 11
2193.5693966723579
 21
4541.2297341198118
 31
0.0
  0
LINE
  5
7DDE
  8
1
 10
2477.573267763426
 20
4175.2327379500484
 30
0.0
 11
2477.5693966564731
 21
4541.2327379295757
 31
0.0
  0
LINE
  5
7DDF
  8
1
 10
2477.573267763426
 20
4175.2327379500484
 30
0.0
 11
2193.5732677793112
 21
4175.2297341402827
 31
0.0
  0
LINE
  5
7DE0
  8
1
 10
2477.569396656475
 20
4541.2327379295757
 30
0.0
 11
2193.5693966723602
 21
4541.2297341198109
 31
0.0
  0
LINE
  5
7DE1
  8
1
 10
2321.5749975029689
 20
4175.2310879883316
 30
0.0
 11
2321.575215423079
 21
4115.2310879872803
 31
0.0
  0
LINE
  5
7DE2
  8
1
 10
2349.5749975020781
 20
4175.2313841385894
 30
0.0
 11
2349.5752154221882
 21
4115.231384137538
 31
0.0
  0
LINE
  5
7DE3
  8
1
 10
2321.5750338236389
 20
4165.2309086496934
 30
0.0
 11
1660.574743306511
 21
4165.2273157277641
 31
0.0
  0
LINE
  5
7DE4
  8
1
 10
2321.5751536790472
 20
4132.2310879875604
 30
0.0
 11
1660.575092374791
 21
4132.2240967253747
 31
0.0
  0
DIMENSION
  5
7DE5
  8
3
  2
*D15
 10
983.18594647004727
 20
2445.6240274174688
 30
0.0
 11
920.68594647004693
 21
2640.6240274174688
 31
0.0
 70
     0
 13
1630.57861104633
 23
2835.6240274174679
 33
0.0
 14
1176.06032121114
 24
2445.6240274174688
 34
0.0
 50
270.0
1001
ACAD
1000
DSTYLE
1002
{
1070
   287
1070
     3
1070
    40
1040
25.0
1070
   143
1040
0.039
1070
   172
1070
     1
1070
   271
1070
     0
1070
   279
1070
     0
1070
   288
1070
     1
1002
}
  0
DIMENSION
  5
7DE6
  8
3
  2
*D16
 10
983.18594647004727
 20
1885.6240274174691
 30
0.0
 11
920.68594647004693
 21
2165.6240274174688
 31
0.0
 70
     0
 13
1176.06032121114
 23
2445.6240274174688
 33
0.0
 14
1385.576605973728
 24
1885.6240274174691
 34
0.0
 50
270.0
1001
ACAD
1000
DSTYLE
1002
{
1070
   287
1070
     3
1070
    40
1040
25.0
1070
   143
1040
0.039
1070
   172
1070
     1
1070
   271
1070
     0
1070
   279
1070
     0
1070
   288
1070
     1
1002
}
  0
DIMENSION
  5
7DE7
  8
3
  2
*D17
 10
983.18594647004727
 20
1847.6240274174691
 30
0.0
 11
883.18594647004727
 21
1866.6240274174691
 31
0.0
 70
     0
 13
1385.576605973728
 23
1885.6240274174691
 33
0.0
 14
1385.5766059737291
 24
1847.6240274174691
 34
0.0
 50
270.0
1001
ACAD
1000
DSTYLE
1002
{
1070
   288
1070
     1
1070
   172
1070
     1
1070
    40
1040
25.0
1070
   271
1070
     0
1070
     7
1000
_DOT
1070
   143
1040
0.039
1002
}
  0
DIMENSION
  5
7DE8
  8
3
  2
*D18
 10
983.18594647004727
 20
1772.6240274174691
 30
0.0
 11
920.68594647004716
 21
1586.909741703183
 31
0.0
 70
     0
 13
1385.5766059737291
 23
1847.6240274174691
 33
0.0
 14
1385.5766059737291
 24
1772.6240274174691
 34
0.0
 50
270.0
1001
ACAD
1000
DSTYLE
1002
{
1070
   287
1070
     3
1070
    40
1040
25.0
1070
   143
1040
0.039
1070
   172
1070
     1
1070
   271
1070
     0
1070
   279
1070
     0
1070
   288
1070
     1
1070
     6
1000
DOT
1002
}
  0
DIMENSION
  5
7DE9
  8
3
  2
*D19
 10
792.5651497558365
 20
1772.6240274174691
 30
0.0
 11
730.06514975583616
 21
2304.1240274174688
 31
0.0
 70
     0
 13
1630.57861104633
 23
2835.6240274174679
 33
0.0
 14
1385.5766059737291
 24
1772.6240274174691
 34
0.0
 50
270.0
1001
ACAD
1000
DSTYLE
1002
{
1070
   287
1070
     3
1070
    40
1040
25.0
1070
   143
1040
0.039
1070
   172
1070
     1
1070
   271
1070
     0
1070
   279
1070
     0
1070
   288
1070
     1
1002
}
  0
LINE
  5
7DEA
  8
1
 10
1235.576605973728
 20
2412.9770852860602
 30
0.0
 11
1235.576605973728
 21
2403.186909481728
 31
0.0
  0
DIMENSION
  5
7DEB
  8
3
  2
*D20
 10
1235.576605973728
 20
3109.714636260413
 30
0.0
 11
1435.576605973728
 21
3172.214636260413
 31
0.0
 70
     0
 13
1635.576605973728
 23
2905.1403121800572
 33
0.0
 14
1235.576605973728
 24
2412.9770852860602
 34
0.0
1001
ACAD
1000
DSTYLE
1002
{
1070
   287
1070
     3
1070
    40
1040
25.0
1070
   143
1040
0.039
1070
   172
1070
     1
1070
   271
1070
     0
1070
   279
1070
     0
1070
   288
1070
     1
1002
}
  0
LINE
  5
7DEC
  8
1
 10
3767.515550370666
 20
2830.6240274236789
 30
0.0
 11
4242.515550370671
 21
2830.6240274236802
 31
0.0
  0
LINE
  5
7DED
  8
1
 10
3767.515550370666
 20
2835.6240274236802
 30
0.0
 11
3767.515550370666
 21
2830.6240274236789
 31
0.0
  0
LINE
  5
7DEE
  8
1
 10
4242.515550370671
 20
2835.6240274236802
 30
0.0
 11
4242.515550370671
 21
2830.6240274236802
 31
0.0
  0
LINE
  5
7DEF
  8
1
 10
4224.8155503706703
 20
2732.624027423682
 30
0.0
 11
4224.8155503706703
 21
2445.6240274236811
 31
0.0
  0
LINE
  5
7DF0
  8
1
 10
4221.8155503706703
 20
2445.6240274236811
 30
0.0
 11
4221.8155503706703
 21
2735.624027423682
 31
0.0
  0
LINE
  5
7DF1
  8
1
 10
4221.8155503706703
 20
2725.624027423682
 30
0.0
 11
4221.8155503706703
 21
2750.6240274236829
 31
0.0
  0
ARC
  5
7DF2
  8
1
 10
4259.8155503706703
 20
2726.624027423682
 30
0.0
 40
2.0
 50
359.9999999999992
 51
89.999999999999588
  0
LINE
  5
7DF3
  8
1
 10
4221.8155503706703
 20
2750.6240274236802
 30
0.0
 11
4221.8155503706703
 21
2725.6240274236802
 31
0.0
  0
LINE
  5
7DF4
  8
1
 10
4228.8155503706703
 20
2728.624027423682
 30
0.0
 11
4259.8155503706703
 21
2728.624027423682
 31
0.0
  0
LINE
  5
7DF5
  8
1
 10
4221.8155503706703
 20
2750.6240274236829
 30
0.0
 11
4222.8155503706703
 21
2750.6240274236829
 31
0.0
  0
LINE
  5
7DF6
  8
1
 10
4224.8155503706703
 20
2732.624027423682
 30
0.0
 11
4224.8155503706703
 21
2748.624027423682
 31
0.0
  0
ARC
  5
7DF7
  8
1
 10
4222.8155503706703
 20
2748.624027423682
 30
0.0
 40
2.0
 50
0.0
 51
90.00000000000081
  0
ARC
  5
7DF8
  8
1
 10
4228.8155503706703
 20
2732.624027423682
 30
0.0
 40
4.0
 50
180.0
 51
270.0
  0
LINE
  5
7DF9
  8
1
 10
4221.8155503706703
 20
2725.624027423682
 30
0.0
 11
4261.8155503706703
 21
2725.624027423682
 31
0.0
  0
LINE
  5
7DFA
  8
1
 10
4261.8155503706703
 20
2725.624027423682
 30
0.0
 11
4261.8155503706703
 21
2726.624027423682
 31
0.0
  0
DIMENSION
  5
7DFB
  8
3
  2
*D21
 10
2535.576605973728
 20
3249.1784113053031
 30
0.0
 11
1885.576605973728
 21
3311.6784113053031
 31
0.0
 70
     0
 13
1235.576605973728
 23
2445.6240274174688
 33
0.0
 14
2535.576605973728
 24
1960.6240274174691
 34
0.0
1001
ACAD
1000
DSTYLE
1002
{
1070
   287
1070
     3
1070
    40
1040
25.0
1070
   143
1040
0.039
1070
   172
1070
     1
1070
   271
1070
     0
1070
   279
1070
     0
1070
   288
1070
     1
1002
}
  0
DIMENSION
  5
7DFC
  8
3
  2
*D22
 10
1056.3212228303471
 20
4165.2258209468837
 30
0.0
 11
993.82122283034676
 21
4715.2258209387583
 31
0.0
 70
     0
 13
1385.569580980288
 23
5265.2258209306337
 33
0.0
 14
1385.5755601215669
 24
4165.2258209468837
 34
0.0
 50
90.0
1001
ACAD
1000
DSTYLE
1002
{
1070
   287
1070
     3
1070
    40
1040
25.0
1070
   143
1040
0.039
1070
   172
1070
     1
1070
   271
1070
     0
1070
   279
1070
     0
1070
   288
1070
     1
1002
}
  0
DIMENSION
  5
7DFD
  8
3
  2
*D23
 10
2784.281522999348
 20
4165.2320718673127
 30
0.0
 11
2721.781522999348
 21
4465.2320718677756
 31
0.0
 70
     0
 13
2535.5740999451032
 23
4765.2320718682386
 33
0.0
 14
2535.575560104573
 24
4165.2320718673127
 34
0.0
 50
90.0
1001
ACAD
1000
DSTYLE
1002
{
1070
   287
1070
     3
1070
    40
1040
25.0
1070
   143
1040
0.039
1070
   172
1070
     1
1070
   271
1070
     0
1070
   279
1070
     0
1070
   288
1070
     1
1002
}
  0
LINE
  5
7DFE
  8
1
 10
2235.5722180878979
 20
4797.7304411835967
 30
0.0
 11
2235.5699572979761
 21
5225.2304411776222
 31
0.0
  0
LINE
  5
7DFF
  8
1
 10
1235.572218102659
 20
4797.7250056006142
 30
0.0
 11
1235.5699573127381
 21
5225.2250055946406
 31
0.0
  0
LINE
  5
7E00
  8
1
 10
1655.5722180960081
 20
4797.7273739130605
 30
0.0
 11
1655.5699573060861
 21
5225.2273739070852
 31
0.0
  0
LINE
  5
7E01
  8
1
 10
2235.5699572979761
 20
5225.2304411776222
 30
0.0
 11
1660.568053483702
 21
4797.7273157007457
 31
0.0
  0
LINE
  5
7E02
  8
1
 10
1655.5699573065381
 20
5225.2272885394932
 30
0.0
 11
2235.5722180878979
 21
4797.7304411835958
 31
0.0
  0
LINE
  5
7E03
  8
1
 10
3585.5172003129628
 20
1995.6322394794249
 30
0.0
 11
3585.5141965031971
 21
2279.6322394635399
 31
0.0
  0
LINE
  5
7E04
  8
1
 10
3219.5172003334342
 20
1995.6283683724739
 30
0.0
 11
3585.5172003129628
 21
1995.632239479427
 31
0.0
  0
LINE
  5
7E05
  8
1
 10
3219.5141965236699
 20
2279.6283683565889
 30
0.0
 11
3585.514196503198
 21
2279.6322394635422
 31
0.0
  0
LINE
  5
7E06
  8
1
 10
3219.5158465219761
 20
2123.626638633822
 30
0.0
 11
3159.5158465209252
 21
2123.6264207137119
 31
0.0
  0
LINE
  5
7E07
  8
1
 10
3219.5155503717178
 20
2151.6266386329312
 30
0.0
 11
3159.5155503706669
 21
2151.6264207128211
 31
0.0
  0
LINE
  5
7E08
  8
1
 10
3219.5172003334342
 20
1995.6283683724739
 30
0.0
 11
3219.5141965236699
 21
2279.6283683565889
 31
0.0
  0
LINE
  5
7E09
  8
1
 10
3198.0155503706678
 20
2151.6265605448921
 30
0.0
 11
3198.0155503706692
 21
2379.2240274236801
 31
0.0
  0
LINE
  5
7E0A
  8
1
 10
3265.539104680945
 20
1995.6288551367199
 30
0.0
 11
3265.539104680945
 21
1960.62402742368
 31
0.0
  0
LINE
  5
7E0B
  8
1
 10
3515.2957792255129
 20
1995.631496761855
 30
0.0
 11
3515.295779225512
 21
1960.62402742368
 31
0.0
  0
LINE
  5
81A4
  8
4
 10
4625.0
 20
1250.0
 30
0.0
 11
4625.0
 21
750.0
 31
0.0
  0
LINE
  5
81A5
  8
4
 10
2875.0
 20
1250.0
 30
0.0
 11
2875.0
 21
750.0
 31
0.0
  0
LINE
  5
81A6
  8
4
 10
1625.0
 20
1250.0
 30
0.0
 11
1625.0
 21
750.0
 31
0.0
  0
LINE
  5
81A9
  8
4
 10
1625.0
 20
750.0
 30
0.0
 11
4625.0
 21
750.0
 31
0.0
  0
LINE
  5
81AA
  8
4
 10
1625.0
 20
1000.0
 30
0.0
 11
4625.0
 21
1000.0
 31
0.0
  0
TEXT
  5
81AB
  8
4
 10
1721.2552021172539
 20
1078.857564666532
 30
0.0
 40
125.0
  1
機器名称
  0
TEXT
  5
81AC
  8
4
 10
1715.6452650619931
 20
804.11289183002725
 30
0.0
 40
125.0
  1
機器型番
  0
TEXT
  5
81AD
  8
4
 10
2885.3956475917198
 20
1057.4381806146721
 30
0.0
 40
112.5
  1
ミツヤリミットロードファン
  0
TEXT
  5
81AE
  8
4
 10
2966.6362389637011
 20
792.89896069985843
 30
0.0
 40
125.0
  1
LL#3 1/2-1
  0
TEXT
  5
81B0
  8
4
 10
1982.9283631643009
 20
5958.5721033312893
 30
0.0
 40
135.0
  1
床置防振ベット
  0
TEXT
  5
81B1
  8
4
 10
790.41898332361586
 20
6334.7024404982449
 30
0.0
 40
180.0
  1
遠心式片吸込片持リミットロードファン
  0
LINE
  5
81B2
  8
4
 10
625.0
 20
6173.5218856620122
 30
0.0
 11
4625.0
 21
6173.5218856620122
 31
0.0
  0
LINE
  5
81B3
  8
4
 10
625.0
 20
6673.5218856620122
 30
0.0
 11
4625.0
 21
6673.5218856620122
 31
0.0
  0
LINE
  5
81B4
  8
4
 10
1625.0
 20
1250.0
 30
0.0
 11
4625.0
 21
1250.0
 31
0.0
  0
LINE
  5
81B5
  8
4
 10
625.0
 20
6673.5218856620122
 30
0.0
 11
625.0
 21
6173.5218856620122
 31
0.0
  0
TEXT
  5
81B6
  8
4
 10
893.28128255754575
 20
5955.7986938658578
 30
0.0
 40
135.0
  1
左回転上向
  0
TEXT
  5
81B7
  8
4
 10
3672.4238981232238
 20
6765.1527037382721
 30
0.0
 40
140.0
  1
No.
  0
TEXT
  5
81B8
  8
4
 10
3278.2401565000318
 20
5958.5721033312893
 30
0.0
 40
135.0
  1
縮尺：1/25
  0
LINE
  5
81B9
  8
4
 10
4625.0
 20
6673.5218856620122
 30
0.0
 11
4625.0
 21
6173.5218856620122
 31
0.0
  0
LINE
  5
81BA
  8
4
 10
5250.0
 20
7375.0
 30
0.0
 11
5250.0
 21
7375.0
 31
0.0
  0
LINE
  5
81BB
  8
4
 10
3601.543555899661
 20
6703.1589578135026
 30
0.0
 11
3601.543555899661
 21
6966.6306538743811
 31
0.0
  0
LINE
  5
81BC
  8
4
 10
3601.543555899661
 20
6966.6306538743811
 30
0.0
 11
4625.0
 21
6966.6306538743811
 31
0.0
  0
LINE
  5
81BD
  8
4
 10
4625.0
 20
6966.6306538743811
 30
0.0
 11
4625.0
 21
6703.1589578135026
 31
0.0
  0
LINE
  5
81BE
  8
4
 10
4625.0
 20
6703.1589578135026
 30
0.0
 11
3601.543555899661
 21
6703.1589578135026
 31
0.0
  0
LINE
  5
81BF
  8
4
 10
0.0
 20
0.0
 30
0.0
 11
0.0
 21
7375.0
 31
0.0
  0
LINE
  5
81C0
  8
4
 10
0.0
 20
7375.0
 30
0.0
 11
5250.0
 21
7375.0
 31
0.0
  0
LINE
  5
81C1
  8
4
 10
5250.0
 20
7375.0
 30
0.0
 11
5250.0
 21
0.0
 31
0.0
  0
LINE
  5
81C2
  8
4
 10
5250.0
 20
0.0
 30
0.0
 11
0.0
 21
0.0
 31
0.0
  0
ENDSEC
  0
EOF
