  0
SECTION
  2
HEADER
  9
$ACADVER
  1
AC1009
  9
$INSBASE
 10
0.0
 20
0.0
 30
0.0
  9
$EXTMIN
 10
0.0
 20
0.0
 30
0.0
  9
$EXTMAX
 10
5250.0
 20
7375.0
 30
0.0
  9
$LIMMIN
 10
0.0
 20
0.0
  9
$LIMMAX
 10
297.0
 20
210.0
  9
$ORTHOMODE
 70
     0
  9
$REGENMODE
 70
     1
  9
$FILLMODE
 70
     0
  9
$QTEXTMODE
 70
     0
  9
$MIRRTEXT
 70
     1
  9
$DRAGMODE
 70
     2
  9
$LTSCALE
 40
100.0
  9
$OSMODE
 70
    37
  9
$ATTMODE
 70
     1
  9
$TEXTSIZE
 40
180.0
  9
$TRACEWID
 40
0.05
  9
$TEXTSTYLE
  7
STANDARD
  9
$CLAYER
  8
1
  9
$CELTYPE
  6
BYLAYER
  9
$CECOLOR
 62
   256
  9
$DIMSCALE
 40
25.0
  9
$DIMASZ
 40
2.0
  9
$DIMEXO
 40
0.5
  9
$DIMDLI
 40
10.0
  9
$DIMRND
 40
0.0
  9
$DIMDLE
 40
0.0
  9
$DIMEXE
 40
1.0
  9
$DIMTP
 40
1.0
  9
$DIMTM
 40
1.0
  9
$DIMTXT
 40
3.0
  9
$DIMCEN
 40
0.0
  9
$DIMTSZ
 40
0.0
  9
$DIMTOL
 70
     0
  9
$DIMLIM
 70
     0
  9
$DIMTIH
 70
     0
  9
$DIMTOH
 70
     0
  9
$DIMSE1
 70
     0
  9
$DIMSE2
 70
     0
  9
$DIMTAD
 70
     1
  9
$DIMZIN
 70
     8
  9
$DIMBLK
  1

  9
$DIMASO
 70
     1
  9
$DIMSHO
 70
     1
  9
$DIMPOST
  1

  9
$DIMAPOST
  1

  9
$DIMALT
 70
     0
  9
$DIMALTD
 70
     2
  9
$DIMALTF
 40
0.039
  9
$DIMLFAC
 40
1.0
  9
$DIMTOFL
 70
     1
  9
$DIMTVP
 40
0.0
  9
$DIMTIX
 70
     0
  9
$DIMSOXD
 70
     0
  9
$DIMSAH
 70
     1
  9
$DIMBLK1
  1
OPEN
  9
$DIMBLK2
  1
OPEN
  9
$DIMSTYLE
  2
IGA
  9
$DIMCLRD
 70
     0
  9
$DIMCLRE
 70
     0
  9
$DIMCLRT
 70
     0
  9
$DIMTFAC
 40
10.0
  9
$DIMGAP
 40
1.0
  9
$LUNITS
 70
     2
  9
$LUPREC
 70
     3
  9
$SKETCHINC
 40
0.1
  9
$FILLETRAD
 40
50.0
  9
$AUNITS
 70
     0
  9
$AUPREC
 70
     0
  9
$MENU
  1
acad
  9
$ELEVATION
 40
0.0
  9
$PELEVATION
 40
0.0
  9
$THICKNESS
 40
0.0
  9
$LIMCHECK
 70
     0
  9
$BLIPMODE
 70
     0
  9
$CHAMFERA
 40
0.5
  9
$CHAMFERB
 40
0.5
  9
$SKPOLY
 70
     0
  9
$TDCREATE
 40
2451614.4278517361
  9
$TDUPDATE
 40
2454953.6408704049
  9
$TDINDWG
 40
0.0145603588
  9
$TDUSRTIMER
 40
0.0145603588
  9
$USRTIMER
 70
     1
  9
$ANGBASE
 50
0.0
  9
$ANGDIR
 70
     0
  9
$PDMODE
 70
     0
  9
$PDSIZE
 40
0.0
  9
$PLINEWID
 40
0.0
  9
$COORDS
 70
     1
  9
$SPLFRAME
 70
     0
  9
$SPLINETYPE
 70
     6
  9
$SPLINESEGS
 70
     8
  9
$ATTDIA
 70
     0
  9
$ATTREQ
 70
     1
  9
$HANDLING
 70
 10241
  9
$HANDSEED
  5
83C1
  9
$SURFTAB1
 70
     6
  9
$SURFTAB2
 70
     6
  9
$SURFTYPE
 70
     6
  9
$SURFU
 70
     6
  9
$SURFV
 70
     6
  9
$UCSNAME
  2

  9
$UCSORG
 10
0.0
 20
0.0
 30
0.0
  9
$UCSXDIR
 10
1.0
 20
0.0
 30
0.0
  9
$UCSYDIR
 10
0.0
 20
1.0
 30
0.0
  9
$PUCSNAME
  2

  9
$PUCSORG
 10
0.0
 20
0.0
 30
0.0
  9
$PUCSXDIR
 10
1.0
 20
0.0
 30
0.0
  9
$PUCSYDIR
 10
0.0
 20
1.0
 30
0.0
  9
$USERI1
 70
     0
  9
$USERI2
 70
     0
  9
$USERI3
 70
     0
  9
$USERI4
 70
     0
  9
$USERI5
 70
     0
  9
$USERR1
 40
0.0
  9
$USERR2
 40
0.0
  9
$USERR3
 40
0.0
  9
$USERR4
 40
0.0
  9
$USERR5
 40
0.0
  9
$WORLDVIEW
 70
     1
  9
$SHADEDGE
 70
     3
  9
$SHADEDIF
 70
    70
  9
$TILEMODE
 70
     1
  9
$MAXACTVP
 70
    16
  9
$PLIMCHECK
 70
     0
  9
$PEXTMIN
 10
1.0000000000000000E+020
 20
1.0000000000000000E+020
 30
1.0000000000000000E+020
  9
$PEXTMAX
 10
-1.0000000000000000E+020
 20
-1.0000000000000000E+020
 30
-1.0000000000000000E+020
  9
$PLIMMIN
 10
0.0
 20
0.0
  9
$PLIMMAX
 10
12.0
 20
9.0
  9
$UNITMODE
 70
     0
  9
$VISRETAIN
 70
     0
  9
$PLINEGEN
 70
     0
  9
$PSLTSCALE
 70
     1
  0
ENDSEC
  0
SECTION
  2
TABLES
  0
TABLE
  2
VPORT
 70
     2
  0
VPORT
  2
*ACTIVE
 70
     0
 10
0.0
 20
0.0
 11
1.0
 21
1.0
 12
4926.9519489297581
 22
821.73311513432066
 13
0.0
 23
0.0
 14
10.0
 24
10.0
 15
10.0
 25
10.0
 16
0.0
 26
0.0
 36
1.0
 17
0.0
 27
0.0
 37
0.0
 40
2182.4160647102158
 41
3.1666666666666661
 42
50.0
 43
0.0
 44
0.0
 50
0.0
 51
0.0
 71
     0
 72
   100
 73
     1
 74
     0
 75
     0
 76
     0
 77
     0
 78
     0
  0
ENDTAB
  0
TABLE
  2
LTYPE
 70
     2
  0
LTYPE
  2
CONTINUOUS
 70
     0
  3
Solid line
 72
    65
 73
     0
 40
0.0
  0
LTYPE
  2
CENTER
 70
     0
  3
____ _ ____ _ ____ _ ____ _ ____ _ ____ _ ____ 
 72
    65
 73
     4
 40
2.0
 49
1.25
 49
-0.25
 49
0.25
 49
-0.25
  0
ENDTAB
  0
TABLE
  2
LAYER
 70
     6
  0
LAYER
  2
0
 70
     0
 62
     7
  6
CONTINUOUS
  0
LAYER
  2
3
 70
     0
 62
     2
  6
CONTINUOUS
  0
LAYER
  2
2
 70
     0
 62
     3
  6
CENTER
  0
LAYER
  2
1
 70
     0
 62
     4
  6
CONTINUOUS
  0
LAYER
  2
4
 70
     0
 62
     7
  6
CONTINUOUS
  0
LAYER
  2
DEFPOINTS
 70
     0
 62
     7
  6
CONTINUOUS
  0
ENDTAB
  0
TABLE
  2
STYLE
 70
     1
  0
STYLE
  2
STANDARD
 70
     0
 40
0.0
 41
1.0
 50
0.0
 71
     0
 42
180.0
  3
simplex.shx
  4
extfont.shx
  0
ENDTAB
  0
TABLE
  2
VIEW
 70
     0
  0
ENDTAB
  0
TABLE
  2
UCS
 70
     0
  0
ENDTAB
  0
TABLE
  2
APPID
 70
     1
  0
APPID
  2
ACAD
 70
     0
  0
ENDTAB
  0
TABLE
  2
DIMSTYLE
 70
     1
  0
DIMSTYLE
  2
IGA
 70
     0
  3

  4

  5

  6
OPEN
  7
OPEN
 40
2.0
 41
2.0
 42
0.5
 43
10.0
 44
1.0
 45
0.0
 46
0.0
 47
1.0
 48
1.0
140
3.0
141
0.0
142
0.0
143
0.03937
144
1.0
145
0.0
146
10.0
147
1.0
 71
     0
 72
     0
 73
     0
 74
     0
 75
     0
 76
     0
 77
     1
 78
     8
170
     0
171
     2
172
     0
173
     1
174
     0
175
     0
176
     0
177
     0
178
     0
  0
ENDTAB
  0
ENDSEC
  0
SECTION
  2
BLOCKS
  0
BLOCK
  8
0
  2
$MODEL_SPACE
 70
     0
 10
0.0
 20
0.0
 30
0.0
  3
$MODEL_SPACE
  1

  0
ENDBLK
  5
1B
  8
0
  0
BLOCK
 67
     1
  8
0
  2
$PAPER_SPACE
 70
     0
 10
0.0
 20
0.0
 30
0.0
  3
$PAPER_SPACE
  1

  0
ENDBLK
  5
18
 67
     1
  8
0
  0
BLOCK
  8
0
  2
_OPEN
 70
     0
 10
0.0
 20
0.0
 30
0.0
  3
_OPEN
  1

  0
LINE
  5
79FD
  8
0
  6
BYBLOCK
 62
     0
 10
-1.0
 20
0.1666666666666666
 30
0.0
 11
0.0
 21
0.0
 31
0.0
  0
LINE
  5
79FE
  8
0
  6
BYBLOCK
 62
     0
 10
0.0
 20
0.0
 30
0.0
 11
-1.0
 21
-0.1666666666666666
 31
0.0
  0
LINE
  5
79FF
  8
0
  6
BYBLOCK
 62
     0
 10
0.0
 20
0.0
 30
0.0
 11
-1.0
 21
0.0
 31
0.0
  0
ENDBLK
  5
7A01
  8
0
  0
BLOCK
  8
0
  2
*D1
 70
     1
 10
0.0
 20
0.0
 30
0.0
  3
*D1
  1

  0
LINE
  5
82E0
  8
3
 62
     0
 10
3792.5155503706678
 20
2932.6514327886111
 30
0.0
 11
3792.5155503706678
 21
3055.4996344956221
 31
0.0
  0
LINE
  5
82E1
  8
3
 62
     0
 10
4217.515550370671
 20
2932.6514327886111
 30
0.0
 11
4217.515550370671
 21
3055.4996344956221
 31
0.0
  0
LINE
  5
82E2
  8
3
 62
     0
 10
3842.5155503706669
 20
3030.4996344956221
 30
0.0
 11
4167.515550370671
 21
3030.4996344956221
 31
0.0
  0
INSERT
  5
82E3
  8
3
 62
     0
  2
_OPEN
 10
3792.5155503706678
 20
3030.4996344956221
 30
0.0
 41
50.0
 42
50.0
 43
50.0
 50
180.0
  0
INSERT
  5
82E4
  8
3
 62
     0
  2
_OPEN
 10
4217.515550370671
 20
3030.4996344956221
 30
0.0
 41
50.0
 42
50.0
 43
50.0
  0
TEXT
  8
3
  40
75
  5
83AD
  62
0
  72
0
  71
0
 10
3866.93
 20
2960.25
 30
0.000000
  1
425
  0
POINT
  5
82E6
  8
DEFPOINTS
 62
     0
 10
3792.5155503706678
 20
2920.1514327886098
 30
0.0
  0
POINT
  5
82E7
  8
DEFPOINTS
 62
     0
 10
4217.515550370671
 20
2920.1514327886098
 30
0.0
  0
POINT
  5
82E8
  8
DEFPOINTS
 62
     0
 10
4217.515550370671
 20
3030.4996344956221
 30
0.0
  0
ENDBLK
  5
814D
  8
0
  0
BLOCK
  8
0
  2
*D2
 70
     1
 10
0.0
 20
0.0
 30
0.0
  3
*D2
  1

  0
LINE
  5
82FD
  8
3
 62
     0
 10
4274.3155503706703
 20
2600.1514327886098
 30
0.0
 11
4438.6278381594702
 21
2600.1514327886098
 31
0.0
  0
LINE
  5
82FE
  8
3
 62
     0
 10
4274.3155503706703
 20
2040.151432788608
 30
0.0
 11
4438.6278381594693
 21
2040.151432788608
 31
0.0
  0
LINE
  5
82FF
  8
3
 62
     0
 10
4413.6278381594693
 20
2550.1514327886098
 30
0.0
 11
4413.6278381594693
 21
2090.1514327886089
 31
0.0
  0
INSERT
  5
8300
  8
3
 62
     0
  2
_OPEN
 10
4413.6278381594693
 20
2600.1514327886098
 30
0.0
 41
50.0
 42
50.0
 43
50.0
 50
90.0
  0
INSERT
  5
8301
  8
3
 62
     0
  2
_OPEN
 10
4413.6278381594693
 20
2040.151432788608
 30
0.0
 41
50.0
 42
50.0
 43
50.0
 50
270.0
  0
TEXT
  8
3
  40
75
  5
83AE
  62
0
  72
0
  71
0
 10
4201.13
 20
2187.40
 30
0.000000
  1
560
  0
POINT
  5
8303
  8
DEFPOINTS
 62
     0
 10
4261.8155503706703
 20
2600.1514327886098
 30
0.0
  0
POINT
  5
8304
  8
DEFPOINTS
 62
     0
 10
4261.8155503706703
 20
2040.151432788608
 30
0.0
  0
POINT
  5
8305
  8
DEFPOINTS
 62
     0
 10
4413.6278381594693
 20
2040.151432788608
 30
0.0
  0
ENDBLK
  5
8142
  8
0
  0
BLOCK
  8
0
  2
*D3
 70
     1
 10
0.0
 20
0.0
 30
0.0
  3
*D3
  1

  0
LINE
  5
8306
  8
3
 62
     0
 10
2535.576605973728
 20
1719.646805683853
 30
0.0
 11
2535.576605973728
 21
1558.3320198292749
 31
0.0
  0
LINE
  5
8307
  8
3
 62
     0
 10
1635.576605973728
 20
1660.351846643852
 30
0.0
 11
1635.576605973728
 21
1558.3320198292749
 31
0.0
  0
LINE
  5
8308
  8
3
 62
     0
 10
2485.576605973728
 20
1583.3320198292749
 30
0.0
 11
1685.576605973728
 21
1583.3320198292749
 31
0.0
  0
INSERT
  5
8309
  8
3
 62
     0
  2
_OPEN
 10
2535.576605973728
 20
1583.3320198292749
 30
0.0
 41
50.0
 42
50.0
 43
50.0
  0
INSERT
  5
830A
  8
3
 62
     0
  2
_OPEN
 10
1635.576605973728
 20
1583.3320198292749
 30
0.0
 41
50.0
 42
50.0
 43
50.0
 50
180.0
  0
TEXT
  8
3
  40
75
  5
83AF
  62
0
  72
0
  71
0
 10
1935.58
 20
1513.08
 30
0.000000
  1
900
  0
POINT
  5
830C
  8
DEFPOINTS
 62
     0
 10
2535.576605973728
 20
1732.146805683853
 30
0.0
  0
POINT
  5
830D
  8
DEFPOINTS
 62
     0
 10
1635.576605973728
 20
1672.851846643852
 30
0.0
  0
POINT
  5
830E
  8
DEFPOINTS
 62
     0
 10
1635.576605973728
 20
1583.3320198292749
 30
0.0
  0
ENDBLK
  5
819C
  8
0
  0
BLOCK
  8
0
  2
*D4
 70
     1
 10
0.0
 20
0.0
 30
0.0
  3
*D4
  1

  0
LINE
  5
819E
  8
0
  6
BYBLOCK
 62
     0
 10
1635.576605973728
 20
1660.351846643852
 30
0.0
 11
1635.576605973728
 21
1558.4406152038659
 31
0.0
  0
LINE
  5
819F
  8
0
  6
BYBLOCK
 62
     0
 10
1385.576605973728
 20
1719.65271807762
 30
0.0
 11
1385.576605973728
 21
1558.4406152038659
 31
0.0
  0
LINE
  5
81A0
  8
0
  6
BYBLOCK
 62
     0
 10
1585.576605973728
 20
1583.4406152038659
 30
0.0
 11
1435.576605973728
 21
1583.4406152038659
 31
0.0
  0
TEXT
  5
81A1
  8
1
 62
     0
 10
1414.1480345451571
 20
1600.9702793273241
 30
0.0
 40
75.0
  1
250
  0
INSERT
  5
81A2
  8
0
  6
BYBLOCK
 62
     0
  2
_OPEN
 10
1635.576605973728
 20
1583.4406152038659
 30
0.0
 41
50.0
 42
50.0
 43
50.0
  0
INSERT
  5
81A3
  8
0
  6
BYBLOCK
 62
     0
  2
_OPEN
 10
1385.576605973728
 20
1583.4406152038659
 30
0.0
 41
50.0
 42
50.0
 43
50.0
 50
180.0
  0
POINT
  5
81A4
  8
DEFPOINTS
  6
BYBLOCK
 62
     0
 10
1635.576605973728
 20
1672.851846643852
 30
0.0
  0
POINT
  5
81A5
  8
DEFPOINTS
  6
BYBLOCK
 62
     0
 10
1385.576605973728
 20
1732.15271807762
 30
0.0
  0
POINT
  5
81A6
  8
DEFPOINTS
  6
BYBLOCK
 62
     0
 10
1385.576605973728
 20
1583.4406152038659
 30
0.0
  0
ENDBLK
  5
81A7
  8
0
  0
BLOCK
  8
0
  2
*D5
 70
     1
 10
0.0
 20
0.0
 30
0.0
  3
*D5
  1

  0
LINE
  5
830F
  8
3
 62
     0
 10
2535.576605973728
 20
1719.646805683853
 30
0.0
 11
2535.576605973728
 21
1403.099055528482
 31
0.0
  0
LINE
  5
8310
  8
3
 62
     0
 10
1385.576605973728
 20
1719.65271807762
 30
0.0
 11
1385.576605973728
 21
1403.099055528482
 31
0.0
  0
LINE
  5
8311
  8
3
 62
     0
 10
2485.576605973728
 20
1428.099055528482
 30
0.0
 11
1435.576605973728
 21
1428.099055528482
 31
0.0
  0
INSERT
  5
8312
  8
3
 62
     0
  2
_OPEN
 10
2535.576605973728
 20
1428.099055528482
 30
0.0
 41
50.0
 42
50.0
 43
50.0
  0
INSERT
  5
8313
  8
3
 62
     0
  2
_OPEN
 10
1385.576605973728
 20
1428.099055528482
 30
0.0
 41
50.0
 42
50.0
 43
50.0
 50
180.0
  0
TEXT
  8
3
  40
75
  5
83B0
  62
0
  72
0
  71
0
 10
1810.58
 20
1357.85
 30
0.000000
  1
1150
  0
POINT
  5
8315
  8
DEFPOINTS
 62
     0
 10
2535.576605973728
 20
1732.146805683853
 30
0.0
  0
POINT
  5
8316
  8
DEFPOINTS
 62
     0
 10
1385.576605973728
 20
1732.15271807762
 30
0.0
  0
POINT
  5
8317
  8
DEFPOINTS
 62
     0
 10
1385.576605973728
 20
1428.099055528482
 30
0.0
  0
ENDBLK
  5
8191
  8
0
  0
BLOCK
  8
0
  2
*D6
 70
     1
 10
0.0
 20
0.0
 30
0.0
  3
*D6
  1

  0
LINE
  5
8318
  8
3
 62
     0
 10
3160.0155503706669
 20
1719.6721052058899
 30
0.0
 11
3160.0155503706669
 21
1584.163394128997
 31
0.0
  0
LINE
  5
8319
  8
3
 62
     0
 10
4005.0155503706669
 20
1673.073928810303
 30
0.0
 11
4005.0155503706669
 21
1584.163394128997
 31
0.0
  0
LINE
  5
831A
  8
3
 62
     0
 10
3210.0155503706669
 20
1609.163394128997
 30
0.0
 11
3955.0155503706669
 21
1609.163394128997
 31
0.0
  0
INSERT
  5
831B
  8
3
 62
     0
  2
_OPEN
 10
3160.0155503706669
 20
1609.163394128997
 30
0.0
 41
50.0
 42
50.0
 43
50.0
 50
180.0
  0
INSERT
  5
831C
  8
3
 62
     0
  2
_OPEN
 10
4005.0155503706669
 20
1609.163394128997
 30
0.0
 41
50.0
 42
50.0
 43
50.0
  0
TEXT
  8
3
  40
75
  5
83B1
  62
0
  72
0
  71
0
 10
3432.52
 20
1538.91
 30
0.000000
  1
845
  0
POINT
  5
831E
  8
DEFPOINTS
 62
     0
 10
3160.0155503706669
 20
1732.1721052058899
 30
0.0
  0
POINT
  5
831F
  8
DEFPOINTS
 62
     0
 10
4005.0155503706669
 20
1685.573928810303
 30
0.0
  0
POINT
  5
8320
  8
DEFPOINTS
 62
     0
 10
4005.0155503706669
 20
1609.163394128997
 30
0.0
  0
ENDBLK
  5
8114
  8
0
  0
BLOCK
  8
0
  2
*D7
 70
     1
 10
0.0
 20
0.0
 30
0.0
  3
*D7
  1

  0
LINE
  5
821D
  8
0
  6
BYBLOCK
 62
     0
 10
4005.0155503706669
 20
1673.073928810303
 30
0.0
 11
4005.0155503706669
 21
1584.3703854275971
 31
0.0
  0
LINE
  5
821E
  8
0
  6
BYBLOCK
 62
     0
 10
4260.0155503706701
 20
1719.6721052058899
 30
0.0
 11
4260.0155503706701
 21
1584.3703854275971
 31
0.0
  0
LINE
  5
821F
  8
0
  6
BYBLOCK
 62
     0
 10
4055.0155503706678
 20
1609.3703854275971
 30
0.0
 11
4210.0155503706692
 21
1609.3703854275971
 31
0.0
  0
TEXT
  5
8220
  8
1
 62
     0
 10
4036.0869789420972
 20
1628.424926122806
 30
0.0
 40
75.0
  1
255
  0
INSERT
  5
8221
  8
0
  6
BYBLOCK
 62
     0
  2
_OPEN
 10
4005.0155503706669
 20
1609.3703854275971
 30
0.0
 41
50.0
 42
50.0
 43
50.0
 50
180.0
  0
INSERT
  5
8222
  8
0
  6
BYBLOCK
 62
     0
  2
_OPEN
 10
4260.0155503706701
 20
1609.3703854275971
 30
0.0
 41
50.0
 42
50.0
 43
50.0
  0
POINT
  5
8223
  8
DEFPOINTS
  6
BYBLOCK
 62
     0
 10
4005.0155503706669
 20
1685.573928810303
 30
0.0
  0
POINT
  5
8224
  8
DEFPOINTS
  6
BYBLOCK
 62
     0
 10
4260.0155503706701
 20
1732.1721052058899
 30
0.0
  0
POINT
  5
8225
  8
DEFPOINTS
  6
BYBLOCK
 62
     0
 10
4260.0155503706701
 20
1609.3703854275971
 30
0.0
  0
ENDBLK
  5
8226
  8
0
  0
BLOCK
  8
0
  2
*D8
 70
     1
 10
0.0
 20
0.0
 30
0.0
  3
*D8
  1

  0
LINE
  5
8321
  8
3
 62
     0
 10
3160.0155503706669
 20
1719.6721052058899
 30
0.0
 11
3160.0155503706669
 21
1455.1775998036121
 31
0.0
  0
LINE
  5
8322
  8
3
 62
     0
 10
4260.0155503706701
 20
1719.6721052058899
 30
0.0
 11
4260.0155503706701
 21
1455.1775998036121
 31
0.0
  0
LINE
  5
8323
  8
3
 62
     0
 10
3210.0155503706669
 20
1480.1775998036121
 30
0.0
 11
4210.0155503706692
 21
1480.1775998036121
 31
0.0
  0
INSERT
  5
8324
  8
3
 62
     0
  2
_OPEN
 10
3160.0155503706669
 20
1480.1775998036121
 30
0.0
 41
50.0
 42
50.0
 43
50.0
 50
180.0
  0
INSERT
  5
8325
  8
3
 62
     0
  2
_OPEN
 10
4260.0155503706701
 20
1480.1775998036121
 30
0.0
 41
50.0
 42
50.0
 43
50.0
  0
TEXT
  8
3
  40
75
  5
83B2
  62
0
  72
0
  71
0
 10
3560.02
 20
1409.93
 30
0.000000
  1
1100
  0
POINT
  5
8327
  8
DEFPOINTS
 62
     0
 10
3160.0155503706669
 20
1732.1721052058899
 30
0.0
  0
POINT
  5
8328
  8
DEFPOINTS
 62
     0
 10
4260.0155503706701
 20
1732.1721052058899
 30
0.0
  0
POINT
  5
8329
  8
DEFPOINTS
 62
     0
 10
4260.0155503706701
 20
1480.1775998036121
 30
0.0
  0
ENDBLK
  5
80FC
  8
0
  0
BLOCK
  8
0
  2
*D9
 70
     1
 10
0.0
 20
0.0
 30
0.0
  3
*D9
  1

  0
LINE
  5
832A
  8
3
 62
     0
 10
1236.0796906957939
 20
2920.1514327823979
 30
0.0
 11
943.67183107258006
 21
2920.1514327823988
 31
0.0
  0
LINE
  5
832B
  8
3
 62
     0
 10
1163.56032121114
 20
2320.1514327823988
 30
0.0
 11
943.67183107258006
 21
2320.1514327823988
 31
0.0
  0
LINE
  5
832C
  8
3
 62
     0
 10
968.67183107258006
 20
2870.1514327823988
 30
0.0
 11
968.67183107258006
 21
2370.1514327823988
 31
0.0
  0
INSERT
  5
832D
  8
3
 62
     0
  2
_OPEN
 10
968.67183107258006
 20
2920.1514327823988
 30
0.0
 41
50.0
 42
50.0
 43
50.0
 50
90.0
  0
INSERT
  5
832E
  8
3
 62
     0
  2
_OPEN
 10
968.67183107258006
 20
2320.1514327823988
 30
0.0
 41
50.0
 42
50.0
 43
50.0
 50
270.0
  0
TEXT
  8
3
  40
75
  5
83B3
  62
0
  72
0
  71
0
 10
756.172
 20
2487.40
 30
0.000000
  1
600
  0
POINT
  5
8330
  8
DEFPOINTS
 62
     0
 10
1248.5796906957951
 20
2920.1514327823979
 30
0.0
  0
POINT
  5
8331
  8
DEFPOINTS
 62
     0
 10
1176.06032121114
 20
2320.1514327823988
 30
0.0
  0
POINT
  5
8332
  8
DEFPOINTS
 62
     0
 10
968.67183107258006
 20
2320.1514327823988
 30
0.0
  0
ENDBLK
  5
81CA
  8
0
  0
BLOCK
  8
0
  2
*D10
 70
     1
 10
0.0
 20
0.0
 30
0.0
  3
*D10
  1

  0
LINE
  5
8333
  8
3
 62
     0
 10
1236.0796906957939
 20
2920.1514327823979
 30
0.0
 11
1079.160858350572
 21
2920.1514327823979
 31
0.0
  0
LINE
  5
8334
  8
3
 62
     0
 10
1258.0767087931411
 20
2340.1514327823988
 30
0.0
 11
1079.160858350572
 21
2340.1514327823988
 31
0.0
  0
LINE
  5
8335
  8
3
 62
     0
 10
1104.160858350572
 20
2870.1514327823988
 30
0.0
 11
1104.160858350572
 21
2390.1514327823988
 31
0.0
  0
INSERT
  5
8336
  8
3
 62
     0
  2
_OPEN
 10
1104.160858350572
 20
2920.1514327823979
 30
0.0
 41
50.0
 42
50.0
 43
50.0
 50
90.0
  0
INSERT
  5
8337
  8
3
 62
     0
  2
_OPEN
 10
1104.160858350572
 20
2340.1514327823988
 30
0.0
 41
50.0
 42
50.0
 43
50.0
 50
270.0
  0
TEXT
  8
3
  40
75
  5
83B4
  62
0
  72
0
  71
0
 10
891.661
 20
2497.40
 30
0.000000
  1
580
  0
POINT
  5
8339
  8
DEFPOINTS
 62
     0
 10
1248.5796906957951
 20
2920.1514327823979
 30
0.0
  0
POINT
  5
833A
  8
DEFPOINTS
 62
     0
 10
1270.5767087931411
 20
2340.1514327823988
 30
0.0
  0
POINT
  5
833B
  8
DEFPOINTS
 62
     0
 10
1104.160858350572
 20
2340.1514327823988
 30
0.0
  0
ENDBLK
  5
80E6
  8
0
  0
BLOCK
  8
0
  2
*D11
 70
     1
 10
0.0
 20
0.0
 30
0.0
  3
*D11
  1

  0
LINE
  5
833C
  8
3
 62
     0
 10
1163.56032121114
 20
2320.1514327823988
 30
0.0
 11
943.67183107258006
 21
2320.1514327823988
 31
0.0
  0
LINE
  5
833D
  8
3
 62
     0
 10
1373.076605973728
 20
1845.1514327823991
 30
0.0
 11
943.67183107258006
 21
1845.1514327823991
 31
0.0
  0
LINE
  5
833E
  8
3
 62
     0
 10
968.67183107258006
 20
2270.1514327823988
 30
0.0
 11
968.67183107258006
 21
1895.1514327823991
 31
0.0
  0
INSERT
  5
833F
  8
3
 62
     0
  2
_OPEN
 10
968.67183107258006
 20
2320.1514327823988
 30
0.0
 41
50.0
 42
50.0
 43
50.0
 50
90.0
  0
INSERT
  5
8340
  8
3
 62
     0
  2
_OPEN
 10
968.67183107258006
 20
1845.1514327823991
 30
0.0
 41
50.0
 42
50.0
 43
50.0
 50
270.0
  0
TEXT
  8
3
  40
75
  5
83B5
  62
0
  72
0
  71
0
 10
756.172
 20
1949.90
 30
0.000000
  1
475
  0
POINT
  5
8342
  8
DEFPOINTS
 62
     0
 10
1176.06032121114
 20
2320.1514327823988
 30
0.0
  0
POINT
  5
8343
  8
DEFPOINTS
 62
     0
 10
1385.576605973728
 20
1845.1514327823991
 30
0.0
  0
POINT
  5
8344
  8
DEFPOINTS
 62
     0
 10
968.67183107258006
 20
1845.1514327823991
 30
0.0
  0
ENDBLK
  5
81D5
  8
0
  0
BLOCK
  8
0
  2
*D12
 70
     1
 10
0.0
 20
0.0
 30
0.0
  3
*D12
  1

  0
LINE
  5
8289
  8
0
  6
BYBLOCK
 62
     0
 10
1373.076605973728
 20
1845.1514327823991
 30
0.0
 11
943.67183107258006
 21
1845.1514327823991
 31
0.0
  0
LINE
  5
828A
  8
0
  6
BYBLOCK
 62
     0
 10
1373.076605973728
 20
1807.1514327823991
 30
0.0
 11
943.67183107258006
 21
1807.1514327823991
 31
0.0
  0
LINE
  5
828B
  8
0
  6
BYBLOCK
 62
     0
 10
968.67183107258006
 20
1895.1514327823991
 30
0.0
 11
968.67183107258006
 21
1945.1514327823991
 31
0.0
  0
LINE
  5
828C
  8
0
  6
BYBLOCK
 62
     0
 10
968.67183107258006
 20
1757.1514327823991
 30
0.0
 11
968.67183107258006
 21
1707.1514327823991
 31
0.0
  0
TEXT
  5
828D
  8
1
 62
     0
 10
931.44397041838238
 20
1765.4371470681131
 30
0.0
 40
75.0
  1
38
 50
90.0
  0
LINE
  5
828E
  8
0
  6
BYBLOCK
 62
     0
 10
968.67183107258006
 20
1845.1514327823991
 30
0.0
 11
968.67183107258006
 21
1807.1514327823991
 31
0.0
  0
INSERT
  5
828F
  8
0
  6
BYBLOCK
 62
     0
  2
_OPEN
 10
968.67183107258006
 20
1845.1514327823991
 30
0.0
 41
50.0
 42
50.0
 43
50.0
 50
270.0
  0
INSERT
  5
8290
  8
0
  6
BYBLOCK
 62
     0
  2
_DOT
 10
968.67183107258006
 20
1807.1514327823991
 30
0.0
 41
50.0
 42
50.0
 43
50.0
 50
90.0
  0
POINT
  5
8291
  8
DEFPOINTS
  6
BYBLOCK
 62
     0
 10
1385.576605973728
 20
1845.1514327823991
 30
0.0
  0
POINT
  5
8292
  8
DEFPOINTS
  6
BYBLOCK
 62
     0
 10
1385.576605973728
 20
1807.1514327823991
 30
0.0
  0
POINT
  5
8293
  8
DEFPOINTS
  6
BYBLOCK
 62
     0
 10
968.67183107258006
 20
1807.1514327823991
 30
0.0
  0
ENDBLK
  5
8294
  8
0
  0
BLOCK
  8
0
  2
*D13
 70
     1
 10
0.0
 20
0.0
 30
0.0
  3
*D13
  1

  0
LINE
  5
8345
  8
3
 62
     0
 10
1373.076605973728
 20
1807.1514327823991
 30
0.0
 11
943.67183107258006
 21
1807.1514327823991
 31
0.0
  0
LINE
  5
8346
  8
3
 62
     0
 10
1373.076605973728
 20
1732.1514327823991
 30
0.0
 11
943.67183107258006
 21
1732.1514327823991
 31
0.0
  0
LINE
  5
8347
  8
3
 62
     0
 10
968.67183107258006
 20
1857.1514327823991
 30
0.0
 11
968.67183107258006
 21
1907.1514327823991
 31
0.0
  0
LINE
  5
8348
  8
3
 62
     0
 10
968.67183107258006
 20
1682.1514327823991
 30
0.0
 11
968.67183107258006
 21
1460.722861353828
 31
0.0
  0
LINE
  5
8349
  8
3
 62
     0
 10
968.67183107258006
 20
1807.1514327823991
 30
0.0
 11
968.67183107258006
 21
1732.1514327823991
 31
0.0
  0
INSERT
  5
834A
  8
3
 62
     0
  2
_DOT
 10
968.67183107258006
 20
1807.1514327823991
 30
0.0
 41
50.0
 42
50.0
 43
50.0
 50
270.0
  0
INSERT
  5
834B
  8
3
 62
     0
  2
_OPEN
 10
968.67183107258006
 20
1732.1514327823991
 30
0.0
 41
50.0
 42
50.0
 43
50.0
 50
90.0
  0
TEXT
  8
3
  40
75
  5
83B6
  62
0
  72
0
  71
0
 10
756.172
 20
1413.69
 30
0.000000
  1
75
  0
POINT
  5
834D
  8
DEFPOINTS
 62
     0
 10
1385.576605973728
 20
1807.1514327823991
 30
0.0
  0
POINT
  5
834E
  8
DEFPOINTS
 62
     0
 10
1385.576605973728
 20
1732.1514327823991
 30
0.0
  0
POINT
  5
834F
  8
DEFPOINTS
 62
     0
 10
968.67183107258006
 20
1732.1514327823991
 30
0.0
  0
ENDBLK
  5
82AE
  8
0
  0
BLOCK
  8
0
  2
*D14
 70
     1
 10
0.0
 20
0.0
 30
0.0
  3
*D14
  1

  0
LINE
  5
8350
  8
3
 62
     0
 10
1236.0796906957939
 20
2920.1514327823979
 30
0.0
 11
772.37303108094727
 21
2920.1514327823988
 31
0.0
  0
LINE
  5
8351
  8
3
 62
     0
 10
1373.076605973728
 20
1732.1514327823991
 30
0.0
 11
772.37303108094693
 21
1732.1514327823991
 31
0.0
  0
LINE
  5
8352
  8
3
 62
     0
 10
797.37303108094727
 20
2870.1514327823988
 30
0.0
 11
797.37303108094693
 21
1782.1514327823991
 31
0.0
  0
INSERT
  5
8353
  8
3
 62
     0
  2
_OPEN
 10
797.37303108094727
 20
2920.1514327823988
 30
0.0
 41
50.0
 42
50.0
 43
50.0
 50
90.0
  0
INSERT
  5
8354
  8
3
 62
     0
  2
_OPEN
 10
797.37303108094693
 20
1732.1514327823991
 30
0.0
 41
50.0
 42
50.0
 43
50.0
 50
270.0
  0
TEXT
  8
3
  40
75
  5
83B7
  62
0
  72
0
  71
0
 10
584.873
 20
2193.40
 30
0.000000
  1
1188
  0
POINT
  5
8356
  8
DEFPOINTS
 62
     0
 10
1248.5796906957951
 20
2920.1514327823979
 30
0.0
  0
POINT
  5
8357
  8
DEFPOINTS
 62
     0
 10
1385.576605973728
 20
1732.1514327823991
 30
0.0
  0
POINT
  5
8358
  8
DEFPOINTS
 62
     0
 10
797.37303108094693
 20
1732.1514327823991
 30
0.0
  0
ENDBLK
  5
81B2
  8
0
  0
BLOCK
  8
0
  2
*D15
 70
     1
 10
0.0
 20
0.0
 30
0.0
  3
*D15
  1

  0
LINE
  5
8359
  8
3
 62
     0
 10
1245.576605973728
 20
2957.6534378633278
 30
0.0
 11
1245.576605973728
 21
3102.123577358715
 31
0.0
  0
LINE
  5
835A
  8
3
 62
     0
 10
1635.576605973728
 20
2970.4092267392439
 30
0.0
 11
1635.576605973728
 21
3102.123577358715
 31
0.0
  0
LINE
  5
835B
  8
3
 62
     0
 10
1295.576605973728
 20
3077.123577358715
 30
0.0
 11
1585.576605973728
 21
3077.123577358715
 31
0.0
  0
INSERT
  5
835C
  8
3
 62
     0
  2
_OPEN
 10
1245.576605973728
 20
3077.123577358715
 30
0.0
 41
50.0
 42
50.0
 43
50.0
 50
180.0
  0
INSERT
  5
835D
  8
3
 62
     0
  2
_OPEN
 10
1635.576605973728
 20
3077.123577358715
 30
0.0
 41
50.0
 42
50.0
 43
50.0
  0
TEXT
  8
3
  40
75
  5
83B8
  62
0
  72
0
  71
0
 10
1290.58
 20
3006.87
 30
0.000000
  1
390
  0
POINT
  5
835F
  8
DEFPOINTS
 62
     0
 10
1245.576605973728
 20
2945.1534378633278
 30
0.0
  0
POINT
  5
8360
  8
DEFPOINTS
 62
     0
 10
1635.576605973728
 20
2957.9092267392439
 30
0.0
  0
POINT
  5
8361
  8
DEFPOINTS
 62
     0
 10
1635.576605973728
 20
3077.123577358715
 30
0.0
  0
ENDBLK
  5
80AB
  8
0
  0
BLOCK
  8
0
  2
*D16
 70
     1
 10
0.0
 20
0.0
 30
0.0
  3
*D16
  1

  0
LINE
  5
8362
  8
3
 62
     0
 10
1635.576605973728
 20
2970.4092267392439
 30
0.0
 11
1635.576605973728
 21
3102.123577358715
 31
0.0
  0
LINE
  5
8363
  8
3
 62
     0
 10
2119.576605973728
 20
2375.1282616026951
 30
0.0
 11
2119.576605973728
 21
3102.123577358715
 31
0.0
  0
LINE
  5
8364
  8
3
 62
     0
 10
1685.576605973728
 20
3077.123577358715
 30
0.0
 11
2069.576605973728
 21
3077.123577358715
 31
0.0
  0
INSERT
  5
8365
  8
3
 62
     0
  2
_OPEN
 10
1635.576605973728
 20
3077.123577358715
 30
0.0
 41
50.0
 42
50.0
 43
50.0
 50
180.0
  0
INSERT
  5
8366
  8
3
 62
     0
  2
_OPEN
 10
2119.576605973728
 20
3077.123577358715
 30
0.0
 41
50.0
 42
50.0
 43
50.0
  0
TEXT
  8
3
  40
75
  5
83B9
  62
0
  72
0
  71
0
 10
1727.58
 20
3006.87
 30
0.000000
  1
484
  0
POINT
  5
8368
  8
DEFPOINTS
 62
     0
 10
1635.576605973728
 20
2957.9092267392439
 30
0.0
  0
POINT
  5
8369
  8
DEFPOINTS
 62
     0
 10
2119.576605973728
 20
2362.6282616026951
 30
0.0
  0
POINT
  5
836A
  8
DEFPOINTS
 62
     0
 10
2119.576605973728
 20
3077.123577358715
 30
0.0
  0
ENDBLK
  5
80A0
  8
0
  0
BLOCK
  8
0
  2
*D17
 70
     1
 10
0.0
 20
0.0
 30
0.0
  3
*D17
  1

  0
LINE
  5
836B
  8
3
 62
     0
 10
1245.576605973728
 20
2957.6534378633278
 30
0.0
 11
1245.576605973728
 21
3242.222953103043
 31
0.0
  0
LINE
  5
836C
  8
3
 62
     0
 10
2535.576605973728
 20
1932.6468056863371
 30
0.0
 11
2535.576605973728
 21
3242.222953103043
 31
0.0
  0
LINE
  5
836D
  8
3
 62
     0
 10
1295.576605973728
 20
3217.222953103043
 30
0.0
 11
2485.576605973728
 21
3217.222953103043
 31
0.0
  0
INSERT
  5
836E
  8
3
 62
     0
  2
_OPEN
 10
1245.576605973728
 20
3217.222953103043
 30
0.0
 41
50.0
 42
50.0
 43
50.0
 50
180.0
  0
INSERT
  5
836F
  8
3
 62
     0
  2
_OPEN
 10
2535.576605973728
 20
3217.222953103043
 30
0.0
 41
50.0
 42
50.0
 43
50.0
  0
TEXT
  8
3
  40
75
  5
83BA
  62
0
  72
0
  71
0
 10
1740.58
 20
3146.97
 30
0.000000
  1
1290
  0
POINT
  5
8371
  8
DEFPOINTS
 62
     0
 10
1245.576605973728
 20
2945.1534378633278
 30
0.0
  0
POINT
  5
8372
  8
DEFPOINTS
 62
     0
 10
2535.576605973728
 20
1920.1468056863371
 30
0.0
  0
POINT
  5
8373
  8
DEFPOINTS
 62
     0
 10
2535.576605973728
 20
3217.222953103043
 30
0.0
  0
ENDBLK
  5
8095
  8
0
  0
BLOCK
  8
0
  2
*D18
 70
     1
 10
0.0
 20
0.0
 30
0.0
  3
*D18
  1

  0
LINE
  5
8374
  8
3
 62
     0
 10
4005.0155503706692
 20
3149.5514106513151
 30
0.0
 11
4005.0155503706692
 21
3219.3789143923591
 31
0.0
  0
LINE
  5
8375
  8
3
 62
     0
 10
3054.5155503706692
 20
2432.6514327886111
 30
0.0
 11
3054.5155503706692
 21
3219.3789143923591
 31
0.0
  0
LINE
  5
8376
  8
3
 62
     0
 10
3955.0155503706692
 20
3194.3789143923591
 30
0.0
 11
3104.5155503706692
 21
3194.3789143923591
 31
0.0
  0
INSERT
  5
8377
  8
3
 62
     0
  2
_OPEN
 10
4005.0155503706692
 20
3194.3789143923591
 30
0.0
 41
50.0
 42
50.0
 43
50.0
  0
INSERT
  5
8378
  8
3
 62
     0
  2
_OPEN
 10
3054.5155503706692
 20
3194.3789143923591
 30
0.0
 41
50.0
 42
50.0
 43
50.0
 50
180.0
  0
TEXT
  8
3
  40
75
  5
83BB
  62
0
  72
0
  71
0
 10
3379.77
 20
3124.13
 30
0.000000
  1
1000
  0
POINT
  5
837A
  8
DEFPOINTS
 62
     0
 10
4005.0155503706692
 20
3137.0514106513151
 30
0.0
  0
POINT
  5
837B
  8
DEFPOINTS
 62
     0
 10
3054.5155503706692
 20
2420.1514327886098
 30
0.0
  0
POINT
  5
837C
  8
DEFPOINTS
 62
     0
 10
3054.5155503706692
 20
3194.3789143923591
 30
0.0
  0
ENDBLK
  5
8231
  8
0
  0
BLOCK
  8
0
  2
*D19
 70
     1
 10
0.0
 20
0.0
 30
0.0
  3
*D19
  1

  0
LINE
  5
837D
  8
3
 62
     0
 10
2535.575692314515
 20
4027.2594772329412
 30
0.0
 11
2535.5795355881992
 21
3663.8910180948001
 31
0.0
  0
LINE
  5
837E
  8
3
 62
     0
 10
1385.5756923315039
 20
4027.2532263125122
 30
0.0
 11
1385.579535667722
 21
3663.8788547806048
 31
0.0
  0
LINE
  5
837F
  8
3
 62
     0
 10
2485.5792711711219
 20
3688.8904892536539
 30
0.0
 11
1435.579271245052
 21
3688.8793836189552
 31
0.0
  0
INSERT
  5
8380
  8
3
 62
     0
  2
_OPEN
 10
2535.5792711683262
 20
3688.8910180934022
 30
0.0
 41
50.0
 42
50.0
 43
50.0
 50
0.000606005711532
  0
INSERT
  5
8381
  8
3
 62
     0
  2
_OPEN
 10
1385.5792712478481
 20
3688.8788547792069
 30
0.0
 41
50.0
 42
50.0
 43
50.0
 50
180.00060600571149
  0
TEXT
  8
3
  40
75
  5
83BC
  62
0
  72
0
  71
0
 10
1810.58
 20
3618.63
 30
0.000000
  1
1150
  0
POINT
  5
8383
  8
DEFPOINTS
 62
     0
 10
2535.575560104578
 20
4039.7594772322432
 30
0.0
  0
POINT
  5
8384
  8
DEFPOINTS
 62
     0
 10
1385.5755601215669
 20
4039.7532263118128
 30
0.0
  0
POINT
  5
8385
  8
DEFPOINTS
 62
     0
 10
1385.5792712478481
 20
3688.8788547792069
 30
0.0
  0
ENDBLK
  5
81FA
  8
0
  0
BLOCK
  8
0
  2
*D20
 70
     1
 10
0.0
 20
0.0
 30
0.0
  3
*D20
  1

  0
LINE
  5
8386
  8
3
 62
     0
 10
1385.5694487703511
 20
5152.2532262948653
 30
0.0
 11
1385.567515817454
 21
5335.0073503157146
 31
0.0
  0
LINE
  5
8387
  8
3
 62
     0
 10
1885.5694487629651
 20
5152.255944086357
 30
0.0
 11
1885.5675157828789
 21
5335.0126387131913
 31
0.0
  0
LINE
  5
8388
  8
3
 62
     0
 10
1435.5677802345319
 20
5310.0078791568603
 30
0.0
 11
1835.56778020555
 21
5310.0121098748423
 31
0.0
  0
INSERT
  5
8389
  8
3
 62
     0
  2
_OPEN
 10
1385.567780237328
 20
5310.0073503171134
 30
0.0
 41
50.0
 42
50.0
 43
50.0
 50
180.00060600571149
  0
INSERT
  5
838A
  8
3
 62
     0
  2
_OPEN
 10
1885.5677802027531
 20
5310.0126387145892
 30
0.0
 41
50.0
 42
50.0
 43
50.0
 50
0.0006060057115299
  0
TEXT
  8
3
  40
75
  5
83BD
  62
0
  72
0
  71
0
 10
1485.57
 20
5239.76
 30
0.000000
  1
500
  0
POINT
  5
838C
  8
DEFPOINTS
 62
     0
 10
1385.569580980288
 20
5139.7532262955647
 30
0.0
  0
POINT
  5
838D
  8
DEFPOINTS
 62
     0
 10
1885.569580972902
 20
5139.7559440870564
 30
0.0
  0
POINT
  5
838E
  8
DEFPOINTS
 62
     0
 10
1885.5677802027531
 20
5310.0126387145892
 30
0.0
  0
ENDBLK
  5
8074
  8
0
  0
BLOCK
  8
0
  2
*D21
 70
     1
 10
0.0
 20
0.0
 30
0.0
  3
*D21
  1

  0
LINE
  5
838F
  8
3
 62
     0
 10
1885.5694487629651
 20
5152.255944086357
 30
0.0
 11
1885.5675157828789
 21
5335.0126387131868
 31
0.0
  0
LINE
  5
8390
  8
3
 62
     0
 10
2535.5748260589862
 20
4643.853514099721
 30
0.0
 11
2535.5675157379319
 21
5335.0195136299062
 31
0.0
  0
LINE
  5
8391
  8
3
 62
     0
 10
1935.567780199957
 20
5310.0131675543344
 30
0.0
 11
2485.5677801606021
 21
5310.0189847915572
 31
0.0
  0
INSERT
  5
8392
  8
3
 62
     0
  2
_OPEN
 10
1885.5677802027531
 20
5310.0126387145856
 30
0.0
 41
50.0
 42
50.0
 43
50.0
 50
180.00060600571149
  0
INSERT
  5
8393
  8
3
 62
     0
  2
_OPEN
 10
2535.5677801578049
 20
5310.019513631305
 30
0.0
 41
50.0
 42
50.0
 43
50.0
 50
0.0006060057115299
  0
TEXT
  8
3
  40
75
  5
83BE
  62
0
  72
0
  71
0
 10
2060.57
 20
5239.77
 30
0.000000
  1
650
  0
POINT
  5
8395
  8
DEFPOINTS
 62
     0
 10
1885.569580972902
 20
5139.7559440870564
 30
0.0
  0
POINT
  5
8396
  8
DEFPOINTS
 62
     0
 10
2535.5749582689241
 20
4631.3535141004204
 30
0.0
  0
POINT
  5
8397
  8
DEFPOINTS
 62
     0
 10
2535.5677801578049
 20
5310.019513631305
 30
0.0
  0
ENDBLK
  5
8069
  8
0
  0
BLOCK
  8
0
  2
*D22
 70
     1
 10
0.0
 20
0.0
 30
0.0
  3
*D22
  1

  0
LINE
  5
8398
  8
3
 62
     0
 10
1373.069580980288
 20
5139.7532262955647
 30
0.0
 11
1045.884997175413
 21
5139.7532262955647
 31
0.0
  0
LINE
  5
8399
  8
3
 62
     0
 10
1373.075560121566
 20
4039.7532263118128
 30
0.0
 11
1045.884997175413
 21
4039.7532263118128
 31
0.0
  0
LINE
  5
839A
  8
3
 62
     0
 10
1070.884997175413
 20
5089.7532262955647
 30
0.0
 11
1070.884997175413
 21
4089.7532263118128
 31
0.0
  0
INSERT
  5
839B
  8
3
 62
     0
  2
_OPEN
 10
1070.884997175413
 20
5139.7532262955647
 30
0.0
 41
50.0
 42
50.0
 43
50.0
 50
90.0
  0
INSERT
  5
839C
  8
3
 62
     0
  2
_OPEN
 10
1070.884997175413
 20
4039.7532263118128
 30
0.0
 41
50.0
 42
50.0
 43
50.0
 50
270.0
  0
TEXT
  8
3
  40
75
  5
83BF
  62
0
  72
0
  71
0
 10
858.385
 20
4457.00
 30
0.000000
  1
1100
  0
POINT
  5
839E
  8
DEFPOINTS
 62
     0
 10
1385.569580980288
 20
5139.7532262955647
 30
0.0
  0
POINT
  5
839F
  8
DEFPOINTS
 62
     0
 10
1385.5755601215669
 20
4039.7532263118128
 30
0.0
  0
POINT
  5
83A0
  8
DEFPOINTS
 62
     0
 10
1070.884997175413
 20
4039.7532263118128
 30
0.0
  0
ENDBLK
  5
805E
  8
0
  0
BLOCK
  8
0
  2
*D23
 70
     1
 10
0.0
 20
0.0
 30
0.0
  3
*D23
  1

  0
LINE
  5
83A1
  8
3
 62
     0
 10
2548.0740999451032
 20
4639.7594772331686
 30
0.0
 11
2759.7428874709422
 21
4639.7594772331686
 31
0.0
  0
LINE
  5
83A2
  8
3
 62
     0
 10
2548.0755601045721
 20
4039.7594772322418
 30
0.0
 11
2759.7428874709422
 21
4039.7594772322418
 31
0.0
  0
LINE
  5
83A3
  8
3
 62
     0
 10
2734.7428874709422
 20
4589.7594772331677
 30
0.0
 11
2734.7428874709422
 21
4089.7594772322418
 31
0.0
  0
INSERT
  5
83A4
  8
3
 62
     0
  2
_OPEN
 10
2734.7428874709422
 20
4639.7594772331686
 30
0.0
 41
50.0
 42
50.0
 43
50.0
 50
90.0
  0
INSERT
  5
83A5
  8
3
 62
     0
  2
_OPEN
 10
2734.7428874709422
 20
4039.7594772322418
 30
0.0
 41
50.0
 42
50.0
 43
50.0
 50
270.0
  0
TEXT
  8
3
  40
75
  5
83C0
  62
0
  72
0
  71
0
 10
2522.24
 20
4207.01
 30
0.000000
  1
600
  0
POINT
  5
83A7
  8
DEFPOINTS
 62
     0
 10
2535.5740999451032
 20
4639.7594772331686
 30
0.0
  0
POINT
  5
83A8
  8
DEFPOINTS
 62
     0
 10
2535.5755601045721
 20
4039.7594772322418
 30
0.0
  0
POINT
  5
83A9
  8
DEFPOINTS
 62
     0
 10
2734.7428874709422
 20
4039.7594772322418
 30
0.0
  0
ENDBLK
  5
8053
  8
0
  0
BLOCK
  8
0
  2
_DOT
 70
     0
 10
0.0
 20
0.0
 30
0.0
  3
_DOT
  1

  0
POLYLINE
  5
82B2
  8
0
  6
BYBLOCK
 62
     0
 66
     1
 10
0.0
 20
0.0
 30
0.0
 70
     1
 40
0.25
 41
0.25
  0
VERTEX
  5
83AA
  8
0
  6
BYBLOCK
 62
     0
 10
-0.125
 20
0.0
 30
0.0
 42
1.0
  0
VERTEX
  5
83AB
  8
0
  6
BYBLOCK
 62
     0
 10
0.125
 20
0.0
 30
0.0
 42
1.0
  0
SEQEND
  5
83AC
  8
0
  6
BYBLOCK
 62
     0
  0
LINE
  5
82B6
  8
0
  6
BYBLOCK
 62
     0
 10
-0.25
 20
0.0
 30
0.0
 11
-1.0
 21
0.0
 31
0.0
  0
ENDBLK
  5
8287
  8
0
  0
ENDSEC
  0
SECTION
  2
ENTITIES
  0
LINE
  5
7CBE
  8
1
 10
3192.5155503706669
 20
2256.95143278861
 30
0.0
 11
3707.5155503706669
 21
2256.95143278861
 31
0.0
  0
LINE
  5
7CBF
  8
1
 10
3198.0155503706669
 20
1920.1721052058899
 30
0.0
 11
3198.0155503706678
 21
2088.1729545885469
 31
0.0
  0
LINE
  5
7CC0
  8
1
 10
3200.0155503706669
 20
1920.1721052058899
 30
0.0
 11
4260.0155503706701
 21
1920.1721052058899
 31
0.0
  0
LINE
  5
7CC1
  8
1
 10
3160.0155503706669
 20
1845.1721052058899
 30
0.0
 11
4260.0155503706701
 21
1845.1721052058899
 31
0.0
  0
LINE
  5
7CC2
  8
1
 10
1855.5760075337471
 20
2203.750301717304
 30
0.0
 11
2097.4346027742349
 21
2203.7490582709979
 31
0.0
  0
LINE
  5
7CC3
  8
1
 10
1855.575961262839
 20
2194.7503017174231
 30
0.0
 11
2097.4345565033268
 21
2194.7490582711171
 31
0.0
  0
LINE
  5
7CC4
  8
1
 10
1303.0746069634829
 20
2194.7531422439988
 30
0.0
 11
1415.575961268652
 21
2194.7525638506891
 31
0.0
  0
LINE
  5
7CC5
  8
1
 10
1303.074653234391
 20
2203.7531422438801
 30
0.0
 11
1415.5760075395599
 21
2203.7525638505708
 31
0.0
  0
LINE
  5
7CC6
  8
1
 10
1415.5745494918469
 20
1920.152563854318
 30
0.0
 11
1415.576264600159
 21
2253.7525638499101
 31
0.0
  0
LINE
  5
7CC7
  8
1
 10
1855.5745494860321
 20
1920.1503017210509
 30
0.0
 11
1855.576264594346
 21
2253.7503017166418
 31
0.0
  0
LINE
  5
7CC8
  8
1
 10
1885.576281045827
 20
2256.950147480241
 30
0.0
 11
1385.576281052435
 21
2256.952718086226
 31
0.0
  0
LINE
  5
7CC9
  8
1
 10
3157.5155503706669
 20
2345.1514327886111
 30
0.0
 11
3767.515550370666
 21
2345.1514327886111
 31
0.0
  0
LINE
  5
7CCA
  8
1
 10
3157.5155503706678
 20
2295.1514327886098
 30
0.0
 11
3790.5155503706678
 21
2295.1514327886098
 31
0.0
  0
LINE
  5
7CCB
  8
1
 10
3157.5155503706669
 20
2275.1514327886098
 30
0.0
 11
3157.5155503706669
 21
2365.1514327886098
 31
0.0
  0
LINE
  5
7CCC
  8
1
 10
3137.5155503706669
 20
2013.1514327886091
 30
0.0
 11
3137.5155503706669
 21
2191.1514327886089
 31
0.0
  0
LINE
  5
7CCD
  8
1
 10
3074.5155503706669
 20
2013.1514327886091
 30
0.0
 11
3074.5155503706669
 21
2191.1514327886089
 31
0.0
  0
LINE
  5
7CCE
  8
1
 10
3137.5155503706669
 20
2365.1514327886098
 30
0.0
 11
3157.5155503706669
 21
2365.1514327886098
 31
0.0
  0
LINE
  5
7CCF
  8
1
 10
3137.5155503706669
 20
2275.1514327886098
 30
0.0
 11
3157.5155503706669
 21
2275.1514327886098
 31
0.0
  0
LINE
  5
7CD0
  8
1
 10
3159.5155503706669
 20
2067.1721052058901
 30
0.0
 11
3159.5155503706669
 21
2137.1721052058901
 31
0.0
  0
LINE
  5
7CD1
  8
1
 10
3137.5155503706669
 20
2137.1721052058901
 30
0.0
 11
3159.5155503706669
 21
2137.1721052058901
 31
0.0
  0
LINE
  5
7CD2
  8
1
 10
3137.5155503706669
 20
2067.1721052058901
 30
0.0
 11
3159.5155503706669
 21
2067.1721052058901
 31
0.0
  0
LINE
  5
7CD3
  8
1
 10
3054.5155503706692
 20
1947.1514327886109
 30
0.0
 11
3054.5155503706692
 21
2420.1514327886098
 31
0.0
  0
LINE
  5
7CD4
  8
1
 10
3176.5155503706692
 20
1947.1514327886109
 30
0.0
 11
3176.5155503706669
 21
1963.335781212761
 31
0.0
  0
LINE
  5
7CD5
  8
2
 10
3023.6353086566291
 20
2320.1514327886098
 30
0.0
 11
4288.4420062418349
 21
2320.1514327886098
 31
0.0
  0
LINE
  5
7CD6
  8
2
 10
3023.6353086566291
 20
2102.1721052058911
 30
0.0
 11
3629.3379410249909
 21
2102.1721052058911
 31
0.0
  0
LINE
  5
7CD7
  8
1
 10
2535.575560104578
 20
4039.7594772322418
 30
0.0
 11
2349.575033823271
 21
4039.7584662109471
 31
0.0
  0
LINE
  5
7CD8
  8
1
 10
1385.5755601215669
 20
4039.7532263118128
 30
0.0
 11
1385.575353569413
 21
4077.753226311755
 31
0.0
  0
LINE
  5
7CD9
  8
1
 10
1385.569580980288
 20
5139.7532262955647
 30
0.0
 11
1885.5695809729009
 21
5139.7559440870564
 31
0.0
  0
LINE
  5
7CDA
  8
1
 10
1885.5722987643919
 20
4639.7559440944397
 30
0.0
 11
1885.5721221079441
 21
4672.2559440939613
 31
0.0
  0
LINE
  5
7CDB
  8
1
 10
2535.5740999451032
 20
4639.7594772331686
 30
0.0
 11
1885.5722987643919
 21
4639.7559440944406
 31
0.0
  0
LINE
  5
7CDC
  8
1
 10
1245.5699573125901
 20
5099.7524653153996
 30
0.0
 11
2119.5699572996882
 21
5099.7572160149284
 31
0.0
  0
LINE
  5
7CDD
  8
2
 10
2335.5731453295411
 20
4559.7179051264302
 30
0.0
 11
2335.5759249738489
 21
3794.3977224837458
 31
0.0
  0
LINE
  5
7CDE
  8
2
 10
1635.5768619188859
 20
3794.1393995524818
 30
0.0
 11
1635.569570893229
 21
5172.8227699612762
 31
0.0
  0
LINE
  5
7CE5
  8
1
 10
2465.5747808325068
 20
1965.147165581154
 30
0.0
 11
2415.574780833168
 21
1965.1474226417531
 31
0.0
  0
LINE
  5
7CE6
  8
1
 10
2465.5747808325068
 20
1965.147165581154
 30
0.0
 11
2465.5748579506871
 21
1980.147165580956
 31
0.0
  0
LINE
  5
7CE7
  8
1
 10
2465.5748579506871
 20
1980.147165580956
 30
0.0
 11
2416.9213391290659
 21
1980.1474157190089
 31
0.0
  0
LINE
  5
7CE8
  8
1
 10
2415.5748531969389
 20
1979.2226584908601
 30
0.0
 11
2415.574780833168
 21
1965.1474226417531
 31
0.0
  0
LINE
  5
7CE9
  8
1
 10
2398.974031815636
 20
1969.527807980742
 30
0.0
 11
2272.1755748929122
 21
1969.528459878487
 31
0.0
  0
LINE
  5
7CEA
  8
1
 10
2465.5748579506871
 20
1980.147165580956
 30
0.0
 11
2451.5457561631629
 21
2014.3399823413899
 31
0.0
  0
LINE
  5
7CEB
  8
1
 10
2205.5748579541232
 20
1980.148502296069
 30
0.0
 11
2219.6043113259429
 21
2014.3411748015219
 31
0.0
  0
LINE
  5
7CEC
  8
1
 10
2255.574853199053
 20
1979.2234810847749
 30
0.0
 11
2255.5747808352821
 21
1965.1482452356679
 31
0.0
  0
LINE
  5
7CED
  8
1
 10
2205.5748579541232
 20
1980.148502296069
 30
0.0
 11
2254.2283767757458
 21
1980.1482521580151
 31
0.0
  0
LINE
  5
7CEE
  8
1
 10
2205.5747808359429
 20
1965.148502296267
 30
0.0
 11
2205.5748579541232
 21
1980.148502296069
 31
0.0
  0
LINE
  5
7CEF
  8
2
 10
2559.088094519781
 20
2097.1466848111309
 30
0.0
 11
2183.0754594762211
 21
2097.1486179717922
 31
0.0
  0
ARC
  5
7CF0
  8
1
 10
2335.5754594742052
 20
2097.147833936966
 30
0.0
 40
142.0
 50
296.41708569015321
 51
243.58232517035151
  0
CIRCLE
  5
7CF1
  8
1
 10
2335.5754594742052
 20
2097.147833936966
 30
0.0
 40
19.0
  0
LINE
  5
7CF2
  8
2
 10
2335.574498055089
 20
1910.1454070865591
 30
0.0
 11
2335.576243509031
 21
2249.647833934951
 31
0.0
  0
POLYLINE
  5
7CF3
  8
1
 66
     1
 10
0.0
 20
0.0
 30
0.0
 70
     1
  0
VERTEX
  5
82DB
  8
1
 10
2510.5745494773728
 20
1920.1469342272101
 30
0.0
  0
VERTEX
  5
82DC
  8
1
 10
2160.5745494819989
 20
1920.1487336514001
 30
0.0
  0
VERTEX
  5
82DD
  8
1
 10
2170.5747808364049
 20
1965.148682238686
 30
0.0
  0
VERTEX
  5
82DE
  8
1
 10
2500.5747808320439
 20
1965.146985638735
 30
0.0
  0
SEQEND
  5
82DF
  8
1
  0
LINE
  5
7D0B
  8
1
 10
1270.5796907057329
 20
2920.1533093168391
 30
0.0
 11
1641.855674299158
 21
2885.931327978295
 31
0.0
  0
ARC
  5
7D0C
  8
1
 10
1668.5764363132971
 20
2287.1512631228402
 30
0.0
 40
367.0
 50
179.99970543025171
 51
270.66962115454822
  0
ARC
  5
7D0D
  8
1
 10
1677.576821904076
 20
2362.1512168509412
 30
0.0
 40
442.0
 50
269.38926730573593
 51
0.056634797916943
  0
ARC
  5
7D0E
  8
1
 10
1593.5768219051861
 20
2362.151648712746
 30
0.0
 40
526.0
 50
359.9480838198063
 51
84.73370113302046
  0
LINE
  5
7D49
  8
1
 10
1905.5762645936841
 20
2253.7500446560439
 30
0.0
 11
1365.5762646008191
 21
2253.7528209105089
 31
0.0
  0
LINE
  5
7D4A
  8
1
 10
1905.5760075330861
 20
2203.7500446567051
 30
0.0
 11
1905.5762645936841
 21
2253.7500446560439
 31
0.0
  0
LINE
  5
7D4B
  8
1
 10
1365.5760075402211
 20
2203.7528209111688
 30
0.0
 11
1365.5762646008191
 21
2253.7528209105089
 31
0.0
  0
LINE
  5
7D4C
  8
1
 10
4221.8155503706703
 20
2315.1514327886098
 30
0.0
 11
4221.8155503706703
 21
2300.1514327886089
 31
0.0
  0
DIMENSION
  5
7D4D
  8
3
  2
*D1
 10
4217.515550370671
 20
3030.4996344956221
 30
0.0
 11
4016.9284327231562
 21
3030.4996344956221
 31
0.0
 70
   128
 13
3792.5155503706678
 23
2920.1514327886098
 33
0.0
 14
4217.515550370671
 24
2920.1514327886098
 34
0.0
1001
ACAD
1000
DSTYLE
1002
{
1070
   287
1070
     3
1070
    40
1040
25.0
1070
   143
1040
0.039
1070
   172
1070
     1
1070
   271
1070
     0
1070
   279
1070
     0
1070
   288
1070
     1
1002
}
  0
LINE
  5
7D4E
  8
1
 10
3137.5155503706669
 20
2191.1514327886089
 30
0.0
 11
3137.5155503706669
 21
2397.6514327886071
 31
0.0
  0
LINE
  5
7D4F
  8
1
 10
3074.5155503706669
 20
2191.1514327886089
 30
0.0
 11
3074.5155503706669
 21
2397.6514327886071
 31
0.0
  0
LINE
  5
7D50
  8
1
 10
1248.5798192363229
 20
2945.1534224231709
 30
0.0
 11
1248.576580272781
 21
2315.1534224314978
 31
0.0
  0
LINE
  5
7D51
  8
1
 10
4217.5155503706656
 20
1920.1721052058899
 30
0.0
 11
4217.5155503706692
 21
2315.1514327886098
 31
0.0
  0
LINE
  5
7D52
  8
1
 10
3792.515550370666
 20
1920.1721052058899
 30
0.0
 11
3792.5155503706669
 21
2315.1514327886098
 31
0.0
  0
LINE
  5
7D53
  8
1
 10
3192.5155503706669
 20
2253.7514327886111
 30
0.0
 11
3707.5155503706669
 21
2253.7514327886111
 31
0.0
  0
LINE
  5
7D54
  8
1
 10
3707.5155503706669
 20
2256.95143278861
 30
0.0
 11
3707.5155503706669
 21
2253.7514327886111
 31
0.0
  0
LINE
  5
7D55
  8
1
 10
3697.5155503706669
 20
2253.7514327886111
 30
0.0
 11
3697.5155503706669
 21
1920.1721052058899
 31
0.0
  0
LINE
  5
7D56
  8
1
 10
3192.5155503706669
 20
2256.95143278861
 30
0.0
 11
3192.5155503706669
 21
2253.7514327886111
 31
0.0
  0
POLYLINE
  5
7D57
  8
1
 66
     1
 10
0.0
 20
0.0
 30
0.0
 70
     1
  0
VERTEX
  5
82E9
  8
1
 10
3697.5155503706669
 20
2203.7514327886111
 30
0.0
  0
VERTEX
  5
82EA
  8
1
 10
3747.5155503706669
 20
2203.7514327886111
 30
0.0
  0
VERTEX
  5
82EB
  8
1
 10
3747.5155503706669
 20
2205.2514327886111
 30
0.0
 42
0.4142135623730951
  0
VERTEX
  5
82EC
  8
1
 10
3743.0155503706669
 20
2209.7514327886101
 30
0.0
  0
VERTEX
  5
82ED
  8
1
 10
3710.0155503706669
 20
2209.7514327886101
 30
0.0
 42
-0.4142135623730951
  0
VERTEX
  5
82EE
  8
1
 10
3703.5155503706669
 20
2216.2514327886111
 30
0.0
  0
VERTEX
  5
82EF
  8
1
 10
3703.5155503706669
 20
2249.2514327886101
 30
0.0
 42
0.4142135623730951
  0
VERTEX
  5
82F0
  8
1
 10
3699.0155503706669
 20
2253.7514327886111
 30
0.0
  0
VERTEX
  5
82F1
  8
1
 10
3697.5155503706669
 20
2253.7514327886111
 30
0.0
  0
SEQEND
  5
82F2
  8
1
  0
LINE
  5
7D62
  8
1
 10
3725.5155503706669
 20
2203.7514327886111
 30
0.0
 11
3790.5155503706669
 21
2203.7514327886111
 31
0.0
  0
LINE
  5
7D63
  8
1
 10
3725.5155503706669
 20
2197.7514327886111
 30
0.0
 11
3790.5155503706669
 21
2197.7514327886111
 31
0.0
  0
LINE
  5
7D64
  8
1
 10
3725.5155503706669
 20
2197.7514327886111
 30
0.0
 11
3725.5155503706669
 21
2203.7514327886111
 31
0.0
  0
POLYLINE
  5
7D65
  8
1
 66
     1
 10
0.0
 20
0.0
 30
0.0
 70
     1
  0
VERTEX
  5
82F3
  8
1
 10
3790.5155503706669
 20
1920.1721052058899
 30
0.0
  0
VERTEX
  5
82F4
  8
1
 10
3790.5155503706669
 20
1960.1721052058899
 30
0.0
  0
VERTEX
  5
82F5
  8
1
 10
3788.5155503706678
 20
1960.1721052058899
 30
0.0
 42
0.4142135623730951
  0
VERTEX
  5
82F6
  8
1
 10
3785.5155503706669
 20
1957.1721052058899
 30
0.0
  0
VERTEX
  5
82F7
  8
1
 10
3785.5155503706669
 20
1929.6721052058899
 30
0.0
 42
-0.4142135623730951
  0
VERTEX
  5
82F8
  8
1
 10
3781.0155503706669
 20
1925.1721052058899
 30
0.0
  0
VERTEX
  5
82F9
  8
1
 10
3753.5155503706669
 20
1925.1721052058899
 30
0.0
 42
0.4142135623730951
  0
VERTEX
  5
82FA
  8
1
 10
3750.5155503706669
 20
1922.1721052058899
 30
0.0
  0
VERTEX
  5
82FB
  8
1
 10
3750.5155503706669
 20
1920.1721052058899
 30
0.0
  0
SEQEND
  5
82FC
  8
1
  0
LINE
  5
7D70
  8
1
 10
1885.576281045827
 20
2256.950147480241
 30
0.0
 11
1885.576264593949
 21
2253.750147480283
 31
0.0
  0
LINE
  5
7D71
  8
1
 10
1385.576281052435
 20
2256.952718086226
 30
0.0
 11
1385.5762646005569
 21
2253.7527180862689
 31
0.0
  0
LINE
  5
7D72
  8
1
 10
1303.0746069634829
 20
2194.7531422439988
 30
0.0
 11
1303.074653234391
 21
2203.7531422438801
 31
0.0
  0
LINE
  5
7D73
  8
1
 10
3792.5155503706678
 20
2920.1514327886098
 30
0.0
 11
4217.515550370671
 21
2920.1514327886098
 31
0.0
  0
ARC
  5
7D76
  8
1
 10
1531.5713639981921
 20
2312.1222384277921
 30
0.0
 40
227.59448069142181
 50
138.0899375340542
 51
177.97827070822461
  0
ARC
  5
7D77
  8
1
 10
1316.9774630179741
 20
2486.8530707703299
 30
0.0
 40
50.600000000000001
 50
333.33733511085683
 51
106.91691766312481
  0
LINE
  5
7D78
  8
1
 10
1248.5776279733179
 20
2518.938160827337
 30
0.0
 11
1302.2536372870991
 21
2535.2634927458389
 31
0.0
  0
LINE
  5
7D79
  8
1
 10
4221.8155503706703
 20
2300.1514327886089
 30
0.0
 11
4221.8155503706703
 21
2030.1514327886091
 31
0.0
  0
LINE
  5
7D7A
  8
1
 10
4260.0155503706701
 20
1845.1721052058899
 30
0.0
 11
4260.0155503706701
 21
1920.1721052058899
 31
0.0
  0
LINE
  5
7D7B
  8
2
 10
4005.0155503706669
 20
1685.573928810303
 30
0.0
 11
4005.0155503706692
 21
3023.964823739092
 31
0.0
  0
LINE
  5
7D7C
  8
1
 10
3200.0155503706669
 20
1845.1721052058899
 30
0.0
 11
3160.0155503706669
 21
1845.1721052058899
 31
0.0
  0
LINE
  5
7D7D
  8
1
 10
3160.0155503706669
 20
1845.1721052058899
 30
0.0
 11
3160.0155503706669
 21
1846.975728898117
 31
0.0
  0
LINE
  5
7D7E
  8
1
 10
3160.0155503706669
 20
1918.3684815136639
 30
0.0
 11
3160.0155503706669
 21
1920.1721052058899
 31
0.0
  0
LINE
  5
7D7F
  8
1
 10
3160.0155503706669
 20
1920.1721052058899
 30
0.0
 11
3200.0155503706669
 21
1920.1721052058899
 31
0.0
  0
CIRCLE
  5
7D82
  8
1
 10
1635.576605973728
 20
2320.1514327823988
 30
0.0
 40
72.5
  0
CIRCLE
  5
7D83
  8
1
 10
2335.5754594742052
 20
2097.147833936966
 30
0.0
 40
89.0
  0
LINE
  5
7D84
  8
1
 10
3074.5155503706669
 20
2392.6514327886071
 30
0.0
 11
3137.5155503706669
 21
2392.6514327886071
 31
0.0
  0
LINE
  5
7D85
  8
1
 10
3074.5155503706669
 20
2247.6514327886139
 30
0.0
 11
3137.5155503706669
 21
2247.6514327886139
 31
0.0
  0
LINE
  5
7D86
  8
1
 10
3074.5155503706669
 20
2191.1514327886089
 30
0.0
 11
3137.5155503706669
 21
2191.1514327886089
 31
0.0
  0
LINE
  5
7D87
  8
1
 10
3074.5155503706669
 20
2013.1514327886091
 30
0.0
 11
3137.5155503706692
 21
2013.1514327886091
 31
0.0
  0
LINE
  5
7D88
  8
1
 10
4221.8155503706703
 20
2015.1514327886109
 30
0.0
 11
4221.8155503706703
 21
2040.15143278861
 31
0.0
  0
LINE
  5
7D89
  8
1
 10
1655.5710266604001
 20
2389.8398331184981
 30
0.0
 11
2360.1203345240519
 21
2182.6963529702448
 31
0.0
  0
LINE
  5
7D8A
  8
1
 10
1612.466515440681
 20
2251.4333586275279
 30
0.0
 11
2307.2058310957082
 21
2012.7904739399521
 31
0.0
  0
LINE
  5
7D8B
  8
1
 10
1270.579690705734
 20
2920.1533093168391
 30
0.0
 11
1270.5767087931411
 21
2340.1514327823988
 31
0.0
  0
LINE
  5
7D8C
  8
1
 10
4224.8155503706703
 20
2033.151432788608
 30
0.0
 11
4224.8155503706694
 21
2315.1514327886098
 31
0.0
  0
LINE
  5
7D8D
  8
1
 10
4261.8155503706703
 20
2040.151432788608
 30
0.0
 11
4261.8155503706703
 21
2600.1514327886098
 31
0.0
  0
DIMENSION
  5
7D8E
  8
3
  2
*D2
 10
4413.6278381594693
 20
2040.151432788608
 30
0.0
 11
4413.6278381594693
 21
2320.1514327886089
 31
0.0
 70
   128
 13
4261.8155503706703
 23
2600.1514327886098
 33
0.0
 14
4261.8155503706703
 24
2040.151432788608
 34
0.0
 50
90.0
1001
ACAD
1000
DSTYLE
1002
{
1070
   287
1070
     3
1070
    40
1040
25.0
1070
   143
1040
0.039
1070
   172
1070
     1
1070
   271
1070
     0
1070
   279
1070
     0
1070
   288
1070
     1
1002
}
  0
ARC
  5
7D8F
  8
1
 10
2335.5754594742052
 20
2097.147833936966
 30
0.0
 40
150.0
 50
248.7911368307106
 51
76.612112330202805
  0
ARC
  5
7D90
  8
1
 10
1638.0687995702219
 20
2316.9469836146582
 30
0.0
 40
102.5891975502981
 50
78.380837333272595
 51
247.85625945725451
  0
LINE
  5
7D91
  8
1
 10
2370.306797492553
 20
2243.0715611353048
 30
0.0
 11
1658.730831319293
 21
2417.433917581292
 31
0.0
  0
LINE
  5
7D92
  8
1
 10
2281.3101412278161
 20
1957.3076564641881
 30
0.0
 11
1599.3997014367401
 21
2221.924647800613
 31
0.0
  0
LINE
  5
7D93
  8
1
 10
3054.5155503706669
 20
2420.1514327886098
 30
0.0
 11
3176.5155503706669
 21
2420.1514327886098
 31
0.0
  0
LINE
  5
7D94
  8
1
 10
3176.5155503706669
 20
2386.7788177524799
 30
0.0
 11
3176.5155503706669
 21
2420.1514327886111
 31
0.0
  0
LINE
  5
7D95
  8
1
 10
3054.5155503706692
 20
1947.1514327886109
 30
0.0
 11
3176.5155503706692
 21
1947.1514327886109
 31
0.0
  0
LINE
  5
7D96
  8
1
 10
3771.5671417664498
 20
2320.1514327886098
 30
0.0
 11
3771.5671417664498
 21
2320.1514327886098
 31
0.0
  0
LINE
  5
7D97
  8
1
 10
4242.5155503706692
 20
2600.1514327886098
 30
0.0
 11
4261.8155503706703
 21
2600.1514327886098
 31
0.0
  0
LINE
  5
7D98
  8
1
 10
4261.8155503706703
 20
2600.1514327886098
 30
0.0
 11
4261.8155503706703
 21
2601.1514327886098
 31
0.0
  0
LINE
  5
7D99
  8
1
 10
4242.5155503706701
 20
2603.1514327886098
 30
0.0
 11
4259.8155503706703
 21
2603.1514327886098
 31
0.0
  0
ARC
  5
7D9A
  8
1
 10
4259.8155503706703
 20
2601.1514327886098
 30
0.0
 40
2.0
 50
359.9999999999992
 51
89.999999999999588
  0
ARC
  5
7D9B
  8
1
 10
4228.8155503706703
 20
2033.151432788608
 30
0.0
 40
4.0
 50
90.0
 51
180.0
  0
ARC
  5
7D9C
  8
1
 10
4222.8155503706703
 20
2017.151432788608
 30
0.0
 40
2.0
 50
269.9999999999992
 51
0.0
  0
LINE
  5
7D9D
  8
1
 10
4224.8155503706703
 20
2033.151432788608
 30
0.0
 11
4224.8155503706703
 21
2017.151432788608
 31
0.0
  0
ARC
  5
7D9E
  8
1
 10
4259.8155503706703
 20
2039.151432788608
 30
0.0
 40
2.0
 50
270.0000000000004
 51
0.0000000000008142
  0
LINE
  5
7D9F
  8
1
 10
4228.8155503706703
 20
2037.151432788608
 30
0.0
 11
4259.8155503706703
 21
2037.151432788608
 31
0.0
  0
LINE
  5
7DA0
  8
1
 10
4261.8155503706703
 20
2040.151432788608
 30
0.0
 11
4261.8155503706703
 21
2039.151432788608
 31
0.0
  0
LINE
  5
7DA1
  8
1
 10
4221.8155503706703
 20
2040.151432788608
 30
0.0
 11
4261.8155503706703
 21
2040.151432788608
 31
0.0
  0
LINE
  5
7DA2
  8
1
 10
4221.8155503706703
 20
2015.151432788608
 30
0.0
 11
4222.8155503706703
 21
2015.151432788608
 31
0.0
  0
LINE
  5
7DA3
  8
1
 10
4221.8155503706703
 20
2040.151432788608
 30
0.0
 11
4221.8155503706703
 21
2015.151432788608
 31
0.0
  0
LINE
  5
7DA4
  8
1
 10
4219.8155503706676
 20
1905.1721052058899
 30
0.0
 11
4219.8155503706676
 21
1920.1721052058899
 31
0.0
  0
LINE
  5
7DA5
  8
1
 10
4219.8155503706676
 20
1945.1721052058899
 30
0.0
 11
4221.8155503706676
 21
1945.1721052058899
 31
0.0
  0
ARC
  5
7DA6
  8
1
 10
4221.8155503706676
 20
1942.1721052058899
 30
0.0
 40
3.0
 50
0.0
 51
90.0
  0
LINE
  5
7DA7
  8
1
 10
4224.8155503706676
 20
1942.1721052058899
 30
0.0
 11
4224.8155503706676
 21
1920.1721052058899
 31
0.0
  0
ARC
  5
7DA8
  8
1
 10
4229.3155503706676
 20
1914.6721052058899
 30
0.0
 40
4.5
 50
180.0
 51
270.0
  0
LINE
  5
7DA9
  8
1
 10
4229.3155503706676
 20
1910.1721052058899
 30
0.0
 11
4256.8155503706676
 21
1910.1721052058899
 31
0.0
  0
ARC
  5
7DAA
  8
1
 10
4256.8155503706676
 20
1907.1721052058899
 30
0.0
 40
3.0
 50
0.0
 51
90.0
  0
LINE
  5
7DAB
  8
1
 10
4259.8155503706676
 20
1907.1721052058899
 30
0.0
 11
4259.8155503706676
 21
1905.1721052058899
 31
0.0
  0
LINE
  5
7DAC
  8
1
 10
4259.8155503706676
 20
1905.1721052058899
 30
0.0
 11
4219.8155503706676
 21
1905.1721052058899
 31
0.0
  0
LINE
  5
7DAD
  8
1
 10
4219.8155503706676
 20
1920.1721052058899
 30
0.0
 11
4219.8155503706676
 21
1945.1721052058899
 31
0.0
  0
LINE
  5
7DC0
  8
1
 10
3160.0155503706669
 20
1845.1721052058899
 30
0.0
 11
3160.0155503706669
 21
1920.1721052058899
 31
0.0
  0
LINE
  5
7DC1
  8
1
 10
3160.0155503706669
 20
1807.1721052058899
 30
0.0
 11
4260.0155503706701
 21
1807.1721052058899
 31
0.0
  0
LINE
  5
7DC2
  8
1
 10
3160.0155503706669
 20
1732.1721052058899
 30
0.0
 11
4260.0155503706701
 21
1732.1721052058899
 31
0.0
  0
LINE
  5
7DC3
  8
1
 10
3160.0155503706669
 20
1807.1721052058899
 30
0.0
 11
3160.0155503706669
 21
1732.1721052058899
 31
0.0
  0
LINE
  5
7DC4
  8
1
 10
4260.0155503706701
 20
1807.1721052058899
 30
0.0
 11
4260.0155503706701
 21
1732.1721052058899
 31
0.0
  0
LINE
  5
7DC5
  8
2
 10
1635.576605973728
 20
2957.9092267392439
 30
0.0
 11
1635.576605973728
 21
1672.851846643852
 31
0.0
  0
LINE
  5
7DC6
  8
1
 10
2535.576605973728
 20
1920.1468056863371
 30
0.0
 11
2535.576605973728
 21
1845.1514327823991
 31
0.0
  0
LINE
  5
7DC7
  8
1
 10
2535.576605973728
 20
1807.1468056848439
 30
0.0
 11
2535.576605973728
 21
1732.146805683853
 31
0.0
  0
DIMENSION
  5
7DC8
  8
3
  2
*D3
 10
1635.576605973728
 20
1583.3320198292749
 30
0.0
 11
2085.576605973728
 21
1645.8320198292749
 31
0.0
 70
     0
 13
2535.576605973728
 23
1732.146805683853
 33
0.0
 14
1635.576605973728
 24
1672.851846643852
 34
0.0
1001
ACAD
1000
DSTYLE
1002
{
1070
   287
1070
     3
1070
    40
1040
25.0
1070
   143
1040
0.039
1070
   172
1070
     1
1070
   271
1070
     0
1070
   279
1070
     0
1070
   288
1070
     1
1002
}
  0
LINE
  5
7DC9
  8
1
 10
1385.576605973728
 20
1920.1527180801049
 30
0.0
 11
1385.576605973728
 21
1845.1514327823991
 31
0.0
  0
LINE
  5
7DCA
  8
1
 10
1385.576605973728
 20
1807.1514327823991
 30
0.0
 11
1385.576605973728
 21
1732.1514327823991
 31
0.0
  0
DIMENSION
  5
7DCB
  8
3
  2
*D4
 10
1385.576605973728
 20
1583.4406152038659
 30
0.0
 11
1510.576605973728
 21
1638.4702793273241
 31
0.0
 70
   128
 13
1635.576605973728
 23
1672.851846643852
 33
0.0
 14
1385.576605973728
 24
1732.15271807762
 34
0.0
1001
ACAD
1000
DSTYLE
1002
{
1070
   288
1070
     1
1070
   172
1070
     1
1070
    40
1040
25.0
1070
   271
1070
     0
1070
   143
1040
0.039
1002
}
  0
DIMENSION
  5
7DCC
  8
3
  2
*D5
 10
1385.576605973728
 20
1428.099055528482
 30
0.0
 11
1960.576605973728
 21
1490.599055528482
 31
0.0
 70
     0
 13
2535.576605973728
 23
1732.146805683853
 33
0.0
 14
1385.576605973728
 24
1732.15271807762
 34
0.0
1001
ACAD
1000
DSTYLE
1002
{
1070
   287
1070
     3
1070
    40
1040
25.0
1070
   143
1040
0.039
1070
   172
1070
     1
1070
   271
1070
     0
1070
   279
1070
     0
1070
   288
1070
     1
1002
}
  0
DIMENSION
  5
7DCD
  8
3
  2
*D6
 10
4005.0155503706669
 20
1609.163394128997
 30
0.0
 11
3582.5155503706669
 21
1671.663394128997
 31
0.0
 70
     0
 13
3160.0155503706669
 23
1732.1721052058899
 33
0.0
 14
4005.0155503706669
 24
1685.573928810303
 34
0.0
1001
ACAD
1000
DSTYLE
1002
{
1070
   287
1070
     3
1070
    40
1040
25.0
1070
   143
1040
0.039
1070
   172
1070
     1
1070
   271
1070
     0
1070
   279
1070
     0
1070
   288
1070
     1
1002
}
  0
DIMENSION
  5
7DCE
  8
3
  2
*D7
 10
4260.0155503706701
 20
1609.3703854275971
 30
0.0
 11
4132.5155503706683
 21
1665.9249261228069
 31
0.0
 70
   128
 13
4005.0155503706669
 23
1685.573928810303
 33
0.0
 14
4260.0155503706701
 24
1732.1721052058899
 34
0.0
1001
ACAD
1000
DSTYLE
1002
{
1070
   288
1070
     1
1070
   172
1070
     1
1070
    40
1040
25.0
1070
   271
1070
     0
1070
   143
1040
0.039
1002
}
  0
DIMENSION
  5
7DCF
  8
3
  2
*D8
 10
4260.0155503706701
 20
1480.1775998036121
 30
0.0
 11
3710.0155503706678
 21
1542.6775998036121
 31
0.0
 70
     0
 13
3160.0155503706669
 23
1732.1721052058899
 33
0.0
 14
4260.0155503706701
 24
1732.1721052058899
 34
0.0
1001
ACAD
1000
DSTYLE
1002
{
1070
   287
1070
     3
1070
    40
1040
25.0
1070
   143
1040
0.039
1070
   172
1070
     1
1070
   271
1070
     0
1070
   279
1070
     0
1070
   288
1070
     1
1002
}
  0
LINE
  5
7DD0
  8
1
 10
1248.579819236322
 20
2945.1534224231709
 30
0.0
 11
1245.576605973728
 21
2945.1534378633278
 31
0.0
  0
LINE
  5
7DD1
  8
1
 10
1248.576580272781
 20
2315.1534224314978
 30
0.0
 11
1245.576580272821
 21
2315.1534378551341
 31
0.0
  0
LINE
  5
7DD2
  8
2
 10
2193.4375737706691
 20
2320.1514327823988
 30
0.0
 11
1176.06032121114
 21
2320.1514327823988
 31
0.0
  0
LINE
  5
7DD3
  8
1
 10
1270.579690696085
 20
2920.1514327823988
 30
0.0
 11
1248.5796906957951
 21
2920.1514327823979
 31
0.0
  0
DIMENSION
  5
7DD4
  8
3
  2
*D9
 10
968.67183107258006
 20
2320.1514327823988
 30
0.0
 11
906.17183107257961
 21
2620.1514327824002
 31
0.0
 70
     0
 13
1248.5796906957951
 23
2920.1514327823979
 33
0.0
 14
1176.06032121114
 24
2320.1514327823988
 34
0.0
 50
270.0
1001
ACAD
1000
DSTYLE
1002
{
1070
   287
1070
     3
1070
    40
1040
25.0
1070
   143
1040
0.039
1070
   172
1070
     1
1070
   271
1070
     0
1070
   279
1070
     0
1070
   288
1070
     1
1002
}
  0
LINE
  5
7DD5
  8
1
 10
1305.7094329318229
 20
2340.1514327824002
 30
0.0
 11
1248.579690695801
 21
2340.1514327823979
 31
0.0
  0
LINE
  5
7DD6
  8
1
 10
1301.576436318147
 20
2287.1531499476382
 30
0.0
 11
1304.1185564111811
 21
2320.1514327823988
 31
0.0
  0
DIMENSION
  5
7DD7
  8
3
  2
*D10
 10
1104.160858350572
 20
2340.1514327823988
 30
0.0
 11
1041.6608583505711
 21
2630.1514327823988
 31
0.0
 70
     0
 13
1248.5796906957951
 23
2920.1514327823979
 33
0.0
 14
1270.5767087931411
 24
2340.1514327823988
 34
0.0
 50
270.0
1001
ACAD
1000
DSTYLE
1002
{
1070
   287
1070
     3
1070
    40
1040
25.0
1070
   143
1040
0.039
1070
   172
1070
     1
1070
   271
1070
     0
1070
   279
1070
     0
1070
   288
1070
     1
1002
}
  0
LINE
  5
7DD8
  8
1
 10
2535.576605973728
 20
1845.1514327823991
 30
0.0
 11
1385.576605973728
 21
1845.1514327823991
 31
0.0
  0
LINE
  5
7DD9
  8
1
 10
2535.576605973728
 20
1807.1514327823991
 30
0.0
 11
1385.576605973728
 21
1807.1514327823991
 31
0.0
  0
LINE
  5
7DDA
  8
1
 10
2535.576605973728
 20
1732.1514327823991
 30
0.0
 11
1385.576605973728
 21
1732.1514327823991
 31
0.0
  0
DIMENSION
  5
7DDB
  8
3
  2
*D11
 10
968.67183107258006
 20
1845.1514327823991
 30
0.0
 11
906.17183107257972
 21
2082.6514327823988
 31
0.0
 70
     0
 13
1176.06032121114
 23
2320.1514327823988
 33
0.0
 14
1385.576605973728
 24
1845.1514327823991
 34
0.0
 50
270.0
1001
ACAD
1000
DSTYLE
1002
{
1070
   287
1070
     3
1070
    40
1040
25.0
1070
   143
1040
0.039
1070
   172
1070
     1
1070
   271
1070
     0
1070
   279
1070
     0
1070
   288
1070
     1
1002
}
  0
DIMENSION
  5
7DDC
  8
3
  2
*D12
 10
968.67183107258006
 20
1807.1514327823991
 30
0.0
 11
893.94397041838238
 21
1826.1514327823991
 31
0.0
 70
   128
 13
1385.576605973728
 23
1845.1514327823991
 33
0.0
 14
1385.576605973728
 24
1807.1514327823991
 34
0.0
 50
270.0
1001
ACAD
1000
DSTYLE
1002
{
1070
   288
1070
     1
1070
   172
1070
     1
1070
    40
1040
25.0
1070
   271
1070
     0
1070
     7
1000
_DOT
1070
   143
1040
0.039
1002
}
  0
DIMENSION
  5
7DDD
  8
3
  2
*D13
 10
968.67183107258006
 20
1732.1514327823991
 30
0.0
 11
906.17183107257972
 21
1546.437147068114
 31
0.0
 70
     0
 13
1385.576605973728
 23
1807.1514327823991
 33
0.0
 14
1385.576605973728
 24
1732.1514327823991
 34
0.0
 50
270.0
1001
ACAD
1000
DSTYLE
1002
{
1070
   287
1070
     3
1070
    40
1040
25.0
1070
   143
1040
0.039
1070
   172
1070
     1
1070
   271
1070
     0
1070
   279
1070
     0
1070
   288
1070
     1
1070
     6
1000
DOT
1002
}
  0
DIMENSION
  5
7DDE
  8
3
  2
*D14
 10
797.37303108094693
 20
1732.1514327823991
 30
0.0
 11
734.87303108094659
 21
2326.1514327823988
 31
0.0
 70
     0
 13
1248.5796906957951
 23
2920.1514327823979
 33
0.0
 14
1385.576605973728
 24
1732.1514327823991
 34
0.0
 50
270.0
1001
ACAD
1000
DSTYLE
1002
{
1070
   287
1070
     3
1070
    40
1040
25.0
1070
   143
1040
0.039
1070
   172
1070
     1
1070
   271
1070
     0
1070
   279
1070
     0
1070
   288
1070
     1
1002
}
  0
LINE
  5
7DDF
  8
1
 10
1245.576605973728
 20
2945.1534378633278
 30
0.0
 11
1245.576605973728
 21
2315.1534378550009
 31
0.0
  0
DIMENSION
  5
7DE0
  8
3
  2
*D15
 10
1635.576605973728
 20
3077.123577358715
 30
0.0
 11
1440.576605973728
 21
3139.623577358715
 31
0.0
 70
     0
 13
1245.576605973728
 23
2945.1534378633278
 33
0.0
 14
1635.576605973728
 24
2957.9092267392439
 34
0.0
1001
ACAD
1000
DSTYLE
1002
{
1070
   287
1070
     3
1070
    40
1040
25.0
1070
   143
1040
0.039
1070
   172
1070
     1
1070
   271
1070
     0
1070
   279
1070
     0
1070
   288
1070
     1
1002
}
  0
LINE
  5
7DE1
  8
1
 10
2119.576605973728
 20
2362.6282616026951
 30
0.0
 11
2119.576605973728
 21
2361.675035822981
 31
0.0
  0
DIMENSION
  5
7DE2
  8
3
  2
*D16
 10
2119.576605973728
 20
3077.123577358715
 30
0.0
 11
1877.576605973728
 21
3139.623577358715
 31
0.0
 70
     0
 13
1635.576605973728
 23
2957.9092267392439
 33
0.0
 14
2119.576605973728
 24
2362.6282616026951
 34
0.0
1001
ACAD
1000
DSTYLE
1002
{
1070
   287
1070
     3
1070
    40
1040
25.0
1070
   143
1040
0.039
1070
   172
1070
     1
1070
   271
1070
     0
1070
   279
1070
     0
1070
   288
1070
     1
1002
}
  0
DIMENSION
  5
7DE3
  8
3
  2
*D17
 10
2535.576605973728
 20
3217.222953103043
 30
0.0
 11
1890.576605973728
 21
3279.722953103043
 31
0.0
 70
     0
 13
1245.576605973728
 23
2945.1534378633278
 33
0.0
 14
2535.576605973728
 24
1920.1468056863371
 34
0.0
1001
ACAD
1000
DSTYLE
1002
{
1070
   287
1070
     3
1070
    40
1040
25.0
1070
   143
1040
0.039
1070
   172
1070
     1
1070
   271
1070
     0
1070
   279
1070
     0
1070
   288
1070
     1
1002
}
  0
LINE
  5
7DE4
  8
1
 10
2097.4346027742349
 20
2203.7490582709979
 30
0.0
 11
2097.4345565033268
 21
2194.7490582711171
 31
0.0
  0
DIMENSION
  5
7DE5
  8
3
  2
*D18
 10
3054.5155503706692
 20
3194.3789143923591
 30
0.0
 11
3529.7655503706692
 21
3256.8789143923591
 31
0.0
 70
     0
  1
1000
 13
4005.0155503706692
 23
3137.0514106513151
 33
0.0
 14
3054.5155503706692
 24
2420.1514327886098
 34
0.0
1001
ACAD
1000
DSTYLE
1002
{
1070
   287
1070
     3
1070
    40
1040
25.0
1070
   143
1040
0.039
1070
   172
1070
     1
1070
   271
1070
     0
1070
   279
1070
     0
1070
   288
1070
     1
1002
}
  0
LINE
  5
7DE6
  8
2
 10
1210.019747535757
 20
4884.752272076109
 30
0.0
 11
2176.9485118826178
 21
4884.7575278976456
 31
0.0
  0
LINE
  5
7DE7
  8
1
 10
1245.572218102511
 20
4672.252465321375
 30
0.0
 11
2119.57221808961
 21
4672.2572160209011
 31
0.0
  0
LINE
  5
7DE8
  8
1
 10
1245.572350312448
 20
4647.2524653217242
 30
0.0
 11
1245.5698251026531
 21
5124.7524653150513
 31
0.0
  0
LINE
  5
7DE9
  8
1
 10
2119.57221808961
 20
4672.2572160209011
 30
0.0
 11
2119.5699572996882
 21
5099.7572160149284
 31
0.0
  0
LINE
  5
7DEA
  8
1
 10
1245.572350312448
 20
4647.2524653217242
 30
0.0
 11
1250.5723503123741
 21
4647.2524924996378
 31
0.0
  0
LINE
  5
7DEB
  8
1
 10
1245.569821423016
 20
5124.7524653150303
 30
0.0
 11
1250.569825102579
 21
5124.7524924929658
 31
0.0
  0
LINE
  5
7DEC
  8
1
 10
1250.5723503123779
 20
4647.252491763712
 30
0.0
 11
1250.569825102579
 21
5124.7524924929658
 31
0.0
  0
LINE
  5
7DED
  8
1
 10
1285.572218101921
 20
4672.2526827446936
 30
0.0
 11
1285.569957312
 21
5099.752682738721
 31
0.0
  0
LINE
  5
7DEE
  8
1
 10
1885.56979839622
 20
5099.7559440876466
 30
0.0
 11
1885.5695809729009
 21
5139.7559440870564
 31
0.0
  0
LINE
  5
7DEF
  8
1
 10
1385.5697984036069
 20
5099.753226296154
 30
0.0
 11
1385.569580980288
 21
5139.7532262955647
 31
0.0
  0
LINE
  5
7DF0
  8
1
 10
1610.575293301285
 20
3987.754320784104
 30
0.0
 11
1610.56805348378
 21
4672.2544492865254
 31
0.0
  0
LINE
  5
7DF1
  8
1
 10
1660.575293298489
 20
3987.7548496238519
 30
0.0
 11
1660.5680534837029
 21
4672.2547210656749
 31
0.0
  0
LINE
  5
7DF2
  8
1
 10
2424.595967738976
 20
3967.7595829803522
 30
0.0
 11
2246.5959677489318
 21
3967.7577003108509
 31
0.0
  0
LINE
  5
7DF3
  8
1
 10
2424.5966340770578
 20
3904.759582983876
 30
0.0
 11
2246.5966340870141
 21
3904.7577003143751
 31
0.0
  0
LINE
  5
7DF4
  8
1
 10
2490.5968456092642
 20
3884.760281053464
 30
0.0
 11
1535.5763827153601
 21
3884.7535275302448
 31
0.0
  0
LINE
  5
7DF5
  8
1
 10
2335.5764998146401
 20
3853.8783997192859
 30
0.0
 11
2335.5747140797989
 21
4022.7135570523301
 31
0.0
  0
LINE
  5
7DF6
  8
1
 10
2490.5968456092642
 20
3884.760281053464
 30
0.0
 11
2490.5955552402802
 21
4006.7602810466401
 31
0.0
  0
LINE
  5
7DF7
  8
1
 10
2490.5955552402802
 20
4006.7602810466401
 30
0.0
 11
2349.5751536781572
 21
4006.7587895027532
 31
0.0
  0
LINE
  5
7DF8
  8
1
 10
2424.5966340770578
 20
3904.759582983876
 30
0.0
 11
2424.595967738976
 21
3967.759582980354
 31
0.0
  0
LINE
  5
7DF9
  8
1
 10
2370.5750626352269
 20
3989.7590116135461
 30
0.0
 11
2300.5750626391432
 21
3989.7582712378999
 31
0.0
  0
LINE
  5
7DFA
  8
1
 10
2370.5752953247161
 20
3967.7590116147771
 30
0.0
 11
2370.5750626352269
 21
3989.7590116135461
 31
0.0
  0
LINE
  5
7DFB
  8
1
 10
2300.5752953286319
 20
3967.75827123913
 30
0.0
 11
2300.5750626391432
 21
3989.7582712378999
 31
0.0
  0
LINE
  5
7DFC
  8
1
 10
1680.5752932973701
 20
3987.7550611597499
 30
0.0
 11
1590.5752933024039
 21
3987.7541092482052
 31
0.0
  0
LINE
  5
7DFD
  8
1
 10
2246.5959677489318
 20
3967.7577003108509
 30
0.0
 11
1558.075504840124
 21
3967.7537655034871
 31
0.0
  0
LINE
  5
7DFE
  8
1
 10
2246.5966340870141
 20
3904.7577003143751
 30
0.0
 11
1558.0761711782061
 21
3904.7537655070109
 31
0.0
  0
LINE
  5
7DFF
  8
1
 10
1708.0761711698101
 20
3904.755352026255
 30
0.0
 11
1708.0755048317269
 21
3967.7553520227302
 31
0.0
  0
LINE
  5
7E00
  8
1
 10
2246.5966340870141
 20
3904.7577003143751
 30
0.0
 11
2246.5959677489318
 21
3967.7577003108509
 31
0.0
  0
LINE
  5
7E01
  8
1
 10
1680.575504833269
 20
3967.755061160869
 30
0.0
 11
1680.5752932973701
 21
3987.7550611597499
 31
0.0
  0
LINE
  5
7E02
  8
1
 10
1563.0761711779271
 20
3904.753818390986
 30
0.0
 11
1563.0755048398451
 21
3967.7538183874622
 31
0.0
  0
LINE
  5
7E03
  8
1
 10
1535.5763827153601
 20
3884.7535275302439
 30
0.0
 11
1535.5750923463761
 21
4006.75352752342
 31
0.0
  0
LINE
  5
7E04
  8
1
 10
1568.9477073806411
 20
4006.7538804987271
 30
0.0
 11
1535.5750923463761
 21
4006.75352752342
 31
0.0
  0
LINE
  5
7E05
  8
1
 10
1590.575504838303
 20
3967.7541092493229
 30
0.0
 11
1590.5752933024039
 21
3987.7541092482052
 31
0.0
  0
LINE
  5
7E06
  8
1
 10
1385.573793203477
 20
4077.75322629525
 30
0.0
 11
1610.574341376145
 21
4077.7556060799138
 31
0.0
  0
LINE
  5
7E07
  8
1
 10
1385.5755601215669
 20
4039.7532263118128
 30
0.0
 11
1385.575137049769
 21
4079.7532263095759
 31
0.0
  0
LINE
  5
7E08
  8
1
 10
1885.568510059823
 20
4577.2585146647862
 30
0.0
 11
1660.5690582642701
 21
4577.2561348917206
 31
0.0
  0
LINE
  5
7E09
  8
1
 10
1385.572638495715
 20
4577.2532263109752
 30
0.0
 11
1385.572122115331
 21
4672.2532263024686
 31
0.0
  0
LINE
  5
7E0A
  8
1
 10
1610.5690582670661
 20
4577.2556060519737
 30
0.0
 11
1385.5685100943981
 21
4577.2532262673112
 31
0.0
  0
LINE
  5
7E0B
  8
1
 10
1660.574341373348
 20
4077.7561349196621
 30
0.0
 11
1885.5737931689009
 21
4077.7585146927299
 31
0.0
  0
LINE
  5
7E0C
  8
1
 10
1610.575092377587
 20
4006.75097325055
 30
0.0
 11
1535.575092381783
 21
4006.750179990921
 31
0.0
  0
LINE
  5
7E0D
  8
1
 10
1610.574743306589
 20
4039.7544493135429
 30
0.0
 11
1385.5755601215669
 21
4039.7532263118128
 31
0.0
  0
LINE
  5
7E0E
  8
1
 10
1385.573793203476
 20
4077.7532262952509
 30
0.0
 11
1385.5685100943981
 21
4577.2532262673112
 31
0.0
  0
LINE
  5
7E0F
  8
1
 10
1885.5737931689009
 20
4077.7585146927299
 30
0.0
 11
1885.5685100598221
 21
4577.2585146647862
 31
0.0
  0
DIMENSION
  5
7E10
  8
3
  2
*D19
 10
1385.5792712478481
 20
3688.8788547792069
 30
0.0
 11
1960.5786101584031
 21
3751.384936432808
 31
0.0
 70
     0
 13
2535.575560104578
 23
4039.7594772322418
 33
0.0
 14
1385.5755601215669
 24
4039.7532263118128
 34
0.0
 50
0.000606005711532
1001
ACAD
1000
DSTYLE
1002
{
1070
   287
1070
     3
1070
    40
1040
25.0
1070
   143
1040
0.039
1070
   172
1070
     1
1070
   271
1070
     0
1070
   279
1070
     0
1070
   288
1070
     1
1002
}
  0
DIMENSION
  5
7E11
  8
3
  2
*D20
 10
1885.5677802027531
 20
5310.0126387145892
 30
0.0
 11
1635.5671191703559
 21
5372.5099945123548
 31
0.0
 70
     0
 13
1385.569580980288
 23
5139.7532262955647
 33
0.0
 14
1885.5695809729009
 24
5139.7559440870564
 34
0.0
 50
0.000606005711532
1001
ACAD
1000
DSTYLE
1002
{
1070
   287
1070
     3
1070
    40
1040
25.0
1070
   143
1040
0.039
1070
   172
1070
     1
1070
   271
1070
     0
1070
   279
1070
     0
1070
   288
1070
     1
1002
}
  0
LINE
  5
7E12
  8
1
 10
2535.5755601045721
 20
4039.7594772322418
 30
0.0
 11
2535.5740999451032
 21
4639.7594772331686
 31
0.0
  0
DIMENSION
  5
7E13
  8
3
  2
*D21
 10
2535.5677801578049
 20
5310.019513631305
 30
0.0
 11
2210.5671191305951
 21
5372.5160761694497
 31
0.0
 70
     0
 13
1885.5695809729009
 23
5139.7559440870564
 33
0.0
 14
2535.5749582689241
 24
4631.3535141004186
 34
0.0
 50
0.000606005711532
1001
ACAD
1000
DSTYLE
1002
{
1070
   287
1070
     3
1070
    40
1040
25.0
1070
   143
1040
0.039
1070
   172
1070
     1
1070
   271
1070
     0
1070
   279
1070
     0
1070
   288
1070
     1
1002
}
  0
LINE
  5
7E14
  8
1
 10
2535.576605973728
 20
1920.1514327823991
 30
0.0
 11
1385.576605973728
 21
1920.1514327823991
 31
0.0
  0
LINE
  5
7E15
  8
1
 10
3792.5155503706678
 20
2340.1514327886098
 30
0.0
 11
4217.515550370671
 21
2340.1514327886098
 31
0.0
  0
LINE
  5
7E16
  8
1
 10
4217.515550370671
 20
2920.1514327886098
 30
0.0
 11
3792.5155503706669
 21
2340.1514327886098
 31
0.0
  0
LINE
  5
7E17
  8
1
 10
3792.5155503706678
 20
2920.1514327886098
 30
0.0
 11
4217.5155503706692
 21
2340.1514327886098
 31
0.0
  0
LINE
  5
7E18
  8
1
 10
4224.8155503706676
 20
1914.6721052058899
 30
0.0
 11
4224.8155503706676
 21
1920.1721052058899
 31
0.0
  0
LINE
  5
7E19
  8
1
 10
3767.515550370666
 20
2945.1514327886089
 30
0.0
 11
4242.515550370671
 21
2945.1514327886111
 31
0.0
  0
LINE
  5
7E1A
  8
1
 10
3767.5155503706669
 20
2315.1514327886098
 30
0.0
 11
3767.515550370666
 21
2945.1514327886089
 31
0.0
  0
LINE
  5
7E1B
  8
1
 10
3767.5155503706669
 20
2315.1514327886098
 30
0.0
 11
4242.5155503706683
 21
2315.1514327886098
 31
0.0
  0
LINE
  5
7E1C
  8
1
 10
4242.5155503706683
 20
2315.1514327886098
 30
0.0
 11
4242.515550370671
 21
2945.1514327886111
 31
0.0
  0
LINE
  5
7E1D
  8
1
 10
4217.5155503706692
 20
2340.1514327886098
 30
0.0
 11
4217.515550370671
 21
2920.1514327886098
 31
0.0
  0
LINE
  5
7E1E
  8
1
 10
3792.5155503706669
 20
2340.1514327886098
 30
0.0
 11
3792.5155503706678
 21
2920.1514327886098
 31
0.0
  0
LINE
  5
7E1F
  8
1
 10
2193.5732677793112
 20
4049.7571395052132
 30
0.0
 11
2193.5693966723579
 21
4415.7571394847419
 31
0.0
  0
LINE
  5
7E20
  8
1
 10
2477.573267763426
 20
4049.760143314978
 30
0.0
 11
2477.5693966564731
 21
4415.7601432945057
 31
0.0
  0
LINE
  5
7E21
  8
1
 10
2477.573267763426
 20
4049.760143314978
 30
0.0
 11
2193.5732677793112
 21
4049.7571395052132
 31
0.0
  0
LINE
  5
7E22
  8
1
 10
2477.569396656475
 20
4415.7601432945057
 30
0.0
 11
2193.5693966723602
 21
4415.7571394847409
 31
0.0
  0
LINE
  5
7E23
  8
1
 10
2321.5749975029689
 20
4049.7584933532612
 30
0.0
 11
2321.575215423079
 21
3989.7584933522112
 31
0.0
  0
LINE
  5
7E24
  8
1
 10
2349.5749975020781
 20
4049.7587895035199
 30
0.0
 11
2349.5752154221882
 21
3989.7587895024681
 31
0.0
  0
LINE
  5
7E25
  8
1
 10
2321.5750338236389
 20
4039.7583140146239
 30
0.0
 11
1660.574743306511
 21
4039.7547210926941
 31
0.0
  0
LINE
  5
7E26
  8
1
 10
2321.5751536790472
 20
4006.7584933524909
 30
0.0
 11
1660.575092374791
 21
4006.7515020903038
 31
0.0
  0
LINE
  5
7E27
  8
1
 10
3198.0155503706669
 20
2116.173729321928
 30
0.0
 11
3159.5155503706669
 21
2116.1734619473932
 31
0.0
  0
LINE
  5
7E28
  8
1
 10
3198.0155503706678
 20
2088.1737293212532
 30
0.0
 11
3159.5155503706678
 21
2088.1734619467179
 31
0.0
  0
DIMENSION
  5
7E29
  8
3
  2
*D22
 10
1070.884997175413
 20
4039.7532263118128
 30
0.0
 11
1008.384997175412
 21
4589.7532263036892
 31
0.0
 70
     0
 13
1385.569580980288
 23
5139.7532262955647
 33
0.0
 14
1385.5755601215669
 24
4039.7532263118128
 34
0.0
 50
90.0
1001
ACAD
1000
DSTYLE
1002
{
1070
   287
1070
     3
1070
    40
1040
25.0
1070
   143
1040
0.039
1070
   172
1070
     1
1070
   271
1070
     0
1070
   279
1070
     0
1070
   288
1070
     1
1002
}
  0
DIMENSION
  5
7E2A
  8
3
  2
*D23
 10
2734.7428874709422
 20
4039.7594772322418
 30
0.0
 11
2672.2428874709408
 21
4339.7594772327056
 31
0.0
 70
     0
 13
2535.5740999451032
 23
4639.7594772331686
 33
0.0
 14
2535.5755601045721
 24
4039.7594772322418
 34
0.0
 50
90.0
1001
ACAD
1000
DSTYLE
1002
{
1070
   287
1070
     3
1070
    40
1040
25.0
1070
   143
1040
0.039
1070
   172
1070
     1
1070
   271
1070
     0
1070
   279
1070
     0
1070
   288
1070
     1
1002
}
  0
LINE
  5
7E2B
  8
1
 10
3219.5141965236699
 20
2244.1747624004288
 30
0.0
 11
3585.514196503198
 21
2244.1786335073821
 31
0.0
  0
LINE
  5
7E2C
  8
1
 10
3219.5172003334342
 20
1960.174762416314
 30
0.0
 11
3219.5141965236699
 21
2244.1747624004288
 31
0.0
  0
LINE
  5
7E2D
  8
1
 10
3219.5158465219761
 20
2088.1730326776619
 30
0.0
 11
3159.5158465209252
 21
2088.1728147575518
 31
0.0
  0
LINE
  5
7E2E
  8
1
 10
3219.5155503717178
 20
2116.1730326767702
 30
0.0
 11
3159.5155503706669
 21
2116.172814756661
 31
0.0
  0
LINE
  5
7E2F
  8
1
 10
3219.5172003334342
 20
1960.174762416314
 30
0.0
 11
3585.5172003129628
 21
1960.1786335232671
 31
0.0
  0
LINE
  5
7E30
  8
1
 10
3585.5172003129628
 20
1960.178633523265
 30
0.0
 11
3585.5141965031971
 21
2244.1786335073798
 31
0.0
  0
LINE
  5
7E31
  8
1
 10
3198.0155503706678
 20
2116.172954588731
 30
0.0
 11
3198.0155503706692
 21
2253.7514327886111
 31
0.0
  0
LINE
  5
8232
  8
4
 10
4625.0
 20
1250.0
 30
0.0
 11
4625.0
 21
750.0
 31
0.0
  0
LINE
  5
8233
  8
4
 10
2875.0
 20
1250.0
 30
0.0
 11
2875.0
 21
750.0
 31
0.0
  0
LINE
  5
8234
  8
4
 10
1625.0
 20
1250.0
 30
0.0
 11
1625.0
 21
750.0
 31
0.0
  0
LINE
  5
8237
  8
4
 10
1625.0
 20
750.0
 30
0.0
 11
4625.0
 21
750.0
 31
0.0
  0
LINE
  5
8238
  8
4
 10
1625.0
 20
1000.0
 30
0.0
 11
4625.0
 21
1000.0
 31
0.0
  0
TEXT
  5
8239
  8
4
 10
1721.2552021172539
 20
1078.857564666532
 30
0.0
 40
125.0
  1
機器名称
  0
TEXT
  5
823A
  8
4
 10
1715.6452650619931
 20
804.11289183002725
 30
0.0
 40
125.0
  1
機器型番
  0
TEXT
  5
823B
  8
4
 10
2895.9705737254849
 20
1056.0440408650741
 30
0.0
 40
112.5
  1
ミツヤリミットロードファン
  0
TEXT
  5
823C
  8
4
 10
2966.6362389637011
 20
792.89896069985843
 30
0.0
 40
125.0
  1
LL#3 1/2-1
  0
TEXT
  5
823E
  8
4
 10
2066.6391669710752
 20
5958.5721033312893
 30
0.0
 40
135.0
  1
床置防振ベット
  0
TEXT
  5
823F
  8
4
 10
790.41898332361586
 20
6334.7024404982449
 30
0.0
 40
180.0
  1
遠心式片吸込片持リミットロードファン
  0
LINE
  5
8240
  8
4
 10
625.0
 20
6173.5218856620122
 30
0.0
 11
4625.0
 21
6173.5218856620122
 31
0.0
  0
LINE
  5
8241
  8
4
 10
625.0
 20
6673.5218856620122
 30
0.0
 11
4625.0
 21
6673.5218856620122
 31
0.0
  0
LINE
  5
8242
  8
4
 10
1625.0
 20
1250.0
 30
0.0
 11
4625.0
 21
1250.0
 31
0.0
  0
LINE
  5
8243
  8
4
 10
625.0
 20
6673.5218856620122
 30
0.0
 11
625.0
 21
6173.5218856620122
 31
0.0
  0
TEXT
  5
8244
  8
4
 10
976.99208636432024
 20
5955.7986938658578
 30
0.0
 40
135.0
  1
左回転左横向
  0
TEXT
  5
8245
  8
4
 10
3672.4238981232238
 20
6765.1527037382721
 30
0.0
 40
140.0
  1
No.
  0
TEXT
  5
8246
  8
4
 10
3278.2401565000318
 20
5958.5721033312893
 30
0.0
 40
135.0
  1
縮尺：1/25
  0
LINE
  5
8247
  8
4
 10
4625.0
 20
6673.5218856620122
 30
0.0
 11
4625.0
 21
6173.5218856620122
 31
0.0
  0
LINE
  5
8248
  8
4
 10
5250.0
 20
7375.0
 30
0.0
 11
5250.0
 21
7375.0
 31
0.0
  0
LINE
  5
8249
  8
4
 10
3601.543555899661
 20
6703.1589578135026
 30
0.0
 11
3601.543555899661
 21
6966.6306538743811
 31
0.0
  0
LINE
  5
824A
  8
4
 10
3601.543555899661
 20
6966.6306538743811
 30
0.0
 11
4625.0
 21
6966.6306538743811
 31
0.0
  0
LINE
  5
824B
  8
4
 10
4625.0
 20
6966.6306538743811
 30
0.0
 11
4625.0
 21
6703.1589578135026
 31
0.0
  0
LINE
  5
824C
  8
4
 10
4625.0
 20
6703.1589578135026
 30
0.0
 11
3601.543555899661
 21
6703.1589578135026
 31
0.0
  0
LINE
  5
824D
  8
4
 10
0.0
 20
0.0
 30
0.0
 11
0.0
 21
7375.0
 31
0.0
  0
LINE
  5
824E
  8
4
 10
0.0
 20
7375.0
 30
0.0
 11
5250.0
 21
7375.0
 31
0.0
  0
LINE
  5
824F
  8
4
 10
5250.0
 20
7375.0
 30
0.0
 11
5250.0
 21
0.0
 31
0.0
  0
LINE
  5
8250
  8
4
 10
5250.0
 20
0.0
 30
0.0
 11
0.0
 21
0.0
 31
0.0
  0
ENDSEC
  0
EOF
