  0
SECTION
  2
HEADER
  9
$ACADVER
  1
AC1009
  9
$INSBASE
 10
0.0
 20
0.0
 30
0.0
  9
$EXTMIN
 10
0.0
 20
0.0
 30
0.0
  9
$EXTMAX
 10
5250.0
 20
7375.0
 30
0.0
  9
$LIMMIN
 10
0.0
 20
0.0
  9
$LIMMAX
 10
297.0
 20
210.0
  9
$ORTHOMODE
 70
     0
  9
$REGENMODE
 70
     1
  9
$FILLMODE
 70
     0
  9
$QTEXTMODE
 70
     0
  9
$MIRRTEXT
 70
     1
  9
$DRAGMODE
 70
     2
  9
$LTSCALE
 40
100.0
  9
$OSMODE
 70
    37
  9
$ATTMODE
 70
     1
  9
$TEXTSIZE
 40
180.0
  9
$TRACEWID
 40
0.05
  9
$TEXTSTYLE
  7
STANDARD
  9
$CLAYER
  8
3
  9
$CELTYPE
  6
BYLAYER
  9
$CECOLOR
 62
   256
  9
$DIMSCALE
 40
25.0
  9
$DIMASZ
 40
2.0
  9
$DIMEXO
 40
0.5
  9
$DIMDLI
 40
10.0
  9
$DIMRND
 40
0.0
  9
$DIMDLE
 40
0.0
  9
$DIMEXE
 40
1.0
  9
$DIMTP
 40
1.0
  9
$DIMTM
 40
1.0
  9
$DIMTXT
 40
3.0
  9
$DIMCEN
 40
0.0
  9
$DIMTSZ
 40
0.0
  9
$DIMTOL
 70
     0
  9
$DIMLIM
 70
     0
  9
$DIMTIH
 70
     0
  9
$DIMTOH
 70
     0
  9
$DIMSE1
 70
     0
  9
$DIMSE2
 70
     0
  9
$DIMTAD
 70
     1
  9
$DIMZIN
 70
     8
  9
$DIMBLK
  1

  9
$DIMASO
 70
     1
  9
$DIMSHO
 70
     1
  9
$DIMPOST
  1

  9
$DIMAPOST
  1

  9
$DIMALT
 70
     0
  9
$DIMALTD
 70
     2
  9
$DIMALTF
 40
0.039
  9
$DIMLFAC
 40
1.0
  9
$DIMTOFL
 70
     1
  9
$DIMTVP
 40
0.0
  9
$DIMTIX
 70
     0
  9
$DIMSOXD
 70
     0
  9
$DIMSAH
 70
     1
  9
$DIMBLK1
  1
OPEN
  9
$DIMBLK2
  1
OPEN
  9
$DIMSTYLE
  2
IGA
  9
$DIMCLRD
 70
     0
  9
$DIMCLRE
 70
     0
  9
$DIMCLRT
 70
     0
  9
$DIMTFAC
 40
10.0
  9
$DIMGAP
 40
1.0
  9
$LUNITS
 70
     2
  9
$LUPREC
 70
     3
  9
$SKETCHINC
 40
0.1
  9
$FILLETRAD
 40
50.0
  9
$AUNITS
 70
     0
  9
$AUPREC
 70
     0
  9
$MENU
  1
acad
  9
$ELEVATION
 40
0.0
  9
$PELEVATION
 40
0.0
  9
$THICKNESS
 40
0.0
  9
$LIMCHECK
 70
     0
  9
$BLIPMODE
 70
     0
  9
$CHAMFERA
 40
0.5
  9
$CHAMFERB
 40
0.5
  9
$SKPOLY
 70
     0
  9
$TDCREATE
 40
2451697.6382450229
  9
$TDUPDATE
 40
2454953.6408146992
  9
$TDINDWG
 40
0.013360463
  9
$TDUSRTIMER
 40
0.013360463
  9
$USRTIMER
 70
     1
  9
$ANGBASE
 50
0.0
  9
$ANGDIR
 70
     0
  9
$PDMODE
 70
     0
  9
$PDSIZE
 40
0.0
  9
$PLINEWID
 40
0.0
  9
$COORDS
 70
     1
  9
$SPLFRAME
 70
     0
  9
$SPLINETYPE
 70
     6
  9
$SPLINESEGS
 70
     8
  9
$ATTDIA
 70
     0
  9
$ATTREQ
 70
     1
  9
$HANDLING
 70
 10241
  9
$HANDSEED
  5
831D
  9
$SURFTAB1
 70
     6
  9
$SURFTAB2
 70
     6
  9
$SURFTYPE
 70
     6
  9
$SURFU
 70
     6
  9
$SURFV
 70
     6
  9
$UCSNAME
  2

  9
$UCSORG
 10
0.0
 20
0.0
 30
0.0
  9
$UCSXDIR
 10
1.0
 20
0.0
 30
0.0
  9
$UCSYDIR
 10
0.0
 20
1.0
 30
0.0
  9
$PUCSNAME
  2

  9
$PUCSORG
 10
0.0
 20
0.0
 30
0.0
  9
$PUCSXDIR
 10
1.0
 20
0.0
 30
0.0
  9
$PUCSYDIR
 10
0.0
 20
1.0
 30
0.0
  9
$USERI1
 70
     0
  9
$USERI2
 70
     0
  9
$USERI3
 70
     0
  9
$USERI4
 70
     0
  9
$USERI5
 70
     0
  9
$USERR1
 40
0.0
  9
$USERR2
 40
0.0
  9
$USERR3
 40
0.0
  9
$USERR4
 40
0.0
  9
$USERR5
 40
0.0
  9
$WORLDVIEW
 70
     1
  9
$SHADEDGE
 70
     3
  9
$SHADEDIF
 70
    70
  9
$TILEMODE
 70
     1
  9
$MAXACTVP
 70
    16
  9
$PLIMCHECK
 70
     0
  9
$PEXTMIN
 10
1.0000000000000000E+020
 20
1.0000000000000000E+020
 30
1.0000000000000000E+020
  9
$PEXTMAX
 10
-1.0000000000000000E+020
 20
-1.0000000000000000E+020
 30
-1.0000000000000000E+020
  9
$PLIMMIN
 10
0.0
 20
0.0
  9
$PLIMMAX
 10
12.0
 20
9.0
  9
$UNITMODE
 70
     0
  9
$VISRETAIN
 70
     0
  9
$PLINEGEN
 70
     0
  9
$PSLTSCALE
 70
     1
  0
ENDSEC
  0
SECTION
  2
TABLES
  0
TABLE
  2
VPORT
 70
     2
  0
VPORT
  2
*ACTIVE
 70
     0
 10
0.0
 20
0.0
 11
1.0
 21
1.0
 12
4876.7349946877694
 22
881.278986545365
 13
0.0
 23
0.0
 14
10.0
 24
10.0
 15
10.0
 25
10.0
 16
0.0
 26
0.0
 36
1.0
 17
0.0
 27
0.0
 37
0.0
 40
2135.6500017125072
 41
3.1666666666666661
 42
50.0
 43
0.0
 44
0.0
 50
0.0
 51
0.0
 71
     0
 72
   100
 73
     1
 74
     0
 75
     0
 76
     0
 77
     0
 78
     0
  0
ENDTAB
  0
TABLE
  2
LTYPE
 70
     2
  0
LTYPE
  2
CONTINUOUS
 70
     0
  3
Solid line
 72
    65
 73
     0
 40
0.0
  0
LTYPE
  2
CENTER
 70
     0
  3
____ _ ____ _ ____ _ ____ _ ____ _ ____ _ ____ 
 72
    65
 73
     4
 40
2.0
 49
1.25
 49
-0.25
 49
0.25
 49
-0.25
  0
ENDTAB
  0
TABLE
  2
LAYER
 70
     6
  0
LAYER
  2
0
 70
     0
 62
     7
  6
CONTINUOUS
  0
LAYER
  2
3
 70
     0
 62
     2
  6
CONTINUOUS
  0
LAYER
  2
2
 70
     0
 62
     3
  6
CENTER
  0
LAYER
  2
1
 70
     0
 62
     4
  6
CONTINUOUS
  0
LAYER
  2
4
 70
     0
 62
     7
  6
CONTINUOUS
  0
LAYER
  2
DEFPOINTS
 70
     0
 62
     7
  6
CONTINUOUS
  0
ENDTAB
  0
TABLE
  2
STYLE
 70
     1
  0
STYLE
  2
STANDARD
 70
     0
 40
0.0
 41
1.0
 50
0.0
 71
     0
 42
180.0
  3
simplex.shx
  4
extfont.shx
  0
ENDTAB
  0
TABLE
  2
VIEW
 70
     0
  0
ENDTAB
  0
TABLE
  2
UCS
 70
     0
  0
ENDTAB
  0
TABLE
  2
APPID
 70
     1
  0
APPID
  2
ACAD
 70
     0
  0
ENDTAB
  0
TABLE
  2
DIMSTYLE
 70
     2
  0
DIMSTYLE
  2
IGA
 70
     0
  3

  4

  5

  6
OPEN
  7
OPEN
 40
2.0
 41
2.0
 42
0.5
 43
10.0
 44
1.0
 45
0.0
 46
0.0
 47
1.0
 48
1.0
140
3.0
141
0.0
142
0.0
143
0.03937
144
1.0
145
0.0
146
10.0
147
1.0
 71
     0
 72
     0
 73
     0
 74
     0
 75
     0
 76
     0
 77
     1
 78
     8
170
     0
171
     2
172
     0
173
     1
174
     0
175
     0
176
     0
177
     0
178
     0
  0
DIMSTYLE
  2
MATSU
 70
     0
  3

  4

  5

  6
OPEN
  7
OPEN
 40
1.0
 41
2.0
 42
1.0
 43
10.0
 44
1.0
 45
0.0
 46
0.0
 47
0.0
 48
0.0
140
3.0
141
0.0
142
0.0
143
0.03937
144
1.0
145
0.0
146
1.0
147
0.5
 71
     0
 72
     0
 73
     0
 74
     0
 75
     0
 76
     0
 77
     1
 78
     8
170
     0
171
     2
172
     1
173
     1
174
     0
175
     0
176
   256
177
   256
178
   256
  0
ENDTAB
  0
ENDSEC
  0
SECTION
  2
BLOCKS
  0
BLOCK
  8
0
  2
$MODEL_SPACE
 70
     0
 10
0.0
 20
0.0
 30
0.0
  3
$MODEL_SPACE
  1

  0
ENDBLK
  5
1B
  8
0
  0
BLOCK
 67
     1
  8
0
  2
$PAPER_SPACE
 70
     0
 10
0.0
 20
0.0
 30
0.0
  3
$PAPER_SPACE
  1

  0
ENDBLK
  5
18
 67
     1
  8
0
  0
BLOCK
  8
0
  2
_OPEN
 70
     0
 10
0.0
 20
0.0
 30
0.0
  3
_OPEN
  1

  0
LINE
  5
79FD
  8
0
  6
BYBLOCK
 62
     0
 10
-1.0
 20
0.1666666666666666
 30
0.0
 11
0.0
 21
0.0
 31
0.0
  0
LINE
  5
79FE
  8
0
  6
BYBLOCK
 62
     0
 10
0.0
 20
0.0
 30
0.0
 11
-1.0
 21
-0.1666666666666666
 31
0.0
  0
LINE
  5
79FF
  8
0
  6
BYBLOCK
 62
     0
 10
0.0
 20
0.0
 30
0.0
 11
-1.0
 21
0.0
 31
0.0
  0
ENDBLK
  5
7A01
  8
0
  0
BLOCK
  8
0
  2
YA_N
 70
     0
 10
0.0
 20
0.0
 30
0.0
  3
YA_N
  1

  0
ENDBLK
  5
7A04
  8
0
  0
BLOCK
  8
0
  2
*D2
 70
     1
 10
0.0
 20
0.0
 30
0.0
  3
*D2
  1

  0
LINE
  5
8055
  8
0
  6
BYBLOCK
 10
5787.6196951291322
 20
1439.423564340668
 30
0.0
 11
5993.4104573341319
 21
1439.423564340668
 31
0.0
  0
LINE
  5
8056
  8
0
  6
BYBLOCK
 10
5787.6196951291322
 20
879.42356434066835
 30
0.0
 11
5993.4104573341319
 21
879.42356434066835
 31
0.0
  0
LINE
  5
8057
  8
0
  6
BYBLOCK
 10
5968.4104573341319
 20
1389.423564340668
 30
0.0
 11
5968.4104573341319
 21
929.42356434066835
 31
0.0
  0
INSERT
  5
8058
  8
0
  6
BYBLOCK
  2
_OPEN
 10
5968.4104573341319
 20
1439.423564340668
 30
0.0
 41
50.0
 42
50.0
 43
50.0
 50
90.0
  0
INSERT
  5
8059
  8
0
  6
BYBLOCK
  2
_OPEN
 10
5968.4104573341319
 20
879.42356434066835
 30
0.0
 41
50.0
 42
50.0
 43
50.0
 50
270.0
  0
TEXT
  5
805A
  8
3
 10
5955.9104573341319
 20
1025.494992912096
 30
0.0
 40
75.0
  1
φ560
 50
90.0
  0
POINT
  5
805B
  8
DEFPOINTS
  6
BYBLOCK
 62
     0
 10
5762.6196951291313
 20
1439.423564340668
 30
0.0
  0
POINT
  5
805C
  8
DEFPOINTS
  6
BYBLOCK
 62
     0
 10
5762.6196951291313
 20
879.42356434066835
 30
0.0
  0
POINT
  5
805D
  8
DEFPOINTS
  6
BYBLOCK
 62
     0
 10
5968.4104573341319
 20
879.42356434066835
 30
0.0
  0
ENDBLK
  5
805E
  8
0
  0
BLOCK
  8
0
  2
*D3
 70
     1
 10
0.0
 20
0.0
 30
0.0
  3
*D3
  1

  0
LINE
  5
8060
  8
0
  6
BYBLOCK
 10
3576.277238601127
 20
3694.5825117166578
 30
0.0
 11
3576.277238601127
 21
3895.8582556731071
 31
0.0
  0
LINE
  5
8061
  8
0
  6
BYBLOCK
 10
3076.277238601127
 20
3694.5825117166578
 30
0.0
 11
3076.277238601127
 21
3895.8582556731071
 31
0.0
  0
LINE
  5
8062
  8
0
  6
BYBLOCK
 10
3526.277238601127
 20
3870.8582556731071
 30
0.0
 11
3126.277238601127
 21
3870.8582556731071
 31
0.0
  0
INSERT
  5
8063
  8
0
  6
BYBLOCK
  2
_OPEN
 10
3576.277238601127
 20
3870.8582556731071
 30
0.0
 41
50.0
 42
50.0
 43
50.0
  0
INSERT
  5
8064
  8
0
  6
BYBLOCK
  2
_OPEN
 10
3076.277238601127
 20
3870.8582556731071
 30
0.0
 41
50.0
 42
50.0
 43
50.0
 50
180.0
  0
TEXT
  5
8065
  8
3
 10
3229.848667172555
 20
3883.3582556731071
 30
0.0
 40
75.0
  1
500
  0
POINT
  5
8066
  8
DEFPOINTS
  6
BYBLOCK
 62
     0
 10
3576.277238601127
 20
3669.5825117166578
 30
0.0
  0
POINT
  5
8067
  8
DEFPOINTS
  6
BYBLOCK
 62
     0
 10
3076.277238601127
 20
3669.5825117166578
 30
0.0
  0
POINT
  5
8068
  8
DEFPOINTS
  6
BYBLOCK
 62
     0
 10
3076.277238601127
 20
3870.8582556731071
 30
0.0
  0
ENDBLK
  5
8069
  8
0
  0
BLOCK
  8
0
  2
*D4
 70
     1
 10
0.0
 20
0.0
 30
0.0
  3
*D4
  1

  0
LINE
  5
806B
  8
0
  6
BYBLOCK
 10
4226.2772386011266
 20
2544.5825117166578
 30
0.0
 11
4226.2772386011266
 21
2156.161024100737
 31
0.0
  0
LINE
  5
806C
  8
0
  6
BYBLOCK
 10
3076.277238601127
 20
2544.5825117166578
 30
0.0
 11
3076.277238601127
 21
2156.161024100737
 31
0.0
  0
LINE
  5
806D
  8
0
  6
BYBLOCK
 10
4176.2772386011266
 20
2181.161024100737
 30
0.0
 11
3126.277238601127
 21
2181.161024100737
 31
0.0
  0
INSERT
  5
806E
  8
0
  6
BYBLOCK
  2
_OPEN
 10
4226.2772386011266
 20
2181.161024100737
 30
0.0
 41
50.0
 42
50.0
 43
50.0
  0
INSERT
  5
806F
  8
0
  6
BYBLOCK
  2
_OPEN
 10
3076.277238601127
 20
2181.161024100737
 30
0.0
 41
50.0
 42
50.0
 43
50.0
 50
180.0
  0
TEXT
  5
8070
  8
3
 10
3533.4200957439839
 20
2193.661024100737
 30
0.0
 40
75.0
  1
1150
  0
POINT
  5
8071
  8
DEFPOINTS
  6
BYBLOCK
 62
     0
 10
4226.2772386011266
 20
2569.5825117166578
 30
0.0
  0
POINT
  5
8072
  8
DEFPOINTS
  6
BYBLOCK
 62
     0
 10
3076.277238601127
 20
2569.5825117166578
 30
0.0
  0
POINT
  5
8073
  8
DEFPOINTS
  6
BYBLOCK
 62
     0
 10
3076.277238601127
 20
2181.161024100737
 30
0.0
  0
ENDBLK
  5
8074
  8
0
  0
BLOCK
  8
0
  2
*D5
 70
     1
 10
0.0
 20
0.0
 30
0.0
  3
*D5
  1

  0
LINE
  5
8076
  8
0
  6
BYBLOCK
 10
4251.2772386011284
 20
3169.5825117166578
 30
0.0
 11
4460.2133308919274
 21
3169.5825117166578
 31
0.0
  0
LINE
  5
8077
  8
0
  6
BYBLOCK
 10
4251.2772386011284
 20
2569.5825117166578
 30
0.0
 11
4460.2133308919274
 21
2569.5825117166578
 31
0.0
  0
LINE
  5
8078
  8
0
  6
BYBLOCK
 10
4435.2133308919283
 20
3119.5825117166592
 30
0.0
 11
4435.2133308919283
 21
2619.5825117166578
 31
0.0
  0
INSERT
  5
8079
  8
0
  6
BYBLOCK
  2
_OPEN
 10
4435.2133308919283
 20
3169.5825117166578
 30
0.0
 41
50.0
 42
50.0
 43
50.0
 50
90.0
  0
INSERT
  5
807A
  8
0
  6
BYBLOCK
  2
_OPEN
 10
4435.2133308919283
 20
2569.5825117166578
 30
0.0
 41
50.0
 42
50.0
 43
50.0
 50
270.0
  0
TEXT
  5
807B
  8
3
 10
4422.7133308919274
 20
2773.1539402880871
 30
0.0
 40
75.0
  1
600
 50
90.0
  0
POINT
  5
807C
  8
DEFPOINTS
  6
BYBLOCK
 62
     0
 10
4226.2772386011266
 20
3169.5825117166578
 30
0.0
  0
POINT
  5
807D
  8
DEFPOINTS
  6
BYBLOCK
 62
     0
 10
4226.2772386011266
 20
2569.5825117166578
 30
0.0
  0
POINT
  5
807E
  8
DEFPOINTS
  6
BYBLOCK
 62
     0
 10
4435.2133308919283
 20
2569.5825117166578
 30
0.0
  0
ENDBLK
  5
807F
  8
0
  0
BLOCK
  8
0
  2
*D6
 70
     1
 10
0.0
 20
0.0
 30
0.0
  3
*D6
  1

  0
LINE
  5
8081
  8
0
  6
BYBLOCK
 10
3051.277238601127
 20
3669.5825117166578
 30
0.0
 11
2729.7445522798639
 21
3669.5825117166578
 31
0.0
  0
LINE
  5
8082
  8
0
  6
BYBLOCK
 10
3051.277238601127
 20
2569.5825117166578
 30
0.0
 11
2729.7445522798639
 21
2569.5825117166578
 31
0.0
  0
LINE
  5
8083
  8
0
  6
BYBLOCK
 10
2754.7445522798639
 20
3619.5825117166578
 30
0.0
 11
2754.7445522798639
 21
2619.5825117166578
 31
0.0
  0
INSERT
  5
8084
  8
0
  6
BYBLOCK
  2
_OPEN
 10
2754.7445522798639
 20
3669.5825117166578
 30
0.0
 41
50.0
 42
50.0
 43
50.0
 50
90.0
  0
INSERT
  5
8085
  8
0
  6
BYBLOCK
  2
_OPEN
 10
2754.7445522798639
 20
2569.5825117166578
 30
0.0
 41
50.0
 42
50.0
 43
50.0
 50
270.0
  0
TEXT
  5
8086
  8
3
 10
2742.244552279863
 20
3001.725368859516
 30
0.0
 40
75.0
  1
1100
 50
90.0
  0
POINT
  5
8087
  8
DEFPOINTS
  6
BYBLOCK
 62
     0
 10
3076.277238601127
 20
3669.5825117166578
 30
0.0
  0
POINT
  5
8088
  8
DEFPOINTS
  6
BYBLOCK
 62
     0
 10
3076.277238601127
 20
2569.5825117166578
 30
0.0
  0
POINT
  5
8089
  8
DEFPOINTS
  6
BYBLOCK
 62
     0
 10
2754.7445522798639
 20
2569.5825117166578
 30
0.0
  0
ENDBLK
  5
808A
  8
0
  0
BLOCK
  8
0
  2
*D7
 70
     1
 10
0.0
 20
0.0
 30
0.0
  3
*D7
  1

  0
LINE
  5
8097
  8
0
  6
BYBLOCK
 10
3576.277238601127
 20
3694.5825117166578
 30
0.0
 11
3576.277238601127
 21
3895.8582556731071
 31
0.0
  0
LINE
  5
8098
  8
0
  6
BYBLOCK
 10
4226.2772386011266
 20
3194.5825117166578
 30
0.0
 11
4226.2772386011266
 21
3895.8582556731071
 31
0.0
  0
LINE
  5
8099
  8
0
  6
BYBLOCK
 10
3626.277238601127
 20
3870.8582556731071
 30
0.0
 11
4176.2772386011266
 21
3870.8582556731071
 31
0.0
  0
INSERT
  5
809A
  8
0
  6
BYBLOCK
  2
_OPEN
 10
3576.277238601127
 20
3870.8582556731071
 30
0.0
 41
50.0
 42
50.0
 43
50.0
 50
180.0
  0
INSERT
  5
809B
  8
0
  6
BYBLOCK
  2
_OPEN
 10
4226.2772386011266
 20
3870.8582556731071
 30
0.0
 41
50.0
 42
50.0
 43
50.0
  0
TEXT
  5
809C
  8
3
 10
3804.8486671725559
 20
3883.3582556731071
 30
0.0
 40
75.0
  1
650
  0
POINT
  5
809D
  8
DEFPOINTS
  6
BYBLOCK
 62
     0
 10
3576.277238601127
 20
3669.5825117166578
 30
0.0
  0
POINT
  5
809E
  8
DEFPOINTS
  6
BYBLOCK
 62
     0
 10
4226.2772386011266
 20
3169.5825117166578
 30
0.0
  0
POINT
  5
809F
  8
DEFPOINTS
  6
BYBLOCK
 62
     0
 10
4226.2772386011266
 20
3870.8582556731071
 30
0.0
  0
ENDBLK
  5
80A0
  8
0
  0
BLOCK
  8
0
  2
*D8
 70
     1
 10
0.0
 20
0.0
 30
0.0
  3
*D8
  1

  0
LINE
  5
80A2
  8
0
  6
BYBLOCK
 10
5312.819695129132
 20
1574.423564340666
 30
0.0
 11
5312.819695129132
 21
1663.2747288752239
 31
0.0
  0
LINE
  5
80A3
  8
0
  6
BYBLOCK
 10
5737.819695129132
 20
1574.423564340666
 30
0.0
 11
5737.819695129132
 21
1663.2747288752239
 31
0.0
  0
LINE
  5
80A4
  8
0
  6
BYBLOCK
 10
5362.819695129132
 20
1638.2747288752239
 30
0.0
 11
5687.819695129132
 21
1638.2747288752239
 31
0.0
  0
INSERT
  5
80A5
  8
0
  6
BYBLOCK
  2
_OPEN
 10
5312.819695129132
 20
1638.2747288752239
 30
0.0
 41
50.0
 42
50.0
 43
50.0
 50
180.0
  0
INSERT
  5
80A6
  8
0
  6
BYBLOCK
  2
_OPEN
 10
5737.819695129132
 20
1638.2747288752239
 30
0.0
 41
50.0
 42
50.0
 43
50.0
  0
TEXT
  5
80A7
  8
3
 10
5428.8911237005595
 20
1650.7747288752239
 30
0.0
 40
75.0
  1
425
  0
POINT
  5
80A8
  8
DEFPOINTS
  6
BYBLOCK
 62
     0
 10
5312.819695129132
 20
1549.423564340666
 30
0.0
  0
POINT
  5
80A9
  8
DEFPOINTS
  6
BYBLOCK
 62
     0
 10
5737.819695129132
 20
1549.423564340666
 30
0.0
  0
POINT
  5
80AA
  8
DEFPOINTS
  6
BYBLOCK
 62
     0
 10
5737.819695129132
 20
1638.2747288752239
 30
0.0
  0
ENDBLK
  5
80AB
  8
0
  0
BLOCK
  8
0
  2
*D9
 70
     1
 10
0.0
 20
0.0
 30
0.0
  3
*D9
  1

  0
LINE
  5
819C
  8
0
  6
BYBLOCK
 10
4156.4273714158971
 20
3318.795998030168
 30
0.0
 11
4156.4273714158971
 21
3487.2084387959808
 31
0.0
  0
LINE
  5
819D
  8
0
  6
BYBLOCK
 10
3205.9273714158981
 20
2984.6018665611568
 30
0.0
 11
3205.9273714158981
 21
3487.2084387959808
 31
0.0
  0
LINE
  5
819E
  8
0
  6
BYBLOCK
 10
4106.4273714158981
 20
3462.2084387959808
 30
0.0
 11
3255.9273714158981
 21
3462.2084387959808
 31
0.0
  0
INSERT
  5
819F
  8
0
  6
BYBLOCK
  2
_OPEN
 10
4156.4273714158971
 20
3462.2084387959808
 30
0.0
 41
50.0
 42
50.0
 43
50.0
  0
INSERT
  5
81A0
  8
0
  6
BYBLOCK
  2
_OPEN
 10
3205.9273714158981
 20
3462.2084387959808
 30
0.0
 41
50.0
 42
50.0
 43
50.0
 50
180.0
  0
INSERT
  5
81A1
  8
3
  2
*U24
 10
0.0
 20
0.0
 30
0.0
  0
POINT
  5
81A2
  8
DEFPOINTS
  6
BYBLOCK
 62
     0
 10
4156.4273714158971
 20
3293.795998030168
 30
0.0
  0
POINT
  5
81A3
  8
DEFPOINTS
  6
BYBLOCK
 62
     0
 10
3205.9273714158981
 20
2959.6018665611568
 30
0.0
  0
POINT
  5
81A4
  8
DEFPOINTS
  6
BYBLOCK
 62
     0
 10
3205.9273714158981
 20
3462.2084387959808
 30
0.0
  0
ENDBLK
  5
81A5
  8
0
  0
BLOCK
  8
0
  2
*D10
 70
     1
 10
0.0
 20
0.0
 30
0.0
  3
*D10
  1

  0
LINE
  5
80D9
  8
0
  6
BYBLOCK
 10
2936.277238601127
 20
1189.4235643406671
 30
0.0
 11
2936.277238601127
 21
1692.2721984710081
 31
0.0
  0
LINE
  5
80DA
  8
0
  6
BYBLOCK
 10
3326.277238601127
 20
1621.7653309969101
 30
0.0
 11
3326.277238601127
 21
1692.2721984710081
 31
0.0
  0
LINE
  5
80DB
  8
0
  6
BYBLOCK
 10
2986.277238601127
 20
1667.2721984710081
 30
0.0
 11
3276.2772386011279
 21
1667.2721984710081
 31
0.0
  0
INSERT
  5
80DC
  8
0
  6
BYBLOCK
  2
_OPEN
 10
2936.277238601127
 20
1667.2721984710081
 30
0.0
 41
50.0
 42
50.0
 43
50.0
 50
180.0
  0
INSERT
  5
80DD
  8
0
  6
BYBLOCK
  2
_OPEN
 10
3326.277238601127
 20
1667.2721984710081
 30
0.0
 41
50.0
 42
50.0
 43
50.0
  0
TEXT
  5
80DE
  8
3
 10
3034.8486671725559
 20
1679.7721984710081
 30
0.0
 40
75.0
  1
390
  0
POINT
  5
80DF
  8
DEFPOINTS
  6
BYBLOCK
 62
     0
 10
2936.277238601127
 20
1164.4235643406671
 30
0.0
  0
POINT
  5
80E0
  8
DEFPOINTS
  6
BYBLOCK
 62
     0
 10
3326.277238601127
 20
1596.7653309969101
 30
0.0
  0
POINT
  5
80E1
  8
DEFPOINTS
  6
BYBLOCK
 62
     0
 10
3326.277238601127
 20
1667.2721984710081
 30
0.0
  0
ENDBLK
  5
80E2
  8
0
  0
BLOCK
  8
0
  2
*D11
 70
     1
 10
0.0
 20
0.0
 30
0.0
  3
*D11
  1

  0
LINE
  5
80E4
  8
0
  6
BYBLOCK
 10
2877.6071571201351
 20
1159.423564340666
 30
0.0
 11
2588.664080106646
 21
1159.423564340666
 31
0.0
  0
LINE
  5
80E5
  8
0
  6
BYBLOCK
 10
3051.2772386011288
 20
449.42356434066642
 30
0.0
 11
2588.664080106646
 21
449.42356434066642
 31
0.0
  0
LINE
  5
80E6
  8
0
  6
BYBLOCK
 10
2613.664080106646
 20
1109.423564340666
 30
0.0
 11
2613.664080106646
 21
499.42356434066642
 31
0.0
  0
INSERT
  5
80E7
  8
0
  6
BYBLOCK
  2
_OPEN
 10
2613.664080106646
 20
1159.423564340666
 30
0.0
 41
50.0
 42
50.0
 43
50.0
 50
90.0
  0
INSERT
  5
80E8
  8
0
  6
BYBLOCK
  2
_OPEN
 10
2613.664080106646
 20
449.42356434066642
 30
0.0
 41
50.0
 42
50.0
 43
50.0
 50
270.0
  0
TEXT
  5
80E9
  8
3
 10
2601.164080106646
 20
715.1378500549522
 30
0.0
 40
75.0
  1
710
 50
90.0
  0
POINT
  5
80EA
  8
DEFPOINTS
  6
BYBLOCK
 62
     0
 10
2902.6071571201351
 20
1159.423564340666
 30
0.0
  0
POINT
  5
80EB
  8
DEFPOINTS
  6
BYBLOCK
 62
     0
 10
3076.2772386011288
 20
449.42356434066642
 30
0.0
  0
POINT
  5
80EC
  8
DEFPOINTS
  6
BYBLOCK
 62
     0
 10
2613.664080106646
 20
449.42356434066642
 30
0.0
  0
ENDBLK
  5
80ED
  8
0
  0
BLOCK
  8
0
  2
*D12
 70
     1
 10
0.0
 20
0.0
 30
0.0
  3
*D12
  1

  0
LINE
  5
82D1
  8
3
 10
2228.8904563786641
 20
2764.6018665611568
 30
0.0
 11
2228.8904563786641
 21
3272.4505006914992
 31
0.0
  0
LINE
  5
82D2
  8
3
 10
1794.890456378663
 20
3247.4505006914992
 30
0.0
 11
2178.8904563786632
 21
3247.4505006914992
 31
0.0
  0
INSERT
  5
82D3
  8
3
  2
_OPEN
 10
1744.890456378663
 20
3247.4505006914992
 30
0.0
 41
50.0
 42
50.0
 43
50.0
 50
180.0
  0
INSERT
  5
82D4
  8
3
  2
_OPEN
 10
2228.8904563786641
 20
3247.4505006914992
 30
0.0
 41
50.0
 42
50.0
 43
50.0
  0
TEXT
  8
3
  40
75
  5
8316
  72
0
  71
0
 10
1836.89
 20
3164.70
 30
0.000000
  1
484
  0
POINT
  5
82D6
  8
DEFPOINTS
 62
     0
 10
1744.890456378663
 20
3176.9436332174009
 30
0.0
  0
POINT
  5
82D7
  8
DEFPOINTS
 62
     0
 10
2228.8904563786641
 20
2739.6018665611568
 30
0.0
  0
POINT
  5
82D8
  8
DEFPOINTS
 62
     0
 10
2228.8904563786641
 20
3247.4505006914992
 30
0.0
  0
ENDBLK
  5
80F7
  8
0
  0
BLOCK
  8
0
  2
*D13
 70
     1
 10
0.0
 20
0.0
 30
0.0
  3
*D13
  1

  0
LINE
  5
80F9
  8
0
  6
BYBLOCK
 10
2936.277238601127
 20
1164.4235643406671
 30
0.0
 11
2936.277238601127
 21
1874.1289945934891
 31
0.0
  0
LINE
  5
80FA
  8
0
  6
BYBLOCK
 10
4226.2772386011266
 20
549.42356434066642
 30
0.0
 11
4226.2772386011266
 21
1874.1289945934891
 31
0.0
  0
LINE
  5
80FB
  8
0
  6
BYBLOCK
 10
2986.277238601127
 20
1849.1289945934891
 30
0.0
 11
4176.2772386011266
 21
1849.1289945934891
 31
0.0
  0
INSERT
  5
80FC
  8
0
  6
BYBLOCK
  2
_OPEN
 10
2936.277238601127
 20
1849.1289945934891
 30
0.0
 41
50.0
 42
50.0
 43
50.0
 50
180.0
  0
INSERT
  5
80FD
  8
0
  6
BYBLOCK
  2
_OPEN
 10
4226.2772386011266
 20
1849.1289945934891
 30
0.0
 41
50.0
 42
50.0
 43
50.0
  0
TEXT
  5
80FE
  8
3
 10
3456.277238601127
 20
1861.6289945934891
 30
0.0
 40
75.0
  1
1290
  0
POINT
  5
80FF
  8
DEFPOINTS
  6
BYBLOCK
 62
     0
 10
2936.277238601127
 20
1139.4235643406671
 30
0.0
  0
POINT
  5
8100
  8
DEFPOINTS
  6
BYBLOCK
 62
     0
 10
4226.2772386011266
 20
524.42356434066642
 30
0.0
  0
POINT
  5
8101
  8
DEFPOINTS
  6
BYBLOCK
 62
     0
 10
4226.2772386011266
 20
1849.1289945934891
 30
0.0
  0
ENDBLK
  5
8102
  8
0
  0
BLOCK
  8
0
  2
*D14
 70
     1
 10
0.0
 20
0.0
 30
0.0
  3
*D14
  1

  0
LINE
  5
8104
  8
0
  6
BYBLOCK
 10
2877.6071571201351
 20
1159.423564340666
 30
0.0
 11
2725.079839721896
 21
1159.423564340666
 31
0.0
  0
LINE
  5
8105
  8
0
  6
BYBLOCK
 10
2911.277238601127
 20
559.42356434066642
 30
0.0
 11
2725.079839721896
 21
559.42356434066642
 31
0.0
  0
LINE
  5
8106
  8
0
  6
BYBLOCK
 10
2750.079839721896
 20
1109.423564340666
 30
0.0
 11
2750.079839721896
 21
609.42356434066642
 31
0.0
  0
INSERT
  5
8107
  8
0
  6
BYBLOCK
  2
_OPEN
 10
2750.079839721896
 20
1159.423564340666
 30
0.0
 41
50.0
 42
50.0
 43
50.0
 50
90.0
  0
INSERT
  5
8108
  8
0
  6
BYBLOCK
  2
_OPEN
 10
2750.079839721896
 20
559.42356434066642
 30
0.0
 41
50.0
 42
50.0
 43
50.0
 50
270.0
  0
TEXT
  5
8109
  8
3
 10
2737.5798397218969
 20
762.99499291209486
 30
0.0
 40
75.0
  1
600
 50
90.0
  0
POINT
  5
810A
  8
DEFPOINTS
  6
BYBLOCK
 62
     0
 10
2902.6071571201351
 20
1159.423564340666
 30
0.0
  0
POINT
  5
810B
  8
DEFPOINTS
  6
BYBLOCK
 62
     0
 10
2936.277238601127
 20
559.42356434066642
 30
0.0
  0
POINT
  5
810C
  8
DEFPOINTS
  6
BYBLOCK
 62
     0
 10
2750.079839721896
 20
559.42356434066642
 30
0.0
  0
ENDBLK
  5
810D
  8
0
  0
BLOCK
  8
0
  2
*D15
 70
     1
 10
0.0
 20
0.0
 30
0.0
  3
*D15
  1

  0
LINE
  5
810F
  8
0
  6
BYBLOCK
 10
2911.277238601127
 20
1139.4235643406671
 30
0.0
 11
2860.6537443074549
 21
1139.4235643406671
 31
0.0
  0
LINE
  5
8110
  8
0
  6
BYBLOCK
 10
2911.277238601127
 20
559.42356434066642
 30
0.0
 11
2860.6537443074549
 21
559.42356434066642
 31
0.0
  0
LINE
  5
8111
  8
0
  6
BYBLOCK
 10
2885.6537443074558
 20
1089.4235643406671
 30
0.0
 11
2885.6537443074558
 21
609.42356434066642
 31
0.0
  0
INSERT
  5
8112
  8
0
  6
BYBLOCK
  2
_OPEN
 10
2885.6537443074558
 20
1139.4235643406671
 30
0.0
 41
50.0
 42
50.0
 43
50.0
 50
90.0
  0
INSERT
  5
8113
  8
0
  6
BYBLOCK
  2
_OPEN
 10
2885.6537443074558
 20
559.42356434066642
 30
0.0
 41
50.0
 42
50.0
 43
50.0
 50
270.0
  0
TEXT
  5
8114
  8
3
 10
2873.1537443074549
 20
752.99499291209543
 30
0.0
 40
75.0
  1
580
 50
90.0
  0
POINT
  5
8115
  8
DEFPOINTS
  6
BYBLOCK
 62
     0
 10
2936.277238601127
 20
1139.4235643406671
 30
0.0
  0
POINT
  5
8116
  8
DEFPOINTS
  6
BYBLOCK
 62
     0
 10
2936.277238601127
 20
559.42356434066642
 30
0.0
  0
POINT
  5
8117
  8
DEFPOINTS
  6
BYBLOCK
 62
     0
 10
2885.6537443074558
 20
559.42356434066642
 30
0.0
  0
ENDBLK
  5
8118
  8
0
  0
BLOCK
  8
0
  2
*D16
 70
     1
 10
0.0
 20
0.0
 30
0.0
  3
*D16
  1

  0
LINE
  5
82D9
  8
3
 10
1719.890456378663
 20
3139.6018665611568
 30
0.0
 11
1007.277297884182
 21
3139.6018665611568
 31
0.0
  0
LINE
  5
82DA
  8
3
 10
1032.277297884182
 20
2789.6018665611568
 30
0.0
 11
1032.277297884182
 21
3089.6018665611568
 31
0.0
  0
INSERT
  5
82DB
  8
3
  2
_OPEN
 10
1032.277297884182
 20
2739.6018665611568
 30
0.0
 41
50.0
 42
50.0
 43
50.0
 50
270.0
  0
INSERT
  5
82DC
  8
3
  2
_OPEN
 10
1032.277297884182
 20
3139.6018665611568
 30
0.0
 41
50.0
 42
50.0
 43
50.0
 50
90.0
  0
TEXT
  8
3
  40
75
  5
8317
  72
0
  71
0
 10
832.277
 20
2806.85
 30
0.000000
  1
400
  0
POINT
  5
82DE
  8
DEFPOINTS
 62
     0
 10
1321.220374897671
 20
2739.6018665611568
 30
0.0
  0
POINT
  5
82DF
  8
DEFPOINTS
 62
     0
 10
1744.890456378663
 20
3139.6018665611568
 30
0.0
  0
POINT
  5
82E0
  8
DEFPOINTS
 62
     0
 10
1032.277297884182
 20
3139.6018665611568
 30
0.0
  0
ENDBLK
  5
8122
  8
0
  0
BLOCK
  8
0
  2
_DOT
 70
     0
 10
0.0
 20
0.0
 30
0.0
  3
_DOT
  1

  0
LINE
  5
818F
  8
0
  6
BYBLOCK
 62
     0
 10
0.0
 20
0.0
 30
0.0
 11
-1.0
 21
-0.0000000000000284
 31
0.0
  0
POLYLINE
  5
8190
  8
0
  6
BYBLOCK
 62
     0
 66
     1
 10
0.0
 20
0.0
 30
0.0
 70
     1
 40
0.1666666666666666
 41
0.1666666666666666
  0
VERTEX
  5
82E1
  8
0
  6
BYBLOCK
 62
     0
 10
-0.0833333333333286
 20
-0.0000000000000284
 30
0.0
 42
1.0
  0
VERTEX
  5
82E2
  8
0
  6
BYBLOCK
 62
     0
 10
0.0833333333333286
 20
-0.0000000000000284
 30
0.0
 42
1.0
  0
SEQEND
  5
82E3
  8
0
  6
BYBLOCK
 62
     0
  0
ENDBLK
  5
8175
  8
0
  0
BLOCK
  8
0
  2
*D18
 70
     1
 10
0.0
 20
0.0
 30
0.0
  3
*D18
  1

  0
LINE
  5
81CB
  8
0
  6
BYBLOCK
 62
     0
 10
4371.4273714158962
 20
3152.1018665611568
 30
0.0
 11
4371.4273714158962
 21
3487.2084387959808
 31
0.0
  0
LINE
  5
81CC
  8
0
  6
BYBLOCK
 62
     0
 10
4206.4273714158971
 20
3462.2084387959808
 30
0.0
 11
4321.4273714158971
 21
3462.2084387959808
 31
0.0
  0
TEXT
  5
81CD
  8
3
 62
     0
 10
4174.6416571301834
 20
3496.8039682512681
 30
0.0
 40
75.0
  1
215
  0
INSERT
  5
81CE
  8
0
  6
BYBLOCK
 62
     0
  2
_OPEN
 10
4156.4273714158971
 20
3462.2084387959808
 30
0.0
 41
50.0
 42
50.0
 43
50.0
 50
180.0
  0
INSERT
  5
81CF
  8
0
  6
BYBLOCK
 62
     0
  2
_OPEN
 10
4371.4273714158962
 20
3462.2084387959808
 30
0.0
 41
50.0
 42
50.0
 43
50.0
  0
POINT
  5
81D0
  8
DEFPOINTS
  6
BYBLOCK
 62
     0
 10
4156.4273714158971
 20
3293.795998030168
 30
0.0
  0
POINT
  5
81D1
  8
DEFPOINTS
  6
BYBLOCK
 62
     0
 10
4371.4273714158962
 20
3139.6018665611568
 30
0.0
  0
POINT
  5
81D2
  8
DEFPOINTS
  6
BYBLOCK
 62
     0
 10
4371.4273714158962
 20
3462.2084387959808
 30
0.0
  0
ENDBLK
  5
81D3
  8
0
  0
BLOCK
  8
0
  2
*D19
 70
     1
 10
0.0
 20
0.0
 30
0.0
  3
*D19
  1

  0
LINE
  5
82E9
  8
3
 62
     0
 10
1494.890456378665
 20
2017.1018665611571
 30
0.0
 11
1494.890456378665
 21
1842.5111396808679
 31
0.0
  0
LINE
  5
82EA
  8
3
 62
     0
 10
1744.890456378663
 20
2017.1018665611571
 30
0.0
 11
1744.890456378663
 21
1842.5111396808679
 31
0.0
  0
LINE
  5
82EB
  8
3
 62
     0
 10
1544.890456378665
 20
1867.5111396808679
 30
0.0
 11
1694.890456378663
 21
1867.5111396808679
 31
0.0
  0
INSERT
  5
82EC
  8
3
 62
     0
  2
_OPEN
 10
1494.890456378665
 20
1867.5111396808679
 30
0.0
 41
50.0
 42
50.0
 43
50.0
 50
180.0
  0
INSERT
  5
82ED
  8
3
 62
     0
  2
_OPEN
 10
1744.890456378663
 20
1867.5111396808679
 30
0.0
 41
50.0
 42
50.0
 43
50.0
  0
TEXT
  8
3
  40
75
  5
8318
  62
0
  72
0
  71
0
 10
1469.89
 20
1797.26
 30
0.000000
  1
250
  0
POINT
  5
82EF
  8
DEFPOINTS
 62
     0
 10
1494.890456378665
 20
2029.6018665611571
 30
0.0
  0
POINT
  5
82F0
  8
DEFPOINTS
 62
     0
 10
1744.890456378663
 20
2029.6018665611571
 30
0.0
  0
POINT
  5
82F1
  8
DEFPOINTS
 62
     0
 10
1744.890456378663
 20
1867.5111396808679
 30
0.0
  0
ENDBLK
  5
8255
  8
0
  0
BLOCK
  8
0
  2
*D20
 70
     1
 10
0.0
 20
0.0
 30
0.0
  3
*D20
  1

  0
LINE
  5
82F2
  8
3
 62
     0
 10
1744.890456378663
 20
2017.1018665611571
 30
0.0
 11
1744.890456378663
 21
1842.5111396808679
 31
0.0
  0
LINE
  5
82F3
  8
3
 62
     0
 10
2644.8904563786632
 20
2017.1018665611571
 30
0.0
 11
2644.8904563786632
 21
1842.5111396808679
 31
0.0
  0
LINE
  5
82F4
  8
3
 62
     0
 10
1794.890456378663
 20
1867.5111396808679
 30
0.0
 11
2594.8904563786641
 21
1867.5111396808679
 31
0.0
  0
INSERT
  5
82F5
  8
3
 62
     0
  2
_OPEN
 10
1744.890456378663
 20
1867.5111396808679
 30
0.0
 41
50.0
 42
50.0
 43
50.0
 50
180.0
  0
INSERT
  5
82F6
  8
3
 62
     0
  2
_OPEN
 10
2644.8904563786632
 20
1867.5111396808679
 30
0.0
 41
50.0
 42
50.0
 43
50.0
  0
TEXT
  8
3
  40
75
  5
8319
  62
0
  72
0
  71
0
 10
2044.89
 20
1797.26
 30
0.000000
  1
900
  0
POINT
  5
82F8
  8
DEFPOINTS
 62
     0
 10
1744.890456378663
 20
2029.6018665611571
 30
0.0
  0
POINT
  5
82F9
  8
DEFPOINTS
 62
     0
 10
2644.8904563786632
 20
2029.6018665611571
 30
0.0
  0
POINT
  5
82FA
  8
DEFPOINTS
 62
     0
 10
2644.8904563786632
 20
1867.5111396808679
 30
0.0
  0
ENDBLK
  5
8262
  8
0
  0
BLOCK
  8
0
  2
*D21
 70
     1
 10
0.0
 20
0.0
 30
0.0
  3
*D21
  1

  0
LINE
  5
82FB
  8
3
 62
     0
 10
3311.427371415899
 20
2017.1018665611571
 30
0.0
 11
3311.427371415899
 21
1842.5111396808679
 31
0.0
  0
LINE
  5
82FC
  8
3
 62
     0
 10
4156.4273714158999
 20
2017.1018665611571
 30
0.0
 11
4156.4273714158999
 21
1842.5111396808679
 31
0.0
  0
LINE
  5
82FD
  8
3
 62
     0
 10
3361.427371415899
 20
1867.5111396808679
 30
0.0
 11
4106.4273714158999
 21
1867.5111396808679
 31
0.0
  0
INSERT
  5
82FE
  8
3
 62
     0
  2
_OPEN
 10
3311.427371415899
 20
1867.5111396808679
 30
0.0
 41
50.0
 42
50.0
 43
50.0
 50
180.0
  0
INSERT
  5
82FF
  8
3
 62
     0
  2
_OPEN
 10
4156.4273714158999
 20
1867.5111396808679
 30
0.0
 41
50.0
 42
50.0
 43
50.0
  0
TEXT
  8
3
  40
75
  5
831A
  62
0
  72
0
  71
0
 10
3583.93
 20
1797.26
 30
0.000000
  1
845
  0
POINT
  5
8301
  8
DEFPOINTS
 62
     0
 10
3311.427371415899
 20
2029.6018665611571
 30
0.0
  0
POINT
  5
8302
  8
DEFPOINTS
 62
     0
 10
4156.4273714158999
 20
2029.6018665611571
 30
0.0
  0
POINT
  5
8303
  8
DEFPOINTS
 62
     0
 10
4156.4273714158999
 20
1867.5111396808679
 30
0.0
  0
ENDBLK
  5
826F
  8
0
  0
BLOCK
  8
0
  2
*D22
 70
     1
 10
0.0
 20
0.0
 30
0.0
  3
*D22
  1

  0
LINE
  5
8304
  8
3
 62
     0
 10
4156.4273714158999
 20
2017.1018665611571
 30
0.0
 11
4156.4273714158999
 21
1842.5111396808679
 31
0.0
  0
LINE
  5
8305
  8
3
 62
     0
 10
4411.427371415899
 20
2017.1018665611571
 30
0.0
 11
4411.427371415899
 21
1842.5111396808679
 31
0.0
  0
LINE
  5
8306
  8
3
 62
     0
 10
4206.4273714159008
 20
1867.5111396808679
 30
0.0
 11
4361.427371415899
 21
1867.5111396808679
 31
0.0
  0
INSERT
  5
8307
  8
3
 62
     0
  2
_OPEN
 10
4156.4273714158999
 20
1867.5111396808679
 30
0.0
 41
50.0
 42
50.0
 43
50.0
 50
180.0
  0
INSERT
  5
8308
  8
3
 62
     0
  2
_OPEN
 10
4411.427371415899
 20
1867.5111396808679
 30
0.0
 41
50.0
 42
50.0
 43
50.0
  0
TEXT
  8
3
  40
75
  5
831B
  62
0
  72
0
  71
0
 10
4133.93
 20
1797.26
 30
0.000000
  1
255
  0
POINT
  5
830A
  8
DEFPOINTS
 62
     0
 10
4156.4273714158999
 20
2029.6018665611571
 30
0.0
  0
POINT
  5
830B
  8
DEFPOINTS
 62
     0
 10
4411.427371415899
 20
2029.6018665611571
 30
0.0
  0
POINT
  5
830C
  8
DEFPOINTS
 62
     0
 10
4411.427371415899
 20
1867.5111396808679
 30
0.0
  0
ENDBLK
  5
827E
  8
0
  0
BLOCK
  8
0
  2
*D23
 70
     1
 10
0.0
 20
0.0
 30
0.0
  3
*D23
  1

  0
LINE
  5
830D
  8
3
 62
     0
 10
1707.390456378663
 20
3139.6018665611568
 30
0.0
 11
860.28138450181018
 21
3139.6018665611568
 31
0.0
  0
LINE
  5
830E
  8
3
 62
     0
 10
1482.390456378665
 20
2029.6018665611571
 30
0.0
 11
860.28138450180995
 21
2029.6018665611571
 31
0.0
  0
LINE
  5
830F
  8
3
 62
     0
 10
885.28138450181018
 20
3089.6018665611568
 30
0.0
 11
885.28138450180995
 21
2079.6018665611568
 31
0.0
  0
INSERT
  5
8310
  8
3
 62
     0
  2
_OPEN
 10
885.28138450181018
 20
3139.6018665611568
 30
0.0
 41
50.0
 42
50.0
 43
50.0
 50
90.0
  0
INSERT
  5
8311
  8
3
 62
     0
  2
_OPEN
 10
885.28138450180995
 20
2029.6018665611571
 30
0.0
 41
50.0
 42
50.0
 43
50.0
 50
270.0
  0
TEXT
  8
3
  40
75
  5
831C
  62
0
  72
0
  71
0
 10
672.781
 20
2451.85
 30
0.000000
  1
1110
  0
POINT
  5
8313
  8
DEFPOINTS
 62
     0
 10
1719.890456378663
 20
3139.6018665611568
 30
0.0
  0
POINT
  5
8314
  8
DEFPOINTS
 62
     0
 10
1494.890456378665
 20
2029.6018665611571
 30
0.0
  0
POINT
  5
8315
  8
DEFPOINTS
 62
     0
 10
885.28138450180995
 20
2029.6018665611571
 30
0.0
  0
ENDBLK
  5
828B
  8
0
  0
BLOCK
  8
0
  2
*U24
 70
     1
 10
0.0
 20
0.0
 30
0.0
  3
*U24
  1

  0
TEXT
  5
82E5
  8
3
 10
3574.0345142730412
 20
3599.7084387959808
 30
0.0
 40
75.0
  1
MAX
  0
TEXT
  5
82E6
  8
3
 10
3556.1773714158981
 20
3474.7084387959808
 30
0.0
 40
75.0
  1
1020
  0
ENDBLK
  5
82E8
  8
0
  0
ENDSEC
  0
SECTION
  2
ENTITIES
  0
INSERT
  5
7D2E
  8
0
  2
YA_N
 10
6.0
 20
5.0
 30
0.0
  0
INSERT
  5
7D2F
  8
0
  2
YA_N
 10
6.0
 20
5.0
 30
0.0
  0
INSERT
  5
7D30
  8
0
  2
YA_N
 10
6.0
 20
5.0
 30
0.0
  0
LINE
  5
7D31
  8
2
 10
4156.4273714158999
 20
2029.6018665611571
 30
0.0
 11
4156.427371415899
 21
3208.6144306025558
 31
0.0
  0
LINE
  5
7D32
  8
1
 10
4363.6100668929448
 20
3036.7302544128202
 30
0.0
 11
4378.6567616374987
 21
3036.7302544128202
 31
0.0
  0
LINE
  5
7D33
  8
1
 10
3343.9273714158971
 20
2676.401866561157
 30
0.0
 11
3858.9273714158981
 21
2676.401866561157
 31
0.0
  0
LINE
  5
7D34
  8
1
 10
3349.4273714158999
 20
2104.6018665611568
 30
0.0
 11
3349.427371415899
 21
2139.6018665611568
 31
0.0
  0
LINE
  5
7D35
  8
1
 10
3853.4273714158999
 20
2104.6018665611568
 30
0.0
 11
3853.427371415899
 21
2676.401866561157
 31
0.0
  0
LINE
  5
7D36
  8
1
 10
3311.427371415899
 20
2104.6018665611568
 30
0.0
 11
4411.427371415899
 21
2104.6018665611568
 31
0.0
  0
LINE
  5
7D37
  8
1
 10
3311.427371415899
 20
2029.6018665611571
 30
0.0
 11
4411.427371415899
 21
2029.6018665611571
 31
0.0
  0
LINE
  5
7D38
  8
1
 10
4411.427371415899
 20
2029.6018665611571
 30
0.0
 11
4411.427371415899
 21
2104.6018665611568
 31
0.0
  0
LINE
  5
7D39
  8
1
 10
3853.4273714158971
 20
2611.401866561157
 30
0.0
 11
3941.4273714158981
 21
2611.401866561157
 31
0.0
  0
LINE
  5
7D3A
  8
1
 10
3853.4273714158971
 20
2617.4018665611579
 30
0.0
 11
3941.4273714158981
 21
2617.4018665611579
 31
0.0
  0
LINE
  5
7D3D
  8
1
 10
3288.9273714158981
 20
2764.6018665611568
 30
0.0
 11
3941.4273714158981
 21
2764.6018665611568
 31
0.0
  0
LINE
  5
7D3E
  8
1
 10
3288.9273714158981
 20
2714.6018665611568
 30
0.0
 11
3941.4273714158981
 21
2714.6018665611568
 31
0.0
  0
LINE
  5
7D40
  8
1
 10
3288.9273714158981
 20
2211.6018665611568
 30
0.0
 11
3288.9273714158981
 21
2866.6018665611568
 31
0.0
  0
LINE
  5
7D41
  8
1
 10
3225.9273714158981
 20
2211.6018665611568
 30
0.0
 11
3225.9273714158981
 21
2866.6018665611568
 31
0.0
  0
LINE
  5
7D44
  8
1
 10
3225.9273714158981
 20
2866.6018665611568
 30
0.0
 11
3288.9273714158981
 21
2866.6018665611568
 31
0.0
  0
LINE
  5
7D45
  8
1
 10
3225.9273714158981
 20
2612.6018665611568
 30
0.0
 11
3288.9273714158981
 21
2612.6018665611568
 31
0.0
  0
LINE
  5
7D49
  8
1
 10
3225.9273714158981
 20
2351.6018665611568
 30
0.0
 11
3288.9273714158981
 21
2351.6018665611568
 31
0.0
  0
LINE
  5
7D4A
  8
1
 10
3225.9273714158981
 20
2211.6018665611568
 30
0.0
 11
3288.9273714158981
 21
2211.6018665611568
 31
0.0
  0
LINE
  5
7D4E
  8
1
 10
3205.9273714158981
 20
2959.6018665611568
 30
0.0
 11
3327.9273714158981
 21
2959.6018665611568
 31
0.0
  0
LINE
  5
7D4F
  8
1
 10
3205.927371415899
 20
2131.6018665611568
 30
0.0
 11
3327.9273714158981
 21
2131.6018665611568
 31
0.0
  0
LINE
  5
7D50
  8
1
 10
3205.927371415899
 20
2131.6018665611568
 30
0.0
 11
3205.9273714158981
 21
2959.6018665611568
 31
0.0
  0
LINE
  5
7D51
  8
1
 10
3327.9273714158981
 20
2131.6018665611568
 30
0.0
 11
3327.9273714158981
 21
2204.5368168487039
 31
0.0
  0
DIMENSION
  5
7D53
  8
3
  2
*D2
 10
4599.5181336208989
 20
2459.6018665611591
 30
0.0
 11
4549.5181336208989
 21
2739.6018665611591
 31
0.0
 12
-1368.8923237132331
 22
1580.17830222049
 32
0.0
 70
     0
  1
φ560
 13
4393.7273714158991
 23
3019.6018665611591
 33
0.0
 14
4393.7273714158991
 24
2459.6018665611591
 34
0.0
 50
90.0
1001
ACAD
1000
DSTYLE
1002
{
1070
    40
1040
25.0
1002
}
  0
LINE
  5
7D57
  8
2
 10
3175.0471297018589
 20
2739.6018665611568
 30
0.0
 11
4421.1000504124186
 21
2739.6018665611568
 31
0.0
  0
LINE
  5
7D59
  8
1
 10
2644.8904563786632
 20
4149.7608139371487
 30
0.0
 11
2586.8904563786632
 21
4149.7608139371487
 31
0.0
  0
LINE
  5
7D5A
  8
1
 10
1494.890456378663
 20
4149.7608139371487
 30
0.0
 11
1494.890456378663
 21
4782.2608139371496
 31
0.0
  0
LINE
  5
7D5B
  8
1
 10
1494.890456378663
 20
5249.7608139371487
 30
0.0
 11
1994.890456378663
 21
5249.7608139371487
 31
0.0
  0
LINE
  5
7D5C
  8
1
 10
2644.8904563786632
 20
4749.7608139371487
 30
0.0
 11
2644.8904563786632
 21
4149.7608139371487
 31
0.0
  0
LINE
  5
7D5D
  8
1
 10
1994.890456378663
 20
4749.7608139371487
 30
0.0
 11
1994.890456378663
 21
4782.2608139371487
 31
0.0
  0
LINE
  5
7D5E
  8
1
 10
2644.8904563786632
 20
4749.7608139371487
 30
0.0
 11
1994.890456378663
 21
4749.7608139371487
 31
0.0
  0
LINE
  5
7D5F
  8
2
 10
1294.0306214105719
 20
4994.7608139371487
 30
0.0
 11
2286.8472634557411
 21
4994.7608139371487
 31
0.0
  0
DIMENSION
  5
7D60
  8
3
  2
*D3
 10
1494.890456378663
 20
5451.036557893598
 30
0.0
 11
1744.890456378663
 21
5501.036557893598
 31
0.0
 12
-1581.3867822224629
 22
1580.17830222049
 32
0.0
 70
     0
 13
1994.890456378663
 23
5249.7608139371487
 33
0.0
 14
1494.890456378663
 24
5249.7608139371487
 34
0.0
1001
ACAD
1000
DSTYLE
1002
{
1070
    40
1040
25.0
1002
}
  0
DIMENSION
  5
7D61
  8
3
  2
*D4
 10
1494.890456378663
 20
3761.3393263212279
 30
0.0
 11
2069.8904563786632
 21
3761.3393263212279
 31
0.0
 12
-1581.3867822224629
 22
1580.17830222049
 32
0.0
 70
   128
 13
2644.8904563786632
 23
4149.7608139371487
 33
0.0
 14
1494.890456378663
 24
4149.7608139371487
 34
0.0
1001
ACAD
1000
DSTYLE
1002
{
1070
    40
1040
25.0
1002
}
  0
DIMENSION
  5
7D62
  8
3
  2
*D5
 10
2853.8265486694631
 20
4149.7608139371487
 30
0.0
 11
2803.826548669464
 21
4449.7608139371487
 31
0.0
 12
-1581.3867822224629
 22
1580.17830222049
 32
0.0
 70
     0
 13
2644.8904563786632
 23
4749.7608139371487
 33
0.0
 14
2644.8904563786632
 24
4149.7608139371487
 34
0.0
 50
270.0
1001
ACAD
1000
DSTYLE
1002
{
1070
    40
1040
25.0
1002
}
  0
DIMENSION
  5
7D63
  8
3
  2
*D6
 10
1173.3577700574001
 20
4149.7608139371487
 30
0.0
 11
1123.3577700574001
 21
4699.7608139371487
 31
0.0
 12
-1581.3867822224629
 22
1580.17830222049
 32
0.0
 70
     0
 13
1494.890456378663
 23
5249.7608139371487
 33
0.0
 14
1494.890456378663
 24
4149.7608139371487
 34
0.0
 50
270.0
1001
ACAD
1000
DSTYLE
1002
{
1070
    40
1040
25.0
1002
}
  0
LINE
  5
7D64
  8
1
 10
3435.360445142871
 20
2676.401866561157
 30
0.0
 11
3435.360445142871
 21
2797.9760461422252
 31
0.0
  0
LINE
  5
7D65
  8
1
 10
3435.360445142871
 20
2797.9760461422252
 30
0.0
 11
3766.307951443142
 21
2797.9760461422252
 31
0.0
  0
LINE
  5
7D66
  8
1
 10
3766.307951443142
 20
2797.9760461422252
 30
0.0
 11
3766.307951443142
 21
2676.401866561157
 31
0.0
  0
LINE
  5
7D67
  8
2
 10
2444.8904563786632
 20
4589.9370290420447
 30
0.0
 11
2444.8904563786632
 21
3926.4799013700422
 31
0.0
  0
CIRCLE
  5
7D68
  8
1
 10
3601.4273714158981
 20
2571.6750929303689
 30
0.0
 40
65.0
  0
LINE
  5
7D69
  8
1
 10
3601.4273714158981
 20
2501.6750929303689
 30
0.0
 11
3601.4273714158981
 21
2641.6750929303698
 31
0.0
  0
LINE
  5
7D6A
  8
1
 10
3531.4273714158971
 20
2571.6750929303689
 30
0.0
 11
3671.4273714158981
 21
2571.6750929303689
 31
0.0
  0
INSERT
  5
7D6B
  8
0
  2
YA_N
 10
120.0
 20
100.0
 30
0.0
 41
20.0
 42
20.0
 43
20.0
  0
INSERT
  5
7D6C
  8
0
  2
YA_N
 10
3847.4759201612942
 20
2185.7293758516262
 30
0.0
  0
INSERT
  5
7D6D
  8
0
  2
YA_N
 10
3847.4759201612942
 20
2185.7293758516262
 30
0.0
  0
INSERT
  5
7D6E
  8
0
  2
YA_N
 10
4086.555209668692
 20
3974.8462611396872
 30
0.0
  0
INSERT
  5
7D6F
  8
0
  2
YA_N
 10
4086.555209668692
 20
3974.8462611396872
 30
0.0
  0
INSERT
  5
7D70
  8
0
  2
YA_N
 10
4845.5068668743343
 20
5541.2018299724314
 30
0.0
  0
POLYLINE
  5
7D71
  8
1
 66
     1
 10
0.0
 20
0.0
 30
0.0
 70
     1
  0
VERTEX
  5
82AE
  8
1
 10
4371.4273714158981
 20
3019.2302544128202
 30
0.0
  0
VERTEX
  5
82AF
  8
1
 10
4396.427371415899
 20
3019.2302544128202
 30
0.0
  0
VERTEX
  5
82B0
  8
1
 10
4396.427371415899
 20
3020.2302544128188
 30
0.0
 42
0.4142135623730951
  0
VERTEX
  5
82B1
  8
1
 10
4394.4273714158981
 20
3022.2302544128202
 30
0.0
  0
VERTEX
  5
82B2
  8
1
 10
4378.4273714158981
 20
3022.2302544128202
 30
0.0
 42
-0.4142135623730951
  0
VERTEX
  5
82B3
  8
1
 10
4374.4273714158971
 20
3026.2302544128188
 30
0.0
  0
VERTEX
  5
82B4
  8
1
 10
4374.4273714158971
 20
3042.2302544128188
 30
0.0
 42
0.4142135623730951
  0
VERTEX
  5
82B5
  8
1
 10
4372.4273714158981
 20
3044.2302544128188
 30
0.0
  0
VERTEX
  5
82B6
  8
1
 10
4371.4273714158981
 20
3044.2302544128188
 30
0.0
  0
SEQEND
  5
82B7
  8
1
  0
LINE
  5
7D7C
  8
1
 10
4363.6100668929448
 20
2441.7302544128211
 30
0.0
 11
4378.6567616374987
 21
2441.7302544128211
 31
0.0
  0
DIMENSION
  5
7D7E
  8
3
  2
*D7
 10
2644.8904563786632
 20
5451.036557893598
 30
0.0
 11
2319.8904563786632
 21
5501.036557893598
 31
0.0
 12
-1581.3867822224629
 22
1580.17830222049
 32
0.0
 70
     0
 13
1994.890456378663
 23
5249.7608139371487
 33
0.0
 14
2644.8904563786632
 24
4749.7608139371487
 34
0.0
1001
ACAD
1000
DSTYLE
1002
{
1070
    40
1040
25.0
1002
}
  0
LINE
  5
7D7F
  8
1
 10
4371.4273714158981
 20
2459.2302544128211
 30
0.0
 11
4396.427371415899
 21
2459.2302544128211
 31
0.0
  0
LINE
  5
7D80
  8
1
 10
4396.427371415899
 20
2459.2302544128211
 30
0.0
 11
4396.427371415899
 21
2458.2302544128211
 31
0.0
  0
ARC
  5
7D81
  8
1
 10
4394.4273714158981
 20
2458.2302544128211
 30
0.0
 40
2.0
 50
270.0
 51
0.0
  0
LINE
  5
7D82
  8
1
 10
4394.4273714158981
 20
2456.2302544128211
 30
0.0
 11
4378.4273714158981
 21
2456.2302544128211
 31
0.0
  0
ARC
  5
7D83
  8
1
 10
4378.4273714158981
 20
2452.2302544128211
 30
0.0
 40
4.0
 50
90.0
 51
180.0
  0
LINE
  5
7D84
  8
1
 10
4374.4273714158962
 20
3019.2302544128202
 30
0.0
 11
4374.4273714158971
 21
2436.2302544128211
 31
0.0
  0
ARC
  5
7D85
  8
1
 10
4372.4273714158981
 20
2436.2302544128211
 30
0.0
 40
2.0
 50
270.0
 51
0.0
  0
LINE
  5
7D86
  8
1
 10
4372.4273714158981
 20
2434.2302544128211
 30
0.0
 11
4371.4273714158981
 21
2434.2302544128211
 31
0.0
  0
LINE
  5
7D87
  8
1
 10
4371.4273714158981
 20
2434.2302544128211
 30
0.0
 11
4371.4273714158981
 21
2459.2302544128211
 31
0.0
  0
INSERT
  5
7D88
  8
0
  2
YA_N
 10
120.0
 20
100.0
 30
0.0
 41
20.0
 42
20.0
 43
20.0
  0
INSERT
  5
7D89
  8
0
  2
YA_N
 10
120.0
 20
100.0
 30
0.0
 41
20.0
 42
20.0
 43
20.0
  0
INSERT
  5
7D8E
  8
0
  2
YA_N
 10
120.0
 20
100.0
 30
0.0
 41
20.0
 42
20.0
 43
20.0
  0
INSERT
  5
7D93
  8
0
  2
YA_N
 10
120.0
 20
100.0
 30
0.0
 41
20.0
 42
20.0
 43
20.0
  0
INSERT
  5
7D94
  8
0
  2
YA_N
 10
120.0
 20
100.0
 30
0.0
 41
20.0
 42
20.0
 43
20.0
  0
INSERT
  5
7D95
  8
0
  2
YA_N
 10
120.0
 20
100.0
 30
0.0
 41
20.0
 42
20.0
 43
20.0
  0
LINE
  5
7D9A
  8
1
 10
4371.4273714158999
 20
2104.6018665611568
 30
0.0
 11
4371.4273714158999
 21
3019.2302544128202
 31
0.0
  0
LINE
  5
7D9B
  8
1
 10
3941.4273714158999
 20
2104.6018665611568
 30
0.0
 11
3941.4273714158981
 21
2759.6018665611559
 31
0.0
  0
LINE
  5
7D9C
  8
1
 10
4371.427371415899
 20
2759.6018665611559
 30
0.0
 11
4371.4273714158962
 21
3139.6018665611568
 31
0.0
  0
LINE
  5
7D9D
  8
1
 10
3941.4273714158981
 20
2759.6018665611559
 30
0.0
 11
3941.4273714158981
 21
3139.6018665611568
 31
0.0
  0
DIMENSION
  5
7D9E
  8
3
  2
*D8
 10
4368.9273714158981
 20
3218.4530310957148
 30
0.0
 11
4156.4273714158971
 21
3268.4530310957148
 31
0.0
 12
-1368.8923237132331
 22
1580.17830222049
 32
0.0
 70
     0
 13
3943.9273714158971
 23
3129.6018665611568
 33
0.0
 14
4368.9273714158981
 24
3129.6018665611568
 34
0.0
1001
ACAD
1000
DSTYLE
1002
{
1070
    40
1040
25.0
1002
}
  0
DIMENSION
  5
7D9F
  8
3
  2
*D9
 10
3205.9273714158981
 20
3462.2084387959808
 30
0.0
 11
3681.1773714158981
 21
3574.7084387959808
 31
0.0
 70
     0
  1
MAX\P1020
 13
4156.4273714158971
 23
3293.795998030168
 33
0.0
 14
3205.9273714158981
 24
2959.6018665611568
 34
0.0
1001
ACAD
1000
DSTYLE
1002
{
1070
    40
1040
25.0
1002
}
  0
INSERT
  5
7DA0
  8
0
  2
YA_N
 10
-179.8335021377398
 20
-171.90037549161951
 30
0.0
 41
1.538461538
 42
1.538461538
 43
1.538461538
  0
INSERT
  5
7DA1
  8
0
  2
YA_N
 10
29.23077174199971
 20
27.6923094659989
 30
0.0
 41
1.538461538
 42
1.538461538
 43
1.538461538
  0
INSERT
  5
7DA2
  8
0
  2
YA_N
 10
29.23077174199971
 20
27.6923094659989
 30
0.0
 41
1.538461538
 42
1.538461538
 43
1.538461538
  0
INSERT
  5
7DA3
  8
0
  2
YA_N
 10
29.23077174199971
 20
27.6923094659989
 30
0.0
 41
1.538461538
 42
1.538461538
 43
1.538461538
  0
INSERT
  5
7DA4
  8
0
  2
YA_N
 10
29.23077174199971
 20
27.6923094659989
 30
0.0
 41
1.538461538
 42
1.538461538
 43
1.538461538
  0
INSERT
  5
7DA5
  8
0
  2
YA_N
 10
29.23077174199971
 20
27.6923094659989
 30
0.0
 41
1.538461538
 42
1.538461538
 43
1.538461538
  0
INSERT
  5
7DA6
  8
0
  2
YA_N
 10
764.68473646589041
 20
4641.82068678011
 30
0.0
 41
1.538461538
 42
1.538461538
 43
1.538461538
  0
INSERT
  5
7DA7
  8
0
  2
YA_N
 10
6460.7510135923712
 20
4598.0052802348528
 30
0.0
 41
1.538461538
 42
1.538461538
 43
1.538461538
  0
INSERT
  5
7DA8
  8
0
  2
YA_N
 10
6460.7510135923712
 20
4598.0052802348528
 30
0.0
 41
1.538461538
 42
1.538461538
 43
1.538461538
  0
INSERT
  5
7DA9
  8
0
  2
YA_N
 10
6460.7510135923712
 20
4598.0052802348528
 30
0.0
 41
1.538461538
 42
1.538461538
 43
1.538461538
  0
INSERT
  5
7DAA
  8
0
  2
YA_N
 10
6460.7510135923712
 20
4598.0052802348528
 30
0.0
 41
1.538461538
 42
1.538461538
 43
1.538461538
  0
INSERT
  5
7DAB
  8
0
  2
YA_N
 10
10145.21226568251
 20
7780.9088358950803
 30
0.0
 41
1.538461538
 42
1.538461538
 43
1.538461538
  0
INSERT
  5
7DAC
  8
0
  2
YA_N
 10
10145.21226568251
 20
7780.9088358950803
 30
0.0
 41
1.538461538
 42
1.538461538
 43
1.538461538
  0
INSERT
  5
7DAD
  8
0
  2
YA_N
 10
5360.6303447487271
 20
3883.0407429965931
 30
0.0
 41
1.538461538
 42
1.538461538
 43
1.538461538
  0
INSERT
  5
7DAE
  8
0
  2
YA_N
 10
-1001.011017188752
 20
-988.56545136257319
 30
0.0
 41
1.538461538
 42
1.538461538
 43
1.538461538
  0
INSERT
  5
7DAF
  8
0
  2
YA_N
 10
140.00000247799969
 20
120.0000017459989
 30
0.0
 41
19.999999994
 42
19.999999994
 43
19.999999994
  0
INSERT
  5
7DB1
  8
0
  2
YA_N
 10
140.00000247799969
 20
120.0000017459989
 30
0.0
 41
19.999999994
 42
19.999999994
 43
19.999999994
  0
INSERT
  5
7DB6
  8
0
  2
YA_N
 10
140.00000247799969
 20
120.0000017459989
 30
0.0
 41
19.999999994
 42
19.999999994
 43
19.999999994
  0
INSERT
  5
7DB7
  8
0
  2
YA_N
 10
140.00000247799969
 20
120.0000017459989
 30
0.0
 41
19.999999994
 42
19.999999994
 43
19.999999994
  0
INSERT
  5
7DB8
  8
0
  2
YA_N
 10
140.00000247799969
 20
120.0000017459989
 30
0.0
 41
19.999999994
 42
19.999999994
 43
19.999999994
  0
INSERT
  5
7DBD
  8
0
  2
YA_N
 10
-179.8335021377398
 20
-171.90037549161951
 30
0.0
 41
1.538461538
 42
1.538461538
 43
1.538461538
  0
INSERT
  5
7DBE
  8
0
  2
YA_N
 10
29.23077174199971
 20
27.6923094659989
 30
0.0
 41
1.538461538
 42
1.538461538
 43
1.538461538
  0
INSERT
  5
7DBF
  8
0
  2
YA_N
 10
29.23077174199971
 20
27.6923094659989
 30
0.0
 41
1.538461538
 42
1.538461538
 43
1.538461538
  0
INSERT
  5
7DC0
  8
0
  2
YA_N
 10
29.23077174199971
 20
27.6923094659989
 30
0.0
 41
1.538461538
 42
1.538461538
 43
1.538461538
  0
INSERT
  5
7DC1
  8
0
  2
YA_N
 10
29.23077174199971
 20
27.6923094659989
 30
0.0
 41
1.538461538
 42
1.538461538
 43
1.538461538
  0
INSERT
  5
7DC2
  8
0
  2
YA_N
 10
29.23077174199971
 20
27.6923094659989
 30
0.0
 41
1.538461538
 42
1.538461538
 43
1.538461538
  0
INSERT
  5
7DC3
  8
0
  2
YA_N
 10
764.68473646589041
 20
4641.82068678011
 30
0.0
 41
1.538461538
 42
1.538461538
 43
1.538461538
  0
INSERT
  5
7DC4
  8
0
  2
YA_N
 10
6460.7510135923712
 20
4598.0052802348528
 30
0.0
 41
1.538461538
 42
1.538461538
 43
1.538461538
  0
INSERT
  5
7DC5
  8
0
  2
YA_N
 10
6460.7510135923712
 20
4598.0052802348528
 30
0.0
 41
1.538461538
 42
1.538461538
 43
1.538461538
  0
INSERT
  5
7DC6
  8
0
  2
YA_N
 10
6460.7510135923712
 20
4598.0052802348528
 30
0.0
 41
1.538461538
 42
1.538461538
 43
1.538461538
  0
INSERT
  5
7DC7
  8
0
  2
YA_N
 10
6460.7510135923712
 20
4598.0052802348528
 30
0.0
 41
1.538461538
 42
1.538461538
 43
1.538461538
  0
INSERT
  5
7DC8
  8
0
  2
YA_N
 10
10145.21226568251
 20
7780.9088358950803
 30
0.0
 41
1.538461538
 42
1.538461538
 43
1.538461538
  0
INSERT
  5
7DC9
  8
0
  2
YA_N
 10
10145.21226568251
 20
7780.9088358950803
 30
0.0
 41
1.538461538
 42
1.538461538
 43
1.538461538
  0
INSERT
  5
7DCA
  8
0
  2
YA_N
 10
5360.6303447487271
 20
3883.0407429965931
 30
0.0
 41
1.538461538
 42
1.538461538
 43
1.538461538
  0
INSERT
  5
7DCB
  8
0
  2
YA_N
 10
-1001.011017188752
 20
-988.56545136257319
 30
0.0
 41
1.538461538
 42
1.538461538
 43
1.538461538
  0
INSERT
  5
7DCC
  8
0
  2
YA_N
 10
140.00000247799969
 20
120.0000017459989
 30
0.0
 41
19.999999994
 42
19.999999994
 43
19.999999994
  0
INSERT
  5
7DCE
  8
0
  2
YA_N
 10
140.00000247799969
 20
120.0000017459989
 30
0.0
 41
19.999999994
 42
19.999999994
 43
19.999999994
  0
INSERT
  5
7DD3
  8
0
  2
YA_N
 10
140.00000247799969
 20
120.0000017459989
 30
0.0
 41
19.999999994
 42
19.999999994
 43
19.999999994
  0
INSERT
  5
7DD4
  8
0
  2
YA_N
 10
140.00000247799969
 20
120.0000017459989
 30
0.0
 41
19.999999994
 42
19.999999994
 43
19.999999994
  0
INSERT
  5
7DD5
  8
0
  2
YA_N
 10
140.00000247799969
 20
120.0000017459989
 30
0.0
 41
19.999999994
 42
19.999999994
 43
19.999999994
  0
LINE
  5
7DDA
  8
1
 10
4396.427371415899
 20
2459.2302544128211
 30
0.0
 11
4396.4273714158962
 21
3019.2302544128202
 31
0.0
  0
LINE
  5
7DDC
  8
1
 10
3311.427371415899
 20
2029.6018665611571
 30
0.0
 11
3311.427371415899
 21
2104.6018665611568
 31
0.0
  0
LINE
  5
7DDD
  8
1
 10
1354.8904563786641
 20
5207.2608139371496
 30
0.0
 11
2228.8904563786641
 21
5207.2608139371496
 31
0.0
  0
LINE
  5
7DDE
  8
1
 10
1354.8904563786641
 20
4782.2608139371496
 30
0.0
 11
2228.8904563786641
 21
4782.2608139371487
 31
0.0
  0
LINE
  5
7DDF
  8
1
 10
1994.890456378663
 20
5207.2608139371496
 30
0.0
 11
1994.890456378663
 21
5249.7608139371487
 31
0.0
  0
LINE
  5
7DE0
  8
1
 10
1494.890456378663
 20
5207.2608139371496
 30
0.0
 11
1494.890456378663
 21
5249.7608139371487
 31
0.0
  0
LINE
  5
7DE1
  8
1
 10
1769.890456378663
 20
4095.7608139371491
 30
0.0
 11
1769.890456378663
 21
4782.2608139371487
 31
0.0
  0
LINE
  5
7DE2
  8
1
 10
1719.890456378663
 20
4095.7608139371491
 30
0.0
 11
1719.8904563786621
 21
4782.2608139371487
 31
0.0
  0
LINE
  5
7DE4
  8
2
 10
1744.890456378663
 20
3961.88057222311
 30
0.0
 11
1744.890456378663
 21
5158.433492933671
 31
0.0
  0
LINE
  5
7DE5
  8
1
 10
2594.8904563786641
 20
3992.7608139371509
 30
0.0
 11
1524.890456378663
 21
3992.7608139371491
 31
0.0
  0
LINE
  5
7DE6
  8
1
 10
2594.8904563786641
 20
4114.7608139371496
 30
0.0
 11
1524.890456378663
 21
4114.7608139371496
 31
0.0
  0
LINE
  5
7DE8
  8
1
 10
2514.8904563786641
 20
4075.76081393715
 30
0.0
 11
1617.890456378663
 21
4075.76081393715
 31
0.0
  0
LINE
  5
7DE9
  8
1
 10
2514.8904563786641
 20
4012.7608139371491
 30
0.0
 11
1617.890456378663
 21
4012.7608139371491
 31
0.0
  0
LINE
  5
7DEA
  8
1
 10
2594.8904563786641
 20
3992.7608139371509
 30
0.0
 11
2594.8904563786641
 21
4114.7608139371496
 31
0.0
  0
LINE
  5
7DEB
  8
1
 10
2514.8904563786641
 20
4012.7608139371491
 30
0.0
 11
2514.8904563786641
 21
4075.76081393715
 31
0.0
  0
LINE
  5
7DEC
  8
1
 10
2409.8904563786618
 20
4075.76081393715
 30
0.0
 11
2409.8904563786632
 21
4097.7608139371487
 31
0.0
  0
LINE
  5
7DED
  8
1
 10
2479.8904563786632
 20
4075.76081393715
 30
0.0
 11
2479.8904563786632
 21
4097.7608139371487
 31
0.0
  0
LINE
  5
7DEE
  8
1
 10
1871.890456378663
 20
4012.7608139371491
 30
0.0
 11
1871.890456378663
 21
4075.76081393715
 31
0.0
  0
LINE
  5
7DEF
  8
1
 10
2374.8904563786632
 20
4012.7608139371491
 30
0.0
 11
2374.8904563786632
 21
4075.76081393715
 31
0.0
  0
LINE
  5
7DF0
  8
1
 10
2479.8904563786632
 20
4097.7608139371487
 30
0.0
 11
2409.8904563786632
 21
4097.7608139371487
 31
0.0
  0
LINE
  5
7DF1
  8
1
 10
1699.890456378663
 20
4075.76081393715
 30
0.0
 11
1699.890456378663
 21
4095.7608139371491
 31
0.0
  0
LINE
  5
7DF2
  8
1
 10
1789.890456378663
 20
4075.76081393715
 30
0.0
 11
1789.890456378663
 21
4095.7608139371491
 31
0.0
  0
LINE
  5
7DF3
  8
1
 10
1723.890456378663
 20
4039.7608139371491
 30
0.0
 11
1723.890456378663
 21
4095.76081393715
 31
0.0
  0
LINE
  5
7DF4
  8
1
 10
1765.890456378663
 20
4039.7608139371491
 30
0.0
 11
1765.890456378663
 21
4095.76081393715
 31
0.0
  0
LINE
  5
7DF5
  8
1
 10
1765.890456378663
 20
4039.7608139371491
 30
0.0
 11
1723.890456378663
 21
4039.7608139371491
 31
0.0
  0
LINE
  5
7DF6
  8
1
 10
1789.890456378663
 20
4095.7608139371491
 30
0.0
 11
1699.890456378663
 21
4095.7608139371491
 31
0.0
  0
LINE
  5
7DF7
  8
1
 10
1617.890456378663
 20
4012.7608139371491
 30
0.0
 11
1617.890456378663
 21
4075.76081393715
 31
0.0
  0
LINE
  5
7DF8
  8
1
 10
1524.890456378663
 20
3992.7608139371491
 30
0.0
 11
1524.8904563786621
 21
4114.7608139371496
 31
0.0
  0
LINE
  5
7DF9
  8
1
 10
2302.8904563786618
 20
4531.2608139371496
 30
0.0
 11
2302.8904563786632
 21
4131.2608139371487
 31
0.0
  0
LINE
  5
7DFA
  8
1
 10
2586.8904563786632
 20
4531.2608139371496
 30
0.0
 11
2586.8904563786632
 21
4131.2608139371496
 31
0.0
  0
LINE
  5
7DFB
  8
1
 10
2425.8904563786632
 20
4131.2608139371487
 30
0.0
 11
2425.8904563786632
 21
4097.7608139371487
 31
0.0
  0
LINE
  5
7DFC
  8
1
 10
2463.8904563786632
 20
4131.2608139371487
 30
0.0
 11
2463.8904563786632
 21
4097.7608139371487
 31
0.0
  0
LINE
  5
7DFD
  8
1
 10
2586.8904563786632
 20
4531.2608139371496
 30
0.0
 11
2302.8904563786618
 21
4531.2608139371496
 31
0.0
  0
LINE
  5
7DFE
  8
1
 10
2586.8904563786632
 20
4131.2608139371487
 30
0.0
 11
2302.8904563786632
 21
4131.2608139371487
 31
0.0
  0
INSERT
  5
7DFF
  8
0
  2
YA_N
 10
6923.8460606765784
 20
805.43795175788807
 30
0.0
  0
INSERT
  5
7E00
  8
0
  2
YA_N
 10
6923.8460606765784
 20
805.43795175788807
 30
0.0
  0
INSERT
  5
7E01
  8
0
  2
YA_N
 10
6923.8460606765784
 20
805.43795175788807
 30
0.0
  0
INSERT
  5
7E02
  8
0
  2
YA_N
 10
7037.8460606765784
 20
900.43795175788807
 30
0.0
 41
20.0
 42
20.0
 43
20.0
  0
INSERT
  5
7E03
  8
0
  2
YA_N
 10
10765.321980837871
 20
2986.1673276095139
 30
0.0
  0
INSERT
  5
7E04
  8
0
  2
YA_N
 10
10765.321980837871
 20
2986.1673276095139
 30
0.0
  0
INSERT
  5
7E05
  8
0
  2
YA_N
 10
11004.40127034527
 20
4775.2842128975763
 30
0.0
  0
INSERT
  5
7E06
  8
0
  2
YA_N
 10
11004.40127034527
 20
4775.2842128975763
 30
0.0
  0
INSERT
  5
7E07
  8
0
  2
YA_N
 10
11763.35292755091
 20
6341.6397817303177
 30
0.0
  0
INSERT
  5
7E08
  8
0
  2
YA_N
 10
7037.8460606765784
 20
900.43795175788807
 30
0.0
 41
20.0
 42
20.0
 43
20.0
  0
INSERT
  5
7E09
  8
0
  2
YA_N
 10
7037.8460606765784
 20
900.43795175788807
 30
0.0
 41
20.0
 42
20.0
 43
20.0
  0
INSERT
  5
7E0E
  8
0
  2
YA_N
 10
7037.8460606765784
 20
900.43795175788807
 30
0.0
 41
20.0
 42
20.0
 43
20.0
  0
INSERT
  5
7E13
  8
0
  2
YA_N
 10
7037.8460606765784
 20
900.43795175788807
 30
0.0
 41
20.0
 42
20.0
 43
20.0
  0
INSERT
  5
7E14
  8
0
  2
YA_N
 10
7037.8460606765784
 20
900.43795175788807
 30
0.0
 41
20.0
 42
20.0
 43
20.0
  0
INSERT
  5
7E15
  8
0
  2
YA_N
 10
7037.8460606765784
 20
900.43795175788807
 30
0.0
 41
20.0
 42
20.0
 43
20.0
  0
INSERT
  5
7E1A
  8
0
  2
YA_N
 10
6738.0125585388378
 20
628.53757626626862
 30
0.0
 41
1.538461538
 42
1.538461538
 43
1.538461538
  0
INSERT
  5
7E1B
  8
0
  2
YA_N
 10
6947.0768324185783
 20
828.13026122388715
 30
0.0
 41
1.538461538
 42
1.538461538
 43
1.538461538
  0
INSERT
  5
7E1C
  8
0
  2
YA_N
 10
6947.0768324185783
 20
828.13026122388715
 30
0.0
 41
1.538461538
 42
1.538461538
 43
1.538461538
  0
INSERT
  5
7E1D
  8
0
  2
YA_N
 10
6947.0768324185783
 20
828.13026122388715
 30
0.0
 41
1.538461538
 42
1.538461538
 43
1.538461538
  0
INSERT
  5
7E1E
  8
0
  2
YA_N
 10
6947.0768324185783
 20
828.13026122388715
 30
0.0
 41
1.538461538
 42
1.538461538
 43
1.538461538
  0
INSERT
  5
7E1F
  8
0
  2
YA_N
 10
6947.0768324185783
 20
828.13026122388715
 30
0.0
 41
1.538461538
 42
1.538461538
 43
1.538461538
  0
INSERT
  5
7E20
  8
0
  2
YA_N
 10
7682.5307971424691
 20
5442.2586385379991
 30
0.0
 41
1.538461538
 42
1.538461538
 43
1.538461538
  0
INSERT
  5
7E21
  8
0
  2
YA_N
 10
13378.597074268941
 20
5398.44323199274
 30
0.0
 41
1.538461538
 42
1.538461538
 43
1.538461538
  0
INSERT
  5
7E22
  8
0
  2
YA_N
 10
13378.597074268941
 20
5398.44323199274
 30
0.0
 41
1.538461538
 42
1.538461538
 43
1.538461538
  0
INSERT
  5
7E23
  8
0
  2
YA_N
 10
13378.597074268941
 20
5398.44323199274
 30
0.0
 41
1.538461538
 42
1.538461538
 43
1.538461538
  0
INSERT
  5
7E24
  8
0
  2
YA_N
 10
13378.597074268941
 20
5398.44323199274
 30
0.0
 41
1.538461538
 42
1.538461538
 43
1.538461538
  0
INSERT
  5
7E25
  8
0
  2
YA_N
 10
17063.058326359089
 20
8581.3467876529685
 30
0.0
 41
1.538461538
 42
1.538461538
 43
1.538461538
  0
INSERT
  5
7E26
  8
0
  2
YA_N
 10
17063.058326359089
 20
8581.3467876529685
 30
0.0
 41
1.538461538
 42
1.538461538
 43
1.538461538
  0
INSERT
  5
7E27
  8
0
  2
YA_N
 10
12278.476405425299
 20
4683.4786947544817
 30
0.0
 41
1.538461538
 42
1.538461538
 43
1.538461538
  0
INSERT
  5
7E28
  8
0
  2
YA_N
 10
5916.8350434878248
 20
-188.12749960468491
 30
0.0
 41
1.538461538
 42
1.538461538
 43
1.538461538
  0
INSERT
  5
7E29
  8
0
  2
YA_N
 10
7057.8460631545777
 20
920.43795350388712
 30
0.0
 41
19.999999994
 42
19.999999994
 43
19.999999994
  0
INSERT
  5
7E2B
  8
0
  2
YA_N
 10
7057.8460631545777
 20
920.43795350388712
 30
0.0
 41
19.999999994
 42
19.999999994
 43
19.999999994
  0
INSERT
  5
7E30
  8
0
  2
YA_N
 10
7057.8460631545777
 20
920.43795350388712
 30
0.0
 41
19.999999994
 42
19.999999994
 43
19.999999994
  0
INSERT
  5
7E31
  8
0
  2
YA_N
 10
7057.8460631545777
 20
920.43795350388712
 30
0.0
 41
19.999999994
 42
19.999999994
 43
19.999999994
  0
INSERT
  5
7E32
  8
0
  2
YA_N
 10
7057.8460631545777
 20
920.43795350388712
 30
0.0
 41
19.999999994
 42
19.999999994
 43
19.999999994
  0
INSERT
  5
7E37
  8
0
  2
YA_N
 10
6738.0125585388378
 20
628.53757626626862
 30
0.0
 41
1.538461538
 42
1.538461538
 43
1.538461538
  0
INSERT
  5
7E38
  8
0
  2
YA_N
 10
6947.0768324185783
 20
828.13026122388715
 30
0.0
 41
1.538461538
 42
1.538461538
 43
1.538461538
  0
INSERT
  5
7E39
  8
0
  2
YA_N
 10
6947.0768324185783
 20
828.13026122388715
 30
0.0
 41
1.538461538
 42
1.538461538
 43
1.538461538
  0
INSERT
  5
7E3A
  8
0
  2
YA_N
 10
6947.0768324185783
 20
828.13026122388715
 30
0.0
 41
1.538461538
 42
1.538461538
 43
1.538461538
  0
INSERT
  5
7E3B
  8
0
  2
YA_N
 10
6947.0768324185783
 20
828.13026122388715
 30
0.0
 41
1.538461538
 42
1.538461538
 43
1.538461538
  0
INSERT
  5
7E3C
  8
0
  2
YA_N
 10
6947.0768324185783
 20
828.13026122388715
 30
0.0
 41
1.538461538
 42
1.538461538
 43
1.538461538
  0
INSERT
  5
7E3D
  8
0
  2
YA_N
 10
7682.5307971424691
 20
5442.2586385379991
 30
0.0
 41
1.538461538
 42
1.538461538
 43
1.538461538
  0
INSERT
  5
7E3E
  8
0
  2
YA_N
 10
13378.597074268941
 20
5398.44323199274
 30
0.0
 41
1.538461538
 42
1.538461538
 43
1.538461538
  0
INSERT
  5
7E3F
  8
0
  2
YA_N
 10
13378.597074268941
 20
5398.44323199274
 30
0.0
 41
1.538461538
 42
1.538461538
 43
1.538461538
  0
INSERT
  5
7E40
  8
0
  2
YA_N
 10
13378.597074268941
 20
5398.44323199274
 30
0.0
 41
1.538461538
 42
1.538461538
 43
1.538461538
  0
INSERT
  5
7E41
  8
0
  2
YA_N
 10
13378.597074268941
 20
5398.44323199274
 30
0.0
 41
1.538461538
 42
1.538461538
 43
1.538461538
  0
INSERT
  5
7E42
  8
0
  2
YA_N
 10
17063.058326359089
 20
8581.3467876529685
 30
0.0
 41
1.538461538
 42
1.538461538
 43
1.538461538
  0
INSERT
  5
7E43
  8
0
  2
YA_N
 10
17063.058326359089
 20
8581.3467876529685
 30
0.0
 41
1.538461538
 42
1.538461538
 43
1.538461538
  0
INSERT
  5
7E44
  8
0
  2
YA_N
 10
12278.476405425299
 20
4683.4786947544817
 30
0.0
 41
1.538461538
 42
1.538461538
 43
1.538461538
  0
INSERT
  5
7E45
  8
0
  2
YA_N
 10
5916.8350434878248
 20
-188.12749960468491
 30
0.0
 41
1.538461538
 42
1.538461538
 43
1.538461538
  0
INSERT
  5
7E46
  8
0
  2
YA_N
 10
7057.8460631545777
 20
920.43795350388712
 30
0.0
 41
19.999999994
 42
19.999999994
 43
19.999999994
  0
INSERT
  5
7E48
  8
0
  2
YA_N
 10
7057.8460631545777
 20
920.43795350388712
 30
0.0
 41
19.999999994
 42
19.999999994
 43
19.999999994
  0
INSERT
  5
7E4D
  8
0
  2
YA_N
 10
7057.8460631545777
 20
920.43795350388712
 30
0.0
 41
19.999999994
 42
19.999999994
 43
19.999999994
  0
INSERT
  5
7E4E
  8
0
  2
YA_N
 10
7057.8460631545777
 20
920.43795350388712
 30
0.0
 41
19.999999994
 42
19.999999994
 43
19.999999994
  0
INSERT
  5
7E4F
  8
0
  2
YA_N
 10
7057.8460631545777
 20
920.43795350388712
 30
0.0
 41
19.999999994
 42
19.999999994
 43
19.999999994
  0
LINE
  5
7E54
  8
1
 10
1354.8904563786641
 20
4757.2608139371514
 30
0.0
 11
1354.890456378663
 21
5232.2608139371487
 31
0.0
  0
INSERT
  5
7E55
  8
0
  2
YA_N
 10
7600.1983456950138
 20
195.22345855735139
 30
0.0
  0
INSERT
  5
7E56
  8
0
  2
YA_N
 10
7600.1983456950138
 20
195.22345855735139
 30
0.0
  0
INSERT
  5
7E57
  8
0
  2
YA_N
 10
7600.1983456950138
 20
195.22345855735139
 30
0.0
  0
LINE
  5
7E5F
  8
1
 10
2410.6453877143431
 20
2220.5504515720199
 30
0.0
 11
1682.760117516252
 21
2628.8371565094362
 31
0.0
  0
LINE
  5
7E60
  8
1
 10
2487.1182163503422
 20
2337.4303206663399
 30
0.0
 11
1821.503678041563
 21
2840.8906332948459
 31
0.0
  0
LINE
  5
7E61
  8
1
 10
2373.5559900890421
 20
2149.6496255071502
 30
0.0
 11
1640.2665724872179
 21
2546.0719130152811
 31
0.0
  0
LINE
  5
7E62
  8
1
 10
2537.2320050560629
 20
2399.8094737100191
 30
0.0
 11
1880.3247277721809
 21
2912.9730237128219
 31
0.0
  0
LINE
  5
7E63
  8
2
 10
1744.890456378663
 20
2029.6018665611571
 30
0.0
 11
1744.890456378663
 21
3176.9436332174009
 31
0.0
  0
LINE
  5
7E64
  8
1
 10
1494.890456378665
 20
2029.6018665611571
 30
0.0
 11
1494.890456378665
 21
2104.6018665611568
 31
0.0
  0
LINE
  5
7E65
  8
1
 10
1994.890456378663
 20
2676.4018665611561
 30
0.0
 11
1494.890456378665
 21
2676.4018665611561
 31
0.0
  0
LINE
  5
7E66
  8
1
 10
2644.8904563786632
 20
2029.6018665611571
 30
0.0
 11
1494.890456378665
 21
2029.6018665611571
 31
0.0
  0
LINE
  5
7E67
  8
1
 10
2644.8904563786632
 20
2104.6018665611568
 30
0.0
 11
1494.890456378665
 21
2104.6018665611568
 31
0.0
  0
LINE
  5
7E68
  8
1
 10
2644.8904563786632
 20
2029.6018665611571
 30
0.0
 11
2644.8904563786632
 21
2104.6018665611568
 31
0.0
  0
LINE
  5
7E69
  8
1
 10
1964.890456378663
 20
2104.6018665611568
 30
0.0
 11
1964.890456378663
 21
2676.4018665611561
 31
0.0
  0
LINE
  5
7E6A
  8
1
 10
1524.890456378665
 20
2104.6018665611568
 30
0.0
 11
1524.890456378663
 21
2676.4018665611561
 31
0.0
  0
LINE
  5
7E6B
  8
1
 10
1379.890456378663
 20
2617.4018665611579
 30
0.0
 11
1524.890456378663
 21
2617.4018665611579
 31
0.0
  0
LINE
  5
7E6C
  8
1
 10
1379.890456378663
 20
2608.4018665611579
 30
0.0
 11
1524.890456378663
 21
2608.4018665611579
 31
0.0
  0
LINE
  5
7E6D
  8
1
 10
1964.890456378663
 20
2608.4018665611579
 30
0.0
 11
2221.27193752937
 21
2608.4018665611579
 31
0.0
  0
LINE
  5
7E6E
  8
1
 10
1964.890456378663
 20
2617.4018665611579
 30
0.0
 11
2221.2719375293718
 21
2617.4018665611579
 31
0.0
  0
CIRCLE
  5
7E6F
  8
1
 10
2444.8904563786632
 20
2281.6018665611568
 30
0.0
 40
70.0
  0
CIRCLE
  5
7E70
  8
1
 10
1744.890456378663
 20
2739.6018665611568
 30
0.0
 40
127.0
  0
ARC
  5
7E71
  8
1
 10
1744.890456378663
 20
2739.6018665611568
 30
0.0
 40
220.0
 50
52.003719049759603
 51
241.60397969551821
  0
ARC
  5
7E72
  8
1
 10
2444.8904563786632
 20
2281.6018665611568
 30
0.0
 40
150.0
 50
241.60397969551821
 51
52.00371904975956
  0
INSERT
  5
7E73
  8
0
  2
YA_N
 10
7714.1983456950138
 20
290.22345855735142
 30
0.0
 41
20.0
 42
20.0
 43
20.0
  0
INSERT
  5
7E74
  8
0
  2
YA_N
 10
11441.6742658563
 20
2375.9528344089772
 30
0.0
  0
INSERT
  5
7E75
  8
0
  2
YA_N
 10
11441.6742658563
 20
2375.9528344089772
 30
0.0
  0
INSERT
  5
7E76
  8
0
  2
YA_N
 10
11680.753555363701
 20
4165.0697196970386
 30
0.0
  0
INSERT
  5
7E77
  8
0
  2
YA_N
 10
11680.753555363701
 20
4165.0697196970386
 30
0.0
  0
INSERT
  5
7E78
  8
0
  2
YA_N
 10
12439.705212569341
 20
5731.4252885297819
 30
0.0
  0
LINE
  5
7E79
  8
2
 10
2252.2367732162852
 20
2739.6018665611568
 30
0.0
 11
1321.220374897671
 21
2739.6018665611568
 31
0.0
  0
LINE
  5
7E7C
  8
1
 10
2574.8904563786641
 20
2149.6018665611568
 30
0.0
 11
2524.8904563786632
 21
2149.6018665611568
 31
0.0
  0
LINE
  5
7E7D
  8
1
 10
2574.8904563786641
 20
2149.6018665611568
 30
0.0
 11
2574.8904563786641
 21
2164.6018665611568
 31
0.0
  0
LINE
  5
7E7E
  8
1
 10
2574.8904563786641
 20
2164.6018665611568
 30
0.0
 11
2526.236937556399
 21
2164.6018665611568
 31
0.0
  0
LINE
  5
7E7F
  8
1
 10
2524.8904563786632
 20
2163.6771024104501
 30
0.0
 11
2524.8904563786632
 21
2149.6018665611568
 31
0.0
  0
LINE
  5
7E80
  8
1
 10
2508.2896848408618
 20
2153.982166552119
 30
0.0
 11
2381.4912279164619
 21
2153.982166552119
 31
0.0
  0
LINE
  5
7E81
  8
1
 10
2574.8904563786641
 20
2164.6018665611568
 30
0.0
 11
2560.8611787988061
 21
2198.794611194553
 31
0.0
  0
LINE
  5
7E82
  8
1
 10
2314.8904563786632
 20
2164.6018665611568
 30
0.0
 11
2328.9197339585212
 21
2198.794611194553
 31
0.0
  0
LINE
  5
7E83
  8
1
 10
2364.8904563786632
 20
2163.6771024104501
 30
0.0
 11
2364.8904563786632
 21
2149.6018665611568
 31
0.0
  0
LINE
  5
7E84
  8
1
 10
2314.8904563786632
 20
2164.6018665611568
 30
0.0
 11
2363.5439752009288
 21
2164.6018665611568
 31
0.0
  0
LINE
  5
7E85
  8
1
 10
2314.8904563786632
 20
2149.6018665611568
 30
0.0
 11
2314.8904563786632
 21
2164.6018665611568
 31
0.0
  0
LINE
  5
7E86
  8
1
 10
2314.8904563786632
 20
2149.6018665611568
 30
0.0
 11
2364.8904563786632
 21
2149.6018665611568
 31
0.0
  0
LINE
  5
7E87
  8
2
 10
2668.403091427193
 20
2281.6018665611568
 30
0.0
 11
2292.3904563786632
 21
2281.6018665611568
 31
0.0
  0
ARC
  5
7E88
  8
1
 10
2444.8904563786632
 20
2281.6018665611568
 30
0.0
 40
142.0
 50
296.41738025990082
 51
243.58261974009909
  0
CIRCLE
  5
7E89
  8
1
 10
2444.8904563786632
 20
2281.6018665611568
 30
0.0
 40
19.0
  0
LINE
  5
7E8A
  8
2
 10
2444.8904563786632
 20
2094.5994397082791
 30
0.0
 11
2444.8904563786632
 21
2434.1018665611568
 31
0.0
  0
POLYLINE
  5
7E8D
  8
1
 66
     1
 10
0.0
 20
0.0
 30
0.0
 70
     1
  0
VERTEX
  5
82B8
  8
1
 10
2619.8904563786641
 20
2104.6018665611568
 30
0.0
  0
VERTEX
  5
82B9
  8
1
 10
2269.8904563786632
 20
2104.6018665611568
 30
0.0
  0
VERTEX
  5
82BA
  8
1
 10
2279.8904563786632
 20
2149.6018665611568
 30
0.0
  0
VERTEX
  5
82BB
  8
1
 10
2609.8904563786632
 20
2149.6018665611568
 30
0.0
  0
SEQEND
  5
82BC
  8
1
  0
INSERT
  5
7E93
  8
0
  2
YA_N
 10
7714.1983456950138
 20
290.22345855735142
 30
0.0
 41
20.0
 42
20.0
 43
20.0
  0
INSERT
  5
7E94
  8
0
  2
YA_N
 10
7714.1983456950138
 20
290.22345855735142
 30
0.0
 41
20.0
 42
20.0
 43
20.0
  0
INSERT
  5
7E99
  8
0
  2
YA_N
 10
7714.1983456950138
 20
290.22345855735142
 30
0.0
 41
20.0
 42
20.0
 43
20.0
  0
INSERT
  5
7E9E
  8
0
  2
YA_N
 10
7714.1983456950138
 20
290.22345855735142
 30
0.0
 41
20.0
 42
20.0
 43
20.0
  0
INSERT
  5
7E9F
  8
0
  2
YA_N
 10
7714.1983456950138
 20
290.22345855735142
 30
0.0
 41
20.0
 42
20.0
 43
20.0
  0
INSERT
  5
7EA0
  8
0
  2
YA_N
 10
7714.1983456950138
 20
290.22345855735142
 30
0.0
 41
20.0
 42
20.0
 43
20.0
  0
ARC
  5
7EA5
  8
1
 10
1702.890456378665
 20
2697.6018665611568
 30
0.0
 40
526.0
 50
299.87430105068341
 51
0.0
  0
ARC
  5
7EA6
  8
1
 10
1786.890456378665
 20
2697.6018665611568
 30
0.0
 40
442.0
 50
0.0
 51
90.610438124516506
  0
ARC
  5
7EA7
  8
1
 10
1777.890456378663
 20
2772.6018665611568
 30
0.0
 40
367.0
 50
89.330084275704195
 51
180.00000000000071
  0
ARC
  5
7EA8
  8
1
 10
1711.890456378665
 20
2772.6018665611559
 30
0.0
 40
301.0
 50
180.0000000000006
 51
190.1414980837842
  0
LINE
  5
7EA9
  8
1
 10
1354.890456378663
 20
2139.6018665611568
 30
0.0
 11
1354.890456378663
 21
2719.6018665611582
 31
0.0
  0
LINE
  5
7EAA
  8
1
 10
1415.593308231742
 20
2719.6018665611568
 30
0.0
 11
1379.890456378663
 21
2719.6018665611568
 31
0.0
  0
LINE
  5
7EAB
  8
1
 10
1379.890456378663
 20
2139.6018665611568
 30
0.0
 11
1379.890456378663
 21
2719.6018665611582
 31
0.0
  0
LINE
  5
7EAC
  8
1
 10
1379.890456378663
 20
2139.6018665611568
 30
0.0
 11
1524.890456378665
 21
2152.9663403885488
 31
0.0
  0
POLYLINE
  5
7EAD
  8
1
 66
     1
 10
0.0
 20
0.0
 30
0.0
 70
     1
  0
VERTEX
  5
82BD
  8
1
 10
1354.890456378663
 20
2139.6018665611568
 30
0.0
  0
VERTEX
  5
82BE
  8
1
 10
1354.890456378663
 20
2114.6018665611568
 30
0.0
  0
VERTEX
  5
82BF
  8
1
 10
1355.890456378663
 20
2114.6018665611568
 30
0.0
 42
0.4142135623730951
  0
VERTEX
  5
82C0
  8
1
 10
1357.890456378663
 20
2116.6018665611568
 30
0.0
  0
VERTEX
  5
82C1
  8
1
 10
1357.890456378663
 20
2132.6018665611568
 30
0.0
 42
-0.4142135623730951
  0
VERTEX
  5
82C2
  8
1
 10
1361.890456378663
 20
2136.6018665611568
 30
0.0
  0
VERTEX
  5
82C3
  8
1
 10
1377.890456378663
 20
2136.6018665611568
 30
0.0
 42
0.4142135623730951
  0
VERTEX
  5
82C4
  8
1
 10
1379.890456378663
 20
2138.6018665611568
 30
0.0
  0
VERTEX
  5
82C5
  8
1
 10
1379.890456378663
 20
2139.6018665611568
 30
0.0
  0
SEQEND
  5
82C6
  8
1
  0
POLYLINE
  5
7EB8
  8
1
 66
     1
 10
0.0
 20
0.0
 30
0.0
 70
     1
  0
VERTEX
  5
82C7
  8
1
 10
1354.890456378663
 20
2719.6018665611582
 30
0.0
  0
VERTEX
  5
82C8
  8
1
 10
1354.890456378663
 20
2744.6018665611582
 30
0.0
  0
VERTEX
  5
82C9
  8
1
 10
1355.890456378663
 20
2744.6018665611582
 30
0.0
 42
-0.4142135623730951
  0
VERTEX
  5
82CA
  8
1
 10
1357.890456378663
 20
2742.6018665611582
 30
0.0
  0
VERTEX
  5
82CB
  8
1
 10
1357.890456378663
 20
2726.6018665611582
 30
0.0
 42
0.4142135623730951
  0
VERTEX
  5
82CC
  8
1
 10
1361.890456378663
 20
2722.6018665611582
 30
0.0
  0
VERTEX
  5
82CD
  8
1
 10
1377.890456378663
 20
2722.6018665611582
 30
0.0
 42
-0.4142135623730951
  0
VERTEX
  5
82CE
  8
1
 10
1379.890456378663
 20
2720.6018665611582
 30
0.0
  0
VERTEX
  5
82CF
  8
1
 10
1379.890456378663
 20
2719.6018665611582
 30
0.0
  0
SEQEND
  5
82D0
  8
1
  0
LINE
  5
7EC3
  8
1
 10
2221.2719375293718
 20
2608.4018665611579
 30
0.0
 11
2221.2719375293718
 21
2617.4018665611579
 31
0.0
  0
DIMENSION
  5
7EC4
  8
3
  2
*D10
 10
1744.890456378663
 20
3247.4505006914992
 30
0.0
 11
1549.890456378663
 21
3297.4505006914978
 31
0.0
 12
-1581.3867822224629
 22
1580.17830222049
 32
0.0
 70
     0
 13
1354.890456378663
 23
2744.6018665611582
 33
0.0
 14
1744.890456378663
 24
3176.9436332174009
 34
0.0
1001
ACAD
1000
DSTYLE
1002
{
1070
    40
1040
25.0
1002
}
  0
INSERT
  5
7EC5
  8
0
  2
YA_N
 10
7414.3648435572759
 20
18.3230830657319
 30
0.0
 41
1.538461538
 42
1.538461538
 43
1.538461538
  0
INSERT
  5
7EC6
  8
0
  2
YA_N
 10
7623.4291174370137
 20
217.9157680233503
 30
0.0
 41
1.538461538
 42
1.538461538
 43
1.538461538
  0
INSERT
  5
7EC7
  8
0
  2
YA_N
 10
7623.4291174370137
 20
217.9157680233503
 30
0.0
 41
1.538461538
 42
1.538461538
 43
1.538461538
  0
INSERT
  5
7EC8
  8
0
  2
YA_N
 10
7623.4291174370137
 20
217.9157680233503
 30
0.0
 41
1.538461538
 42
1.538461538
 43
1.538461538
  0
INSERT
  5
7EC9
  8
0
  2
YA_N
 10
7623.4291174370137
 20
217.9157680233503
 30
0.0
 41
1.538461538
 42
1.538461538
 43
1.538461538
  0
INSERT
  5
7ECA
  8
0
  2
YA_N
 10
7623.4291174370137
 20
217.9157680233503
 30
0.0
 41
1.538461538
 42
1.538461538
 43
1.538461538
  0
INSERT
  5
7ECB
  8
0
  2
YA_N
 10
8358.8830821609063
 20
4832.0441453374606
 30
0.0
 41
1.538461538
 42
1.538461538
 43
1.538461538
  0
INSERT
  5
7ECC
  8
0
  2
YA_N
 10
14054.949359287381
 20
4788.2287387922042
 30
0.0
 41
1.538461538
 42
1.538461538
 43
1.538461538
  0
INSERT
  5
7ECD
  8
0
  2
YA_N
 10
14054.949359287381
 20
4788.2287387922042
 30
0.0
 41
1.538461538
 42
1.538461538
 43
1.538461538
  0
INSERT
  5
7ECE
  8
0
  2
YA_N
 10
14054.949359287381
 20
4788.2287387922042
 30
0.0
 41
1.538461538
 42
1.538461538
 43
1.538461538
  0
INSERT
  5
7ECF
  8
0
  2
YA_N
 10
14054.949359287381
 20
4788.2287387922042
 30
0.0
 41
1.538461538
 42
1.538461538
 43
1.538461538
  0
INSERT
  5
7ED0
  8
0
  2
YA_N
 10
17739.410611377531
 20
7971.1322944524309
 30
0.0
 41
1.538461538
 42
1.538461538
 43
1.538461538
  0
INSERT
  5
7ED1
  8
0
  2
YA_N
 10
17739.410611377531
 20
7971.1322944524309
 30
0.0
 41
1.538461538
 42
1.538461538
 43
1.538461538
  0
INSERT
  5
7ED2
  8
0
  2
YA_N
 10
12954.828690443739
 20
4073.264201553945
 30
0.0
 41
1.538461538
 42
1.538461538
 43
1.538461538
  0
INSERT
  5
7ED3
  8
0
  2
YA_N
 10
6593.187328506262
 20
-798.34199280522159
 30
0.0
 41
1.538461538
 42
1.538461538
 43
1.538461538
  0
INSERT
  5
7ED4
  8
0
  2
YA_N
 10
7734.1983481730149
 20
310.22346030335041
 30
0.0
 41
19.999999994
 42
19.999999994
 43
19.999999994
  0
INSERT
  5
7ED6
  8
0
  2
YA_N
 10
7734.1983481730149
 20
310.22346030335041
 30
0.0
 41
19.999999994
 42
19.999999994
 43
19.999999994
  0
INSERT
  5
7EDB
  8
0
  2
YA_N
 10
7734.1983481730149
 20
310.22346030335041
 30
0.0
 41
19.999999994
 42
19.999999994
 43
19.999999994
  0
INSERT
  5
7EDC
  8
0
  2
YA_N
 10
7734.1983481730149
 20
310.22346030335041
 30
0.0
 41
19.999999994
 42
19.999999994
 43
19.999999994
  0
INSERT
  5
7EDD
  8
0
  2
YA_N
 10
7734.1983481730149
 20
310.22346030335041
 30
0.0
 41
19.999999994
 42
19.999999994
 43
19.999999994
  0
INSERT
  5
7EE2
  8
0
  2
YA_N
 10
7414.3648435572759
 20
18.3230830657319
 30
0.0
 41
1.538461538
 42
1.538461538
 43
1.538461538
  0
INSERT
  5
7EE3
  8
0
  2
YA_N
 10
7623.4291174370137
 20
217.9157680233503
 30
0.0
 41
1.538461538
 42
1.538461538
 43
1.538461538
  0
INSERT
  5
7EE4
  8
0
  2
YA_N
 10
7623.4291174370137
 20
217.9157680233503
 30
0.0
 41
1.538461538
 42
1.538461538
 43
1.538461538
  0
INSERT
  5
7EE5
  8
0
  2
YA_N
 10
7623.4291174370137
 20
217.9157680233503
 30
0.0
 41
1.538461538
 42
1.538461538
 43
1.538461538
  0
INSERT
  5
7EE6
  8
0
  2
YA_N
 10
7623.4291174370137
 20
217.9157680233503
 30
0.0
 41
1.538461538
 42
1.538461538
 43
1.538461538
  0
INSERT
  5
7EE7
  8
0
  2
YA_N
 10
7623.4291174370137
 20
217.9157680233503
 30
0.0
 41
1.538461538
 42
1.538461538
 43
1.538461538
  0
INSERT
  5
7EE8
  8
0
  2
YA_N
 10
8358.8830821609063
 20
4832.0441453374606
 30
0.0
 41
1.538461538
 42
1.538461538
 43
1.538461538
  0
INSERT
  5
7EE9
  8
0
  2
YA_N
 10
14054.949359287381
 20
4788.2287387922042
 30
0.0
 41
1.538461538
 42
1.538461538
 43
1.538461538
  0
INSERT
  5
7EEA
  8
0
  2
YA_N
 10
14054.949359287381
 20
4788.2287387922042
 30
0.0
 41
1.538461538
 42
1.538461538
 43
1.538461538
  0
INSERT
  5
7EEB
  8
0
  2
YA_N
 10
14054.949359287381
 20
4788.2287387922042
 30
0.0
 41
1.538461538
 42
1.538461538
 43
1.538461538
  0
INSERT
  5
7EEC
  8
0
  2
YA_N
 10
14054.949359287381
 20
4788.2287387922042
 30
0.0
 41
1.538461538
 42
1.538461538
 43
1.538461538
  0
INSERT
  5
7EED
  8
0
  2
YA_N
 10
17739.410611377531
 20
7971.1322944524309
 30
0.0
 41
1.538461538
 42
1.538461538
 43
1.538461538
  0
INSERT
  5
7EEE
  8
0
  2
YA_N
 10
17739.410611377531
 20
7971.1322944524309
 30
0.0
 41
1.538461538
 42
1.538461538
 43
1.538461538
  0
INSERT
  5
7EEF
  8
0
  2
YA_N
 10
12954.828690443739
 20
4073.264201553945
 30
0.0
 41
1.538461538
 42
1.538461538
 43
1.538461538
  0
INSERT
  5
7EF0
  8
0
  2
YA_N
 10
6593.187328506262
 20
-798.34199280522159
 30
0.0
 41
1.538461538
 42
1.538461538
 43
1.538461538
  0
INSERT
  5
7EF1
  8
0
  2
YA_N
 10
7734.1983481730149
 20
310.22346030335041
 30
0.0
 41
19.999999994
 42
19.999999994
 43
19.999999994
  0
INSERT
  5
7EF3
  8
0
  2
YA_N
 10
7734.1983481730149
 20
310.22346030335041
 30
0.0
 41
19.999999994
 42
19.999999994
 43
19.999999994
  0
INSERT
  5
7EF8
  8
0
  2
YA_N
 10
7734.1983481730149
 20
310.22346030335041
 30
0.0
 41
19.999999994
 42
19.999999994
 43
19.999999994
  0
INSERT
  5
7EF9
  8
0
  2
YA_N
 10
7734.1983481730149
 20
310.22346030335041
 30
0.0
 41
19.999999994
 42
19.999999994
 43
19.999999994
  0
INSERT
  5
7EFA
  8
0
  2
YA_N
 10
7734.1983481730149
 20
310.22346030335041
 30
0.0
 41
19.999999994
 42
19.999999994
 43
19.999999994
  0
DIMENSION
  5
7EFF
  8
3
  2
*D11
 10
1032.277297884182
 20
2029.6018665611571
 30
0.0
 11
982.27729788418219
 21
2384.6018665611568
 31
0.0
 12
-1581.3867822224629
 22
1580.17830222049
 32
0.0
 70
     0
 13
1321.220374897671
 23
2739.6018665611568
 33
0.0
 14
1494.890456378665
 24
2029.6018665611571
 34
0.0
 50
90.0
1001
ACAD
1000
DSTYLE
1002
{
1070
    40
1040
25.0
1002
}
  0
DIMENSION
  5
7F00
  8
3
  2
*D12
 10
2228.8904563786641
 20
3247.4505006914992
 30
0.0
 11
1986.890456378663
 21
3297.4505006914978
 31
0.0
 70
     0
 13
1744.890456378663
 23
3176.9436332174009
 33
0.0
 14
2228.8904563786641
 24
2739.6018665611568
 34
0.0
1001
ACAD
1000
DSTYLE
1002
{
1070
   287
1070
     4
1070
    40
1040
25.0
1070
    75
1070
     1
1070
   279
1070
     1
1070
   289
1070
     3
1002
}
  0
DIMENSION
  5
7F01
  8
3
  2
*D13
 10
2644.8904563786632
 20
3429.30729681398
 30
0.0
 11
1999.890456378663
 21
3479.30729681398
 31
0.0
 12
-1581.3867822224629
 22
1580.17830222049
 32
0.0
 70
     0
 13
1354.890456378663
 23
2719.6018665611582
 33
0.0
 14
2644.8904563786632
 24
2104.6018665611568
 34
0.0
1001
ACAD
1000
DSTYLE
1002
{
1070
    40
1040
25.0
1002
}
  0
DIMENSION
  5
7F02
  8
3
  2
*D14
 10
1168.6930574994331
 20
2139.6018665611568
 30
0.0
 11
1118.6930574994331
 21
2439.6018665611568
 31
0.0
 12
-1581.3867822224629
 22
1580.17830222049
 32
0.0
 70
     0
 13
1321.220374897671
 23
2739.6018665611568
 33
0.0
 14
1354.890456378663
 24
2139.6018665611568
 34
0.0
 50
90.0
1001
ACAD
1000
DSTYLE
1002
{
1070
    40
1040
25.0
1002
}
  0
DIMENSION
  5
7F03
  8
3
  2
*D15
 10
1304.266962084992
 20
2139.6018665611568
 30
0.0
 11
1254.266962084992
 21
2429.6018665611568
 31
0.0
 12
-1581.3867822224629
 22
1580.17830222049
 32
0.0
 70
     0
 13
1354.890456378663
 23
2719.6018665611582
 33
0.0
 14
1354.890456378663
 24
2139.6018665611568
 34
0.0
 50
90.0
1001
ACAD
1000
DSTYLE
1002
{
1070
    40
1040
25.0
1002
}
  0
DIMENSION
  5
7F04
  8
3
  2
*D16
 10
1032.277297884182
 20
3139.6018665611568
 30
0.0
 11
982.27729788418162
 21
2939.6018665611582
 31
0.0
 70
     0
 13
1321.220374897671
 23
2739.6018665611568
 33
0.0
 14
1744.890456378663
 24
3139.6018665611568
 34
0.0
 50
90.0
1001
ACAD
1000
DSTYLE
1002
{
1070
   287
1070
     4
1070
    40
1040
25.0
1070
    75
1070
     1
1070
   279
1070
     1
1070
   289
1070
     3
1002
}
  0
LINE
  5
7F08
  8
1
 10
2228.8904563786641
 20
4782.2608139371487
 30
0.0
 11
2228.8904563786632
 21
5207.2608139371496
 31
0.0
  0
LINE
  5
7F09
  8
1
 10
1379.890456378663
 20
4782.2608139371496
 30
0.0
 11
1379.8904563786621
 21
5207.2608139371496
 31
0.0
  0
LINE
  5
7F0A
  8
1
 10
3744.4273714158981
 20
2139.6018665611568
 30
0.0
 11
3744.4273714158981
 21
2423.6018665611582
 31
0.0
  0
LINE
  5
7F0B
  8
1
 10
3344.4273714158981
 20
2139.6018665611568
 30
0.0
 11
3344.4273714158981
 21
2423.6018665611568
 31
0.0
  0
LINE
  5
7F0C
  8
1
 10
3744.4273714158981
 20
2423.6018665611582
 30
0.0
 11
3344.4273714158981
 21
2423.6018665611568
 31
0.0
  0
LINE
  5
7F0D
  8
2
 10
3175.0471297018589
 20
2281.6018665611568
 30
0.0
 11
3785.677286220478
 21
2281.6018665611568
 31
0.0
  0
LINE
  5
7F0E
  8
1
 10
3744.4273714158981
 20
2139.6018665611568
 30
0.0
 11
3344.4273714158981
 21
2139.6018665611568
 31
0.0
  0
LINE
  5
7F11
  8
1
 10
3344.4273714158981
 20
2262.6018665611568
 30
0.0
 11
3288.9273714158981
 21
2262.6018665611568
 31
0.0
  0
LINE
  5
7F12
  8
1
 10
3344.4273714158981
 20
2300.6018665611568
 30
0.0
 11
3288.9273714158981
 21
2300.6018665611568
 31
0.0
  0
LINE
  5
7F13
  8
1
 10
3349.427371415899
 20
2423.6018665611568
 30
0.0
 11
3349.427371415899
 21
2676.401866561157
 31
0.0
  0
LINE
  5
7F14
  8
1
 10
3699.4273714158981
 20
2139.6018665611568
 30
0.0
 11
3699.4273714158981
 21
2104.6018665611568
 31
0.0
  0
LINE
  5
7F15
  8
1
 10
3389.4273714158981
 20
2139.6018665611568
 30
0.0
 11
3389.4273714158981
 21
2104.6018665611568
 31
0.0
  0
LINE
  5
7F16
  8
1
 10
3941.4273714158981
 20
3139.6018665611568
 30
0.0
 11
4371.4273714158981
 21
3139.6018665611568
 31
0.0
  0
LINE
  5
7F17
  8
1
 10
3941.4273714158981
 20
2139.6018665611568
 30
0.0
 11
4371.427371415899
 21
2139.6018665611568
 31
0.0
  0
LINE
  5
7F18
  8
1
 10
3941.4273714158981
 20
2719.6018665611568
 30
0.0
 11
4371.427371415899
 21
2719.6018665611568
 31
0.0
  0
LINE
  5
7F19
  8
1
 10
4371.4273714158999
 20
2719.6018665611568
 30
0.0
 11
3941.4273714158999
 21
2139.6018665611568
 31
0.0
  0
LINE
  5
7F1A
  8
1
 10
3941.4273714158981
 20
2719.6018665611568
 30
0.0
 11
4371.4273714158999
 21
2139.6018665611568
 31
0.0
  0
LINE
  5
7F1B
  8
1
 10
1719.890456378663
 20
4149.7608139371487
 30
0.0
 11
1494.890456378663
 21
4149.7608139371487
 31
0.0
  0
LINE
  5
7F1C
  8
1
 10
2302.8904563786632
 20
4149.7608139371487
 30
0.0
 11
1769.890456378663
 21
4149.7608139371487
 31
0.0
  0
LINE
  5
8147
  8
4
 10
4625.0
 20
1250.0
 30
0.0
 11
4625.0
 21
750.0
 31
0.0
  0
LINE
  5
8148
  8
4
 10
2875.0
 20
1250.0
 30
0.0
 11
2875.0
 21
750.0
 31
0.0
  0
LINE
  5
8149
  8
4
 10
1625.0
 20
1250.0
 30
0.0
 11
1625.0
 21
750.0
 31
0.0
  0
LINE
  5
814C
  8
4
 10
1625.0
 20
750.0
 30
0.0
 11
4625.0
 21
750.0
 31
0.0
  0
LINE
  5
814D
  8
4
 10
1625.0
 20
1000.0
 30
0.0
 11
4625.0
 21
1000.0
 31
0.0
  0
TEXT
  5
814E
  8
4
 10
1721.2552021172539
 20
1078.857564666532
 30
0.0
 40
125.0
  1
機器名称
  0
TEXT
  5
814F
  8
4
 10
1715.6452650619931
 20
804.11289183002725
 30
0.0
 40
125.0
  1
機器型番
  0
TEXT
  5
8150
  8
4
 10
2944.1968637191621
 20
1056.429422393921
 30
0.0
 40
105.0
  1
ミツヤリミットロ－ﾄﾞファン
  0
TEXT
  5
8151
  8
4
 10
2966.6362389637011
 20
792.89896069985843
 30
0.0
 40
125.0
  1
LL#3 1/2-1
  0
TEXT
  5
8153
  8
4
 10
1992.8048086851741
 20
5958.5721033312893
 30
0.0
 40
135.0
  1
床置ベット
  0
TEXT
  5
8154
  8
4
 10
740.41898332361586
 20
6334.7024404982449
 30
0.0
 40
180.0
  1
遠心式片吸込片持リミットロ－ﾄﾞファン
  0
LINE
  5
8155
  8
4
 10
625.0
 20
6173.5218856620122
 30
0.0
 11
4625.0
 21
6173.5218856620122
 31
0.0
  0
LINE
  5
8156
  8
4
 10
625.0
 20
6673.5218856620122
 30
0.0
 11
4625.0
 21
6673.5218856620122
 31
0.0
  0
LINE
  5
8157
  8
4
 10
1625.0
 20
1250.0
 30
0.0
 11
4625.0
 21
1250.0
 31
0.0
  0
LINE
  5
8158
  8
4
 10
625.0
 20
6673.5218856620122
 30
0.0
 11
625.0
 21
6173.5218856620122
 31
0.0
  0
TEXT
  5
8159
  8
4
 10
903.15772807841847
 20
5955.7986938658578
 30
0.0
 40
135.0
  1
右回転左横向
  0
TEXT
  5
815A
  8
4
 10
3672.4238981232238
 20
6765.1527037382721
 30
0.0
 40
140.0
  1
No.
  0
TEXT
  5
815B
  8
4
 10
3278.2401565000318
 20
5958.5721033312893
 30
0.0
 40
135.0
  1
縮尺：1/25
  0
LINE
  5
815C
  8
4
 10
4625.0
 20
6673.5218856620122
 30
0.0
 11
4625.0
 21
6173.5218856620122
 31
0.0
  0
LINE
  5
815D
  8
4
 10
5250.0
 20
7375.0
 30
0.0
 11
5250.0
 21
7375.0
 31
0.0
  0
LINE
  5
815E
  8
4
 10
3601.543555899661
 20
6703.1589578135026
 30
0.0
 11
3601.543555899661
 21
6966.6306538743811
 31
0.0
  0
LINE
  5
815F
  8
4
 10
3601.543555899661
 20
6966.6306538743811
 30
0.0
 11
4625.0
 21
6966.6306538743811
 31
0.0
  0
LINE
  5
8160
  8
4
 10
4625.0
 20
6966.6306538743811
 30
0.0
 11
4625.0
 21
6703.1589578135026
 31
0.0
  0
LINE
  5
8161
  8
4
 10
4625.0
 20
6703.1589578135026
 30
0.0
 11
3601.543555899661
 21
6703.1589578135026
 31
0.0
  0
LINE
  5
8162
  8
4
 10
0.0
 20
0.0
 30
0.0
 11
0.0
 21
7375.0
 31
0.0
  0
LINE
  5
8163
  8
4
 10
0.0
 20
7375.0
 30
0.0
 11
5250.0
 21
7375.0
 31
0.0
  0
LINE
  5
8164
  8
4
 10
5250.0
 20
7375.0
 30
0.0
 11
5250.0
 21
0.0
 31
0.0
  0
LINE
  5
8165
  8
4
 10
5250.0
 20
0.0
 30
0.0
 11
0.0
 21
0.0
 31
0.0
  0
LINE
  5
819A
  8
1
 10
3327.9273714158981
 20
2875.0834998500832
 30
0.0
 11
3327.9273714158981
 21
2959.6018665611568
 31
0.0
  0
DIMENSION
  5
81B3
  8
3
  2
*D18
 10
4371.4273714158962
 20
3462.2084387959808
 30
0.0
 11
4263.9273714158971
 21
3534.3039682512681
 31
0.0
 70
   128
 13
4156.4273714158971
 23
3293.795998030168
 33
0.0
 14
4371.4273714158962
 24
3139.6018665611568
 34
0.0
1001
ACAD
1000
DSTYLE
1002
{
1070
   288
1070
     1
1070
   172
1070
     1
1070
    75
1070
     1
1070
    40
1040
25.0
1070
   271
1070
     0
1070
   143
1040
0.039
1002
}
  0
DIMENSION
  5
8256
  8
3
  2
*D19
 10
1744.890456378663
 20
1867.5111396808679
 30
0.0
 11
1619.8904563786641
 21
1930.0111396808679
 31
0.0
 70
     0
 13
1494.890456378665
 23
2029.6018665611571
 33
0.0
 14
1744.890456378663
 24
2029.6018665611571
 34
0.0
1001
ACAD
1000
DSTYLE
1002
{
1070
   287
1070
     3
1070
    40
1040
25.0
1070
   143
1040
0.039
1070
   172
1070
     1
1070
   271
1070
     0
1070
   279
1070
     0
1002
}
  0
DIMENSION
  5
8263
  8
3
  2
*D20
 10
2644.8904563786632
 20
1867.5111396808679
 30
0.0
 11
2194.8904563786632
 21
1930.0111396808679
 31
0.0
 70
     0
 13
1744.890456378663
 23
2029.6018665611571
 33
0.0
 14
2644.8904563786632
 24
2029.6018665611571
 34
0.0
1001
ACAD
1000
DSTYLE
1002
{
1070
   287
1070
     3
1070
    40
1040
25.0
1070
   143
1040
0.039
1070
   172
1070
     1
1070
   271
1070
     0
1070
   279
1070
     0
1002
}
  0
DIMENSION
  5
8270
  8
3
  2
*D21
 10
4156.4273714158999
 20
1867.5111396808679
 30
0.0
 11
3733.9273714158999
 21
1930.0111396808679
 31
0.0
 70
     0
 13
3311.427371415899
 23
2029.6018665611571
 33
0.0
 14
4156.4273714158999
 24
2029.6018665611571
 34
0.0
1001
ACAD
1000
DSTYLE
1002
{
1070
   287
1070
     3
1070
    40
1040
25.0
1070
   143
1040
0.039
1070
   172
1070
     1
1070
   271
1070
     0
1070
   279
1070
     0
1002
}
  0
DIMENSION
  5
827F
  8
3
  2
*D22
 10
4411.427371415899
 20
1867.5111396808679
 30
0.0
 11
4283.9273714158999
 21
1930.0111396808679
 31
0.0
 70
     0
 13
4156.4273714158999
 23
2029.6018665611571
 33
0.0
 14
4411.427371415899
 24
2029.6018665611571
 34
0.0
1001
ACAD
1000
DSTYLE
1002
{
1070
   287
1070
     3
1070
    40
1040
25.0
1070
   143
1040
0.039
1070
   172
1070
     1
1070
   271
1070
     0
1070
   279
1070
     0
1002
}
  0
DIMENSION
  5
828C
  8
3
  2
*D23
 10
885.28138450180995
 20
2029.6018665611571
 30
0.0
 11
822.7813845018095
 21
2584.6018665611568
 31
0.0
 70
     0
 13
1719.890456378663
 23
3139.6018665611568
 33
0.0
 14
1494.890456378665
 24
2029.6018665611571
 34
0.0
 50
90.0
1001
ACAD
1000
DSTYLE
1002
{
1070
   287
1070
     3
1070
    40
1040
25.0
1070
   143
1040
0.039
1070
   172
1070
     1
1070
   271
1070
     0
1070
   279
1070
     0
1002
}
  0
ENDSEC
  0
EOF
