  0
SECTION
  2
HEADER
  9
$ACADVER
  1
AC1009
  9
$INSBASE
 10
0.0
 20
0.0
 30
0.0
  9
$EXTMIN
 10
5177.781242170593
 20
3276.9913666958341
 30
0.0
  9
$EXTMAX
 10
10427.781242170589
 20
10651.991366695829
 30
0.0
  9
$LIMMIN
 10
0.0
 20
0.0
  9
$LIMMAX
 10
297.0
 20
210.0
  9
$ORTHOMODE
 70
     0
  9
$REGENMODE
 70
     1
  9
$FILLMODE
 70
     0
  9
$QTEXTMODE
 70
     0
  9
$MIRRTEXT
 70
     1
  9
$DRAGMODE
 70
     2
  9
$LTSCALE
 40
100.0
  9
$OSMODE
 70
    37
  9
$ATTMODE
 70
     1
  9
$TEXTSIZE
 40
180.0
  9
$TRACEWID
 40
0.05
  9
$TEXTSTYLE
  7
STANDARD
  9
$CLAYER
  8
3
  9
$CELTYPE
  6
BYLAYER
  9
$CECOLOR
 62
   256
  9
$DIMSCALE
 40
25.0
  9
$DIMASZ
 40
2.0
  9
$DIMEXO
 40
0.5
  9
$DIMDLI
 40
10.0
  9
$DIMRND
 40
0.0
  9
$DIMDLE
 40
0.0
  9
$DIMEXE
 40
1.0
  9
$DIMTP
 40
1.0
  9
$DIMTM
 40
1.0
  9
$DIMTXT
 40
3.0
  9
$DIMCEN
 40
0.0
  9
$DIMTSZ
 40
0.0
  9
$DIMTOL
 70
     0
  9
$DIMLIM
 70
     0
  9
$DIMTIH
 70
     0
  9
$DIMTOH
 70
     0
  9
$DIMSE1
 70
     0
  9
$DIMSE2
 70
     0
  9
$DIMTAD
 70
     1
  9
$DIMZIN
 70
     8
  9
$DIMBLK
  1

  9
$DIMASO
 70
     1
  9
$DIMSHO
 70
     1
  9
$DIMPOST
  1

  9
$DIMAPOST
  1

  9
$DIMALT
 70
     0
  9
$DIMALTD
 70
     2
  9
$DIMALTF
 40
0.039
  9
$DIMLFAC
 40
1.0
  9
$DIMTOFL
 70
     1
  9
$DIMTVP
 40
0.0
  9
$DIMTIX
 70
     0
  9
$DIMSOXD
 70
     0
  9
$DIMSAH
 70
     1
  9
$DIMBLK1
  1
OPEN
  9
$DIMBLK2
  1
OPEN
  9
$DIMSTYLE
  2
IGA
  9
$DIMCLRD
 70
     0
  9
$DIMCLRE
 70
     0
  9
$DIMCLRT
 70
     0
  9
$DIMTFAC
 40
10.0
  9
$DIMGAP
 40
1.0
  9
$LUNITS
 70
     2
  9
$LUPREC
 70
     3
  9
$SKETCHINC
 40
0.1
  9
$FILLETRAD
 40
50.0
  9
$AUNITS
 70
     0
  9
$AUPREC
 70
     0
  9
$MENU
  1
acad
  9
$ELEVATION
 40
0.0
  9
$PELEVATION
 40
0.0
  9
$THICKNESS
 40
0.0
  9
$LIMCHECK
 70
     0
  9
$BLIPMODE
 70
     0
  9
$CHAMFERA
 40
0.5
  9
$CHAMFERB
 40
0.5
  9
$SKPOLY
 70
     0
  9
$TDCREATE
 40
2451694.6673402772
  9
$TDUPDATE
 40
2454953.6407644209
  9
$TDINDWG
 40
0.0136100231
  9
$TDUSRTIMER
 40
0.0136100231
  9
$USRTIMER
 70
     1
  9
$ANGBASE
 50
0.0
  9
$ANGDIR
 70
     0
  9
$PDMODE
 70
     0
  9
$PDSIZE
 40
0.0
  9
$PLINEWID
 40
0.0
  9
$COORDS
 70
     1
  9
$SPLFRAME
 70
     0
  9
$SPLINETYPE
 70
     6
  9
$SPLINESEGS
 70
     8
  9
$ATTDIA
 70
     0
  9
$ATTREQ
 70
     1
  9
$HANDLING
 70
 10241
  9
$HANDSEED
  5
829E
  9
$SURFTAB1
 70
     6
  9
$SURFTAB2
 70
     6
  9
$SURFTYPE
 70
     6
  9
$SURFU
 70
     6
  9
$SURFV
 70
     6
  9
$UCSNAME
  2

  9
$UCSORG
 10
0.0
 20
0.0
 30
0.0
  9
$UCSXDIR
 10
1.0
 20
0.0
 30
0.0
  9
$UCSYDIR
 10
0.0
 20
1.0
 30
0.0
  9
$PUCSNAME
  2

  9
$PUCSORG
 10
0.0
 20
0.0
 30
0.0
  9
$PUCSXDIR
 10
1.0
 20
0.0
 30
0.0
  9
$PUCSYDIR
 10
0.0
 20
1.0
 30
0.0
  9
$USERI1
 70
     0
  9
$USERI2
 70
     0
  9
$USERI3
 70
     0
  9
$USERI4
 70
     0
  9
$USERI5
 70
     0
  9
$USERR1
 40
0.0
  9
$USERR2
 40
0.0
  9
$USERR3
 40
0.0
  9
$USERR4
 40
0.0
  9
$USERR5
 40
0.0
  9
$WORLDVIEW
 70
     1
  9
$SHADEDGE
 70
     3
  9
$SHADEDIF
 70
    70
  9
$TILEMODE
 70
     1
  9
$MAXACTVP
 70
    16
  9
$PLIMCHECK
 70
     0
  9
$PEXTMIN
 10
1.0000000000000000E+020
 20
1.0000000000000000E+020
 30
1.0000000000000000E+020
  9
$PEXTMAX
 10
-1.0000000000000000E+020
 20
-1.0000000000000000E+020
 30
-1.0000000000000000E+020
  9
$PLIMMIN
 10
0.0
 20
0.0
  9
$PLIMMAX
 10
12.0
 20
9.0
  9
$UNITMODE
 70
     0
  9
$VISRETAIN
 70
     0
  9
$PLINEGEN
 70
     0
  9
$PSLTSCALE
 70
     1
  0
ENDSEC
  0
SECTION
  2
TABLES
  0
TABLE
  2
VPORT
 70
     2
  0
VPORT
  2
*ACTIVE
 70
     0
 10
0.0
 20
0.0
 11
1.0
 21
1.0
 12
10140.05075453274
 22
4092.7698863484052
 13
0.0
 23
0.0
 14
10.0
 24
10.0
 15
10.0
 25
10.0
 16
0.0
 26
0.0
 36
1.0
 17
0.0
 27
0.0
 37
0.0
 40
2174.6217104514558
 41
3.1666666666666661
 42
50.0
 43
0.0
 44
0.0
 50
0.0
 51
0.0
 71
     0
 72
   100
 73
     1
 74
     0
 75
     0
 76
     0
 77
     0
 78
     0
  0
ENDTAB
  0
TABLE
  2
LTYPE
 70
     2
  0
LTYPE
  2
CONTINUOUS
 70
     0
  3
Solid line
 72
    65
 73
     0
 40
0.0
  0
LTYPE
  2
CENTER
 70
     0
  3
____ _ ____ _ ____ _ ____ _ ____ _ ____ _ ____ 
 72
    65
 73
     4
 40
2.0
 49
1.25
 49
-0.25
 49
0.25
 49
-0.25
  0
ENDTAB
  0
TABLE
  2
LAYER
 70
     6
  0
LAYER
  2
0
 70
     0
 62
     7
  6
CONTINUOUS
  0
LAYER
  2
3
 70
     0
 62
     2
  6
CONTINUOUS
  0
LAYER
  2
2
 70
     0
 62
     3
  6
CENTER
  0
LAYER
  2
1
 70
     0
 62
     4
  6
CONTINUOUS
  0
LAYER
  2
4
 70
     0
 62
     7
  6
CONTINUOUS
  0
LAYER
  2
DEFPOINTS
 70
     0
 62
     7
  6
CONTINUOUS
  0
ENDTAB
  0
TABLE
  2
STYLE
 70
     1
  0
STYLE
  2
STANDARD
 70
     0
 40
0.0
 41
1.0
 50
0.0
 71
     0
 42
180.0
  3
simplex.shx
  4
extfont.shx
  0
ENDTAB
  0
TABLE
  2
VIEW
 70
     0
  0
ENDTAB
  0
TABLE
  2
UCS
 70
     0
  0
ENDTAB
  0
TABLE
  2
APPID
 70
     1
  0
APPID
  2
ACAD
 70
     0
  0
ENDTAB
  0
TABLE
  2
DIMSTYLE
 70
     2
  0
DIMSTYLE
  2
IGA
 70
     0
  3

  4

  5

  6
OPEN
  7
OPEN
 40
2.0
 41
2.0
 42
0.5
 43
10.0
 44
1.0
 45
0.0
 46
0.0
 47
1.0
 48
1.0
140
3.0
141
0.0
142
0.0
143
0.03937
144
1.0
145
0.0
146
10.0
147
1.0
 71
     0
 72
     0
 73
     0
 74
     0
 75
     0
 76
     0
 77
     1
 78
     8
170
     0
171
     2
172
     0
173
     1
174
     0
175
     0
176
     0
177
     0
178
     0
  0
DIMSTYLE
  2
MATSU
 70
     0
  3

  4

  5

  6
OPEN
  7
OPEN
 40
1.0
 41
2.0
 42
1.0
 43
10.0
 44
1.0
 45
0.0
 46
0.0
 47
0.0
 48
0.0
140
3.0
141
0.0
142
0.0
143
0.03937
144
1.0
145
0.0
146
1.0
147
0.5
 71
     0
 72
     0
 73
     0
 74
     0
 75
     0
 76
     0
 77
     1
 78
     8
170
     0
171
     2
172
     1
173
     1
174
     0
175
     0
176
   256
177
   256
178
   256
  0
ENDTAB
  0
ENDSEC
  0
SECTION
  2
BLOCKS
  0
BLOCK
  8
0
  2
$MODEL_SPACE
 70
     0
 10
0.0
 20
0.0
 30
0.0
  3
$MODEL_SPACE
  1

  0
ENDBLK
  5
1B
  8
0
  0
BLOCK
 67
     1
  8
0
  2
$PAPER_SPACE
 70
     0
 10
0.0
 20
0.0
 30
0.0
  3
$PAPER_SPACE
  1

  0
ENDBLK
  5
18
 67
     1
  8
0
  0
BLOCK
  8
0
  2
_OPEN
 70
     0
 10
0.0
 20
0.0
 30
0.0
  3
_OPEN
  1

  0
LINE
  5
79FD
  8
0
  6
BYBLOCK
 62
     0
 10
-1.0
 20
0.1666666666666666
 30
0.0
 11
0.0
 21
0.0
 31
0.0
  0
LINE
  5
79FE
  8
0
  6
BYBLOCK
 62
     0
 10
0.0
 20
0.0
 30
0.0
 11
-1.0
 21
-0.1666666666666666
 31
0.0
  0
LINE
  5
79FF
  8
0
  6
BYBLOCK
 62
     0
 10
0.0
 20
0.0
 30
0.0
 11
-1.0
 21
0.0
 31
0.0
  0
ENDBLK
  5
7A01
  8
0
  0
BLOCK
  8
0
  2
YA_N
 70
     0
 10
0.0
 20
0.0
 30
0.0
  3
YA_N
  1

  0
ENDBLK
  5
7A04
  8
0
  0
BLOCK
  8
0
  2
*D2
 70
     1
 10
0.0
 20
0.0
 30
0.0
  3
*D2
  1

  0
LINE
  5
7F88
  8
0
  6
BYBLOCK
 10
6155.8508996541486
 20
1523.694819245123
 30
0.0
 11
6339.153990909711
 21
1523.694819245123
 31
0.0
  0
LINE
  5
7F89
  8
0
  6
BYBLOCK
 10
6155.8508996541486
 20
963.69481924512365
 30
0.0
 11
6339.153990909711
 21
963.69481924512365
 31
0.0
  0
LINE
  5
7F8A
  8
0
  6
BYBLOCK
 10
6314.15399090971
 20
1473.694819245123
 30
0.0
 11
6314.15399090971
 21
1013.694819245123
 31
0.0
  0
INSERT
  5
7F8B
  8
0
  6
BYBLOCK
  2
_OPEN
 10
6314.15399090971
 20
1523.694819245123
 30
0.0
 41
50.0
 42
50.0
 43
50.0
 50
90.0
  0
INSERT
  5
7F8C
  8
0
  6
BYBLOCK
  2
_OPEN
 10
6314.15399090971
 20
963.69481924512365
 30
0.0
 41
50.0
 42
50.0
 43
50.0
 50
270.0
  0
TEXT
  5
7F8D
  8
3
 10
6301.65399090971
 20
1109.7662478165521
 30
0.0
 40
75.0
  1
φ560
 50
90.0
  0
POINT
  5
7F8E
  8
DEFPOINTS
  6
BYBLOCK
 62
     0
 10
6130.8508996541486
 20
1523.694819245123
 30
0.0
  0
POINT
  5
7F8F
  8
DEFPOINTS
  6
BYBLOCK
 62
     0
 10
6130.8508996541486
 20
963.69481924512365
 30
0.0
  0
POINT
  5
7F90
  8
DEFPOINTS
  6
BYBLOCK
 62
     0
 10
6314.15399090971
 20
963.69481924512365
 30
0.0
  0
ENDBLK
  5
7F91
  8
0
  0
BLOCK
  8
0
  2
*D3
 70
     1
 10
0.0
 20
0.0
 30
0.0
  3
*D3
  1

  0
LINE
  5
7F93
  8
0
  6
BYBLOCK
 10
3444.5084431261439
 20
3778.8537666211141
 30
0.0
 11
3444.5084431261439
 21
3980.129510577563
 31
0.0
  0
LINE
  5
7F94
  8
0
  6
BYBLOCK
 10
3944.5084431261439
 20
3778.8537666211141
 30
0.0
 11
3944.5084431261439
 21
3980.129510577563
 31
0.0
  0
LINE
  5
7F95
  8
0
  6
BYBLOCK
 10
3494.5084431261439
 20
3955.129510577563
 30
0.0
 11
3894.5084431261439
 21
3955.129510577563
 31
0.0
  0
INSERT
  5
7F96
  8
0
  6
BYBLOCK
  2
_OPEN
 10
3444.5084431261439
 20
3955.129510577563
 30
0.0
 41
50.0
 42
50.0
 43
50.0
 50
180.0
  0
INSERT
  5
7F97
  8
0
  6
BYBLOCK
  2
_OPEN
 10
3944.5084431261439
 20
3955.129510577563
 30
0.0
 41
50.0
 42
50.0
 43
50.0
  0
TEXT
  5
7F98
  8
3
 10
3598.0798716975728
 20
3967.6295105775621
 30
0.0
 40
75.0
  1
500
  0
POINT
  5
7F99
  8
DEFPOINTS
  6
BYBLOCK
 62
     0
 10
3444.5084431261439
 20
3753.8537666211141
 30
0.0
  0
POINT
  5
7F9A
  8
DEFPOINTS
  6
BYBLOCK
 62
     0
 10
3944.5084431261439
 20
3753.8537666211141
 30
0.0
  0
POINT
  5
7F9B
  8
DEFPOINTS
  6
BYBLOCK
 62
     0
 10
3944.5084431261439
 20
3955.129510577563
 30
0.0
  0
ENDBLK
  5
7F9C
  8
0
  0
BLOCK
  8
0
  2
*D4
 70
     1
 10
0.0
 20
0.0
 30
0.0
  3
*D4
  1

  0
LINE
  5
7F9E
  8
0
  6
BYBLOCK
 10
2794.5084431261439
 20
2628.8537666211141
 30
0.0
 11
2794.5084431261439
 21
2240.432279005192
 31
0.0
  0
LINE
  5
7F9F
  8
0
  6
BYBLOCK
 10
3944.5084431261439
 20
2628.8537666211141
 30
0.0
 11
3944.5084431261439
 21
2240.432279005192
 31
0.0
  0
LINE
  5
7FA0
  8
0
  6
BYBLOCK
 10
2844.5084431261439
 20
2265.432279005192
 30
0.0
 11
3894.5084431261439
 21
2265.432279005192
 31
0.0
  0
INSERT
  5
7FA1
  8
0
  6
BYBLOCK
  2
_OPEN
 10
2794.5084431261439
 20
2265.432279005192
 30
0.0
 41
50.0
 42
50.0
 43
50.0
 50
180.0
  0
INSERT
  5
7FA2
  8
0
  6
BYBLOCK
  2
_OPEN
 10
3944.5084431261439
 20
2265.432279005192
 30
0.0
 41
50.0
 42
50.0
 43
50.0
  0
TEXT
  5
7FA3
  8
3
 10
3251.6513002690008
 20
2277.9322790051929
 30
0.0
 40
75.0
  1
1150
  0
POINT
  5
7FA4
  8
DEFPOINTS
  6
BYBLOCK
 62
     0
 10
2794.5084431261439
 20
2653.8537666211132
 30
0.0
  0
POINT
  5
7FA5
  8
DEFPOINTS
  6
BYBLOCK
 62
     0
 10
3944.5084431261439
 20
2653.8537666211132
 30
0.0
  0
POINT
  5
7FA6
  8
DEFPOINTS
  6
BYBLOCK
 62
     0
 10
3944.5084431261439
 20
2265.432279005192
 30
0.0
  0
ENDBLK
  5
7FA7
  8
0
  0
BLOCK
  8
0
  2
*D5
 70
     1
 10
0.0
 20
0.0
 30
0.0
  3
*D5
  1

  0
LINE
  5
7FA9
  8
0
  6
BYBLOCK
 10
2769.508443126143
 20
3253.8537666211141
 30
0.0
 11
2560.5723508353431
 21
3253.8537666211141
 31
0.0
  0
LINE
  5
7FAA
  8
0
  6
BYBLOCK
 10
2769.508443126143
 20
2653.8537666211132
 30
0.0
 11
2560.5723508353431
 21
2653.8537666211132
 31
0.0
  0
LINE
  5
7FAB
  8
0
  6
BYBLOCK
 10
2585.5723508353431
 20
3203.8537666211141
 30
0.0
 11
2585.5723508353431
 21
2703.8537666211132
 31
0.0
  0
INSERT
  5
7FAC
  8
0
  6
BYBLOCK
  2
_OPEN
 10
2585.5723508353431
 20
3253.8537666211141
 30
0.0
 41
50.0
 42
50.0
 43
50.0
 50
90.0
  0
INSERT
  5
7FAD
  8
0
  6
BYBLOCK
  2
_OPEN
 10
2585.5723508353431
 20
2653.8537666211132
 30
0.0
 41
50.0
 42
50.0
 43
50.0
 50
270.0
  0
TEXT
  5
7FAE
  8
3
 10
2573.072350835344
 20
2857.4251951925421
 30
0.0
 40
75.0
  1
600
 50
90.0
  0
POINT
  5
7FAF
  8
DEFPOINTS
  6
BYBLOCK
 62
     0
 10
2794.5084431261439
 20
3253.8537666211141
 30
0.0
  0
POINT
  5
7FB0
  8
DEFPOINTS
  6
BYBLOCK
 62
     0
 10
2794.5084431261439
 20
2653.8537666211132
 30
0.0
  0
POINT
  5
7FB1
  8
DEFPOINTS
  6
BYBLOCK
 62
     0
 10
2585.5723508353431
 20
2653.8537666211132
 30
0.0
  0
ENDBLK
  5
7FB2
  8
0
  0
BLOCK
  8
0
  2
*D6
 70
     1
 10
0.0
 20
0.0
 30
0.0
  3
*D6
  1

  0
LINE
  5
7FB4
  8
0
  6
BYBLOCK
 10
3969.5084431261439
 20
3753.8537666211141
 30
0.0
 11
4291.041129447407
 21
3753.8537666211141
 31
0.0
  0
LINE
  5
7FB5
  8
0
  6
BYBLOCK
 10
3969.5084431261439
 20
2653.8537666211132
 30
0.0
 11
4291.041129447407
 21
2653.8537666211132
 31
0.0
  0
LINE
  5
7FB6
  8
0
  6
BYBLOCK
 10
4266.041129447407
 20
3703.8537666211141
 30
0.0
 11
4266.041129447407
 21
2703.8537666211132
 31
0.0
  0
INSERT
  5
7FB7
  8
0
  6
BYBLOCK
  2
_OPEN
 10
4266.041129447407
 20
3753.8537666211141
 30
0.0
 41
50.0
 42
50.0
 43
50.0
 50
90.0
  0
INSERT
  5
7FB8
  8
0
  6
BYBLOCK
  2
_OPEN
 10
4266.041129447407
 20
2653.8537666211132
 30
0.0
 41
50.0
 42
50.0
 43
50.0
 50
270.0
  0
TEXT
  5
7FB9
  8
3
 10
4253.541129447407
 20
3085.996623763971
 30
0.0
 40
75.0
  1
1100
 50
90.0
  0
POINT
  5
7FBA
  8
DEFPOINTS
  6
BYBLOCK
 62
     0
 10
3944.5084431261439
 20
3753.8537666211141
 30
0.0
  0
POINT
  5
7FBB
  8
DEFPOINTS
  6
BYBLOCK
 62
     0
 10
3944.5084431261439
 20
2653.8537666211132
 30
0.0
  0
POINT
  5
7FBC
  8
DEFPOINTS
  6
BYBLOCK
 62
     0
 10
4266.041129447407
 20
2653.8537666211132
 30
0.0
  0
ENDBLK
  5
7FBD
  8
0
  0
BLOCK
  8
0
  2
*D7
 70
     1
 10
0.0
 20
0.0
 30
0.0
  3
*D7
  1

  0
LINE
  5
7FCA
  8
0
  6
BYBLOCK
 10
3444.5084431261439
 20
3778.8537666211141
 30
0.0
 11
3444.5084431261439
 21
3980.129510577563
 31
0.0
  0
LINE
  5
7FCB
  8
0
  6
BYBLOCK
 10
2794.5084431261439
 20
3278.8537666211141
 30
0.0
 11
2794.5084431261439
 21
3980.129510577563
 31
0.0
  0
LINE
  5
7FCC
  8
0
  6
BYBLOCK
 10
3394.5084431261439
 20
3955.129510577563
 30
0.0
 11
2844.5084431261439
 21
3955.129510577563
 31
0.0
  0
INSERT
  5
7FCD
  8
0
  6
BYBLOCK
  2
_OPEN
 10
3444.5084431261439
 20
3955.129510577563
 30
0.0
 41
50.0
 42
50.0
 43
50.0
  0
INSERT
  5
7FCE
  8
0
  6
BYBLOCK
  2
_OPEN
 10
2794.5084431261439
 20
3955.129510577563
 30
0.0
 41
50.0
 42
50.0
 43
50.0
 50
180.0
  0
TEXT
  5
7FCF
  8
3
 10
3023.0798716975719
 20
3967.6295105775621
 30
0.0
 40
75.0
  1
650
  0
POINT
  5
7FD0
  8
DEFPOINTS
  6
BYBLOCK
 62
     0
 10
3444.5084431261439
 20
3753.8537666211141
 30
0.0
  0
POINT
  5
7FD1
  8
DEFPOINTS
  6
BYBLOCK
 62
     0
 10
2794.5084431261439
 20
3253.8537666211141
 30
0.0
  0
POINT
  5
7FD2
  8
DEFPOINTS
  6
BYBLOCK
 62
     0
 10
2794.5084431261439
 20
3955.129510577563
 30
0.0
  0
ENDBLK
  5
7FD3
  8
0
  0
BLOCK
  8
0
  2
*D8
 70
     1
 10
0.0
 20
0.0
 30
0.0
  3
*D8
  1

  0
LINE
  5
7FD5
  8
0
  6
BYBLOCK
 10
5681.0508996541485
 20
1658.6948192451209
 30
0.0
 11
5681.0508996541485
 21
1747.5459837796791
 31
0.0
  0
LINE
  5
7FD6
  8
0
  6
BYBLOCK
 10
6106.0508996541485
 20
1658.6948192451209
 30
0.0
 11
6106.0508996541485
 21
1747.5459837796791
 31
0.0
  0
LINE
  5
7FD7
  8
0
  6
BYBLOCK
 10
5731.0508996541485
 20
1722.5459837796791
 30
0.0
 11
6056.0508996541485
 21
1722.5459837796791
 31
0.0
  0
INSERT
  5
7FD8
  8
0
  6
BYBLOCK
  2
_OPEN
 10
5681.0508996541485
 20
1722.5459837796791
 30
0.0
 41
50.0
 42
50.0
 43
50.0
 50
180.0
  0
INSERT
  5
7FD9
  8
0
  6
BYBLOCK
  2
_OPEN
 10
6106.0508996541485
 20
1722.5459837796791
 30
0.0
 41
50.0
 42
50.0
 43
50.0
  0
TEXT
  5
7FDA
  8
3
 10
5797.122328225576
 20
1735.0459837796791
 30
0.0
 40
75.0
  1
425
  0
POINT
  5
7FDB
  8
DEFPOINTS
  6
BYBLOCK
 62
     0
 10
5681.0508996541485
 20
1633.6948192451209
 30
0.0
  0
POINT
  5
7FDC
  8
DEFPOINTS
  6
BYBLOCK
 62
     0
 10
6106.0508996541485
 20
1633.6948192451209
 30
0.0
  0
POINT
  5
7FDD
  8
DEFPOINTS
  6
BYBLOCK
 62
     0
 10
6106.0508996541485
 20
1722.5459837796791
 30
0.0
  0
ENDBLK
  5
7FDE
  8
0
  0
BLOCK
  8
0
  2
*D9
 70
     1
 10
0.0
 20
0.0
 30
0.0
  3
*D9
  1

  0
LINE
  5
80CD
  8
0
  6
BYBLOCK
 10
9215.5473349694621
 20
6572.0492141214672
 30
0.0
 11
9215.5473349694621
 21
6740.4616548872809
 31
0.0
  0
LINE
  5
80CE
  8
0
  6
BYBLOCK
 10
8265.0473349694621
 20
6237.855082652457
 30
0.0
 11
8265.0473349694621
 21
6740.4616548872809
 31
0.0
  0
LINE
  5
80CF
  8
0
  6
BYBLOCK
 10
9165.5473349694621
 20
6715.4616548872809
 30
0.0
 11
8315.0473349694603
 21
6715.4616548872809
 31
0.0
  0
INSERT
  5
80D0
  8
0
  6
BYBLOCK
  2
_OPEN
 10
9215.5473349694621
 20
6715.4616548872809
 30
0.0
 41
50.0
 42
50.0
 43
50.0
  0
INSERT
  5
80D1
  8
0
  6
BYBLOCK
  2
_OPEN
 10
8265.0473349694621
 20
6715.4616548872809
 30
0.0
 41
50.0
 42
50.0
 43
50.0
 50
180.0
  0
INSERT
  5
80D2
  8
3
  2
*U23
 10
0.0
 20
0.0
 30
0.0
  0
POINT
  5
80D3
  8
DEFPOINTS
  6
BYBLOCK
 62
     0
 10
9215.5473349694621
 20
6547.0492141214681
 30
0.0
  0
POINT
  5
80D4
  8
DEFPOINTS
  6
BYBLOCK
 62
     0
 10
8265.0473349694621
 20
6212.855082652457
 30
0.0
  0
POINT
  5
80D5
  8
DEFPOINTS
  6
BYBLOCK
 62
     0
 10
8265.0473349694621
 20
6715.4616548872809
 30
0.0
  0
ENDBLK
  5
80D6
  8
0
  0
BLOCK
  8
0
  2
*D10
 70
     1
 10
0.0
 20
0.0
 30
0.0
  3
*D10
  1

  0
LINE
  5
800C
  8
0
  6
BYBLOCK
 10
4156.8596608518583
 20
1243.6948192451221
 30
0.0
 11
4250.9468243750262
 21
1243.6948192451221
 31
0.0
  0
LINE
  5
800D
  8
0
  6
BYBLOCK
 10
3969.5084431261421
 20
683.69481924512127
 30
0.0
 11
4250.9468243750262
 21
683.69481924512127
 31
0.0
  0
LINE
  5
800E
  8
0
  6
BYBLOCK
 10
4225.9468243750271
 20
1193.6948192451221
 30
0.0
 11
4225.9468243750271
 21
733.69481924512127
 31
0.0
  0
INSERT
  5
800F
  8
0
  6
BYBLOCK
  2
_OPEN
 10
4225.9468243750271
 20
1243.6948192451221
 30
0.0
 41
50.0
 42
50.0
 43
50.0
 50
90.0
  0
INSERT
  5
8010
  8
0
  6
BYBLOCK
  2
_OPEN
 10
4225.9468243750271
 20
683.69481924512127
 30
0.0
 41
50.0
 42
50.0
 43
50.0
 50
270.0
  0
TEXT
  5
8011
  8
3
 10
4213.4468243750271
 20
867.26624781655016
 30
0.0
 40
75.0
  1
560
 50
90.0
  0
POINT
  5
8012
  8
DEFPOINTS
  6
BYBLOCK
 62
     0
 10
4131.8596608518583
 20
1243.6948192451221
 30
0.0
  0
POINT
  5
8013
  8
DEFPOINTS
  6
BYBLOCK
 62
     0
 10
3944.5084431261421
 20
683.69481924512127
 30
0.0
  0
POINT
  5
8014
  8
DEFPOINTS
  6
BYBLOCK
 62
     0
 10
4225.9468243750271
 20
683.69481924512127
 30
0.0
  0
ENDBLK
  5
8015
  8
0
  0
BLOCK
  8
0
  2
*D11
 70
     1
 10
0.0
 20
0.0
 30
0.0
  3
*D11
  1

  0
LINE
  5
8017
  8
0
  6
BYBLOCK
 10
4156.8596608518583
 20
1243.6948192451221
 30
0.0
 11
4250.9468243750262
 21
1243.6948192451221
 31
0.0
  0
LINE
  5
8018
  8
0
  6
BYBLOCK
 10
3724.508443126143
 20
1633.6948192451209
 30
0.0
 11
4250.9468243750262
 21
1633.6948192451209
 31
0.0
  0
LINE
  5
8019
  8
0
  6
BYBLOCK
 10
4225.9468243750271
 20
1293.6948192451209
 30
0.0
 11
4225.9468243750271
 21
1583.6948192451209
 31
0.0
  0
INSERT
  5
801A
  8
0
  6
BYBLOCK
  2
_OPEN
 10
4225.9468243750271
 20
1243.6948192451221
 30
0.0
 41
50.0
 42
50.0
 43
50.0
 50
270.0
  0
INSERT
  5
801B
  8
0
  6
BYBLOCK
  2
_OPEN
 10
4225.9468243750271
 20
1633.6948192451209
 30
0.0
 41
50.0
 42
50.0
 43
50.0
 50
90.0
  0
TEXT
  5
801C
  8
3
 10
4213.4468243750271
 20
1342.26624781655
 30
0.0
 40
75.0
  1
390
 50
90.0
  0
POINT
  5
801D
  8
DEFPOINTS
  6
BYBLOCK
 62
     0
 10
4131.8596608518583
 20
1243.6948192451221
 30
0.0
  0
POINT
  5
801E
  8
DEFPOINTS
  6
BYBLOCK
 62
     0
 10
3699.5084431261439
 20
1633.6948192451209
 30
0.0
  0
POINT
  5
801F
  8
DEFPOINTS
  6
BYBLOCK
 62
     0
 10
4225.9468243750271
 20
1633.6948192451209
 30
0.0
  0
ENDBLK
  5
8020
  8
0
  0
BLOCK
  8
0
  2
*D12
 70
     1
 10
0.0
 20
0.0
 30
0.0
  3
*D12
  1

  0
LINE
  5
8022
  8
0
  6
BYBLOCK
 10
3094.5084431261439
 20
1658.6948192451209
 30
0.0
 11
3094.5084431261439
 21
1734.134929943898
 31
0.0
  0
LINE
  5
8023
  8
0
  6
BYBLOCK
 10
3674.5084431261439
 20
1658.6948192451209
 30
0.0
 11
3674.5084431261439
 21
1734.134929943898
 31
0.0
  0
LINE
  5
8024
  8
0
  6
BYBLOCK
 10
3144.508443126143
 20
1709.134929943898
 30
0.0
 11
3624.5084431261439
 21
1709.134929943898
 31
0.0
  0
INSERT
  5
8025
  8
0
  6
BYBLOCK
  2
_OPEN
 10
3094.5084431261439
 20
1709.134929943898
 30
0.0
 41
50.0
 42
50.0
 43
50.0
 50
180.0
  0
INSERT
  5
8026
  8
0
  6
BYBLOCK
  2
_OPEN
 10
3674.5084431261439
 20
1709.134929943898
 30
0.0
 41
50.0
 42
50.0
 43
50.0
  0
TEXT
  5
8027
  8
3
 10
3288.0798716975719
 20
1721.634929943898
 30
0.0
 40
75.0
  1
580
  0
POINT
  5
8028
  8
DEFPOINTS
  6
BYBLOCK
 62
     0
 10
3094.5084431261439
 20
1633.6948192451209
 30
0.0
  0
POINT
  5
8029
  8
DEFPOINTS
  6
BYBLOCK
 62
     0
 10
3674.5084431261439
 20
1633.6948192451209
 30
0.0
  0
POINT
  5
802A
  8
DEFPOINTS
  6
BYBLOCK
 62
     0
 10
3674.5084431261439
 20
1709.134929943898
 30
0.0
  0
ENDBLK
  5
802B
  8
0
  0
BLOCK
  8
0
  2
*D13
 70
     1
 10
0.0
 20
0.0
 30
0.0
  3
*D13
  1

  0
LINE
  5
802D
  8
0
  6
BYBLOCK
 10
3094.5084431261439
 20
1658.6948192451209
 30
0.0
 11
3094.5084431261439
 21
1864.0974317456839
 31
0.0
  0
LINE
  5
802E
  8
0
  6
BYBLOCK
 10
3694.5084431261439
 20
1701.2022551675959
 30
0.0
 11
3694.5084431261439
 21
1864.0974317456839
 31
0.0
  0
LINE
  5
802F
  8
0
  6
BYBLOCK
 10
3144.508443126143
 20
1839.0974317456851
 30
0.0
 11
3644.5084431261439
 21
1839.0974317456851
 31
0.0
  0
INSERT
  5
8030
  8
0
  6
BYBLOCK
  2
_OPEN
 10
3094.5084431261439
 20
1839.0974317456851
 30
0.0
 41
50.0
 42
50.0
 43
50.0
 50
180.0
  0
INSERT
  5
8031
  8
0
  6
BYBLOCK
  2
_OPEN
 10
3694.5084431261439
 20
1839.0974317456851
 30
0.0
 41
50.0
 42
50.0
 43
50.0
  0
TEXT
  5
8032
  8
3
 10
3298.0798716975719
 20
1851.5974317456839
 30
0.0
 40
75.0
  1
600
  0
POINT
  5
8033
  8
DEFPOINTS
  6
BYBLOCK
 62
     0
 10
3094.5084431261439
 20
1633.6948192451209
 30
0.0
  0
POINT
  5
8034
  8
DEFPOINTS
  6
BYBLOCK
 62
     0
 10
3694.5084431261439
 20
1676.2022551675959
 30
0.0
  0
POINT
  5
8035
  8
DEFPOINTS
  6
BYBLOCK
 62
     0
 10
3694.5084431261439
 20
1839.0974317456851
 30
0.0
  0
ENDBLK
  5
8036
  8
0
  0
BLOCK
  8
0
  2
*D14
 70
     1
 10
0.0
 20
0.0
 30
0.0
  3
*D14
  1

  0
LINE
  5
805C
  8
0
  6
BYBLOCK
 10
2794.5084431261439
 20
783.69481924512127
 30
0.0
 11
2794.5084431261439
 21
2021.170320957244
 31
0.0
  0
LINE
  5
805D
  8
0
  6
BYBLOCK
 10
4094.5084431261439
 20
1268.6948192451209
 30
0.0
 11
4094.5084431261439
 21
2021.170320957244
 31
0.0
  0
LINE
  5
805E
  8
0
  6
BYBLOCK
 10
2844.5084431261439
 20
1996.170320957244
 30
0.0
 11
4044.5084431261439
 21
1996.170320957244
 31
0.0
  0
INSERT
  5
805F
  8
0
  6
BYBLOCK
  2
_OPEN
 10
2794.5084431261439
 20
1996.170320957244
 30
0.0
 41
50.0
 42
50.0
 43
50.0
 50
180.0
  0
INSERT
  5
8060
  8
0
  6
BYBLOCK
  2
_OPEN
 10
4094.5084431261439
 20
1996.170320957244
 30
0.0
 41
50.0
 42
50.0
 43
50.0
  0
TEXT
  5
8061
  8
3
 10
3319.5084431261439
 20
2008.670320957244
 30
0.0
 40
75.0
  1
1300
  0
POINT
  5
8062
  8
DEFPOINTS
  6
BYBLOCK
 62
     0
 10
2794.5084431261439
 20
758.69481924512127
 30
0.0
  0
POINT
  5
8063
  8
DEFPOINTS
  6
BYBLOCK
 62
     0
 10
4094.5084431261439
 20
1243.6948192451221
 30
0.0
  0
POINT
  5
8064
  8
DEFPOINTS
  6
BYBLOCK
 62
     0
 10
4094.5084431261439
 20
1996.170320957244
 30
0.0
  0
ENDBLK
  5
8065
  8
0
  0
BLOCK
  8
0
  2
*D15
 70
     1
 10
0.0
 20
0.0
 30
0.0
  3
*D15
  1

  0
LINE
  5
825B
  8
3
 10
7416.5048784414594
 20
6042.855082652457
 30
0.0
 11
7416.5048784414594
 21
6613.25769515302
 31
0.0
  0
LINE
  5
825C
  8
3
 10
7066.5048784414603
 20
6588.25769515302
 30
0.0
 11
7366.5048784414594
 21
6588.25769515302
 31
0.0
  0
INSERT
  5
825D
  8
3
  2
_OPEN
 10
7016.5048784414594
 20
6588.25769515302
 30
0.0
 41
50.0
 42
50.0
 43
50.0
 50
180.0
  0
INSERT
  5
825E
  8
3
  2
_OPEN
 10
7416.5048784414594
 20
6588.25769515302
 30
0.0
 41
50.0
 42
50.0
 43
50.0
  0
TEXT
  8
3
  40
75
  5
8298
  72
0
  71
0
 10
7066.50
 20
6505.51
 30
0.000000
  1
400
  0
POINT
  5
8260
  8
DEFPOINTS
 62
     0
 10
7016.5048784414594
 20
6425.3625185749324
 30
0.0
  0
POINT
  5
8261
  8
DEFPOINTS
 62
     0
 10
7416.5048784414594
 20
6017.855082652457
 30
0.0
  0
POINT
  5
8262
  8
DEFPOINTS
 62
     0
 10
7416.5048784414594
 20
6588.25769515302
 30
0.0
  0
ENDBLK
  5
806F
  8
0
  0
BLOCK
  8
0
  2
_DOT
 70
     0
 10
0.0
 20
0.0
 30
0.0
  3
_DOT
  1

  0
LINE
  5
80C0
  8
0
  6
BYBLOCK
 62
     0
 10
0.0
 20
0.0
 30
0.0
 11
-1.0
 21
-0.0000000000000284
 31
0.0
  0
POLYLINE
  5
80C1
  8
0
  6
BYBLOCK
 62
     0
 66
     1
 10
0.0
 20
0.0
 30
0.0
 70
     1
 40
0.1666666666666666
 41
0.1666666666666666
  0
VERTEX
  5
8263
  8
0
  6
BYBLOCK
 62
     0
 10
-0.0833333333333286
 20
-0.0000000000000284
 30
0.0
 42
1.0
  0
VERTEX
  5
8264
  8
0
  6
BYBLOCK
 62
     0
 10
0.0833333333333286
 20
-0.0000000000000284
 30
0.0
 42
1.0
  0
SEQEND
  5
8265
  8
0
  6
BYBLOCK
 62
     0
  0
ENDBLK
  5
809A
  8
0
  0
BLOCK
  8
0
  2
*D17
 70
     1
 10
0.0
 20
0.0
 30
0.0
  3
*D17
  1

  0
LINE
  5
810C
  8
0
  6
BYBLOCK
 62
     0
 10
9430.5473349694621
 20
6395.355082652457
 30
0.0
 11
9430.5473349694621
 21
6740.4616548872809
 31
0.0
  0
LINE
  5
810D
  8
0
  6
BYBLOCK
 62
     0
 10
9265.5473349694603
 20
6715.4616548872809
 30
0.0
 11
9380.5473349694603
 21
6715.4616548872809
 31
0.0
  0
TEXT
  5
810E
  8
3
 62
     0
 10
9233.7616206837483
 20
6747.9213369758036
 30
0.0
 40
75.0
  1
215
  0
INSERT
  5
810F
  8
0
  6
BYBLOCK
 62
     0
  2
_OPEN
 10
9215.5473349694621
 20
6715.4616548872809
 30
0.0
 41
50.0
 42
50.0
 43
50.0
 50
180.0
  0
INSERT
  5
8110
  8
0
  6
BYBLOCK
 62
     0
  2
_OPEN
 10
9430.5473349694621
 20
6715.4616548872809
 30
0.0
 41
50.0
 42
50.0
 43
50.0
  0
POINT
  5
8111
  8
DEFPOINTS
  6
BYBLOCK
 62
     0
 10
9215.5473349694621
 20
6547.0492141214681
 30
0.0
  0
POINT
  5
8112
  8
DEFPOINTS
  6
BYBLOCK
 62
     0
 10
9430.5473349694621
 20
6382.855082652457
 30
0.0
  0
POINT
  5
8113
  8
DEFPOINTS
  6
BYBLOCK
 62
     0
 10
9430.5473349694621
 20
6715.4616548872809
 30
0.0
  0
ENDBLK
  5
8114
  8
0
  0
BLOCK
  8
0
  2
*D18
 70
     1
 10
0.0
 20
0.0
 30
0.0
  3
*D18
  1

  0
LINE
  5
826B
  8
3
 62
     0
 10
6116.5048784414594
 20
5420.355082652457
 30
0.0
 11
6116.5048784414594
 21
5244.9460128973587
 31
0.0
  0
LINE
  5
826C
  8
3
 62
     0
 10
7016.5048784414594
 20
5420.355082652457
 30
0.0
 11
7016.5048784414594
 21
5244.9460128973587
 31
0.0
  0
LINE
  5
826D
  8
3
 62
     0
 10
6166.5048784414594
 20
5269.9460128973587
 30
0.0
 11
6966.5048784414594
 21
5269.9460128973587
 31
0.0
  0
INSERT
  5
826E
  8
3
 62
     0
  2
_OPEN
 10
6116.5048784414594
 20
5269.9460128973587
 30
0.0
 41
50.0
 42
50.0
 43
50.0
 50
180.0
  0
INSERT
  5
826F
  8
3
 62
     0
  2
_OPEN
 10
7016.5048784414594
 20
5269.9460128973587
 30
0.0
 41
50.0
 42
50.0
 43
50.0
  0
TEXT
  8
3
  40
75
  5
8299
  62
0
  72
0
  71
0
 10
6416.50
 20
5199.70
 30
0.000000
  1
900
  0
POINT
  5
8271
  8
DEFPOINTS
 62
     0
 10
6116.5048784414594
 20
5432.855082652457
 30
0.0
  0
POINT
  5
8272
  8
DEFPOINTS
 62
     0
 10
7016.5048784414594
 20
5432.855082652457
 30
0.0
  0
POINT
  5
8273
  8
DEFPOINTS
 62
     0
 10
7016.5048784414594
 20
5269.9460128973587
 30
0.0
  0
ENDBLK
  5
81DD
  8
0
  0
BLOCK
  8
0
  2
*D19
 70
     1
 10
0.0
 20
0.0
 30
0.0
  3
*D19
  1

  0
LINE
  5
8274
  8
3
 62
     0
 10
7016.5048784414594
 20
5420.355082652457
 30
0.0
 11
7016.5048784414594
 21
5244.9460128973587
 31
0.0
  0
LINE
  5
8275
  8
3
 62
     0
 10
7266.5048784414575
 20
5420.355082652457
 30
0.0
 11
7266.5048784414575
 21
5244.9460128973587
 31
0.0
  0
LINE
  5
8276
  8
3
 62
     0
 10
7066.5048784414603
 20
5269.9460128973587
 30
0.0
 11
7216.5048784414575
 21
5269.9460128973587
 31
0.0
  0
INSERT
  5
8277
  8
3
 62
     0
  2
_OPEN
 10
7016.5048784414594
 20
5269.9460128973587
 30
0.0
 41
50.0
 42
50.0
 43
50.0
 50
180.0
  0
INSERT
  5
8278
  8
3
 62
     0
  2
_OPEN
 10
7266.5048784414575
 20
5269.9460128973587
 30
0.0
 41
50.0
 42
50.0
 43
50.0
  0
TEXT
  8
3
  40
75
  5
829A
  62
0
  72
0
  71
0
 10
6991.50
 20
5199.70
 30
0.000000
  1
250
  0
POINT
  5
827A
  8
DEFPOINTS
 62
     0
 10
7016.5048784414594
 20
5432.855082652457
 30
0.0
  0
POINT
  5
827B
  8
DEFPOINTS
 62
     0
 10
7266.5048784414575
 20
5432.855082652457
 30
0.0
  0
POINT
  5
827C
  8
DEFPOINTS
 62
     0
 10
7266.5048784414575
 20
5269.9460128973587
 30
0.0
  0
ENDBLK
  5
81EC
  8
0
  0
BLOCK
  8
0
  2
*D20
 70
     1
 10
0.0
 20
0.0
 30
0.0
  3
*D20
  1

  0
LINE
  5
827D
  8
3
 62
     0
 10
8370.5473349694621
 20
5420.355082652457
 30
0.0
 11
8370.5473349694621
 21
5244.9460128973587
 31
0.0
  0
LINE
  5
827E
  8
3
 62
     0
 10
9215.5473349694639
 20
5420.355082652457
 30
0.0
 11
9215.5473349694639
 21
5244.9460128973587
 31
0.0
  0
LINE
  5
827F
  8
3
 62
     0
 10
8420.5473349694621
 20
5269.9460128973587
 30
0.0
 11
9165.5473349694657
 21
5269.9460128973587
 31
0.0
  0
INSERT
  5
8280
  8
3
 62
     0
  2
_OPEN
 10
8370.5473349694621
 20
5269.9460128973587
 30
0.0
 41
50.0
 42
50.0
 43
50.0
 50
180.0
  0
INSERT
  5
8281
  8
3
 62
     0
  2
_OPEN
 10
9215.5473349694639
 20
5269.9460128973587
 30
0.0
 41
50.0
 42
50.0
 43
50.0
  0
TEXT
  8
3
  40
75
  5
829B
  62
0
  72
0
  71
0
 10
8643.05
 20
5199.70
 30
0.000000
  1
845
  0
POINT
  5
8283
  8
DEFPOINTS
 62
     0
 10
8370.5473349694621
 20
5432.855082652457
 30
0.0
  0
POINT
  5
8284
  8
DEFPOINTS
 62
     0
 10
9215.5473349694639
 20
5432.855082652457
 30
0.0
  0
POINT
  5
8285
  8
DEFPOINTS
 62
     0
 10
9215.5473349694639
 20
5269.9460128973587
 30
0.0
  0
ENDBLK
  5
81F9
  8
0
  0
BLOCK
  8
0
  2
*D21
 70
     1
 10
0.0
 20
0.0
 30
0.0
  3
*D21
  1

  0
LINE
  5
8286
  8
3
 62
     0
 10
9215.5473349694639
 20
5420.355082652457
 30
0.0
 11
9215.5473349694639
 21
5244.9460128973587
 31
0.0
  0
LINE
  5
8287
  8
3
 62
     0
 10
9470.5473349694621
 20
5420.355082652457
 30
0.0
 11
9470.5473349694621
 21
5244.9460128973587
 31
0.0
  0
LINE
  5
8288
  8
3
 62
     0
 10
9265.5473349694657
 20
5269.9460128973587
 30
0.0
 11
9420.5473349694621
 21
5269.9460128973587
 31
0.0
  0
INSERT
  5
8289
  8
3
 62
     0
  2
_OPEN
 10
9215.5473349694639
 20
5269.9460128973587
 30
0.0
 41
50.0
 42
50.0
 43
50.0
 50
180.0
  0
INSERT
  5
828A
  8
3
 62
     0
  2
_OPEN
 10
9470.5473349694621
 20
5269.9460128973587
 30
0.0
 41
50.0
 42
50.0
 43
50.0
  0
TEXT
  8
3
  40
75
  5
829C
  62
0
  72
0
  71
0
 10
9193.05
 20
5199.70
 30
0.000000
  1
255
  0
POINT
  5
828C
  8
DEFPOINTS
 62
     0
 10
9215.5473349694639
 20
5432.855082652457
 30
0.0
  0
POINT
  5
828D
  8
DEFPOINTS
 62
     0
 10
9470.5473349694621
 20
5432.855082652457
 30
0.0
  0
POINT
  5
828E
  8
DEFPOINTS
 62
     0
 10
9470.5473349694621
 20
5269.9460128973587
 30
0.0
  0
ENDBLK
  5
8208
  8
0
  0
BLOCK
  8
0
  2
*D22
 70
     1
 10
0.0
 20
0.0
 30
0.0
  3
*D22
  1

  0
LINE
  5
828F
  8
3
 62
     0
 10
7034.0048784414594
 20
6382.855082652457
 30
0.0
 11
7751.7769322676468
 21
6382.855082652457
 31
0.0
  0
LINE
  5
8290
  8
3
 62
     0
 10
7279.0048784414575
 20
5432.855082652457
 30
0.0
 11
7751.7769322676468
 21
5432.855082652457
 31
0.0
  0
LINE
  5
8291
  8
3
 62
     0
 10
7726.7769322676468
 20
6332.855082652457
 30
0.0
 11
7726.7769322676468
 21
5482.855082652457
 31
0.0
  0
INSERT
  5
8292
  8
3
 62
     0
  2
_OPEN
 10
7726.7769322676468
 20
6382.855082652457
 30
0.0
 41
50.0
 42
50.0
 43
50.0
 50
90.0
  0
INSERT
  5
8293
  8
3
 62
     0
  2
_OPEN
 10
7726.7769322676468
 20
5432.855082652457
 30
0.0
 41
50.0
 42
50.0
 43
50.0
 50
270.0
  0
TEXT
  8
3
  40
75
  5
829D
  62
0
  72
0
  71
0
 10
7514.28
 20
5775.11
 30
0.000000
  1
950
  0
POINT
  5
8295
  8
DEFPOINTS
 62
     0
 10
7021.5048784414594
 20
6382.855082652457
 30
0.0
  0
POINT
  5
8296
  8
DEFPOINTS
 62
     0
 10
7266.5048784414575
 20
5432.855082652457
 30
0.0
  0
POINT
  5
8297
  8
DEFPOINTS
 62
     0
 10
7726.7769322676468
 20
5432.855082652457
 30
0.0
  0
ENDBLK
  5
8215
  8
0
  0
BLOCK
  8
0
  2
*U23
 70
     1
 10
0.0
 20
0.0
 30
0.0
  3
*U23
  1

  0
TEXT
  5
8267
  8
3
 10
8633.1544778266052
 20
6852.96165488728
 30
0.0
 40
75.0
  1
MAX
  0
TEXT
  5
8268
  8
3
 10
8615.2973349694603
 20
6727.96165488728
 30
0.0
 40
75.0
  1
1020
  0
ENDBLK
  5
826A
  8
0
  0
ENDSEC
  0
SECTION
  2
ENTITIES
  0
INSERT
  5
7CC8
  8
0
  2
YA_N
 10
374.23120452501661
 20
89.271254904455418
 30
0.0
  0
INSERT
  5
7CC9
  8
0
  2
YA_N
 10
374.23120452501661
 20
89.271254904455418
 30
0.0
  0
INSERT
  5
7CCA
  8
0
  2
YA_N
 10
374.23120452501661
 20
89.271254904455418
 30
0.0
  0
LINE
  5
7CCB
  8
2
 10
9215.5473349694639
 20
5432.855082652457
 30
0.0
 11
9215.5473349694639
 21
6461.8676466938568
 31
0.0
  0
LINE
  5
7CCC
  8
1
 10
9422.7300304465098
 20
6289.9834705041194
 30
0.0
 11
9437.7767251910627
 21
6289.9834705041194
 31
0.0
  0
LINE
  5
7CCD
  8
1
 10
8403.0473349694621
 20
5929.6550826524572
 30
0.0
 11
8918.0473349694621
 21
5929.6550826524572
 31
0.0
  0
LINE
  5
7CCE
  8
1
 10
8408.5473349694621
 20
5507.855082652457
 30
0.0
 11
8408.5473349694639
 21
5929.6550826524572
 31
0.0
  0
LINE
  5
7CCF
  8
1
 10
8912.5473349694603
 20
5507.855082652457
 30
0.0
 11
8912.5473349694657
 21
5929.6550826524572
 31
0.0
  0
LINE
  5
7CD0
  8
1
 10
8370.5473349694621
 20
5507.855082652457
 30
0.0
 11
9470.5473349694621
 21
5507.855082652457
 31
0.0
  0
LINE
  5
7CD1
  8
1
 10
8370.5473349694621
 20
5432.855082652457
 30
0.0
 11
9470.5473349694621
 21
5432.855082652457
 31
0.0
  0
LINE
  5
7CD2
  8
1
 10
9470.5473349694621
 20
5432.855082652457
 30
0.0
 11
9470.5473349694621
 21
5507.855082652457
 31
0.0
  0
LINE
  5
7CD3
  8
1
 10
8912.5473349694603
 20
5864.6550826524563
 30
0.0
 11
9000.5473349694621
 21
5864.6550826524581
 31
0.0
  0
LINE
  5
7CD4
  8
1
 10
8912.5473349694603
 20
5870.6550826524572
 30
0.0
 11
9000.5473349694621
 21
5870.6550826524572
 31
0.0
  0
LINE
  5
7CD7
  8
1
 10
8348.0473349694621
 20
6017.855082652457
 30
0.0
 11
9000.5473349694621
 21
6017.855082652457
 31
0.0
  0
LINE
  5
7CD8
  8
1
 10
8348.0473349694621
 20
5967.855082652457
 30
0.0
 11
9000.5473349694621
 21
5967.855082652457
 31
0.0
  0
LINE
  5
7CDA
  8
1
 10
8348.0473349694621
 20
5614.855082652457
 30
0.0
 11
8348.0473349694621
 21
6119.855082652457
 31
0.0
  0
LINE
  5
7CDB
  8
1
 10
8285.0473349694621
 20
5614.855082652457
 30
0.0
 11
8285.0473349694621
 21
6119.855082652457
 31
0.0
  0
LINE
  5
7CDE
  8
1
 10
8285.0473349694621
 20
6119.855082652457
 30
0.0
 11
8348.0473349694621
 21
6119.855082652457
 31
0.0
  0
LINE
  5
7CDF
  8
1
 10
8285.0473349694621
 20
5865.855082652457
 30
0.0
 11
8348.0473349694621
 21
5865.855082652457
 31
0.0
  0
LINE
  5
7CE3
  8
1
 10
8285.0473349694621
 20
5754.855082652457
 30
0.0
 11
8348.0473349694621
 21
5754.855082652457
 31
0.0
  0
LINE
  5
7CE4
  8
1
 10
8285.0473349694621
 20
5614.855082652457
 30
0.0
 11
8348.0473349694621
 21
5614.855082652457
 31
0.0
  0
LINE
  5
7CE8
  8
1
 10
8265.0473349694621
 20
6212.855082652457
 30
0.0
 11
8387.0473349694621
 21
6212.855082652457
 31
0.0
  0
LINE
  5
7CE9
  8
1
 10
8265.0473349694639
 20
5534.855082652457
 30
0.0
 11
8387.0473349694621
 21
5534.855082652457
 31
0.0
  0
LINE
  5
7CEA
  8
1
 10
8265.0473349694639
 20
5534.855082652457
 30
0.0
 11
8265.0473349694621
 21
6212.855082652457
 31
0.0
  0
LINE
  5
7CEB
  8
1
 10
8387.0473349694621
 20
5534.855082652457
 30
0.0
 11
8387.0473349694621
 21
5615.8744732298583
 31
0.0
  0
DIMENSION
  5
7CED
  8
3
  2
*D2
 10
9636.1504262250273
 20
5712.8550826524588
 30
0.0
 11
9586.1504262250255
 21
5992.8550826524588
 31
0.0
 12
3321.996435315315
 22
4749.1602634073352
 32
0.0
 70
     0
  1
φ560
 13
9452.847334969465
 23
6272.8550826524579
 33
0.0
 14
9452.847334969465
 24
5712.8550826524588
 34
0.0
 50
90.0
1001
ACAD
1000
DSTYLE
1002
{
1070
    40
1040
25.0
1002
}
  0
LINE
  5
7CF1
  8
2
 10
8234.1670932554243
 20
5992.855082652457
 30
0.0
 11
9480.2200139659835
 21
5992.855082652457
 31
0.0
  0
LINE
  5
7CF2
  8
2
 10
8234.1670932554243
 20
5684.855082652457
 30
0.0
 11
8504.4170474762923
 21
5684.855082652457
 31
0.0
  0
LINE
  5
7CF3
  8
1
 10
6116.5048784414594
 20
7403.0140300284502
 30
0.0
 11
6174.5048784414594
 21
7403.0140300284502
 31
0.0
  0
LINE
  5
7CF4
  8
1
 10
7266.5048784414594
 20
7403.0140300284502
 30
0.0
 11
7266.5048784414594
 21
8035.5140300284493
 31
0.0
  0
LINE
  5
7CF5
  8
1
 10
7266.5048784414594
 20
8503.0140300284511
 30
0.0
 11
6766.5048784414594
 21
8503.0140300284511
 31
0.0
  0
LINE
  5
7CF6
  8
1
 10
6116.5048784414594
 20
8003.0140300284511
 30
0.0
 11
6116.5048784414594
 21
7403.0140300284502
 31
0.0
  0
LINE
  5
7CF7
  8
1
 10
6766.5048784414594
 20
8003.0140300284511
 30
0.0
 11
6766.5048784414575
 21
8035.5140300284493
 31
0.0
  0
LINE
  5
7CF8
  8
1
 10
6116.5048784414594
 20
8003.0140300284511
 30
0.0
 11
6766.5048784414594
 21
8003.0140300284511
 31
0.0
  0
LINE
  5
7CF9
  8
2
 10
7477.364713409549
 20
8248.0140300284475
 30
0.0
 11
6362.7347705283337
 21
8248.0140300284475
 31
0.0
  0
DIMENSION
  5
7CFA
  8
3
  2
*D3
 10
7266.5048784414594
 20
8704.2897739848977
 30
0.0
 11
7016.5048784414594
 21
8754.2897739848995
 31
0.0
 12
3321.996435315315
 22
4749.1602634073352
 32
0.0
 70
     0
 13
6766.5048784414594
 23
8503.0140300284511
 33
0.0
 14
7266.5048784414594
 24
8503.0140300284511
 34
0.0
1001
ACAD
1000
DSTYLE
1002
{
1070
    40
1040
25.0
1002
}
  0
DIMENSION
  5
7CFB
  8
3
  2
*D4
 10
7266.5048784414594
 20
7014.592542412528
 30
0.0
 11
6691.5048784414603
 21
7014.592542412528
 31
0.0
 12
3321.996435315315
 22
4749.1602634073352
 32
0.0
 70
   128
 13
6116.5048784414594
 23
7403.0140300284502
 33
0.0
 14
7266.5048784414594
 24
7403.0140300284502
 34
0.0
1001
ACAD
1000
DSTYLE
1002
{
1070
    40
1040
25.0
1002
}
  0
DIMENSION
  5
7CFC
  8
3
  2
*D5
 10
5907.5687861506594
 20
7403.0140300284502
 30
0.0
 11
5857.5687861506594
 21
7703.0140300284502
 31
0.0
 12
3321.996435315315
 22
4749.1602634073352
 32
0.0
 70
     0
 13
6116.5048784414594
 23
8003.0140300284511
 33
0.0
 14
6116.5048784414594
 24
7403.0140300284502
 34
0.0
 50
90.0
1001
ACAD
1000
DSTYLE
1002
{
1070
    40
1040
25.0
1002
}
  0
DIMENSION
  5
7CFD
  8
3
  2
*D6
 10
7588.0375647627234
 20
7403.0140300284502
 30
0.0
 11
7538.0375647627234
 21
7953.0140300284502
 31
0.0
 12
3321.996435315315
 22
4749.1602634073352
 32
0.0
 70
     0
 13
7266.5048784414594
 23
8503.0140300284511
 33
0.0
 14
7266.5048784414594
 24
7403.0140300284502
 34
0.0
 50
90.0
1001
ACAD
1000
DSTYLE
1002
{
1070
    40
1040
25.0
1002
}
  0
LINE
  5
7CFE
  8
1
 10
8494.4804086964377
 20
5929.6550826524572
 30
0.0
 11
8494.4804086964377
 21
6051.2292622335253
 31
0.0
  0
LINE
  5
7CFF
  8
1
 10
8494.4804086964377
 20
6051.2292622335253
 30
0.0
 11
8825.4279149967078
 21
6051.2292622335253
 31
0.0
  0
LINE
  5
7D00
  8
1
 10
8825.4279149967078
 20
6051.2292622335253
 30
0.0
 11
8825.4279149967078
 21
5929.6550826524572
 31
0.0
  0
LINE
  5
7D01
  8
2
 10
6316.5048784414603
 20
7809.6429679981848
 30
0.0
 11
6316.5048784414603
 21
7207.8199602736313
 31
0.0
  0
CIRCLE
  5
7D02
  8
1
 10
8660.5473349694621
 20
5824.9283090216686
 30
0.0
 40
65.0
  0
LINE
  5
7D03
  8
1
 10
8660.5473349694621
 20
5754.9283090216704
 30
0.0
 11
8660.5473349694621
 21
5894.9283090216686
 31
0.0
  0
LINE
  5
7D04
  8
1
 10
8590.5473349694621
 20
5824.9283090216686
 30
0.0
 11
8730.5473349694621
 21
5824.9283090216686
 31
0.0
  0
INSERT
  5
7D05
  8
0
  2
YA_N
 10
488.23120452501661
 20
184.27125490445539
 30
0.0
 41
20.0
 42
20.0
 43
20.0
  0
INSERT
  5
7D06
  8
0
  2
YA_N
 10
4215.7071246863097
 20
2270.0006307560811
 30
0.0
  0
INSERT
  5
7D07
  8
0
  2
YA_N
 10
4215.7071246863097
 20
2270.0006307560811
 30
0.0
  0
INSERT
  5
7D08
  8
0
  2
YA_N
 10
4454.7864141937089
 20
4059.117516044143
 30
0.0
  0
INSERT
  5
7D09
  8
0
  2
YA_N
 10
4454.7864141937089
 20
4059.117516044143
 30
0.0
  0
INSERT
  5
7D0A
  8
0
  2
YA_N
 10
5213.7380713993507
 20
5625.4730848768859
 30
0.0
  0
LINE
  5
7D0B
  8
2
 10
6402.2775608787924
 20
5992.855082652457
 30
0.0
 11
7453.8560961671728
 21
5992.855082652457
 31
0.0
  0
POLYLINE
  5
7D0C
  8
1
 66
     1
 10
0.0
 20
0.0
 30
0.0
 70
     1
  0
VERTEX
  5
8238
  8
1
 10
9430.5473349694621
 20
6272.4834705041203
 30
0.0
  0
VERTEX
  5
8239
  8
1
 10
9455.5473349694621
 20
6272.4834705041203
 30
0.0
  0
VERTEX
  5
823A
  8
1
 10
9455.5473349694621
 20
6273.4834705041194
 30
0.0
 42
0.4142135623730951
  0
VERTEX
  5
823B
  8
1
 10
9453.5473349694621
 20
6275.4834705041203
 30
0.0
  0
VERTEX
  5
823C
  8
1
 10
9437.5473349694621
 20
6275.4834705041203
 30
0.0
 42
-0.4142135623730951
  0
VERTEX
  5
823D
  8
1
 10
9433.5473349694621
 20
6279.4834705041203
 30
0.0
  0
VERTEX
  5
823E
  8
1
 10
9433.5473349694621
 20
6295.4834705041203
 30
0.0
 42
0.4142135623730951
  0
VERTEX
  5
823F
  8
1
 10
9431.5473349694621
 20
6297.4834705041194
 30
0.0
  0
VERTEX
  5
8240
  8
1
 10
9430.5473349694621
 20
6297.4834705041194
 30
0.0
  0
SEQEND
  5
8241
  8
1
  0
LINE
  5
7D17
  8
1
 10
9422.7300304465098
 20
5694.9834705041212
 30
0.0
 11
9437.7767251910627
 21
5694.9834705041212
 31
0.0
  0
DIMENSION
  5
7D19
  8
3
  2
*D7
 10
6116.5048784414594
 20
8704.2897739848977
 30
0.0
 11
6441.5048784414603
 21
8754.2897739848995
 31
0.0
 12
3321.996435315315
 22
4749.1602634073352
 32
0.0
 70
     0
 13
6766.5048784414594
 23
8503.0140300284511
 33
0.0
 14
6116.5048784414594
 24
8003.0140300284511
 34
0.0
1001
ACAD
1000
DSTYLE
1002
{
1070
    40
1040
25.0
1002
}
  0
LINE
  5
7D1A
  8
1
 10
9430.5473349694621
 20
5712.4834705041212
 30
0.0
 11
9455.5473349694621
 21
5712.4834705041212
 31
0.0
  0
LINE
  5
7D1B
  8
1
 10
9455.5473349694621
 20
5712.4834705041212
 30
0.0
 11
9455.5473349694621
 21
5711.4834705041212
 31
0.0
  0
ARC
  5
7D1C
  8
1
 10
9453.5473349694621
 20
5711.4834705041212
 30
0.0
 40
2.0
 50
270.0
 51
0.0
  0
LINE
  5
7D1D
  8
1
 10
9453.5473349694621
 20
5709.4834705041212
 30
0.0
 11
9437.5473349694621
 21
5709.4834705041212
 31
0.0
  0
ARC
  5
7D1E
  8
1
 10
9437.5473349694621
 20
5705.4834705041212
 30
0.0
 40
4.0
 50
90.0
 51
180.0
  0
LINE
  5
7D1F
  8
1
 10
9433.5473349694621
 20
6272.4834705041203
 30
0.0
 11
9433.5473349694621
 21
5689.4834705041212
 31
0.0
  0
ARC
  5
7D20
  8
1
 10
9431.5473349694621
 20
5689.4834705041212
 30
0.0
 40
2.0
 50
270.0
 51
0.0
  0
LINE
  5
7D21
  8
1
 10
9431.5473349694621
 20
5687.4834705041221
 30
0.0
 11
9430.5473349694621
 21
5687.4834705041221
 31
0.0
  0
LINE
  5
7D22
  8
1
 10
9430.5473349694621
 20
5687.4834705041221
 30
0.0
 11
9430.5473349694621
 21
5712.4834705041212
 31
0.0
  0
INSERT
  5
7D23
  8
0
  2
YA_N
 10
488.23120452501661
 20
184.27125490445539
 30
0.0
 41
20.0
 42
20.0
 43
20.0
  0
INSERT
  5
7D24
  8
0
  2
YA_N
 10
488.23120452501661
 20
184.27125490445539
 30
0.0
 41
20.0
 42
20.0
 43
20.0
  0
INSERT
  5
7D29
  8
0
  2
YA_N
 10
488.23120452501661
 20
184.27125490445539
 30
0.0
 41
20.0
 42
20.0
 43
20.0
  0
INSERT
  5
7D2E
  8
0
  2
YA_N
 10
488.23120452501661
 20
184.27125490445539
 30
0.0
 41
20.0
 42
20.0
 43
20.0
  0
INSERT
  5
7D2F
  8
0
  2
YA_N
 10
488.23120452501661
 20
184.27125490445539
 30
0.0
 41
20.0
 42
20.0
 43
20.0
  0
INSERT
  5
7D30
  8
0
  2
YA_N
 10
488.23120452501661
 20
184.27125490445539
 30
0.0
 41
20.0
 42
20.0
 43
20.0
  0
LINE
  5
7D35
  8
1
 10
9430.5473349694621
 20
5507.855082652457
 30
0.0
 11
9430.5473349694657
 21
6272.4834705041203
 31
0.0
  0
LINE
  5
7D36
  8
1
 10
9000.5473349694621
 20
5507.855082652457
 30
0.0
 11
9000.5473349694621
 21
6012.8550826524561
 31
0.0
  0
LINE
  5
7D37
  8
1
 10
9430.5473349694639
 20
6012.8550826524561
 30
0.0
 11
9430.5473349694621
 21
6382.855082652457
 31
0.0
  0
LINE
  5
7D38
  8
1
 10
9000.5473349694621
 20
6012.8550826524561
 30
0.0
 11
9000.5473349694621
 21
6382.855082652457
 31
0.0
  0
LINE
  5
7D39
  8
1
 10
8975.5473349694621
 20
6382.855082652457
 30
0.0
 11
9455.5473349694621
 21
6382.855082652457
 31
0.0
  0
LINE
  5
7D3A
  8
1
 10
9000.5473349694621
 20
6012.8550826524561
 30
0.0
 11
9430.5473349694639
 21
6012.8550826524561
 31
0.0
  0
DIMENSION
  5
7D3B
  8
3
  2
*D8
 10
9428.0473349694603
 20
6471.7062471870149
 30
0.0
 11
9215.5473349694621
 21
6521.7062471870149
 31
0.0
 12
3321.996435315315
 22
4749.1602634073352
 32
0.0
 70
     0
 13
9003.0473349694621
 23
6382.855082652457
 33
0.0
 14
9428.0473349694603
 24
6382.855082652457
 34
0.0
1001
ACAD
1000
DSTYLE
1002
{
1070
    40
1040
25.0
1002
}
  0
DIMENSION
  5
7D3C
  8
3
  2
*D9
 10
8265.0473349694621
 20
6715.4616548872809
 30
0.0
 11
8740.2973349694603
 21
6827.9616548872809
 31
0.0
 70
     0
  1
MAX\P1020
 13
9215.5473349694621
 23
6547.0492141214681
 33
0.0
 14
8265.0473349694621
 24
6212.855082652457
 34
0.0
1001
ACAD
1000
DSTYLE
1002
{
1070
    40
1040
25.0
1002
}
  0
INSERT
  5
7D3D
  8
0
  2
YA_N
 10
188.39770238727681
 20
-87.629120587164138
 30
0.0
 41
1.538461538
 42
1.538461538
 43
1.538461538
  0
INSERT
  5
7D3E
  8
0
  2
YA_N
 10
397.46197626701638
 20
111.96356437045431
 30
0.0
 41
1.538461538
 42
1.538461538
 43
1.538461538
  0
INSERT
  5
7D3F
  8
0
  2
YA_N
 10
397.46197626701638
 20
111.96356437045431
 30
0.0
 41
1.538461538
 42
1.538461538
 43
1.538461538
  0
INSERT
  5
7D40
  8
0
  2
YA_N
 10
397.46197626701638
 20
111.96356437045431
 30
0.0
 41
1.538461538
 42
1.538461538
 43
1.538461538
  0
INSERT
  5
7D41
  8
0
  2
YA_N
 10
397.46197626701638
 20
111.96356437045431
 30
0.0
 41
1.538461538
 42
1.538461538
 43
1.538461538
  0
INSERT
  5
7D42
  8
0
  2
YA_N
 10
397.46197626701638
 20
111.96356437045431
 30
0.0
 41
1.538461538
 42
1.538461538
 43
1.538461538
  0
INSERT
  5
7D43
  8
0
  2
YA_N
 10
1132.9159409909071
 20
4726.0919416845654
 30
0.0
 41
1.538461538
 42
1.538461538
 43
1.538461538
  0
INSERT
  5
7D44
  8
0
  2
YA_N
 10
6828.9822181173877
 20
4682.2765351393073
 30
0.0
 41
1.538461538
 42
1.538461538
 43
1.538461538
  0
INSERT
  5
7D45
  8
0
  2
YA_N
 10
6828.9822181173877
 20
4682.2765351393073
 30
0.0
 41
1.538461538
 42
1.538461538
 43
1.538461538
  0
INSERT
  5
7D46
  8
0
  2
YA_N
 10
6828.9822181173877
 20
4682.2765351393073
 30
0.0
 41
1.538461538
 42
1.538461538
 43
1.538461538
  0
INSERT
  5
7D47
  8
0
  2
YA_N
 10
6828.9822181173877
 20
4682.2765351393073
 30
0.0
 41
1.538461538
 42
1.538461538
 43
1.538461538
  0
INSERT
  5
7D48
  8
0
  2
YA_N
 10
10513.44347020753
 20
7865.1800907995348
 30
0.0
 41
1.538461538
 42
1.538461538
 43
1.538461538
  0
INSERT
  5
7D49
  8
0
  2
YA_N
 10
10513.44347020753
 20
7865.1800907995348
 30
0.0
 41
1.538461538
 42
1.538461538
 43
1.538461538
  0
INSERT
  5
7D4A
  8
0
  2
YA_N
 10
5728.8615492737435
 20
3967.3119979010489
 30
0.0
 41
1.538461538
 42
1.538461538
 43
1.538461538
  0
INSERT
  5
7D4B
  8
0
  2
YA_N
 10
-632.77981266373604
 20
-904.29419645811777
 30
0.0
 41
1.538461538
 42
1.538461538
 43
1.538461538
  0
INSERT
  5
7D4C
  8
0
  2
YA_N
 10
508.23120700301632
 20
204.27125665045429
 30
0.0
 41
19.999999994
 42
19.999999994
 43
19.999999994
  0
INSERT
  5
7D4E
  8
0
  2
YA_N
 10
508.23120700301632
 20
204.27125665045429
 30
0.0
 41
19.999999994
 42
19.999999994
 43
19.999999994
  0
INSERT
  5
7D53
  8
0
  2
YA_N
 10
508.23120700301632
 20
204.27125665045429
 30
0.0
 41
19.999999994
 42
19.999999994
 43
19.999999994
  0
INSERT
  5
7D54
  8
0
  2
YA_N
 10
508.23120700301632
 20
204.27125665045429
 30
0.0
 41
19.999999994
 42
19.999999994
 43
19.999999994
  0
INSERT
  5
7D55
  8
0
  2
YA_N
 10
508.23120700301632
 20
204.27125665045429
 30
0.0
 41
19.999999994
 42
19.999999994
 43
19.999999994
  0
INSERT
  5
7D5A
  8
0
  2
YA_N
 10
188.39770238727681
 20
-87.629120587164138
 30
0.0
 41
1.538461538
 42
1.538461538
 43
1.538461538
  0
INSERT
  5
7D5B
  8
0
  2
YA_N
 10
397.46197626701638
 20
111.96356437045431
 30
0.0
 41
1.538461538
 42
1.538461538
 43
1.538461538
  0
INSERT
  5
7D5C
  8
0
  2
YA_N
 10
397.46197626701638
 20
111.96356437045431
 30
0.0
 41
1.538461538
 42
1.538461538
 43
1.538461538
  0
INSERT
  5
7D5D
  8
0
  2
YA_N
 10
397.46197626701638
 20
111.96356437045431
 30
0.0
 41
1.538461538
 42
1.538461538
 43
1.538461538
  0
INSERT
  5
7D5E
  8
0
  2
YA_N
 10
397.46197626701638
 20
111.96356437045431
 30
0.0
 41
1.538461538
 42
1.538461538
 43
1.538461538
  0
INSERT
  5
7D5F
  8
0
  2
YA_N
 10
397.46197626701638
 20
111.96356437045431
 30
0.0
 41
1.538461538
 42
1.538461538
 43
1.538461538
  0
INSERT
  5
7D60
  8
0
  2
YA_N
 10
1132.9159409909071
 20
4726.0919416845654
 30
0.0
 41
1.538461538
 42
1.538461538
 43
1.538461538
  0
INSERT
  5
7D61
  8
0
  2
YA_N
 10
6828.9822181173877
 20
4682.2765351393073
 30
0.0
 41
1.538461538
 42
1.538461538
 43
1.538461538
  0
INSERT
  5
7D62
  8
0
  2
YA_N
 10
6828.9822181173877
 20
4682.2765351393073
 30
0.0
 41
1.538461538
 42
1.538461538
 43
1.538461538
  0
INSERT
  5
7D63
  8
0
  2
YA_N
 10
6828.9822181173877
 20
4682.2765351393073
 30
0.0
 41
1.538461538
 42
1.538461538
 43
1.538461538
  0
INSERT
  5
7D64
  8
0
  2
YA_N
 10
6828.9822181173877
 20
4682.2765351393073
 30
0.0
 41
1.538461538
 42
1.538461538
 43
1.538461538
  0
INSERT
  5
7D65
  8
0
  2
YA_N
 10
10513.44347020753
 20
7865.1800907995348
 30
0.0
 41
1.538461538
 42
1.538461538
 43
1.538461538
  0
INSERT
  5
7D66
  8
0
  2
YA_N
 10
10513.44347020753
 20
7865.1800907995348
 30
0.0
 41
1.538461538
 42
1.538461538
 43
1.538461538
  0
INSERT
  5
7D67
  8
0
  2
YA_N
 10
5728.8615492737435
 20
3967.3119979010489
 30
0.0
 41
1.538461538
 42
1.538461538
 43
1.538461538
  0
INSERT
  5
7D68
  8
0
  2
YA_N
 10
-632.77981266373604
 20
-904.29419645811777
 30
0.0
 41
1.538461538
 42
1.538461538
 43
1.538461538
  0
INSERT
  5
7D69
  8
0
  2
YA_N
 10
508.23120700301632
 20
204.27125665045429
 30
0.0
 41
19.999999994
 42
19.999999994
 43
19.999999994
  0
INSERT
  5
7D6B
  8
0
  2
YA_N
 10
508.23120700301632
 20
204.27125665045429
 30
0.0
 41
19.999999994
 42
19.999999994
 43
19.999999994
  0
INSERT
  5
7D70
  8
0
  2
YA_N
 10
508.23120700301632
 20
204.27125665045429
 30
0.0
 41
19.999999994
 42
19.999999994
 43
19.999999994
  0
INSERT
  5
7D71
  8
0
  2
YA_N
 10
508.23120700301632
 20
204.27125665045429
 30
0.0
 41
19.999999994
 42
19.999999994
 43
19.999999994
  0
INSERT
  5
7D72
  8
0
  2
YA_N
 10
508.23120700301632
 20
204.27125665045429
 30
0.0
 41
19.999999994
 42
19.999999994
 43
19.999999994
  0
LINE
  5
7D77
  8
1
 10
9455.5473349694621
 20
5712.4834705041212
 30
0.0
 11
9455.5473349694621
 21
6272.4834705041203
 31
0.0
  0
LINE
  5
7D79
  8
1
 10
8370.5473349694621
 20
5432.855082652457
 30
0.0
 11
8370.5473349694621
 21
5507.855082652457
 31
0.0
  0
LINE
  5
7D7A
  8
1
 10
7416.5048784414575
 20
8460.5140300284475
 30
0.0
 11
6416.5048784414594
 21
8460.5140300284475
 31
0.0
  0
LINE
  5
7D7B
  8
1
 10
7416.5048784414575
 20
8035.5140300284493
 30
0.0
 11
6416.5048784414594
 21
8035.5140300284493
 31
0.0
  0
LINE
  5
7D7C
  8
1
 10
6416.5048784414594
 20
8035.5140300284493
 30
0.0
 11
6416.5048784414594
 21
8460.5140300284475
 31
0.0
  0
LINE
  5
7D7D
  8
1
 10
6766.5048784414575
 20
8460.5140300284475
 30
0.0
 11
6766.5048784414594
 21
8503.0140300284511
 31
0.0
  0
LINE
  5
7D7E
  8
1
 10
7266.5048784414594
 20
8460.5140300284475
 30
0.0
 11
7266.5048784414594
 21
8503.0140300284511
 31
0.0
  0
LINE
  5
7D7F
  8
1
 10
6991.5048784414594
 20
7349.0140300284493
 30
0.0
 11
6991.5048784414594
 21
8035.5140300284493
 31
0.0
  0
LINE
  5
7D80
  8
1
 10
7041.5048784414594
 20
7349.0140300284493
 30
0.0
 11
7041.5048784414594
 21
8035.5140300284493
 31
0.0
  0
LINE
  5
7D82
  8
2
 10
7016.5048784414594
 20
7215.1337883144097
 30
0.0
 11
7016.5048784414594
 21
8529.2139588545251
 31
0.0
  0
LINE
  5
7D83
  8
1
 10
6166.5048784414594
 20
7246.0140300284511
 30
0.0
 11
7236.5048784414603
 21
7246.0140300284493
 31
0.0
  0
LINE
  5
7D84
  8
1
 10
6166.5048784414594
 20
7368.0140300284493
 30
0.0
 11
7236.5048784414603
 21
7368.0140300284493
 31
0.0
  0
LINE
  5
7D86
  8
1
 10
6246.5048784414594
 20
7329.0140300284493
 30
0.0
 11
7143.5048784414594
 21
7329.0140300284493
 31
0.0
  0
LINE
  5
7D87
  8
1
 10
6246.5048784414594
 20
7266.0140300284502
 30
0.0
 11
7143.5048784414594
 21
7266.0140300284502
 31
0.0
  0
LINE
  5
7D88
  8
1
 10
6166.5048784414594
 20
7246.0140300284511
 30
0.0
 11
6166.5048784414594
 21
7368.0140300284493
 31
0.0
  0
LINE
  5
7D89
  8
1
 10
6246.5048784414594
 20
7266.0140300284502
 30
0.0
 11
6246.5048784414594
 21
7329.0140300284493
 31
0.0
  0
LINE
  5
7D8A
  8
1
 10
6351.5048784414612
 20
7329.0140300284493
 30
0.0
 11
6351.5048784414603
 21
7351.0140300284493
 31
0.0
  0
LINE
  5
7D8B
  8
1
 10
6281.5048784414594
 20
7329.0140300284493
 30
0.0
 11
6281.5048784414594
 21
7351.0140300284493
 31
0.0
  0
LINE
  5
7D8C
  8
1
 10
6889.5048784414603
 20
7266.0140300284502
 30
0.0
 11
6889.5048784414603
 21
7329.0140300284493
 31
0.0
  0
LINE
  5
7D8D
  8
1
 10
6386.5048784414603
 20
7266.0140300284502
 30
0.0
 11
6386.5048784414603
 21
7329.0140300284493
 31
0.0
  0
LINE
  5
7D8E
  8
1
 10
6281.5048784414594
 20
7351.0140300284493
 30
0.0
 11
6351.5048784414603
 21
7351.0140300284493
 31
0.0
  0
LINE
  5
7D8F
  8
1
 10
7061.5048784414603
 20
7329.0140300284493
 30
0.0
 11
7061.5048784414603
 21
7349.0140300284493
 31
0.0
  0
LINE
  5
7D90
  8
1
 10
6971.5048784414594
 20
7329.0140300284493
 30
0.0
 11
6971.5048784414594
 21
7349.0140300284493
 31
0.0
  0
LINE
  5
7D91
  8
1
 10
7037.5048784414603
 20
7293.0140300284493
 30
0.0
 11
7037.5048784414603
 21
7349.0140300284511
 31
0.0
  0
LINE
  5
7D92
  8
1
 10
6995.5048784414603
 20
7293.0140300284493
 30
0.0
 11
6995.5048784414603
 21
7349.0140300284511
 31
0.0
  0
LINE
  5
7D93
  8
1
 10
6995.5048784414603
 20
7293.0140300284493
 30
0.0
 11
7037.5048784414603
 21
7293.0140300284493
 31
0.0
  0
LINE
  5
7D94
  8
1
 10
6971.5048784414594
 20
7349.0140300284493
 30
0.0
 11
7061.5048784414603
 21
7349.0140300284493
 31
0.0
  0
LINE
  5
7D95
  8
1
 10
7143.5048784414594
 20
7266.0140300284502
 30
0.0
 11
7143.5048784414594
 21
7329.0140300284493
 31
0.0
  0
LINE
  5
7D96
  8
1
 10
7236.5048784414603
 20
7246.0140300284493
 30
0.0
 11
7236.5048784414612
 21
7368.0140300284493
 31
0.0
  0
LINE
  5
7D97
  8
1
 10
6458.5048784414594
 20
7784.5140300284502
 30
0.0
 11
6458.5048784414594
 21
7384.5140300284502
 31
0.0
  0
LINE
  5
7D98
  8
1
 10
6174.5048784414575
 20
7784.5140300284502
 30
0.0
 11
6174.5048784414594
 21
7384.5140300284502
 31
0.0
  0
LINE
  5
7D99
  8
1
 10
6335.5048784414594
 20
7384.5140300284502
 30
0.0
 11
6335.5048784414594
 21
7351.0140300284493
 31
0.0
  0
LINE
  5
7D9A
  8
1
 10
6297.5048784414594
 20
7384.5140300284502
 30
0.0
 11
6297.5048784414594
 21
7351.0140300284493
 31
0.0
  0
LINE
  5
7D9B
  8
1
 10
6174.5048784414594
 20
7784.5140300284502
 30
0.0
 11
6458.5048784414594
 21
7784.5140300284502
 31
0.0
  0
LINE
  5
7D9C
  8
1
 10
6174.5048784414575
 20
7384.5140300284502
 30
0.0
 11
6458.5048784414575
 21
7384.5140300284502
 31
0.0
  0
INSERT
  5
7D9D
  8
0
  2
YA_N
 10
7292.0772652015949
 20
889.7092066623436
 30
0.0
  0
INSERT
  5
7D9E
  8
0
  2
YA_N
 10
7292.0772652015949
 20
889.7092066623436
 30
0.0
  0
INSERT
  5
7D9F
  8
0
  2
YA_N
 10
7292.0772652015949
 20
889.7092066623436
 30
0.0
  0
LINE
  5
7DA0
  8
1
 10
6796.5048784414594
 20
5870.6550826524572
 30
0.0
 11
6477.8382296718846
 21
5870.6550826524563
 31
0.0
  0
LINE
  5
7DA1
  8
1
 10
6796.5048784414594
 20
5861.6550826524581
 30
0.0
 11
6477.8382296718828
 21
5861.6550826524572
 31
0.0
  0
LINE
  5
7DA2
  8
1
 10
7407.4105956594249
 20
5861.6550826524572
 30
0.0
 11
7407.4105956594249
 21
5870.6550826524563
 31
0.0
  0
LINE
  5
7DA3
  8
1
 10
7407.4105956594249
 20
5861.6550826524572
 30
0.0
 11
7236.5048784414603
 21
5861.6550826524581
 31
0.0
  0
LINE
  5
7DA4
  8
1
 10
7407.4105956594249
 20
5870.6550826524563
 30
0.0
 11
7236.5048784414603
 21
5870.6550826524572
 31
0.0
  0
LINE
  5
7DA5
  8
1
 10
7236.5048784414575
 20
5507.855082652457
 30
0.0
 11
7236.5048784414603
 21
5929.6550826524563
 31
0.0
  0
LINE
  5
7DA6
  8
1
 10
6796.5048784414594
 20
5507.855082652457
 30
0.0
 11
6796.5048784414594
 21
5929.6550826524563
 31
0.0
  0
LINE
  5
7DA7
  8
1
 10
6116.5048784414594
 20
5432.855082652457
 30
0.0
 11
6116.5048784414594
 21
5507.855082652457
 31
0.0
  0
LINE
  5
7DA8
  8
1
 10
6116.5048784414594
 20
5507.855082652457
 30
0.0
 11
7266.5048784414575
 21
5507.855082652457
 31
0.0
  0
LINE
  5
7DA9
  8
1
 10
6116.5048784414594
 20
5432.855082652457
 30
0.0
 11
7266.5048784414575
 21
5432.855082652457
 31
0.0
  0
LINE
  5
7DAA
  8
1
 10
6766.5048784414594
 20
5929.6550826524563
 30
0.0
 11
7266.5048784414575
 21
5929.6550826524563
 31
0.0
  0
LINE
  5
7DAB
  8
1
 10
7266.5048784414575
 20
5432.855082652457
 30
0.0
 11
7266.5048784414575
 21
5507.855082652457
 31
0.0
  0
LINE
  5
7DAC
  8
2
 10
7016.5048784414594
 20
5432.855082652457
 30
0.0
 11
7016.5048784414594
 21
6425.3625185749324
 31
0.0
  0
ARC
  5
7DAD
  8
1
 10
7004.6836183876594
 20
5972.4512984382673
 30
0.0
 40
232.9940859971957
 50
290.50628364941241
 51
114.019840543475
  0
CIRCLE
  5
7DAE
  8
1
 10
7016.5048784414594
 20
5992.855082652457
 30
0.0
 40
127.0
  0
CIRCLE
  5
7DAF
  8
1
 10
6316.5048784414603
 20
5684.855082652457
 30
0.0
 40
70.0
  0
ARC
  5
7DB0
  8
1
 10
6316.5048784414603
 20
5684.855082652457
 30
0.0
 40
150.0
 50
119.00121396879599
 51
288.49777501693762
  0
LINE
  5
7DB1
  8
1
 10
6243.7806557369513
 20
5816.0464978899818
 30
0.0
 11
6909.8426851415143
 21
6185.2691583341621
 31
0.0
  0
LINE
  5
7DB2
  8
1
 10
6364.0950528885951
 20
5542.6046861816867
 30
0.0
 11
7086.303800963924
 21
5754.2211678286612
 31
0.0
  0
LINE
  5
7DB3
  8
1
 10
6283.6161197196998
 20
5746.6477161110006
 30
0.0
 11
6956.8352733319844
 21
6104.964574784387
 31
0.0
  0
LINE
  5
7DB4
  8
1
 10
6339.8426988254159
 20
5618.8600363252799
 30
0.0
 11
7058.8463525666366
 21
5873.1212128874358
 31
0.0
  0
INSERT
  5
7DBC
  8
0
  2
YA_N
 10
7406.0772652015949
 20
984.70920666234349
 30
0.0
 41
20.0
 42
20.0
 43
20.0
  0
INSERT
  5
7DBD
  8
0
  2
YA_N
 10
11133.55318536288
 20
3070.4385825139698
 30
0.0
  0
INSERT
  5
7DBE
  8
0
  2
YA_N
 10
11133.55318536288
 20
3070.4385825139698
 30
0.0
  0
INSERT
  5
7DBF
  8
0
  2
YA_N
 10
11372.632474870279
 20
4859.5554678020308
 30
0.0
  0
INSERT
  5
7DC0
  8
0
  2
YA_N
 10
11372.632474870279
 20
4859.5554678020308
 30
0.0
  0
INSERT
  5
7DC1
  8
0
  2
YA_N
 10
12131.584132075919
 20
6425.9110366347741
 30
0.0
  0
LINE
  5
7DC4
  8
1
 10
6186.5048784414603
 20
5552.855082652457
 30
0.0
 11
6236.5048784414603
 21
5552.855082652457
 31
0.0
  0
LINE
  5
7DC5
  8
1
 10
6186.5048784414603
 20
5552.855082652457
 30
0.0
 11
6186.5048784414603
 21
5567.855082652457
 31
0.0
  0
LINE
  5
7DC6
  8
1
 10
6186.5048784414603
 20
5567.855082652457
 30
0.0
 11
6235.1583972637236
 21
5567.855082652457
 31
0.0
  0
LINE
  5
7DC7
  8
1
 10
6236.5048784414603
 20
5566.9303185017498
 30
0.0
 11
6236.5048784414603
 21
5552.855082652457
 31
0.0
  0
LINE
  5
7DC8
  8
1
 10
6253.1056499792612
 20
5557.2353826434191
 30
0.0
 11
6379.9041069036612
 21
5557.2353826434191
 31
0.0
  0
LINE
  5
7DC9
  8
1
 10
6186.5048784414603
 20
5567.855082652457
 30
0.0
 11
6200.5341560213164
 21
5602.0478272858518
 31
0.0
  0
LINE
  5
7DCA
  8
1
 10
6446.5048784414594
 20
5567.855082652457
 30
0.0
 11
6432.4756008616023
 21
5602.0478272858518
 31
0.0
  0
LINE
  5
7DCB
  8
1
 10
6396.5048784414603
 20
5566.9303185017498
 30
0.0
 11
6396.5048784414603
 21
5552.855082652457
 31
0.0
  0
LINE
  5
7DCC
  8
1
 10
6446.5048784414594
 20
5567.855082652457
 30
0.0
 11
6397.8513596191942
 21
5567.855082652457
 31
0.0
  0
LINE
  5
7DCD
  8
1
 10
6446.5048784414594
 20
5552.855082652457
 30
0.0
 11
6446.5048784414594
 21
5567.855082652457
 31
0.0
  0
LINE
  5
7DCE
  8
1
 10
6446.5048784414594
 20
5552.855082652457
 30
0.0
 11
6396.5048784414603
 21
5552.855082652457
 31
0.0
  0
LINE
  5
7DCF
  8
2
 10
6137.4703611234327
 20
5684.855082652457
 30
0.0
 11
6469.0048784414594
 21
5684.855082652457
 31
0.0
  0
ARC
  5
7DD0
  8
1
 10
6316.5048784414603
 20
5684.855082652457
 30
0.0
 40
142.0
 50
296.41738025990082
 51
243.58261974009909
  0
CIRCLE
  5
7DD1
  8
1
 10
6316.5048784414603
 20
5684.855082652457
 30
0.0
 40
19.0
  0
LINE
  5
7DD2
  8
2
 10
6316.5048784414603
 20
5497.8526557995792
 30
0.0
 11
6316.5048784414603
 21
5837.355082652457
 31
0.0
  0
POLYLINE
  5
7DD5
  8
1
 66
     1
 10
0.0
 20
0.0
 30
0.0
 70
     1
  0
VERTEX
  5
8242
  8
1
 10
6141.5048784414594
 20
5507.855082652457
 30
0.0
  0
VERTEX
  5
8243
  8
1
 10
6491.5048784414594
 20
5507.855082652457
 30
0.0
  0
VERTEX
  5
8244
  8
1
 10
6481.5048784414603
 20
5552.855082652457
 30
0.0
  0
VERTEX
  5
8245
  8
1
 10
6151.5048784414603
 20
5552.855082652457
 30
0.0
  0
SEQEND
  5
8246
  8
1
  0
INSERT
  5
7DDB
  8
0
  2
YA_N
 10
7406.0772652015949
 20
984.70920666234349
 30
0.0
 41
20.0
 42
20.0
 43
20.0
  0
INSERT
  5
7DDC
  8
0
  2
YA_N
 10
7406.0772652015949
 20
984.70920666234349
 30
0.0
 41
20.0
 42
20.0
 43
20.0
  0
INSERT
  5
7DE1
  8
0
  2
YA_N
 10
7406.0772652015949
 20
984.70920666234349
 30
0.0
 41
20.0
 42
20.0
 43
20.0
  0
INSERT
  5
7DE6
  8
0
  2
YA_N
 10
7406.0772652015949
 20
984.70920666234349
 30
0.0
 41
20.0
 42
20.0
 43
20.0
  0
INSERT
  5
7DE7
  8
0
  2
YA_N
 10
7406.0772652015949
 20
984.70920666234349
 30
0.0
 41
20.0
 42
20.0
 43
20.0
  0
INSERT
  5
7DE8
  8
0
  2
YA_N
 10
7406.0772652015949
 20
984.70920666234349
 30
0.0
 41
20.0
 42
20.0
 43
20.0
  0
POLYLINE
  5
7DED
  8
1
 66
     1
 10
0.0
 20
0.0
 30
0.0
 70
     1
  0
VERTEX
  5
8247
  8
1
 10
6996.5048784414594
 20
6382.855082652457
 30
0.0
  0
VERTEX
  5
8248
  8
1
 10
7021.5048784414594
 20
6382.855082652457
 30
0.0
  0
VERTEX
  5
8249
  8
1
 10
7021.5048784414594
 20
6381.855082652457
 30
0.0
 42
-0.4142135623730951
  0
VERTEX
  5
824A
  8
1
 10
7019.5048784414594
 20
6379.855082652457
 30
0.0
  0
VERTEX
  5
824B
  8
1
 10
7003.5048784414603
 20
6379.855082652457
 30
0.0
 42
0.4142135623730951
  0
VERTEX
  5
824C
  8
1
 10
6999.5048784414594
 20
6375.8550826524561
 30
0.0
  0
VERTEX
  5
824D
  8
1
 10
6999.5048784414594
 20
6359.855082652457
 30
0.0
 42
-0.4142135623730951
  0
VERTEX
  5
824E
  8
1
 10
6997.5048784414603
 20
6357.855082652457
 30
0.0
  0
VERTEX
  5
824F
  8
1
 10
6996.5048784414594
 20
6357.855082652457
 30
0.0
  0
SEQEND
  5
8250
  8
1
  0
POLYLINE
  5
7DF8
  8
1
 66
     1
 10
0.0
 20
0.0
 30
0.0
 70
     1
  0
VERTEX
  5
8251
  8
1
 10
6416.5048784414594
 20
6382.855082652457
 30
0.0
  0
VERTEX
  5
8252
  8
1
 10
6391.5048784414594
 20
6382.855082652457
 30
0.0
  0
VERTEX
  5
8253
  8
1
 10
6391.5048784414594
 20
6381.855082652457
 30
0.0
 42
0.4142135623730951
  0
VERTEX
  5
8254
  8
1
 10
6393.5048784414603
 20
6379.855082652457
 30
0.0
  0
VERTEX
  5
8255
  8
1
 10
6409.5048784414603
 20
6379.855082652457
 30
0.0
 42
-0.4142135623730951
  0
VERTEX
  5
8256
  8
1
 10
6413.5048784414594
 20
6375.8550826524561
 30
0.0
  0
VERTEX
  5
8257
  8
1
 10
6413.5048784414594
 20
6359.855082652457
 30
0.0
 42
0.4142135623730951
  0
VERTEX
  5
8258
  8
1
 10
6415.5048784414594
 20
6357.855082652457
 30
0.0
  0
VERTEX
  5
8259
  8
1
 10
6416.5048784414594
 20
6357.855082652457
 30
0.0
  0
SEQEND
  5
825A
  8
1
  0
LINE
  5
7E03
  8
1
 10
6416.5048784414594
 20
6357.855082652457
 30
0.0
 11
6450.7249509710182
 21
5986.5789231214803
 31
0.0
  0
LINE
  5
7E04
  8
1
 10
6416.5048784414594
 20
6357.855082652457
 30
0.0
 11
6996.5048784414594
 21
6357.855082652457
 31
0.0
  0
LINE
  5
7E05
  8
1
 10
6996.5048784414594
 20
6322.15223079938
 30
0.0
 11
6996.5048784414594
 21
6357.855082652457
 31
0.0
  0
LINE
  5
7E06
  8
1
 10
6416.5048784414594
 20
6382.855082652457
 30
0.0
 11
6996.5048784414594
 21
6382.855082652457
 31
0.0
  0
ARC
  5
7E07
  8
1
 10
7049.5048784414575
 20
6025.8550826524561
 30
0.0
 40
301.0
 50
90.000000000000668
 51
100.1414980837842
  0
ARC
  5
7E08
  8
1
 10
7049.5048784414594
 20
5959.855082652457
 30
0.0
 40
367.0
 50
359.33008427570411
 51
90.000000000000725
  0
ARC
  5
7E09
  8
1
 10
6974.5048784414594
 20
5950.8550826524561
 30
0.0
 40
442.0
 50
306.35312465222972
 51
0.6104381245165058
  0
ARC
  5
7E0A
  8
1
 10
6974.5048784414594
 20
6034.8550826524552
 30
0.0
 40
526.0
 50
185.26600429723189
 51
250.22039141622651
  0
LINE
  5
7E0B
  8
1
 10
6477.8382296718846
 20
5861.6550826524572
 30
0.0
 11
6477.8382296718846
 21
5870.6550826524563
 31
0.0
  0
DIMENSION
  5
7E0C
  8
3
  2
*D10
 10
7547.9432596903416
 20
5432.855082652457
 30
0.0
 11
7497.9432596903416
 21
5712.855082652457
 31
0.0
 12
3321.996435315315
 22
4749.1602634073352
 32
0.0
 70
     0
 13
7453.8560961671728
 23
5992.855082652457
 33
0.0
 14
7266.5048784414575
 24
5432.855082652457
 34
0.0
 50
90.0
1001
ACAD
1000
DSTYLE
1002
{
1070
    40
1040
25.0
1002
}
  0
DIMENSION
  5
7E0D
  8
3
  2
*D11
 10
7547.9432596903416
 20
6382.855082652457
 30
0.0
 11
7497.9432596903416
 21
6187.8550826524579
 31
0.0
 12
3321.996435315315
 22
4749.1602634073352
 32
0.0
 70
     0
 13
7453.8560961671728
 23
5992.855082652457
 33
0.0
 14
7021.5048784414594
 24
6382.855082652457
 34
0.0
 50
90.0
1001
ACAD
1000
DSTYLE
1002
{
1070
    40
1040
25.0
1002
}
  0
DIMENSION
  5
7E0E
  8
3
  2
*D12
 10
6996.5048784414594
 20
6458.295193351235
 30
0.0
 11
6706.5048784414603
 21
6508.295193351234
 31
0.0
 12
3321.996435315315
 22
4749.1602634073352
 32
0.0
 70
     0
 13
6416.5048784414594
 23
6382.855082652457
 33
0.0
 14
6996.5048784414594
 24
6382.855082652457
 34
0.0
1001
ACAD
1000
DSTYLE
1002
{
1070
    40
1040
25.0
1002
}
  0
DIMENSION
  5
7E0F
  8
3
  2
*D13
 10
7016.5048784414594
 20
6588.25769515302
 30
0.0
 11
6716.5048784414594
 21
6638.2576951530191
 31
0.0
 12
3321.996435315315
 22
4749.1602634073352
 32
0.0
 70
     0
 13
6416.5048784414594
 23
6382.855082652457
 33
0.0
 14
7016.5048784414594
 24
6425.3625185749324
 34
0.0
1001
ACAD
1000
DSTYLE
1002
{
1070
    40
1040
25.0
1002
}
  0
INSERT
  5
7E10
  8
0
  2
YA_N
 10
7106.2437630638551
 20
712.80883117072403
 30
0.0
 41
1.538461538
 42
1.538461538
 43
1.538461538
  0
INSERT
  5
7E11
  8
0
  2
YA_N
 10
7315.3080369435947
 20
912.40151612834245
 30
0.0
 41
1.538461538
 42
1.538461538
 43
1.538461538
  0
INSERT
  5
7E12
  8
0
  2
YA_N
 10
7315.3080369435947
 20
912.40151612834245
 30
0.0
 41
1.538461538
 42
1.538461538
 43
1.538461538
  0
INSERT
  5
7E13
  8
0
  2
YA_N
 10
7315.3080369435947
 20
912.40151612834245
 30
0.0
 41
1.538461538
 42
1.538461538
 43
1.538461538
  0
INSERT
  5
7E14
  8
0
  2
YA_N
 10
7315.3080369435947
 20
912.40151612834245
 30
0.0
 41
1.538461538
 42
1.538461538
 43
1.538461538
  0
INSERT
  5
7E15
  8
0
  2
YA_N
 10
7315.3080369435947
 20
912.40151612834245
 30
0.0
 41
1.538461538
 42
1.538461538
 43
1.538461538
  0
INSERT
  5
7E16
  8
0
  2
YA_N
 10
8050.7620016674864
 20
5526.5298934424536
 30
0.0
 41
1.538461538
 42
1.538461538
 43
1.538461538
  0
INSERT
  5
7E17
  8
0
  2
YA_N
 10
13746.828278793961
 20
5482.7144868971964
 30
0.0
 41
1.538461538
 42
1.538461538
 43
1.538461538
  0
INSERT
  5
7E18
  8
0
  2
YA_N
 10
13746.828278793961
 20
5482.7144868971964
 30
0.0
 41
1.538461538
 42
1.538461538
 43
1.538461538
  0
INSERT
  5
7E19
  8
0
  2
YA_N
 10
13746.828278793961
 20
5482.7144868971964
 30
0.0
 41
1.538461538
 42
1.538461538
 43
1.538461538
  0
INSERT
  5
7E1A
  8
0
  2
YA_N
 10
13746.828278793961
 20
5482.7144868971964
 30
0.0
 41
1.538461538
 42
1.538461538
 43
1.538461538
  0
INSERT
  5
7E1B
  8
0
  2
YA_N
 10
17431.289530884111
 20
8665.6180425574239
 30
0.0
 41
1.538461538
 42
1.538461538
 43
1.538461538
  0
INSERT
  5
7E1C
  8
0
  2
YA_N
 10
17431.289530884111
 20
8665.6180425574239
 30
0.0
 41
1.538461538
 42
1.538461538
 43
1.538461538
  0
INSERT
  5
7E1D
  8
0
  2
YA_N
 10
12646.707609950319
 20
4767.7499496589371
 30
0.0
 41
1.538461538
 42
1.538461538
 43
1.538461538
  0
INSERT
  5
7E1E
  8
0
  2
YA_N
 10
6285.0662480128422
 20
-103.8562447002295
 30
0.0
 41
1.538461538
 42
1.538461538
 43
1.538461538
  0
INSERT
  5
7E1F
  8
0
  2
YA_N
 10
7426.077267679595
 20
1004.709208408342
 30
0.0
 41
19.999999994
 42
19.999999994
 43
19.999999994
  0
INSERT
  5
7E21
  8
0
  2
YA_N
 10
7426.077267679595
 20
1004.709208408342
 30
0.0
 41
19.999999994
 42
19.999999994
 43
19.999999994
  0
INSERT
  5
7E26
  8
0
  2
YA_N
 10
7426.077267679595
 20
1004.709208408342
 30
0.0
 41
19.999999994
 42
19.999999994
 43
19.999999994
  0
INSERT
  5
7E27
  8
0
  2
YA_N
 10
7426.077267679595
 20
1004.709208408342
 30
0.0
 41
19.999999994
 42
19.999999994
 43
19.999999994
  0
INSERT
  5
7E28
  8
0
  2
YA_N
 10
7426.077267679595
 20
1004.709208408342
 30
0.0
 41
19.999999994
 42
19.999999994
 43
19.999999994
  0
INSERT
  5
7E2D
  8
0
  2
YA_N
 10
7106.2437630638551
 20
712.80883117072403
 30
0.0
 41
1.538461538
 42
1.538461538
 43
1.538461538
  0
INSERT
  5
7E2E
  8
0
  2
YA_N
 10
7315.3080369435947
 20
912.40151612834245
 30
0.0
 41
1.538461538
 42
1.538461538
 43
1.538461538
  0
INSERT
  5
7E2F
  8
0
  2
YA_N
 10
7315.3080369435947
 20
912.40151612834245
 30
0.0
 41
1.538461538
 42
1.538461538
 43
1.538461538
  0
INSERT
  5
7E30
  8
0
  2
YA_N
 10
7315.3080369435947
 20
912.40151612834245
 30
0.0
 41
1.538461538
 42
1.538461538
 43
1.538461538
  0
INSERT
  5
7E31
  8
0
  2
YA_N
 10
7315.3080369435947
 20
912.40151612834245
 30
0.0
 41
1.538461538
 42
1.538461538
 43
1.538461538
  0
INSERT
  5
7E32
  8
0
  2
YA_N
 10
7315.3080369435947
 20
912.40151612834245
 30
0.0
 41
1.538461538
 42
1.538461538
 43
1.538461538
  0
INSERT
  5
7E33
  8
0
  2
YA_N
 10
8050.7620016674864
 20
5526.5298934424536
 30
0.0
 41
1.538461538
 42
1.538461538
 43
1.538461538
  0
INSERT
  5
7E34
  8
0
  2
YA_N
 10
13746.828278793961
 20
5482.7144868971964
 30
0.0
 41
1.538461538
 42
1.538461538
 43
1.538461538
  0
INSERT
  5
7E35
  8
0
  2
YA_N
 10
13746.828278793961
 20
5482.7144868971964
 30
0.0
 41
1.538461538
 42
1.538461538
 43
1.538461538
  0
INSERT
  5
7E36
  8
0
  2
YA_N
 10
13746.828278793961
 20
5482.7144868971964
 30
0.0
 41
1.538461538
 42
1.538461538
 43
1.538461538
  0
INSERT
  5
7E37
  8
0
  2
YA_N
 10
13746.828278793961
 20
5482.7144868971964
 30
0.0
 41
1.538461538
 42
1.538461538
 43
1.538461538
  0
INSERT
  5
7E38
  8
0
  2
YA_N
 10
17431.289530884111
 20
8665.6180425574239
 30
0.0
 41
1.538461538
 42
1.538461538
 43
1.538461538
  0
INSERT
  5
7E39
  8
0
  2
YA_N
 10
17431.289530884111
 20
8665.6180425574239
 30
0.0
 41
1.538461538
 42
1.538461538
 43
1.538461538
  0
INSERT
  5
7E3A
  8
0
  2
YA_N
 10
12646.707609950319
 20
4767.7499496589371
 30
0.0
 41
1.538461538
 42
1.538461538
 43
1.538461538
  0
INSERT
  5
7E3B
  8
0
  2
YA_N
 10
6285.0662480128422
 20
-103.8562447002295
 30
0.0
 41
1.538461538
 42
1.538461538
 43
1.538461538
  0
INSERT
  5
7E3C
  8
0
  2
YA_N
 10
7426.077267679595
 20
1004.709208408342
 30
0.0
 41
19.999999994
 42
19.999999994
 43
19.999999994
  0
INSERT
  5
7E3E
  8
0
  2
YA_N
 10
7426.077267679595
 20
1004.709208408342
 30
0.0
 41
19.999999994
 42
19.999999994
 43
19.999999994
  0
INSERT
  5
7E43
  8
0
  2
YA_N
 10
7426.077267679595
 20
1004.709208408342
 30
0.0
 41
19.999999994
 42
19.999999994
 43
19.999999994
  0
INSERT
  5
7E44
  8
0
  2
YA_N
 10
7426.077267679595
 20
1004.709208408342
 30
0.0
 41
19.999999994
 42
19.999999994
 43
19.999999994
  0
INSERT
  5
7E45
  8
0
  2
YA_N
 10
7426.077267679595
 20
1004.709208408342
 30
0.0
 41
19.999999994
 42
19.999999994
 43
19.999999994
  0
DIMENSION
  5
7E4D
  8
3
  2
*D14
 10
7416.5048784414594
 20
6745.3305843645794
 30
0.0
 11
6766.5048784414594
 21
6795.3305843645794
 31
0.0
 12
3321.996435315315
 22
4749.1602634073352
 32
0.0
 70
     0
 13
6116.5048784414594
 23
5507.855082652457
 33
0.0
 14
7416.5048784414594
 24
5992.855082652457
 34
0.0
1001
ACAD
1000
DSTYLE
1002
{
1070
    40
1040
25.0
1002
}
  0
DIMENSION
  5
7E4E
  8
3
  2
*D15
 10
7416.5048784414594
 20
6588.25769515302
 30
0.0
 11
7216.5048784414594
 21
6638.2576951530191
 31
0.0
 70
     0
 13
7016.5048784414594
 23
6425.3625185749324
 33
0.0
 14
7416.5048784414594
 24
6017.855082652457
 34
0.0
1001
ACAD
1000
DSTYLE
1002
{
1070
   287
1070
     4
1070
    40
1040
25.0
1070
    75
1070
     1
1070
   279
1070
     1
1070
   289
1070
     3
1002
}
  0
LINE
  5
7E4F
  8
1
 10
7416.5048784414575
 20
8035.5140300284493
 30
0.0
 11
7416.5048784414594
 21
8460.5140300284475
 31
0.0
  0
LINE
  5
7E50
  8
1
 10
6996.5048784414594
 20
8035.5140300284493
 30
0.0
 11
6996.5048784414594
 21
8460.5140300284475
 31
0.0
  0
LINE
  5
7E51
  8
1
 10
6996.5048784414594
 20
8460.5140300284475
 30
0.0
 11
6416.5048784414594
 21
8035.5140300284493
 31
0.0
  0
LINE
  5
7E52
  8
1
 10
6416.5048784414594
 20
8460.5140300284475
 30
0.0
 11
6996.5048784414594
 21
8035.5140300284493
 31
0.0
  0
LINE
  5
7E53
  8
1
 10
9000.5473349694621
 20
6357.855082652457
 30
0.0
 11
9430.5473349694621
 21
6357.855082652457
 31
0.0
  0
LINE
  5
7E54
  8
1
 10
8408.5473349694621
 20
5826.855082652457
 30
0.0
 11
8403.5473349694657
 21
5826.855082652457
 31
0.0
  0
LINE
  5
7E55
  8
1
 10
8408.5473349694621
 20
5542.855082652457
 30
0.0
 11
8403.5473349694621
 21
5542.855082652457
 31
0.0
  0
LINE
  5
7E56
  8
1
 10
8403.5473349694621
 20
5826.8550826524588
 30
0.0
 11
8403.5473349694621
 21
5542.8550826524579
 31
0.0
  0
LINE
  5
7E57
  8
1
 10
8403.5473349694621
 20
5703.8550826524579
 30
0.0
 11
8348.0473349694621
 21
5703.8550826524579
 31
0.0
  0
LINE
  5
7E58
  8
1
 10
8403.5473349694621
 20
5665.8550826524561
 30
0.0
 11
8348.0473349694621
 21
5665.8550826524561
 31
0.0
  0
LINE
  5
7E59
  8
1
 10
7041.5048784414612
 20
7403.0140300284502
 30
0.0
 11
7266.5048784414594
 21
7403.0140300284502
 31
0.0
  0
LINE
  5
7E5A
  8
1
 10
6458.5048784414575
 20
7403.0140300284502
 30
0.0
 11
6991.5048784414594
 21
7403.0140300284502
 31
0.0
  0
LINE
  5
8070
  8
4
 10
9802.7812421705949
 20
4526.9913666958337
 30
0.0
 11
9802.7812421705949
 21
4026.9913666958341
 31
0.0
  0
LINE
  5
8071
  8
4
 10
8052.7812421705939
 20
4526.9913666958337
 30
0.0
 11
8052.7812421705939
 21
4026.9913666958341
 31
0.0
  0
LINE
  5
8072
  8
4
 10
6802.781242170593
 20
4526.9913666958337
 30
0.0
 11
6802.781242170593
 21
4026.9913666958341
 31
0.0
  0
LINE
  5
8075
  8
4
 10
6802.781242170593
 20
4026.9913666958341
 30
0.0
 11
9802.7812421705949
 21
4026.9913666958341
 31
0.0
  0
LINE
  5
8076
  8
4
 10
6802.781242170593
 20
4276.9913666958337
 30
0.0
 11
9802.7812421705949
 21
4276.9913666958337
 31
0.0
  0
TEXT
  5
8077
  8
4
 10
6899.0364442878481
 20
4355.8489313623659
 30
0.0
 40
125.0
  1
機器名称
  0
TEXT
  5
8078
  8
4
 10
6893.426507232587
 20
4081.104258525861
 30
0.0
 40
125.0
  1
機器型番
  0
TEXT
  5
8079
  8
4
 10
8121.9781058897552
 20
4333.420789089756
 30
0.0
 40
105.0
  1
ミツヤリミットロ－ﾄﾞファン
  0
TEXT
  5
807A
  8
4
 10
8144.4174811342946
 20
4069.8903273956921
 30
0.0
 40
125.0
  1
LL#3 1/2-1
  0
TEXT
  5
807C
  8
4
 10
7085.5882601314479
 20
9235.5634700271221
 30
0.0
 40
135.0
  1
床置ベット
  0
TEXT
  5
807D
  8
4
 10
5918.200225494209
 20
9611.6938071940785
 30
0.0
 40
180.0
  1
遠心式片吸込片持リミットロ－ﾄﾞファン
  0
LINE
  5
807E
  8
4
 10
5802.781242170593
 20
9450.5132523578468
 30
0.0
 11
9802.7812421705949
 21
9450.5132523578468
 31
0.0
  0
LINE
  5
807F
  8
4
 10
5802.781242170593
 20
9950.5132523578468
 30
0.0
 11
9802.7812421705949
 21
9950.5132523578468
 31
0.0
  0
LINE
  5
8080
  8
4
 10
6802.781242170593
 20
4526.9913666958337
 30
0.0
 11
9802.7812421705949
 21
4526.9913666958337
 31
0.0
  0
LINE
  5
8081
  8
4
 10
5802.781242170593
 20
9950.5132523578468
 30
0.0
 11
5802.781242170593
 21
9450.5132523578468
 31
0.0
  0
TEXT
  5
8082
  8
4
 10
5995.9411795246924
 20
9232.7900605616924
 30
0.0
 40
135.0
  1
右回転上向
  0
TEXT
  5
8083
  8
4
 10
8850.2051402938177
 20
10042.1440704341
 30
0.0
 40
140.0
  1
No.
  0
TEXT
  5
8084
  8
4
 10
8456.0213986706258
 20
9235.5634700271221
 30
0.0
 40
135.0
  1
縮尺：1/25
  0
LINE
  5
8085
  8
4
 10
9802.7812421705949
 20
9950.5132523578468
 30
0.0
 11
9802.7812421705949
 21
9450.5132523578468
 31
0.0
  0
LINE
  5
8086
  8
4
 10
10427.781242170589
 20
10651.991366695829
 30
0.0
 11
10427.781242170589
 21
10651.991366695829
 31
0.0
  0
LINE
  5
8087
  8
4
 10
8779.3247980702545
 20
9980.1503245093372
 30
0.0
 11
8779.3247980702545
 21
10243.62202057021
 31
0.0
  0
LINE
  5
8088
  8
4
 10
8779.3247980702545
 20
10243.62202057021
 30
0.0
 11
9802.7812421705949
 21
10243.62202057021
 31
0.0
  0
LINE
  5
8089
  8
4
 10
9802.7812421705949
 20
10243.62202057021
 30
0.0
 11
9802.7812421705949
 21
9980.1503245093372
 31
0.0
  0
LINE
  5
808A
  8
4
 10
9802.7812421705949
 20
9980.1503245093372
 30
0.0
 11
8779.3247980702545
 21
9980.1503245093372
 31
0.0
  0
LINE
  5
808B
  8
4
 10
5177.781242170593
 20
3276.9913666958341
 30
0.0
 11
5177.781242170593
 21
10651.991366695829
 31
0.0
  0
LINE
  5
808C
  8
4
 10
5177.781242170593
 20
10651.991366695829
 30
0.0
 11
10427.781242170589
 21
10651.991366695829
 31
0.0
  0
LINE
  5
808D
  8
4
 10
10427.781242170589
 20
10651.991366695829
 30
0.0
 11
10427.781242170589
 21
3276.9913666958341
 31
0.0
  0
LINE
  5
808E
  8
4
 10
10427.781242170589
 20
3276.9913666958341
 30
0.0
 11
5177.781242170593
 21
3276.9913666958341
 31
0.0
  0
LINE
  5
80D7
  8
1
 10
8387.0473349694621
 20
6133.5180060784442
 30
0.0
 11
8387.0473349694621
 21
6212.855082652457
 31
0.0
  0
DIMENSION
  5
80F4
  8
3
  2
*D17
 10
9430.5473349694621
 20
6715.4616548872809
 30
0.0
 11
9323.0473349694621
 21
6785.4213369758036
 31
0.0
 70
   128
 13
9215.5473349694621
 23
6547.0492141214681
 33
0.0
 14
9430.5473349694621
 24
6382.855082652457
 34
0.0
1001
ACAD
1000
DSTYLE
1002
{
1070
   288
1070
     1
1070
   172
1070
     1
1070
    75
1070
     1
1070
    40
1040
25.0
1070
   271
1070
     0
1070
   143
1040
0.039
1002
}
  0
DIMENSION
  5
81DE
  8
3
  2
*D18
 10
7016.5048784414594
 20
5269.9460128973587
 30
0.0
 11
6566.5048784414603
 21
5332.4460128973587
 31
0.0
 70
     0
 13
6116.5048784414594
 23
5432.855082652457
 33
0.0
 14
7016.5048784414594
 24
5432.855082652457
 34
0.0
1001
ACAD
1000
DSTYLE
1002
{
1070
   287
1070
     3
1070
    40
1040
25.0
1070
   143
1040
0.039
1070
   172
1070
     1
1070
   271
1070
     0
1070
   279
1070
     0
1002
}
  0
DIMENSION
  5
81ED
  8
3
  2
*D19
 10
7266.5048784414575
 20
5269.9460128973587
 30
0.0
 11
7141.5048784414575
 21
5332.4460128973587
 31
0.0
 70
     0
 13
7016.5048784414594
 23
5432.855082652457
 33
0.0
 14
7266.5048784414575
 24
5432.855082652457
 34
0.0
1001
ACAD
1000
DSTYLE
1002
{
1070
   287
1070
     3
1070
    40
1040
25.0
1070
   143
1040
0.039
1070
   172
1070
     1
1070
   271
1070
     0
1070
   279
1070
     0
1002
}
  0
DIMENSION
  5
81FA
  8
3
  2
*D20
 10
9215.5473349694639
 20
5269.9460128973587
 30
0.0
 11
8793.0473349694621
 21
5332.4460128973587
 31
0.0
 70
     0
 13
8370.5473349694621
 23
5432.855082652457
 33
0.0
 14
9215.5473349694639
 24
5432.855082652457
 34
0.0
1001
ACAD
1000
DSTYLE
1002
{
1070
   287
1070
     3
1070
    40
1040
25.0
1070
   143
1040
0.039
1070
   172
1070
     1
1070
   271
1070
     0
1070
   279
1070
     0
1002
}
  0
DIMENSION
  5
8209
  8
3
  2
*D21
 10
9470.5473349694621
 20
5269.9460128973587
 30
0.0
 11
9343.0473349694621
 21
5332.4460128973587
 31
0.0
 70
     0
 13
9215.5473349694639
 23
5432.855082652457
 33
0.0
 14
9470.5473349694621
 24
5432.855082652457
 34
0.0
1001
ACAD
1000
DSTYLE
1002
{
1070
   287
1070
     3
1070
    40
1040
25.0
1070
   143
1040
0.039
1070
   172
1070
     1
1070
   271
1070
     0
1070
   279
1070
     0
1002
}
  0
DIMENSION
  5
8216
  8
3
  2
*D22
 10
7726.7769322676468
 20
5432.855082652457
 30
0.0
 11
7664.2769322676459
 21
5907.855082652457
 31
0.0
 70
     0
 13
7021.5048784414594
 23
6382.855082652457
 33
0.0
 14
7266.5048784414575
 24
5432.855082652457
 34
0.0
 50
90.0
1001
ACAD
1000
DSTYLE
1002
{
1070
   287
1070
     3
1070
    40
1040
25.0
1070
   143
1040
0.039
1070
   172
1070
     1
1070
   271
1070
     0
1070
   279
1070
     0
1002
}
  0
ENDSEC
  0
EOF
