  0
SECTION
  2
HEADER
  9
$ACADVER
  1
AC1009
  9
$INSBASE
 10
0.0
 20
0.0
 30
0.0
  9
$EXTMIN
 10
0.0
 20
0.0
 30
0.0
  9
$EXTMAX
 10
5250.0
 20
7375.0
 30
0.0
  9
$LIMMIN
 10
0.0
 20
0.0
  9
$LIMMAX
 10
297.0
 20
210.0
  9
$ORTHOMODE
 70
     0
  9
$REGENMODE
 70
     1
  9
$FILLMODE
 70
     0
  9
$QTEXTMODE
 70
     0
  9
$MIRRTEXT
 70
     1
  9
$DRAGMODE
 70
     2
  9
$LTSCALE
 40
100.0
  9
$OSMODE
 70
    37
  9
$ATTMODE
 70
     1
  9
$TEXTSIZE
 40
180.0
  9
$TRACEWID
 40
0.05
  9
$TEXTSTYLE
  7
STANDARD
  9
$CLAYER
  8
3
  9
$CELTYPE
  6
BYLAYER
  9
$CECOLOR
 62
   256
  9
$DIMSCALE
 40
25.0
  9
$DIMASZ
 40
2.0
  9
$DIMEXO
 40
0.5
  9
$DIMDLI
 40
10.0
  9
$DIMRND
 40
0.0
  9
$DIMDLE
 40
0.0
  9
$DIMEXE
 40
1.0
  9
$DIMTP
 40
1.0
  9
$DIMTM
 40
1.0
  9
$DIMTXT
 40
3.0
  9
$DIMCEN
 40
0.0
  9
$DIMTSZ
 40
0.0
  9
$DIMTOL
 70
     0
  9
$DIMLIM
 70
     0
  9
$DIMTIH
 70
     0
  9
$DIMTOH
 70
     0
  9
$DIMSE1
 70
     0
  9
$DIMSE2
 70
     0
  9
$DIMTAD
 70
     1
  9
$DIMZIN
 70
     8
  9
$DIMBLK
  1

  9
$DIMASO
 70
     1
  9
$DIMSHO
 70
     1
  9
$DIMPOST
  1

  9
$DIMAPOST
  1

  9
$DIMALT
 70
     0
  9
$DIMALTD
 70
     2
  9
$DIMALTF
 40
0.039
  9
$DIMLFAC
 40
1.0
  9
$DIMTOFL
 70
     1
  9
$DIMTVP
 40
0.0
  9
$DIMTIX
 70
     0
  9
$DIMSOXD
 70
     0
  9
$DIMSAH
 70
     1
  9
$DIMBLK1
  1
OPEN
  9
$DIMBLK2
  1
OPEN
  9
$DIMSTYLE
  2
IGA
  9
$DIMCLRD
 70
     0
  9
$DIMCLRE
 70
     0
  9
$DIMCLRT
 70
     0
  9
$DIMTFAC
 40
10.0
  9
$DIMGAP
 40
1.0
  9
$LUNITS
 70
     2
  9
$LUPREC
 70
     3
  9
$SKETCHINC
 40
0.1
  9
$FILLETRAD
 40
50.0
  9
$AUNITS
 70
     0
  9
$AUPREC
 70
     0
  9
$MENU
  1
acad
  9
$ELEVATION
 40
0.0
  9
$PELEVATION
 40
0.0
  9
$THICKNESS
 40
0.0
  9
$LIMCHECK
 70
     0
  9
$BLIPMODE
 70
     0
  9
$CHAMFERA
 40
0.5
  9
$CHAMFERB
 40
0.5
  9
$SKPOLY
 70
     0
  9
$TDCREATE
 40
2451697.65386956
  9
$TDUPDATE
 40
2454953.640659722
  9
$TDINDWG
 40
0.011261169
  9
$TDUSRTIMER
 40
0.011261169
  9
$USRTIMER
 70
     1
  9
$ANGBASE
 50
0.0
  9
$ANGDIR
 70
     0
  9
$PDMODE
 70
     0
  9
$PDSIZE
 40
0.0
  9
$PLINEWID
 40
0.0
  9
$COORDS
 70
     1
  9
$SPLFRAME
 70
     0
  9
$SPLINETYPE
 70
     6
  9
$SPLINESEGS
 70
     8
  9
$ATTDIA
 70
     0
  9
$ATTREQ
 70
     1
  9
$HANDLING
 70
 10241
  9
$HANDSEED
  5
8302
  9
$SURFTAB1
 70
     6
  9
$SURFTAB2
 70
     6
  9
$SURFTYPE
 70
     6
  9
$SURFU
 70
     6
  9
$SURFV
 70
     6
  9
$UCSNAME
  2

  9
$UCSORG
 10
0.0
 20
0.0
 30
0.0
  9
$UCSXDIR
 10
1.0
 20
0.0
 30
0.0
  9
$UCSYDIR
 10
0.0
 20
1.0
 30
0.0
  9
$PUCSNAME
  2

  9
$PUCSORG
 10
0.0
 20
0.0
 30
0.0
  9
$PUCSXDIR
 10
1.0
 20
0.0
 30
0.0
  9
$PUCSYDIR
 10
0.0
 20
1.0
 30
0.0
  9
$USERI1
 70
     0
  9
$USERI2
 70
     0
  9
$USERI3
 70
     0
  9
$USERI4
 70
     0
  9
$USERI5
 70
     0
  9
$USERR1
 40
0.0
  9
$USERR2
 40
0.0
  9
$USERR3
 40
0.0
  9
$USERR4
 40
0.0
  9
$USERR5
 40
0.0
  9
$WORLDVIEW
 70
     1
  9
$SHADEDGE
 70
     3
  9
$SHADEDIF
 70
    70
  9
$TILEMODE
 70
     1
  9
$MAXACTVP
 70
    16
  9
$PLIMCHECK
 70
     0
  9
$PEXTMIN
 10
1.0000000000000000E+020
 20
1.0000000000000000E+020
 30
1.0000000000000000E+020
  9
$PEXTMAX
 10
-1.0000000000000000E+020
 20
-1.0000000000000000E+020
 30
-1.0000000000000000E+020
  9
$PLIMMIN
 10
0.0
 20
0.0
  9
$PLIMMAX
 10
12.0
 20
9.0
  9
$UNITMODE
 70
     0
  9
$VISRETAIN
 70
     0
  9
$PLINEGEN
 70
     0
  9
$PSLTSCALE
 70
     1
  0
ENDSEC
  0
SECTION
  2
TABLES
  0
TABLE
  2
VPORT
 70
     2
  0
VPORT
  2
*ACTIVE
 70
     0
 10
0.0
 20
0.0
 11
1.0
 21
1.0
 12
4879.719712333972
 22
922.96110278857839
 13
0.0
 23
0.0
 14
10.0
 24
10.0
 15
10.0
 25
10.0
 16
0.0
 26
0.0
 36
1.0
 17
0.0
 27
0.0
 37
0.0
 40
2190.21039811736
 41
3.1666666666666661
 42
50.0
 43
0.0
 44
0.0
 50
0.0
 51
0.0
 71
     0
 72
   100
 73
     1
 74
     0
 75
     0
 76
     0
 77
     0
 78
     0
  0
ENDTAB
  0
TABLE
  2
LTYPE
 70
     2
  0
LTYPE
  2
CONTINUOUS
 70
     0
  3
Solid line
 72
    65
 73
     0
 40
0.0
  0
LTYPE
  2
CENTER
 70
     0
  3
____ _ ____ _ ____ _ ____ _ ____ _ ____ _ ____ 
 72
    65
 73
     4
 40
2.0
 49
1.25
 49
-0.25
 49
0.25
 49
-0.25
  0
ENDTAB
  0
TABLE
  2
LAYER
 70
     6
  0
LAYER
  2
0
 70
     0
 62
     7
  6
CONTINUOUS
  0
LAYER
  2
3
 70
     0
 62
     2
  6
CONTINUOUS
  0
LAYER
  2
2
 70
     0
 62
     3
  6
CENTER
  0
LAYER
  2
1
 70
     0
 62
     4
  6
CONTINUOUS
  0
LAYER
  2
4
 70
     0
 62
     7
  6
CONTINUOUS
  0
LAYER
  2
DEFPOINTS
 70
     0
 62
     7
  6
CONTINUOUS
  0
ENDTAB
  0
TABLE
  2
STYLE
 70
     1
  0
STYLE
  2
STANDARD
 70
     0
 40
0.0
 41
1.0
 50
0.0
 71
     0
 42
180.0
  3
simplex.shx
  4
extfont.shx
  0
ENDTAB
  0
TABLE
  2
VIEW
 70
     0
  0
ENDTAB
  0
TABLE
  2
UCS
 70
     0
  0
ENDTAB
  0
TABLE
  2
APPID
 70
     1
  0
APPID
  2
ACAD
 70
     0
  0
ENDTAB
  0
TABLE
  2
DIMSTYLE
 70
     2
  0
DIMSTYLE
  2
IGA
 70
     0
  3

  4

  5

  6
OPEN
  7
OPEN
 40
2.0
 41
2.0
 42
0.5
 43
10.0
 44
1.0
 45
0.0
 46
0.0
 47
1.0
 48
1.0
140
3.0
141
0.0
142
0.0
143
0.03937
144
1.0
145
0.0
146
10.0
147
1.0
 71
     0
 72
     0
 73
     0
 74
     0
 75
     0
 76
     0
 77
     1
 78
     8
170
     0
171
     2
172
     0
173
     1
174
     0
175
     0
176
     0
177
     0
178
     0
  0
DIMSTYLE
  2
MATSU
 70
     0
  3

  4

  5

  6
OPEN
  7
OPEN
 40
1.0
 41
2.0
 42
1.0
 43
10.0
 44
1.0
 45
0.0
 46
0.0
 47
0.0
 48
0.0
140
3.0
141
0.0
142
0.0
143
0.03937
144
1.0
145
0.0
146
1.0
147
0.5
 71
     0
 72
     0
 73
     0
 74
     0
 75
     0
 76
     0
 77
     1
 78
     8
170
     0
171
     2
172
     1
173
     1
174
     0
175
     0
176
   256
177
   256
178
   256
  0
ENDTAB
  0
ENDSEC
  0
SECTION
  2
BLOCKS
  0
BLOCK
  8
0
  2
$MODEL_SPACE
 70
     0
 10
0.0
 20
0.0
 30
0.0
  3
$MODEL_SPACE
  1

  0
ENDBLK
  5
1B
  8
0
  0
BLOCK
 67
     1
  8
0
  2
$PAPER_SPACE
 70
     0
 10
0.0
 20
0.0
 30
0.0
  3
$PAPER_SPACE
  1

  0
ENDBLK
  5
18
 67
     1
  8
0
  0
BLOCK
  8
0
  2
_OPEN
 70
     0
 10
0.0
 20
0.0
 30
0.0
  3
_OPEN
  1

  0
LINE
  5
79FD
  8
0
  6
BYBLOCK
 62
     0
 10
-1.0
 20
0.1666666666666666
 30
0.0
 11
0.0
 21
0.0
 31
0.0
  0
LINE
  5
79FE
  8
0
  6
BYBLOCK
 62
     0
 10
0.0
 20
0.0
 30
0.0
 11
-1.0
 21
-0.1666666666666666
 31
0.0
  0
LINE
  5
79FF
  8
0
  6
BYBLOCK
 62
     0
 10
0.0
 20
0.0
 30
0.0
 11
-1.0
 21
0.0
 31
0.0
  0
ENDBLK
  5
7A01
  8
0
  0
BLOCK
  8
0
  2
YA_N
 70
     0
 10
0.0
 20
0.0
 30
0.0
  3
YA_N
  1

  0
ENDBLK
  5
7A04
  8
0
  0
BLOCK
  8
0
  2
*D2
 70
     1
 10
0.0
 20
0.0
 30
0.0
  3
*D2
  1

  0
LINE
  5
804D
  8
0
  6
BYBLOCK
 10
5787.6196951291322
 20
1439.423564340668
 30
0.0
 11
5993.4104573341319
 21
1439.423564340668
 31
0.0
  0
LINE
  5
804E
  8
0
  6
BYBLOCK
 10
5787.6196951291322
 20
879.42356434066835
 30
0.0
 11
5993.4104573341319
 21
879.42356434066835
 31
0.0
  0
LINE
  5
804F
  8
0
  6
BYBLOCK
 10
5968.4104573341319
 20
1389.423564340668
 30
0.0
 11
5968.4104573341319
 21
929.42356434066835
 31
0.0
  0
INSERT
  5
8050
  8
0
  6
BYBLOCK
  2
_OPEN
 10
5968.4104573341319
 20
1439.423564340668
 30
0.0
 41
50.0
 42
50.0
 43
50.0
 50
90.0
  0
INSERT
  5
8051
  8
0
  6
BYBLOCK
  2
_OPEN
 10
5968.4104573341319
 20
879.42356434066835
 30
0.0
 41
50.0
 42
50.0
 43
50.0
 50
270.0
  0
TEXT
  5
8052
  8
3
 10
5955.9104573341319
 20
1025.494992912096
 30
0.0
 40
75.0
  1
φ560
 50
90.0
  0
POINT
  5
8053
  8
DEFPOINTS
  6
BYBLOCK
 62
     0
 10
5762.6196951291313
 20
1439.423564340668
 30
0.0
  0
POINT
  5
8054
  8
DEFPOINTS
  6
BYBLOCK
 62
     0
 10
5762.6196951291313
 20
879.42356434066835
 30
0.0
  0
POINT
  5
8055
  8
DEFPOINTS
  6
BYBLOCK
 62
     0
 10
5968.4104573341319
 20
879.42356434066835
 30
0.0
  0
ENDBLK
  5
8056
  8
0
  0
BLOCK
  8
0
  2
*D3
 70
     1
 10
0.0
 20
0.0
 30
0.0
  3
*D3
  1

  0
LINE
  5
8058
  8
0
  6
BYBLOCK
 10
3076.2772386011288
 20
3694.5825117166578
 30
0.0
 11
3076.2772386011288
 21
3895.8582556731071
 31
0.0
  0
LINE
  5
8059
  8
0
  6
BYBLOCK
 10
3576.2772386011288
 20
3694.5825117166578
 30
0.0
 11
3576.2772386011288
 21
3895.8582556731071
 31
0.0
  0
LINE
  5
805A
  8
0
  6
BYBLOCK
 10
3126.2772386011288
 20
3870.8582556731071
 30
0.0
 11
3526.2772386011288
 21
3870.8582556731071
 31
0.0
  0
INSERT
  5
805B
  8
0
  6
BYBLOCK
  2
_OPEN
 10
3076.2772386011288
 20
3870.8582556731071
 30
0.0
 41
50.0
 42
50.0
 43
50.0
 50
180.0
  0
INSERT
  5
805C
  8
0
  6
BYBLOCK
  2
_OPEN
 10
3576.2772386011288
 20
3870.8582556731071
 30
0.0
 41
50.0
 42
50.0
 43
50.0
  0
TEXT
  5
805D
  8
3
 10
3229.8486671725568
 20
3883.3582556731071
 30
0.0
 40
75.0
  1
500
  0
POINT
  5
805E
  8
DEFPOINTS
  6
BYBLOCK
 62
     0
 10
3076.2772386011288
 20
3669.5825117166578
 30
0.0
  0
POINT
  5
805F
  8
DEFPOINTS
  6
BYBLOCK
 62
     0
 10
3576.2772386011288
 20
3669.5825117166578
 30
0.0
  0
POINT
  5
8060
  8
DEFPOINTS
  6
BYBLOCK
 62
     0
 10
3576.2772386011288
 20
3870.8582556731071
 30
0.0
  0
ENDBLK
  5
8061
  8
0
  0
BLOCK
  8
0
  2
*D4
 70
     1
 10
0.0
 20
0.0
 30
0.0
  3
*D4
  1

  0
LINE
  5
8063
  8
0
  6
BYBLOCK
 10
2426.2772386011279
 20
2544.5825117166578
 30
0.0
 11
2426.2772386011279
 21
2156.161024100737
 31
0.0
  0
LINE
  5
8064
  8
0
  6
BYBLOCK
 10
3576.2772386011288
 20
2544.5825117166578
 30
0.0
 11
3576.2772386011288
 21
2156.161024100737
 31
0.0
  0
LINE
  5
8065
  8
0
  6
BYBLOCK
 10
2476.2772386011279
 20
2181.161024100737
 30
0.0
 11
3526.2772386011288
 21
2181.161024100737
 31
0.0
  0
INSERT
  5
8066
  8
0
  6
BYBLOCK
  2
_OPEN
 10
2426.2772386011279
 20
2181.161024100737
 30
0.0
 41
50.0
 42
50.0
 43
50.0
 50
180.0
  0
INSERT
  5
8067
  8
0
  6
BYBLOCK
  2
_OPEN
 10
3576.2772386011288
 20
2181.161024100737
 30
0.0
 41
50.0
 42
50.0
 43
50.0
  0
TEXT
  5
8068
  8
3
 10
2883.4200957439862
 20
2193.661024100737
 30
0.0
 40
75.0
  1
1150
  0
POINT
  5
8069
  8
DEFPOINTS
  6
BYBLOCK
 62
     0
 10
2426.2772386011279
 20
2569.5825117166578
 30
0.0
  0
POINT
  5
806A
  8
DEFPOINTS
  6
BYBLOCK
 62
     0
 10
3576.2772386011288
 20
2569.5825117166578
 30
0.0
  0
POINT
  5
806B
  8
DEFPOINTS
  6
BYBLOCK
 62
     0
 10
3576.2772386011288
 20
2181.161024100737
 30
0.0
  0
ENDBLK
  5
806C
  8
0
  0
BLOCK
  8
0
  2
*D5
 70
     1
 10
0.0
 20
0.0
 30
0.0
  3
*D5
  1

  0
LINE
  5
806E
  8
0
  6
BYBLOCK
 10
2401.2772386011279
 20
3169.5825117166578
 30
0.0
 11
2192.341146310328
 21
3169.5825117166578
 31
0.0
  0
LINE
  5
806F
  8
0
  6
BYBLOCK
 10
2401.2772386011279
 20
2569.5825117166578
 30
0.0
 11
2192.341146310328
 21
2569.5825117166578
 31
0.0
  0
LINE
  5
8070
  8
0
  6
BYBLOCK
 10
2217.341146310328
 20
3119.5825117166592
 30
0.0
 11
2217.341146310328
 21
2619.5825117166578
 31
0.0
  0
INSERT
  5
8071
  8
0
  6
BYBLOCK
  2
_OPEN
 10
2217.341146310328
 20
3169.5825117166578
 30
0.0
 41
50.0
 42
50.0
 43
50.0
 50
90.0
  0
INSERT
  5
8072
  8
0
  6
BYBLOCK
  2
_OPEN
 10
2217.341146310328
 20
2569.5825117166578
 30
0.0
 41
50.0
 42
50.0
 43
50.0
 50
270.0
  0
TEXT
  5
8073
  8
3
 10
2204.841146310328
 20
2773.1539402880871
 30
0.0
 40
75.0
  1
600
 50
90.0
  0
POINT
  5
8074
  8
DEFPOINTS
  6
BYBLOCK
 62
     0
 10
2426.2772386011279
 20
3169.5825117166578
 30
0.0
  0
POINT
  5
8075
  8
DEFPOINTS
  6
BYBLOCK
 62
     0
 10
2426.2772386011279
 20
2569.5825117166578
 30
0.0
  0
POINT
  5
8076
  8
DEFPOINTS
  6
BYBLOCK
 62
     0
 10
2217.341146310328
 20
2569.5825117166578
 30
0.0
  0
ENDBLK
  5
8077
  8
0
  0
BLOCK
  8
0
  2
*D6
 70
     1
 10
0.0
 20
0.0
 30
0.0
  3
*D6
  1

  0
LINE
  5
8079
  8
0
  6
BYBLOCK
 10
3601.2772386011288
 20
3669.5825117166578
 30
0.0
 11
3922.8099249223919
 21
3669.5825117166578
 31
0.0
  0
LINE
  5
807A
  8
0
  6
BYBLOCK
 10
3601.2772386011288
 20
2569.5825117166578
 30
0.0
 11
3922.8099249223919
 21
2569.5825117166578
 31
0.0
  0
LINE
  5
807B
  8
0
  6
BYBLOCK
 10
3897.8099249223919
 20
3619.5825117166578
 30
0.0
 11
3897.8099249223919
 21
2619.5825117166578
 31
0.0
  0
INSERT
  5
807C
  8
0
  6
BYBLOCK
  2
_OPEN
 10
3897.8099249223919
 20
3669.5825117166578
 30
0.0
 41
50.0
 42
50.0
 43
50.0
 50
90.0
  0
INSERT
  5
807D
  8
0
  6
BYBLOCK
  2
_OPEN
 10
3897.8099249223919
 20
2569.5825117166578
 30
0.0
 41
50.0
 42
50.0
 43
50.0
 50
270.0
  0
TEXT
  5
807E
  8
3
 10
3885.3099249223919
 20
3001.725368859516
 30
0.0
 40
75.0
  1
1100
 50
90.0
  0
POINT
  5
807F
  8
DEFPOINTS
  6
BYBLOCK
 62
     0
 10
3576.2772386011288
 20
3669.5825117166578
 30
0.0
  0
POINT
  5
8080
  8
DEFPOINTS
  6
BYBLOCK
 62
     0
 10
3576.2772386011288
 20
2569.5825117166578
 30
0.0
  0
POINT
  5
8081
  8
DEFPOINTS
  6
BYBLOCK
 62
     0
 10
3897.8099249223919
 20
2569.5825117166578
 30
0.0
  0
ENDBLK
  5
8082
  8
0
  0
BLOCK
  8
0
  2
*D7
 70
     1
 10
0.0
 20
0.0
 30
0.0
  3
*D7
  1

  0
LINE
  5
808F
  8
0
  6
BYBLOCK
 10
3076.2772386011288
 20
3694.5825117166578
 30
0.0
 11
3076.2772386011288
 21
3895.8582556731071
 31
0.0
  0
LINE
  5
8090
  8
0
  6
BYBLOCK
 10
2426.2772386011279
 20
3194.5825117166578
 30
0.0
 11
2426.2772386011279
 21
3895.8582556731071
 31
0.0
  0
LINE
  5
8091
  8
0
  6
BYBLOCK
 10
3026.2772386011279
 20
3870.8582556731071
 30
0.0
 11
2476.2772386011279
 21
3870.8582556731071
 31
0.0
  0
INSERT
  5
8092
  8
0
  6
BYBLOCK
  2
_OPEN
 10
3076.2772386011288
 20
3870.8582556731071
 30
0.0
 41
50.0
 42
50.0
 43
50.0
  0
INSERT
  5
8093
  8
0
  6
BYBLOCK
  2
_OPEN
 10
2426.2772386011279
 20
3870.8582556731071
 30
0.0
 41
50.0
 42
50.0
 43
50.0
 50
180.0
  0
TEXT
  5
8094
  8
3
 10
2654.8486671725568
 20
3883.3582556731071
 30
0.0
 40
75.0
  1
650
  0
POINT
  5
8095
  8
DEFPOINTS
  6
BYBLOCK
 62
     0
 10
3076.2772386011288
 20
3669.5825117166578
 30
0.0
  0
POINT
  5
8096
  8
DEFPOINTS
  6
BYBLOCK
 62
     0
 10
2426.2772386011279
 20
3169.5825117166578
 30
0.0
  0
POINT
  5
8097
  8
DEFPOINTS
  6
BYBLOCK
 62
     0
 10
2426.2772386011279
 20
3870.8582556731071
 30
0.0
  0
ENDBLK
  5
8098
  8
0
  0
BLOCK
  8
0
  2
*D8
 70
     1
 10
0.0
 20
0.0
 30
0.0
  3
*D8
  1

  0
LINE
  5
809A
  8
0
  6
BYBLOCK
 10
5312.819695129132
 20
1574.423564340666
 30
0.0
 11
5312.819695129132
 21
1663.2747288752239
 31
0.0
  0
LINE
  5
809B
  8
0
  6
BYBLOCK
 10
5737.819695129132
 20
1574.423564340666
 30
0.0
 11
5737.819695129132
 21
1663.2747288752239
 31
0.0
  0
LINE
  5
809C
  8
0
  6
BYBLOCK
 10
5362.819695129132
 20
1638.2747288752239
 30
0.0
 11
5687.819695129132
 21
1638.2747288752239
 31
0.0
  0
INSERT
  5
809D
  8
0
  6
BYBLOCK
  2
_OPEN
 10
5312.819695129132
 20
1638.2747288752239
 30
0.0
 41
50.0
 42
50.0
 43
50.0
 50
180.0
  0
INSERT
  5
809E
  8
0
  6
BYBLOCK
  2
_OPEN
 10
5737.819695129132
 20
1638.2747288752239
 30
0.0
 41
50.0
 42
50.0
 43
50.0
  0
TEXT
  5
809F
  8
3
 10
5428.8911237005595
 20
1650.7747288752239
 30
0.0
 40
75.0
  1
425
  0
POINT
  5
80A0
  8
DEFPOINTS
  6
BYBLOCK
 62
     0
 10
5312.819695129132
 20
1549.423564340666
 30
0.0
  0
POINT
  5
80A1
  8
DEFPOINTS
  6
BYBLOCK
 62
     0
 10
5737.819695129132
 20
1549.423564340666
 30
0.0
  0
POINT
  5
80A2
  8
DEFPOINTS
  6
BYBLOCK
 62
     0
 10
5737.819695129132
 20
1638.2747288752239
 30
0.0
  0
ENDBLK
  5
80A3
  8
0
  0
BLOCK
  8
0
  2
*D9
 70
     1
 10
0.0
 20
0.0
 30
0.0
  3
*D9
  1

  0
LINE
  5
8192
  8
0
  6
BYBLOCK
 10
4231.4577771373797
 20
3469.638094388114
 30
0.0
 11
4231.4577771373797
 21
3602.1304898521648
 31
0.0
  0
LINE
  5
8193
  8
0
  6
BYBLOCK
 10
3280.9577771373788
 20
3099.5239176173409
 30
0.0
 11
3280.9577771373788
 21
3602.1304898521648
 31
0.0
  0
LINE
  5
8194
  8
0
  6
BYBLOCK
 10
4181.4577771373797
 20
3577.1304898521648
 30
0.0
 11
3330.9577771373788
 21
3577.1304898521648
 31
0.0
  0
INSERT
  5
8195
  8
0
  6
BYBLOCK
  2
_OPEN
 10
4231.4577771373797
 20
3577.1304898521648
 30
0.0
 41
50.0
 42
50.0
 43
50.0
  0
INSERT
  5
8196
  8
0
  6
BYBLOCK
  2
_OPEN
 10
3280.9577771373788
 20
3577.1304898521648
 30
0.0
 41
50.0
 42
50.0
 43
50.0
 50
180.0
  0
INSERT
  5
8197
  8
3
  2
*U24
 10
0.0
 20
0.0
 30
0.0
  0
POINT
  5
8198
  8
DEFPOINTS
  6
BYBLOCK
 62
     0
 10
4231.4577771373797
 20
3444.638094388114
 30
0.0
  0
POINT
  5
8199
  8
DEFPOINTS
  6
BYBLOCK
 62
     0
 10
3280.9577771373788
 20
3074.5239176173409
 30
0.0
  0
POINT
  5
819A
  8
DEFPOINTS
  6
BYBLOCK
 62
     0
 10
3280.9577771373788
 20
3577.1304898521648
 30
0.0
  0
ENDBLK
  5
819B
  8
0
  0
BLOCK
  8
0
  2
*D10
 70
     1
 10
0.0
 20
0.0
 30
0.0
  3
*D10
  1

  0
LINE
  5
80D1
  8
0
  6
BYBLOCK
 10
3716.2772386011279
 20
1189.4235643406671
 30
0.0
 11
3716.2772386011279
 21
1692.2721984710081
 31
0.0
  0
LINE
  5
80D2
  8
0
  6
BYBLOCK
 10
3326.2772386011279
 20
1621.7653309969101
 30
0.0
 11
3326.2772386011279
 21
1692.2721984710081
 31
0.0
  0
LINE
  5
80D3
  8
0
  6
BYBLOCK
 10
3666.2772386011279
 20
1667.2721984710081
 30
0.0
 11
3376.2772386011279
 21
1667.2721984710081
 31
0.0
  0
INSERT
  5
80D4
  8
0
  6
BYBLOCK
  2
_OPEN
 10
3716.2772386011279
 20
1667.2721984710081
 30
0.0
 41
50.0
 42
50.0
 43
50.0
  0
INSERT
  5
80D5
  8
0
  6
BYBLOCK
  2
_OPEN
 10
3326.2772386011279
 20
1667.2721984710081
 30
0.0
 41
50.0
 42
50.0
 43
50.0
 50
180.0
  0
TEXT
  5
80D6
  8
3
 10
3424.8486671725559
 20
1679.7721984710081
 30
0.0
 40
75.0
  1
390
  0
POINT
  5
80D7
  8
DEFPOINTS
  6
BYBLOCK
 62
     0
 10
3716.2772386011279
 20
1164.4235643406671
 30
0.0
  0
POINT
  5
80D8
  8
DEFPOINTS
  6
BYBLOCK
 62
     0
 10
3326.2772386011279
 20
1596.7653309969101
 30
0.0
  0
POINT
  5
80D9
  8
DEFPOINTS
  6
BYBLOCK
 62
     0
 10
3326.2772386011279
 20
1667.2721984710081
 30
0.0
  0
ENDBLK
  5
80DA
  8
0
  0
BLOCK
  8
0
  2
*D11
 70
     1
 10
0.0
 20
0.0
 30
0.0
  3
*D11
  1

  0
LINE
  5
80DC
  8
0
  6
BYBLOCK
 10
3901.4010142149109
 20
1159.423564340666
 30
0.0
 11
4190.3440912284013
 21
1159.423564340666
 31
0.0
  0
LINE
  5
80DD
  8
0
  6
BYBLOCK
 10
3601.2772386011261
 20
449.42356434066642
 30
0.0
 11
4190.3440912284013
 21
449.42356434066642
 31
0.0
  0
LINE
  5
80DE
  8
0
  6
BYBLOCK
 10
4165.3440912284004
 20
1109.423564340666
 30
0.0
 11
4165.3440912284004
 21
499.42356434066642
 31
0.0
  0
INSERT
  5
80DF
  8
0
  6
BYBLOCK
  2
_OPEN
 10
4165.3440912284004
 20
1159.423564340666
 30
0.0
 41
50.0
 42
50.0
 43
50.0
 50
90.0
  0
INSERT
  5
80E0
  8
0
  6
BYBLOCK
  2
_OPEN
 10
4165.3440912284004
 20
449.42356434066642
 30
0.0
 41
50.0
 42
50.0
 43
50.0
 50
270.0
  0
TEXT
  5
80E1
  8
3
 10
4152.8440912284013
 20
715.1378500549522
 30
0.0
 40
75.0
  1
710
 50
90.0
  0
POINT
  5
80E2
  8
DEFPOINTS
  6
BYBLOCK
 62
     0
 10
3876.4010142149109
 20
1159.423564340666
 30
0.0
  0
POINT
  5
80E3
  8
DEFPOINTS
  6
BYBLOCK
 62
     0
 10
3576.2772386011261
 20
449.42356434066642
 30
0.0
  0
POINT
  5
80E4
  8
DEFPOINTS
  6
BYBLOCK
 62
     0
 10
4165.3440912284004
 20
449.42356434066642
 30
0.0
  0
ENDBLK
  5
80E5
  8
0
  0
BLOCK
  8
0
  2
*D12
 70
     1
 10
0.0
 20
0.0
 30
0.0
  3
*D12
  1

  0
LINE
  5
82B6
  8
3
 10
1548.415320609377
 20
2879.5239176173409
 30
0.0
 11
1548.415320609377
 21
3387.3725517476828
 31
0.0
  0
LINE
  5
82B7
  8
3
 10
1982.4153206093761
 20
3362.3725517476828
 30
0.0
 11
1598.415320609377
 21
3362.3725517476828
 31
0.0
  0
INSERT
  5
82B8
  8
3
  2
_OPEN
 10
2032.415320609377
 20
3362.3725517476828
 30
0.0
 41
50.0
 42
50.0
 43
50.0
  0
INSERT
  5
82B9
  8
3
  2
_OPEN
 10
1548.415320609377
 20
3362.3725517476828
 30
0.0
 41
50.0
 42
50.0
 43
50.0
 50
180.0
  0
TEXT
  8
3
  40
75
  5
82FB
  72
0
  71
0
 10
1640.42
 20
3279.62
 30
0.000000
  1
484
  0
POINT
  5
82BB
  8
DEFPOINTS
 62
     0
 10
2032.415320609377
 20
3291.865684273585
 30
0.0
  0
POINT
  5
82BC
  8
DEFPOINTS
 62
     0
 10
1548.415320609377
 20
2854.5239176173418
 30
0.0
  0
POINT
  5
82BD
  8
DEFPOINTS
 62
     0
 10
1548.415320609377
 20
3362.3725517476828
 30
0.0
  0
ENDBLK
  5
80EF
  8
0
  0
BLOCK
  8
0
  2
*D13
 70
     1
 10
0.0
 20
0.0
 30
0.0
  3
*D13
  1

  0
LINE
  5
80F1
  8
0
  6
BYBLOCK
 10
3716.2772386011279
 20
1164.4235643406671
 30
0.0
 11
3716.2772386011279
 21
1874.1289945934891
 31
0.0
  0
LINE
  5
80F2
  8
0
  6
BYBLOCK
 10
2426.2772386011279
 20
549.42356434066642
 30
0.0
 11
2426.2772386011279
 21
1874.1289945934891
 31
0.0
  0
LINE
  5
80F3
  8
0
  6
BYBLOCK
 10
3666.2772386011279
 20
1849.1289945934891
 30
0.0
 11
2476.2772386011279
 21
1849.1289945934891
 31
0.0
  0
INSERT
  5
80F4
  8
0
  6
BYBLOCK
  2
_OPEN
 10
3716.2772386011279
 20
1849.1289945934891
 30
0.0
 41
50.0
 42
50.0
 43
50.0
  0
INSERT
  5
80F5
  8
0
  6
BYBLOCK
  2
_OPEN
 10
2426.2772386011279
 20
1849.1289945934891
 30
0.0
 41
50.0
 42
50.0
 43
50.0
 50
180.0
  0
TEXT
  5
80F6
  8
3
 10
2946.2772386011279
 20
1861.6289945934891
 30
0.0
 40
75.0
  1
1290
  0
POINT
  5
80F7
  8
DEFPOINTS
  6
BYBLOCK
 62
     0
 10
3716.2772386011279
 20
1139.4235643406671
 30
0.0
  0
POINT
  5
80F8
  8
DEFPOINTS
  6
BYBLOCK
 62
     0
 10
2426.2772386011279
 20
524.42356434066642
 30
0.0
  0
POINT
  5
80F9
  8
DEFPOINTS
  6
BYBLOCK
 62
     0
 10
2426.2772386011279
 20
1849.1289945934891
 30
0.0
  0
ENDBLK
  5
80FA
  8
0
  0
BLOCK
  8
0
  2
*D14
 70
     1
 10
0.0
 20
0.0
 30
0.0
  3
*D14
  1

  0
LINE
  5
80FC
  8
0
  6
BYBLOCK
 10
3901.4010142149109
 20
1159.423564340666
 30
0.0
 11
4053.92833161315
 21
1159.423564340666
 31
0.0
  0
LINE
  5
80FD
  8
0
  6
BYBLOCK
 10
3741.2772386011279
 20
559.42356434066642
 30
0.0
 11
4053.92833161315
 21
559.42356434066642
 31
0.0
  0
LINE
  5
80FE
  8
0
  6
BYBLOCK
 10
4028.92833161315
 20
1109.423564340666
 30
0.0
 11
4028.92833161315
 21
609.42356434066642
 31
0.0
  0
INSERT
  5
80FF
  8
0
  6
BYBLOCK
  2
_OPEN
 10
4028.92833161315
 20
1159.423564340666
 30
0.0
 41
50.0
 42
50.0
 43
50.0
 50
90.0
  0
INSERT
  5
8100
  8
0
  6
BYBLOCK
  2
_OPEN
 10
4028.92833161315
 20
559.42356434066642
 30
0.0
 41
50.0
 42
50.0
 43
50.0
 50
270.0
  0
TEXT
  5
8101
  8
3
 10
4016.42833161315
 20
762.99499291209486
 30
0.0
 40
75.0
  1
600
 50
90.0
  0
POINT
  5
8102
  8
DEFPOINTS
  6
BYBLOCK
 62
     0
 10
3876.4010142149109
 20
1159.423564340666
 30
0.0
  0
POINT
  5
8103
  8
DEFPOINTS
  6
BYBLOCK
 62
     0
 10
3716.2772386011279
 20
559.42356434066642
 30
0.0
  0
POINT
  5
8104
  8
DEFPOINTS
  6
BYBLOCK
 62
     0
 10
4028.92833161315
 20
559.42356434066642
 30
0.0
  0
ENDBLK
  5
8105
  8
0
  0
BLOCK
  8
0
  2
*D15
 70
     1
 10
0.0
 20
0.0
 30
0.0
  3
*D15
  1

  0
LINE
  5
8107
  8
0
  6
BYBLOCK
 10
3741.2772386011279
 20
1139.4235643406671
 30
0.0
 11
3918.3544270275911
 21
1139.4235643406671
 31
0.0
  0
LINE
  5
8108
  8
0
  6
BYBLOCK
 10
3741.2772386011279
 20
559.42356434066642
 30
0.0
 11
3918.3544270275911
 21
559.42356434066642
 31
0.0
  0
LINE
  5
8109
  8
0
  6
BYBLOCK
 10
3893.354427027592
 20
1089.4235643406671
 30
0.0
 11
3893.354427027592
 21
609.42356434066642
 31
0.0
  0
INSERT
  5
810A
  8
0
  6
BYBLOCK
  2
_OPEN
 10
3893.354427027592
 20
1139.4235643406671
 30
0.0
 41
50.0
 42
50.0
 43
50.0
 50
90.0
  0
INSERT
  5
810B
  8
0
  6
BYBLOCK
  2
_OPEN
 10
3893.354427027592
 20
559.42356434066642
 30
0.0
 41
50.0
 42
50.0
 43
50.0
 50
270.0
  0
TEXT
  5
810C
  8
3
 10
3880.8544270275911
 20
752.99499291209543
 30
0.0
 40
75.0
  1
580
 50
90.0
  0
POINT
  5
810D
  8
DEFPOINTS
  6
BYBLOCK
 62
     0
 10
3716.2772386011279
 20
1139.4235643406671
 30
0.0
  0
POINT
  5
810E
  8
DEFPOINTS
  6
BYBLOCK
 62
     0
 10
3716.2772386011279
 20
559.42356434066642
 30
0.0
  0
POINT
  5
810F
  8
DEFPOINTS
  6
BYBLOCK
 62
     0
 10
3893.354427027592
 20
559.42356434066642
 30
0.0
  0
ENDBLK
  5
8110
  8
0
  0
BLOCK
  8
0
  2
*D16
 70
     1
 10
0.0
 20
0.0
 30
0.0
  3
*D16
  1

  0
LINE
  5
82BE
  8
3
 10
2057.415320609377
 20
3254.5239176173409
 30
0.0
 11
2896.4821732366499
 21
3254.5239176173409
 31
0.0
  0
LINE
  5
82BF
  8
3
 10
2871.482173236649
 20
2904.5239176173409
 30
0.0
 11
2871.4821732366499
 21
3204.5239176173418
 31
0.0
  0
INSERT
  5
82C0
  8
3
  2
_OPEN
 10
2871.482173236649
 20
2854.5239176173418
 30
0.0
 41
50.0
 42
50.0
 43
50.0
 50
270.0
  0
INSERT
  5
82C1
  8
3
  2
_OPEN
 10
2871.4821732366499
 20
3254.5239176173409
 30
0.0
 41
50.0
 42
50.0
 43
50.0
 50
90.0
  0
TEXT
  8
3
  40
75
  5
82FC
  72
0
  71
0
 10
2671.48
 20
2921.77
 30
0.000000
  1
400
  0
POINT
  5
82C3
  8
DEFPOINTS
 62
     0
 10
2582.53909622316
 20
2854.5239176173418
 30
0.0
  0
POINT
  5
82C4
  8
DEFPOINTS
 62
     0
 10
2032.415320609377
 20
3254.5239176173409
 30
0.0
  0
POINT
  5
82C5
  8
DEFPOINTS
 62
     0
 10
2871.4821732366499
 20
3254.5239176173409
 30
0.0
  0
ENDBLK
  5
811A
  8
0
  0
BLOCK
  8
0
  2
_DOT
 70
     0
 10
0.0
 20
0.0
 30
0.0
  3
_DOT
  1

  0
LINE
  5
8185
  8
0
  6
BYBLOCK
 62
     0
 10
0.0
 20
0.0
 30
0.0
 11
-1.0
 21
-0.0000000000000284
 31
0.0
  0
POLYLINE
  5
8186
  8
0
  6
BYBLOCK
 62
     0
 66
     1
 10
0.0
 20
0.0
 30
0.0
 70
     1
 40
0.1666666666666666
 41
0.1666666666666666
  0
VERTEX
  5
82C6
  8
0
  6
BYBLOCK
 62
     0
 10
-0.0833333333333286
 20
-0.0000000000000284
 30
0.0
 42
1.0
  0
VERTEX
  5
82C7
  8
0
  6
BYBLOCK
 62
     0
 10
0.0833333333333286
 20
-0.0000000000000284
 30
0.0
 42
1.0
  0
SEQEND
  5
82C8
  8
0
  6
BYBLOCK
 62
     0
  0
ENDBLK
  5
816B
  8
0
  0
BLOCK
  8
0
  2
*D18
 70
     1
 10
0.0
 20
0.0
 30
0.0
  3
*D18
  1

  0
LINE
  5
81C1
  8
0
  6
BYBLOCK
 62
     0
 10
4446.4577771373779
 20
3267.0239176173418
 30
0.0
 11
4446.4577771373779
 21
3602.1304898521648
 31
0.0
  0
LINE
  5
81C2
  8
0
  6
BYBLOCK
 62
     0
 10
4281.4577771373788
 20
3577.1304898521648
 30
0.0
 11
4396.4577771373788
 21
3577.1304898521648
 31
0.0
  0
TEXT
  5
81C3
  8
3
 62
     0
 10
4249.6720628516641
 20
3602.510605318249
 30
0.0
 40
75.0
  1
215
  0
INSERT
  5
81C4
  8
0
  6
BYBLOCK
 62
     0
  2
_OPEN
 10
4231.4577771373797
 20
3577.1304898521648
 30
0.0
 41
50.0
 42
50.0
 43
50.0
 50
180.0
  0
INSERT
  5
81C5
  8
0
  6
BYBLOCK
 62
     0
  2
_OPEN
 10
4446.4577771373779
 20
3577.1304898521648
 30
0.0
 41
50.0
 42
50.0
 43
50.0
  0
POINT
  5
81C6
  8
DEFPOINTS
  6
BYBLOCK
 62
     0
 10
4231.4577771373797
 20
3444.638094388114
 30
0.0
  0
POINT
  5
81C7
  8
DEFPOINTS
  6
BYBLOCK
 62
     0
 10
4446.4577771373779
 20
3254.5239176173409
 30
0.0
  0
POINT
  5
81C8
  8
DEFPOINTS
  6
BYBLOCK
 62
     0
 10
4446.4577771373779
 20
3577.1304898521648
 30
0.0
  0
ENDBLK
  5
81C9
  8
0
  0
BLOCK
  8
0
  2
*D19
 70
     1
 10
0.0
 20
0.0
 30
0.0
  3
*D19
  1

  0
LINE
  5
82CE
  8
3
 62
     0
 10
1132.4153206093761
 20
2132.0239176173409
 30
0.0
 11
1132.4153206093761
 21
1955.1052034705381
 31
0.0
  0
LINE
  5
82CF
  8
3
 62
     0
 10
2032.415320609377
 20
2132.0239176173409
 30
0.0
 11
2032.415320609377
 21
1955.1052034705381
 31
0.0
  0
LINE
  5
82D0
  8
3
 62
     0
 10
1182.415320609377
 20
1980.105203470539
 30
0.0
 11
1982.4153206093761
 21
1980.105203470539
 31
0.0
  0
INSERT
  5
82D1
  8
3
 62
     0
  2
_OPEN
 10
1132.4153206093761
 20
1980.105203470539
 30
0.0
 41
50.0
 42
50.0
 43
50.0
 50
180.0
  0
INSERT
  5
82D2
  8
3
 62
     0
  2
_OPEN
 10
2032.415320609377
 20
1980.105203470539
 30
0.0
 41
50.0
 42
50.0
 43
50.0
  0
TEXT
  8
3
  40
75
  5
82FD
  62
0
  72
0
  71
0
 10
1432.42
 20
1909.86
 30
0.000000
  1
900
  0
POINT
  5
82D4
  8
DEFPOINTS
 62
     0
 10
1132.4153206093761
 20
2144.5239176173418
 30
0.0
  0
POINT
  5
82D5
  8
DEFPOINTS
 62
     0
 10
2032.415320609377
 20
2144.5239176173418
 30
0.0
  0
POINT
  5
82D6
  8
DEFPOINTS
 62
     0
 10
2032.415320609377
 20
1980.105203470539
 30
0.0
  0
ENDBLK
  5
8238
  8
0
  0
BLOCK
  8
0
  2
*D20
 70
     1
 10
0.0
 20
0.0
 30
0.0
  3
*D20
  1

  0
LINE
  5
82D7
  8
3
 62
     0
 10
2032.415320609377
 20
2132.0239176173409
 30
0.0
 11
2032.415320609377
 21
1955.1052034705381
 31
0.0
  0
LINE
  5
82D8
  8
3
 62
     0
 10
2282.4153206093752
 20
2132.0239176173409
 30
0.0
 11
2282.4153206093752
 21
1955.1052034705381
 31
0.0
  0
LINE
  5
82D9
  8
3
 62
     0
 10
2082.4153206093761
 20
1980.105203470539
 30
0.0
 11
2232.4153206093752
 21
1980.105203470539
 31
0.0
  0
INSERT
  5
82DA
  8
3
 62
     0
  2
_OPEN
 10
2032.415320609377
 20
1980.105203470539
 30
0.0
 41
50.0
 42
50.0
 43
50.0
 50
180.0
  0
INSERT
  5
82DB
  8
3
 62
     0
  2
_OPEN
 10
2282.4153206093752
 20
1980.105203470539
 30
0.0
 41
50.0
 42
50.0
 43
50.0
  0
TEXT
  8
3
  40
75
  5
82FE
  62
0
  72
0
  71
0
 10
2007.42
 20
1909.86
 30
0.000000
  1
250
  0
POINT
  5
82DD
  8
DEFPOINTS
 62
     0
 10
2032.415320609377
 20
2144.5239176173418
 30
0.0
  0
POINT
  5
82DE
  8
DEFPOINTS
 62
     0
 10
2282.4153206093752
 20
2144.5239176173418
 30
0.0
  0
POINT
  5
82DF
  8
DEFPOINTS
 62
     0
 10
2282.4153206093752
 20
1980.105203470539
 30
0.0
  0
ENDBLK
  5
8247
  8
0
  0
BLOCK
  8
0
  2
*D21
 70
     1
 10
0.0
 20
0.0
 30
0.0
  3
*D21
  1

  0
LINE
  5
82E0
  8
3
 62
     0
 10
3386.4577771373811
 20
2132.0239176173409
 30
0.0
 11
3386.4577771373811
 21
1955.1052034705381
 31
0.0
  0
LINE
  5
82E1
  8
3
 62
     0
 10
4231.4577771373824
 20
2132.0239176173409
 30
0.0
 11
4231.4577771373824
 21
1955.1052034705381
 31
0.0
  0
LINE
  5
82E2
  8
3
 62
     0
 10
3436.4577771373802
 20
1980.105203470539
 30
0.0
 11
4181.4577771373824
 21
1980.105203470539
 31
0.0
  0
INSERT
  5
82E3
  8
3
 62
     0
  2
_OPEN
 10
3386.4577771373811
 20
1980.105203470539
 30
0.0
 41
50.0
 42
50.0
 43
50.0
 50
180.0
  0
INSERT
  5
82E4
  8
3
 62
     0
  2
_OPEN
 10
4231.4577771373824
 20
1980.105203470539
 30
0.0
 41
50.0
 42
50.0
 43
50.0
  0
TEXT
  8
3
  40
75
  5
82FF
  62
0
  72
0
  71
0
 10
3658.96
 20
1909.86
 30
0.000000
  1
845
  0
POINT
  5
82E6
  8
DEFPOINTS
 62
     0
 10
3386.4577771373811
 20
2144.5239176173418
 30
0.0
  0
POINT
  5
82E7
  8
DEFPOINTS
 62
     0
 10
4231.4577771373824
 20
2144.5239176173418
 30
0.0
  0
POINT
  5
82E8
  8
DEFPOINTS
 62
     0
 10
4231.4577771373824
 20
1980.105203470539
 30
0.0
  0
ENDBLK
  5
8254
  8
0
  0
BLOCK
  8
0
  2
*D22
 70
     1
 10
0.0
 20
0.0
 30
0.0
  3
*D22
  1

  0
LINE
  5
82E9
  8
3
 62
     0
 10
4231.4577771373824
 20
2132.0239176173409
 30
0.0
 11
4231.4577771373824
 21
1955.1052034705381
 31
0.0
  0
LINE
  5
82EA
  8
3
 62
     0
 10
4486.4577771373806
 20
2132.0239176173409
 30
0.0
 11
4486.4577771373806
 21
1955.1052034705381
 31
0.0
  0
LINE
  5
82EB
  8
3
 62
     0
 10
4281.4577771373824
 20
1980.105203470539
 30
0.0
 11
4436.4577771373806
 21
1980.105203470539
 31
0.0
  0
INSERT
  5
82EC
  8
3
 62
     0
  2
_OPEN
 10
4231.4577771373824
 20
1980.105203470539
 30
0.0
 41
50.0
 42
50.0
 43
50.0
 50
180.0
  0
INSERT
  5
82ED
  8
3
 62
     0
  2
_OPEN
 10
4486.4577771373806
 20
1980.105203470539
 30
0.0
 41
50.0
 42
50.0
 43
50.0
  0
TEXT
  8
3
  40
75
  5
8300
  62
0
  72
0
  71
0
 10
4208.96
 20
1909.86
 30
0.000000
  1
255
  0
POINT
  5
82EF
  8
DEFPOINTS
 62
     0
 10
4231.4577771373824
 20
2144.5239176173418
 30
0.0
  0
POINT
  5
82F0
  8
DEFPOINTS
 62
     0
 10
4486.4577771373806
 20
2144.5239176173418
 30
0.0
  0
POINT
  5
82F1
  8
DEFPOINTS
 62
     0
 10
4486.4577771373806
 20
1980.105203470539
 30
0.0
  0
ENDBLK
  5
8263
  8
0
  0
BLOCK
  8
0
  2
*D23
 70
     1
 10
0.0
 20
0.0
 30
0.0
  3
*D23
  1

  0
LINE
  5
82F2
  8
3
 62
     0
 10
2007.6243680974731
 20
3254.4988319187701
 30
0.0
 11
3074.2247183453978
 21
3254.4988319187692
 31
0.0
  0
LINE
  5
82F3
  8
3
 62
     0
 10
2294.9153206093752
 20
2144.5239176173418
 30
0.0
 11
3074.2247183453978
 21
2144.5239176173409
 31
0.0
  0
LINE
  5
82F4
  8
3
 62
     0
 10
3049.2247183453978
 20
3204.4988319187701
 30
0.0
 11
3049.2247183453978
 21
2194.5239176173409
 31
0.0
  0
INSERT
  5
82F5
  8
3
 62
     0
  2
_OPEN
 10
3049.2247183453978
 20
3254.4988319187701
 30
0.0
 41
50.0
 42
50.0
 43
50.0
 50
90.0
  0
INSERT
  5
82F6
  8
3
 62
     0
  2
_OPEN
 10
3049.2247183453978
 20
2144.5239176173418
 30
0.0
 41
50.0
 42
50.0
 43
50.0
 50
270.0
  0
TEXT
  8
3
  40
75
  5
8301
  62
0
  72
0
  71
0
 10
2836.72
 20
2566.76
 30
0.000000
  1
1110
  0
POINT
  5
82F8
  8
DEFPOINTS
 62
     0
 10
1995.1243680974731
 20
3254.4988319187701
 30
0.0
  0
POINT
  5
82F9
  8
DEFPOINTS
 62
     0
 10
2282.4153206093752
 20
2144.5239176173418
 30
0.0
  0
POINT
  5
82FA
  8
DEFPOINTS
 62
     0
 10
3049.2247183453978
 20
2144.5239176173418
 30
0.0
  0
ENDBLK
  5
8270
  8
0
  0
BLOCK
  8
0
  2
*U24
 70
     1
 10
0.0
 20
0.0
 30
0.0
  3
*U24
  1

  0
TEXT
  5
82CA
  8
3
 10
3649.0649199945228
 20
3714.6304898521648
 30
0.0
 40
75.0
  1
MAX
  0
TEXT
  5
82CB
  8
3
 10
3631.2077771373802
 20
3589.6304898521648
 30
0.0
 40
75.0
  1
1020
  0
ENDBLK
  5
82CD
  8
0
  0
ENDSEC
  0
SECTION
  2
ENTITIES
  0
INSERT
  5
7D2A
  8
0
  2
YA_N
 10
6.0
 20
5.0
 30
0.0
  0
INSERT
  5
7D2B
  8
0
  2
YA_N
 10
6.0
 20
5.0
 30
0.0
  0
INSERT
  5
7D2C
  8
0
  2
YA_N
 10
6.0
 20
5.0
 30
0.0
  0
LINE
  5
7D2D
  8
2
 10
4231.4577771373824
 20
2144.5239176173418
 30
0.0
 11
4231.4577771373797
 21
3323.5364816587398
 31
0.0
  0
LINE
  5
7D2E
  8
1
 10
4438.6404726144274
 20
3151.6523054690042
 30
0.0
 11
4453.6871673589812
 21
3151.6523054690042
 31
0.0
  0
LINE
  5
7D2F
  8
1
 10
3418.9577771373802
 20
2791.323917617342
 30
0.0
 11
3933.9577771373788
 21
2791.323917617342
 31
0.0
  0
LINE
  5
7D30
  8
1
 10
3424.457777137382
 20
2219.5239176173418
 30
0.0
 11
3424.4577771373802
 21
2254.5239176173409
 31
0.0
  0
LINE
  5
7D31
  8
1
 10
3928.4577771373811
 20
2219.5239176173418
 30
0.0
 11
3928.4577771373802
 21
2791.323917617342
 31
0.0
  0
LINE
  5
7D32
  8
1
 10
3386.457777137382
 20
2219.5239176173418
 30
0.0
 11
4486.4577771373806
 21
2219.5239176173418
 31
0.0
  0
LINE
  5
7D33
  8
1
 10
3386.457777137382
 20
2144.5239176173418
 30
0.0
 11
4486.4577771373806
 21
2144.5239176173418
 31
0.0
  0
LINE
  5
7D34
  8
1
 10
4486.4577771373806
 20
2144.5239176173418
 30
0.0
 11
4486.4577771373806
 21
2219.5239176173418
 31
0.0
  0
LINE
  5
7D35
  8
1
 10
3928.4577771373802
 20
2726.3239176173411
 30
0.0
 11
4016.4577771373802
 21
2726.323917617342
 31
0.0
  0
LINE
  5
7D36
  8
1
 10
3928.4577771373802
 20
2732.323917617342
 30
0.0
 11
4016.4577771373802
 21
2732.323917617342
 31
0.0
  0
LINE
  5
7D39
  8
1
 10
3363.9577771373802
 20
2879.5239176173418
 30
0.0
 11
4016.4577771373802
 21
2879.5239176173409
 31
0.0
  0
LINE
  5
7D3A
  8
1
 10
3363.9577771373802
 20
2829.5239176173418
 30
0.0
 11
4016.4577771373802
 21
2829.5239176173418
 31
0.0
  0
LINE
  5
7D3C
  8
1
 10
3363.9577771373788
 20
2326.5239176173418
 30
0.0
 11
3363.9577771373788
 21
2981.5239176173409
 31
0.0
  0
LINE
  5
7D3D
  8
1
 10
3300.9577771373802
 20
2326.5239176173418
 30
0.0
 11
3300.9577771373802
 21
2981.5239176173409
 31
0.0
  0
LINE
  5
7D40
  8
1
 10
3300.9577771373802
 20
2981.5239176173409
 30
0.0
 11
3363.9577771373788
 21
2981.5239176173409
 31
0.0
  0
LINE
  5
7D41
  8
1
 10
3300.9577771373802
 20
2727.5239176173409
 30
0.0
 11
3363.9577771373788
 21
2727.5239176173409
 31
0.0
  0
LINE
  5
7D45
  8
1
 10
3300.9577771373802
 20
2466.5239176173418
 30
0.0
 11
3363.9577771373788
 21
2466.5239176173418
 31
0.0
  0
LINE
  5
7D46
  8
1
 10
3300.9577771373802
 20
2326.5239176173418
 30
0.0
 11
3363.9577771373788
 21
2326.5239176173418
 31
0.0
  0
LINE
  5
7D4A
  8
1
 10
3280.9577771373788
 20
3074.5239176173409
 30
0.0
 11
3402.9577771373788
 21
3074.5239176173409
 31
0.0
  0
LINE
  5
7D4B
  8
1
 10
3280.9577771373811
 20
2246.5239176173409
 30
0.0
 11
3402.9577771373788
 21
2246.5239176173409
 31
0.0
  0
LINE
  5
7D4C
  8
1
 10
3280.9577771373811
 20
2246.5239176173409
 30
0.0
 11
3280.9577771373788
 21
3074.5239176173409
 31
0.0
  0
LINE
  5
7D4D
  8
1
 10
3402.9577771373788
 20
2246.5239176173409
 30
0.0
 11
3402.9577771373802
 21
2319.4974408608318
 31
0.0
  0
DIMENSION
  5
7D4F
  8
3
  2
*D2
 10
4674.5485393423814
 20
2574.5239176173441
 30
0.0
 11
4624.5485393423796
 21
2854.5239176173432
 31
0.0
 12
-1293.8619179917509
 22
1695.1003532766749
 32
0.0
 70
     0
  1
φ560
 13
4468.7577771373808
 23
3134.5239176173432
 33
0.0
 14
4468.7577771373808
 24
2574.5239176173441
 34
0.0
 50
90.0
1001
ACAD
1000
DSTYLE
1002
{
1070
    40
1040
25.0
1002
}
  0
LINE
  5
7D53
  8
2
 10
3250.077535423341
 20
2854.5239176173418
 30
0.0
 11
4496.1304561339002
 21
2854.5239176173418
 31
0.0
  0
LINE
  5
7D54
  8
2
 10
3250.077535423341
 20
2396.5239176173409
 30
0.0
 11
3520.3274896442108
 21
2396.5239176173409
 31
0.0
  0
LINE
  5
7D55
  8
1
 10
1132.4153206093761
 20
4264.6828649933341
 30
0.0
 11
1190.415320609377
 21
4264.6828649933341
 31
0.0
  0
LINE
  5
7D56
  8
1
 10
2282.415320609377
 20
4264.6828649933341
 30
0.0
 11
2282.415320609377
 21
4897.182864993335
 31
0.0
  0
LINE
  5
7D57
  8
1
 10
2282.415320609377
 20
5364.6828649933341
 30
0.0
 11
1782.415320609377
 21
5364.6828649933341
 31
0.0
  0
LINE
  5
7D58
  8
1
 10
1132.4153206093761
 20
4864.6828649933341
 30
0.0
 11
1132.4153206093761
 21
4264.6828649933341
 31
0.0
  0
LINE
  5
7D59
  8
1
 10
1782.415320609377
 20
4864.6828649933341
 30
0.0
 11
1782.4153206093761
 21
4897.1828649933341
 31
0.0
  0
LINE
  5
7D5A
  8
1
 10
1132.4153206093761
 20
4864.6828649933341
 30
0.0
 11
1782.415320609377
 21
4864.6828649933341
 31
0.0
  0
LINE
  5
7D5B
  8
2
 10
2483.275155577468
 20
5109.682864993335
 30
0.0
 11
1504.022738728072
 21
5109.682864993335
 31
0.0
  0
DIMENSION
  5
7D5C
  8
3
  2
*D3
 10
2282.415320609377
 20
5565.9586089497834
 30
0.0
 11
2032.415320609377
 21
5615.9586089497834
 31
0.0
 12
-1293.8619179917509
 22
1695.1003532766749
 32
0.0
 70
     0
 13
1782.415320609377
 23
5364.6828649933341
 33
0.0
 14
2282.415320609377
 24
5364.6828649933341
 34
0.0
1001
ACAD
1000
DSTYLE
1002
{
1070
    40
1040
25.0
1002
}
  0
DIMENSION
  5
7D5D
  8
3
  2
*D4
 10
2282.415320609377
 20
3876.2613773774119
 30
0.0
 11
1707.415320609377
 21
3876.2613773774119
 31
0.0
 12
-1293.8619179917509
 22
1695.1003532766749
 32
0.0
 70
   128
 13
1132.4153206093761
 23
4264.6828649933341
 33
0.0
 14
2282.415320609377
 24
4264.6828649933341
 34
0.0
1001
ACAD
1000
DSTYLE
1002
{
1070
    40
1040
25.0
1002
}
  0
DIMENSION
  5
7D5E
  8
3
  2
*D5
 10
923.47922831857704
 20
4264.6828649933341
 30
0.0
 11
873.47922831857704
 21
4564.6828649933341
 31
0.0
 12
-1293.8619179917509
 22
1695.1003532766749
 32
0.0
 70
     0
 13
1132.4153206093761
 23
4864.6828649933341
 33
0.0
 14
1132.4153206093761
 24
4264.6828649933341
 34
0.0
 50
90.0
1001
ACAD
1000
DSTYLE
1002
{
1070
    40
1040
25.0
1002
}
  0
DIMENSION
  5
7D5F
  8
3
  2
*D6
 10
2603.9480069306401
 20
4264.6828649933341
 30
0.0
 11
2553.948006930641
 21
4814.6828649933341
 31
0.0
 12
-1293.8619179917509
 22
1695.1003532766749
 32
0.0
 70
     0
 13
2282.415320609377
 23
5364.6828649933341
 33
0.0
 14
2282.415320609377
 24
4264.6828649933341
 34
0.0
 50
90.0
1001
ACAD
1000
DSTYLE
1002
{
1070
    40
1040
25.0
1002
}
  0
LINE
  5
7D60
  8
1
 10
3510.3908508643522
 20
2791.323917617342
 30
0.0
 11
3510.3908508643522
 21
2912.8980971984101
 31
0.0
  0
LINE
  5
7D61
  8
1
 10
3510.3908508643522
 20
2912.8980971984101
 30
0.0
 11
3841.3383571646232
 21
2912.8980971984101
 31
0.0
  0
LINE
  5
7D62
  8
1
 10
3841.3383571646232
 20
2912.8980971984101
 30
0.0
 11
3841.3383571646232
 21
2791.323917617342
 31
0.0
  0
CIRCLE
  5
7D63
  8
1
 10
3676.4577771373802
 20
2686.5971439865539
 30
0.0
 40
65.0
  0
LINE
  5
7D64
  8
1
 10
3676.4577771373802
 20
2616.5971439865539
 30
0.0
 11
3676.4577771373802
 21
2756.5971439865539
 31
0.0
  0
LINE
  5
7D65
  8
1
 10
3606.4577771373802
 20
2686.5971439865539
 30
0.0
 11
3746.4577771373788
 21
2686.5971439865539
 31
0.0
  0
INSERT
  5
7D66
  8
0
  2
YA_N
 10
120.0
 20
100.0
 30
0.0
 41
20.0
 42
20.0
 43
20.0
  0
INSERT
  5
7D67
  8
0
  2
YA_N
 10
3847.4759201612942
 20
2185.7293758516262
 30
0.0
  0
INSERT
  5
7D68
  8
0
  2
YA_N
 10
3847.4759201612942
 20
2185.7293758516262
 30
0.0
  0
INSERT
  5
7D69
  8
0
  2
YA_N
 10
4086.555209668692
 20
3974.8462611396872
 30
0.0
  0
INSERT
  5
7D6A
  8
0
  2
YA_N
 10
4086.555209668692
 20
3974.8462611396872
 30
0.0
  0
INSERT
  5
7D6B
  8
0
  2
YA_N
 10
4845.5068668743343
 20
5541.2018299724314
 30
0.0
  0
POLYLINE
  5
7D6C
  8
1
 66
     1
 10
0.0
 20
0.0
 30
0.0
 70
     1
  0
VERTEX
  5
8293
  8
1
 10
4446.4577771373788
 20
3134.1523054690042
 30
0.0
  0
VERTEX
  5
8294
  8
1
 10
4471.4577771373797
 20
3134.1523054690042
 30
0.0
  0
VERTEX
  5
8295
  8
1
 10
4471.4577771373797
 20
3135.1523054690042
 30
0.0
 42
0.4142135623730951
  0
VERTEX
  5
8296
  8
1
 10
4469.4577771373797
 20
3137.1523054690042
 30
0.0
  0
VERTEX
  5
8297
  8
1
 10
4453.4577771373788
 20
3137.1523054690042
 30
0.0
 42
-0.4142135623730951
  0
VERTEX
  5
8298
  8
1
 10
4449.4577771373788
 20
3141.1523054690042
 30
0.0
  0
VERTEX
  5
8299
  8
1
 10
4449.4577771373788
 20
3157.1523054690042
 30
0.0
 42
0.4142135623730951
  0
VERTEX
  5
829A
  8
1
 10
4447.4577771373788
 20
3159.1523054690042
 30
0.0
  0
VERTEX
  5
829B
  8
1
 10
4446.4577771373788
 20
3159.1523054690042
 30
0.0
  0
SEQEND
  5
829C
  8
1
  0
LINE
  5
7D77
  8
1
 10
4438.6404726144274
 20
2556.652305469006
 30
0.0
 11
4453.6871673589812
 21
2556.652305469006
 31
0.0
  0
DIMENSION
  5
7D79
  8
3
  2
*D7
 10
1132.4153206093761
 20
5565.9586089497834
 30
0.0
 11
1457.415320609377
 21
5615.9586089497834
 31
0.0
 12
-1293.8619179917509
 22
1695.1003532766749
 32
0.0
 70
     0
 13
1782.415320609377
 23
5364.6828649933341
 33
0.0
 14
1132.4153206093761
 24
4864.6828649933341
 34
0.0
1001
ACAD
1000
DSTYLE
1002
{
1070
    40
1040
25.0
1002
}
  0
LINE
  5
7D7A
  8
1
 10
4446.4577771373788
 20
2574.152305469006
 30
0.0
 11
4471.4577771373797
 21
2574.152305469006
 31
0.0
  0
LINE
  5
7D7B
  8
1
 10
4471.4577771373797
 20
2574.152305469006
 30
0.0
 11
4471.4577771373797
 21
2573.152305469006
 31
0.0
  0
ARC
  5
7D7C
  8
1
 10
4469.4577771373797
 20
2573.152305469006
 30
0.0
 40
2.0
 50
270.0
 51
0.0
  0
LINE
  5
7D7D
  8
1
 10
4469.4577771373797
 20
2571.152305469006
 30
0.0
 11
4453.4577771373788
 21
2571.152305469006
 31
0.0
  0
ARC
  5
7D7E
  8
1
 10
4453.4577771373788
 20
2567.152305469006
 30
0.0
 40
4.0
 50
90.0
 51
180.0
  0
LINE
  5
7D7F
  8
1
 10
4449.4577771373788
 20
3134.1523054690042
 30
0.0
 11
4449.4577771373788
 21
2551.152305469006
 31
0.0
  0
ARC
  5
7D80
  8
1
 10
4447.4577771373788
 20
2551.152305469006
 30
0.0
 40
2.0
 50
270.0
 51
0.0
  0
LINE
  5
7D81
  8
1
 10
4447.4577771373788
 20
2549.1523054690051
 30
0.0
 11
4446.4577771373788
 21
2549.1523054690051
 31
0.0
  0
LINE
  5
7D82
  8
1
 10
4446.4577771373788
 20
2549.1523054690051
 30
0.0
 11
4446.4577771373788
 21
2574.152305469006
 31
0.0
  0
INSERT
  5
7D83
  8
0
  2
YA_N
 10
120.0
 20
100.0
 30
0.0
 41
20.0
 42
20.0
 43
20.0
  0
INSERT
  5
7D84
  8
0
  2
YA_N
 10
120.0
 20
100.0
 30
0.0
 41
20.0
 42
20.0
 43
20.0
  0
INSERT
  5
7D89
  8
0
  2
YA_N
 10
120.0
 20
100.0
 30
0.0
 41
20.0
 42
20.0
 43
20.0
  0
INSERT
  5
7D8E
  8
0
  2
YA_N
 10
120.0
 20
100.0
 30
0.0
 41
20.0
 42
20.0
 43
20.0
  0
INSERT
  5
7D8F
  8
0
  2
YA_N
 10
120.0
 20
100.0
 30
0.0
 41
20.0
 42
20.0
 43
20.0
  0
INSERT
  5
7D90
  8
0
  2
YA_N
 10
120.0
 20
100.0
 30
0.0
 41
20.0
 42
20.0
 43
20.0
  0
LINE
  5
7D95
  8
1
 10
4446.4577771373806
 20
2219.5239176173418
 30
0.0
 11
4446.4577771373806
 21
3134.1523054690042
 31
0.0
  0
LINE
  5
7D96
  8
1
 10
4016.4577771373811
 20
2219.5239176173418
 30
0.0
 11
4016.4577771373802
 21
2874.5239176173409
 31
0.0
  0
LINE
  5
7D97
  8
1
 10
4446.4577771373797
 20
2874.5239176173409
 30
0.0
 11
4446.4577771373779
 21
3254.5239176173409
 31
0.0
  0
LINE
  5
7D98
  8
1
 10
4016.4577771373802
 20
2874.5239176173409
 30
0.0
 11
4016.4577771373802
 21
3254.5239176173409
 31
0.0
  0
DIMENSION
  5
7D99
  8
3
  2
*D8
 10
4443.9577771373797
 20
3333.3750821518988
 30
0.0
 11
4231.4577771373797
 21
3383.3750821518988
 31
0.0
 12
-1293.8619179917509
 22
1695.1003532766749
 32
0.0
 70
     0
 13
4018.9577771373788
 23
3244.5239176173409
 33
0.0
 14
4443.9577771373797
 24
3244.5239176173409
 34
0.0
1001
ACAD
1000
DSTYLE
1002
{
1070
    40
1040
25.0
1002
}
  0
DIMENSION
  5
7D9A
  8
3
  2
*D9
 10
3280.9577771373788
 20
3577.1304898521648
 30
0.0
 11
3756.2077771373802
 21
3689.6304898521648
 31
0.0
 70
     0
  1
MAX\P1020
 13
4231.4577771373797
 23
3444.638094388114
 33
0.0
 14
3280.9577771373788
 24
3074.5239176173409
 34
0.0
1001
ACAD
1000
DSTYLE
1002
{
1070
    40
1040
25.0
1002
}
  0
INSERT
  5
7D9B
  8
0
  2
YA_N
 10
-179.8335021377398
 20
-171.90037549161951
 30
0.0
 41
1.538461538
 42
1.538461538
 43
1.538461538
  0
INSERT
  5
7D9C
  8
0
  2
YA_N
 10
29.23077174199971
 20
27.6923094659989
 30
0.0
 41
1.538461538
 42
1.538461538
 43
1.538461538
  0
INSERT
  5
7D9D
  8
0
  2
YA_N
 10
29.23077174199971
 20
27.6923094659989
 30
0.0
 41
1.538461538
 42
1.538461538
 43
1.538461538
  0
INSERT
  5
7D9E
  8
0
  2
YA_N
 10
29.23077174199971
 20
27.6923094659989
 30
0.0
 41
1.538461538
 42
1.538461538
 43
1.538461538
  0
INSERT
  5
7D9F
  8
0
  2
YA_N
 10
29.23077174199971
 20
27.6923094659989
 30
0.0
 41
1.538461538
 42
1.538461538
 43
1.538461538
  0
INSERT
  5
7DA0
  8
0
  2
YA_N
 10
29.23077174199971
 20
27.6923094659989
 30
0.0
 41
1.538461538
 42
1.538461538
 43
1.538461538
  0
INSERT
  5
7DA1
  8
0
  2
YA_N
 10
764.68473646589041
 20
4641.82068678011
 30
0.0
 41
1.538461538
 42
1.538461538
 43
1.538461538
  0
INSERT
  5
7DA2
  8
0
  2
YA_N
 10
6460.7510135923712
 20
4598.0052802348528
 30
0.0
 41
1.538461538
 42
1.538461538
 43
1.538461538
  0
INSERT
  5
7DA3
  8
0
  2
YA_N
 10
6460.7510135923712
 20
4598.0052802348528
 30
0.0
 41
1.538461538
 42
1.538461538
 43
1.538461538
  0
INSERT
  5
7DA4
  8
0
  2
YA_N
 10
6460.7510135923712
 20
4598.0052802348528
 30
0.0
 41
1.538461538
 42
1.538461538
 43
1.538461538
  0
INSERT
  5
7DA5
  8
0
  2
YA_N
 10
6460.7510135923712
 20
4598.0052802348528
 30
0.0
 41
1.538461538
 42
1.538461538
 43
1.538461538
  0
INSERT
  5
7DA6
  8
0
  2
YA_N
 10
10145.21226568251
 20
7780.9088358950803
 30
0.0
 41
1.538461538
 42
1.538461538
 43
1.538461538
  0
INSERT
  5
7DA7
  8
0
  2
YA_N
 10
10145.21226568251
 20
7780.9088358950803
 30
0.0
 41
1.538461538
 42
1.538461538
 43
1.538461538
  0
INSERT
  5
7DA8
  8
0
  2
YA_N
 10
5360.6303447487271
 20
3883.0407429965931
 30
0.0
 41
1.538461538
 42
1.538461538
 43
1.538461538
  0
INSERT
  5
7DA9
  8
0
  2
YA_N
 10
-1001.011017188752
 20
-988.56545136257319
 30
0.0
 41
1.538461538
 42
1.538461538
 43
1.538461538
  0
INSERT
  5
7DAA
  8
0
  2
YA_N
 10
140.00000247799969
 20
120.0000017459989
 30
0.0
 41
19.999999994
 42
19.999999994
 43
19.999999994
  0
INSERT
  5
7DAC
  8
0
  2
YA_N
 10
140.00000247799969
 20
120.0000017459989
 30
0.0
 41
19.999999994
 42
19.999999994
 43
19.999999994
  0
INSERT
  5
7DB1
  8
0
  2
YA_N
 10
140.00000247799969
 20
120.0000017459989
 30
0.0
 41
19.999999994
 42
19.999999994
 43
19.999999994
  0
INSERT
  5
7DB2
  8
0
  2
YA_N
 10
140.00000247799969
 20
120.0000017459989
 30
0.0
 41
19.999999994
 42
19.999999994
 43
19.999999994
  0
INSERT
  5
7DB3
  8
0
  2
YA_N
 10
140.00000247799969
 20
120.0000017459989
 30
0.0
 41
19.999999994
 42
19.999999994
 43
19.999999994
  0
INSERT
  5
7DB8
  8
0
  2
YA_N
 10
-179.8335021377398
 20
-171.90037549161951
 30
0.0
 41
1.538461538
 42
1.538461538
 43
1.538461538
  0
INSERT
  5
7DB9
  8
0
  2
YA_N
 10
29.23077174199971
 20
27.6923094659989
 30
0.0
 41
1.538461538
 42
1.538461538
 43
1.538461538
  0
INSERT
  5
7DBA
  8
0
  2
YA_N
 10
29.23077174199971
 20
27.6923094659989
 30
0.0
 41
1.538461538
 42
1.538461538
 43
1.538461538
  0
INSERT
  5
7DBB
  8
0
  2
YA_N
 10
29.23077174199971
 20
27.6923094659989
 30
0.0
 41
1.538461538
 42
1.538461538
 43
1.538461538
  0
INSERT
  5
7DBC
  8
0
  2
YA_N
 10
29.23077174199971
 20
27.6923094659989
 30
0.0
 41
1.538461538
 42
1.538461538
 43
1.538461538
  0
INSERT
  5
7DBD
  8
0
  2
YA_N
 10
29.23077174199971
 20
27.6923094659989
 30
0.0
 41
1.538461538
 42
1.538461538
 43
1.538461538
  0
INSERT
  5
7DBE
  8
0
  2
YA_N
 10
764.68473646589041
 20
4641.82068678011
 30
0.0
 41
1.538461538
 42
1.538461538
 43
1.538461538
  0
INSERT
  5
7DBF
  8
0
  2
YA_N
 10
6460.7510135923712
 20
4598.0052802348528
 30
0.0
 41
1.538461538
 42
1.538461538
 43
1.538461538
  0
INSERT
  5
7DC0
  8
0
  2
YA_N
 10
6460.7510135923712
 20
4598.0052802348528
 30
0.0
 41
1.538461538
 42
1.538461538
 43
1.538461538
  0
INSERT
  5
7DC1
  8
0
  2
YA_N
 10
6460.7510135923712
 20
4598.0052802348528
 30
0.0
 41
1.538461538
 42
1.538461538
 43
1.538461538
  0
INSERT
  5
7DC2
  8
0
  2
YA_N
 10
6460.7510135923712
 20
4598.0052802348528
 30
0.0
 41
1.538461538
 42
1.538461538
 43
1.538461538
  0
INSERT
  5
7DC3
  8
0
  2
YA_N
 10
10145.21226568251
 20
7780.9088358950803
 30
0.0
 41
1.538461538
 42
1.538461538
 43
1.538461538
  0
INSERT
  5
7DC4
  8
0
  2
YA_N
 10
10145.21226568251
 20
7780.9088358950803
 30
0.0
 41
1.538461538
 42
1.538461538
 43
1.538461538
  0
INSERT
  5
7DC5
  8
0
  2
YA_N
 10
5360.6303447487271
 20
3883.0407429965931
 30
0.0
 41
1.538461538
 42
1.538461538
 43
1.538461538
  0
INSERT
  5
7DC6
  8
0
  2
YA_N
 10
-1001.011017188752
 20
-988.56545136257319
 30
0.0
 41
1.538461538
 42
1.538461538
 43
1.538461538
  0
INSERT
  5
7DC7
  8
0
  2
YA_N
 10
140.00000247799969
 20
120.0000017459989
 30
0.0
 41
19.999999994
 42
19.999999994
 43
19.999999994
  0
INSERT
  5
7DC9
  8
0
  2
YA_N
 10
140.00000247799969
 20
120.0000017459989
 30
0.0
 41
19.999999994
 42
19.999999994
 43
19.999999994
  0
INSERT
  5
7DCE
  8
0
  2
YA_N
 10
140.00000247799969
 20
120.0000017459989
 30
0.0
 41
19.999999994
 42
19.999999994
 43
19.999999994
  0
INSERT
  5
7DCF
  8
0
  2
YA_N
 10
140.00000247799969
 20
120.0000017459989
 30
0.0
 41
19.999999994
 42
19.999999994
 43
19.999999994
  0
INSERT
  5
7DD0
  8
0
  2
YA_N
 10
140.00000247799969
 20
120.0000017459989
 30
0.0
 41
19.999999994
 42
19.999999994
 43
19.999999994
  0
LINE
  5
7DD5
  8
1
 10
4471.4577771373797
 20
2574.152305469006
 30
0.0
 11
4471.4577771373779
 21
3134.1523054690042
 31
0.0
  0
LINE
  5
7DD7
  8
1
 10
3386.4577771373811
 20
2144.5239176173418
 30
0.0
 11
3386.457777137382
 21
2219.5239176173418
 31
0.0
  0
LINE
  5
7DD8
  8
1
 10
2422.4153206093761
 20
5322.1828649933341
 30
0.0
 11
1548.415320609377
 21
5322.1828649933341
 31
0.0
  0
LINE
  5
7DD9
  8
1
 10
2422.4153206093761
 20
4897.182864993335
 30
0.0
 11
1548.415320609377
 21
4897.1828649933341
 31
0.0
  0
LINE
  5
7DDA
  8
1
 10
1782.4153206093761
 20
5322.1828649933341
 30
0.0
 11
1782.415320609377
 21
5364.6828649933341
 31
0.0
  0
LINE
  5
7DDB
  8
1
 10
2282.415320609377
 20
5322.1828649933341
 30
0.0
 11
2282.415320609377
 21
5364.6828649933341
 31
0.0
  0
LINE
  5
7DDC
  8
1
 10
2007.415320609377
 20
4190.6828649933332
 30
0.0
 11
2007.415320609377
 21
4897.1828649933341
 31
0.0
  0
LINE
  5
7DDD
  8
1
 10
2057.415320609377
 20
4190.6828649933332
 30
0.0
 11
2057.415320609377
 21
4897.1828649933341
 31
0.0
  0
LINE
  5
7DDE
  8
2
 10
1332.415320609377
 20
4076.8026232792949
 30
0.0
 11
1332.415320609377
 21
4689.2442714955614
 31
0.0
  0
LINE
  5
7DDF
  8
2
 10
2032.415320609377
 20
4076.8026232792949
 30
0.0
 11
2032.415320609377
 21
5405.0740396476649
 31
0.0
  0
LINE
  5
7DE0
  8
1
 10
1182.415320609377
 20
4107.682864993335
 30
0.0
 11
2252.415320609377
 21
4107.6828649933341
 31
0.0
  0
LINE
  5
7DE1
  8
1
 10
1182.415320609377
 20
4229.6828649933341
 30
0.0
 11
2252.415320609377
 21
4229.6828649933341
 31
0.0
  0
LINE
  5
7DE3
  8
1
 10
1262.415320609377
 20
4190.6828649933332
 30
0.0
 11
2159.415320609377
 21
4190.6828649933332
 31
0.0
  0
LINE
  5
7DE4
  8
1
 10
1262.415320609377
 20
4127.6828649933341
 30
0.0
 11
2159.415320609377
 21
4127.6828649933341
 31
0.0
  0
LINE
  5
7DE5
  8
1
 10
1182.415320609377
 20
4107.682864993335
 30
0.0
 11
1182.415320609377
 21
4229.6828649933341
 31
0.0
  0
LINE
  5
7DE6
  8
1
 10
1262.415320609377
 20
4127.6828649933341
 30
0.0
 11
1262.415320609377
 21
4190.6828649933332
 31
0.0
  0
LINE
  5
7DE9
  8
1
 10
1905.415320609377
 20
4127.6828649933341
 30
0.0
 11
1905.415320609377
 21
4190.6828649933332
 31
0.0
  0
LINE
  5
7DEA
  8
1
 10
1402.415320609377
 20
4127.6828649933341
 30
0.0
 11
1402.415320609377
 21
4190.6828649933332
 31
0.0
  0
LINE
  5
7DF2
  8
1
 10
2159.415320609377
 20
4127.6828649933341
 30
0.0
 11
2159.415320609377
 21
4190.6828649933332
 31
0.0
  0
LINE
  5
7DF3
  8
1
 10
2252.415320609377
 20
4107.6828649933341
 30
0.0
 11
2252.4153206093779
 21
4229.6828649933341
 31
0.0
  0
LINE
  5
7DF4
  8
1
 10
1474.415320609377
 20
4646.1828649933341
 30
0.0
 11
1474.415320609377
 21
4246.1828649933341
 31
0.0
  0
LINE
  5
7DF5
  8
1
 10
1190.415320609377
 20
4646.1828649933341
 30
0.0
 11
1190.415320609377
 21
4246.182864993335
 31
0.0
  0
LINE
  5
7DF6
  8
1
 10
1351.415320609377
 20
4246.1828649933341
 30
0.0
 11
1351.415320609377
 21
4190.6828649933332
 31
0.0
  0
LINE
  5
7DF7
  8
1
 10
1313.415320609377
 20
4246.1828649933341
 30
0.0
 11
1313.415320609377
 21
4190.6828649933332
 31
0.0
  0
LINE
  5
7DF8
  8
1
 10
1190.415320609377
 20
4646.1828649933341
 30
0.0
 11
1474.415320609377
 21
4646.1828649933341
 31
0.0
  0
LINE
  5
7DF9
  8
1
 10
1190.415320609377
 20
4246.1828649933341
 30
0.0
 11
1474.415320609377
 21
4246.1828649933341
 31
0.0
  0
INSERT
  5
7DFA
  8
0
  2
YA_N
 10
6923.8460606765784
 20
805.43795175788807
 30
0.0
  0
INSERT
  5
7DFB
  8
0
  2
YA_N
 10
6923.8460606765784
 20
805.43795175788807
 30
0.0
  0
INSERT
  5
7DFC
  8
0
  2
YA_N
 10
6923.8460606765784
 20
805.43795175788807
 30
0.0
  0
INSERT
  5
7DFD
  8
0
  2
YA_N
 10
7037.8460606765784
 20
900.43795175788807
 30
0.0
 41
20.0
 42
20.0
 43
20.0
  0
INSERT
  5
7DFE
  8
0
  2
YA_N
 10
10765.321980837871
 20
2986.1673276095139
 30
0.0
  0
INSERT
  5
7DFF
  8
0
  2
YA_N
 10
10765.321980837871
 20
2986.1673276095139
 30
0.0
  0
INSERT
  5
7E00
  8
0
  2
YA_N
 10
11004.40127034527
 20
4775.2842128975763
 30
0.0
  0
INSERT
  5
7E01
  8
0
  2
YA_N
 10
11004.40127034527
 20
4775.2842128975763
 30
0.0
  0
INSERT
  5
7E02
  8
0
  2
YA_N
 10
11763.35292755091
 20
6341.6397817303177
 30
0.0
  0
INSERT
  5
7E03
  8
0
  2
YA_N
 10
7037.8460606765784
 20
900.43795175788807
 30
0.0
 41
20.0
 42
20.0
 43
20.0
  0
INSERT
  5
7E04
  8
0
  2
YA_N
 10
7037.8460606765784
 20
900.43795175788807
 30
0.0
 41
20.0
 42
20.0
 43
20.0
  0
INSERT
  5
7E09
  8
0
  2
YA_N
 10
7037.8460606765784
 20
900.43795175788807
 30
0.0
 41
20.0
 42
20.0
 43
20.0
  0
INSERT
  5
7E0E
  8
0
  2
YA_N
 10
7037.8460606765784
 20
900.43795175788807
 30
0.0
 41
20.0
 42
20.0
 43
20.0
  0
INSERT
  5
7E0F
  8
0
  2
YA_N
 10
7037.8460606765784
 20
900.43795175788807
 30
0.0
 41
20.0
 42
20.0
 43
20.0
  0
INSERT
  5
7E10
  8
0
  2
YA_N
 10
7037.8460606765784
 20
900.43795175788807
 30
0.0
 41
20.0
 42
20.0
 43
20.0
  0
INSERT
  5
7E15
  8
0
  2
YA_N
 10
6738.0125585388378
 20
628.53757626626862
 30
0.0
 41
1.538461538
 42
1.538461538
 43
1.538461538
  0
INSERT
  5
7E16
  8
0
  2
YA_N
 10
6947.0768324185783
 20
828.13026122388715
 30
0.0
 41
1.538461538
 42
1.538461538
 43
1.538461538
  0
INSERT
  5
7E17
  8
0
  2
YA_N
 10
6947.0768324185783
 20
828.13026122388715
 30
0.0
 41
1.538461538
 42
1.538461538
 43
1.538461538
  0
INSERT
  5
7E18
  8
0
  2
YA_N
 10
6947.0768324185783
 20
828.13026122388715
 30
0.0
 41
1.538461538
 42
1.538461538
 43
1.538461538
  0
INSERT
  5
7E19
  8
0
  2
YA_N
 10
6947.0768324185783
 20
828.13026122388715
 30
0.0
 41
1.538461538
 42
1.538461538
 43
1.538461538
  0
INSERT
  5
7E1A
  8
0
  2
YA_N
 10
6947.0768324185783
 20
828.13026122388715
 30
0.0
 41
1.538461538
 42
1.538461538
 43
1.538461538
  0
INSERT
  5
7E1B
  8
0
  2
YA_N
 10
7682.5307971424691
 20
5442.2586385379991
 30
0.0
 41
1.538461538
 42
1.538461538
 43
1.538461538
  0
INSERT
  5
7E1C
  8
0
  2
YA_N
 10
13378.597074268941
 20
5398.44323199274
 30
0.0
 41
1.538461538
 42
1.538461538
 43
1.538461538
  0
INSERT
  5
7E1D
  8
0
  2
YA_N
 10
13378.597074268941
 20
5398.44323199274
 30
0.0
 41
1.538461538
 42
1.538461538
 43
1.538461538
  0
INSERT
  5
7E1E
  8
0
  2
YA_N
 10
13378.597074268941
 20
5398.44323199274
 30
0.0
 41
1.538461538
 42
1.538461538
 43
1.538461538
  0
INSERT
  5
7E1F
  8
0
  2
YA_N
 10
13378.597074268941
 20
5398.44323199274
 30
0.0
 41
1.538461538
 42
1.538461538
 43
1.538461538
  0
INSERT
  5
7E20
  8
0
  2
YA_N
 10
17063.058326359089
 20
8581.3467876529685
 30
0.0
 41
1.538461538
 42
1.538461538
 43
1.538461538
  0
INSERT
  5
7E21
  8
0
  2
YA_N
 10
17063.058326359089
 20
8581.3467876529685
 30
0.0
 41
1.538461538
 42
1.538461538
 43
1.538461538
  0
INSERT
  5
7E22
  8
0
  2
YA_N
 10
12278.476405425299
 20
4683.4786947544817
 30
0.0
 41
1.538461538
 42
1.538461538
 43
1.538461538
  0
INSERT
  5
7E23
  8
0
  2
YA_N
 10
5916.8350434878248
 20
-188.12749960468491
 30
0.0
 41
1.538461538
 42
1.538461538
 43
1.538461538
  0
INSERT
  5
7E24
  8
0
  2
YA_N
 10
7057.8460631545777
 20
920.43795350388712
 30
0.0
 41
19.999999994
 42
19.999999994
 43
19.999999994
  0
INSERT
  5
7E26
  8
0
  2
YA_N
 10
7057.8460631545777
 20
920.43795350388712
 30
0.0
 41
19.999999994
 42
19.999999994
 43
19.999999994
  0
INSERT
  5
7E2B
  8
0
  2
YA_N
 10
7057.8460631545777
 20
920.43795350388712
 30
0.0
 41
19.999999994
 42
19.999999994
 43
19.999999994
  0
INSERT
  5
7E2C
  8
0
  2
YA_N
 10
7057.8460631545777
 20
920.43795350388712
 30
0.0
 41
19.999999994
 42
19.999999994
 43
19.999999994
  0
INSERT
  5
7E2D
  8
0
  2
YA_N
 10
7057.8460631545777
 20
920.43795350388712
 30
0.0
 41
19.999999994
 42
19.999999994
 43
19.999999994
  0
INSERT
  5
7E32
  8
0
  2
YA_N
 10
6738.0125585388378
 20
628.53757626626862
 30
0.0
 41
1.538461538
 42
1.538461538
 43
1.538461538
  0
INSERT
  5
7E33
  8
0
  2
YA_N
 10
6947.0768324185783
 20
828.13026122388715
 30
0.0
 41
1.538461538
 42
1.538461538
 43
1.538461538
  0
INSERT
  5
7E34
  8
0
  2
YA_N
 10
6947.0768324185783
 20
828.13026122388715
 30
0.0
 41
1.538461538
 42
1.538461538
 43
1.538461538
  0
INSERT
  5
7E35
  8
0
  2
YA_N
 10
6947.0768324185783
 20
828.13026122388715
 30
0.0
 41
1.538461538
 42
1.538461538
 43
1.538461538
  0
INSERT
  5
7E36
  8
0
  2
YA_N
 10
6947.0768324185783
 20
828.13026122388715
 30
0.0
 41
1.538461538
 42
1.538461538
 43
1.538461538
  0
INSERT
  5
7E37
  8
0
  2
YA_N
 10
6947.0768324185783
 20
828.13026122388715
 30
0.0
 41
1.538461538
 42
1.538461538
 43
1.538461538
  0
INSERT
  5
7E38
  8
0
  2
YA_N
 10
7682.5307971424691
 20
5442.2586385379991
 30
0.0
 41
1.538461538
 42
1.538461538
 43
1.538461538
  0
INSERT
  5
7E39
  8
0
  2
YA_N
 10
13378.597074268941
 20
5398.44323199274
 30
0.0
 41
1.538461538
 42
1.538461538
 43
1.538461538
  0
INSERT
  5
7E3A
  8
0
  2
YA_N
 10
13378.597074268941
 20
5398.44323199274
 30
0.0
 41
1.538461538
 42
1.538461538
 43
1.538461538
  0
INSERT
  5
7E3B
  8
0
  2
YA_N
 10
13378.597074268941
 20
5398.44323199274
 30
0.0
 41
1.538461538
 42
1.538461538
 43
1.538461538
  0
INSERT
  5
7E3C
  8
0
  2
YA_N
 10
13378.597074268941
 20
5398.44323199274
 30
0.0
 41
1.538461538
 42
1.538461538
 43
1.538461538
  0
INSERT
  5
7E3D
  8
0
  2
YA_N
 10
17063.058326359089
 20
8581.3467876529685
 30
0.0
 41
1.538461538
 42
1.538461538
 43
1.538461538
  0
INSERT
  5
7E3E
  8
0
  2
YA_N
 10
17063.058326359089
 20
8581.3467876529685
 30
0.0
 41
1.538461538
 42
1.538461538
 43
1.538461538
  0
INSERT
  5
7E3F
  8
0
  2
YA_N
 10
12278.476405425299
 20
4683.4786947544817
 30
0.0
 41
1.538461538
 42
1.538461538
 43
1.538461538
  0
INSERT
  5
7E40
  8
0
  2
YA_N
 10
5916.8350434878248
 20
-188.12749960468491
 30
0.0
 41
1.538461538
 42
1.538461538
 43
1.538461538
  0
INSERT
  5
7E41
  8
0
  2
YA_N
 10
7057.8460631545777
 20
920.43795350388712
 30
0.0
 41
19.999999994
 42
19.999999994
 43
19.999999994
  0
INSERT
  5
7E43
  8
0
  2
YA_N
 10
7057.8460631545777
 20
920.43795350388712
 30
0.0
 41
19.999999994
 42
19.999999994
 43
19.999999994
  0
INSERT
  5
7E48
  8
0
  2
YA_N
 10
7057.8460631545777
 20
920.43795350388712
 30
0.0
 41
19.999999994
 42
19.999999994
 43
19.999999994
  0
INSERT
  5
7E49
  8
0
  2
YA_N
 10
7057.8460631545777
 20
920.43795350388712
 30
0.0
 41
19.999999994
 42
19.999999994
 43
19.999999994
  0
INSERT
  5
7E4A
  8
0
  2
YA_N
 10
7057.8460631545777
 20
920.43795350388712
 30
0.0
 41
19.999999994
 42
19.999999994
 43
19.999999994
  0
LINE
  5
7E4F
  8
1
 10
2422.4153206093761
 20
4872.1828649933359
 30
0.0
 11
2422.415320609377
 21
5347.1828649933341
 31
0.0
  0
INSERT
  5
7E50
  8
0
  2
YA_N
 10
7600.1983456950138
 20
195.22345855735139
 30
0.0
  0
INSERT
  5
7E51
  8
0
  2
YA_N
 10
7600.1983456950138
 20
195.22345855735139
 30
0.0
  0
INSERT
  5
7E52
  8
0
  2
YA_N
 10
7600.1983456950138
 20
195.22345855735139
 30
0.0
  0
LINE
  5
7E5A
  8
1
 10
1366.6603892736971
 20
2335.4725026282049
 30
0.0
 11
2094.5456594717871
 21
2743.7592075656212
 31
0.0
  0
LINE
  5
7E5B
  8
1
 10
1290.1875606376991
 20
2452.3523717225248
 30
0.0
 11
1955.8020989464769
 21
2955.8126843510299
 31
0.0
  0
LINE
  5
7E5C
  8
1
 10
1403.7497868989981
 20
2264.5716765633351
 30
0.0
 11
2137.0392045008221
 21
2660.9939640714651
 31
0.0
  0
LINE
  5
7E5D
  8
1
 10
1240.073771931977
 20
2514.7315247662041
 30
0.0
 11
1896.9810492158581
 21
3027.895074769006
 31
0.0
  0
LINE
  5
7E5E
  8
2
 10
2032.415320609377
 20
2144.5239176173418
 30
0.0
 11
2032.415320609377
 21
3291.865684273585
 31
0.0
  0
LINE
  5
7E5F
  8
1
 10
2282.4153206093752
 20
2144.5239176173418
 30
0.0
 11
2282.4153206093752
 21
2219.5239176173418
 31
0.0
  0
LINE
  5
7E60
  8
1
 10
1782.4153206093761
 20
2791.3239176173411
 30
0.0
 11
2282.4153206093752
 21
2791.3239176173411
 31
0.0
  0
LINE
  5
7E61
  8
1
 10
1132.4153206093761
 20
2144.5239176173418
 30
0.0
 11
2282.4153206093752
 21
2144.5239176173418
 31
0.0
  0
LINE
  5
7E62
  8
1
 10
1132.4153206093761
 20
2219.5239176173418
 30
0.0
 11
2282.4153206093752
 21
2219.5239176173418
 31
0.0
  0
LINE
  5
7E63
  8
1
 10
1132.4153206093761
 20
2144.5239176173418
 30
0.0
 11
1132.4153206093761
 21
2219.5239176173418
 31
0.0
  0
LINE
  5
7E64
  8
1
 10
1812.4153206093761
 20
2219.5239176173418
 30
0.0
 11
1812.4153206093761
 21
2791.3239176173411
 31
0.0
  0
LINE
  5
7E65
  8
1
 10
2252.4153206093752
 20
2219.5239176173418
 30
0.0
 11
2252.415320609377
 21
2791.3239176173411
 31
0.0
  0
LINE
  5
7E66
  8
1
 10
2397.415320609377
 20
2732.3239176173429
 30
0.0
 11
2252.415320609377
 21
2732.3239176173429
 31
0.0
  0
LINE
  5
7E67
  8
1
 10
2397.415320609377
 20
2723.3239176173429
 30
0.0
 11
2252.415320609377
 21
2723.3239176173429
 31
0.0
  0
LINE
  5
7E68
  8
1
 10
1812.4153206093761
 20
2723.3239176173429
 30
0.0
 11
1556.033839458669
 21
2723.3239176173429
 31
0.0
  0
LINE
  5
7E69
  8
1
 10
1812.4153206093761
 20
2732.3239176173429
 30
0.0
 11
1556.0338394586679
 21
2732.3239176173429
 31
0.0
  0
CIRCLE
  5
7E6A
  8
1
 10
1332.415320609377
 20
2396.5239176173409
 30
0.0
 40
70.0
  0
CIRCLE
  5
7E6B
  8
1
 10
2032.415320609377
 20
2854.5239176173418
 30
0.0
 40
127.0
  0
ARC
  5
7E6C
  8
1
 10
2032.415320609377
 20
2854.5239176173418
 30
0.0
 40
220.0
 50
298.39602030448168
 51
127.9962809502404
  0
ARC
  5
7E6D
  8
1
 10
1332.415320609377
 20
2396.5239176173409
 30
0.0
 40
150.0
 50
127.9962809502404
 51
298.39602030448179
  0
INSERT
  5
7E6E
  8
0
  2
YA_N
 10
7714.1983456950138
 20
290.22345855735142
 30
0.0
 41
20.0
 42
20.0
 43
20.0
  0
INSERT
  5
7E6F
  8
0
  2
YA_N
 10
11441.6742658563
 20
2375.9528344089772
 30
0.0
  0
INSERT
  5
7E70
  8
0
  2
YA_N
 10
11441.6742658563
 20
2375.9528344089772
 30
0.0
  0
INSERT
  5
7E71
  8
0
  2
YA_N
 10
11680.753555363701
 20
4165.0697196970386
 30
0.0
  0
INSERT
  5
7E72
  8
0
  2
YA_N
 10
11680.753555363701
 20
4165.0697196970386
 30
0.0
  0
INSERT
  5
7E73
  8
0
  2
YA_N
 10
12439.705212569341
 20
5731.4252885297819
 30
0.0
  0
LINE
  5
7E74
  8
2
 10
1525.069003771755
 20
2854.5239176173418
 30
0.0
 11
2582.53909622316
 21
2854.5239176173418
 31
0.0
  0
LINE
  5
7E77
  8
1
 10
1202.415320609377
 20
2264.5239176173418
 30
0.0
 11
1252.415320609377
 21
2264.5239176173418
 31
0.0
  0
LINE
  5
7E78
  8
1
 10
1202.415320609377
 20
2264.5239176173418
 30
0.0
 11
1202.415320609377
 21
2279.5239176173409
 31
0.0
  0
LINE
  5
7E79
  8
1
 10
1202.415320609377
 20
2279.5239176173409
 30
0.0
 11
1251.068839431641
 21
2279.5239176173409
 31
0.0
  0
LINE
  5
7E7A
  8
1
 10
1252.415320609377
 20
2278.5991534666341
 30
0.0
 11
1252.415320609377
 21
2264.5239176173418
 31
0.0
  0
LINE
  5
7E7B
  8
1
 10
1269.0160921471779
 20
2268.904217608303
 30
0.0
 11
1395.8145490715781
 21
2268.904217608303
 31
0.0
  0
LINE
  5
7E7C
  8
1
 10
1202.415320609377
 20
2279.5239176173409
 30
0.0
 11
1216.4445981892341
 21
2313.716662250737
 31
0.0
  0
LINE
  5
7E7D
  8
1
 10
1462.415320609377
 20
2279.5239176173409
 30
0.0
 11
1448.386043029519
 21
2313.716662250737
 31
0.0
  0
LINE
  5
7E7E
  8
1
 10
1412.415320609377
 20
2278.5991534666341
 30
0.0
 11
1412.415320609377
 21
2264.5239176173418
 31
0.0
  0
LINE
  5
7E7F
  8
1
 10
1462.415320609377
 20
2279.5239176173409
 30
0.0
 11
1413.76180178711
 21
2279.5239176173409
 31
0.0
  0
LINE
  5
7E80
  8
1
 10
1462.415320609377
 20
2264.5239176173418
 30
0.0
 11
1462.415320609377
 21
2279.5239176173409
 31
0.0
  0
LINE
  5
7E81
  8
1
 10
1462.415320609377
 20
2264.5239176173418
 30
0.0
 11
1412.415320609377
 21
2264.5239176173418
 31
0.0
  0
LINE
  5
7E82
  8
2
 10
1145.284712368793
 20
2396.5239176173409
 30
0.0
 11
1515.3793591663341
 21
2396.5239176173409
 31
0.0
  0
ARC
  5
7E83
  8
1
 10
1332.415320609377
 20
2396.5239176173409
 30
0.0
 40
142.0
 50
296.41738025990082
 51
243.58261974009909
  0
CIRCLE
  5
7E84
  8
1
 10
1332.415320609377
 20
2396.5239176173409
 30
0.0
 40
19.0
  0
LINE
  5
7E85
  8
2
 10
1332.415320609377
 20
2209.521490764464
 30
0.0
 11
1332.415320609377
 21
2577.0977468773199
 31
0.0
  0
POLYLINE
  5
7E88
  8
1
 66
     1
 10
0.0
 20
0.0
 30
0.0
 70
     1
  0
VERTEX
  5
829D
  8
1
 10
1157.415320609377
 20
2219.5239176173418
 30
0.0
  0
VERTEX
  5
829E
  8
1
 10
1507.415320609377
 20
2219.5239176173418
 30
0.0
  0
VERTEX
  5
829F
  8
1
 10
1497.415320609377
 20
2264.5239176173418
 30
0.0
  0
VERTEX
  5
82A0
  8
1
 10
1167.415320609377
 20
2264.5239176173418
 30
0.0
  0
SEQEND
  5
82A1
  8
1
  0
INSERT
  5
7E8E
  8
0
  2
YA_N
 10
7714.1983456950138
 20
290.22345855735142
 30
0.0
 41
20.0
 42
20.0
 43
20.0
  0
INSERT
  5
7E8F
  8
0
  2
YA_N
 10
7714.1983456950138
 20
290.22345855735142
 30
0.0
 41
20.0
 42
20.0
 43
20.0
  0
INSERT
  5
7E94
  8
0
  2
YA_N
 10
7714.1983456950138
 20
290.22345855735142
 30
0.0
 41
20.0
 42
20.0
 43
20.0
  0
INSERT
  5
7E99
  8
0
  2
YA_N
 10
7714.1983456950138
 20
290.22345855735142
 30
0.0
 41
20.0
 42
20.0
 43
20.0
  0
INSERT
  5
7E9A
  8
0
  2
YA_N
 10
7714.1983456950138
 20
290.22345855735142
 30
0.0
 41
20.0
 42
20.0
 43
20.0
  0
INSERT
  5
7E9B
  8
0
  2
YA_N
 10
7714.1983456950138
 20
290.22345855735142
 30
0.0
 41
20.0
 42
20.0
 43
20.0
  0
ARC
  5
7EA0
  8
1
 10
2074.4153206093752
 20
2812.5239176173418
 30
0.0
 40
526.0
 50
180.0
 51
240.12569894931659
  0
ARC
  5
7EA1
  8
1
 10
1990.4153206093749
 20
2812.5239176173418
 30
0.0
 40
442.0
 50
89.389561875483508
 51
180.0
  0
ARC
  5
7EA2
  8
1
 10
1999.415320609377
 20
2887.5239176173409
 30
0.0
 40
367.0
 50
359.9999999999992
 51
90.669915724295819
  0
ARC
  5
7EA3
  8
1
 10
2065.4153206093752
 20
2887.5239176173409
 30
0.0
 40
301.0
 50
349.85850191621569
 51
359.9999999999992
  0
LINE
  5
7EA4
  8
1
 10
2422.415320609377
 20
2254.5239176173409
 30
0.0
 11
2422.415320609377
 21
2834.5239176173418
 31
0.0
  0
LINE
  5
7EA5
  8
1
 10
2361.7124687562982
 20
2834.5239176173418
 30
0.0
 11
2397.415320609377
 21
2834.5239176173418
 31
0.0
  0
LINE
  5
7EA6
  8
1
 10
2397.415320609377
 20
2254.5239176173409
 30
0.0
 11
2397.415320609377
 21
2834.5239176173418
 31
0.0
  0
LINE
  5
7EA7
  8
1
 10
2397.415320609377
 20
2254.5239176173409
 30
0.0
 11
2252.4153206093752
 21
2267.8883914447329
 31
0.0
  0
POLYLINE
  5
7EA8
  8
1
 66
     1
 10
0.0
 20
0.0
 30
0.0
 70
     1
  0
VERTEX
  5
82A2
  8
1
 10
2422.415320609377
 20
2254.5239176173409
 30
0.0
  0
VERTEX
  5
82A3
  8
1
 10
2422.415320609377
 20
2229.5239176173418
 30
0.0
  0
VERTEX
  5
82A4
  8
1
 10
2421.4153206093761
 20
2229.5239176173418
 30
0.0
 42
-0.4142135623730951
  0
VERTEX
  5
82A5
  8
1
 10
2419.415320609377
 20
2231.5239176173409
 30
0.0
  0
VERTEX
  5
82A6
  8
1
 10
2419.415320609377
 20
2247.5239176173409
 30
0.0
 42
0.4142135623730951
  0
VERTEX
  5
82A7
  8
1
 10
2415.415320609377
 20
2251.5239176173418
 30
0.0
  0
VERTEX
  5
82A8
  8
1
 10
2399.415320609377
 20
2251.5239176173418
 30
0.0
 42
-0.4142135623730951
  0
VERTEX
  5
82A9
  8
1
 10
2397.415320609377
 20
2253.5239176173418
 30
0.0
  0
VERTEX
  5
82AA
  8
1
 10
2397.415320609377
 20
2254.5239176173409
 30
0.0
  0
SEQEND
  5
82AB
  8
1
  0
POLYLINE
  5
7EB3
  8
1
 66
     1
 10
0.0
 20
0.0
 30
0.0
 70
     1
  0
VERTEX
  5
82AC
  8
1
 10
2422.415320609377
 20
2834.5239176173418
 30
0.0
  0
VERTEX
  5
82AD
  8
1
 10
2422.415320609377
 20
2859.5239176173432
 30
0.0
  0
VERTEX
  5
82AE
  8
1
 10
2421.4153206093761
 20
2859.5239176173432
 30
0.0
 42
0.4142135623730951
  0
VERTEX
  5
82AF
  8
1
 10
2419.415320609377
 20
2857.5239176173418
 30
0.0
  0
VERTEX
  5
82B0
  8
1
 10
2419.415320609377
 20
2841.5239176173418
 30
0.0
 42
-0.4142135623730951
  0
VERTEX
  5
82B1
  8
1
 10
2415.415320609377
 20
2837.5239176173432
 30
0.0
  0
VERTEX
  5
82B2
  8
1
 10
2399.415320609377
 20
2837.5239176173432
 30
0.0
 42
0.4142135623730951
  0
VERTEX
  5
82B3
  8
1
 10
2397.415320609377
 20
2835.5239176173418
 30
0.0
  0
VERTEX
  5
82B4
  8
1
 10
2397.415320609377
 20
2834.5239176173418
 30
0.0
  0
SEQEND
  5
82B5
  8
1
  0
LINE
  5
7EBE
  8
1
 10
1556.0338394586679
 20
2723.3239176173429
 30
0.0
 11
1556.0338394586679
 21
2732.3239176173429
 31
0.0
  0
DIMENSION
  5
7EBF
  8
3
  2
*D10
 10
2032.415320609377
 20
3362.3725517476828
 30
0.0
 11
2227.415320609377
 21
3412.3725517476828
 31
0.0
 12
-1293.8619179917509
 22
1695.1003532766749
 32
0.0
 70
     0
 13
2422.415320609377
 23
2859.5239176173432
 33
0.0
 14
2032.415320609377
 24
3291.865684273585
 34
0.0
1001
ACAD
1000
DSTYLE
1002
{
1070
    40
1040
25.0
1002
}
  0
INSERT
  5
7EC0
  8
0
  2
YA_N
 10
7414.3648435572759
 20
18.3230830657319
 30
0.0
 41
1.538461538
 42
1.538461538
 43
1.538461538
  0
INSERT
  5
7EC1
  8
0
  2
YA_N
 10
7623.4291174370137
 20
217.9157680233503
 30
0.0
 41
1.538461538
 42
1.538461538
 43
1.538461538
  0
INSERT
  5
7EC2
  8
0
  2
YA_N
 10
7623.4291174370137
 20
217.9157680233503
 30
0.0
 41
1.538461538
 42
1.538461538
 43
1.538461538
  0
INSERT
  5
7EC3
  8
0
  2
YA_N
 10
7623.4291174370137
 20
217.9157680233503
 30
0.0
 41
1.538461538
 42
1.538461538
 43
1.538461538
  0
INSERT
  5
7EC4
  8
0
  2
YA_N
 10
7623.4291174370137
 20
217.9157680233503
 30
0.0
 41
1.538461538
 42
1.538461538
 43
1.538461538
  0
INSERT
  5
7EC5
  8
0
  2
YA_N
 10
7623.4291174370137
 20
217.9157680233503
 30
0.0
 41
1.538461538
 42
1.538461538
 43
1.538461538
  0
INSERT
  5
7EC6
  8
0
  2
YA_N
 10
8358.8830821609063
 20
4832.0441453374606
 30
0.0
 41
1.538461538
 42
1.538461538
 43
1.538461538
  0
INSERT
  5
7EC7
  8
0
  2
YA_N
 10
14054.949359287381
 20
4788.2287387922042
 30
0.0
 41
1.538461538
 42
1.538461538
 43
1.538461538
  0
INSERT
  5
7EC8
  8
0
  2
YA_N
 10
14054.949359287381
 20
4788.2287387922042
 30
0.0
 41
1.538461538
 42
1.538461538
 43
1.538461538
  0
INSERT
  5
7EC9
  8
0
  2
YA_N
 10
14054.949359287381
 20
4788.2287387922042
 30
0.0
 41
1.538461538
 42
1.538461538
 43
1.538461538
  0
INSERT
  5
7ECA
  8
0
  2
YA_N
 10
14054.949359287381
 20
4788.2287387922042
 30
0.0
 41
1.538461538
 42
1.538461538
 43
1.538461538
  0
INSERT
  5
7ECB
  8
0
  2
YA_N
 10
17739.410611377531
 20
7971.1322944524309
 30
0.0
 41
1.538461538
 42
1.538461538
 43
1.538461538
  0
INSERT
  5
7ECC
  8
0
  2
YA_N
 10
17739.410611377531
 20
7971.1322944524309
 30
0.0
 41
1.538461538
 42
1.538461538
 43
1.538461538
  0
INSERT
  5
7ECD
  8
0
  2
YA_N
 10
12954.828690443739
 20
4073.264201553945
 30
0.0
 41
1.538461538
 42
1.538461538
 43
1.538461538
  0
INSERT
  5
7ECE
  8
0
  2
YA_N
 10
6593.187328506262
 20
-798.34199280522159
 30
0.0
 41
1.538461538
 42
1.538461538
 43
1.538461538
  0
INSERT
  5
7ECF
  8
0
  2
YA_N
 10
7734.1983481730149
 20
310.22346030335041
 30
0.0
 41
19.999999994
 42
19.999999994
 43
19.999999994
  0
INSERT
  5
7ED1
  8
0
  2
YA_N
 10
7734.1983481730149
 20
310.22346030335041
 30
0.0
 41
19.999999994
 42
19.999999994
 43
19.999999994
  0
INSERT
  5
7ED6
  8
0
  2
YA_N
 10
7734.1983481730149
 20
310.22346030335041
 30
0.0
 41
19.999999994
 42
19.999999994
 43
19.999999994
  0
INSERT
  5
7ED7
  8
0
  2
YA_N
 10
7734.1983481730149
 20
310.22346030335041
 30
0.0
 41
19.999999994
 42
19.999999994
 43
19.999999994
  0
INSERT
  5
7ED8
  8
0
  2
YA_N
 10
7734.1983481730149
 20
310.22346030335041
 30
0.0
 41
19.999999994
 42
19.999999994
 43
19.999999994
  0
INSERT
  5
7EDD
  8
0
  2
YA_N
 10
7414.3648435572759
 20
18.3230830657319
 30
0.0
 41
1.538461538
 42
1.538461538
 43
1.538461538
  0
INSERT
  5
7EDE
  8
0
  2
YA_N
 10
7623.4291174370137
 20
217.9157680233503
 30
0.0
 41
1.538461538
 42
1.538461538
 43
1.538461538
  0
INSERT
  5
7EDF
  8
0
  2
YA_N
 10
7623.4291174370137
 20
217.9157680233503
 30
0.0
 41
1.538461538
 42
1.538461538
 43
1.538461538
  0
INSERT
  5
7EE0
  8
0
  2
YA_N
 10
7623.4291174370137
 20
217.9157680233503
 30
0.0
 41
1.538461538
 42
1.538461538
 43
1.538461538
  0
INSERT
  5
7EE1
  8
0
  2
YA_N
 10
7623.4291174370137
 20
217.9157680233503
 30
0.0
 41
1.538461538
 42
1.538461538
 43
1.538461538
  0
INSERT
  5
7EE2
  8
0
  2
YA_N
 10
7623.4291174370137
 20
217.9157680233503
 30
0.0
 41
1.538461538
 42
1.538461538
 43
1.538461538
  0
INSERT
  5
7EE3
  8
0
  2
YA_N
 10
8358.8830821609063
 20
4832.0441453374606
 30
0.0
 41
1.538461538
 42
1.538461538
 43
1.538461538
  0
INSERT
  5
7EE4
  8
0
  2
YA_N
 10
14054.949359287381
 20
4788.2287387922042
 30
0.0
 41
1.538461538
 42
1.538461538
 43
1.538461538
  0
INSERT
  5
7EE5
  8
0
  2
YA_N
 10
14054.949359287381
 20
4788.2287387922042
 30
0.0
 41
1.538461538
 42
1.538461538
 43
1.538461538
  0
INSERT
  5
7EE6
  8
0
  2
YA_N
 10
14054.949359287381
 20
4788.2287387922042
 30
0.0
 41
1.538461538
 42
1.538461538
 43
1.538461538
  0
INSERT
  5
7EE7
  8
0
  2
YA_N
 10
14054.949359287381
 20
4788.2287387922042
 30
0.0
 41
1.538461538
 42
1.538461538
 43
1.538461538
  0
INSERT
  5
7EE8
  8
0
  2
YA_N
 10
17739.410611377531
 20
7971.1322944524309
 30
0.0
 41
1.538461538
 42
1.538461538
 43
1.538461538
  0
INSERT
  5
7EE9
  8
0
  2
YA_N
 10
17739.410611377531
 20
7971.1322944524309
 30
0.0
 41
1.538461538
 42
1.538461538
 43
1.538461538
  0
INSERT
  5
7EEA
  8
0
  2
YA_N
 10
12954.828690443739
 20
4073.264201553945
 30
0.0
 41
1.538461538
 42
1.538461538
 43
1.538461538
  0
INSERT
  5
7EEB
  8
0
  2
YA_N
 10
6593.187328506262
 20
-798.34199280522159
 30
0.0
 41
1.538461538
 42
1.538461538
 43
1.538461538
  0
INSERT
  5
7EEC
  8
0
  2
YA_N
 10
7734.1983481730149
 20
310.22346030335041
 30
0.0
 41
19.999999994
 42
19.999999994
 43
19.999999994
  0
INSERT
  5
7EEE
  8
0
  2
YA_N
 10
7734.1983481730149
 20
310.22346030335041
 30
0.0
 41
19.999999994
 42
19.999999994
 43
19.999999994
  0
INSERT
  5
7EF3
  8
0
  2
YA_N
 10
7734.1983481730149
 20
310.22346030335041
 30
0.0
 41
19.999999994
 42
19.999999994
 43
19.999999994
  0
INSERT
  5
7EF4
  8
0
  2
YA_N
 10
7734.1983481730149
 20
310.22346030335041
 30
0.0
 41
19.999999994
 42
19.999999994
 43
19.999999994
  0
INSERT
  5
7EF5
  8
0
  2
YA_N
 10
7734.1983481730149
 20
310.22346030335041
 30
0.0
 41
19.999999994
 42
19.999999994
 43
19.999999994
  0
DIMENSION
  5
7EFA
  8
3
  2
*D11
 10
2871.4821732366499
 20
2144.5239176173418
 30
0.0
 11
2821.482173236649
 21
2499.5239176173418
 31
0.0
 12
-1293.8619179917509
 22
1695.1003532766749
 32
0.0
 70
     0
 13
2582.53909622316
 23
2854.5239176173418
 33
0.0
 14
2282.4153206093752
 24
2144.5239176173418
 34
0.0
 50
270.0
1001
ACAD
1000
DSTYLE
1002
{
1070
    40
1040
25.0
1002
}
  0
DIMENSION
  5
7EFB
  8
3
  2
*D12
 10
1548.415320609377
 20
3362.3725517476828
 30
0.0
 11
1790.415320609377
 21
3412.3725517476828
 31
0.0
 70
     0
 13
2032.415320609377
 23
3291.865684273585
 33
0.0
 14
1548.415320609377
 24
2854.5239176173418
 34
0.0
1001
ACAD
1000
DSTYLE
1002
{
1070
   287
1070
     4
1070
    40
1040
25.0
1070
    75
1070
     1
1070
   279
1070
     1
1070
   289
1070
     3
1002
}
  0
DIMENSION
  5
7EFC
  8
3
  2
*D13
 10
1132.4153206093761
 20
3544.2293478701649
 30
0.0
 11
1777.415320609377
 21
3594.2293478701649
 31
0.0
 12
-1293.8619179917509
 22
1695.1003532766749
 32
0.0
 70
     0
 13
2422.415320609377
 23
2834.5239176173418
 33
0.0
 14
1132.4153206093761
 24
2219.5239176173418
 34
0.0
1001
ACAD
1000
DSTYLE
1002
{
1070
    40
1040
25.0
1002
}
  0
DIMENSION
  5
7EFD
  8
3
  2
*D14
 10
2735.0664136213991
 20
2254.5239176173409
 30
0.0
 11
2685.0664136213991
 21
2554.5239176173409
 31
0.0
 12
-1293.8619179917509
 22
1695.1003532766749
 32
0.0
 70
     0
 13
2582.53909622316
 23
2854.5239176173418
 33
0.0
 14
2422.415320609377
 24
2254.5239176173409
 34
0.0
 50
270.0
1001
ACAD
1000
DSTYLE
1002
{
1070
    40
1040
25.0
1002
}
  0
DIMENSION
  5
7EFE
  8
3
  2
*D15
 10
2599.4925090358402
 20
2254.5239176173409
 30
0.0
 11
2549.4925090358402
 21
2544.5239176173418
 31
0.0
 12
-1293.8619179917509
 22
1695.1003532766749
 32
0.0
 70
     0
 13
2422.415320609377
 23
2834.5239176173418
 33
0.0
 14
2422.415320609377
 24
2254.5239176173409
 34
0.0
 50
270.0
1001
ACAD
1000
DSTYLE
1002
{
1070
    40
1040
25.0
1002
}
  0
DIMENSION
  5
7EFF
  8
3
  2
*D16
 10
2871.4821732366499
 20
3254.5239176173409
 30
0.0
 11
2821.482173236649
 21
3054.5239176173418
 31
0.0
 70
     0
 13
2582.53909622316
 23
2854.5239176173418
 33
0.0
 14
2032.415320609377
 24
3254.5239176173409
 34
0.0
 50
270.0
1001
ACAD
1000
DSTYLE
1002
{
1070
   287
1070
     4
1070
    40
1040
25.0
1070
    75
1070
     1
1070
   279
1070
     1
1070
   289
1070
     3
1002
}
  0
LINE
  5
7F03
  8
1
 10
1548.415320609377
 20
4897.1828649933341
 30
0.0
 11
1548.415320609377
 21
5322.1828649933341
 31
0.0
  0
LINE
  5
7F04
  8
1
 10
2397.415320609377
 20
4897.182864993335
 30
0.0
 11
2397.415320609377
 21
5322.1828649933341
 31
0.0
  0
LINE
  5
7F05
  8
1
 10
3419.4577771373802
 20
2254.5239176173409
 30
0.0
 11
3419.4577771373802
 21
2538.5239176173409
 31
0.0
  0
LINE
  5
7F06
  8
1
 10
3424.4577771373802
 20
2538.5239176173409
 30
0.0
 11
3419.4577771373802
 21
2538.5239176173409
 31
0.0
  0
LINE
  5
7F07
  8
2
 10
3250.077535423341
 20
2396.5239176173409
 30
0.0
 11
3504.8238539310291
 21
2396.5239176173409
 31
0.0
  0
LINE
  5
7F08
  8
1
 10
3424.4577771373802
 20
2254.5239176173409
 30
0.0
 11
3419.4577771373811
 21
2254.5239176173409
 31
0.0
  0
LINE
  5
7F0B
  8
1
 10
3419.4577771373802
 20
2377.5239176173409
 30
0.0
 11
3363.9577771373788
 21
2377.5239176173409
 31
0.0
  0
LINE
  5
7F0C
  8
1
 10
3419.4577771373802
 20
2415.5239176173409
 30
0.0
 11
3363.9577771373788
 21
2415.5239176173409
 31
0.0
  0
LINE
  5
7F0D
  8
1
 10
3424.4577771373802
 20
2254.5239176173409
 30
0.0
 11
3424.4577771373802
 21
2791.323917617342
 31
0.0
  0
LINE
  5
7F0E
  8
1
 10
4016.4577771373811
 20
3254.5239176173409
 30
0.0
 11
4446.4577771373788
 21
3254.5239176173409
 31
0.0
  0
LINE
  5
7F0F
  8
1
 10
4016.4577771373811
 20
2254.5239176173409
 30
0.0
 11
4446.4577771373797
 21
2254.5239176173409
 31
0.0
  0
LINE
  5
7F10
  8
1
 10
4016.4577771373811
 20
2834.5239176173418
 30
0.0
 11
4446.4577771373797
 21
2834.5239176173418
 31
0.0
  0
LINE
  5
7F11
  8
1
 10
4446.4577771373806
 20
2834.5239176173418
 30
0.0
 11
4016.4577771373811
 21
2254.5239176173409
 31
0.0
  0
LINE
  5
7F12
  8
1
 10
4016.4577771373802
 20
2834.5239176173418
 30
0.0
 11
4446.4577771373806
 21
2254.5239176173409
 31
0.0
  0
LINE
  5
7F13
  8
1
 10
1474.415320609377
 20
4264.6828649933341
 30
0.0
 11
2007.415320609377
 21
4264.6828649933341
 31
0.0
  0
LINE
  5
7F14
  8
1
 10
2057.415320609377
 20
4264.6828649933341
 30
0.0
 11
2282.415320609377
 21
4264.6828649933341
 31
0.0
  0
LINE
  5
813F
  8
4
 10
4625.0
 20
1250.0
 30
0.0
 11
4625.0
 21
750.0
 31
0.0
  0
LINE
  5
8140
  8
4
 10
2875.0
 20
1250.0
 30
0.0
 11
2875.0
 21
750.0
 31
0.0
  0
LINE
  5
8141
  8
4
 10
1625.0
 20
1250.0
 30
0.0
 11
1625.0
 21
750.0
 31
0.0
  0
LINE
  5
8144
  8
4
 10
1625.0
 20
750.0
 30
0.0
 11
4625.0
 21
750.0
 31
0.0
  0
LINE
  5
8145
  8
4
 10
1625.0
 20
1000.0
 30
0.0
 11
4625.0
 21
1000.0
 31
0.0
  0
TEXT
  5
8146
  8
4
 10
1721.2552021172539
 20
1078.857564666532
 30
0.0
 40
125.0
  1
機器名称
  0
TEXT
  5
8147
  8
4
 10
1715.6452650619931
 20
804.11289183002725
 30
0.0
 40
125.0
  1
機器型番
  0
TEXT
  5
8148
  8
4
 10
2944.1968637191621
 20
1056.429422393921
 30
0.0
 40
105.0
  1
ミツヤリミットロ－ﾄﾞファン
  0
TEXT
  5
8149
  8
4
 10
2966.6362389637011
 20
792.89896069985843
 30
0.0
 40
125.0
  1
LL#3 1/2-1
  0
TEXT
  5
814B
  8
4
 10
1950.30590540191
 20
5958.5721033312893
 30
0.0
 40
135.0
  1
床置ベット
  0
TEXT
  5
814C
  8
4
 10
740.41898332361586
 20
6334.7024404982449
 30
0.0
 40
180.0
  1
遠心式片吸込片持リミットロ－ﾄﾞファン
  0
LINE
  5
814D
  8
4
 10
625.0
 20
6173.5218856620122
 30
0.0
 11
4625.0
 21
6173.5218856620122
 31
0.0
  0
LINE
  5
814E
  8
4
 10
625.0
 20
6673.5218856620122
 30
0.0
 11
4625.0
 21
6673.5218856620122
 31
0.0
  0
LINE
  5
814F
  8
4
 10
1625.0
 20
1250.0
 30
0.0
 11
4625.0
 21
1250.0
 31
0.0
  0
LINE
  5
8150
  8
4
 10
625.0
 20
6673.5218856620122
 30
0.0
 11
625.0
 21
6173.5218856620122
 31
0.0
  0
TEXT
  5
8151
  8
4
 10
860.65882479515494
 20
5955.7986938658578
 30
0.0
 40
135.0
  1
左回転右横向
  0
TEXT
  5
8152
  8
4
 10
3672.4238981232238
 20
6765.1527037382721
 30
0.0
 40
140.0
  1
No.
  0
TEXT
  5
8153
  8
4
 10
3278.2401565000318
 20
5958.5721033312893
 30
0.0
 40
135.0
  1
縮尺：1/25
  0
LINE
  5
8154
  8
4
 10
4625.0
 20
6673.5218856620122
 30
0.0
 11
4625.0
 21
6173.5218856620122
 31
0.0
  0
LINE
  5
8155
  8
4
 10
5250.0
 20
7375.0
 30
0.0
 11
5250.0
 21
7375.0
 31
0.0
  0
LINE
  5
8156
  8
4
 10
3601.543555899661
 20
6703.1589578135026
 30
0.0
 11
3601.543555899661
 21
6966.6306538743811
 31
0.0
  0
LINE
  5
8157
  8
4
 10
3601.543555899661
 20
6966.6306538743811
 30
0.0
 11
4625.0
 21
6966.6306538743811
 31
0.0
  0
LINE
  5
8158
  8
4
 10
4625.0
 20
6966.6306538743811
 30
0.0
 11
4625.0
 21
6703.1589578135026
 31
0.0
  0
LINE
  5
8159
  8
4
 10
4625.0
 20
6703.1589578135026
 30
0.0
 11
3601.543555899661
 21
6703.1589578135026
 31
0.0
  0
LINE
  5
815A
  8
4
 10
0.0
 20
0.0
 30
0.0
 11
0.0
 21
7375.0
 31
0.0
  0
LINE
  5
815B
  8
4
 10
0.0
 20
7375.0
 30
0.0
 11
5250.0
 21
7375.0
 31
0.0
  0
LINE
  5
815C
  8
4
 10
5250.0
 20
7375.0
 30
0.0
 11
5250.0
 21
0.0
 31
0.0
  0
LINE
  5
815D
  8
4
 10
5250.0
 20
0.0
 30
0.0
 11
0.0
 21
0.0
 31
0.0
  0
LINE
  5
8190
  8
1
 10
3402.9577771373802
 20
3004.4670550019619
 30
0.0
 11
3402.9577771373788
 21
3074.5239176173409
 31
0.0
  0
DIMENSION
  5
81A9
  8
3
  2
*D18
 10
4446.4577771373779
 20
3577.1304898521648
 30
0.0
 11
4338.9577771373788
 21
3640.010605318249
 31
0.0
 70
   128
 13
4231.4577771373797
 23
3444.638094388114
 33
0.0
 14
4446.4577771373779
 24
3254.5239176173409
 34
0.0
1001
ACAD
1000
DSTYLE
1002
{
1070
   288
1070
     1
1070
   172
1070
     1
1070
    75
1070
     1
1070
    40
1040
25.0
1070
   271
1070
     0
1070
   143
1040
0.039
1002
}
  0
DIMENSION
  5
8239
  8
3
  2
*D19
 10
2032.415320609377
 20
1980.105203470539
 30
0.0
 11
1582.415320609377
 21
2042.605203470539
 31
0.0
 70
     0
 13
1132.4153206093761
 23
2144.5239176173418
 33
0.0
 14
2032.415320609377
 24
2144.5239176173418
 34
0.0
1001
ACAD
1000
DSTYLE
1002
{
1070
   287
1070
     3
1070
    40
1040
25.0
1070
   143
1040
0.039
1070
   172
1070
     1
1070
   271
1070
     0
1070
   279
1070
     0
1002
}
  0
DIMENSION
  5
8248
  8
3
  2
*D20
 10
2282.4153206093752
 20
1980.105203470539
 30
0.0
 11
2157.4153206093761
 21
2042.605203470539
 31
0.0
 70
     0
 13
2032.415320609377
 23
2144.5239176173418
 33
0.0
 14
2282.4153206093752
 24
2144.5239176173418
 34
0.0
1001
ACAD
1000
DSTYLE
1002
{
1070
   287
1070
     3
1070
    40
1040
25.0
1070
   143
1040
0.039
1070
   172
1070
     1
1070
   271
1070
     0
1070
   279
1070
     0
1002
}
  0
DIMENSION
  5
8255
  8
3
  2
*D21
 10
4231.4577771373824
 20
1980.105203470539
 30
0.0
 11
3808.9577771373811
 21
2042.605203470539
 31
0.0
 70
     0
 13
3386.4577771373811
 23
2144.5239176173418
 33
0.0
 14
4231.4577771373824
 24
2144.5239176173418
 34
0.0
1001
ACAD
1000
DSTYLE
1002
{
1070
   287
1070
     3
1070
    40
1040
25.0
1070
   143
1040
0.039
1070
   172
1070
     1
1070
   271
1070
     0
1070
   279
1070
     0
1002
}
  0
DIMENSION
  5
8264
  8
3
  2
*D22
 10
4486.4577771373806
 20
1980.105203470539
 30
0.0
 11
4358.9577771373833
 21
2042.605203470539
 31
0.0
 70
     0
 13
4231.4577771373824
 23
2144.5239176173418
 33
0.0
 14
4486.4577771373806
 24
2144.5239176173418
 34
0.0
1001
ACAD
1000
DSTYLE
1002
{
1070
   287
1070
     3
1070
    40
1040
25.0
1070
   143
1040
0.039
1070
   172
1070
     1
1070
   271
1070
     0
1070
   279
1070
     0
1002
}
  0
DIMENSION
  5
8271
  8
3
  2
*D23
 10
3049.2247183453978
 20
2144.5239176173418
 30
0.0
 11
2986.7247183453969
 21
2699.5113747680562
 31
0.0
 70
     0
 13
1995.1243680974731
 23
3254.4988319187701
 33
0.0
 14
2282.4153206093752
 24
2144.5239176173418
 34
0.0
 50
90.0
1001
ACAD
1000
DSTYLE
1002
{
1070
   287
1070
     3
1070
    40
1040
25.0
1070
   143
1040
0.039
1070
   172
1070
     1
1070
   271
1070
     0
1070
   279
1070
     0
1002
}
  0
ENDSEC
  0
EOF
