  0
SECTION
  2
HEADER
  9
$ACADVER
  1
AC1009
  9
$INSBASE
 10
0.0
 20
0.0
 30
0.0
  9
$EXTMIN
 10
0.0
 20
0.0
 30
0.0
  9
$EXTMAX
 10
5250.0
 20
7375.0
 30
0.0
  9
$LIMMIN
 10
0.0
 20
0.0
  9
$LIMMAX
 10
297.0
 20
210.0
  9
$ORTHOMODE
 70
     0
  9
$REGENMODE
 70
     1
  9
$FILLMODE
 70
     0
  9
$QTEXTMODE
 70
     0
  9
$MIRRTEXT
 70
     1
  9
$DRAGMODE
 70
     2
  9
$LTSCALE
 40
100.0
  9
$OSMODE
 70
    37
  9
$ATTMODE
 70
     1
  9
$TEXTSIZE
 40
180.0
  9
$TRACEWID
 40
0.05
  9
$TEXTSTYLE
  7
STANDARD
  9
$CLAYER
  8
3
  9
$CELTYPE
  6
BYLAYER
  9
$CECOLOR
 62
   256
  9
$DIMSCALE
 40
25.0
  9
$DIMASZ
 40
2.0
  9
$DIMEXO
 40
0.5
  9
$DIMDLI
 40
10.0
  9
$DIMRND
 40
0.0
  9
$DIMDLE
 40
0.0
  9
$DIMEXE
 40
1.0
  9
$DIMTP
 40
1.0
  9
$DIMTM
 40
1.0
  9
$DIMTXT
 40
3.0
  9
$DIMCEN
 40
0.0
  9
$DIMTSZ
 40
0.0
  9
$DIMTOL
 70
     0
  9
$DIMLIM
 70
     0
  9
$DIMTIH
 70
     0
  9
$DIMTOH
 70
     0
  9
$DIMSE1
 70
     0
  9
$DIMSE2
 70
     0
  9
$DIMTAD
 70
     1
  9
$DIMZIN
 70
     8
  9
$DIMBLK
  1

  9
$DIMASO
 70
     1
  9
$DIMSHO
 70
     1
  9
$DIMPOST
  1

  9
$DIMAPOST
  1

  9
$DIMALT
 70
     0
  9
$DIMALTD
 70
     2
  9
$DIMALTF
 40
0.039
  9
$DIMLFAC
 40
1.0
  9
$DIMTOFL
 70
     1
  9
$DIMTVP
 40
0.0
  9
$DIMTIX
 70
     0
  9
$DIMSOXD
 70
     0
  9
$DIMSAH
 70
     1
  9
$DIMBLK1
  1
OPEN
  9
$DIMBLK2
  1
OPEN
  9
$DIMSTYLE
  2
IGA
  9
$DIMCLRD
 70
     0
  9
$DIMCLRE
 70
     0
  9
$DIMCLRT
 70
     0
  9
$DIMTFAC
 40
10.0
  9
$DIMGAP
 40
1.0
  9
$LUNITS
 70
     2
  9
$LUPREC
 70
     3
  9
$SKETCHINC
 40
0.1
  9
$FILLETRAD
 40
50.0
  9
$AUNITS
 70
     0
  9
$AUPREC
 70
     0
  9
$MENU
  1
acad
  9
$ELEVATION
 40
0.0
  9
$PELEVATION
 40
0.0
  9
$THICKNESS
 40
0.0
  9
$LIMCHECK
 70
     0
  9
$BLIPMODE
 70
     0
  9
$CHAMFERA
 40
0.5
  9
$CHAMFERB
 40
0.5
  9
$SKPOLY
 70
     0
  9
$TDCREATE
 40
2451697.6498868051
  9
$TDUPDATE
 40
2454953.6406096178
  9
$TDINDWG
 40
0.0108429745
  9
$TDUSRTIMER
 40
0.0108429745
  9
$USRTIMER
 70
     1
  9
$ANGBASE
 50
0.0
  9
$ANGDIR
 70
     0
  9
$PDMODE
 70
     0
  9
$PDSIZE
 40
0.0
  9
$PLINEWID
 40
0.0
  9
$COORDS
 70
     1
  9
$SPLFRAME
 70
     0
  9
$SPLINETYPE
 70
     6
  9
$SPLINESEGS
 70
     8
  9
$ATTDIA
 70
     0
  9
$ATTREQ
 70
     1
  9
$HANDLING
 70
 10241
  9
$HANDSEED
  5
8285
  9
$SURFTAB1
 70
     6
  9
$SURFTAB2
 70
     6
  9
$SURFTYPE
 70
     6
  9
$SURFU
 70
     6
  9
$SURFV
 70
     6
  9
$UCSNAME
  2

  9
$UCSORG
 10
0.0
 20
0.0
 30
0.0
  9
$UCSXDIR
 10
1.0
 20
0.0
 30
0.0
  9
$UCSYDIR
 10
0.0
 20
1.0
 30
0.0
  9
$PUCSNAME
  2

  9
$PUCSORG
 10
0.0
 20
0.0
 30
0.0
  9
$PUCSXDIR
 10
1.0
 20
0.0
 30
0.0
  9
$PUCSYDIR
 10
0.0
 20
1.0
 30
0.0
  9
$USERI1
 70
     0
  9
$USERI2
 70
     0
  9
$USERI3
 70
     0
  9
$USERI4
 70
     0
  9
$USERI5
 70
     0
  9
$USERR1
 40
0.0
  9
$USERR2
 40
0.0
  9
$USERR3
 40
0.0
  9
$USERR4
 40
0.0
  9
$USERR5
 40
0.0
  9
$WORLDVIEW
 70
     1
  9
$SHADEDGE
 70
     3
  9
$SHADEDIF
 70
    70
  9
$TILEMODE
 70
     1
  9
$MAXACTVP
 70
    16
  9
$PLIMCHECK
 70
     0
  9
$PEXTMIN
 10
1.0000000000000000E+020
 20
1.0000000000000000E+020
 30
1.0000000000000000E+020
  9
$PEXTMAX
 10
-1.0000000000000000E+020
 20
-1.0000000000000000E+020
 30
-1.0000000000000000E+020
  9
$PLIMMIN
 10
0.0
 20
0.0
  9
$PLIMMAX
 10
12.0
 20
9.0
  9
$UNITMODE
 70
     0
  9
$VISRETAIN
 70
     0
  9
$PLINEGEN
 70
     0
  9
$PSLTSCALE
 70
     1
  0
ENDSEC
  0
SECTION
  2
TABLES
  0
TABLE
  2
VPORT
 70
     2
  0
VPORT
  2
*ACTIVE
 70
     0
 10
0.0
 20
0.0
 11
1.0
 21
1.0
 12
4978.4480345362981
 22
887.23358202711461
 13
0.0
 23
0.0
 14
10.0
 24
10.0
 15
10.0
 25
10.0
 16
0.0
 26
0.0
 36
1.0
 17
0.0
 27
0.0
 37
0.0
 40
2252.5651279293552
 41
3.1666666666666661
 42
50.0
 43
0.0
 44
0.0
 50
0.0
 51
0.0
 71
     0
 72
   100
 73
     1
 74
     0
 75
     0
 76
     0
 77
     0
 78
     0
  0
ENDTAB
  0
TABLE
  2
LTYPE
 70
     2
  0
LTYPE
  2
CONTINUOUS
 70
     0
  3
Solid line
 72
    65
 73
     0
 40
0.0
  0
LTYPE
  2
CENTER
 70
     0
  3
____ _ ____ _ ____ _ ____ _ ____ _ ____ _ ____ 
 72
    65
 73
     4
 40
2.0
 49
1.25
 49
-0.25
 49
0.25
 49
-0.25
  0
ENDTAB
  0
TABLE
  2
LAYER
 70
     6
  0
LAYER
  2
0
 70
     0
 62
     7
  6
CONTINUOUS
  0
LAYER
  2
3
 70
     0
 62
     2
  6
CONTINUOUS
  0
LAYER
  2
2
 70
     0
 62
     3
  6
CENTER
  0
LAYER
  2
1
 70
     0
 62
     4
  6
CONTINUOUS
  0
LAYER
  2
4
 70
     0
 62
     7
  6
CONTINUOUS
  0
LAYER
  2
DEFPOINTS
 70
     0
 62
     7
  6
CONTINUOUS
  0
ENDTAB
  0
TABLE
  2
STYLE
 70
     1
  0
STYLE
  2
STANDARD
 70
     0
 40
0.0
 41
1.0
 50
0.0
 71
     0
 42
180.0
  3
simplex.shx
  4
extfont.shx
  0
ENDTAB
  0
TABLE
  2
VIEW
 70
     0
  0
ENDTAB
  0
TABLE
  2
UCS
 70
     0
  0
ENDTAB
  0
TABLE
  2
APPID
 70
     1
  0
APPID
  2
ACAD
 70
     0
  0
ENDTAB
  0
TABLE
  2
DIMSTYLE
 70
     2
  0
DIMSTYLE
  2
IGA
 70
     0
  3

  4

  5

  6
OPEN
  7
OPEN
 40
2.0
 41
2.0
 42
0.5
 43
10.0
 44
1.0
 45
0.0
 46
0.0
 47
1.0
 48
1.0
140
3.0
141
0.0
142
0.0
143
0.03937
144
1.0
145
0.0
146
10.0
147
1.0
 71
     0
 72
     0
 73
     0
 74
     0
 75
     0
 76
     0
 77
     1
 78
     8
170
     0
171
     2
172
     0
173
     1
174
     0
175
     0
176
     0
177
     0
178
     0
  0
DIMSTYLE
  2
MATSU
 70
     0
  3

  4

  5

  6
OPEN
  7
OPEN
 40
1.0
 41
2.0
 42
1.0
 43
10.0
 44
1.0
 45
0.0
 46
0.0
 47
0.0
 48
0.0
140
3.0
141
0.0
142
0.0
143
0.03937
144
1.0
145
0.0
146
1.0
147
0.5
 71
     0
 72
     0
 73
     0
 74
     0
 75
     0
 76
     0
 77
     1
 78
     8
170
     0
171
     2
172
     1
173
     1
174
     0
175
     0
176
   256
177
   256
178
   256
  0
ENDTAB
  0
ENDSEC
  0
SECTION
  2
BLOCKS
  0
BLOCK
  8
0
  2
$MODEL_SPACE
 70
     0
 10
0.0
 20
0.0
 30
0.0
  3
$MODEL_SPACE
  1

  0
ENDBLK
  5
1B
  8
0
  0
BLOCK
 67
     1
  8
0
  2
$PAPER_SPACE
 70
     0
 10
0.0
 20
0.0
 30
0.0
  3
$PAPER_SPACE
  1

  0
ENDBLK
  5
18
 67
     1
  8
0
  0
BLOCK
  8
0
  2
_OPEN
 70
     0
 10
0.0
 20
0.0
 30
0.0
  3
_OPEN
  1

  0
LINE
  5
79FD
  8
0
  6
BYBLOCK
 62
     0
 10
-1.0
 20
0.1666666666666666
 30
0.0
 11
0.0
 21
0.0
 31
0.0
  0
LINE
  5
79FE
  8
0
  6
BYBLOCK
 62
     0
 10
0.0
 20
0.0
 30
0.0
 11
-1.0
 21
-0.1666666666666666
 31
0.0
  0
LINE
  5
79FF
  8
0
  6
BYBLOCK
 62
     0
 10
0.0
 20
0.0
 30
0.0
 11
-1.0
 21
0.0
 31
0.0
  0
ENDBLK
  5
7A01
  8
0
  0
BLOCK
  8
0
  2
YA_N
 70
     0
 10
0.0
 20
0.0
 30
0.0
  3
YA_N
  1

  0
ENDBLK
  5
7A04
  8
0
  0
BLOCK
  8
0
  2
*D2
 70
     1
 10
0.0
 20
0.0
 30
0.0
  3
*D2
  1

  0
LINE
  5
7F88
  8
0
  6
BYBLOCK
 10
5787.6196951291322
 20
1439.423564340668
 30
0.0
 11
5970.9227863846936
 21
1439.423564340668
 31
0.0
  0
LINE
  5
7F89
  8
0
  6
BYBLOCK
 10
5787.6196951291322
 20
879.42356434066835
 30
0.0
 11
5970.9227863846936
 21
879.42356434066835
 31
0.0
  0
LINE
  5
7F8A
  8
0
  6
BYBLOCK
 10
5945.9227863846927
 20
1389.423564340668
 30
0.0
 11
5945.9227863846927
 21
929.42356434066835
 31
0.0
  0
INSERT
  5
7F8B
  8
0
  6
BYBLOCK
  2
_OPEN
 10
5945.9227863846927
 20
1439.423564340668
 30
0.0
 41
50.0
 42
50.0
 43
50.0
 50
90.0
  0
INSERT
  5
7F8C
  8
0
  6
BYBLOCK
  2
_OPEN
 10
5945.9227863846927
 20
879.42356434066835
 30
0.0
 41
50.0
 42
50.0
 43
50.0
 50
270.0
  0
TEXT
  5
7F8D
  8
3
 10
5933.4227863846927
 20
1025.494992912096
 30
0.0
 40
75.0
  1
φ560
 50
90.0
  0
POINT
  5
7F8E
  8
DEFPOINTS
  6
BYBLOCK
 62
     0
 10
5762.6196951291313
 20
1439.423564340668
 30
0.0
  0
POINT
  5
7F8F
  8
DEFPOINTS
  6
BYBLOCK
 62
     0
 10
5762.6196951291313
 20
879.42356434066835
 30
0.0
  0
POINT
  5
7F90
  8
DEFPOINTS
  6
BYBLOCK
 62
     0
 10
5945.9227863846927
 20
879.42356434066835
 30
0.0
  0
ENDBLK
  5
7F91
  8
0
  0
BLOCK
  8
0
  2
*D3
 70
     1
 10
0.0
 20
0.0
 30
0.0
  3
*D3
  1

  0
LINE
  5
7F93
  8
0
  6
BYBLOCK
 10
3387.543140934336
 20
3694.5825117166578
 30
0.0
 11
3387.543140934336
 21
3895.8582556731071
 31
0.0
  0
LINE
  5
7F94
  8
0
  6
BYBLOCK
 10
2887.543140934336
 20
3694.5825117166578
 30
0.0
 11
2887.543140934336
 21
3895.8582556731071
 31
0.0
  0
LINE
  5
7F95
  8
0
  6
BYBLOCK
 10
3337.543140934336
 20
3870.8582556731071
 30
0.0
 11
2937.543140934335
 21
3870.8582556731071
 31
0.0
  0
INSERT
  5
7F96
  8
0
  6
BYBLOCK
  2
_OPEN
 10
3387.543140934336
 20
3870.8582556731071
 30
0.0
 41
50.0
 42
50.0
 43
50.0
  0
INSERT
  5
7F97
  8
0
  6
BYBLOCK
  2
_OPEN
 10
2887.543140934336
 20
3870.8582556731071
 30
0.0
 41
50.0
 42
50.0
 43
50.0
 50
180.0
  0
TEXT
  5
7F98
  8
3
 10
3041.1145695057639
 20
3883.3582556731071
 30
0.0
 40
75.0
  1
500
  0
POINT
  5
7F99
  8
DEFPOINTS
  6
BYBLOCK
 62
     0
 10
3387.543140934336
 20
3669.5825117166578
 30
0.0
  0
POINT
  5
7F9A
  8
DEFPOINTS
  6
BYBLOCK
 62
     0
 10
2887.543140934336
 20
3669.5825117166578
 30
0.0
  0
POINT
  5
7F9B
  8
DEFPOINTS
  6
BYBLOCK
 62
     0
 10
2887.543140934336
 20
3870.8582556731071
 30
0.0
  0
ENDBLK
  5
7F9C
  8
0
  0
BLOCK
  8
0
  2
*D4
 70
     1
 10
0.0
 20
0.0
 30
0.0
  3
*D4
  1

  0
LINE
  5
7F9E
  8
0
  6
BYBLOCK
 10
4037.543140934336
 20
2544.5825117166578
 30
0.0
 11
4037.543140934336
 21
2156.161024100737
 31
0.0
  0
LINE
  5
7F9F
  8
0
  6
BYBLOCK
 10
2887.543140934336
 20
2544.5825117166578
 30
0.0
 11
2887.543140934336
 21
2156.161024100737
 31
0.0
  0
LINE
  5
7FA0
  8
0
  6
BYBLOCK
 10
3987.543140934336
 20
2181.161024100737
 30
0.0
 11
2937.543140934335
 21
2181.161024100737
 31
0.0
  0
INSERT
  5
7FA1
  8
0
  6
BYBLOCK
  2
_OPEN
 10
4037.543140934336
 20
2181.161024100737
 30
0.0
 41
50.0
 42
50.0
 43
50.0
  0
INSERT
  5
7FA2
  8
0
  6
BYBLOCK
  2
_OPEN
 10
2887.543140934336
 20
2181.161024100737
 30
0.0
 41
50.0
 42
50.0
 43
50.0
 50
180.0
  0
TEXT
  5
7FA3
  8
3
 10
3344.6859980771928
 20
2193.661024100737
 30
0.0
 40
75.0
  1
1150
  0
POINT
  5
7FA4
  8
DEFPOINTS
  6
BYBLOCK
 62
     0
 10
4037.543140934336
 20
2569.5825117166578
 30
0.0
  0
POINT
  5
7FA5
  8
DEFPOINTS
  6
BYBLOCK
 62
     0
 10
2887.543140934336
 20
2569.5825117166578
 30
0.0
  0
POINT
  5
7FA6
  8
DEFPOINTS
  6
BYBLOCK
 62
     0
 10
2887.543140934336
 20
2181.161024100737
 30
0.0
  0
ENDBLK
  5
7FA7
  8
0
  0
BLOCK
  8
0
  2
*D5
 70
     1
 10
0.0
 20
0.0
 30
0.0
  3
*D5
  1

  0
LINE
  5
7FA9
  8
0
  6
BYBLOCK
 10
4062.543140934336
 20
3169.5825117166578
 30
0.0
 11
4271.4792332251363
 21
3169.5825117166578
 31
0.0
  0
LINE
  5
7FAA
  8
0
  6
BYBLOCK
 10
4062.543140934336
 20
2569.5825117166578
 30
0.0
 11
4271.4792332251363
 21
2569.5825117166578
 31
0.0
  0
LINE
  5
7FAB
  8
0
  6
BYBLOCK
 10
4246.4792332251363
 20
3119.5825117166592
 30
0.0
 11
4246.4792332251363
 21
2619.5825117166578
 31
0.0
  0
INSERT
  5
7FAC
  8
0
  6
BYBLOCK
  2
_OPEN
 10
4246.4792332251363
 20
3169.5825117166578
 30
0.0
 41
50.0
 42
50.0
 43
50.0
 50
90.0
  0
INSERT
  5
7FAD
  8
0
  6
BYBLOCK
  2
_OPEN
 10
4246.4792332251363
 20
2569.5825117166578
 30
0.0
 41
50.0
 42
50.0
 43
50.0
 50
270.0
  0
TEXT
  5
7FAE
  8
3
 10
4233.9792332251363
 20
2773.1539402880871
 30
0.0
 40
75.0
  1
600
 50
90.0
  0
POINT
  5
7FAF
  8
DEFPOINTS
  6
BYBLOCK
 62
     0
 10
4037.543140934336
 20
3169.5825117166578
 30
0.0
  0
POINT
  5
7FB0
  8
DEFPOINTS
  6
BYBLOCK
 62
     0
 10
4037.543140934336
 20
2569.5825117166578
 30
0.0
  0
POINT
  5
7FB1
  8
DEFPOINTS
  6
BYBLOCK
 62
     0
 10
4246.4792332251363
 20
2569.5825117166578
 30
0.0
  0
ENDBLK
  5
7FB2
  8
0
  0
BLOCK
  8
0
  2
*D6
 70
     1
 10
0.0
 20
0.0
 30
0.0
  3
*D6
  1

  0
LINE
  5
7FB4
  8
0
  6
BYBLOCK
 10
2862.543140934336
 20
3669.5825117166578
 30
0.0
 11
2541.0104546130719
 21
3669.5825117166578
 31
0.0
  0
LINE
  5
7FB5
  8
0
  6
BYBLOCK
 10
2862.543140934336
 20
2569.5825117166578
 30
0.0
 11
2541.0104546130719
 21
2569.5825117166578
 31
0.0
  0
LINE
  5
7FB6
  8
0
  6
BYBLOCK
 10
2566.0104546130719
 20
3619.5825117166578
 30
0.0
 11
2566.0104546130719
 21
2619.5825117166578
 31
0.0
  0
INSERT
  5
7FB7
  8
0
  6
BYBLOCK
  2
_OPEN
 10
2566.0104546130719
 20
3669.5825117166578
 30
0.0
 41
50.0
 42
50.0
 43
50.0
 50
90.0
  0
INSERT
  5
7FB8
  8
0
  6
BYBLOCK
  2
_OPEN
 10
2566.0104546130719
 20
2569.5825117166578
 30
0.0
 41
50.0
 42
50.0
 43
50.0
 50
270.0
  0
TEXT
  5
7FB9
  8
3
 10
2553.5104546130729
 20
3001.725368859516
 30
0.0
 40
75.0
  1
1100
 50
90.0
  0
POINT
  5
7FBA
  8
DEFPOINTS
  6
BYBLOCK
 62
     0
 10
2887.543140934336
 20
3669.5825117166578
 30
0.0
  0
POINT
  5
7FBB
  8
DEFPOINTS
  6
BYBLOCK
 62
     0
 10
2887.543140934336
 20
2569.5825117166578
 30
0.0
  0
POINT
  5
7FBC
  8
DEFPOINTS
  6
BYBLOCK
 62
     0
 10
2566.0104546130719
 20
2569.5825117166578
 30
0.0
  0
ENDBLK
  5
7FBD
  8
0
  0
BLOCK
  8
0
  2
*D7
 70
     1
 10
0.0
 20
0.0
 30
0.0
  3
*D7
  1

  0
LINE
  5
7FCA
  8
0
  6
BYBLOCK
 10
3387.543140934336
 20
3694.5825117166578
 30
0.0
 11
3387.543140934336
 21
3895.8582556731071
 31
0.0
  0
LINE
  5
7FCB
  8
0
  6
BYBLOCK
 10
4037.543140934336
 20
3194.5825117166578
 30
0.0
 11
4037.543140934336
 21
3895.8582556731071
 31
0.0
  0
LINE
  5
7FCC
  8
0
  6
BYBLOCK
 10
3437.543140934336
 20
3870.8582556731071
 30
0.0
 11
3987.543140934336
 21
3870.8582556731071
 31
0.0
  0
INSERT
  5
7FCD
  8
0
  6
BYBLOCK
  2
_OPEN
 10
3387.543140934336
 20
3870.8582556731071
 30
0.0
 41
50.0
 42
50.0
 43
50.0
 50
180.0
  0
INSERT
  5
7FCE
  8
0
  6
BYBLOCK
  2
_OPEN
 10
4037.543140934336
 20
3870.8582556731071
 30
0.0
 41
50.0
 42
50.0
 43
50.0
  0
TEXT
  5
7FCF
  8
3
 10
3616.1145695057639
 20
3883.3582556731071
 30
0.0
 40
75.0
  1
650
  0
POINT
  5
7FD0
  8
DEFPOINTS
  6
BYBLOCK
 62
     0
 10
3387.543140934336
 20
3669.5825117166578
 30
0.0
  0
POINT
  5
7FD1
  8
DEFPOINTS
  6
BYBLOCK
 62
     0
 10
4037.543140934336
 20
3169.5825117166578
 30
0.0
  0
POINT
  5
7FD2
  8
DEFPOINTS
  6
BYBLOCK
 62
     0
 10
4037.543140934336
 20
3870.8582556731071
 30
0.0
  0
ENDBLK
  5
7FD3
  8
0
  0
BLOCK
  8
0
  2
*D8
 70
     1
 10
0.0
 20
0.0
 30
0.0
  3
*D8
  1

  0
LINE
  5
7FD5
  8
0
  6
BYBLOCK
 10
5312.819695129132
 20
1574.423564340666
 30
0.0
 11
5312.819695129132
 21
1663.2747288752239
 31
0.0
  0
LINE
  5
7FD6
  8
0
  6
BYBLOCK
 10
5737.819695129132
 20
1574.423564340666
 30
0.0
 11
5737.819695129132
 21
1663.2747288752239
 31
0.0
  0
LINE
  5
7FD7
  8
0
  6
BYBLOCK
 10
5362.819695129132
 20
1638.2747288752239
 30
0.0
 11
5687.819695129132
 21
1638.2747288752239
 31
0.0
  0
INSERT
  5
7FD8
  8
0
  6
BYBLOCK
  2
_OPEN
 10
5312.819695129132
 20
1638.2747288752239
 30
0.0
 41
50.0
 42
50.0
 43
50.0
 50
180.0
  0
INSERT
  5
7FD9
  8
0
  6
BYBLOCK
  2
_OPEN
 10
5737.819695129132
 20
1638.2747288752239
 30
0.0
 41
50.0
 42
50.0
 43
50.0
  0
TEXT
  5
7FDA
  8
3
 10
5428.8911237005595
 20
1650.7747288752239
 30
0.0
 40
75.0
  1
425
  0
POINT
  5
7FDB
  8
DEFPOINTS
  6
BYBLOCK
 62
     0
 10
5312.819695129132
 20
1549.423564340666
 30
0.0
  0
POINT
  5
7FDC
  8
DEFPOINTS
  6
BYBLOCK
 62
     0
 10
5737.819695129132
 20
1549.423564340666
 30
0.0
  0
POINT
  5
7FDD
  8
DEFPOINTS
  6
BYBLOCK
 62
     0
 10
5737.819695129132
 20
1638.2747288752239
 30
0.0
  0
ENDBLK
  5
7FDE
  8
0
  0
BLOCK
  8
0
  2
*D9
 70
     1
 10
0.0
 20
0.0
 30
0.0
  3
*D9
  1

  0
LINE
  5
80C2
  8
0
  6
BYBLOCK
 10
3967.0271255001521
 20
3239.0975474266738
 30
0.0
 11
3967.0271255001521
 21
3407.5099881924871
 31
0.0
  0
LINE
  5
80C3
  8
0
  6
BYBLOCK
 10
3016.5271255001521
 20
2904.903415957664
 30
0.0
 11
3016.5271255001521
 21
3407.5099881924871
 31
0.0
  0
LINE
  5
80C4
  8
0
  6
BYBLOCK
 10
3917.0271255001521
 20
3382.509988192488
 30
0.0
 11
3066.527125500153
 21
3382.509988192488
 31
0.0
  0
INSERT
  5
80C5
  8
0
  6
BYBLOCK
  2
_OPEN
 10
3967.0271255001521
 20
3382.509988192488
 30
0.0
 41
50.0
 42
50.0
 43
50.0
  0
INSERT
  5
80C6
  8
0
  6
BYBLOCK
  2
_OPEN
 10
3016.5271255001521
 20
3382.509988192488
 30
0.0
 41
50.0
 42
50.0
 43
50.0
 50
180.0
  0
INSERT
  5
80C7
  8
3
  2
*U23
 10
0.0
 20
0.0
 30
0.0
  0
POINT
  5
80C8
  8
DEFPOINTS
  6
BYBLOCK
 62
     0
 10
3967.0271255001521
 20
3214.0975474266738
 30
0.0
  0
POINT
  5
80C9
  8
DEFPOINTS
  6
BYBLOCK
 62
     0
 10
3016.5271255001521
 20
2879.903415957664
 30
0.0
  0
POINT
  5
80CA
  8
DEFPOINTS
  6
BYBLOCK
 62
     0
 10
3016.5271255001521
 20
3382.509988192488
 30
0.0
  0
ENDBLK
  5
80CB
  8
0
  0
BLOCK
  8
0
  2
*D10
 70
     1
 10
0.0
 20
0.0
 30
0.0
  3
*D10
  1

  0
LINE
  5
800C
  8
0
  6
BYBLOCK
 10
2675.1919232086211
 20
1159.423564340666
 30
0.0
 11
2581.1047596854519
 21
1159.423564340666
 31
0.0
  0
LINE
  5
800D
  8
0
  6
BYBLOCK
 10
2862.5431409343369
 20
599.42356434066596
 30
0.0
 11
2581.1047596854519
 21
599.42356434066596
 31
0.0
  0
LINE
  5
800E
  8
0
  6
BYBLOCK
 10
2606.1047596854519
 20
1109.423564340666
 30
0.0
 11
2606.1047596854519
 21
649.42356434066596
 31
0.0
  0
INSERT
  5
800F
  8
0
  6
BYBLOCK
  2
_OPEN
 10
2606.1047596854519
 20
1159.423564340666
 30
0.0
 41
50.0
 42
50.0
 43
50.0
 50
90.0
  0
INSERT
  5
8010
  8
0
  6
BYBLOCK
  2
_OPEN
 10
2606.1047596854519
 20
599.42356434066596
 30
0.0
 41
50.0
 42
50.0
 43
50.0
 50
270.0
  0
TEXT
  5
8011
  8
3
 10
2593.6047596854519
 20
782.99499291209474
 30
0.0
 40
75.0
  1
560
 50
90.0
  0
POINT
  5
8012
  8
DEFPOINTS
  6
BYBLOCK
 62
     0
 10
2700.1919232086211
 20
1159.423564340666
 30
0.0
  0
POINT
  5
8013
  8
DEFPOINTS
  6
BYBLOCK
 62
     0
 10
2887.5431409343369
 20
599.42356434066596
 30
0.0
  0
POINT
  5
8014
  8
DEFPOINTS
  6
BYBLOCK
 62
     0
 10
2606.1047596854519
 20
599.42356434066596
 30
0.0
  0
ENDBLK
  5
8015
  8
0
  0
BLOCK
  8
0
  2
*D11
 70
     1
 10
0.0
 20
0.0
 30
0.0
  3
*D11
  1

  0
LINE
  5
8017
  8
0
  6
BYBLOCK
 10
2675.1919232086211
 20
1159.423564340666
 30
0.0
 11
2581.1047596854519
 21
1159.423564340666
 31
0.0
  0
LINE
  5
8018
  8
0
  6
BYBLOCK
 10
3107.543140934335
 20
1549.423564340666
 30
0.0
 11
2581.1047596854519
 21
1549.423564340666
 31
0.0
  0
LINE
  5
8019
  8
0
  6
BYBLOCK
 10
2606.1047596854519
 20
1209.423564340666
 30
0.0
 11
2606.1047596854519
 21
1499.423564340666
 31
0.0
  0
INSERT
  5
801A
  8
0
  6
BYBLOCK
  2
_OPEN
 10
2606.1047596854519
 20
1159.423564340666
 30
0.0
 41
50.0
 42
50.0
 43
50.0
 50
270.0
  0
INSERT
  5
801B
  8
0
  6
BYBLOCK
  2
_OPEN
 10
2606.1047596854519
 20
1549.423564340666
 30
0.0
 41
50.0
 42
50.0
 43
50.0
 50
90.0
  0
TEXT
  5
801C
  8
3
 10
2593.6047596854519
 20
1257.9949929120951
 30
0.0
 40
75.0
  1
390
 50
90.0
  0
POINT
  5
801D
  8
DEFPOINTS
  6
BYBLOCK
 62
     0
 10
2700.1919232086211
 20
1159.423564340666
 30
0.0
  0
POINT
  5
801E
  8
DEFPOINTS
  6
BYBLOCK
 62
     0
 10
3132.543140934335
 20
1549.423564340666
 30
0.0
  0
POINT
  5
801F
  8
DEFPOINTS
  6
BYBLOCK
 62
     0
 10
2606.1047596854519
 20
1549.423564340666
 30
0.0
  0
ENDBLK
  5
8020
  8
0
  0
BLOCK
  8
0
  2
*D12
 70
     1
 10
0.0
 20
0.0
 30
0.0
  3
*D12
  1

  0
LINE
  5
8022
  8
0
  6
BYBLOCK
 10
3737.543140934335
 20
1574.423564340666
 30
0.0
 11
3737.543140934335
 21
1649.863675039443
 31
0.0
  0
LINE
  5
8023
  8
0
  6
BYBLOCK
 10
3157.543140934335
 20
1574.423564340666
 30
0.0
 11
3157.543140934335
 21
1649.863675039443
 31
0.0
  0
LINE
  5
8024
  8
0
  6
BYBLOCK
 10
3687.543140934335
 20
1624.863675039443
 30
0.0
 11
3207.543140934335
 21
1624.863675039443
 31
0.0
  0
INSERT
  5
8025
  8
0
  6
BYBLOCK
  2
_OPEN
 10
3737.543140934335
 20
1624.863675039443
 30
0.0
 41
50.0
 42
50.0
 43
50.0
  0
INSERT
  5
8026
  8
0
  6
BYBLOCK
  2
_OPEN
 10
3157.543140934335
 20
1624.863675039443
 30
0.0
 41
50.0
 42
50.0
 43
50.0
 50
180.0
  0
TEXT
  5
8027
  8
3
 10
3351.1145695057639
 20
1637.363675039443
 30
0.0
 40
75.0
  1
580
  0
POINT
  5
8028
  8
DEFPOINTS
  6
BYBLOCK
 62
     0
 10
3737.543140934335
 20
1549.423564340666
 30
0.0
  0
POINT
  5
8029
  8
DEFPOINTS
  6
BYBLOCK
 62
     0
 10
3157.543140934335
 20
1549.423564340666
 30
0.0
  0
POINT
  5
802A
  8
DEFPOINTS
  6
BYBLOCK
 62
     0
 10
3157.543140934335
 20
1624.863675039443
 30
0.0
  0
ENDBLK
  5
802B
  8
0
  0
BLOCK
  8
0
  2
*D13
 70
     1
 10
0.0
 20
0.0
 30
0.0
  3
*D13
  1

  0
LINE
  5
802D
  8
0
  6
BYBLOCK
 10
3737.543140934335
 20
1574.423564340666
 30
0.0
 11
3737.543140934335
 21
1779.826176841229
 31
0.0
  0
LINE
  5
802E
  8
0
  6
BYBLOCK
 10
3137.543140934335
 20
1616.93100026314
 30
0.0
 11
3137.543140934335
 21
1779.826176841229
 31
0.0
  0
LINE
  5
802F
  8
0
  6
BYBLOCK
 10
3687.543140934335
 20
1754.826176841229
 30
0.0
 11
3187.543140934335
 21
1754.826176841229
 31
0.0
  0
INSERT
  5
8030
  8
0
  6
BYBLOCK
  2
_OPEN
 10
3737.543140934335
 20
1754.826176841229
 30
0.0
 41
50.0
 42
50.0
 43
50.0
  0
INSERT
  5
8031
  8
0
  6
BYBLOCK
  2
_OPEN
 10
3137.543140934335
 20
1754.826176841229
 30
0.0
 41
50.0
 42
50.0
 43
50.0
 50
180.0
  0
TEXT
  5
8032
  8
3
 10
3341.1145695057639
 20
1767.326176841229
 30
0.0
 40
75.0
  1
600
  0
POINT
  5
8033
  8
DEFPOINTS
  6
BYBLOCK
 62
     0
 10
3737.543140934335
 20
1549.423564340666
 30
0.0
  0
POINT
  5
8034
  8
DEFPOINTS
  6
BYBLOCK
 62
     0
 10
3137.543140934335
 20
1591.931000263141
 30
0.0
  0
POINT
  5
8035
  8
DEFPOINTS
  6
BYBLOCK
 62
     0
 10
3137.543140934335
 20
1754.826176841229
 30
0.0
  0
ENDBLK
  5
8036
  8
0
  0
BLOCK
  8
0
  2
*D14
 70
     1
 10
0.0
 20
0.0
 30
0.0
  3
*D14
  1

  0
LINE
  5
805C
  8
0
  6
BYBLOCK
 10
4037.543140934335
 20
699.42356434066596
 30
0.0
 11
4037.543140934335
 21
1936.8990660527879
 31
0.0
  0
LINE
  5
805D
  8
0
  6
BYBLOCK
 10
2737.543140934335
 20
1184.423564340666
 30
0.0
 11
2737.543140934335
 21
1936.8990660527879
 31
0.0
  0
LINE
  5
805E
  8
0
  6
BYBLOCK
 10
3987.543140934335
 20
1911.8990660527891
 30
0.0
 11
2787.543140934335
 21
1911.8990660527891
 31
0.0
  0
INSERT
  5
805F
  8
0
  6
BYBLOCK
  2
_OPEN
 10
4037.543140934335
 20
1911.8990660527891
 30
0.0
 41
50.0
 42
50.0
 43
50.0
  0
INSERT
  5
8060
  8
0
  6
BYBLOCK
  2
_OPEN
 10
2737.543140934335
 20
1911.8990660527891
 30
0.0
 41
50.0
 42
50.0
 43
50.0
 50
180.0
  0
TEXT
  5
8061
  8
3
 10
3262.543140934335
 20
1924.3990660527891
 30
0.0
 40
75.0
  1
1300
  0
POINT
  5
8062
  8
DEFPOINTS
  6
BYBLOCK
 62
     0
 10
4037.543140934335
 20
674.42356434066596
 30
0.0
  0
POINT
  5
8063
  8
DEFPOINTS
  6
BYBLOCK
 62
     0
 10
2737.543140934335
 20
1159.423564340666
 30
0.0
  0
POINT
  5
8064
  8
DEFPOINTS
  6
BYBLOCK
 62
     0
 10
2737.543140934335
 20
1911.8990660527891
 30
0.0
  0
ENDBLK
  5
8065
  8
0
  0
BLOCK
  8
0
  2
*D15
 70
     1
 10
0.0
 20
0.0
 30
0.0
  3
*D15
  1

  0
LINE
  5
8242
  8
3
 10
1179.250571305357
 20
2709.903415957664
 30
0.0
 11
1179.250571305357
 21
3280.306028458227
 31
0.0
  0
LINE
  5
8243
  8
3
 10
1529.250571305357
 20
3255.306028458227
 30
0.0
 11
1229.250571305357
 21
3255.306028458227
 31
0.0
  0
INSERT
  5
8244
  8
3
  2
_OPEN
 10
1579.250571305357
 20
3255.306028458227
 30
0.0
 41
50.0
 42
50.0
 43
50.0
  0
INSERT
  5
8245
  8
3
  2
_OPEN
 10
1179.250571305357
 20
3255.306028458227
 30
0.0
 41
50.0
 42
50.0
 43
50.0
 50
180.0
  0
TEXT
  8
3
  40
75
  5
827F
  72
0
  71
0
 10
1229.25
 20
3172.56
 30
0.000000
  1
400
  0
POINT
  5
8247
  8
DEFPOINTS
 62
     0
 10
1579.250571305357
 20
3092.4108518801381
 30
0.0
  0
POINT
  5
8248
  8
DEFPOINTS
 62
     0
 10
1179.250571305357
 20
2684.903415957664
 30
0.0
  0
POINT
  5
8249
  8
DEFPOINTS
 62
     0
 10
1179.250571305357
 20
3255.306028458227
 30
0.0
  0
ENDBLK
  5
806F
  8
0
  0
BLOCK
  8
0
  2
_DOT
 70
     0
 10
0.0
 20
0.0
 30
0.0
  3
_DOT
  1

  0
LINE
  5
80B6
  8
0
  6
BYBLOCK
 62
     0
 10
0.0
 20
0.0
 30
0.0
 11
-1.0
 21
-0.0000000000000284
 31
0.0
  0
POLYLINE
  5
80B7
  8
0
  6
BYBLOCK
 62
     0
 66
     1
 10
0.0
 20
0.0
 30
0.0
 70
     1
 40
0.1666666666666666
 41
0.1666666666666666
  0
VERTEX
  5
824A
  8
0
  6
BYBLOCK
 62
     0
 10
-0.0833333333333286
 20
-0.0000000000000284
 30
0.0
 42
1.0
  0
VERTEX
  5
824B
  8
0
  6
BYBLOCK
 62
     0
 10
0.0833333333333286
 20
-0.0000000000000284
 30
0.0
 42
1.0
  0
SEQEND
  5
824C
  8
0
  6
BYBLOCK
 62
     0
  0
ENDBLK
  5
809C
  8
0
  0
BLOCK
  8
0
  2
*D17
 70
     1
 10
0.0
 20
0.0
 30
0.0
  3
*D17
  1

  0
LINE
  5
80F1
  8
0
  6
BYBLOCK
 62
     0
 10
4182.0271255001526
 20
3062.403415957664
 30
0.0
 11
4182.0271255001526
 21
3407.5099881924871
 31
0.0
  0
LINE
  5
80F2
  8
0
  6
BYBLOCK
 62
     0
 10
4017.0271255001521
 20
3382.509988192488
 30
0.0
 11
4132.0271255001526
 21
3382.509988192488
 31
0.0
  0
TEXT
  5
80F3
  8
3
 62
     0
 10
3982.36347372708
 20
3425.8038990381679
 30
0.0
 40
75.0
  1
215
  0
INSERT
  5
80F4
  8
0
  6
BYBLOCK
 62
     0
  2
_OPEN
 10
3967.0271255001521
 20
3382.509988192488
 30
0.0
 41
50.0
 42
50.0
 43
50.0
 50
180.0
  0
INSERT
  5
80F5
  8
0
  6
BYBLOCK
 62
     0
  2
_OPEN
 10
4182.0271255001526
 20
3382.509988192488
 30
0.0
 41
50.0
 42
50.0
 43
50.0
  0
POINT
  5
80F6
  8
DEFPOINTS
  6
BYBLOCK
 62
     0
 10
3967.0271255001521
 20
3214.0975474266738
 30
0.0
  0
POINT
  5
80F7
  8
DEFPOINTS
  6
BYBLOCK
 62
     0
 10
4182.0271255001526
 20
3049.903415957664
 30
0.0
  0
POINT
  5
80F8
  8
DEFPOINTS
  6
BYBLOCK
 62
     0
 10
4182.0271255001526
 20
3382.509988192488
 30
0.0
  0
ENDBLK
  5
80F9
  8
0
  0
BLOCK
  8
0
  2
*D18
 70
     1
 10
0.0
 20
0.0
 30
0.0
  3
*D18
  1

  0
LINE
  5
8252
  8
3
 62
     0
 10
1329.2505713053581
 20
2087.4034159576631
 30
0.0
 11
1329.2505713053581
 21
1913.7671293527931
 31
0.0
  0
LINE
  5
8253
  8
3
 62
     0
 10
1579.250571305357
 20
2087.403415957664
 30
0.0
 11
1579.250571305357
 21
1913.7671293527931
 31
0.0
  0
LINE
  5
8254
  8
3
 62
     0
 10
1379.2505713053581
 20
1938.7671293527931
 30
0.0
 11
1529.250571305357
 21
1938.7671293527931
 31
0.0
  0
INSERT
  5
8255
  8
3
 62
     0
  2
_OPEN
 10
1329.2505713053581
 20
1938.7671293527931
 30
0.0
 41
50.0
 42
50.0
 43
50.0
 50
180.0
  0
INSERT
  5
8256
  8
3
 62
     0
  2
_OPEN
 10
1579.250571305357
 20
1938.7671293527931
 30
0.0
 41
50.0
 42
50.0
 43
50.0
  0
TEXT
  8
3
  40
75
  5
8280
  62
0
  72
0
  71
0
 10
1304.25
 20
1868.52
 30
0.000000
  1
250
  0
POINT
  5
8258
  8
DEFPOINTS
 62
     0
 10
1329.2505713053581
 20
2099.9034159576631
 30
0.0
  0
POINT
  5
8259
  8
DEFPOINTS
 62
     0
 10
1579.250571305357
 20
2099.903415957664
 30
0.0
  0
POINT
  5
825A
  8
DEFPOINTS
 62
     0
 10
1579.250571305357
 20
1938.7671293527931
 30
0.0
  0
ENDBLK
  5
81C6
  8
0
  0
BLOCK
  8
0
  2
*D19
 70
     1
 10
0.0
 20
0.0
 30
0.0
  3
*D19
  1

  0
LINE
  5
825B
  8
3
 62
     0
 10
1579.250571305357
 20
2087.403415957664
 30
0.0
 11
1579.250571305357
 21
1913.7671293527931
 31
0.0
  0
LINE
  5
825C
  8
3
 62
     0
 10
2479.250571305357
 20
2087.403415957664
 30
0.0
 11
2479.250571305357
 21
1913.7671293527931
 31
0.0
  0
LINE
  5
825D
  8
3
 62
     0
 10
1629.250571305357
 20
1938.7671293527931
 30
0.0
 11
2429.250571305357
 21
1938.7671293527931
 31
0.0
  0
INSERT
  5
825E
  8
3
 62
     0
  2
_OPEN
 10
1579.250571305357
 20
1938.7671293527931
 30
0.0
 41
50.0
 42
50.0
 43
50.0
 50
180.0
  0
INSERT
  5
825F
  8
3
 62
     0
  2
_OPEN
 10
2479.250571305357
 20
1938.7671293527931
 30
0.0
 41
50.0
 42
50.0
 43
50.0
  0
TEXT
  8
3
  40
75
  5
8281
  62
0
  72
0
  71
0
 10
1879.25
 20
1868.52
 30
0.000000
  1
900
  0
POINT
  5
8261
  8
DEFPOINTS
 62
     0
 10
1579.250571305357
 20
2099.903415957664
 30
0.0
  0
POINT
  5
8262
  8
DEFPOINTS
 62
     0
 10
2479.250571305357
 20
2099.903415957664
 30
0.0
  0
POINT
  5
8263
  8
DEFPOINTS
 62
     0
 10
2479.250571305357
 20
1938.7671293527931
 30
0.0
  0
ENDBLK
  5
81D3
  8
0
  0
BLOCK
  8
0
  2
*D20
 70
     1
 10
0.0
 20
0.0
 30
0.0
  3
*D20
  1

  0
LINE
  5
8264
  8
3
 62
     0
 10
3122.0271255001512
 20
2087.403415957664
 30
0.0
 11
3122.0271255001512
 21
1913.7671293527931
 31
0.0
  0
LINE
  5
8265
  8
3
 62
     0
 10
3967.0271255001539
 20
2087.403415957664
 30
0.0
 11
3967.0271255001539
 21
1913.7671293527931
 31
0.0
  0
LINE
  5
8266
  8
3
 62
     0
 10
3172.0271255001512
 20
1938.7671293527931
 30
0.0
 11
3917.027125500153
 21
1938.7671293527931
 31
0.0
  0
INSERT
  5
8267
  8
3
 62
     0
  2
_OPEN
 10
3122.0271255001512
 20
1938.7671293527931
 30
0.0
 41
50.0
 42
50.0
 43
50.0
 50
180.0
  0
INSERT
  5
8268
  8
3
 62
     0
  2
_OPEN
 10
3967.0271255001539
 20
1938.7671293527931
 30
0.0
 41
50.0
 42
50.0
 43
50.0
  0
TEXT
  8
3
  40
75
  5
8282
  62
0
  72
0
  71
0
 10
3394.53
 20
1868.52
 30
0.000000
  1
845
  0
POINT
  5
826A
  8
DEFPOINTS
 62
     0
 10
3122.0271255001512
 20
2099.903415957664
 30
0.0
  0
POINT
  5
826B
  8
DEFPOINTS
 62
     0
 10
3967.0271255001539
 20
2099.903415957664
 30
0.0
  0
POINT
  5
826C
  8
DEFPOINTS
 62
     0
 10
3967.0271255001539
 20
1938.7671293527931
 30
0.0
  0
ENDBLK
  5
81E0
  8
0
  0
BLOCK
  8
0
  2
*D21
 70
     1
 10
0.0
 20
0.0
 30
0.0
  3
*D21
  1

  0
LINE
  5
826D
  8
3
 62
     0
 10
3967.0271255001539
 20
2087.403415957664
 30
0.0
 11
3967.0271255001539
 21
1913.7671293527931
 31
0.0
  0
LINE
  5
826E
  8
3
 62
     0
 10
4222.0271255001526
 20
2087.403415957664
 30
0.0
 11
4222.0271255001526
 21
1913.7671293527931
 31
0.0
  0
LINE
  5
826F
  8
3
 62
     0
 10
4017.027125500153
 20
1938.7671293527931
 30
0.0
 11
4172.0271255001526
 21
1938.7671293527931
 31
0.0
  0
INSERT
  5
8270
  8
3
 62
     0
  2
_OPEN
 10
3967.0271255001539
 20
1938.7671293527931
 30
0.0
 41
50.0
 42
50.0
 43
50.0
 50
180.0
  0
INSERT
  5
8271
  8
3
 62
     0
  2
_OPEN
 10
4222.0271255001526
 20
1938.7671293527931
 30
0.0
 41
50.0
 42
50.0
 43
50.0
  0
TEXT
  8
3
  40
75
  5
8283
  62
0
  72
0
  71
0
 10
3944.53
 20
1868.52
 30
0.000000
  1
255
  0
POINT
  5
8273
  8
DEFPOINTS
 62
     0
 10
3967.0271255001539
 20
2099.903415957664
 30
0.0
  0
POINT
  5
8274
  8
DEFPOINTS
 62
     0
 10
4222.0271255001526
 20
2099.903415957664
 30
0.0
  0
POINT
  5
8275
  8
DEFPOINTS
 62
     0
 10
4222.0271255001526
 20
1938.7671293527931
 30
0.0
  0
ENDBLK
  5
81EF
  8
0
  0
BLOCK
  8
0
  2
*D22
 70
     1
 10
0.0
 20
0.0
 30
0.0
  3
*D22
  1

  0
LINE
  5
8276
  8
3
 62
     0
 10
1561.7505713053561
 20
3049.903415957664
 30
0.0
 11
866.81456972523677
 21
3049.903415957664
 31
0.0
  0
LINE
  5
8277
  8
3
 62
     0
 10
1316.7505713053581
 20
2099.9034159576631
 30
0.0
 11
866.81456972523665
 21
2099.903415957664
 31
0.0
  0
LINE
  5
8278
  8
3
 62
     0
 10
891.81456972523677
 20
2999.903415957664
 30
0.0
 11
891.81456972523665
 21
2149.903415957664
 31
0.0
  0
INSERT
  5
8279
  8
3
 62
     0
  2
_OPEN
 10
891.81456972523677
 20
3049.903415957664
 30
0.0
 41
50.0
 42
50.0
 43
50.0
 50
90.0
  0
INSERT
  5
827A
  8
3
 62
     0
  2
_OPEN
 10
891.81456972523665
 20
2099.903415957664
 30
0.0
 41
50.0
 42
50.0
 43
50.0
 50
270.0
  0
TEXT
  8
3
  40
75
  5
8284
  62
0
  72
0
  71
0
 10
679.315
 20
2442.15
 30
0.000000
  1
950
  0
POINT
  5
827C
  8
DEFPOINTS
 62
     0
 10
1574.2505713053561
 20
3049.903415957664
 30
0.0
  0
POINT
  5
827D
  8
DEFPOINTS
 62
     0
 10
1329.2505713053581
 20
2099.9034159576631
 30
0.0
  0
POINT
  5
827E
  8
DEFPOINTS
 62
     0
 10
891.81456972523665
 20
2099.903415957664
 30
0.0
  0
ENDBLK
  5
81FC
  8
0
  0
BLOCK
  8
0
  2
*U23
 70
     1
 10
0.0
 20
0.0
 30
0.0
  3
*U23
  1

  0
TEXT
  5
824E
  8
3
 10
3384.6342683572948
 20
3520.0099881924871
 30
0.0
 40
75.0
  1
MAX
  0
TEXT
  5
824F
  8
3
 10
3366.7771255001521
 20
3395.0099881924871
 30
0.0
 40
75.0
  1
1020
  0
ENDBLK
  5
8251
  8
0
  0
ENDSEC
  0
SECTION
  2
ENTITIES
  0
INSERT
  5
7CC8
  8
0
  2
YA_N
 10
6.0
 20
5.0
 30
0.0
  0
INSERT
  5
7CC9
  8
0
  2
YA_N
 10
6.0
 20
5.0
 30
0.0
  0
INSERT
  5
7CCA
  8
0
  2
YA_N
 10
6.0
 20
5.0
 30
0.0
  0
LINE
  5
7CCB
  8
2
 10
3967.0271255001539
 20
2099.903415957664
 30
0.0
 11
3967.0271255001539
 21
3128.915979999063
 31
0.0
  0
LINE
  5
7CCC
  8
1
 10
4174.2098209772003
 20
2957.031803809326
 30
0.0
 11
4189.2565157217532
 21
2957.031803809326
 31
0.0
  0
LINE
  5
7CCD
  8
1
 10
3154.5271255001521
 20
2596.7034159576642
 30
0.0
 11
3669.5271255001521
 21
2596.7034159576642
 31
0.0
  0
LINE
  5
7CCE
  8
1
 10
3160.0271255001521
 20
2174.903415957664
 30
0.0
 11
3160.027125500153
 21
2596.7034159576642
 31
0.0
  0
LINE
  5
7CCF
  8
1
 10
3664.027125500153
 20
2174.903415957664
 30
0.0
 11
3664.027125500153
 21
2596.7034159576642
 31
0.0
  0
LINE
  5
7CD0
  8
1
 10
3122.027125500153
 20
2174.903415957664
 30
0.0
 11
4222.0271255001526
 21
2174.903415957664
 31
0.0
  0
LINE
  5
7CD1
  8
1
 10
3122.027125500153
 20
2099.903415957664
 30
0.0
 11
4222.0271255001526
 21
2099.903415957664
 31
0.0
  0
LINE
  5
7CD2
  8
1
 10
4222.0271255001526
 20
2099.903415957664
 30
0.0
 11
4222.0271255001526
 21
2174.903415957664
 31
0.0
  0
LINE
  5
7CD3
  8
1
 10
3664.027125500153
 20
2531.7034159576642
 30
0.0
 11
3752.0271255001521
 21
2531.7034159576642
 31
0.0
  0
LINE
  5
7CD4
  8
1
 10
3664.027125500153
 20
2537.7034159576642
 30
0.0
 11
3752.0271255001521
 21
2537.7034159576642
 31
0.0
  0
LINE
  5
7CD7
  8
1
 10
3099.527125500153
 20
2684.903415957664
 30
0.0
 11
3752.0271255001521
 21
2684.903415957664
 31
0.0
  0
LINE
  5
7CD8
  8
1
 10
3099.527125500153
 20
2634.903415957664
 30
0.0
 11
3752.0271255001521
 21
2634.903415957664
 31
0.0
  0
LINE
  5
7CDA
  8
1
 10
3099.5271255001521
 20
2281.903415957664
 30
0.0
 11
3099.5271255001521
 21
2786.903415957664
 31
0.0
  0
LINE
  5
7CDB
  8
1
 10
3036.5271255001521
 20
2281.903415957664
 30
0.0
 11
3036.5271255001521
 21
2786.903415957664
 31
0.0
  0
LINE
  5
7CDE
  8
1
 10
3036.5271255001521
 20
2786.903415957664
 30
0.0
 11
3099.5271255001521
 21
2786.903415957664
 31
0.0
  0
LINE
  5
7CDF
  8
1
 10
3036.5271255001521
 20
2532.9034159576631
 30
0.0
 11
3099.5271255001521
 21
2532.9034159576631
 31
0.0
  0
LINE
  5
7CE3
  8
1
 10
3036.5271255001521
 20
2421.903415957664
 30
0.0
 11
3099.5271255001521
 21
2421.903415957664
 31
0.0
  0
LINE
  5
7CE4
  8
1
 10
3036.5271255001521
 20
2281.903415957664
 30
0.0
 11
3099.5271255001521
 21
2281.903415957664
 31
0.0
  0
LINE
  5
7CE8
  8
1
 10
3016.5271255001521
 20
2879.903415957664
 30
0.0
 11
3138.5271255001521
 21
2879.903415957664
 31
0.0
  0
LINE
  5
7CE9
  8
1
 10
3016.527125500153
 20
2201.903415957664
 30
0.0
 11
3138.5271255001521
 21
2201.903415957664
 31
0.0
  0
LINE
  5
7CEA
  8
1
 10
3016.527125500153
 20
2201.903415957664
 30
0.0
 11
3016.5271255001521
 21
2879.903415957664
 31
0.0
  0
LINE
  5
7CEB
  8
1
 10
3138.5271255001521
 20
2201.903415957664
 30
0.0
 11
3138.5271255001521
 21
2274.01477406291
 31
0.0
  0
DIMENSION
  5
7CED
  8
3
  2
*D2
 10
4387.6302167557151
 20
2379.9034159576659
 30
0.0
 11
4337.6302167557151
 21
2659.9034159576659
 31
0.0
 12
-1558.2925696289781
 22
1500.4798516169969
 32
0.0
 70
     0
  1
φ560
 13
4204.3271255001528
 23
2939.9034159576649
 33
0.0
 14
4204.3271255001528
 24
2379.9034159576659
 34
0.0
 50
90.0
1001
ACAD
1000
DSTYLE
1002
{
1070
    40
1040
25.0
1002
}
  0
LINE
  5
7CF1
  8
2
 10
2985.6468837861139
 20
2659.903415957664
 30
0.0
 11
4231.6998044966731
 21
2659.903415957664
 31
0.0
  0
LINE
  5
7CF2
  8
2
 10
2985.6468837861139
 20
2351.903415957664
 30
0.0
 11
3592.176573305027
 21
2351.903415957664
 31
0.0
  0
LINE
  5
7CF3
  8
1
 10
2479.250571305357
 20
4070.0623633336559
 30
0.0
 11
2421.250571305357
 21
4070.0623633336559
 31
0.0
  0
LINE
  5
7CF4
  8
1
 10
1329.250571305357
 20
4070.0623633336559
 30
0.0
 11
1329.250571305357
 21
4702.5623633336572
 31
0.0
  0
LINE
  5
7CF5
  8
1
 10
1329.250571305357
 20
5170.0623633336563
 30
0.0
 11
1829.250571305357
 21
5170.0623633336563
 31
0.0
  0
LINE
  5
7CF6
  8
1
 10
2479.250571305357
 20
4670.0623633336563
 30
0.0
 11
2479.250571305357
 21
4070.0623633336559
 31
0.0
  0
LINE
  5
7CF7
  8
1
 10
1829.250571305357
 20
4670.0623633336563
 30
0.0
 11
1829.250571305357
 21
4702.5623633336563
 31
0.0
  0
LINE
  5
7CF8
  8
1
 10
2479.250571305357
 20
4670.0623633336563
 30
0.0
 11
1829.250571305357
 21
4670.0623633336563
 31
0.0
  0
LINE
  5
7CF9
  8
2
 10
1118.3907363372659
 20
4915.0623633336572
 30
0.0
 11
2233.0206792184831
 21
4915.0623633336572
 31
0.0
  0
DIMENSION
  5
7CFA
  8
3
  2
*D3
 10
1329.250571305357
 20
5371.3381072901047
 30
0.0
 11
1579.250571305357
 21
5421.3381072901047
 31
0.0
 12
-1558.2925696289781
 22
1500.4798516169969
 32
0.0
 70
     0
 13
1829.250571305357
 23
5170.0623633336563
 33
0.0
 14
1329.250571305357
 24
5170.0623633336563
 34
0.0
1001
ACAD
1000
DSTYLE
1002
{
1070
    40
1040
25.0
1002
}
  0
DIMENSION
  5
7CFB
  8
3
  2
*D4
 10
1329.250571305357
 20
3681.6408757177351
 30
0.0
 11
1904.250571305357
 21
3681.6408757177351
 31
0.0
 12
-1558.2925696289781
 22
1500.4798516169969
 32
0.0
 70
   128
 13
2479.250571305357
 23
4070.0623633336559
 33
0.0
 14
1329.250571305357
 24
4070.0623633336559
 34
0.0
1001
ACAD
1000
DSTYLE
1002
{
1070
    40
1040
25.0
1002
}
  0
DIMENSION
  5
7CFC
  8
3
  2
*D5
 10
2688.1866635961569
 20
4070.0623633336559
 30
0.0
 11
2638.1866635961578
 21
4370.0623633336563
 31
0.0
 12
-1558.2925696289781
 22
1500.4798516169969
 32
0.0
 70
     0
 13
2479.250571305357
 23
4670.0623633336563
 33
0.0
 14
2479.250571305357
 24
4070.0623633336559
 34
0.0
 50
270.0
1001
ACAD
1000
DSTYLE
1002
{
1070
    40
1040
25.0
1002
}
  0
DIMENSION
  5
7CFD
  8
3
  2
*D6
 10
1007.717884984094
 20
4070.0623633336559
 30
0.0
 11
957.71788498409467
 21
4620.0623633336563
 31
0.0
 12
-1558.2925696289781
 22
1500.4798516169969
 32
0.0
 70
     0
 13
1329.250571305357
 23
5170.0623633336563
 33
0.0
 14
1329.250571305357
 24
4070.0623633336559
 34
0.0
 50
270.0
1001
ACAD
1000
DSTYLE
1002
{
1070
    40
1040
25.0
1002
}
  0
LINE
  5
7CFE
  8
1
 10
3245.960199227125
 20
2596.7034159576642
 30
0.0
 11
3245.960199227125
 21
2718.2775955387319
 31
0.0
  0
LINE
  5
7CFF
  8
1
 10
3245.960199227125
 20
2718.2775955387319
 30
0.0
 11
3576.907705527396
 21
2718.2775955387319
 31
0.0
  0
LINE
  5
7D00
  8
1
 10
3576.907705527396
 20
2718.2775955387319
 30
0.0
 11
3576.907705527396
 21
2596.7034159576642
 31
0.0
  0
LINE
  5
7D01
  8
2
 10
2279.250571305357
 20
4529.4771734166798
 30
0.0
 11
2279.250571305357
 21
3846.7814507665489
 31
0.0
  0
ARC
  5
7D02
  8
1
 10
3412.0271255001521
 20
2491.9766423268761
 30
0.0
 40
65.0
 50
1.698648781376431
 51
178.30135121862349
  0
LINE
  5
7D03
  8
2
 10
3412.0271255001521
 20
2421.9766423268761
 30
0.0
 11
3412.0271255001521
 21
2561.976642326877
 31
0.0
  0
INSERT
  5
7D04
  8
0
  2
YA_N
 10
120.0
 20
100.0
 30
0.0
 41
20.0
 42
20.0
 43
20.0
  0
INSERT
  5
7D05
  8
0
  2
YA_N
 10
3847.4759201612942
 20
2185.7293758516262
 30
0.0
  0
INSERT
  5
7D06
  8
0
  2
YA_N
 10
3847.4759201612942
 20
2185.7293758516262
 30
0.0
  0
INSERT
  5
7D07
  8
0
  2
YA_N
 10
4086.555209668692
 20
3974.8462611396872
 30
0.0
  0
INSERT
  5
7D08
  8
0
  2
YA_N
 10
4086.555209668692
 20
3974.8462611396872
 30
0.0
  0
INSERT
  5
7D09
  8
0
  2
YA_N
 10
4845.5068668743343
 20
5541.2018299724314
 30
0.0
  0
LINE
  5
7D0A
  8
2
 10
2270.5615779660502
 20
2659.903415957664
 30
0.0
 11
1141.8993535796419
 21
2659.903415957664
 31
0.0
  0
POLYLINE
  5
7D0B
  8
1
 66
     1
 10
0.0
 20
0.0
 30
0.0
 70
     1
  0
VERTEX
  5
821F
  8
1
 10
4182.0271255001526
 20
2939.531803809326
 30
0.0
  0
VERTEX
  5
8220
  8
1
 10
4207.0271255001526
 20
2939.531803809326
 30
0.0
  0
VERTEX
  5
8221
  8
1
 10
4207.0271255001526
 20
2940.531803809326
 30
0.0
 42
0.4142135623730951
  0
VERTEX
  5
8222
  8
1
 10
4205.0271255001517
 20
2942.531803809326
 30
0.0
  0
VERTEX
  5
8223
  8
1
 10
4189.0271255001517
 20
2942.531803809326
 30
0.0
 42
-0.4142135623730951
  0
VERTEX
  5
8224
  8
1
 10
4185.0271255001517
 20
2946.531803809326
 30
0.0
  0
VERTEX
  5
8225
  8
1
 10
4185.0271255001517
 20
2962.531803809326
 30
0.0
 42
0.4142135623730951
  0
VERTEX
  5
8226
  8
1
 10
4183.0271255001517
 20
2964.531803809326
 30
0.0
  0
VERTEX
  5
8227
  8
1
 10
4182.0271255001526
 20
2964.531803809326
 30
0.0
  0
SEQEND
  5
8228
  8
1
  0
LINE
  5
7D16
  8
1
 10
4174.2098209772003
 20
2362.0318038093278
 30
0.0
 11
4189.2565157217532
 21
2362.0318038093278
 31
0.0
  0
DIMENSION
  5
7D18
  8
3
  2
*D7
 10
2479.250571305357
 20
5371.3381072901047
 30
0.0
 11
2154.250571305357
 21
5421.3381072901047
 31
0.0
 12
-1558.2925696289781
 22
1500.4798516169969
 32
0.0
 70
     0
 13
1829.250571305357
 23
5170.0623633336563
 33
0.0
 14
2479.250571305357
 24
4670.0623633336563
 34
0.0
1001
ACAD
1000
DSTYLE
1002
{
1070
    40
1040
25.0
1002
}
  0
LINE
  5
7D19
  8
1
 10
4182.0271255001526
 20
2379.5318038093278
 30
0.0
 11
4207.0271255001526
 21
2379.5318038093278
 31
0.0
  0
LINE
  5
7D1A
  8
1
 10
4207.0271255001526
 20
2379.5318038093278
 30
0.0
 11
4207.0271255001526
 21
2378.5318038093278
 31
0.0
  0
ARC
  5
7D1B
  8
1
 10
4205.0271255001517
 20
2378.5318038093278
 30
0.0
 40
2.0
 50
270.0
 51
0.0
  0
LINE
  5
7D1C
  8
1
 10
4205.0271255001517
 20
2376.5318038093278
 30
0.0
 11
4189.0271255001517
 21
2376.5318038093278
 31
0.0
  0
ARC
  5
7D1D
  8
1
 10
4189.0271255001517
 20
2372.5318038093278
 30
0.0
 40
4.0
 50
90.0
 51
180.0
  0
LINE
  5
7D1E
  8
1
 10
4185.0271255001508
 20
2939.531803809326
 30
0.0
 11
4185.0271255001517
 21
2356.5318038093278
 31
0.0
  0
ARC
  5
7D1F
  8
1
 10
4183.0271255001517
 20
2356.5318038093278
 30
0.0
 40
2.0
 50
270.0
 51
0.0
  0
LINE
  5
7D20
  8
1
 10
4183.0271255001517
 20
2354.5318038093278
 30
0.0
 11
4182.0271255001526
 21
2354.5318038093278
 31
0.0
  0
LINE
  5
7D21
  8
1
 10
4182.0271255001526
 20
2354.5318038093278
 30
0.0
 11
4182.0271255001526
 21
2379.5318038093278
 31
0.0
  0
INSERT
  5
7D22
  8
0
  2
YA_N
 10
120.0
 20
100.0
 30
0.0
 41
20.0
 42
20.0
 43
20.0
  0
INSERT
  5
7D23
  8
0
  2
YA_N
 10
120.0
 20
100.0
 30
0.0
 41
20.0
 42
20.0
 43
20.0
  0
INSERT
  5
7D28
  8
0
  2
YA_N
 10
120.0
 20
100.0
 30
0.0
 41
20.0
 42
20.0
 43
20.0
  0
INSERT
  5
7D2D
  8
0
  2
YA_N
 10
120.0
 20
100.0
 30
0.0
 41
20.0
 42
20.0
 43
20.0
  0
INSERT
  5
7D2E
  8
0
  2
YA_N
 10
120.0
 20
100.0
 30
0.0
 41
20.0
 42
20.0
 43
20.0
  0
INSERT
  5
7D2F
  8
0
  2
YA_N
 10
120.0
 20
100.0
 30
0.0
 41
20.0
 42
20.0
 43
20.0
  0
LINE
  5
7D34
  8
1
 10
4182.0271255001526
 20
2174.903415957664
 30
0.0
 11
4182.0271255001544
 21
2939.531803809326
 31
0.0
  0
LINE
  5
7D35
  8
1
 10
3752.0271255001521
 20
2174.903415957664
 30
0.0
 11
3752.0271255001521
 21
2679.9034159576631
 31
0.0
  0
LINE
  5
7D36
  8
1
 10
4182.0271255001526
 20
2679.9034159576631
 30
0.0
 11
4182.0271255001526
 21
3049.903415957664
 31
0.0
  0
LINE
  5
7D37
  8
1
 10
3752.0271255001521
 20
2679.9034159576631
 30
0.0
 11
3752.0271255001521
 21
3049.903415957664
 31
0.0
  0
LINE
  5
7D38
  8
1
 10
3727.0271255001521
 20
3049.903415957664
 30
0.0
 11
4207.0271255001526
 21
3049.903415957664
 31
0.0
  0
LINE
  5
7D39
  8
1
 10
3752.0271255001521
 20
2679.9034159576631
 30
0.0
 11
4182.0271255001526
 21
2679.9034159576631
 31
0.0
  0
DIMENSION
  5
7D3A
  8
3
  2
*D8
 10
4179.5271255001517
 20
3138.7545804922211
 30
0.0
 11
3967.0271255001521
 21
3188.754580492222
 31
0.0
 12
-1558.2925696289781
 22
1500.4798516169969
 32
0.0
 70
     0
 13
3754.5271255001521
 23
3049.903415957664
 33
0.0
 14
4179.5271255001517
 24
3049.903415957664
 34
0.0
1001
ACAD
1000
DSTYLE
1002
{
1070
    40
1040
25.0
1002
}
  0
DIMENSION
  5
7D3B
  8
3
  2
*D9
 10
3016.5271255001521
 20
3382.509988192488
 30
0.0
 11
3491.7771255001521
 21
3495.0099881924871
 31
0.0
 70
     0
  1
MAX\P1020
 13
3967.0271255001521
 23
3214.0975474266738
 33
0.0
 14
3016.5271255001521
 24
2879.903415957664
 34
0.0
1001
ACAD
1000
DSTYLE
1002
{
1070
    40
1040
25.0
1002
}
  0
INSERT
  5
7D3C
  8
0
  2
YA_N
 10
-179.8335021377398
 20
-171.90037549161951
 30
0.0
 41
1.538461538
 42
1.538461538
 43
1.538461538
  0
INSERT
  5
7D3D
  8
0
  2
YA_N
 10
29.23077174199971
 20
27.6923094659989
 30
0.0
 41
1.538461538
 42
1.538461538
 43
1.538461538
  0
INSERT
  5
7D3E
  8
0
  2
YA_N
 10
29.23077174199971
 20
27.6923094659989
 30
0.0
 41
1.538461538
 42
1.538461538
 43
1.538461538
  0
INSERT
  5
7D3F
  8
0
  2
YA_N
 10
29.23077174199971
 20
27.6923094659989
 30
0.0
 41
1.538461538
 42
1.538461538
 43
1.538461538
  0
INSERT
  5
7D40
  8
0
  2
YA_N
 10
29.23077174199971
 20
27.6923094659989
 30
0.0
 41
1.538461538
 42
1.538461538
 43
1.538461538
  0
INSERT
  5
7D41
  8
0
  2
YA_N
 10
29.23077174199971
 20
27.6923094659989
 30
0.0
 41
1.538461538
 42
1.538461538
 43
1.538461538
  0
INSERT
  5
7D42
  8
0
  2
YA_N
 10
764.68473646589041
 20
4641.82068678011
 30
0.0
 41
1.538461538
 42
1.538461538
 43
1.538461538
  0
INSERT
  5
7D43
  8
0
  2
YA_N
 10
6460.7510135923712
 20
4598.0052802348528
 30
0.0
 41
1.538461538
 42
1.538461538
 43
1.538461538
  0
INSERT
  5
7D44
  8
0
  2
YA_N
 10
6460.7510135923712
 20
4598.0052802348528
 30
0.0
 41
1.538461538
 42
1.538461538
 43
1.538461538
  0
INSERT
  5
7D45
  8
0
  2
YA_N
 10
6460.7510135923712
 20
4598.0052802348528
 30
0.0
 41
1.538461538
 42
1.538461538
 43
1.538461538
  0
INSERT
  5
7D46
  8
0
  2
YA_N
 10
6460.7510135923712
 20
4598.0052802348528
 30
0.0
 41
1.538461538
 42
1.538461538
 43
1.538461538
  0
INSERT
  5
7D47
  8
0
  2
YA_N
 10
10145.21226568251
 20
7780.9088358950803
 30
0.0
 41
1.538461538
 42
1.538461538
 43
1.538461538
  0
INSERT
  5
7D48
  8
0
  2
YA_N
 10
10145.21226568251
 20
7780.9088358950803
 30
0.0
 41
1.538461538
 42
1.538461538
 43
1.538461538
  0
INSERT
  5
7D49
  8
0
  2
YA_N
 10
5360.6303447487271
 20
3883.0407429965931
 30
0.0
 41
1.538461538
 42
1.538461538
 43
1.538461538
  0
INSERT
  5
7D4A
  8
0
  2
YA_N
 10
-1001.011017188752
 20
-988.56545136257319
 30
0.0
 41
1.538461538
 42
1.538461538
 43
1.538461538
  0
INSERT
  5
7D4B
  8
0
  2
YA_N
 10
140.00000247799969
 20
120.0000017459989
 30
0.0
 41
19.999999994
 42
19.999999994
 43
19.999999994
  0
INSERT
  5
7D4D
  8
0
  2
YA_N
 10
140.00000247799969
 20
120.0000017459989
 30
0.0
 41
19.999999994
 42
19.999999994
 43
19.999999994
  0
INSERT
  5
7D52
  8
0
  2
YA_N
 10
140.00000247799969
 20
120.0000017459989
 30
0.0
 41
19.999999994
 42
19.999999994
 43
19.999999994
  0
INSERT
  5
7D53
  8
0
  2
YA_N
 10
140.00000247799969
 20
120.0000017459989
 30
0.0
 41
19.999999994
 42
19.999999994
 43
19.999999994
  0
INSERT
  5
7D54
  8
0
  2
YA_N
 10
140.00000247799969
 20
120.0000017459989
 30
0.0
 41
19.999999994
 42
19.999999994
 43
19.999999994
  0
INSERT
  5
7D59
  8
0
  2
YA_N
 10
-179.8335021377398
 20
-171.90037549161951
 30
0.0
 41
1.538461538
 42
1.538461538
 43
1.538461538
  0
INSERT
  5
7D5A
  8
0
  2
YA_N
 10
29.23077174199971
 20
27.6923094659989
 30
0.0
 41
1.538461538
 42
1.538461538
 43
1.538461538
  0
INSERT
  5
7D5B
  8
0
  2
YA_N
 10
29.23077174199971
 20
27.6923094659989
 30
0.0
 41
1.538461538
 42
1.538461538
 43
1.538461538
  0
INSERT
  5
7D5C
  8
0
  2
YA_N
 10
29.23077174199971
 20
27.6923094659989
 30
0.0
 41
1.538461538
 42
1.538461538
 43
1.538461538
  0
INSERT
  5
7D5D
  8
0
  2
YA_N
 10
29.23077174199971
 20
27.6923094659989
 30
0.0
 41
1.538461538
 42
1.538461538
 43
1.538461538
  0
INSERT
  5
7D5E
  8
0
  2
YA_N
 10
29.23077174199971
 20
27.6923094659989
 30
0.0
 41
1.538461538
 42
1.538461538
 43
1.538461538
  0
INSERT
  5
7D5F
  8
0
  2
YA_N
 10
764.68473646589041
 20
4641.82068678011
 30
0.0
 41
1.538461538
 42
1.538461538
 43
1.538461538
  0
INSERT
  5
7D60
  8
0
  2
YA_N
 10
6460.7510135923712
 20
4598.0052802348528
 30
0.0
 41
1.538461538
 42
1.538461538
 43
1.538461538
  0
INSERT
  5
7D61
  8
0
  2
YA_N
 10
6460.7510135923712
 20
4598.0052802348528
 30
0.0
 41
1.538461538
 42
1.538461538
 43
1.538461538
  0
INSERT
  5
7D62
  8
0
  2
YA_N
 10
6460.7510135923712
 20
4598.0052802348528
 30
0.0
 41
1.538461538
 42
1.538461538
 43
1.538461538
  0
INSERT
  5
7D63
  8
0
  2
YA_N
 10
6460.7510135923712
 20
4598.0052802348528
 30
0.0
 41
1.538461538
 42
1.538461538
 43
1.538461538
  0
INSERT
  5
7D64
  8
0
  2
YA_N
 10
10145.21226568251
 20
7780.9088358950803
 30
0.0
 41
1.538461538
 42
1.538461538
 43
1.538461538
  0
INSERT
  5
7D65
  8
0
  2
YA_N
 10
10145.21226568251
 20
7780.9088358950803
 30
0.0
 41
1.538461538
 42
1.538461538
 43
1.538461538
  0
INSERT
  5
7D66
  8
0
  2
YA_N
 10
5360.6303447487271
 20
3883.0407429965931
 30
0.0
 41
1.538461538
 42
1.538461538
 43
1.538461538
  0
INSERT
  5
7D67
  8
0
  2
YA_N
 10
-1001.011017188752
 20
-988.56545136257319
 30
0.0
 41
1.538461538
 42
1.538461538
 43
1.538461538
  0
INSERT
  5
7D68
  8
0
  2
YA_N
 10
140.00000247799969
 20
120.0000017459989
 30
0.0
 41
19.999999994
 42
19.999999994
 43
19.999999994
  0
INSERT
  5
7D6A
  8
0
  2
YA_N
 10
140.00000247799969
 20
120.0000017459989
 30
0.0
 41
19.999999994
 42
19.999999994
 43
19.999999994
  0
INSERT
  5
7D6F
  8
0
  2
YA_N
 10
140.00000247799969
 20
120.0000017459989
 30
0.0
 41
19.999999994
 42
19.999999994
 43
19.999999994
  0
INSERT
  5
7D70
  8
0
  2
YA_N
 10
140.00000247799969
 20
120.0000017459989
 30
0.0
 41
19.999999994
 42
19.999999994
 43
19.999999994
  0
INSERT
  5
7D71
  8
0
  2
YA_N
 10
140.00000247799969
 20
120.0000017459989
 30
0.0
 41
19.999999994
 42
19.999999994
 43
19.999999994
  0
LINE
  5
7D76
  8
1
 10
4207.0271255001526
 20
2379.5318038093278
 30
0.0
 11
4207.0271255001499
 21
2939.531803809326
 31
0.0
  0
LINE
  5
7D78
  8
1
 10
3122.0271255001512
 20
2099.903415957664
 30
0.0
 11
3122.027125500153
 21
2174.903415957664
 31
0.0
  0
LINE
  5
7D79
  8
1
 10
1179.2505713053581
 20
5127.5623633336563
 30
0.0
 11
2179.250571305357
 21
5127.5623633336563
 31
0.0
  0
LINE
  5
7D7A
  8
1
 10
1179.2505713053581
 20
4702.5623633336572
 30
0.0
 11
2179.250571305357
 21
4702.5623633336563
 31
0.0
  0
LINE
  5
7D7B
  8
1
 10
2179.250571305357
 20
4702.5623633336563
 30
0.0
 11
2179.250571305357
 21
5127.5623633336563
 31
0.0
  0
LINE
  5
7D7C
  8
1
 10
1829.250571305357
 20
5127.5623633336563
 30
0.0
 11
1829.250571305357
 21
5170.0623633336563
 31
0.0
  0
LINE
  5
7D7D
  8
1
 10
1329.250571305357
 20
5127.5623633336563
 30
0.0
 11
1329.250571305357
 21
5170.0623633336563
 31
0.0
  0
LINE
  5
7D7E
  8
1
 10
1604.2505713053581
 20
4016.0623633336559
 30
0.0
 11
1604.2505713053581
 21
4702.5623633336563
 31
0.0
  0
LINE
  5
7D7F
  8
1
 10
1554.2505713053581
 20
4016.0623633336559
 30
0.0
 11
1554.250571305357
 21
4702.5623633336563
 31
0.0
  0
LINE
  5
7D81
  8
2
 10
1579.250571305357
 20
3882.1821216196172
 30
0.0
 11
1579.250571305357
 21
5078.7350423301759
 31
0.0
  0
LINE
  5
7D82
  8
1
 10
2429.250571305357
 20
3913.0623633336568
 30
0.0
 11
1359.250571305357
 21
3913.0623633336559
 31
0.0
  0
LINE
  5
7D83
  8
1
 10
2429.250571305357
 20
4035.0623633336559
 30
0.0
 11
1359.250571305357
 21
4035.0623633336559
 31
0.0
  0
LINE
  5
7D85
  8
1
 10
2349.250571305357
 20
3996.0623633336559
 30
0.0
 11
1452.250571305357
 21
3996.0623633336559
 31
0.0
  0
LINE
  5
7D86
  8
1
 10
2349.250571305357
 20
3933.0623633336559
 30
0.0
 11
1452.250571305357
 21
3933.0623633336559
 31
0.0
  0
LINE
  5
7D87
  8
1
 10
2429.250571305357
 20
3913.0623633336568
 30
0.0
 11
2429.250571305357
 21
4035.0623633336559
 31
0.0
  0
LINE
  5
7D88
  8
1
 10
2349.250571305357
 20
3933.0623633336559
 30
0.0
 11
2349.250571305357
 21
3996.0623633336559
 31
0.0
  0
LINE
  5
7D89
  8
1
 10
2244.2505713053561
 20
3996.0623633336559
 30
0.0
 11
2244.250571305357
 21
4018.0623633336559
 31
0.0
  0
LINE
  5
7D8A
  8
1
 10
2314.250571305357
 20
3996.0623633336559
 30
0.0
 11
2314.250571305357
 21
4018.0623633336559
 31
0.0
  0
LINE
  5
7D8B
  8
1
 10
1706.250571305357
 20
3933.0623633336559
 30
0.0
 11
1706.250571305357
 21
3996.0623633336559
 31
0.0
  0
LINE
  5
7D8C
  8
1
 10
2209.250571305357
 20
3933.0623633336559
 30
0.0
 11
2209.250571305357
 21
3996.0623633336559
 31
0.0
  0
LINE
  5
7D8D
  8
1
 10
2314.250571305357
 20
4018.0623633336559
 30
0.0
 11
2244.250571305357
 21
4018.0623633336559
 31
0.0
  0
LINE
  5
7D8E
  8
1
 10
1534.250571305357
 20
3996.0623633336559
 30
0.0
 11
1534.250571305357
 21
4016.0623633336559
 31
0.0
  0
LINE
  5
7D8F
  8
1
 10
1624.250571305357
 20
3996.0623633336559
 30
0.0
 11
1624.250571305357
 21
4016.0623633336559
 31
0.0
  0
LINE
  5
7D90
  8
1
 10
1558.2505713053581
 20
3960.0623633336559
 30
0.0
 11
1558.2505713053581
 21
4016.0623633336568
 31
0.0
  0
LINE
  5
7D91
  8
1
 10
1600.2505713053581
 20
3960.0623633336559
 30
0.0
 11
1600.2505713053581
 21
4016.0623633336568
 31
0.0
  0
LINE
  5
7D92
  8
1
 10
1600.2505713053581
 20
3960.0623633336559
 30
0.0
 11
1558.2505713053581
 21
3960.0623633336559
 31
0.0
  0
LINE
  5
7D93
  8
1
 10
1624.250571305357
 20
4016.0623633336559
 30
0.0
 11
1534.250571305357
 21
4016.0623633336559
 31
0.0
  0
LINE
  5
7D94
  8
1
 10
1452.250571305357
 20
3933.0623633336559
 30
0.0
 11
1452.250571305357
 21
3996.0623633336559
 31
0.0
  0
LINE
  5
7D95
  8
1
 10
1359.250571305357
 20
3913.0623633336559
 30
0.0
 11
1359.2505713053561
 21
4035.0623633336559
 31
0.0
  0
LINE
  5
7D96
  8
1
 10
2137.250571305357
 20
4451.5623633336563
 30
0.0
 11
2137.2505713053579
 21
4051.5623633336568
 31
0.0
  0
LINE
  5
7D97
  8
1
 10
2421.2505713053579
 20
4451.5623633336563
 30
0.0
 11
2421.250571305357
 21
4051.5623633336568
 31
0.0
  0
LINE
  5
7D98
  8
1
 10
2260.250571305357
 20
4051.5623633336568
 30
0.0
 11
2260.250571305357
 21
4018.0623633336559
 31
0.0
  0
LINE
  5
7D99
  8
1
 10
2298.2505713053579
 20
4051.5623633336568
 30
0.0
 11
2298.2505713053579
 21
4018.0623633336559
 31
0.0
  0
LINE
  5
7D9A
  8
1
 10
2421.250571305357
 20
4451.5623633336563
 30
0.0
 11
2137.250571305357
 21
4451.5623633336563
 31
0.0
  0
LINE
  5
7D9B
  8
1
 10
2421.2505713053579
 20
4051.5623633336568
 30
0.0
 11
2137.2505713053579
 21
4051.5623633336568
 31
0.0
  0
INSERT
  5
7D9C
  8
0
  2
YA_N
 10
6923.8460606765784
 20
805.43795175788807
 30
0.0
  0
INSERT
  5
7D9D
  8
0
  2
YA_N
 10
6923.8460606765784
 20
805.43795175788807
 30
0.0
  0
INSERT
  5
7D9E
  8
0
  2
YA_N
 10
6923.8460606765784
 20
805.43795175788807
 30
0.0
  0
LINE
  5
7D9F
  8
1
 10
1799.250571305357
 20
2537.7034159576642
 30
0.0
 11
2117.9172200749308
 21
2537.7034159576629
 31
0.0
  0
LINE
  5
7DA0
  8
1
 10
1799.250571305357
 20
2528.7034159576642
 30
0.0
 11
2117.9172200749331
 21
2528.7034159576642
 31
0.0
  0
LINE
  5
7DA1
  8
1
 10
1188.344854087391
 20
2528.7034159576642
 30
0.0
 11
1188.344854087391
 21
2537.7034159576629
 31
0.0
  0
LINE
  5
7DA2
  8
1
 10
1188.344854087391
 20
2528.7034159576642
 30
0.0
 11
1359.250571305357
 21
2528.7034159576642
 31
0.0
  0
LINE
  5
7DA3
  8
1
 10
1188.344854087391
 20
2537.7034159576629
 30
0.0
 11
1359.250571305357
 21
2537.7034159576642
 31
0.0
  0
LINE
  5
7DA4
  8
1
 10
1359.2505713053581
 20
2174.9034159576631
 30
0.0
 11
1359.250571305357
 21
2596.7034159576642
 31
0.0
  0
LINE
  5
7DA5
  8
1
 10
1799.250571305357
 20
2174.9034159576631
 30
0.0
 11
1799.250571305357
 21
2596.7034159576642
 31
0.0
  0
LINE
  5
7DA6
  8
1
 10
2479.250571305357
 20
2099.903415957664
 30
0.0
 11
2479.250571305357
 21
2174.9034159576631
 31
0.0
  0
LINE
  5
7DA7
  8
1
 10
2479.250571305357
 20
2174.9034159576631
 30
0.0
 11
1329.2505713053581
 21
2174.9034159576631
 31
0.0
  0
LINE
  5
7DA8
  8
1
 10
2479.250571305357
 20
2099.903415957664
 30
0.0
 11
1329.2505713053581
 21
2099.9034159576631
 31
0.0
  0
LINE
  5
7DA9
  8
1
 10
1829.2505713053561
 20
2596.7034159576642
 30
0.0
 11
1329.2505713053581
 21
2596.7034159576642
 31
0.0
  0
LINE
  5
7DAA
  8
1
 10
1329.2505713053581
 20
2099.9034159576631
 30
0.0
 11
1329.2505713053581
 21
2174.9034159576631
 31
0.0
  0
LINE
  5
7DAB
  8
2
 10
1579.250571305357
 20
2099.903415957664
 30
0.0
 11
1579.250571305357
 21
3092.4108518801381
 31
0.0
  0
ARC
  5
7DAC
  8
1
 10
1591.0718313591569
 20
2639.4996317434739
 30
0.0
 40
232.9940859971957
 50
65.980159456524973
 51
249.4937163505875
  0
CIRCLE
  5
7DAD
  8
1
 10
1579.250571305357
 20
2659.903415957664
 30
0.0
 40
127.0
  0
CIRCLE
  5
7DAE
  8
1
 10
2279.250571305357
 20
2351.9034159576631
 30
0.0
 40
70.0
  0
ARC
  5
7DAF
  8
1
 10
2279.250571305357
 20
2351.9034159576631
 30
0.0
 40
150.0
 50
251.5022249830624
 51
60.998786031203942
  0
LINE
  5
7DB0
  8
1
 10
2351.974794009865
 20
2483.0948311951888
 30
0.0
 11
1685.9127646053021
 21
2852.3174916393691
 31
0.0
  0
LINE
  5
7DB1
  8
1
 10
2231.6603968582208
 20
2209.6530194868928
 30
0.0
 11
1509.4516487828921
 21
2421.2695011338678
 31
0.0
  0
LINE
  5
7DB2
  8
1
 10
2312.1393300271161
 20
2413.6960494162072
 30
0.0
 11
1638.920176414832
 21
2772.012908089594
 31
0.0
  0
LINE
  5
7DB3
  8
1
 10
2255.9127509213999
 20
2285.908369630487
 30
0.0
 11
1536.9090971801791
 21
2540.1695461926429
 31
0.0
  0
INSERT
  5
7DBB
  8
0
  2
YA_N
 10
7037.8460606765784
 20
900.43795175788807
 30
0.0
 41
20.0
 42
20.0
 43
20.0
  0
INSERT
  5
7DBC
  8
0
  2
YA_N
 10
10765.321980837871
 20
2986.1673276095139
 30
0.0
  0
INSERT
  5
7DBD
  8
0
  2
YA_N
 10
10765.321980837871
 20
2986.1673276095139
 30
0.0
  0
INSERT
  5
7DBE
  8
0
  2
YA_N
 10
11004.40127034527
 20
4775.2842128975763
 30
0.0
  0
INSERT
  5
7DBF
  8
0
  2
YA_N
 10
11004.40127034527
 20
4775.2842128975763
 30
0.0
  0
INSERT
  5
7DC0
  8
0
  2
YA_N
 10
11763.35292755091
 20
6341.6397817303177
 30
0.0
  0
LINE
  5
7DC3
  8
1
 10
2409.2505713053561
 20
2219.903415957664
 30
0.0
 11
2359.250571305357
 21
2219.903415957664
 31
0.0
  0
LINE
  5
7DC4
  8
1
 10
2409.2505713053561
 20
2219.903415957664
 30
0.0
 11
2409.2505713053561
 21
2234.9034159576631
 31
0.0
  0
LINE
  5
7DC5
  8
1
 10
2409.2505713053561
 20
2234.9034159576631
 30
0.0
 11
2360.5970524830918
 21
2234.9034159576631
 31
0.0
  0
LINE
  5
7DC6
  8
1
 10
2359.250571305357
 20
2233.9786518069559
 30
0.0
 11
2359.250571305357
 21
2219.903415957664
 31
0.0
  0
LINE
  5
7DC7
  8
1
 10
2342.6497997675551
 20
2224.2837159486262
 30
0.0
 11
2215.8513428431538
 21
2224.2837159486262
 31
0.0
  0
LINE
  5
7DC8
  8
1
 10
2409.2505713053561
 20
2234.9034159576631
 30
0.0
 11
2395.221293725499
 21
2269.0961605910588
 31
0.0
  0
LINE
  5
7DC9
  8
1
 10
2149.250571305357
 20
2234.9034159576631
 30
0.0
 11
2163.2798488852141
 21
2269.0961605910588
 31
0.0
  0
LINE
  5
7DCA
  8
1
 10
2199.250571305357
 20
2233.9786518069559
 30
0.0
 11
2199.250571305357
 21
2219.903415957664
 31
0.0
  0
LINE
  5
7DCB
  8
1
 10
2149.250571305357
 20
2234.9034159576631
 30
0.0
 11
2197.904090127623
 21
2234.9034159576631
 31
0.0
  0
LINE
  5
7DCC
  8
1
 10
2149.250571305357
 20
2219.903415957664
 30
0.0
 11
2149.250571305357
 21
2234.9034159576631
 31
0.0
  0
LINE
  5
7DCD
  8
1
 10
2149.250571305357
 20
2219.903415957664
 30
0.0
 11
2199.250571305357
 21
2219.903415957664
 31
0.0
  0
LINE
  5
7DCE
  8
2
 10
2502.7632063538858
 20
2351.903415957664
 30
0.0
 11
2126.750571305357
 21
2351.903415957664
 31
0.0
  0
ARC
  5
7DCF
  8
1
 10
2279.250571305357
 20
2351.903415957664
 30
0.0
 40
142.0
 50
296.41738025990082
 51
243.58261974009909
  0
CIRCLE
  5
7DD0
  8
1
 10
2279.250571305357
 20
2351.903415957664
 30
0.0
 40
19.0
  0
LINE
  5
7DD1
  8
2
 10
2279.250571305357
 20
2164.9009891047858
 30
0.0
 11
2279.250571305357
 21
2504.403415957664
 31
0.0
  0
POLYLINE
  5
7DD4
  8
1
 66
     1
 10
0.0
 20
0.0
 30
0.0
 70
     1
  0
VERTEX
  5
8229
  8
1
 10
2454.250571305357
 20
2174.903415957664
 30
0.0
  0
VERTEX
  5
822A
  8
1
 10
2104.2505713053561
 20
2174.903415957664
 30
0.0
  0
VERTEX
  5
822B
  8
1
 10
2114.2505713053561
 20
2219.903415957664
 30
0.0
  0
VERTEX
  5
822C
  8
1
 10
2444.250571305357
 20
2219.903415957664
 30
0.0
  0
SEQEND
  5
822D
  8
1
  0
INSERT
  5
7DDA
  8
0
  2
YA_N
 10
7037.8460606765784
 20
900.43795175788807
 30
0.0
 41
20.0
 42
20.0
 43
20.0
  0
INSERT
  5
7DDB
  8
0
  2
YA_N
 10
7037.8460606765784
 20
900.43795175788807
 30
0.0
 41
20.0
 42
20.0
 43
20.0
  0
INSERT
  5
7DE0
  8
0
  2
YA_N
 10
7037.8460606765784
 20
900.43795175788807
 30
0.0
 41
20.0
 42
20.0
 43
20.0
  0
INSERT
  5
7DE5
  8
0
  2
YA_N
 10
7037.8460606765784
 20
900.43795175788807
 30
0.0
 41
20.0
 42
20.0
 43
20.0
  0
INSERT
  5
7DE6
  8
0
  2
YA_N
 10
7037.8460606765784
 20
900.43795175788807
 30
0.0
 41
20.0
 42
20.0
 43
20.0
  0
INSERT
  5
7DE7
  8
0
  2
YA_N
 10
7037.8460606765784
 20
900.43795175788807
 30
0.0
 41
20.0
 42
20.0
 43
20.0
  0
POLYLINE
  5
7DEC
  8
1
 66
     1
 10
0.0
 20
0.0
 30
0.0
 70
     1
  0
VERTEX
  5
822E
  8
1
 10
1599.250571305357
 20
3049.903415957664
 30
0.0
  0
VERTEX
  5
822F
  8
1
 10
1574.2505713053561
 20
3049.903415957664
 30
0.0
  0
VERTEX
  5
8230
  8
1
 10
1574.2505713053561
 20
3048.903415957664
 30
0.0
 42
0.4142135623730951
  0
VERTEX
  5
8231
  8
1
 10
1576.250571305357
 20
3046.903415957664
 30
0.0
  0
VERTEX
  5
8232
  8
1
 10
1592.2505713053561
 20
3046.903415957664
 30
0.0
 42
-0.4142135623730951
  0
VERTEX
  5
8233
  8
1
 10
1596.250571305357
 20
3042.903415957664
 30
0.0
  0
VERTEX
  5
8234
  8
1
 10
1596.250571305357
 20
3026.903415957664
 30
0.0
 42
0.4142135623730951
  0
VERTEX
  5
8235
  8
1
 10
1598.2505713053561
 20
3024.903415957664
 30
0.0
  0
VERTEX
  5
8236
  8
1
 10
1599.250571305357
 20
3024.903415957664
 30
0.0
  0
SEQEND
  5
8237
  8
1
  0
POLYLINE
  5
7DF7
  8
1
 66
     1
 10
0.0
 20
0.0
 30
0.0
 70
     1
  0
VERTEX
  5
8238
  8
1
 10
2179.2505713053561
 20
3049.903415957664
 30
0.0
  0
VERTEX
  5
8239
  8
1
 10
2204.2505713053561
 20
3049.903415957664
 30
0.0
  0
VERTEX
  5
823A
  8
1
 10
2204.2505713053561
 20
3048.903415957664
 30
0.0
 42
-0.4142135623730951
  0
VERTEX
  5
823B
  8
1
 10
2202.250571305357
 20
3046.903415957664
 30
0.0
  0
VERTEX
  5
823C
  8
1
 10
2186.250571305357
 20
3046.903415957664
 30
0.0
 42
0.4142135623730951
  0
VERTEX
  5
823D
  8
1
 10
2182.250571305357
 20
3042.903415957664
 30
0.0
  0
VERTEX
  5
823E
  8
1
 10
2182.250571305357
 20
3026.903415957664
 30
0.0
 42
-0.4142135623730951
  0
VERTEX
  5
823F
  8
1
 10
2180.250571305357
 20
3024.903415957664
 30
0.0
  0
VERTEX
  5
8240
  8
1
 10
2179.2505713053561
 20
3024.903415957664
 30
0.0
  0
SEQEND
  5
8241
  8
1
  0
LINE
  5
7E02
  8
1
 10
2179.2505713053561
 20
3024.903415957664
 30
0.0
 11
2145.0304987757982
 21
2653.627256426686
 31
0.0
  0
LINE
  5
7E03
  8
1
 10
2179.2505713053561
 20
3024.903415957664
 30
0.0
 11
1599.250571305357
 21
3024.903415957664
 31
0.0
  0
LINE
  5
7E04
  8
1
 10
1599.250571305357
 20
2989.2005641045871
 30
0.0
 11
1599.250571305357
 21
3024.903415957664
 31
0.0
  0
LINE
  5
7E05
  8
1
 10
2179.2505713053561
 20
3049.903415957664
 30
0.0
 11
1599.250571305357
 21
3049.903415957664
 31
0.0
  0
ARC
  5
7E06
  8
1
 10
1546.2505713053581
 20
2692.9034159576631
 30
0.0
 40
301.0
 50
79.858501916215786
 51
89.999999999999346
  0
ARC
  5
7E07
  8
1
 10
1546.250571305357
 20
2626.903415957664
 30
0.0
 40
367.0
 50
89.999999999999275
 51
180.66991572429581
  0
ARC
  5
7E08
  8
1
 10
1621.250571305357
 20
2617.9034159576631
 30
0.0
 40
442.0
 50
179.38956187548339
 51
233.64687534777011
  0
ARC
  5
7E09
  8
1
 10
1621.250571305357
 20
2701.9034159576631
 30
0.0
 40
526.0
 50
289.77960858377349
 51
354.73399570276803
  0
LINE
  5
7E0A
  8
1
 10
2117.9172200749308
 20
2528.7034159576642
 30
0.0
 11
2117.9172200749308
 21
2537.7034159576629
 31
0.0
  0
DIMENSION
  5
7E0B
  8
3
  2
*D10
 10
1047.8121900564729
 20
2099.9034159576631
 30
0.0
 11
997.81219005647392
 21
2379.903415957664
 31
0.0
 12
-1558.2925696289781
 22
1500.4798516169969
 32
0.0
 70
     0
 13
1141.8993535796419
 23
2659.903415957664
 33
0.0
 14
1329.2505713053581
 24
2099.9034159576631
 34
0.0
 50
270.0
1001
ACAD
1000
DSTYLE
1002
{
1070
    40
1040
25.0
1002
}
  0
DIMENSION
  5
7E0C
  8
3
  2
*D11
 10
1047.8121900564729
 20
3049.903415957664
 30
0.0
 11
997.81219005647392
 21
2854.903415957664
 31
0.0
 12
-1558.2925696289781
 22
1500.4798516169969
 32
0.0
 70
     0
 13
1141.8993535796419
 23
2659.903415957664
 33
0.0
 14
1574.2505713053561
 24
3049.903415957664
 34
0.0
 50
270.0
1001
ACAD
1000
DSTYLE
1002
{
1070
    40
1040
25.0
1002
}
  0
DIMENSION
  5
7E0D
  8
3
  2
*D12
 10
1599.250571305357
 20
3125.3435266564411
 30
0.0
 11
1889.250571305357
 21
3175.3435266564411
 31
0.0
 12
-1558.2925696289781
 22
1500.4798516169969
 32
0.0
 70
     0
 13
2179.2505713053561
 23
3049.903415957664
 33
0.0
 14
1599.250571305357
 24
3049.903415957664
 34
0.0
1001
ACAD
1000
DSTYLE
1002
{
1070
    40
1040
25.0
1002
}
  0
DIMENSION
  5
7E0E
  8
3
  2
*D13
 10
1579.250571305357
 20
3255.306028458227
 30
0.0
 11
1879.2505713053561
 21
3305.306028458227
 31
0.0
 12
-1558.2925696289781
 22
1500.4798516169969
 32
0.0
 70
     0
 13
2179.2505713053561
 23
3049.903415957664
 33
0.0
 14
1579.250571305357
 24
3092.4108518801381
 34
0.0
1001
ACAD
1000
DSTYLE
1002
{
1070
    40
1040
25.0
1002
}
  0
INSERT
  5
7E0F
  8
0
  2
YA_N
 10
6738.0125585388378
 20
628.53757626626862
 30
0.0
 41
1.538461538
 42
1.538461538
 43
1.538461538
  0
INSERT
  5
7E10
  8
0
  2
YA_N
 10
6947.0768324185783
 20
828.13026122388715
 30
0.0
 41
1.538461538
 42
1.538461538
 43
1.538461538
  0
INSERT
  5
7E11
  8
0
  2
YA_N
 10
6947.0768324185783
 20
828.13026122388715
 30
0.0
 41
1.538461538
 42
1.538461538
 43
1.538461538
  0
INSERT
  5
7E12
  8
0
  2
YA_N
 10
6947.0768324185783
 20
828.13026122388715
 30
0.0
 41
1.538461538
 42
1.538461538
 43
1.538461538
  0
INSERT
  5
7E13
  8
0
  2
YA_N
 10
6947.0768324185783
 20
828.13026122388715
 30
0.0
 41
1.538461538
 42
1.538461538
 43
1.538461538
  0
INSERT
  5
7E14
  8
0
  2
YA_N
 10
6947.0768324185783
 20
828.13026122388715
 30
0.0
 41
1.538461538
 42
1.538461538
 43
1.538461538
  0
INSERT
  5
7E15
  8
0
  2
YA_N
 10
7682.5307971424691
 20
5442.2586385379991
 30
0.0
 41
1.538461538
 42
1.538461538
 43
1.538461538
  0
INSERT
  5
7E16
  8
0
  2
YA_N
 10
13378.597074268941
 20
5398.44323199274
 30
0.0
 41
1.538461538
 42
1.538461538
 43
1.538461538
  0
INSERT
  5
7E17
  8
0
  2
YA_N
 10
13378.597074268941
 20
5398.44323199274
 30
0.0
 41
1.538461538
 42
1.538461538
 43
1.538461538
  0
INSERT
  5
7E18
  8
0
  2
YA_N
 10
13378.597074268941
 20
5398.44323199274
 30
0.0
 41
1.538461538
 42
1.538461538
 43
1.538461538
  0
INSERT
  5
7E19
  8
0
  2
YA_N
 10
13378.597074268941
 20
5398.44323199274
 30
0.0
 41
1.538461538
 42
1.538461538
 43
1.538461538
  0
INSERT
  5
7E1A
  8
0
  2
YA_N
 10
17063.058326359089
 20
8581.3467876529685
 30
0.0
 41
1.538461538
 42
1.538461538
 43
1.538461538
  0
INSERT
  5
7E1B
  8
0
  2
YA_N
 10
17063.058326359089
 20
8581.3467876529685
 30
0.0
 41
1.538461538
 42
1.538461538
 43
1.538461538
  0
INSERT
  5
7E1C
  8
0
  2
YA_N
 10
12278.476405425299
 20
4683.4786947544817
 30
0.0
 41
1.538461538
 42
1.538461538
 43
1.538461538
  0
INSERT
  5
7E1D
  8
0
  2
YA_N
 10
5916.8350434878248
 20
-188.12749960468491
 30
0.0
 41
1.538461538
 42
1.538461538
 43
1.538461538
  0
INSERT
  5
7E1E
  8
0
  2
YA_N
 10
7057.8460631545777
 20
920.43795350388712
 30
0.0
 41
19.999999994
 42
19.999999994
 43
19.999999994
  0
INSERT
  5
7E20
  8
0
  2
YA_N
 10
7057.8460631545777
 20
920.43795350388712
 30
0.0
 41
19.999999994
 42
19.999999994
 43
19.999999994
  0
INSERT
  5
7E25
  8
0
  2
YA_N
 10
7057.8460631545777
 20
920.43795350388712
 30
0.0
 41
19.999999994
 42
19.999999994
 43
19.999999994
  0
INSERT
  5
7E26
  8
0
  2
YA_N
 10
7057.8460631545777
 20
920.43795350388712
 30
0.0
 41
19.999999994
 42
19.999999994
 43
19.999999994
  0
INSERT
  5
7E27
  8
0
  2
YA_N
 10
7057.8460631545777
 20
920.43795350388712
 30
0.0
 41
19.999999994
 42
19.999999994
 43
19.999999994
  0
INSERT
  5
7E2C
  8
0
  2
YA_N
 10
6738.0125585388378
 20
628.53757626626862
 30
0.0
 41
1.538461538
 42
1.538461538
 43
1.538461538
  0
INSERT
  5
7E2D
  8
0
  2
YA_N
 10
6947.0768324185783
 20
828.13026122388715
 30
0.0
 41
1.538461538
 42
1.538461538
 43
1.538461538
  0
INSERT
  5
7E2E
  8
0
  2
YA_N
 10
6947.0768324185783
 20
828.13026122388715
 30
0.0
 41
1.538461538
 42
1.538461538
 43
1.538461538
  0
INSERT
  5
7E2F
  8
0
  2
YA_N
 10
6947.0768324185783
 20
828.13026122388715
 30
0.0
 41
1.538461538
 42
1.538461538
 43
1.538461538
  0
INSERT
  5
7E30
  8
0
  2
YA_N
 10
6947.0768324185783
 20
828.13026122388715
 30
0.0
 41
1.538461538
 42
1.538461538
 43
1.538461538
  0
INSERT
  5
7E31
  8
0
  2
YA_N
 10
6947.0768324185783
 20
828.13026122388715
 30
0.0
 41
1.538461538
 42
1.538461538
 43
1.538461538
  0
INSERT
  5
7E32
  8
0
  2
YA_N
 10
7682.5307971424691
 20
5442.2586385379991
 30
0.0
 41
1.538461538
 42
1.538461538
 43
1.538461538
  0
INSERT
  5
7E33
  8
0
  2
YA_N
 10
13378.597074268941
 20
5398.44323199274
 30
0.0
 41
1.538461538
 42
1.538461538
 43
1.538461538
  0
INSERT
  5
7E34
  8
0
  2
YA_N
 10
13378.597074268941
 20
5398.44323199274
 30
0.0
 41
1.538461538
 42
1.538461538
 43
1.538461538
  0
INSERT
  5
7E35
  8
0
  2
YA_N
 10
13378.597074268941
 20
5398.44323199274
 30
0.0
 41
1.538461538
 42
1.538461538
 43
1.538461538
  0
INSERT
  5
7E36
  8
0
  2
YA_N
 10
13378.597074268941
 20
5398.44323199274
 30
0.0
 41
1.538461538
 42
1.538461538
 43
1.538461538
  0
INSERT
  5
7E37
  8
0
  2
YA_N
 10
17063.058326359089
 20
8581.3467876529685
 30
0.0
 41
1.538461538
 42
1.538461538
 43
1.538461538
  0
INSERT
  5
7E38
  8
0
  2
YA_N
 10
17063.058326359089
 20
8581.3467876529685
 30
0.0
 41
1.538461538
 42
1.538461538
 43
1.538461538
  0
INSERT
  5
7E39
  8
0
  2
YA_N
 10
12278.476405425299
 20
4683.4786947544817
 30
0.0
 41
1.538461538
 42
1.538461538
 43
1.538461538
  0
INSERT
  5
7E3A
  8
0
  2
YA_N
 10
5916.8350434878248
 20
-188.12749960468491
 30
0.0
 41
1.538461538
 42
1.538461538
 43
1.538461538
  0
INSERT
  5
7E3B
  8
0
  2
YA_N
 10
7057.8460631545777
 20
920.43795350388712
 30
0.0
 41
19.999999994
 42
19.999999994
 43
19.999999994
  0
INSERT
  5
7E3D
  8
0
  2
YA_N
 10
7057.8460631545777
 20
920.43795350388712
 30
0.0
 41
19.999999994
 42
19.999999994
 43
19.999999994
  0
INSERT
  5
7E42
  8
0
  2
YA_N
 10
7057.8460631545777
 20
920.43795350388712
 30
0.0
 41
19.999999994
 42
19.999999994
 43
19.999999994
  0
INSERT
  5
7E43
  8
0
  2
YA_N
 10
7057.8460631545777
 20
920.43795350388712
 30
0.0
 41
19.999999994
 42
19.999999994
 43
19.999999994
  0
INSERT
  5
7E44
  8
0
  2
YA_N
 10
7057.8460631545777
 20
920.43795350388712
 30
0.0
 41
19.999999994
 42
19.999999994
 43
19.999999994
  0
DIMENSION
  5
7E4C
  8
3
  2
*D14
 10
1179.250571305357
 20
3412.378917669786
 30
0.0
 11
1829.2505713053561
 21
3462.378917669786
 31
0.0
 12
-1558.2925696289781
 22
1500.4798516169969
 32
0.0
 70
     0
 13
2479.250571305357
 23
2174.9034159576631
 33
0.0
 14
1179.250571305357
 24
2659.903415957664
 34
0.0
1001
ACAD
1000
DSTYLE
1002
{
1070
    40
1040
25.0
1002
}
  0
DIMENSION
  5
7E4D
  8
3
  2
*D15
 10
1179.250571305357
 20
3255.306028458227
 30
0.0
 11
1379.250571305357
 21
3305.306028458227
 31
0.0
 70
     0
 13
1579.250571305357
 23
3092.4108518801381
 33
0.0
 14
1179.250571305357
 24
2684.903415957664
 34
0.0
1001
ACAD
1000
DSTYLE
1002
{
1070
   287
1070
     4
1070
    40
1040
25.0
1070
    75
1070
     1
1070
   279
1070
     1
1070
   289
1070
     3
1002
}
  0
LINE
  5
7E4E
  8
1
 10
1179.2505713053581
 20
4702.5623633336572
 30
0.0
 11
1179.250571305357
 21
5127.5623633336563
 31
0.0
  0
LINE
  5
7E4F
  8
1
 10
1599.2505713053581
 20
4702.5623633336563
 30
0.0
 11
1599.2505713053581
 21
5127.5623633336563
 31
0.0
  0
LINE
  5
7E50
  8
1
 10
1599.2505713053581
 20
5127.5623633336563
 30
0.0
 11
2179.250571305357
 21
4702.5623633336563
 31
0.0
  0
LINE
  5
7E51
  8
1
 10
2179.250571305357
 20
5127.5623633336563
 30
0.0
 11
1599.2505713053581
 21
4702.5623633336563
 31
0.0
  0
LINE
  5
7E52
  8
1
 10
3752.0271255001521
 20
3024.903415957664
 30
0.0
 11
4182.0271255001508
 21
3024.903415957664
 31
0.0
  0
LINE
  5
7E53
  8
1
 10
3555.0271255001521
 20
2209.903415957664
 30
0.0
 11
3555.0271255001521
 21
2493.903415957664
 31
0.0
  0
LINE
  5
7E54
  8
1
 10
3155.0271255001521
 20
2209.9034159576631
 30
0.0
 11
3155.0271255001521
 21
2493.903415957664
 31
0.0
  0
LINE
  5
7E55
  8
1
 10
3555.0271255001521
 20
2493.903415957664
 30
0.0
 11
3155.0271255001521
 21
2493.903415957664
 31
0.0
  0
LINE
  5
7E56
  8
1
 10
3155.0271255001521
 20
2332.903415957664
 30
0.0
 11
3099.527125500153
 21
2332.903415957664
 31
0.0
  0
LINE
  5
7E57
  8
1
 10
3155.0271255001521
 20
2370.903415957664
 30
0.0
 11
3099.527125500153
 21
2370.903415957664
 31
0.0
  0
LINE
  5
7E58
  8
1
 10
3555.0271255001521
 20
2209.903415957664
 30
0.0
 11
3155.027125500153
 21
2209.903415957664
 31
0.0
  0
LINE
  5
7E59
  8
1
 10
2137.250571305357
 20
4070.0623633336559
 30
0.0
 11
1604.2505713053581
 21
4070.0623633336559
 31
0.0
  0
LINE
  5
7E5A
  8
1
 10
1554.250571305357
 20
4070.0623633336559
 30
0.0
 11
1329.250571305357
 21
4070.0623633336559
 31
0.0
  0
LINE
  5
8070
  8
4
 10
4625.0
 20
1250.0
 30
0.0
 11
4625.0
 21
750.0
 31
0.0
  0
LINE
  5
8071
  8
4
 10
2875.0
 20
1250.0
 30
0.0
 11
2875.0
 21
750.0
 31
0.0
  0
LINE
  5
8072
  8
4
 10
1625.0
 20
1250.0
 30
0.0
 11
1625.0
 21
750.0
 31
0.0
  0
LINE
  5
8075
  8
4
 10
1625.0
 20
750.0
 30
0.0
 11
4625.0
 21
750.0
 31
0.0
  0
LINE
  5
8076
  8
4
 10
1625.0
 20
1000.0
 30
0.0
 11
4625.0
 21
1000.0
 31
0.0
  0
TEXT
  5
8077
  8
4
 10
1721.2552021172539
 20
1078.857564666532
 30
0.0
 40
125.0
  1
機器名称
  0
TEXT
  5
8078
  8
4
 10
1715.6452650619931
 20
804.11289183002725
 30
0.0
 40
125.0
  1
機器型番
  0
TEXT
  5
8079
  8
4
 10
2944.1968637191621
 20
1056.429422393921
 30
0.0
 40
105.0
  1
ミツヤリミットロ－ﾄﾞファン
  0
TEXT
  5
807A
  8
4
 10
2966.6362389637011
 20
792.89896069985843
 30
0.0
 40
125.0
  1
LL#3 1/2-1
  0
TEXT
  5
807C
  8
4
 10
1992.8047929298521
 20
5944.4166489083336
 30
0.0
 40
135.0
  1
床置ベット
  0
TEXT
  5
807D
  8
4
 10
740.41898332361586
 20
6334.7024404982449
 30
0.0
 40
180.0
  1
遠心式片吸込片持リミットロ－ﾄﾞファン
  0
LINE
  5
807E
  8
4
 10
625.0
 20
6173.5218856620122
 30
0.0
 11
4625.0
 21
6173.5218856620122
 31
0.0
  0
LINE
  5
807F
  8
4
 10
625.0
 20
6673.5218856620122
 30
0.0
 11
4625.0
 21
6673.5218856620122
 31
0.0
  0
LINE
  5
8080
  8
4
 10
1625.0
 20
1250.0
 30
0.0
 11
4625.0
 21
1250.0
 31
0.0
  0
LINE
  5
8081
  8
4
 10
625.0
 20
6673.5218856620122
 30
0.0
 11
625.0
 21
6173.5218856620122
 31
0.0
  0
TEXT
  5
8082
  8
4
 10
903.15771232309635
 20
5941.643239442903
 30
0.0
 40
135.0
  1
左回転上向
  0
TEXT
  5
8083
  8
4
 10
3672.4238981232238
 20
6765.1527037382721
 30
0.0
 40
140.0
  1
No.
  0
TEXT
  5
8084
  8
4
 10
3278.2401565000318
 20
5958.5721033312893
 30
0.0
 40
135.0
  1
縮尺：1/25
  0
LINE
  5
8085
  8
4
 10
4625.0
 20
6673.5218856620122
 30
0.0
 11
4625.0
 21
6173.5218856620122
 31
0.0
  0
LINE
  5
8086
  8
4
 10
5250.0
 20
7375.0
 30
0.0
 11
5250.0
 21
7375.0
 31
0.0
  0
LINE
  5
8087
  8
4
 10
3601.543555899661
 20
6703.1589578135026
 30
0.0
 11
3601.543555899661
 21
6966.6306538743811
 31
0.0
  0
LINE
  5
8088
  8
4
 10
3601.543555899661
 20
6966.6306538743811
 30
0.0
 11
4625.0
 21
6966.6306538743811
 31
0.0
  0
LINE
  5
8089
  8
4
 10
4625.0
 20
6966.6306538743811
 30
0.0
 11
4625.0
 21
6703.1589578135026
 31
0.0
  0
LINE
  5
808A
  8
4
 10
4625.0
 20
6703.1589578135026
 30
0.0
 11
3601.543555899661
 21
6703.1589578135026
 31
0.0
  0
LINE
  5
808B
  8
4
 10
0.0
 20
0.0
 30
0.0
 11
0.0
 21
7375.0
 31
0.0
  0
LINE
  5
808C
  8
4
 10
0.0
 20
7375.0
 30
0.0
 11
5250.0
 21
7375.0
 31
0.0
  0
LINE
  5
808D
  8
4
 10
5250.0
 20
7375.0
 30
0.0
 11
5250.0
 21
0.0
 31
0.0
  0
LINE
  5
808E
  8
4
 10
5250.0
 20
0.0
 30
0.0
 11
0.0
 21
0.0
 31
0.0
  0
DIMENSION
  5
80D9
  8
3
  2
*D17
 10
4182.0271255001526
 20
3382.509988192488
 30
0.0
 11
4071.6491880127942
 21
3463.3038990381679
 31
0.0
 70
   128
 13
3967.0271255001521
 23
3214.0975474266738
 33
0.0
 14
4182.0271255001526
 24
3049.903415957664
 34
0.0
1001
ACAD
1000
DSTYLE
1002
{
1070
   288
1070
     1
1070
   172
1070
     1
1070
    75
1070
     1
1070
    40
1040
25.0
1070
   271
1070
     0
1070
   143
1040
0.039
1002
}
  0
LINE
  5
80FA
  8
1
 10
3138.5271255001521
 20
2808.6493373521548
 30
0.0
 11
3138.5271255001521
 21
2879.903415957664
 31
0.0
  0
DIMENSION
  5
81C7
  8
3
  2
*D18
 10
1579.250571305357
 20
1938.7671293527931
 30
0.0
 11
1454.250571305357
 21
2001.2671293527931
 31
0.0
 70
     0
 13
1329.2505713053581
 23
2099.9034159576631
 33
0.0
 14
1579.250571305357
 24
2099.903415957664
 34
0.0
1001
ACAD
1000
DSTYLE
1002
{
1070
   287
1070
     3
1070
    40
1040
25.0
1070
   143
1040
0.039
1070
   172
1070
     1
1070
   271
1070
     0
1070
   279
1070
     0
1002
}
  0
DIMENSION
  5
81D4
  8
3
  2
*D19
 10
2479.250571305357
 20
1938.7671293527931
 30
0.0
 11
2029.250571305357
 21
2001.2671293527931
 31
0.0
 70
     0
 13
1579.250571305357
 23
2099.903415957664
 33
0.0
 14
2479.250571305357
 24
2099.903415957664
 34
0.0
1001
ACAD
1000
DSTYLE
1002
{
1070
   287
1070
     3
1070
    40
1040
25.0
1070
   143
1040
0.039
1070
   172
1070
     1
1070
   271
1070
     0
1070
   279
1070
     0
1002
}
  0
DIMENSION
  5
81E1
  8
3
  2
*D20
 10
3967.0271255001539
 20
1938.7671293527931
 30
0.0
 11
3544.5271255001521
 21
2001.2671293527931
 31
0.0
 70
     0
 13
3122.0271255001512
 23
2099.903415957664
 33
0.0
 14
3967.0271255001539
 24
2099.903415957664
 34
0.0
1001
ACAD
1000
DSTYLE
1002
{
1070
   287
1070
     3
1070
    40
1040
25.0
1070
   143
1040
0.039
1070
   172
1070
     1
1070
   271
1070
     0
1070
   279
1070
     0
1002
}
  0
DIMENSION
  5
81F0
  8
3
  2
*D21
 10
4222.0271255001526
 20
1938.7671293527931
 30
0.0
 11
4094.527125500153
 21
2001.2671293527931
 31
0.0
 70
     0
 13
3967.0271255001539
 23
2099.903415957664
 33
0.0
 14
4222.0271255001526
 24
2099.903415957664
 34
0.0
1001
ACAD
1000
DSTYLE
1002
{
1070
   287
1070
     3
1070
    40
1040
25.0
1070
   143
1040
0.039
1070
   172
1070
     1
1070
   271
1070
     0
1070
   279
1070
     0
1002
}
  0
DIMENSION
  5
81FD
  8
3
  2
*D22
 10
891.81456972523665
 20
2099.903415957664
 30
0.0
 11
829.31456972523631
 21
2574.903415957664
 31
0.0
 70
     0
 13
1574.2505713053561
 23
3049.903415957664
 33
0.0
 14
1329.2505713053581
 24
2099.9034159576631
 34
0.0
 50
90.0
1001
ACAD
1000
DSTYLE
1002
{
1070
   287
1070
     3
1070
    40
1040
25.0
1070
   143
1040
0.039
1070
   172
1070
     1
1070
   271
1070
     0
1070
   279
1070
     0
1002
}
  0
ENDSEC
  0
EOF
