  0
SECTION
  2
HEADER
  9
$ACADVER
  1
AC1009
  9
$INSBASE
 10
0.0
 20
0.0
 30
0.0
  9
$EXTMIN
 10
0.0
 20
0.0
 30
0.0
  9
$EXTMAX
 10
5250.0
 20
7375.0
 30
0.0
  9
$LIMMIN
 10
0.0
 20
0.0
  9
$LIMMAX
 10
297.0
 20
210.0
  9
$ORTHOMODE
 70
     0
  9
$REGENMODE
 70
     1
  9
$FILLMODE
 70
     0
  9
$QTEXTMODE
 70
     0
  9
$MIRRTEXT
 70
     1
  9
$DRAGMODE
 70
     2
  9
$LTSCALE
 40
100.0
  9
$OSMODE
 70
    37
  9
$ATTMODE
 70
     1
  9
$TEXTSIZE
 40
180.0
  9
$TRACEWID
 40
0.05
  9
$TEXTSTYLE
  7
STANDARD
  9
$CLAYER
  8
3
  9
$CELTYPE
  6
BYLAYER
  9
$CECOLOR
 62
   256
  9
$DIMSCALE
 40
25.0
  9
$DIMASZ
 40
2.0
  9
$DIMEXO
 40
0.5
  9
$DIMDLI
 40
10.0
  9
$DIMRND
 40
0.0
  9
$DIMDLE
 40
0.0
  9
$DIMEXE
 40
1.0
  9
$DIMTP
 40
1.0
  9
$DIMTM
 40
1.0
  9
$DIMTXT
 40
3.0
  9
$DIMCEN
 40
0.0
  9
$DIMTSZ
 40
0.0
  9
$DIMTOL
 70
     0
  9
$DIMLIM
 70
     0
  9
$DIMTIH
 70
     0
  9
$DIMTOH
 70
     0
  9
$DIMSE1
 70
     0
  9
$DIMSE2
 70
     0
  9
$DIMTAD
 70
     1
  9
$DIMZIN
 70
     8
  9
$DIMBLK
  1

  9
$DIMASO
 70
     1
  9
$DIMSHO
 70
     1
  9
$DIMPOST
  1

  9
$DIMAPOST
  1

  9
$DIMALT
 70
     0
  9
$DIMALTD
 70
     2
  9
$DIMALTF
 40
0.039
  9
$DIMLFAC
 40
1.0
  9
$DIMTOFL
 70
     1
  9
$DIMTVP
 40
0.0
  9
$DIMTIX
 70
     0
  9
$DIMSOXD
 70
     0
  9
$DIMSAH
 70
     1
  9
$DIMBLK1
  1
OPEN
  9
$DIMBLK2
  1
OPEN
  9
$DIMSTYLE
  2
IGA
  9
$DIMCLRD
 70
     0
  9
$DIMCLRE
 70
     0
  9
$DIMCLRT
 70
     0
  9
$DIMTFAC
 40
10.0
  9
$DIMGAP
 40
1.0
  9
$LUNITS
 70
     2
  9
$LUPREC
 70
     3
  9
$SKETCHINC
 40
0.1
  9
$FILLETRAD
 40
50.0
  9
$AUNITS
 70
     0
  9
$AUPREC
 70
     0
  9
$MENU
  1
acad
  9
$ELEVATION
 40
0.0
  9
$PELEVATION
 40
0.0
  9
$THICKNESS
 40
0.0
  9
$LIMCHECK
 70
     0
  9
$BLIPMODE
 70
     0
  9
$CHAMFERA
 40
0.5
  9
$CHAMFERB
 40
0.5
  9
$SKPOLY
 70
     0
  9
$TDCREATE
 40
2451697.6449104161
  9
$TDUPDATE
 40
2454953.640559895
  9
$TDINDWG
 40
0.011805544
  9
$TDUSRTIMER
 40
0.011805544
  9
$USRTIMER
 70
     1
  9
$ANGBASE
 50
0.0
  9
$ANGDIR
 70
     0
  9
$PDMODE
 70
     0
  9
$PDSIZE
 40
0.0
  9
$PLINEWID
 40
0.0
  9
$COORDS
 70
     1
  9
$SPLFRAME
 70
     0
  9
$SPLINETYPE
 70
     6
  9
$SPLINESEGS
 70
     8
  9
$ATTDIA
 70
     0
  9
$ATTREQ
 70
     1
  9
$HANDLING
 70
 10241
  9
$HANDSEED
  5
81AD
  9
$SURFTAB1
 70
     6
  9
$SURFTAB2
 70
     6
  9
$SURFTYPE
 70
     6
  9
$SURFU
 70
     6
  9
$SURFV
 70
     6
  9
$UCSNAME
  2

  9
$UCSORG
 10
0.0
 20
0.0
 30
0.0
  9
$UCSXDIR
 10
1.0
 20
0.0
 30
0.0
  9
$UCSYDIR
 10
0.0
 20
1.0
 30
0.0
  9
$PUCSNAME
  2

  9
$PUCSORG
 10
0.0
 20
0.0
 30
0.0
  9
$PUCSXDIR
 10
1.0
 20
0.0
 30
0.0
  9
$PUCSYDIR
 10
0.0
 20
1.0
 30
0.0
  9
$USERI1
 70
     0
  9
$USERI2
 70
     0
  9
$USERI3
 70
     0
  9
$USERI4
 70
     0
  9
$USERI5
 70
     0
  9
$USERR1
 40
0.0
  9
$USERR2
 40
0.0
  9
$USERR3
 40
0.0
  9
$USERR4
 40
0.0
  9
$USERR5
 40
0.0
  9
$WORLDVIEW
 70
     1
  9
$SHADEDGE
 70
     3
  9
$SHADEDIF
 70
    70
  9
$TILEMODE
 70
     1
  9
$MAXACTVP
 70
    16
  9
$PLIMCHECK
 70
     0
  9
$PEXTMIN
 10
1.0000000000000000E+020
 20
1.0000000000000000E+020
 30
1.0000000000000000E+020
  9
$PEXTMAX
 10
-1.0000000000000000E+020
 20
-1.0000000000000000E+020
 30
-1.0000000000000000E+020
  9
$PLIMMIN
 10
0.0
 20
0.0
  9
$PLIMMAX
 10
12.0
 20
9.0
  9
$UNITMODE
 70
     0
  9
$VISRETAIN
 70
     0
  9
$PLINEGEN
 70
     0
  9
$PSLTSCALE
 70
     1
  0
ENDSEC
  0
SECTION
  2
TABLES
  0
TABLE
  2
VPORT
 70
     2
  0
VPORT
  2
*ACTIVE
 70
     0
 10
0.0
 20
0.0
 11
1.0
 21
1.0
 12
4876.3086058007784
 22
881.27898654536318
 13
0.0
 23
0.0
 14
10.0
 24
10.0
 15
10.0
 25
10.0
 16
0.0
 26
0.0
 36
1.0
 17
0.0
 27
0.0
 37
0.0
 40
2127.85564745375
 41
3.1666666666666661
 42
50.0
 43
0.0
 44
0.0
 50
0.0
 51
0.0
 71
     0
 72
   100
 73
     1
 74
     0
 75
     0
 76
     0
 77
     0
 78
     0
  0
ENDTAB
  0
TABLE
  2
LTYPE
 70
     2
  0
LTYPE
  2
CONTINUOUS
 70
     0
  3
Solid line
 72
    65
 73
     0
 40
0.0
  0
LTYPE
  2
CENTER
 70
     0
  3
____ _ ____ _ ____ _ ____ _ ____ _ ____ _ ____ 
 72
    65
 73
     4
 40
2.0
 49
1.25
 49
-0.25
 49
0.25
 49
-0.25
  0
ENDTAB
  0
TABLE
  2
LAYER
 70
     6
  0
LAYER
  2
0
 70
     0
 62
     7
  6
CONTINUOUS
  0
LAYER
  2
3
 70
     0
 62
     2
  6
CONTINUOUS
  0
LAYER
  2
2
 70
     0
 62
     3
  6
CENTER
  0
LAYER
  2
1
 70
     0
 62
     4
  6
CONTINUOUS
  0
LAYER
  2
4
 70
     0
 62
     7
  6
CONTINUOUS
  0
LAYER
  2
DEFPOINTS
 70
     0
 62
     7
  6
CONTINUOUS
  0
ENDTAB
  0
TABLE
  2
STYLE
 70
     1
  0
STYLE
  2
STANDARD
 70
     0
 40
0.0
 41
1.0
 50
0.0
 71
     0
 42
180.0
  3
simplex.shx
  4
extfont.shx
  0
ENDTAB
  0
TABLE
  2
VIEW
 70
     0
  0
ENDTAB
  0
TABLE
  2
UCS
 70
     0
  0
ENDTAB
  0
TABLE
  2
APPID
 70
     1
  0
APPID
  2
ACAD
 70
     0
  0
ENDTAB
  0
TABLE
  2
DIMSTYLE
 70
     2
  0
DIMSTYLE
  2
IGA
 70
     0
  3

  4

  5

  6
OPEN
  7
OPEN
 40
2.0
 41
2.0
 42
0.5
 43
10.0
 44
1.0
 45
0.0
 46
0.0
 47
1.0
 48
1.0
140
3.0
141
0.0
142
0.0
143
0.03937
144
1.0
145
0.0
146
10.0
147
1.0
 71
     0
 72
     0
 73
     0
 74
     0
 75
     0
 76
     0
 77
     1
 78
     8
170
     0
171
     2
172
     0
173
     1
174
     0
175
     0
176
     0
177
     0
178
     0
  0
DIMSTYLE
  2
MATSU
 70
     0
  3

  4

  5

  6
OPEN
  7
OPEN
 40
1.0
 41
2.0
 42
1.0
 43
10.0
 44
1.0
 45
0.0
 46
0.0
 47
0.0
 48
0.0
140
3.0
141
0.0
142
0.0
143
0.03937
144
1.0
145
0.0
146
1.0
147
0.5
 71
     0
 72
     0
 73
     0
 74
     0
 75
     0
 76
     0
 77
     1
 78
     8
170
     0
171
     2
172
     1
173
     1
174
     0
175
     0
176
   256
177
   256
178
   256
  0
ENDTAB
  0
ENDSEC
  0
SECTION
  2
BLOCKS
  0
BLOCK
  8
0
  2
$MODEL_SPACE
 70
     0
 10
0.0
 20
0.0
 30
0.0
  3
$MODEL_SPACE
  1

  0
ENDBLK
  5
1B
  8
0
  0
BLOCK
 67
     1
  8
0
  2
$PAPER_SPACE
 70
     0
 10
0.0
 20
0.0
 30
0.0
  3
$PAPER_SPACE
  1

  0
ENDBLK
  5
18
 67
     1
  8
0
  0
BLOCK
  8
0
  2
_OPEN
 70
     0
 10
0.0
 20
0.0
 30
0.0
  3
_OPEN
  1

  0
LINE
  5
79FD
  8
0
  6
BYBLOCK
 62
     0
 10
-1.0
 20
0.1666666666666666
 30
0.0
 11
0.0
 21
0.0
 31
0.0
  0
LINE
  5
79FE
  8
0
  6
BYBLOCK
 62
     0
 10
0.0
 20
0.0
 30
0.0
 11
-1.0
 21
-0.1666666666666666
 31
0.0
  0
LINE
  5
79FF
  8
0
  6
BYBLOCK
 62
     0
 10
0.0
 20
0.0
 30
0.0
 11
-1.0
 21
0.0
 31
0.0
  0
ENDBLK
  5
7A01
  8
0
  0
BLOCK
  8
0
  2
YA_N
 70
     0
 10
0.0
 20
0.0
 30
0.0
  3
YA_N
  1

  0
ENDBLK
  5
7A04
  8
0
  0
BLOCK
  8
0
  2
*D2
 70
     1
 10
0.0
 20
0.0
 30
0.0
  3
*D2
  1

  0
LINE
  5
7F02
  8
0
  6
BYBLOCK
 10
5787.6196951291322
 20
1439.423564340668
 30
0.0
 11
5970.9227863846936
 21
1439.423564340668
 31
0.0
  0
LINE
  5
7F03
  8
0
  6
BYBLOCK
 10
5787.6196951291322
 20
879.42356434066835
 30
0.0
 11
5970.9227863846936
 21
879.42356434066835
 31
0.0
  0
LINE
  5
7F04
  8
0
  6
BYBLOCK
 10
5945.9227863846927
 20
1389.423564340668
 30
0.0
 11
5945.9227863846927
 21
929.42356434066835
 31
0.0
  0
INSERT
  5
7F05
  8
0
  6
BYBLOCK
  2
_OPEN
 10
5945.9227863846927
 20
1439.423564340668
 30
0.0
 41
50.0
 42
50.0
 43
50.0
 50
90.0
  0
INSERT
  5
7F06
  8
0
  6
BYBLOCK
  2
_OPEN
 10
5945.9227863846927
 20
879.42356434066835
 30
0.0
 41
50.0
 42
50.0
 43
50.0
 50
270.0
  0
TEXT
  5
7F07
  8
3
 10
5933.4227863846927
 20
1025.494992912096
 30
0.0
 40
75.0
  1
φ560
 50
90.0
  0
POINT
  5
7F08
  8
DEFPOINTS
  6
BYBLOCK
 62
     0
 10
5762.6196951291313
 20
1439.423564340668
 30
0.0
  0
POINT
  5
7F09
  8
DEFPOINTS
  6
BYBLOCK
 62
     0
 10
5762.6196951291313
 20
879.42356434066835
 30
0.0
  0
POINT
  5
7F0A
  8
DEFPOINTS
  6
BYBLOCK
 62
     0
 10
5945.9227863846927
 20
879.42356434066835
 30
0.0
  0
ENDBLK
  5
7F0B
  8
0
  0
BLOCK
  8
0
  2
*D3
 70
     1
 10
0.0
 20
0.0
 30
0.0
  3
*D3
  1

  0
LINE
  5
7F0D
  8
0
  6
BYBLOCK
 10
3064.7778585300298
 20
3694.5825117166578
 30
0.0
 11
3064.7778585300298
 21
3895.8582556731071
 31
0.0
  0
LINE
  5
7F0E
  8
0
  6
BYBLOCK
 10
2564.7778585300298
 20
3694.5825117166578
 30
0.0
 11
2564.7778585300298
 21
3895.8582556731071
 31
0.0
  0
LINE
  5
7F0F
  8
0
  6
BYBLOCK
 10
3014.7778585300312
 20
3870.8582556731071
 30
0.0
 11
2614.7778585300312
 21
3870.8582556731071
 31
0.0
  0
INSERT
  5
7F10
  8
0
  6
BYBLOCK
  2
_OPEN
 10
3064.7778585300298
 20
3870.8582556731071
 30
0.0
 41
50.0
 42
50.0
 43
50.0
  0
INSERT
  5
7F11
  8
0
  6
BYBLOCK
  2
_OPEN
 10
2564.7778585300298
 20
3870.8582556731071
 30
0.0
 41
50.0
 42
50.0
 43
50.0
 50
180.0
  0
TEXT
  5
7F12
  8
3
 10
2718.3492871014591
 20
3883.3582556731071
 30
0.0
 40
75.0
  1
500
  0
POINT
  5
7F13
  8
DEFPOINTS
  6
BYBLOCK
 62
     0
 10
3064.7778585300298
 20
3669.5825117166578
 30
0.0
  0
POINT
  5
7F14
  8
DEFPOINTS
  6
BYBLOCK
 62
     0
 10
2564.7778585300298
 20
3669.5825117166578
 30
0.0
  0
POINT
  5
7F15
  8
DEFPOINTS
  6
BYBLOCK
 62
     0
 10
2564.7778585300298
 20
3870.8582556731071
 30
0.0
  0
ENDBLK
  5
7F16
  8
0
  0
BLOCK
  8
0
  2
*D4
 70
     1
 10
0.0
 20
0.0
 30
0.0
  3
*D4
  1

  0
LINE
  5
7F18
  8
0
  6
BYBLOCK
 10
3714.7778585300298
 20
2544.5825117166578
 30
0.0
 11
3714.7778585300298
 21
2156.161024100737
 31
0.0
  0
LINE
  5
7F19
  8
0
  6
BYBLOCK
 10
2564.7778585300298
 20
2544.5825117166578
 30
0.0
 11
2564.7778585300298
 21
2156.161024100737
 31
0.0
  0
LINE
  5
7F1A
  8
0
  6
BYBLOCK
 10
3664.7778585300312
 20
2181.161024100737
 30
0.0
 11
2614.7778585300312
 21
2181.161024100737
 31
0.0
  0
INSERT
  5
7F1B
  8
0
  6
BYBLOCK
  2
_OPEN
 10
3714.7778585300298
 20
2181.161024100737
 30
0.0
 41
50.0
 42
50.0
 43
50.0
  0
INSERT
  5
7F1C
  8
0
  6
BYBLOCK
  2
_OPEN
 10
2564.7778585300298
 20
2181.161024100737
 30
0.0
 41
50.0
 42
50.0
 43
50.0
 50
180.0
  0
TEXT
  5
7F1D
  8
3
 10
3021.920715672888
 20
2193.661024100737
 30
0.0
 40
75.0
  1
1150
  0
POINT
  5
7F1E
  8
DEFPOINTS
  6
BYBLOCK
 62
     0
 10
3714.7778585300298
 20
2569.5825117166578
 30
0.0
  0
POINT
  5
7F1F
  8
DEFPOINTS
  6
BYBLOCK
 62
     0
 10
2564.7778585300298
 20
2569.5825117166578
 30
0.0
  0
POINT
  5
7F20
  8
DEFPOINTS
  6
BYBLOCK
 62
     0
 10
2564.7778585300298
 20
2181.161024100737
 30
0.0
  0
ENDBLK
  5
7F21
  8
0
  0
BLOCK
  8
0
  2
*D5
 70
     1
 10
0.0
 20
0.0
 30
0.0
  3
*D5
  1

  0
LINE
  5
7F23
  8
0
  6
BYBLOCK
 10
3739.7778585300312
 20
3169.5825117166578
 30
0.0
 11
3948.7139508208311
 21
3169.5825117166578
 31
0.0
  0
LINE
  5
7F24
  8
0
  6
BYBLOCK
 10
3739.7778585300312
 20
2569.5825117166578
 30
0.0
 11
3948.7139508208311
 21
2569.5825117166578
 31
0.0
  0
LINE
  5
7F25
  8
0
  6
BYBLOCK
 10
3923.7139508208311
 20
3119.5825117166592
 30
0.0
 11
3923.7139508208311
 21
2619.5825117166578
 31
0.0
  0
INSERT
  5
7F26
  8
0
  6
BYBLOCK
  2
_OPEN
 10
3923.7139508208311
 20
3169.5825117166578
 30
0.0
 41
50.0
 42
50.0
 43
50.0
 50
90.0
  0
INSERT
  5
7F27
  8
0
  6
BYBLOCK
  2
_OPEN
 10
3923.7139508208311
 20
2569.5825117166578
 30
0.0
 41
50.0
 42
50.0
 43
50.0
 50
270.0
  0
TEXT
  5
7F28
  8
3
 10
3911.2139508208311
 20
2773.1539402880871
 30
0.0
 40
75.0
  1
600
 50
90.0
  0
POINT
  5
7F29
  8
DEFPOINTS
  6
BYBLOCK
 62
     0
 10
3714.7778585300298
 20
3169.5825117166578
 30
0.0
  0
POINT
  5
7F2A
  8
DEFPOINTS
  6
BYBLOCK
 62
     0
 10
3714.7778585300298
 20
2569.5825117166578
 30
0.0
  0
POINT
  5
7F2B
  8
DEFPOINTS
  6
BYBLOCK
 62
     0
 10
3923.7139508208311
 20
2569.5825117166578
 30
0.0
  0
ENDBLK
  5
7F2C
  8
0
  0
BLOCK
  8
0
  2
*D6
 70
     1
 10
0.0
 20
0.0
 30
0.0
  3
*D6
  1

  0
LINE
  5
7F2E
  8
0
  6
BYBLOCK
 10
2539.7778585300312
 20
3669.5825117166578
 30
0.0
 11
2218.2451722087671
 21
3669.5825117166578
 31
0.0
  0
LINE
  5
7F2F
  8
0
  6
BYBLOCK
 10
2539.7778585300312
 20
2569.5825117166578
 30
0.0
 11
2218.2451722087671
 21
2569.5825117166578
 31
0.0
  0
LINE
  5
7F30
  8
0
  6
BYBLOCK
 10
2243.2451722087671
 20
3619.5825117166578
 30
0.0
 11
2243.2451722087671
 21
2619.5825117166578
 31
0.0
  0
INSERT
  5
7F31
  8
0
  6
BYBLOCK
  2
_OPEN
 10
2243.2451722087671
 20
3669.5825117166578
 30
0.0
 41
50.0
 42
50.0
 43
50.0
 50
90.0
  0
INSERT
  5
7F32
  8
0
  6
BYBLOCK
  2
_OPEN
 10
2243.2451722087671
 20
2569.5825117166578
 30
0.0
 41
50.0
 42
50.0
 43
50.0
 50
270.0
  0
TEXT
  5
7F33
  8
3
 10
2230.7451722087671
 20
3001.725368859516
 30
0.0
 40
75.0
  1
1100
 50
90.0
  0
POINT
  5
7F34
  8
DEFPOINTS
  6
BYBLOCK
 62
     0
 10
2564.7778585300298
 20
3669.5825117166578
 30
0.0
  0
POINT
  5
7F35
  8
DEFPOINTS
  6
BYBLOCK
 62
     0
 10
2564.7778585300298
 20
2569.5825117166578
 30
0.0
  0
POINT
  5
7F36
  8
DEFPOINTS
  6
BYBLOCK
 62
     0
 10
2243.2451722087671
 20
2569.5825117166578
 30
0.0
  0
ENDBLK
  5
7F37
  8
0
  0
BLOCK
  8
0
  2
*D7
 70
     1
 10
0.0
 20
0.0
 30
0.0
  3
*D7
  1

  0
LINE
  5
7F44
  8
0
  6
BYBLOCK
 10
3064.7778585300298
 20
3694.5825117166578
 30
0.0
 11
3064.7778585300298
 21
3895.8582556731071
 31
0.0
  0
LINE
  5
7F45
  8
0
  6
BYBLOCK
 10
3714.7778585300298
 20
3194.5825117166578
 30
0.0
 11
3714.7778585300298
 21
3895.8582556731071
 31
0.0
  0
LINE
  5
7F46
  8
0
  6
BYBLOCK
 10
3114.7778585300312
 20
3870.8582556731071
 30
0.0
 11
3664.7778585300312
 21
3870.8582556731071
 31
0.0
  0
INSERT
  5
7F47
  8
0
  6
BYBLOCK
  2
_OPEN
 10
3064.7778585300298
 20
3870.8582556731071
 30
0.0
 41
50.0
 42
50.0
 43
50.0
 50
180.0
  0
INSERT
  5
7F48
  8
0
  6
BYBLOCK
  2
_OPEN
 10
3714.7778585300298
 20
3870.8582556731071
 30
0.0
 41
50.0
 42
50.0
 43
50.0
  0
TEXT
  5
7F49
  8
3
 10
3293.3492871014591
 20
3883.3582556731071
 30
0.0
 40
75.0
  1
650
  0
POINT
  5
7F4A
  8
DEFPOINTS
  6
BYBLOCK
 62
     0
 10
3064.7778585300298
 20
3669.5825117166578
 30
0.0
  0
POINT
  5
7F4B
  8
DEFPOINTS
  6
BYBLOCK
 62
     0
 10
3714.7778585300298
 20
3169.5825117166578
 30
0.0
  0
POINT
  5
7F4C
  8
DEFPOINTS
  6
BYBLOCK
 62
     0
 10
3714.7778585300298
 20
3870.8582556731071
 30
0.0
  0
ENDBLK
  5
7F4D
  8
0
  0
BLOCK
  8
0
  2
*D8
 70
     1
 10
0.0
 20
0.0
 30
0.0
  3
*D8
  1

  0
LINE
  5
7F4F
  8
0
  6
BYBLOCK
 10
2399.7778585300298
 20
1759.423564340666
 30
0.0
 11
2242.2740866654758
 21
1759.423564340666
 31
0.0
  0
LINE
  5
7F50
  8
0
  6
BYBLOCK
 10
2399.7778585300298
 20
1179.4235643406651
 30
0.0
 11
2242.2740866654758
 21
1179.4235643406651
 31
0.0
  0
LINE
  5
7F51
  8
0
  6
BYBLOCK
 10
2267.2740866654758
 20
1709.423564340666
 30
0.0
 11
2267.2740866654758
 21
1229.4235643406651
 31
0.0
  0
INSERT
  5
7F52
  8
0
  6
BYBLOCK
  2
_OPEN
 10
2267.2740866654758
 20
1759.423564340666
 30
0.0
 41
50.0
 42
50.0
 43
50.0
 50
90.0
  0
INSERT
  5
7F53
  8
0
  6
BYBLOCK
  2
_OPEN
 10
2267.2740866654758
 20
1179.4235643406651
 30
0.0
 41
50.0
 42
50.0
 43
50.0
 50
270.0
  0
TEXT
  5
7F54
  8
3
 10
2254.7740866654758
 20
1372.9949929120939
 30
0.0
 40
75.0
  1
580
 50
90.0
  0
POINT
  5
7F55
  8
DEFPOINTS
  6
BYBLOCK
 62
     0
 10
2424.7778585300298
 20
1759.423564340666
 30
0.0
  0
POINT
  5
7F56
  8
DEFPOINTS
  6
BYBLOCK
 62
     0
 10
2424.7778585300298
 20
1179.4235643406651
 30
0.0
  0
POINT
  5
7F57
  8
DEFPOINTS
  6
BYBLOCK
 62
     0
 10
2267.2740866654758
 20
1179.4235643406651
 30
0.0
  0
ENDBLK
  5
7F58
  8
0
  0
BLOCK
  8
0
  2
*D9
 70
     1
 10
0.0
 20
0.0
 30
0.0
  3
*D9
  1

  0
LINE
  5
7FCB
  8
0
  6
BYBLOCK
 10
2352.426640804315
 20
1159.423564340666
 30
0.0
 11
2117.1721086673479
 21
1159.423564340666
 31
0.0
  0
LINE
  5
7FCC
  8
0
  6
BYBLOCK
 10
2399.7778585300298
 20
1759.423564340666
 30
0.0
 11
2117.1721086673479
 21
1759.423564340666
 31
0.0
  0
LINE
  5
7FCD
  8
0
  6
BYBLOCK
 10
2142.1721086673469
 20
1209.423564340666
 30
0.0
 11
2142.1721086673469
 21
1709.423564340666
 31
0.0
  0
INSERT
  5
7FCE
  8
0
  6
BYBLOCK
  2
_OPEN
 10
2142.1721086673469
 20
1159.423564340666
 30
0.0
 41
50.0
 42
50.0
 43
50.0
 50
270.0
  0
INSERT
  5
7FCF
  8
0
  6
BYBLOCK
  2
_OPEN
 10
2142.1721086673469
 20
1759.423564340666
 30
0.0
 41
50.0
 42
50.0
 43
50.0
 50
90.0
  0
TEXT
  5
7FD0
  8
3
 10
2129.6721086673469
 20
1362.9949929120951
 30
0.0
 40
75.0
  1
600
 50
90.0
  0
POINT
  5
7FD1
  8
DEFPOINTS
  6
BYBLOCK
 62
     0
 10
2377.426640804315
 20
1159.423564340666
 30
0.0
  0
POINT
  5
7FD2
  8
DEFPOINTS
  6
BYBLOCK
 62
     0
 10
2424.7778585300298
 20
1759.423564340666
 30
0.0
  0
POINT
  5
7FD3
  8
DEFPOINTS
  6
BYBLOCK
 62
     0
 10
2142.1721086673469
 20
1759.423564340666
 30
0.0
  0
ENDBLK
  5
7FD4
  8
0
  0
BLOCK
  8
0
  2
*D10
 70
     1
 10
0.0
 20
0.0
 30
0.0
  3
*D10
  1

  0
LINE
  5
7F65
  8
0
  6
BYBLOCK
 10
5312.819695129132
 20
1784.423564340666
 30
0.0
 11
5312.819695129132
 21
1873.2747288752239
 31
0.0
  0
LINE
  5
7F66
  8
0
  6
BYBLOCK
 10
5737.819695129132
 20
1784.423564340666
 30
0.0
 11
5737.819695129132
 21
1873.2747288752239
 31
0.0
  0
LINE
  5
7F67
  8
0
  6
BYBLOCK
 10
5362.819695129132
 20
1848.2747288752239
 30
0.0
 11
5687.819695129132
 21
1848.2747288752239
 31
0.0
  0
INSERT
  5
7F68
  8
0
  6
BYBLOCK
  2
_OPEN
 10
5312.819695129132
 20
1848.2747288752239
 30
0.0
 41
50.0
 42
50.0
 43
50.0
 50
180.0
  0
INSERT
  5
7F69
  8
0
  6
BYBLOCK
  2
_OPEN
 10
5737.819695129132
 20
1848.2747288752239
 30
0.0
 41
50.0
 42
50.0
 43
50.0
  0
TEXT
  5
7F6A
  8
3
 10
5428.8911237005595
 20
1860.7747288752239
 30
0.0
 40
75.0
  1
425
  0
POINT
  5
7F6B
  8
DEFPOINTS
  6
BYBLOCK
 62
     0
 10
5312.819695129132
 20
1759.423564340666
 30
0.0
  0
POINT
  5
7F6C
  8
DEFPOINTS
  6
BYBLOCK
 62
     0
 10
5737.819695129132
 20
1759.423564340666
 30
0.0
  0
POINT
  5
7F6D
  8
DEFPOINTS
  6
BYBLOCK
 62
     0
 10
5737.819695129132
 20
1848.2747288752239
 30
0.0
  0
ENDBLK
  5
7F6E
  8
0
  0
BLOCK
  8
0
  2
*D11
 70
     1
 10
0.0
 20
0.0
 30
0.0
  3
*D11
  1

  0
LINE
  5
802A
  8
0
  6
BYBLOCK
 10
4335.3508170324703
 20
3420.7866042382411
 30
0.0
 11
4335.3508170324703
 21
3536.8815013177468
 31
0.0
  0
LINE
  5
802B
  8
0
  6
BYBLOCK
 10
3384.8508170324699
 20
2876.59247276923
 30
0.0
 11
3384.8508170324699
 21
3536.8815013177468
 31
0.0
  0
LINE
  5
802C
  8
0
  6
BYBLOCK
 10
4285.3508170324703
 20
3511.8815013177468
 30
0.0
 11
3434.8508170324699
 21
3511.8815013177468
 31
0.0
  0
INSERT
  5
802D
  8
0
  6
BYBLOCK
  2
_OPEN
 10
4335.3508170324703
 20
3511.8815013177468
 30
0.0
 41
50.0
 42
50.0
 43
50.0
  0
INSERT
  5
802E
  8
0
  6
BYBLOCK
  2
_OPEN
 10
3384.8508170324699
 20
3511.8815013177468
 30
0.0
 41
50.0
 42
50.0
 43
50.0
 50
180.0
  0
INSERT
  5
802F
  8
3
  2
*U23
 10
0.0
 20
0.0
 30
0.0
  0
POINT
  5
8030
  8
DEFPOINTS
  6
BYBLOCK
 62
     0
 10
4335.3508170324703
 20
3395.7866042382411
 30
0.0
  0
POINT
  5
8031
  8
DEFPOINTS
  6
BYBLOCK
 62
     0
 10
3384.8508170324699
 20
2851.5924727692309
 30
0.0
  0
POINT
  5
8032
  8
DEFPOINTS
  6
BYBLOCK
 62
     0
 10
3384.8508170324699
 20
3511.8815013177468
 30
0.0
  0
ENDBLK
  5
8033
  8
0
  0
BLOCK
  8
0
  2
*D12
 70
     1
 10
0.0
 20
0.0
 30
0.0
  3
*D12
  1

  0
LINE
  5
7F7B
  8
0
  6
BYBLOCK
 10
2814.7778585300298
 20
1798.449583019358
 30
0.0
 11
2814.7778585300298
 21
1874.3103710323981
 31
0.0
  0
LINE
  5
7F7C
  8
0
  6
BYBLOCK
 10
2424.7778585300298
 20
1809.423564340666
 30
0.0
 11
2424.7778585300298
 21
1874.3103710323981
 31
0.0
  0
LINE
  5
7F7D
  8
0
  6
BYBLOCK
 10
2764.7778585300298
 20
1849.3103710323981
 30
0.0
 11
2474.7778585300298
 21
1849.3103710323981
 31
0.0
  0
INSERT
  5
7F7E
  8
0
  6
BYBLOCK
  2
_OPEN
 10
2814.7778585300298
 20
1849.3103710323981
 30
0.0
 41
50.0
 42
50.0
 43
50.0
  0
INSERT
  5
7F7F
  8
0
  6
BYBLOCK
  2
_OPEN
 10
2424.7778585300298
 20
1849.3103710323981
 30
0.0
 41
50.0
 42
50.0
 43
50.0
 50
180.0
  0
TEXT
  5
7F80
  8
3
 10
2523.3492871014578
 20
1861.8103710323981
 30
0.0
 40
75.0
  1
390
  0
POINT
  5
7F81
  8
DEFPOINTS
  6
BYBLOCK
 62
     0
 10
2814.7778585300298
 20
1773.449583019358
 30
0.0
  0
POINT
  5
7F82
  8
DEFPOINTS
  6
BYBLOCK
 62
     0
 10
2424.7778585300298
 20
1784.423564340666
 30
0.0
  0
POINT
  5
7F83
  8
DEFPOINTS
  6
BYBLOCK
 62
     0
 10
2424.7778585300298
 20
1849.3103710323981
 30
0.0
  0
ENDBLK
  5
7F84
  8
0
  0
BLOCK
  8
0
  2
*D13
 70
     1
 10
0.0
 20
0.0
 30
0.0
  3
*D13
  1

  0
LINE
  5
7F86
  8
0
  6
BYBLOCK
 10
2814.7778585300298
 20
1798.449583019358
 30
0.0
 11
2814.7778585300298
 21
1874.3103710323981
 31
0.0
  0
LINE
  5
7F87
  8
0
  6
BYBLOCK
 10
3298.7778506263062
 20
1226.514749419953
 30
0.0
 11
3298.7778506263062
 21
1874.3103710323981
 31
0.0
  0
LINE
  5
7F88
  8
0
  6
BYBLOCK
 10
2864.7778585300298
 20
1849.3103710323981
 30
0.0
 11
3248.7778506263062
 21
1849.3103710323981
 31
0.0
  0
INSERT
  5
7F89
  8
0
  6
BYBLOCK
  2
_OPEN
 10
2814.7778585300298
 20
1849.3103710323981
 30
0.0
 41
50.0
 42
50.0
 43
50.0
 50
180.0
  0
INSERT
  5
7F8A
  8
0
  6
BYBLOCK
  2
_OPEN
 10
3298.7778506263062
 20
1849.3103710323981
 30
0.0
 41
50.0
 42
50.0
 43
50.0
  0
TEXT
  5
7F8B
  8
3
 10
2958.5635688638822
 20
1861.8103710323981
 30
0.0
 40
75.0
  1
484
  0
POINT
  5
7F8C
  8
DEFPOINTS
  6
BYBLOCK
 62
     0
 10
2814.7778585300298
 20
1773.449583019358
 30
0.0
  0
POINT
  5
7F8D
  8
DEFPOINTS
  6
BYBLOCK
 62
     0
 10
3298.7778506263062
 20
1201.514749419953
 30
0.0
  0
POINT
  5
7F8E
  8
DEFPOINTS
  6
BYBLOCK
 62
     0
 10
3298.7778506263062
 20
1849.3103710323981
 30
0.0
  0
ENDBLK
  5
7F8F
  8
0
  0
BLOCK
  8
0
  2
*D14
 70
     1
 10
0.0
 20
0.0
 30
0.0
  3
*D14
  1

  0
LINE
  5
7F91
  8
0
  6
BYBLOCK
 10
2352.426640804315
 20
1159.423564340666
 30
0.0
 11
2117.1721086673479
 21
1159.423564340666
 31
0.0
  0
LINE
  5
7F92
  8
0
  6
BYBLOCK
 10
2539.7778585300312
 20
684.42356434066642
 30
0.0
 11
2117.1721086673479
 21
684.42356434066642
 31
0.0
  0
LINE
  5
7F93
  8
0
  6
BYBLOCK
 10
2142.1721086673469
 20
1109.423564340666
 30
0.0
 11
2142.1721086673469
 21
734.42356434066642
 31
0.0
  0
INSERT
  5
7F94
  8
0
  6
BYBLOCK
  2
_OPEN
 10
2142.1721086673469
 20
1159.423564340666
 30
0.0
 41
50.0
 42
50.0
 43
50.0
 50
90.0
  0
INSERT
  5
7F95
  8
0
  6
BYBLOCK
  2
_OPEN
 10
2142.1721086673469
 20
684.42356434066642
 30
0.0
 41
50.0
 42
50.0
 43
50.0
 50
270.0
  0
TEXT
  5
7F96
  8
3
 10
2129.6721086673469
 20
825.49499291209497
 30
0.0
 40
75.0
  1
475
 50
90.0
  0
POINT
  5
7F97
  8
DEFPOINTS
  6
BYBLOCK
 62
     0
 10
2377.426640804315
 20
1159.423564340666
 30
0.0
  0
POINT
  5
7F98
  8
DEFPOINTS
  6
BYBLOCK
 62
     0
 10
2564.7778585300312
 20
684.42356434066642
 30
0.0
  0
POINT
  5
7F99
  8
DEFPOINTS
  6
BYBLOCK
 62
     0
 10
2142.1721086673469
 20
684.42356434066642
 30
0.0
  0
ENDBLK
  5
7F9A
  8
0
  0
BLOCK
  8
0
  2
*D15
 70
     1
 10
0.0
 20
0.0
 30
0.0
  3
*D15
  1

  0
LINE
  5
7FC0
  8
0
  6
BYBLOCK
 10
2424.7778585300298
 20
1809.423564340666
 30
0.0
 11
2424.7778585300298
 21
2029.59105277665
 31
0.0
  0
LINE
  5
7FC1
  8
0
  6
BYBLOCK
 10
3714.7778585300298
 20
784.42356434066642
 30
0.0
 11
3714.7778585300298
 21
2029.59105277665
 31
0.0
  0
LINE
  5
7FC2
  8
0
  6
BYBLOCK
 10
2474.7778585300298
 20
2004.5910527766509
 30
0.0
 11
3664.7778585300312
 21
2004.5910527766509
 31
0.0
  0
INSERT
  5
7FC3
  8
0
  6
BYBLOCK
  2
_OPEN
 10
2424.7778585300298
 20
2004.5910527766509
 30
0.0
 41
50.0
 42
50.0
 43
50.0
 50
180.0
  0
INSERT
  5
7FC4
  8
0
  6
BYBLOCK
  2
_OPEN
 10
3714.7778585300298
 20
2004.5910527766509
 30
0.0
 41
50.0
 42
50.0
 43
50.0
  0
TEXT
  5
7FC5
  8
3
 10
2944.7778585300312
 20
2017.09105277665
 30
0.0
 40
75.0
  1
1290
  0
POINT
  5
7FC6
  8
DEFPOINTS
  6
BYBLOCK
 62
     0
 10
2424.7778585300298
 20
1784.423564340666
 30
0.0
  0
POINT
  5
7FC7
  8
DEFPOINTS
  6
BYBLOCK
 62
     0
 10
3714.7778585300298
 20
759.42356434066642
 30
0.0
  0
POINT
  5
7FC8
  8
DEFPOINTS
  6
BYBLOCK
 62
     0
 10
3714.7778585300298
 20
2004.5910527766509
 30
0.0
  0
ENDBLK
  5
7FC9
  8
0
  0
BLOCK
  8
0
  2
_DOT
 70
     0
 10
0.0
 20
0.0
 30
0.0
  3
_DOT
  1

  0
LINE
  5
801D
  8
0
  6
BYBLOCK
 62
     0
 10
0.0
 20
0.0
 30
0.0
 11
-1.0
 21
-0.0000000000000284
 31
0.0
  0
POLYLINE
  5
801E
  8
0
  6
BYBLOCK
 62
     0
 66
     1
 10
0.0
 20
0.0
 30
0.0
 70
     1
 40
0.1666666666666666
 41
0.1666666666666666
  0
VERTEX
  5
8173
  8
0
  6
BYBLOCK
 62
     0
 10
-0.0833333333333286
 20
-0.0000000000000284
 30
0.0
 42
1.0
  0
VERTEX
  5
8174
  8
0
  6
BYBLOCK
 62
     0
 10
0.0833333333333286
 20
-0.0000000000000284
 30
0.0
 42
1.0
  0
SEQEND
  5
8175
  8
0
  6
BYBLOCK
 62
     0
  0
ENDBLK
  5
8003
  8
0
  0
BLOCK
  8
0
  2
*D17
 70
     1
 10
0.0
 20
0.0
 30
0.0
  3
*D17
  1

  0
LINE
  5
8059
  8
0
  6
BYBLOCK
 62
     0
 10
4550.3508170324703
 20
3244.0924727692309
 30
0.0
 11
4550.3508170324703
 21
3536.8815013177468
 31
0.0
  0
LINE
  5
805A
  8
0
  6
BYBLOCK
 62
     0
 10
4385.3508170324694
 20
3511.8815013177468
 30
0.0
 11
4500.3508170324712
 21
3511.8815013177468
 31
0.0
  0
TEXT
  5
805B
  8
3
 62
     0
 10
4361.9106670291903
 20
3540.1754973190141
 30
0.0
 40
75.0
  1
215
  0
INSERT
  5
805C
  8
0
  6
BYBLOCK
 62
     0
  2
_OPEN
 10
4335.3508170324703
 20
3511.8815013177468
 30
0.0
 41
50.0
 42
50.0
 43
50.0
 50
180.0
  0
INSERT
  5
805D
  8
0
  6
BYBLOCK
 62
     0
  2
_OPEN
 10
4550.3508170324703
 20
3511.8815013177468
 30
0.0
 41
50.0
 42
50.0
 43
50.0
  0
POINT
  5
805E
  8
DEFPOINTS
  6
BYBLOCK
 62
     0
 10
4335.3508170324703
 20
3395.7866042382411
 30
0.0
  0
POINT
  5
805F
  8
DEFPOINTS
  6
BYBLOCK
 62
     0
 10
4550.3508170324703
 20
3231.5924727692309
 30
0.0
  0
POINT
  5
8060
  8
DEFPOINTS
  6
BYBLOCK
 62
     0
 10
4550.3508170324703
 20
3511.8815013177468
 30
0.0
  0
ENDBLK
  5
8061
  8
0
  0
BLOCK
  8
0
  2
*D18
 70
     1
 10
0.0
 20
0.0
 30
0.0
  3
*D18
  1

  0
LINE
  5
817B
  8
3
 62
     0
 10
1374.8089804333699
 20
2144.09247276923
 30
0.0
 11
1374.8089804333699
 21
1977.079797183
 31
0.0
  0
LINE
  5
817C
  8
3
 62
     0
 10
1624.808980433369
 20
2144.09247276923
 30
0.0
 11
1624.808980433369
 21
1977.079797183
 31
0.0
  0
LINE
  5
817D
  8
3
 62
     0
 10
1424.8089804333699
 20
2002.079797183
 30
0.0
 11
1574.8089804333699
 21
2002.079797183
 31
0.0
  0
INSERT
  5
817E
  8
3
 62
     0
  2
_OPEN
 10
1374.8089804333699
 20
2002.079797183
 30
0.0
 41
50.0
 42
50.0
 43
50.0
 50
180.0
  0
INSERT
  5
817F
  8
3
 62
     0
  2
_OPEN
 10
1624.808980433369
 20
2002.079797183
 30
0.0
 41
50.0
 42
50.0
 43
50.0
  0
TEXT
  8
3
  40
75
  5
81A8
  62
0
  72
0
  71
0
 10
1349.81
 20
1931.83
 30
0.000000
  1
250
  0
POINT
  5
8181
  8
DEFPOINTS
 62
     0
 10
1374.8089804333699
 20
2156.5924727692309
 30
0.0
  0
POINT
  5
8182
  8
DEFPOINTS
 62
     0
 10
1624.808980433369
 20
2156.5924727692309
 30
0.0
  0
POINT
  5
8183
  8
DEFPOINTS
 62
     0
 10
1624.808980433369
 20
2002.079797183
 30
0.0
  0
ENDBLK
  5
80F5
  8
0
  0
BLOCK
  8
0
  2
*D19
 70
     1
 10
0.0
 20
0.0
 30
0.0
  3
*D19
  1

  0
LINE
  5
8184
  8
3
 62
     0
 10
1624.808980433369
 20
2144.09247276923
 30
0.0
 11
1624.808980433369
 21
1977.079797183
 31
0.0
  0
LINE
  5
8185
  8
3
 62
     0
 10
2524.8089804333699
 20
2144.09247276923
 30
0.0
 11
2524.8089804333699
 21
1977.079797183
 31
0.0
  0
LINE
  5
8186
  8
3
 62
     0
 10
1674.808980433369
 20
2002.079797183
 30
0.0
 11
2474.808980433369
 21
2002.079797183
 31
0.0
  0
INSERT
  5
8187
  8
3
 62
     0
  2
_OPEN
 10
1624.808980433369
 20
2002.079797183
 30
0.0
 41
50.0
 42
50.0
 43
50.0
 50
180.0
  0
INSERT
  5
8188
  8
3
 62
     0
  2
_OPEN
 10
2524.8089804333699
 20
2002.079797183
 30
0.0
 41
50.0
 42
50.0
 43
50.0
  0
TEXT
  8
3
  40
75
  5
81A9
  62
0
  72
0
  71
0
 10
1924.81
 20
1931.83
 30
0.000000
  1
900
  0
POINT
  5
818A
  8
DEFPOINTS
 62
     0
 10
1624.808980433369
 20
2156.5924727692309
 30
0.0
  0
POINT
  5
818B
  8
DEFPOINTS
 62
     0
 10
2524.8089804333699
 20
2156.5924727692309
 30
0.0
  0
POINT
  5
818C
  8
DEFPOINTS
 62
     0
 10
2524.8089804333699
 20
2002.079797183
 30
0.0
  0
ENDBLK
  5
8102
  8
0
  0
BLOCK
  8
0
  2
*D20
 70
     1
 10
0.0
 20
0.0
 30
0.0
  3
*D20
  1

  0
LINE
  5
818D
  8
3
 62
     0
 10
3490.350817032469
 20
2144.09247276923
 30
0.0
 11
3490.350817032469
 21
1977.079797183
 31
0.0
  0
LINE
  5
818E
  8
3
 62
     0
 10
4335.3508170324712
 20
2144.09247276923
 30
0.0
 11
4335.3508170324712
 21
1977.079797183
 31
0.0
  0
LINE
  5
818F
  8
3
 62
     0
 10
3540.350817032469
 20
2002.079797183
 30
0.0
 11
4285.3508170324722
 21
2002.079797183
 31
0.0
  0
INSERT
  5
8190
  8
3
 62
     0
  2
_OPEN
 10
3490.350817032469
 20
2002.079797183
 30
0.0
 41
50.0
 42
50.0
 43
50.0
 50
180.0
  0
INSERT
  5
8191
  8
3
 62
     0
  2
_OPEN
 10
4335.3508170324712
 20
2002.079797183
 30
0.0
 41
50.0
 42
50.0
 43
50.0
  0
TEXT
  8
3
  40
75
  5
81AA
  62
0
  72
0
  71
0
 10
3762.85
 20
1931.83
 30
0.000000
  1
845
  0
POINT
  5
8193
  8
DEFPOINTS
 62
     0
 10
3490.350817032469
 20
2156.5924727692309
 30
0.0
  0
POINT
  5
8194
  8
DEFPOINTS
 62
     0
 10
4335.3508170324712
 20
2156.5924727692309
 30
0.0
  0
POINT
  5
8195
  8
DEFPOINTS
 62
     0
 10
4335.3508170324712
 20
2002.079797183
 30
0.0
  0
ENDBLK
  5
810F
  8
0
  0
BLOCK
  8
0
  2
*D21
 70
     1
 10
0.0
 20
0.0
 30
0.0
  3
*D21
  1

  0
LINE
  5
8196
  8
3
 62
     0
 10
4335.3508170324712
 20
2144.09247276923
 30
0.0
 11
4335.3508170324712
 21
1977.079797183
 31
0.0
  0
LINE
  5
8197
  8
3
 62
     0
 10
4590.3508170324703
 20
2144.09247276923
 30
0.0
 11
4590.3508170324703
 21
1977.079797183
 31
0.0
  0
LINE
  5
8198
  8
3
 62
     0
 10
4385.3508170324712
 20
2002.079797183
 30
0.0
 11
4540.3508170324712
 21
2002.079797183
 31
0.0
  0
INSERT
  5
8199
  8
3
 62
     0
  2
_OPEN
 10
4335.3508170324712
 20
2002.079797183
 30
0.0
 41
50.0
 42
50.0
 43
50.0
 50
180.0
  0
INSERT
  5
819A
  8
3
 62
     0
  2
_OPEN
 10
4590.3508170324703
 20
2002.079797183
 30
0.0
 41
50.0
 42
50.0
 43
50.0
  0
TEXT
  8
3
  40
75
  5
81AB
  62
0
  72
0
  71
0
 10
4312.85
 20
1931.83
 30
0.000000
  1
255
  0
POINT
  5
819C
  8
DEFPOINTS
 62
     0
 10
4335.3508170324712
 20
2156.5924727692309
 30
0.0
  0
POINT
  5
819D
  8
DEFPOINTS
 62
     0
 10
4590.3508170324703
 20
2156.5924727692309
 30
0.0
  0
POINT
  5
819E
  8
DEFPOINTS
 62
     0
 10
4590.3508170324703
 20
2002.079797183
 30
0.0
  0
ENDBLK
  5
811E
  8
0
  0
BLOCK
  8
0
  2
*D22
 70
     1
 10
0.0
 20
0.0
 30
0.0
  3
*D22
  1

  0
LINE
  5
819F
  8
3
 62
     0
 10
1222.308980433369
 20
3256.5924727692309
 30
0.0
 11
765.67397597960746
 21
3256.5924727692309
 31
0.0
  0
LINE
  5
81A0
  8
3
 62
     0
 10
1362.3089804333699
 20
2156.5924727692309
 30
0.0
 11
765.67397597960735
 21
2156.5924727692309
 31
0.0
  0
LINE
  5
81A1
  8
3
 62
     0
 10
790.67397597960746
 20
3206.5924727692309
 30
0.0
 11
790.67397597960735
 21
2206.5924727692309
 31
0.0
  0
INSERT
  5
81A2
  8
3
 62
     0
  2
_OPEN
 10
790.67397597960746
 20
3256.5924727692309
 30
0.0
 41
50.0
 42
50.0
 43
50.0
 50
90.0
  0
INSERT
  5
81A3
  8
3
 62
     0
  2
_OPEN
 10
790.67397597960735
 20
2156.5924727692309
 30
0.0
 41
50.0
 42
50.0
 43
50.0
 50
270.0
  0
TEXT
  8
3
  40
75
  5
81AC
  62
0
  72
0
  71
0
 10
578.174
 20
2573.84
 30
0.000000
  1
1100
  0
POINT
  5
81A5
  8
DEFPOINTS
 62
     0
 10
1234.8089804333699
 20
3256.5924727692309
 30
0.0
  0
POINT
  5
81A6
  8
DEFPOINTS
 62
     0
 10
1374.8089804333699
 20
2156.5924727692309
 30
0.0
  0
POINT
  5
81A7
  8
DEFPOINTS
 62
     0
 10
790.67397597960735
 20
2156.5924727692309
 30
0.0
  0
ENDBLK
  5
812B
  8
0
  0
BLOCK
  8
0
  2
*U23
 70
     1
 10
0.0
 20
0.0
 30
0.0
  3
*U23
  1

  0
TEXT
  5
8177
  8
3
 10
3752.957959889613
 20
3649.3815013177459
 30
0.0
 40
75.0
  1
MAX
  0
TEXT
  5
8178
  8
3
 10
3735.1008170324699
 20
3524.3815013177459
 30
0.0
 40
75.0
  1
1020
  0
ENDBLK
  5
817A
  8
0
  0
ENDSEC
  0
SECTION
  2
ENTITIES
  0
INSERT
  5
7C74
  8
0
  2
YA_N
 10
6.0
 20
5.0
 30
0.0
  0
INSERT
  5
7C75
  8
0
  2
YA_N
 10
6.0
 20
5.0
 30
0.0
  0
INSERT
  5
7C76
  8
0
  2
YA_N
 10
6.0
 20
5.0
 30
0.0
  0
LINE
  5
7C77
  8
2
 10
1624.808980433369
 20
2156.5924727692309
 30
0.0
 11
1624.808980433369
 21
3245.6184914479231
 31
0.0
  0
LINE
  5
7C78
  8
2
 10
4335.3508170324712
 20
2156.5924727692309
 30
0.0
 11
4335.3508170324712
 21
3310.6050368106289
 31
0.0
  0
LINE
  5
7C79
  8
1
 10
4542.533512509518
 20
2928.7208606208928
 30
0.0
 11
4557.580207254071
 21
2928.7208606208928
 31
0.0
  0
LINE
  5
7C7A
  8
1
 10
1374.8089804333699
 20
2156.5924727692309
 30
0.0
 11
1374.8089804333699
 21
2231.59247276923
 31
0.0
  0
LINE
  5
7C7B
  8
1
 10
1874.808980433369
 20
2568.3924727692311
 30
0.0
 11
1374.8089804333699
 21
2568.3924727692311
 31
0.0
  0
LINE
  5
7C7C
  8
1
 10
2524.8089804333699
 20
2156.5924727692309
 30
0.0
 11
1374.8089804333699
 21
2156.5924727692309
 31
0.0
  0
LINE
  5
7C7D
  8
1
 10
2524.8089804333699
 20
2231.59247276923
 30
0.0
 11
1374.8089804333699
 21
2231.59247276923
 31
0.0
  0
LINE
  5
7C7E
  8
1
 10
2524.8089804333699
 20
2156.5924727692309
 30
0.0
 11
2524.8089804333699
 21
2231.59247276923
 31
0.0
  0
LINE
  5
7C7F
  8
1
 10
3522.8508170324699
 20
2568.3924727692311
 30
0.0
 11
4037.8508170324699
 21
2568.3924727692311
 31
0.0
  0
LINE
  5
7C80
  8
1
 10
3528.3508170324699
 20
2231.59247276923
 30
0.0
 11
3528.3508170324708
 21
2266.5924727692309
 31
0.0
  0
LINE
  5
7C81
  8
1
 10
4032.3508170324708
 20
2231.59247276923
 30
0.0
 11
4032.3508170324722
 21
2568.3924727692311
 31
0.0
  0
LINE
  5
7C82
  8
1
 10
3490.3508170324699
 20
2231.59247276923
 30
0.0
 11
4590.3508170324703
 21
2231.59247276923
 31
0.0
  0
LINE
  5
7C83
  8
1
 10
3490.3508170324699
 20
2156.5924727692309
 30
0.0
 11
4590.3508170324703
 21
2156.5924727692309
 31
0.0
  0
LINE
  5
7C84
  8
1
 10
4590.3508170324703
 20
2156.5924727692309
 30
0.0
 11
4590.3508170324703
 21
2231.59247276923
 31
0.0
  0
LINE
  5
7C85
  8
1
 10
4032.3508170324708
 20
2503.3924727692302
 30
0.0
 11
4120.3508170324703
 21
2503.3924727692311
 31
0.0
  0
LINE
  5
7C86
  8
1
 10
4032.3508170324708
 20
2509.3924727692311
 30
0.0
 11
4120.3508170324703
 21
2509.3924727692311
 31
0.0
  0
LINE
  5
7C87
  8
1
 10
1844.8089804333699
 20
2231.59247276923
 30
0.0
 11
1844.8089804333699
 21
2568.3924727692311
 31
0.0
  0
LINE
  5
7C88
  8
1
 10
1404.8089804333699
 20
2231.59247276923
 30
0.0
 11
1404.8089804333699
 21
2568.3924727692311
 31
0.0
  0
LINE
  5
7C8E
  8
1
 10
1304.1908813490611
 20
2509.3924727692311
 30
0.0
 11
1404.8089804333699
 21
2509.3924727692311
 31
0.0
  0
LINE
  5
7C8F
  8
1
 10
1304.1908813490611
 20
2500.3924727692311
 30
0.0
 11
1404.8089804333699
 21
2500.3924727692311
 31
0.0
  0
LINE
  5
7C90
  8
1
 10
1844.8089804333699
 20
2500.3924727692311
 30
0.0
 11
2073.4608708753058
 21
2500.3924727692311
 31
0.0
  0
LINE
  5
7C91
  8
1
 10
1844.8089804333699
 20
2509.3924727692311
 30
0.0
 11
2073.4608708753049
 21
2509.3924727692311
 31
0.0
  0
LINE
  5
7C92
  8
1
 10
3467.8508170324708
 20
2656.5924727692309
 30
0.0
 11
4120.3508170324703
 21
2656.5924727692309
 31
0.0
  0
LINE
  5
7C93
  8
1
 10
3467.8508170324708
 20
2606.59247276923
 30
0.0
 11
4120.3508170324703
 21
2606.59247276923
 31
0.0
  0
CIRCLE
  5
7C94
  8
1
 10
2324.8089804333699
 20
2408.59247276923
 30
0.0
 40
70.0
  0
CIRCLE
  5
7C95
  8
1
 10
1624.808980433369
 20
2631.5924727692309
 30
0.0
 40
127.0
  0
ARC
  5
7C96
  8
1
 10
1624.808980433369
 20
2631.5924727692309
 30
0.0
 40
220.0
 50
66.862065249798661
 51
257.79714923555321
  0
ARC
  5
7C97
  8
1
 10
2324.8089804333699
 20
2408.59247276923
 30
0.0
 40
150.0
 50
257.79714923555321
 51
66.86206524979869
  0
LINE
  5
7C98
  8
1
 10
2383.7508851990751
 20
2546.52670297548
 30
0.0
 11
1711.2571074230709
 21
2833.896010405063
 31
0.0
  0
LINE
  5
7C99
  8
1
 10
2293.102966272023
 20
2261.9816659847361
 30
0.0
 11
1578.306826330062
 21
2416.5632894853052
 31
0.0
  0
LINE
  5
7C9A
  8
1
 10
2351.1676020847221
 20
2473.440164051503
 30
0.0
 11
1672.63105114368
 21
2749.2447126670668
 31
0.0
  0
LINE
  5
7C9B
  8
1
 10
2308.7999972116741
 20
2340.4476823872251
 30
0.0
 11
1595.764110874007
 21
2507.9583530761638
 31
0.0
  0
LINE
  5
7C9D
  8
1
 10
3467.8508170324699
 20
2338.5924727692309
 30
0.0
 11
3467.8508170324699
 21
2758.5924727692309
 31
0.0
  0
LINE
  5
7C9E
  8
1
 10
3404.8508170324699
 20
2338.5924727692309
 30
0.0
 11
3404.8508170324699
 21
2758.5924727692309
 31
0.0
  0
LINE
  5
7CA1
  8
1
 10
3404.8508170324699
 20
2758.5924727692309
 30
0.0
 11
3467.8508170324699
 21
2758.5924727692309
 31
0.0
  0
LINE
  5
7CA2
  8
1
 10
3404.8508170324699
 20
2504.5924727692309
 30
0.0
 11
3467.8508170324699
 21
2504.5924727692309
 31
0.0
  0
LINE
  5
7CA6
  8
1
 10
3404.8508170324699
 20
2478.59247276923
 30
0.0
 11
3467.8508170324699
 21
2478.59247276923
 31
0.0
  0
LINE
  5
7CA7
  8
1
 10
3404.8508170324699
 20
2338.5924727692309
 30
0.0
 11
3467.8508170324699
 21
2338.5924727692309
 31
0.0
  0
LINE
  5
7CAB
  8
1
 10
3384.8508170324699
 20
2851.5924727692309
 30
0.0
 11
3506.8508170324699
 21
2851.5924727692309
 31
0.0
  0
LINE
  5
7CAC
  8
1
 10
3384.8508170324708
 20
2258.5924727692309
 30
0.0
 11
3506.8508170324699
 21
2258.5924727692309
 31
0.0
  0
LINE
  5
7CAD
  8
1
 10
3384.8508170324708
 20
2258.5924727692309
 30
0.0
 11
3384.8508170324699
 21
2851.5924727692309
 31
0.0
  0
LINE
  5
7CAE
  8
1
 10
3506.8508170324699
 20
2258.5924727692309
 30
0.0
 11
3506.8508170324699
 21
2319.614978135432
 31
0.0
  0
POLYLINE
  5
7CB0
  8
1
 66
     1
 10
0.0
 20
0.0
 30
0.0
 70
     1
  0
VERTEX
  5
8150
  8
1
 10
2499.808980433369
 20
2231.59247276923
 30
0.0
  0
VERTEX
  5
8151
  8
1
 10
2149.808980433369
 20
2231.59247276923
 30
0.0
  0
VERTEX
  5
8152
  8
1
 10
2159.808980433369
 20
2276.59247276923
 30
0.0
  0
VERTEX
  5
8153
  8
1
 10
2489.8089804333699
 20
2276.59247276923
 30
0.0
  0
SEQEND
  5
8154
  8
1
  0
LINE
  5
7CB8
  8
2
 10
2324.8089804333699
 20
2221.5900459163531
 30
0.0
 11
2324.8089804333699
 21
2561.0924727692309
 31
0.0
  0
CIRCLE
  5
7CB9
  8
1
 10
2324.8089804333699
 20
2408.59247276923
 30
0.0
 40
19.0
  0
ARC
  5
7CBA
  8
1
 10
2324.8089804333699
 20
2408.59247276923
 30
0.0
 40
142.0
 50
296.41738025990082
 51
243.58261974009909
  0
LINE
  5
7CBB
  8
2
 10
2548.3216154818988
 20
2408.59247276923
 30
0.0
 11
2172.3089804333699
 21
2408.59247276923
 31
0.0
  0
LINE
  5
7CBC
  8
1
 10
2194.8089804333699
 20
2276.59247276923
 30
0.0
 11
2244.8089804333699
 21
2276.59247276923
 31
0.0
  0
LINE
  5
7CBD
  8
1
 10
2194.8089804333699
 20
2276.59247276923
 30
0.0
 11
2194.8089804333699
 21
2291.59247276923
 31
0.0
  0
LINE
  5
7CBE
  8
1
 10
2194.8089804333699
 20
2291.59247276923
 30
0.0
 11
2243.4624992556351
 21
2291.59247276923
 31
0.0
  0
LINE
  5
7CBF
  8
1
 10
2244.8089804333699
 20
2290.6677086185232
 30
0.0
 11
2244.8089804333699
 21
2276.59247276923
 31
0.0
  0
LINE
  5
7CC0
  8
1
 10
2194.8089804333699
 20
2291.59247276923
 30
0.0
 11
2208.8382580132261
 21
2325.7852174026261
 31
0.0
  0
LINE
  5
7CC1
  8
1
 10
2454.808980433369
 20
2291.59247276923
 30
0.0
 11
2440.7797028535128
 21
2325.7852174026261
 31
0.0
  0
LINE
  5
7CC2
  8
1
 10
2388.2082088955681
 20
2280.972772760193
 30
0.0
 11
2261.4097519711672
 21
2280.972772760193
 31
0.0
  0
LINE
  5
7CC3
  8
1
 10
2404.8089804333699
 20
2290.6677086185232
 30
0.0
 11
2404.8089804333699
 21
2276.59247276923
 31
0.0
  0
LINE
  5
7CC4
  8
1
 10
2454.808980433369
 20
2291.59247276923
 30
0.0
 11
2406.1554616111039
 21
2291.59247276923
 31
0.0
  0
LINE
  5
7CC5
  8
1
 10
2454.808980433369
 20
2276.59247276923
 30
0.0
 11
2454.808980433369
 21
2291.59247276923
 31
0.0
  0
LINE
  5
7CC6
  8
1
 10
2454.808980433369
 20
2276.59247276923
 30
0.0
 11
2404.8089804333699
 21
2276.59247276923
 31
0.0
  0
DIMENSION
  5
7CC9
  8
3
  2
*D2
 10
4755.9539082880328
 20
2351.5924727692318
 30
0.0
 11
4705.9539082880328
 21
2631.5924727692332
 31
0.0
 12
-1189.9688780966601
 22
1472.168908428564
 32
0.0
 70
     0
  1
φ560
 13
4572.6508170324714
 23
2911.5924727692318
 33
0.0
 14
4572.6508170324714
 24
2351.5924727692318
 34
0.0
 50
90.0
1001
ACAD
1000
DSTYLE
1002
{
1070
    40
1040
25.0
1002
}
  0
LINE
  5
7CD1
  8
2
 10
3353.9705753184312
 20
2631.5924727692309
 30
0.0
 11
4600.0234960289908
 21
2631.5924727692309
 31
0.0
  0
LINE
  5
7CD3
  8
1
 10
2524.8089804333699
 20
4041.7514201452232
 30
0.0
 11
2466.8089804333699
 21
4041.7514201452232
 31
0.0
  0
LINE
  5
7CD4
  8
1
 10
1374.8089804333699
 20
4041.7514201452232
 30
0.0
 11
1374.8089804333699
 21
4674.2514201452241
 31
0.0
  0
LINE
  5
7CD5
  8
1
 10
1374.8089804333699
 20
5141.7514201452232
 30
0.0
 11
1874.808980433369
 21
5141.7514201452232
 31
0.0
  0
LINE
  5
7CD6
  8
1
 10
2524.8089804333699
 20
4641.7514201452232
 30
0.0
 11
2524.8089804333699
 21
4041.7514201452232
 31
0.0
  0
LINE
  5
7CD7
  8
1
 10
1874.808980433369
 20
4641.7514201452232
 30
0.0
 11
1874.8089804333699
 21
4674.2514201452232
 31
0.0
  0
LINE
  5
7CD8
  8
1
 10
2524.8089804333699
 20
4641.7514201452232
 30
0.0
 11
1874.808980433369
 21
4641.7514201452232
 31
0.0
  0
LINE
  5
7CD9
  8
2
 10
1181.680447689183
 20
4886.7514201452232
 30
0.0
 11
2153.529271295914
 21
4886.7514201452232
 31
0.0
  0
DIMENSION
  5
7CDA
  8
3
  2
*D3
 10
1374.8089804333699
 20
5343.0271641016707
 30
0.0
 11
1624.808980433369
 21
5393.0271641016707
 31
0.0
 12
-1189.9688780966601
 22
1472.168908428564
 32
0.0
 70
     0
 13
1874.808980433369
 23
5141.7514201452232
 33
0.0
 14
1374.8089804333699
 24
5141.7514201452232
 34
0.0
1001
ACAD
1000
DSTYLE
1002
{
1070
    40
1040
25.0
1002
}
  0
DIMENSION
  5
7CDB
  8
3
  2
*D4
 10
1374.8089804333699
 20
3653.3299325293019
 30
0.0
 11
1949.8089804333699
 21
3653.3299325293019
 31
0.0
 12
-1189.9688780966601
 22
1472.168908428564
 32
0.0
 70
   128
 13
2524.8089804333699
 23
4041.7514201452232
 33
0.0
 14
1374.8089804333699
 24
4041.7514201452232
 34
0.0
1001
ACAD
1000
DSTYLE
1002
{
1070
    40
1040
25.0
1002
}
  0
DIMENSION
  5
7CDC
  8
3
  2
*D5
 10
2733.7450727241699
 20
4041.7514201452232
 30
0.0
 11
2683.7450727241689
 21
4341.7514201452232
 31
0.0
 12
-1189.9688780966601
 22
1472.168908428564
 32
0.0
 70
     0
 13
2524.8089804333699
 23
4641.7514201452232
 33
0.0
 14
2524.8089804333699
 24
4041.7514201452232
 34
0.0
 50
270.0
1001
ACAD
1000
DSTYLE
1002
{
1070
    40
1040
25.0
1002
}
  0
DIMENSION
  5
7CDD
  8
3
  2
*D6
 10
1053.2762941121059
 20
4041.7514201452232
 30
0.0
 11
1003.276294112106
 21
4591.7514201452232
 31
0.0
 12
-1189.9688780966601
 22
1472.168908428564
 32
0.0
 70
     0
 13
1374.8089804333699
 23
5141.7514201452232
 33
0.0
 14
1374.8089804333699
 24
4041.7514201452232
 34
0.0
 50
270.0
1001
ACAD
1000
DSTYLE
1002
{
1070
    40
1040
25.0
1002
}
  0
LINE
  5
7CDE
  8
1
 10
3614.2838907594428
 20
2568.3924727692311
 30
0.0
 11
3614.2838907594428
 21
2689.9666523502988
 31
0.0
  0
LINE
  5
7CDF
  8
1
 10
3614.2838907594428
 20
2689.9666523502988
 30
0.0
 11
3945.2313970597138
 21
2689.9666523502988
 31
0.0
  0
LINE
  5
7CE0
  8
1
 10
3945.2313970597138
 20
2689.9666523502988
 30
0.0
 11
3945.2313970597138
 21
2568.3924727692311
 31
0.0
  0
LINE
  5
7CE1
  8
2
 10
2324.8089804333699
 20
4470.3733659655309
 30
0.0
 11
2324.8089804333699
 21
3851.942623216371
 31
0.0
  0
INSERT
  5
7CE2
  8
0
  2
YA_N
 10
120.0
 20
100.0
 30
0.0
 41
20.0
 42
20.0
 43
20.0
  0
INSERT
  5
7CE3
  8
0
  2
YA_N
 10
3847.4759201612942
 20
2185.7293758516262
 30
0.0
  0
INSERT
  5
7CE4
  8
0
  2
YA_N
 10
3847.4759201612942
 20
2185.7293758516262
 30
0.0
  0
INSERT
  5
7CE5
  8
0
  2
YA_N
 10
4086.555209668692
 20
3974.8462611396872
 30
0.0
  0
INSERT
  5
7CE6
  8
0
  2
YA_N
 10
4086.555209668692
 20
3974.8462611396872
 30
0.0
  0
INSERT
  5
7CE7
  8
0
  2
YA_N
 10
4845.5068668743343
 20
5541.2018299724314
 30
0.0
  0
LINE
  5
7CE8
  8
2
 10
2159.4588656536662
 20
2631.5924727692309
 30
0.0
 11
1187.4577627076551
 21
2631.5924727692309
 31
0.0
  0
POLYLINE
  5
7CE9
  8
1
 66
     1
 10
0.0
 20
0.0
 30
0.0
 70
     1
  0
VERTEX
  5
8155
  8
1
 10
4550.3508170324703
 20
2911.2208606208928
 30
0.0
  0
VERTEX
  5
8156
  8
1
 10
4575.3508170324712
 20
2911.2208606208928
 30
0.0
  0
VERTEX
  5
8157
  8
1
 10
4575.3508170324712
 20
2912.2208606208928
 30
0.0
 42
0.4142135623730951
  0
VERTEX
  5
8158
  8
1
 10
4573.3508170324703
 20
2914.2208606208928
 30
0.0
  0
VERTEX
  5
8159
  8
1
 10
4557.3508170324703
 20
2914.2208606208928
 30
0.0
 42
-0.4142135623730951
  0
VERTEX
  5
815A
  8
1
 10
4553.3508170324703
 20
2918.2208606208928
 30
0.0
  0
VERTEX
  5
815B
  8
1
 10
4553.3508170324703
 20
2934.2208606208928
 30
0.0
 42
0.4142135623730951
  0
VERTEX
  5
815C
  8
1
 10
4551.3508170324703
 20
2936.2208606208928
 30
0.0
  0
VERTEX
  5
815D
  8
1
 10
4550.3508170324703
 20
2936.2208606208928
 30
0.0
  0
SEQEND
  5
815E
  8
1
  0
LINE
  5
7CF4
  8
1
 10
4542.533512509518
 20
2333.7208606208951
 30
0.0
 11
4557.580207254071
 21
2333.7208606208951
 31
0.0
  0
DIMENSION
  5
7CF6
  8
3
  2
*D7
 10
2524.8089804333699
 20
5343.0271641016707
 30
0.0
 11
2199.8089804333699
 21
5393.0271641016707
 31
0.0
 12
-1189.9688780966601
 22
1472.168908428564
 32
0.0
 70
     0
 13
1874.808980433369
 23
5141.7514201452232
 33
0.0
 14
2524.8089804333699
 24
4641.7514201452232
 34
0.0
1001
ACAD
1000
DSTYLE
1002
{
1070
    40
1040
25.0
1002
}
  0
LINE
  5
7CF7
  8
1
 10
4550.3508170324703
 20
2351.2208606208951
 30
0.0
 11
4575.3508170324712
 21
2351.2208606208951
 31
0.0
  0
LINE
  5
7CF8
  8
1
 10
4575.3508170324712
 20
2351.2208606208951
 30
0.0
 11
4575.3508170324712
 21
2350.2208606208951
 31
0.0
  0
ARC
  5
7CF9
  8
1
 10
4573.3508170324703
 20
2350.2208606208951
 30
0.0
 40
2.0
 50
270.0
 51
0.0
  0
LINE
  5
7CFA
  8
1
 10
4573.3508170324703
 20
2348.2208606208951
 30
0.0
 11
4557.3508170324703
 21
2348.2208606208951
 31
0.0
  0
ARC
  5
7CFB
  8
1
 10
4557.3508170324703
 20
2344.2208606208942
 30
0.0
 40
4.0
 50
90.0
 51
180.0
  0
LINE
  5
7CFC
  8
1
 10
4553.3508170324694
 20
2911.2208606208928
 30
0.0
 11
4553.3508170324703
 21
2328.2208606208942
 31
0.0
  0
ARC
  5
7CFD
  8
1
 10
4551.3508170324703
 20
2328.2208606208942
 30
0.0
 40
2.0
 50
270.0
 51
0.0
  0
LINE
  5
7CFE
  8
1
 10
4551.3508170324703
 20
2326.2208606208951
 30
0.0
 11
4550.3508170324703
 21
2326.2208606208951
 31
0.0
  0
LINE
  5
7CFF
  8
1
 10
4550.3508170324703
 20
2326.2208606208951
 30
0.0
 11
4550.3508170324703
 21
2351.2208606208951
 31
0.0
  0
INSERT
  5
7D00
  8
0
  2
YA_N
 10
120.0
 20
100.0
 30
0.0
 41
20.0
 42
20.0
 43
20.0
  0
INSERT
  5
7D01
  8
0
  2
YA_N
 10
120.0
 20
100.0
 30
0.0
 41
20.0
 42
20.0
 43
20.0
  0
INSERT
  5
7D06
  8
0
  2
YA_N
 10
120.0
 20
100.0
 30
0.0
 41
20.0
 42
20.0
 43
20.0
  0
INSERT
  5
7D0B
  8
0
  2
YA_N
 10
120.0
 20
100.0
 30
0.0
 41
20.0
 42
20.0
 43
20.0
  0
INSERT
  5
7D0C
  8
0
  2
YA_N
 10
120.0
 20
100.0
 30
0.0
 41
20.0
 42
20.0
 43
20.0
  0
INSERT
  5
7D0D
  8
0
  2
YA_N
 10
120.0
 20
100.0
 30
0.0
 41
20.0
 42
20.0
 43
20.0
  0
ARC
  5
7D12
  8
1
 10
1582.8089804333699
 20
2673.5924727692309
 30
0.0
 40
526.0
 50
0.0
 51
84.733995702768027
  0
ARC
  5
7D13
  8
1
 10
1666.8089804333699
 20
2673.5924727692309
 30
0.0
 40
442.0
 50
293.74801207548961
 51
0.0
  0
ARC
  5
7D14
  8
1
 10
1657.8089804333699
 20
2598.5924727692309
 30
0.0
 40
367.0
 50
179.9999999999992
 51
226.41947965109341
  0
ARC
  5
7D15
  8
1
 10
1591.8089804333699
 20
2598.5924727692309
 30
0.0
 40
301.0
 50
169.8585019162158
 51
179.99999999999929
  0
LINE
  5
7D16
  8
1
 10
1234.8089804333699
 20
3231.5924727692309
 30
0.0
 11
1234.8089804333699
 21
2651.59247276923
 31
0.0
  0
LINE
  5
7D17
  8
1
 10
1295.511832286446
 20
2651.59247276923
 30
0.0
 11
1259.8089804333699
 21
2651.59247276923
 31
0.0
  0
LINE
  5
7D18
  8
1
 10
1259.8089804333699
 20
3231.5924727692309
 30
0.0
 11
1259.8089804333699
 21
2651.59247276923
 31
0.0
  0
LINE
  5
7D19
  8
1
 10
1259.8089804333699
 20
3231.5924727692309
 30
0.0
 11
1631.085139964347
 21
3197.3724002396712
 31
0.0
  0
POLYLINE
  5
7D1A
  8
1
 66
     1
 10
0.0
 20
0.0
 30
0.0
 70
     1
  0
VERTEX
  5
815F
  8
1
 10
1234.8089804333699
 20
3231.5924727692309
 30
0.0
  0
VERTEX
  5
8160
  8
1
 10
1234.8089804333699
 20
3256.5924727692309
 30
0.0
  0
VERTEX
  5
8161
  8
1
 10
1235.8089804333699
 20
3256.5924727692309
 30
0.0
 42
-0.4142135623730951
  0
VERTEX
  5
8162
  8
1
 10
1237.8089804333699
 20
3254.5924727692309
 30
0.0
  0
VERTEX
  5
8163
  8
1
 10
1237.8089804333699
 20
3238.5924727692309
 30
0.0
 42
0.4142135623730951
  0
VERTEX
  5
8164
  8
1
 10
1241.8089804333699
 20
3234.5924727692309
 30
0.0
  0
VERTEX
  5
8165
  8
1
 10
1257.8089804333699
 20
3234.5924727692309
 30
0.0
 42
-0.4142135623730951
  0
VERTEX
  5
8166
  8
1
 10
1259.8089804333699
 20
3232.5924727692309
 30
0.0
  0
VERTEX
  5
8167
  8
1
 10
1259.8089804333699
 20
3231.5924727692309
 30
0.0
  0
SEQEND
  5
8168
  8
1
  0
POLYLINE
  5
7D25
  8
1
 66
     1
 10
0.0
 20
0.0
 30
0.0
 70
     1
  0
VERTEX
  5
8169
  8
1
 10
1234.8089804333699
 20
2651.59247276923
 30
0.0
  0
VERTEX
  5
816A
  8
1
 10
1234.8089804333699
 20
2626.59247276923
 30
0.0
  0
VERTEX
  5
816B
  8
1
 10
1235.8089804333699
 20
2626.59247276923
 30
0.0
 42
0.4142135623730951
  0
VERTEX
  5
816C
  8
1
 10
1237.8089804333699
 20
2628.59247276923
 30
0.0
  0
VERTEX
  5
816D
  8
1
 10
1237.8089804333699
 20
2644.59247276923
 30
0.0
 42
-0.4142135623730951
  0
VERTEX
  5
816E
  8
1
 10
1241.8089804333699
 20
2648.59247276923
 30
0.0
  0
VERTEX
  5
816F
  8
1
 10
1257.8089804333699
 20
2648.59247276923
 30
0.0
 42
0.4142135623730951
  0
VERTEX
  5
8170
  8
1
 10
1259.8089804333699
 20
2650.59247276923
 30
0.0
  0
VERTEX
  5
8171
  8
1
 10
1259.8089804333699
 20
2651.59247276923
 30
0.0
  0
SEQEND
  5
8172
  8
1
  0
LINE
  5
7D30
  8
1
 10
2073.4608708753058
 20
2500.3924727692311
 30
0.0
 11
2073.4608708753058
 21
2509.3924727692311
 31
0.0
  0
LINE
  5
7D31
  8
1
 10
1304.1908813490611
 20
2500.3924727692311
 30
0.0
 11
1304.1908813490611
 21
2509.3924727692311
 31
0.0
  0
DIMENSION
  5
7D32
  8
3
  2
*D8
 10
1077.305208568815
 20
2651.59247276923
 30
0.0
 11
1027.305208568815
 21
2941.59247276923
 31
0.0
 12
-1189.9688780966601
 22
1472.168908428564
 32
0.0
 70
     0
 13
1234.8089804333699
 23
3231.5924727692309
 33
0.0
 14
1234.8089804333699
 24
2651.59247276923
 34
0.0
 50
270.0
1001
ACAD
1000
DSTYLE
1002
{
1070
    40
1040
25.0
1002
}
  0
DIMENSION
  5
7D33
  8
3
  2
*D9
 10
952.20323057068697
 20
3231.5924727692309
 30
0.0
 11
902.20323057068697
 21
2931.5924727692309
 31
0.0
 12
-1189.9688780966601
 22
1472.168908428564
 32
0.0
 70
     0
 13
1187.4577627076551
 23
2631.5924727692309
 33
0.0
 14
1234.8089804333699
 24
3231.5924727692309
 34
0.0
 50
270.0
1001
ACAD
1000
DSTYLE
1002
{
1070
    40
1040
25.0
1002
}
  0
LINE
  5
7D34
  8
1
 10
4550.3508170324703
 20
2231.59247276923
 30
0.0
 11
4550.3508170324722
 21
2911.2208606208928
 31
0.0
  0
LINE
  5
7D35
  8
1
 10
4120.3508170324703
 20
2231.59247276923
 30
0.0
 11
4120.3508170324703
 21
2651.59247276923
 31
0.0
  0
LINE
  5
7D36
  8
1
 10
4550.3508170324712
 20
2651.59247276923
 30
0.0
 11
4550.3508170324703
 21
3231.5924727692309
 31
0.0
  0
LINE
  5
7D37
  8
1
 10
4120.3508170324703
 20
2651.59247276923
 30
0.0
 11
4120.3508170324703
 21
3231.5924727692309
 31
0.0
  0
LINE
  5
7D38
  8
1
 10
4120.3508170324703
 20
3231.5924727692309
 30
0.0
 11
4550.3508170324712
 21
3231.5924727692309
 31
0.0
  0
LINE
  5
7D39
  8
1
 10
4120.3508170324703
 20
2651.59247276923
 30
0.0
 11
4550.3508170324712
 21
2651.59247276923
 31
0.0
  0
DIMENSION
  5
7D3A
  8
3
  2
*D10
 10
4547.8508170324703
 20
3320.4436373037879
 30
0.0
 11
4335.3508170324703
 21
3370.4436373037879
 31
0.0
 12
-1189.9688780966601
 22
1472.168908428564
 32
0.0
 70
     0
 13
4122.8508170324703
 23
3231.5924727692309
 33
0.0
 14
4547.8508170324703
 24
3231.5924727692309
 34
0.0
1001
ACAD
1000
DSTYLE
1002
{
1070
    40
1040
25.0
1002
}
  0
DIMENSION
  5
7D3B
  8
3
  2
*D11
 10
3384.8508170324699
 20
3511.8815013177468
 30
0.0
 11
3860.1008170324699
 21
3624.3815013177459
 31
0.0
 70
     0
  1
MAX\P1020
 13
4335.3508170324703
 23
3395.7866042382411
 33
0.0
 14
3384.8508170324699
 24
2851.5924727692309
 34
0.0
1001
ACAD
1000
DSTYLE
1002
{
1070
    40
1040
25.0
1002
}
  0
DIMENSION
  5
7D3C
  8
3
  2
*D12
 10
1234.8089804333699
 20
3321.4792794609621
 30
0.0
 11
1429.808980433369
 21
3371.479279460963
 31
0.0
 12
-1189.9688780966601
 22
1472.168908428564
 32
0.0
 70
     0
 13
1624.808980433369
 23
3245.6184914479231
 33
0.0
 14
1234.8089804333699
 24
3256.5924727692309
 34
0.0
1001
ACAD
1000
DSTYLE
1002
{
1070
    40
1040
25.0
1002
}
  0
DIMENSION
  5
7D3D
  8
3
  2
*D13
 10
2108.808972529645
 20
3321.4792794609621
 30
0.0
 11
1866.808976481507
 21
3371.479279460963
 31
0.0
 12
-1189.9688780966601
 22
1472.168908428564
 32
0.0
 70
     0
 13
1624.808980433369
 23
3245.6184914479231
 33
0.0
 14
2108.808972529645
 24
2673.6836578485181
 34
0.0
1001
ACAD
1000
DSTYLE
1002
{
1070
    40
1040
25.0
1002
}
  0
INSERT
  5
7D3E
  8
0
  2
YA_N
 10
-179.8335021377398
 20
-171.90037549161951
 30
0.0
 41
1.538461538
 42
1.538461538
 43
1.538461538
  0
INSERT
  5
7D3F
  8
0
  2
YA_N
 10
29.23077174199971
 20
27.6923094659989
 30
0.0
 41
1.538461538
 42
1.538461538
 43
1.538461538
  0
INSERT
  5
7D40
  8
0
  2
YA_N
 10
29.23077174199971
 20
27.6923094659989
 30
0.0
 41
1.538461538
 42
1.538461538
 43
1.538461538
  0
INSERT
  5
7D41
  8
0
  2
YA_N
 10
29.23077174199971
 20
27.6923094659989
 30
0.0
 41
1.538461538
 42
1.538461538
 43
1.538461538
  0
INSERT
  5
7D42
  8
0
  2
YA_N
 10
29.23077174199971
 20
27.6923094659989
 30
0.0
 41
1.538461538
 42
1.538461538
 43
1.538461538
  0
INSERT
  5
7D43
  8
0
  2
YA_N
 10
29.23077174199971
 20
27.6923094659989
 30
0.0
 41
1.538461538
 42
1.538461538
 43
1.538461538
  0
INSERT
  5
7D44
  8
0
  2
YA_N
 10
764.68473646589041
 20
4641.82068678011
 30
0.0
 41
1.538461538
 42
1.538461538
 43
1.538461538
  0
INSERT
  5
7D45
  8
0
  2
YA_N
 10
6460.7510135923712
 20
4598.0052802348528
 30
0.0
 41
1.538461538
 42
1.538461538
 43
1.538461538
  0
INSERT
  5
7D46
  8
0
  2
YA_N
 10
6460.7510135923712
 20
4598.0052802348528
 30
0.0
 41
1.538461538
 42
1.538461538
 43
1.538461538
  0
INSERT
  5
7D47
  8
0
  2
YA_N
 10
6460.7510135923712
 20
4598.0052802348528
 30
0.0
 41
1.538461538
 42
1.538461538
 43
1.538461538
  0
INSERT
  5
7D48
  8
0
  2
YA_N
 10
6460.7510135923712
 20
4598.0052802348528
 30
0.0
 41
1.538461538
 42
1.538461538
 43
1.538461538
  0
INSERT
  5
7D49
  8
0
  2
YA_N
 10
10145.21226568251
 20
7780.9088358950803
 30
0.0
 41
1.538461538
 42
1.538461538
 43
1.538461538
  0
INSERT
  5
7D4A
  8
0
  2
YA_N
 10
10145.21226568251
 20
7780.9088358950803
 30
0.0
 41
1.538461538
 42
1.538461538
 43
1.538461538
  0
INSERT
  5
7D4B
  8
0
  2
YA_N
 10
5360.6303447487271
 20
3883.0407429965931
 30
0.0
 41
1.538461538
 42
1.538461538
 43
1.538461538
  0
INSERT
  5
7D4C
  8
0
  2
YA_N
 10
-1001.011017188752
 20
-988.56545136257319
 30
0.0
 41
1.538461538
 42
1.538461538
 43
1.538461538
  0
INSERT
  5
7D4D
  8
0
  2
YA_N
 10
140.00000247799969
 20
120.0000017459989
 30
0.0
 41
19.999999994
 42
19.999999994
 43
19.999999994
  0
INSERT
  5
7D4F
  8
0
  2
YA_N
 10
140.00000247799969
 20
120.0000017459989
 30
0.0
 41
19.999999994
 42
19.999999994
 43
19.999999994
  0
INSERT
  5
7D54
  8
0
  2
YA_N
 10
140.00000247799969
 20
120.0000017459989
 30
0.0
 41
19.999999994
 42
19.999999994
 43
19.999999994
  0
INSERT
  5
7D55
  8
0
  2
YA_N
 10
140.00000247799969
 20
120.0000017459989
 30
0.0
 41
19.999999994
 42
19.999999994
 43
19.999999994
  0
INSERT
  5
7D56
  8
0
  2
YA_N
 10
140.00000247799969
 20
120.0000017459989
 30
0.0
 41
19.999999994
 42
19.999999994
 43
19.999999994
  0
INSERT
  5
7D5B
  8
0
  2
YA_N
 10
-179.8335021377398
 20
-171.90037549161951
 30
0.0
 41
1.538461538
 42
1.538461538
 43
1.538461538
  0
INSERT
  5
7D5C
  8
0
  2
YA_N
 10
29.23077174199971
 20
27.6923094659989
 30
0.0
 41
1.538461538
 42
1.538461538
 43
1.538461538
  0
INSERT
  5
7D5D
  8
0
  2
YA_N
 10
29.23077174199971
 20
27.6923094659989
 30
0.0
 41
1.538461538
 42
1.538461538
 43
1.538461538
  0
INSERT
  5
7D5E
  8
0
  2
YA_N
 10
29.23077174199971
 20
27.6923094659989
 30
0.0
 41
1.538461538
 42
1.538461538
 43
1.538461538
  0
INSERT
  5
7D5F
  8
0
  2
YA_N
 10
29.23077174199971
 20
27.6923094659989
 30
0.0
 41
1.538461538
 42
1.538461538
 43
1.538461538
  0
INSERT
  5
7D60
  8
0
  2
YA_N
 10
29.23077174199971
 20
27.6923094659989
 30
0.0
 41
1.538461538
 42
1.538461538
 43
1.538461538
  0
INSERT
  5
7D61
  8
0
  2
YA_N
 10
764.68473646589041
 20
4641.82068678011
 30
0.0
 41
1.538461538
 42
1.538461538
 43
1.538461538
  0
INSERT
  5
7D62
  8
0
  2
YA_N
 10
6460.7510135923712
 20
4598.0052802348528
 30
0.0
 41
1.538461538
 42
1.538461538
 43
1.538461538
  0
INSERT
  5
7D63
  8
0
  2
YA_N
 10
6460.7510135923712
 20
4598.0052802348528
 30
0.0
 41
1.538461538
 42
1.538461538
 43
1.538461538
  0
INSERT
  5
7D64
  8
0
  2
YA_N
 10
6460.7510135923712
 20
4598.0052802348528
 30
0.0
 41
1.538461538
 42
1.538461538
 43
1.538461538
  0
INSERT
  5
7D65
  8
0
  2
YA_N
 10
6460.7510135923712
 20
4598.0052802348528
 30
0.0
 41
1.538461538
 42
1.538461538
 43
1.538461538
  0
INSERT
  5
7D66
  8
0
  2
YA_N
 10
10145.21226568251
 20
7780.9088358950803
 30
0.0
 41
1.538461538
 42
1.538461538
 43
1.538461538
  0
INSERT
  5
7D67
  8
0
  2
YA_N
 10
10145.21226568251
 20
7780.9088358950803
 30
0.0
 41
1.538461538
 42
1.538461538
 43
1.538461538
  0
INSERT
  5
7D68
  8
0
  2
YA_N
 10
5360.6303447487271
 20
3883.0407429965931
 30
0.0
 41
1.538461538
 42
1.538461538
 43
1.538461538
  0
INSERT
  5
7D69
  8
0
  2
YA_N
 10
-1001.011017188752
 20
-988.56545136257319
 30
0.0
 41
1.538461538
 42
1.538461538
 43
1.538461538
  0
INSERT
  5
7D6A
  8
0
  2
YA_N
 10
140.00000247799969
 20
120.0000017459989
 30
0.0
 41
19.999999994
 42
19.999999994
 43
19.999999994
  0
INSERT
  5
7D6C
  8
0
  2
YA_N
 10
140.00000247799969
 20
120.0000017459989
 30
0.0
 41
19.999999994
 42
19.999999994
 43
19.999999994
  0
INSERT
  5
7D71
  8
0
  2
YA_N
 10
140.00000247799969
 20
120.0000017459989
 30
0.0
 41
19.999999994
 42
19.999999994
 43
19.999999994
  0
INSERT
  5
7D72
  8
0
  2
YA_N
 10
140.00000247799969
 20
120.0000017459989
 30
0.0
 41
19.999999994
 42
19.999999994
 43
19.999999994
  0
INSERT
  5
7D73
  8
0
  2
YA_N
 10
140.00000247799969
 20
120.0000017459989
 30
0.0
 41
19.999999994
 42
19.999999994
 43
19.999999994
  0
LINE
  5
7D78
  8
1
 10
4575.3508170324712
 20
2351.2208606208951
 30
0.0
 11
4575.3508170324676
 21
2911.2208606208928
 31
0.0
  0
DIMENSION
  5
7D79
  8
3
  2
*D14
 10
952.20323057068697
 20
2156.5924727692309
 30
0.0
 11
902.20323057068697
 21
2394.09247276923
 31
0.0
 12
-1189.9688780966601
 22
1472.168908428564
 32
0.0
 70
     0
 13
1187.4577627076551
 23
2631.5924727692309
 33
0.0
 14
1374.8089804333699
 24
2156.5924727692309
 34
0.0
 50
270.0
1001
ACAD
1000
DSTYLE
1002
{
1070
    40
1040
25.0
1002
}
  0
LINE
  5
7D7D
  8
1
 10
3490.350817032469
 20
2156.5924727692309
 30
0.0
 11
3490.3508170324699
 21
2231.59247276923
 31
0.0
  0
DIMENSION
  5
7D7F
  8
3
  2
*D15
 10
2524.8089804333699
 20
3476.7599612052149
 30
0.0
 11
1879.808980433369
 21
3526.7599612052149
 31
0.0
 12
-1189.9688780966601
 22
1472.168908428564
 32
0.0
 70
     0
 13
1234.8089804333699
 23
3256.5924727692309
 33
0.0
 14
2524.8089804333699
 24
2231.59247276923
 34
0.0
1001
ACAD
1000
DSTYLE
1002
{
1070
    40
1040
25.0
1002
}
  0
LINE
  5
7D80
  8
1
 10
4550.3508170324703
 20
3231.5924727692309
 30
0.0
 11
4120.3508170324703
 21
2651.59247276923
 31
0.0
  0
LINE
  5
7D81
  8
1
 10
4120.3508170324703
 20
3231.5924727692309
 30
0.0
 11
4550.3508170324712
 21
2651.59247276923
 31
0.0
  0
LINE
  5
7D82
  8
1
 10
1234.8089804333699
 20
5099.2514201452232
 30
0.0
 11
2108.808980433369
 21
5099.2514201452232
 31
0.0
  0
LINE
  5
7D83
  8
1
 10
1234.8089804333699
 20
4674.2514201452241
 30
0.0
 11
2108.808980433369
 21
4674.2514201452232
 31
0.0
  0
LINE
  5
7D84
  8
1
 10
1234.808980433369
 20
4649.2514201452241
 30
0.0
 11
1234.8089804333699
 21
5124.2514201452232
 31
0.0
  0
LINE
  5
7D85
  8
1
 10
2108.808980433369
 20
4674.2514201452232
 30
0.0
 11
2108.808980433369
 21
5099.2514201452232
 31
0.0
  0
LINE
  5
7D86
  8
1
 10
1874.8089804333699
 20
5099.2514201452232
 30
0.0
 11
1874.808980433369
 21
5141.7514201452232
 31
0.0
  0
LINE
  5
7D87
  8
1
 10
1374.8089804333699
 20
5099.2514201452232
 30
0.0
 11
1374.8089804333699
 21
5141.7514201452232
 31
0.0
  0
LINE
  5
7D88
  8
1
 10
1259.808980433369
 20
4674.2514201452241
 30
0.0
 11
1259.8089804333699
 21
5099.2514201452232
 31
0.0
  0
LINE
  5
7D89
  8
1
 10
1649.8089804333699
 20
3987.7514201452232
 30
0.0
 11
1649.8089804333699
 21
4674.2514201452232
 31
0.0
  0
LINE
  5
7D8A
  8
1
 10
1599.8089804333699
 20
3987.7514201452232
 30
0.0
 11
1599.808980433369
 21
4674.2514201452232
 31
0.0
  0
LINE
  5
7D8C
  8
2
 10
1624.808980433369
 20
3853.871178431184
 30
0.0
 11
1624.808980433369
 21
5050.4240991417437
 31
0.0
  0
LINE
  5
7D8D
  8
1
 10
2474.808980433369
 20
3884.7514201452241
 30
0.0
 11
1404.8089804333699
 21
3884.7514201452232
 31
0.0
  0
LINE
  5
7D8E
  8
1
 10
2474.808980433369
 20
4006.7514201452232
 30
0.0
 11
1404.8089804333699
 21
4006.7514201452232
 31
0.0
  0
LINE
  5
7D90
  8
1
 10
2394.8089804333699
 20
3967.7514201452232
 30
0.0
 11
1497.8089804333699
 21
3967.7514201452232
 31
0.0
  0
LINE
  5
7D91
  8
1
 10
2394.8089804333699
 20
3904.7514201452232
 30
0.0
 11
1497.8089804333699
 21
3904.7514201452232
 31
0.0
  0
LINE
  5
7D92
  8
1
 10
2474.808980433369
 20
3884.7514201452241
 30
0.0
 11
2474.808980433369
 21
4006.7514201452232
 31
0.0
  0
LINE
  5
7D93
  8
1
 10
2394.8089804333699
 20
3904.7514201452232
 30
0.0
 11
2394.8089804333699
 21
3967.7514201452232
 31
0.0
  0
LINE
  5
7D94
  8
1
 10
2289.808980433369
 20
3967.7514201452232
 30
0.0
 11
2289.8089804333699
 21
3989.7514201452232
 31
0.0
  0
LINE
  5
7D95
  8
1
 10
2359.8089804333699
 20
3967.7514201452232
 30
0.0
 11
2359.8089804333699
 21
3989.7514201452232
 31
0.0
  0
LINE
  5
7D96
  8
1
 10
1751.808980433369
 20
3904.7514201452232
 30
0.0
 11
1751.808980433369
 21
3967.7514201452232
 31
0.0
  0
LINE
  5
7D97
  8
1
 10
2254.8089804333699
 20
3904.7514201452232
 30
0.0
 11
2254.8089804333699
 21
3967.7514201452232
 31
0.0
  0
LINE
  5
7D98
  8
1
 10
2359.8089804333699
 20
3989.7514201452232
 30
0.0
 11
2289.8089804333699
 21
3989.7514201452232
 31
0.0
  0
LINE
  5
7D99
  8
1
 10
1579.808980433369
 20
3967.7514201452232
 30
0.0
 11
1579.808980433369
 21
3987.7514201452232
 31
0.0
  0
LINE
  5
7D9A
  8
1
 10
1669.808980433369
 20
3967.7514201452232
 30
0.0
 11
1669.808980433369
 21
3987.7514201452232
 31
0.0
  0
LINE
  5
7D9B
  8
1
 10
1603.8089804333699
 20
3931.7514201452232
 30
0.0
 11
1603.8089804333699
 21
3987.7514201452241
 31
0.0
  0
LINE
  5
7D9C
  8
1
 10
1645.808980433369
 20
3931.7514201452232
 30
0.0
 11
1645.808980433369
 21
3987.7514201452241
 31
0.0
  0
LINE
  5
7D9D
  8
1
 10
1645.808980433369
 20
3931.7514201452232
 30
0.0
 11
1603.8089804333699
 21
3931.7514201452232
 31
0.0
  0
LINE
  5
7D9E
  8
1
 10
1669.808980433369
 20
3987.7514201452232
 30
0.0
 11
1579.808980433369
 21
3987.7514201452232
 31
0.0
  0
LINE
  5
7D9F
  8
1
 10
1497.8089804333699
 20
3904.7514201452232
 30
0.0
 11
1497.8089804333699
 21
3967.7514201452232
 31
0.0
  0
LINE
  5
7DA0
  8
1
 10
1404.8089804333699
 20
3884.7514201452232
 30
0.0
 11
1404.808980433369
 21
4006.7514201452232
 31
0.0
  0
LINE
  5
7DA1
  8
1
 10
2182.808980433369
 20
4423.2514201452232
 30
0.0
 11
2182.8089804333699
 21
4023.2514201452232
 31
0.0
  0
LINE
  5
7DA2
  8
1
 10
2466.8089804333699
 20
4423.2514201452232
 30
0.0
 11
2466.8089804333699
 21
4023.2514201452241
 31
0.0
  0
LINE
  5
7DA3
  8
1
 10
2305.8089804333699
 20
4023.2514201452241
 30
0.0
 11
2305.8089804333699
 21
3989.7514201452232
 31
0.0
  0
LINE
  5
7DA4
  8
1
 10
2343.8089804333699
 20
4023.2514201452241
 30
0.0
 11
2343.8089804333699
 21
3989.7514201452232
 31
0.0
  0
LINE
  5
7DA5
  8
1
 10
2466.8089804333699
 20
4423.2514201452232
 30
0.0
 11
2182.808980433369
 21
4423.2514201452232
 31
0.0
  0
LINE
  5
7DA6
  8
1
 10
2466.8089804333699
 20
4023.2514201452241
 30
0.0
 11
2182.8089804333699
 21
4023.2514201452232
 31
0.0
  0
LINE
  5
7DA7
  8
1
 10
3923.3508170324699
 20
2550.5924727692309
 30
0.0
 11
3523.3508170324699
 21
2550.5924727692309
 31
0.0
  0
LINE
  5
7DA8
  8
2
 10
3353.970575318433
 20
2408.59247276923
 30
0.0
 11
3968.3562732783121
 21
2408.59247276923
 31
0.0
  0
LINE
  5
7DA9
  8
1
 10
3923.3508170324699
 20
2266.5924727692309
 30
0.0
 11
3523.3508170324722
 21
2266.5924727692309
 31
0.0
  0
LINE
  5
7DAA
  8
1
 10
3523.3508170324708
 20
2266.5924727692309
 30
0.0
 11
3523.3508170324699
 21
2550.5924727692309
 31
0.0
  0
LINE
  5
7DAB
  8
1
 10
3523.3508170324708
 20
2389.5924727692309
 30
0.0
 11
3467.8508170324699
 21
2389.5924727692309
 31
0.0
  0
LINE
  5
7DAC
  8
1
 10
3523.3508170324708
 20
2427.5924727692309
 30
0.0
 11
3467.8508170324699
 21
2427.5924727692309
 31
0.0
  0
LINE
  5
7DAD
  8
1
 10
3923.3508170324708
 20
2266.5924727692309
 30
0.0
 11
3923.3508170324699
 21
2550.5924727692309
 31
0.0
  0
LINE
  5
7DAE
  8
1
 10
3528.3508170324708
 20
2550.5924727692309
 30
0.0
 11
3528.3508170324708
 21
2568.3924727692311
 31
0.0
  0
LINE
  5
7DAF
  8
1
 10
3878.350817032469
 20
2266.5924727692309
 30
0.0
 11
3878.350817032469
 21
2231.59247276923
 31
0.0
  0
LINE
  5
7DB0
  8
1
 10
3568.3508170324699
 20
2266.5924727692309
 30
0.0
 11
3568.350817032469
 21
2231.59247276923
 31
0.0
  0
LINE
  5
7DB1
  8
1
 10
2182.8089804333699
 20
4041.7514201452232
 30
0.0
 11
1649.8089804333699
 21
4041.7514201452232
 31
0.0
  0
LINE
  5
7DB2
  8
1
 10
1599.8089804333699
 20
4041.7514201452232
 30
0.0
 11
1374.8089804333699
 21
4041.7514201452232
 31
0.0
  0
LINE
  5
7FD5
  8
4
 10
4625.0
 20
1250.0
 30
0.0
 11
4625.0
 21
750.0
 31
0.0
  0
LINE
  5
7FD6
  8
4
 10
2875.0
 20
1250.0
 30
0.0
 11
2875.0
 21
750.0
 31
0.0
  0
LINE
  5
7FD7
  8
4
 10
1625.0
 20
1250.0
 30
0.0
 11
1625.0
 21
750.0
 31
0.0
  0
LINE
  5
7FDA
  8
4
 10
1625.0
 20
750.0
 30
0.0
 11
4625.0
 21
750.0
 31
0.0
  0
LINE
  5
7FDB
  8
4
 10
1625.0
 20
1000.0
 30
0.0
 11
4625.0
 21
1000.0
 31
0.0
  0
TEXT
  5
7FDC
  8
4
 10
1721.2552021172539
 20
1078.857564666532
 30
0.0
 40
125.0
  1
機器名称
  0
TEXT
  5
7FDD
  8
4
 10
1715.6452650619931
 20
804.11289183002725
 30
0.0
 40
125.0
  1
機器型番
  0
TEXT
  5
7FDE
  8
4
 10
2944.1968637191621
 20
1056.429422393921
 30
0.0
 40
105.0
  1
ミツヤリミットロ－ﾄﾞファン
  0
TEXT
  5
7FDF
  8
4
 10
2966.6362389637011
 20
792.89896069985843
 30
0.0
 40
125.0
  1
LL#3 1/2-1
  0
TEXT
  5
7FE1
  8
4
 10
2021.1373845861849
 20
5958.5721033312893
 30
0.0
 40
135.0
  1
床置ベット
  0
TEXT
  5
7FE2
  8
4
 10
740.41898332361586
 20
6334.7024404982449
 30
0.0
 40
180.0
  1
遠心式片吸込片持リミットロ－ﾄﾞファン
  0
LINE
  5
7FE3
  8
4
 10
625.0
 20
6173.5218856620122
 30
0.0
 11
4625.0
 21
6173.5218856620122
 31
0.0
  0
LINE
  5
7FE4
  8
4
 10
625.0
 20
6673.5218856620122
 30
0.0
 11
4625.0
 21
6673.5218856620122
 31
0.0
  0
LINE
  5
7FE5
  8
4
 10
1625.0
 20
1250.0
 30
0.0
 11
4625.0
 21
1250.0
 31
0.0
  0
LINE
  5
7FE6
  8
4
 10
625.0
 20
6673.5218856620122
 30
0.0
 11
625.0
 21
6173.5218856620122
 31
0.0
  0
TEXT
  5
7FE7
  8
4
 10
931.49030397942977
 20
5955.7986938658578
 30
0.0
 40
135.0
  1
左回転左横向
  0
TEXT
  5
7FE8
  8
4
 10
3672.4238981232238
 20
6765.1527037382721
 30
0.0
 40
140.0
  1
No.
  0
TEXT
  5
7FE9
  8
4
 10
3278.2401565000318
 20
5958.5721033312893
 30
0.0
 40
135.0
  1
縮尺：1/25
  0
LINE
  5
7FEA
  8
4
 10
4625.0
 20
6673.5218856620122
 30
0.0
 11
4625.0
 21
6173.5218856620122
 31
0.0
  0
LINE
  5
7FEB
  8
4
 10
5250.0
 20
7375.0
 30
0.0
 11
5250.0
 21
7375.0
 31
0.0
  0
LINE
  5
7FEC
  8
4
 10
3601.543555899661
 20
6703.1589578135026
 30
0.0
 11
3601.543555899661
 21
6966.6306538743811
 31
0.0
  0
LINE
  5
7FED
  8
4
 10
3601.543555899661
 20
6966.6306538743811
 30
0.0
 11
4625.0
 21
6966.6306538743811
 31
0.0
  0
LINE
  5
7FEE
  8
4
 10
4625.0
 20
6966.6306538743811
 30
0.0
 11
4625.0
 21
6703.1589578135026
 31
0.0
  0
LINE
  5
7FEF
  8
4
 10
4625.0
 20
6703.1589578135026
 30
0.0
 11
3601.543555899661
 21
6703.1589578135026
 31
0.0
  0
LINE
  5
7FF0
  8
4
 10
0.0
 20
0.0
 30
0.0
 11
0.0
 21
7375.0
 31
0.0
  0
LINE
  5
7FF1
  8
4
 10
0.0
 20
7375.0
 30
0.0
 11
5250.0
 21
7375.0
 31
0.0
  0
LINE
  5
7FF2
  8
4
 10
5250.0
 20
7375.0
 30
0.0
 11
5250.0
 21
0.0
 31
0.0
  0
LINE
  5
7FF3
  8
4
 10
5250.0
 20
0.0
 30
0.0
 11
0.0
 21
0.0
 31
0.0
  0
LINE
  5
8028
  8
1
 10
3506.8508170324699
 20
2776.8159677466028
 30
0.0
 11
3506.8508170324699
 21
2851.5924727692309
 31
0.0
  0
DIMENSION
  5
8041
  8
3
  2
*D17
 10
4550.3508170324703
 20
3511.8815013177468
 30
0.0
 11
4451.196381314905
 21
3577.6754973190141
 31
0.0
 70
   128
 13
4335.3508170324703
 23
3395.7866042382411
 33
0.0
 14
4550.3508170324703
 24
3231.5924727692309
 34
0.0
1001
ACAD
1000
DSTYLE
1002
{
1070
   288
1070
     1
1070
   172
1070
     1
1070
    75
1070
     1
1070
    40
1040
25.0
1070
   271
1070
     0
1070
   143
1040
0.039
1002
}
  0
DIMENSION
  5
80F6
  8
3
  2
*D18
 10
1624.808980433369
 20
2002.079797183
 30
0.0
 11
1499.8089804333699
 21
2064.5797971830002
 31
0.0
 70
     0
 13
1374.8089804333699
 23
2156.5924727692309
 33
0.0
 14
1624.808980433369
 24
2156.5924727692309
 34
0.0
1001
ACAD
1000
DSTYLE
1002
{
1070
   287
1070
     3
1070
    40
1040
25.0
1070
   143
1040
0.039
1070
   172
1070
     1
1070
   271
1070
     0
1070
   279
1070
     0
1002
}
  0
DIMENSION
  5
8103
  8
3
  2
*D19
 10
2524.8089804333699
 20
2002.079797183
 30
0.0
 11
2074.8089804333699
 21
2064.5797971830002
 31
0.0
 70
     0
 13
1624.808980433369
 23
2156.5924727692309
 33
0.0
 14
2524.8089804333699
 24
2156.5924727692309
 34
0.0
1001
ACAD
1000
DSTYLE
1002
{
1070
   287
1070
     3
1070
    40
1040
25.0
1070
   143
1040
0.039
1070
   172
1070
     1
1070
   271
1070
     0
1070
   279
1070
     0
1002
}
  0
DIMENSION
  5
8110
  8
3
  2
*D20
 10
4335.3508170324712
 20
2002.079797183
 30
0.0
 11
3912.8508170324699
 21
2064.5797971830002
 31
0.0
 70
     0
 13
3490.350817032469
 23
2156.5924727692309
 33
0.0
 14
4335.3508170324712
 24
2156.5924727692309
 34
0.0
1001
ACAD
1000
DSTYLE
1002
{
1070
   287
1070
     3
1070
    40
1040
25.0
1070
   143
1040
0.039
1070
   172
1070
     1
1070
   271
1070
     0
1070
   279
1070
     0
1002
}
  0
DIMENSION
  5
811F
  8
3
  2
*D21
 10
4590.3508170324703
 20
2002.079797183
 30
0.0
 11
4462.8508170324712
 21
2064.5797971830002
 31
0.0
 70
     0
 13
4335.3508170324712
 23
2156.5924727692309
 33
0.0
 14
4590.3508170324703
 24
2156.5924727692309
 34
0.0
1001
ACAD
1000
DSTYLE
1002
{
1070
   287
1070
     3
1070
    40
1040
25.0
1070
   143
1040
0.039
1070
   172
1070
     1
1070
   271
1070
     0
1070
   279
1070
     0
1002
}
  0
DIMENSION
  5
812C
  8
3
  2
*D22
 10
790.67397597960735
 20
2156.5924727692309
 30
0.0
 11
728.17397597960701
 21
2706.5924727692309
 31
0.0
 70
     0
 13
1234.8089804333699
 23
3256.5924727692309
 33
0.0
 14
1374.8089804333699
 24
2156.5924727692309
 34
0.0
 50
90.0
1001
ACAD
1000
DSTYLE
1002
{
1070
   287
1070
     3
1070
    40
1040
25.0
1070
   143
1040
0.039
1070
   172
1070
     1
1070
   271
1070
     0
1070
   279
1070
     0
1002
}
  0
ENDSEC
  0
EOF
