  0
SECTION
  2
HEADER
  9
$ACADVER
  1
AC1027
  9
$ACADMAINTVER
 70
   125
  9
$DWGCODEPAGE
  3
ANSI_932
  9
$LASTSAVEDBY
  1
yasukiyo.ogawa
  9
$REQUIREDVERSIONS
160
                 0
  9
$INSBASE
 10
0.0
 20
0.0
 30
0.0
  9
$EXTMIN
 10
0.0
 20
0.0
 30
0.0
  9
$EXTMAX
 10
4200.0
 20
5900.0
 30
0.0
  9
$LIMMIN
 10
0.0
 20
0.0
  9
$LIMMAX
 10
297.0
 20
210.0
  9
$ORTHOMODE
 70
     1
  9
$REGENMODE
 70
     1
  9
$FILLMODE
 70
     0
  9
$QTEXTMODE
 70
     0
  9
$MIRRTEXT
 70
     1
  9
$LTSCALE
 40
100.0
  9
$ATTMODE
 70
     1
  9
$TEXTSIZE
 40
180.0
  9
$TRACEWID
 40
0.05
  9
$TEXTSTYLE
  7
STANDARD
  9
$CLAYER
  8
3
  9
$CELTYPE
  6
BYLAYER
  9
$CECOLOR
 62
   256
  9
$CELTSCALE
 40
1.0
  9
$DISPSILH
 70
     0
  9
$DIMSCALE
 40
20.0
  9
$DIMASZ
 40
2.0
  9
$DIMEXO
 40
0.5
  9
$DIMDLI
 40
10.0
  9
$DIMRND
 40
0.0
  9
$DIMDLE
 40
0.0
  9
$DIMEXE
 40
1.0
  9
$DIMTP
 40
1.0
  9
$DIMTM
 40
1.0
  9
$DIMTXT
 40
3.0
  9
$DIMCEN
 40
0.0
  9
$DIMTSZ
 40
0.0
  9
$DIMTOL
 70
     0
  9
$DIMLIM
 70
     0
  9
$DIMTIH
 70
     0
  9
$DIMTOH
 70
     0
  9
$DIMSE1
 70
     0
  9
$DIMSE2
 70
     0
  9
$DIMTAD
 70
     1
  9
$DIMZIN
 70
     8
  9
$DIMBLK
  1

  9
$DIMASO
 70
     1
  9
$DIMSHO
 70
     1
  9
$DIMPOST
  1
(<>)
  9
$DIMAPOST
  1

  9
$DIMALT
 70
     0
  9
$DIMALTD
 70
     2
  9
$DIMALTF
 40
0.039
  9
$DIMLFAC
 40
1.0
  9
$DIMTOFL
 70
     1
  9
$DIMTVP
 40
0.0
  9
$DIMTIX
 70
     0
  9
$DIMSOXD
 70
     0
  9
$DIMSAH
 70
     1
  9
$DIMBLK1
  1
OPEN
  9
$DIMBLK2
  1
OPEN
  9
$DIMSTYLE
  2
IGA
  9
$DIMCLRD
 70
     0
  9
$DIMCLRE
 70
     0
  9
$DIMCLRT
 70
     0
  9
$DIMTFAC
 40
10.0
  9
$DIMGAP
 40
1.0
  9
$DIMJUST
 70
     0
  9
$DIMSD1
 70
     0
  9
$DIMSD2
 70
     0
  9
$DIMTOLJ
 70
     1
  9
$DIMTZIN
 70
     8
  9
$DIMALTZ
 70
     0
  9
$DIMALTTZ
 70
     0
  9
$DIMUPT
 70
     0
  9
$DIMDEC
 70
     0
  9
$DIMTDEC
 70
     0
  9
$DIMALTU
 70
     2
  9
$DIMALTTD
 70
     2
  9
$DIMTXSTY
  7
STANDARD
  9
$DIMAUNIT
 70
     0
  9
$DIMADEC
 70
     0
  9
$DIMALTRND
 40
0.0
  9
$DIMAZIN
 70
     0
  9
$DIMDSEP
 70
    46
  9
$DIMATFIT
 70
     3
  9
$DIMFRAC
 70
     0
  9
$DIMLDRBLK
  1
OPEN
  9
$DIMLUNIT
 70
     2
  9
$DIMLWD
 70
    -2
  9
$DIMLWE
 70
    -2
  9
$DIMTMOVE
 70
     2
  9
$DIMFXL
 40
1.0
  9
$DIMFXLON
 70
     0
  9
$DIMJOGANG
 40
0.7853981633974483
  9
$DIMTFILL
 70
     0
  9
$DIMTFILLCLR
 70
     0
  9
$DIMARCSYM
 70
     0
  9
$DIMLTYPE
  6

  9
$DIMLTEX1
  6

  9
$DIMLTEX2
  6

  9
$DIMTXTDIRECTION
 70
     0
  9
$LUNITS
 70
     2
  9
$LUPREC
 70
     3
  9
$SKETCHINC
 40
0.1
  9
$FILLETRAD
 40
50.0
  9
$AUNITS
 70
     0
  9
$AUPREC
 70
     0
  9
$MENU
  1
acad
  9
$ELEVATION
 40
0.0
  9
$PELEVATION
 40
0.0
  9
$THICKNESS
 40
0.0
  9
$LIMCHECK
 70
     0
  9
$CHAMFERA
 40
0.5
  9
$CHAMFERB
 40
0.5
  9
$CHAMFERC
 40
20.0
  9
$CHAMFERD
 40
0.0
  9
$SKPOLY
 70
     0
  9
$TDCREATE
 40
2451373.589803241
  9
$TDUCREATE
 40
2451373.214810070
  9
$TDUPDATE
 40
2460216.736655093
  9
$TDUUPDATE
 40
2460216.361658704
  9
$TDINDWG
 40
0.0239042940
  9
$TDUSRTIMER
 40
0.0239042940
  9
$USRTIMER
 70
     1
  9
$ANGBASE
 50
0.0
  9
$ANGDIR
 70
     0
  9
$PDMODE
 70
     0
  9
$PDSIZE
 40
0.0
  9
$PLINEWID
 40
0.0
  9
$SPLFRAME
 70
     0
  9
$SPLINETYPE
 70
     6
  9
$SPLINESEGS
 70
     8
  9
$HANDSEED
  5
8221
  9
$SURFTAB1
 70
     6
  9
$SURFTAB2
 70
     6
  9
$SURFTYPE
 70
     6
  9
$SURFU
 70
     6
  9
$SURFV
 70
     6
  9
$UCSBASE
  2

  9
$UCSNAME
  2

  9
$UCSORG
 10
0.0
 20
0.0
 30
0.0
  9
$UCSXDIR
 10
1.0
 20
0.0
 30
0.0
  9
$UCSYDIR
 10
0.0
 20
1.0
 30
0.0
  9
$UCSORTHOREF
  2

  9
$UCSORTHOVIEW
 70
     0
  9
$UCSORGTOP
 10
0.0
 20
0.0
 30
0.0
  9
$UCSORGBOTTOM
 10
0.0
 20
0.0
 30
0.0
  9
$UCSORGLEFT
 10
0.0
 20
0.0
 30
0.0
  9
$UCSORGRIGHT
 10
0.0
 20
0.0
 30
0.0
  9
$UCSORGFRONT
 10
0.0
 20
0.0
 30
0.0
  9
$UCSORGBACK
 10
0.0
 20
0.0
 30
0.0
  9
$PUCSBASE
  2

  9
$PUCSNAME
  2

  9
$PUCSORG
 10
0.0
 20
0.0
 30
0.0
  9
$PUCSXDIR
 10
1.0
 20
0.0
 30
0.0
  9
$PUCSYDIR
 10
0.0
 20
1.0
 30
0.0
  9
$PUCSORTHOREF
  2

  9
$PUCSORTHOVIEW
 70
     0
  9
$PUCSORGTOP
 10
0.0
 20
0.0
 30
0.0
  9
$PUCSORGBOTTOM
 10
0.0
 20
0.0
 30
0.0
  9
$PUCSORGLEFT
 10
0.0
 20
0.0
 30
0.0
  9
$PUCSORGRIGHT
 10
0.0
 20
0.0
 30
0.0
  9
$PUCSORGFRONT
 10
0.0
 20
0.0
 30
0.0
  9
$PUCSORGBACK
 10
0.0
 20
0.0
 30
0.0
  9
$USERI1
 70
     0
  9
$USERI2
 70
     0
  9
$USERI3
 70
     0
  9
$USERI4
 70
     0
  9
$USERI5
 70
     0
  9
$USERR1
 40
0.0
  9
$USERR2
 40
0.0
  9
$USERR3
 40
0.0
  9
$USERR4
 40
0.0
  9
$USERR5
 40
0.0
  9
$WORLDVIEW
 70
     1
  9
$SHADEDGE
 70
     3
  9
$SHADEDIF
 70
    70
  9
$TILEMODE
 70
     1
  9
$MAXACTVP
 70
    16
  9
$PINSBASE
 10
0.0
 20
0.0
 30
0.0
  9
$PLIMCHECK
 70
     0
  9
$PEXTMIN
 10
1.000000000000000E+20
 20
1.000000000000000E+20
 30
1.000000000000000E+20
  9
$PEXTMAX
 10
-1.000000000000000E+20
 20
-1.000000000000000E+20
 30
-1.000000000000000E+20
  9
$PLIMMIN
 10
0.0
 20
0.0
  9
$PLIMMAX
 10
12.0
 20
9.0
  9
$UNITMODE
 70
     0
  9
$VISRETAIN
 70
     0
  9
$PLINEGEN
 70
     0
  9
$PSLTSCALE
 70
     1
  9
$TREEDEPTH
 70
  3020
  9
$CMLSTYLE
  2
STANDARD
  9
$CMLJUST
 70
     0
  9
$CMLSCALE
 40
20.0
  9
$PROXYGRAPHICS
 70
     1
  9
$MEASUREMENT
 70
     1
  9
$CELWEIGHT
370
    -1
  9
$ENDCAPS
280
     0
  9
$JOINSTYLE
280
     0
  9
$LWDISPLAY
290
     0
  9
$INSUNITS
 70
     0
  9
$HYPERLINKBASE
  1

  9
$STYLESHEET
  1

  9
$XEDIT
290
     1
  9
$CEPSNTYPE
380
     0
  9
$PSTYLEMODE
290
     1
  9
$FINGERPRINTGUID
  2
{4AA38CBC-C0FB-4D25-B537-1B4AA33690C1}
  9
$VERSIONGUID
  2
{34E99DC7-11B8-4D9E-B2ED-CEFED016BCE7}
  9
$EXTNAMES
290
     1
  9
$PSVPSCALE
 40
0.0
  9
$OLESTARTUP
290
     0
  9
$SORTENTS
280
   127
  9
$INDEXCTL
280
     0
  9
$HIDETEXT
280
     0
  9
$XCLIPFRAME
280
     2
  9
$HALOGAP
280
     0
  9
$OBSCOLOR
 70
   257
  9
$OBSLTYPE
280
     0
  9
$INTERSECTIONDISPLAY
280
     0
  9
$INTERSECTIONCOLOR
 70
   257
  9
$DIMASSOC
280
     1
  9
$PROJECTNAME
  1

  9
$CAMERADISPLAY
290
     0
  9
$LENSLENGTH
 40
50.0
  9
$CAMERAHEIGHT
 40
0.0
  9
$STEPSPERSEC
 40
2.0
  9
$STEPSIZE
 40
6.0
  9
$3DDWFPREC
 40
2.0
  9
$PSOLWIDTH
 40
0.25
  9
$PSOLHEIGHT
 40
4.0
  9
$LOFTANG1
 40
1.570796326794896
  9
$LOFTANG2
 40
1.570796326794896
  9
$LOFTMAG1
 40
0.0
  9
$LOFTMAG2
 40
0.0
  9
$LOFTPARAM
 70
     7
  9
$LOFTNORMALS
280
     1
  9
$LATITUDE
 40
37.795
  9
$LONGITUDE
 40
-122.394
  9
$NORTHDIRECTION
 40
0.0
  9
$TIMEZONE
 70
 -8000
  9
$LIGHTGLYPHDISPLAY
280
     1
  9
$TILEMODELIGHTSYNCH
280
     1
  9
$CMATERIAL
347
8101
  9
$SOLIDHIST
280
     0
  9
$SHOWHIST
280
     1
  9
$DWFFRAME
280
     2
  9
$DGNFRAME
280
     0
  9
$REALWORLDSCALE
290
     1
  9
$INTERFERECOLOR
 62
     1
  9
$INTERFEREOBJVS
345
8123
  9
$INTERFEREVPVS
346
8120
  9
$CSHADOW
280
     0
  9
$SHADOWPLANELOCATION
 40
0.0
  0
ENDSEC
  0
SECTION
  2
CLASSES
  0
CLASS
  1
ACDBDICTIONARYWDFLT
  2
AcDbDictionaryWithDefault
  3
ObjectDBX Classes
 90
        0
 91
        1
280
     0
281
     0
  0
CLASS
  1
MATERIAL
  2
AcDbMaterial
  3
ObjectDBX Classes
 90
     1153
 91
        3
280
     0
281
     0
  0
CLASS
  1
VISUALSTYLE
  2
AcDbVisualStyle
  3
ObjectDBX Classes
 90
     4095
 91
       24
280
     0
281
     0
  0
CLASS
  1
TABLESTYLE
  2
AcDbTableStyle
  3
ObjectDBX Classes
 90
     4095
 91
        1
280
     0
281
     0
  0
CLASS
  1
SCALE
  2
AcDbScale
  3
ObjectDBX Classes
 90
     1153
 91
       17
280
     0
281
     0
  0
CLASS
  1
MLEADERSTYLE
  2
AcDbMLeaderStyle
  3
ACDB_MLEADERSTYLE_CLASS
 90
     4095
 91
        1
280
     0
281
     0
  0
CLASS
  1
ACDBSECTIONVIEWSTYLE
  2
AcDbSectionViewStyle
  3
ObjectDBX Classes
 90
     1025
 91
        1
280
     0
281
     0
  0
CLASS
  1
ACDBDETAILVIEWSTYLE
  2
AcDbDetailViewStyle
  3
ObjectDBX Classes
 90
     1025
 91
        1
280
     0
281
     0
  0
CLASS
  1
DICTIONARYVAR
  2
AcDbDictionaryVar
  3
ObjectDBX Classes
 90
        0
 91
       10
280
     0
281
     0
  0
CLASS
  1
CELLSTYLEMAP
  2
AcDbCellStyleMap
  3
ObjectDBX Classes
 90
     1152
 91
        1
280
     0
281
     0
  0
ENDSEC
  0
SECTION
  2
TABLES
  0
TABLE
  2
VPORT
  5
8
330
0
100
AcDbSymbolTable
 70
     1
1001
ACAD
1000
DbSaveVer
1071
      278
  0
VPORT
  5
80FE
330
8
100
AcDbSymbolTableRecord
100
AcDbViewportTableRecord
  2
*Active
 70
     0
 10
0.0
 20
0.0
 11
1.0
 21
1.0
 12
2694.113519327956
 22
2950.000013737006
 13
0.0
 23
0.0
 14
10.0
 24
10.0
 15
10.0
 25
10.0
 16
0.0
 26
0.0
 36
1.0
 17
0.0
 27
0.0
 37
0.0
 40
5938.142562752639
 41
2.250314465408805
 42
50.0
 43
0.0
 44
0.0
 50
0.0
 51
0.0
 71
     0
 72
   100
 73
     1
 74
     0
 75
     0
 76
     0
 77
     0
 78
     0
281
     0
 65
     1
110
0.0
120
0.0
130
0.0
111
1.0
121
0.0
131
0.0
112
0.0
122
1.0
132
0.0
 79
     0
146
0.0
348
811F
 60
     3
 61
     5
292
     1
282
     1
141
0.0
142
0.0
 63
   250
421
  3355443
1001
ACAD_NAV_VCDISPLAY
1070
     3
  0
ENDTAB
  0
TABLE
  2
LTYPE
  5
5
330
0
100
AcDbSymbolTable
 70
     2
  0
LTYPE
  5
13
330
5
100
AcDbSymbolTableRecord
100
AcDbLinetypeTableRecord
  2
BYBLOCK
 70
     0
  3

 72
    65
 73
     0
 40
0.0
  0
LTYPE
  5
14
330
5
100
AcDbSymbolTableRecord
100
AcDbLinetypeTableRecord
  2
BYLAYER
 70
     0
  3

 72
    65
 73
     0
 40
0.0
  0
LTYPE
  5
15
330
5
100
AcDbSymbolTableRecord
100
AcDbLinetypeTableRecord
  2
CONTINUOUS
 70
     0
  3
Solid line
 72
    65
 73
     0
 40
0.0
  0
LTYPE
  5
1F
330
5
100
AcDbSymbolTableRecord
100
AcDbLinetypeTableRecord
  2
CENTER
 70
     0
  3
____ _ ____ _ ____ _ ____ _ ____ _ ____ _ ____ 
 72
    65
 73
     4
 40
2.0
 49
1.25
 74
     0
 49
-0.25
 74
     0
 49
0.25
 74
     0
 49
-0.25
 74
     0
  0
ENDTAB
  0
TABLE
  2
LAYER
  5
2
102
{ACAD_XDICTIONARY
360
819F
102
}
330
0
100
AcDbSymbolTable
 70
     6
  0
LAYER
  5
F
102
{ACAD_XDICTIONARY
360
8192
102
}
330
2
100
AcDbSymbolTableRecord
100
AcDbLayerTableRecord
  2
0
 70
     0
 62
     7
  6
CONTINUOUS
370
    -3
390
80A3
347
8111
348
0
  0
LAYER
  5
31
102
{ACAD_XDICTIONARY
360
8194
102
}
330
2
100
AcDbSymbolTableRecord
100
AcDbLayerTableRecord
  2
3
 70
     0
 62
     2
  6
CONTINUOUS
370
    -3
390
80A3
347
8111
348
0
  0
LAYER
  5
76D0
102
{ACAD_XDICTIONARY
360
8196
102
}
330
2
100
AcDbSymbolTableRecord
100
AcDbLayerTableRecord
  2
2
 70
     0
 62
     3
  6
CENTER
370
    -3
390
80A3
347
8111
348
0
  0
LAYER
  5
76D1
102
{ACAD_XDICTIONARY
360
8198
102
}
330
2
100
AcDbSymbolTableRecord
100
AcDbLayerTableRecord
  2
1
 70
     0
 62
     4
  6
CONTINUOUS
370
    -3
390
80A3
347
8111
348
0
  0
LAYER
  5
76D2
102
{ACAD_XDICTIONARY
360
819A
102
}
330
2
100
AcDbSymbolTableRecord
100
AcDbLayerTableRecord
  2
4
 70
     0
 62
     7
  6
CONTINUOUS
370
    -3
390
80A3
347
8111
348
0
  0
LAYER
  5
7B32
330
2
100
AcDbSymbolTableRecord
100
AcDbLayerTableRecord
  2
DEFPOINTS
 70
     0
 62
     7
  6
CONTINUOUS
290
     0
370
    -3
390
80A3
347
8111
348
0
  0
ENDTAB
  0
TABLE
  2
STYLE
  5
3
330
0
100
AcDbSymbolTable
 70
     1
  0
STYLE
  5
10
330
3
100
AcDbSymbolTableRecord
100
AcDbTextStyleTableRecord
  2
STANDARD
 70
     0
 40
0.0
 41
1.0
 50
0.0
 71
     0
 42
180.0
  3
simplex.shx
  4
extfont.shx
  0
ENDTAB
  0
TABLE
  2
VIEW
  5
6
330
0
100
AcDbSymbolTable
 70
     0
  0
ENDTAB
  0
TABLE
  2
UCS
  5
7
330
0
100
AcDbSymbolTable
 70
     0
  0
ENDTAB
  0
TABLE
  2
APPID
  5
9
330
0
100
AcDbSymbolTable
 70
     4
  0
APPID
  5
11
330
9
100
AcDbSymbolTableRecord
100
AcDbRegAppTableRecord
  2
ACAD
 70
     0
  0
APPID
  5
8150
330
9
100
AcDbSymbolTableRecord
100
AcDbRegAppTableRecord
  2
AcadAnnoMonitorAlertIconDisabled
 70
     0
  0
APPID
  5
8151
330
9
100
AcDbSymbolTableRecord
100
AcDbRegAppTableRecord
  2
ACAD_EXEMPT_FROM_CAD_STANDARDS
 70
     0
  0
APPID
  5
81A5
330
9
100
AcDbSymbolTableRecord
100
AcDbRegAppTableRecord
  2
ACAD_NAV_VCDISPLAY
 70
     0
  0
ENDTAB
  0
TABLE
  2
DIMSTYLE
  5
A
330
0
100
AcDbSymbolTable
 70
     2
100
AcDbDimStyleTable
 71
     0
  0
DIMSTYLE
105
1D
102
{ACAD_REACTORS
330
7F4B
330
8040
330
804D
330
805A
330
8067
330
808D
330
809A
102
}
330
A
100
AcDbSymbolTableRecord
100
AcDbDimStyleTableRecord
  2
IGA
 70
     0
 40
2.0
 41
2.0
 42
0.5
 43
10.0
 44
1.0
 47
1.0
 48
1.0
 73
     0
 74
     0
 77
     1
 78
     8
140
3.0
141
0.0
143
0.03937
146
10.0
147
1.0
173
     1
271
     1
272
     0
279
     2
284
     8
340
10
341
79FC
343
79FC
344
79FC
  0
DIMSTYLE
105
7B34
102
{ACAD_REACTORS
330
7C12
330
7C13
330
7C33
330
7C40
330
7C47
330
7CB2
330
7CB9
330
7CBA
330
7CBB
330
7CBC
330
7CC3
330
7CC4
330
7CC7
330
7CC9
330
7CD4
102
}
330
A
100
AcDbSymbolTableRecord
100
AcDbDimStyleTableRecord
  2
MATSU
 70
     0
 41
2.0
 42
1.0
 43
10.0
 44
1.0
 73
     0
 74
     0
 77
     1
 78
     8
140
3.0
141
0.0
143
0.03937
147
0.5
172
     1
173
     1
176
   256
177
   256
178
   256
284
     8
289
     0
340
10
341
79FC
343
79FC
344
79FC
  0
ENDTAB
  0
TABLE
  2
BLOCK_RECORD
  5
1
330
0
100
AcDbSymbolTable
 70
    25
  0
BLOCK_RECORD
  5
19
102
{ACAD_XDICTIONARY
360
80D1
102
}
330
1
100
AcDbSymbolTableRecord
100
AcDbBlockTableRecord
  2
*MODEL_SPACE
340
80A6
 70
     0
280
     1
281
     0
  0
BLOCK_RECORD
  5
16
102
{ACAD_XDICTIONARY
360
80CF
102
}
330
1
100
AcDbSymbolTableRecord
100
AcDbBlockTableRecord
  2
*PAPER_SPACE
340
80A7
 70
     0
280
     1
281
     0
  0
BLOCK_RECORD
  5
79FC
330
1
100
AcDbSymbolTableRecord
100
AcDbBlockTableRecord
  2
_OPEN
340
0
102
{BLKREFS
331
80DB
331
80DC
331
80E3
331
80E4
331
7E99
331
7E9A
331
7EA4
331
7EA5
331
7EAF
331
7EB0
331
7EBA
331
7EBB
331
7EC5
331
7EC6
331
7ED0
331
7ED1
331
7EFA
331
7EFB
331
7DFB
331
7DFC
331
7E06
331
7E07
331
7E11
331
7E12
331
7E69
331
7E6A
331
8183
331
8184
331
818C
331
818D
331
81BB
331
81C3
331
81C4
331
81CC
331
81CD
331
81D5
331
81D6
331
81DE
331
81DF
331
81EC
331
81ED
102
}
 70
     0
280
     1
281
     0
  0
BLOCK_RECORD
  5
7CD5
330
1
100
AcDbSymbolTableRecord
100
AcDbBlockTableRecord
  2
*D1
340
0
 70
     0
280
     1
281
     0
  0
BLOCK_RECORD
  5
7CE1
330
1
100
AcDbSymbolTableRecord
100
AcDbBlockTableRecord
  2
*D2
340
0
 70
     0
280
     1
281
     0
  0
BLOCK_RECORD
  5
7CED
330
1
100
AcDbSymbolTableRecord
100
AcDbBlockTableRecord
  2
*D3
340
0
 70
     0
280
     1
281
     0
  0
BLOCK_RECORD
  5
7CF9
330
1
100
AcDbSymbolTableRecord
100
AcDbBlockTableRecord
  2
*D4
340
0
 70
     0
280
     1
281
     0
  0
BLOCK_RECORD
  5
7D4D
330
1
100
AcDbSymbolTableRecord
100
AcDbBlockTableRecord
  2
*D5
340
0
 70
     0
280
     1
281
     0
  0
BLOCK_RECORD
  5
7D75
330
1
100
AcDbSymbolTableRecord
100
AcDbBlockTableRecord
  2
*D6
340
0
 70
     0
280
     1
281
     0
  0
BLOCK_RECORD
  5
7D81
330
1
100
AcDbSymbolTableRecord
100
AcDbBlockTableRecord
  2
*D7
340
0
 70
     0
280
     1
281
     0
  0
BLOCK_RECORD
  5
7D8D
330
1
100
AcDbSymbolTableRecord
100
AcDbBlockTableRecord
  2
*D8
340
0
 70
     0
280
     1
281
     0
  0
BLOCK_RECORD
  5
7D99
330
1
100
AcDbSymbolTableRecord
100
AcDbBlockTableRecord
  2
*D9
340
0
 70
     0
280
     1
281
     0
  0
BLOCK_RECORD
  5
7DA5
330
1
100
AcDbSymbolTableRecord
100
AcDbBlockTableRecord
  2
*D10
340
0
 70
     0
280
     1
281
     0
  0
BLOCK_RECORD
  5
7DB1
330
1
100
AcDbSymbolTableRecord
100
AcDbBlockTableRecord
  2
*D11
340
0
 70
     0
280
     1
281
     0
  0
BLOCK_RECORD
  5
7DBD
330
1
100
AcDbSymbolTableRecord
100
AcDbBlockTableRecord
  2
*D12
340
0
 70
     0
280
     1
281
     0
  0
BLOCK_RECORD
  5
7DC9
330
1
100
AcDbSymbolTableRecord
100
AcDbBlockTableRecord
  2
*D13
340
0
 70
     0
280
     1
281
     0
  0
BLOCK_RECORD
  5
7DE0
330
1
100
AcDbSymbolTableRecord
100
AcDbBlockTableRecord
  2
*D14
340
0
 70
     0
280
     1
281
     0
  0
BLOCK_RECORD
  5
7DEB
330
1
100
AcDbSymbolTableRecord
100
AcDbBlockTableRecord
  2
*D15
340
0
 70
     0
280
     1
281
     0
  0
BLOCK_RECORD
  5
7F3C
330
1
100
AcDbSymbolTableRecord
100
AcDbBlockTableRecord
  2
*D16
340
0
 70
     0
280
     1
281
     0
  0
BLOCK_RECORD
  5
7FA0
330
1
100
AcDbSymbolTableRecord
100
AcDbBlockTableRecord
  2
_DOT
340
0
102
{BLKREFS
331
81BA
102
}
 70
     0
280
     1
281
     0
  0
BLOCK_RECORD
  5
8034
330
1
100
AcDbSymbolTableRecord
100
AcDbBlockTableRecord
  2
*D18
340
0
 70
     0
280
     1
281
     0
  0
BLOCK_RECORD
  5
8041
330
1
100
AcDbSymbolTableRecord
100
AcDbBlockTableRecord
  2
*D19
340
0
 70
     0
280
     1
281
     0
  0
BLOCK_RECORD
  5
804E
330
1
100
AcDbSymbolTableRecord
100
AcDbBlockTableRecord
  2
*D20
340
0
 70
     0
280
     1
281
     0
  0
BLOCK_RECORD
  5
805B
330
1
100
AcDbSymbolTableRecord
100
AcDbBlockTableRecord
  2
*D21
340
0
 70
     0
280
     1
281
     0
  0
BLOCK_RECORD
  5
8068
330
1
100
AcDbSymbolTableRecord
100
AcDbBlockTableRecord
  2
_NONE
340
0
 70
     0
280
     1
281
     0
  0
BLOCK_RECORD
  5
8085
330
1
100
AcDbSymbolTableRecord
100
AcDbBlockTableRecord
  2
*D23
340
0
 70
     0
280
     1
281
     0
  0
BLOCK_RECORD
  5
808E
330
1
100
AcDbSymbolTableRecord
100
AcDbBlockTableRecord
  2
*D24
340
0
 70
     0
280
     1
281
     0
  0
ENDTAB
  0
ENDSEC
  0
SECTION
  2
BLOCKS
  0
BLOCK
  5
1A
330
19
100
AcDbEntity
  8
0
100
AcDbBlockBegin
  2
*MODEL_SPACE
 70
     0
 10
0.0
 20
0.0
 30
0.0
  3
*MODEL_SPACE
  1

  0
ENDBLK
  5
1B
330
19
100
AcDbEntity
  8
0
100
AcDbBlockEnd
  0
BLOCK
  5
17
330
16
100
AcDbEntity
 67
     1
  8
0
100
AcDbBlockBegin
  2
*PAPER_SPACE
 70
     0
 10
0.0
 20
0.0
 30
0.0
  3
*PAPER_SPACE
  1

  0
ENDBLK
  5
18
330
16
100
AcDbEntity
 67
     1
  8
0
100
AcDbBlockEnd
  0
BLOCK
  5
7A00
330
79FC
100
AcDbEntity
  8
0
100
AcDbBlockBegin
  2
_OPEN
 70
     0
 10
0.0
 20
0.0
 30
0.0
  3
_OPEN
  1

  0
LINE
  5
79FD
330
79FC
100
AcDbEntity
  8
0
  6
ByBlock
 62
     0
100
AcDbLine
 10
-1.0
 20
0.1666666666666666
 30
0.0
 11
0.0
 21
0.0
 31
0.0
  0
LINE
  5
79FE
330
79FC
100
AcDbEntity
  8
0
  6
ByBlock
 62
     0
100
AcDbLine
 10
0.0
 20
0.0
 30
0.0
 11
-1.0
 21
-0.1666666666666666
 31
0.0
  0
LINE
  5
79FF
330
79FC
100
AcDbEntity
  8
0
  6
ByBlock
 62
     0
100
AcDbLine
 10
0.0
 20
0.0
 30
0.0
 11
-1.0
 21
0.0
 31
0.0
  0
ENDBLK
  5
7A01
330
79FC
100
AcDbEntity
  8
0
100
AcDbBlockEnd
  0
BLOCK
  5
7DF7
330
7CD5
100
AcDbEntity
  8
0
100
AcDbBlockBegin
  2
*D1
 70
     1
 10
0.0
 20
0.0
 30
0.0
  3
*D1
  1

  0
LINE
  5
7DF8
330
7CD5
100
AcDbEntity
  8
0
  6
ByBlock
440
 16777216
100
AcDbLine
 10
2381.353874574065
 20
1733.738013274415
 30
0.0
 11
2381.353874574065
 21
1879.895956148017
 31
0.0
  0
LINE
  5
7DF9
330
7CD5
100
AcDbEntity
  8
0
  6
ByBlock
440
 16777216
100
AcDbLine
 10
1869.353874574065
 20
1733.738013274415
 30
0.0
 11
1869.353874574065
 21
1879.895956148017
 31
0.0
  0
LINE
  5
7DFA
330
7CD5
100
AcDbEntity
  8
0
  6
ByBlock
440
 16777216
100
AcDbLine
 10
2341.353874574065
 20
1859.895956148017
 30
0.0
 11
1909.353874574065
 21
1859.895956148017
 31
0.0
  0
INSERT
  5
7DFB
330
7CD5
100
AcDbEntity
  8
0
  6
ByBlock
440
 16777216
100
AcDbBlockReference
  2
_OPEN
 10
2381.353874574065
 20
1859.895956148017
 30
0.0
 41
40.0
 42
40.0
 43
40.0
  0
INSERT
  5
7DFC
330
7CD5
100
AcDbEntity
  8
0
  6
ByBlock
440
 16777216
100
AcDbBlockReference
  2
_OPEN
 10
1869.353874574065
 20
1859.895956148017
 30
0.0
 41
40.0
 42
40.0
 43
40.0
 50
180.0
  0
MTEXT
  5
7DFD
330
7CD5
100
AcDbEntity
  8
0
  6
ByBlock
440
 16777216
100
AcDbMText
 10
2125.353874574065
 20
1899.895956148017
 30
0.0
 40
60.0
 41
0.0
 46
0.0
 71
     5
 72
     5
  1
\A1;512
 73
     1
 44
1.0
  0
POINT
  5
7DFE
330
7CD5
100
AcDbEntity
  8
DEFPOINTS
  6
ByBlock
 62
     0
440
 16777216
100
AcDbPoint
 10
2381.353874574065
 20
1713.738013274415
 30
0.0
  0
POINT
  5
7DFF
330
7CD5
100
AcDbEntity
  8
DEFPOINTS
  6
ByBlock
 62
     0
440
 16777216
100
AcDbPoint
 10
1869.353874574065
 20
1713.738013274415
 30
0.0
  0
POINT
  5
7E00
330
7CD5
100
AcDbEntity
  8
DEFPOINTS
  6
ByBlock
 62
     0
440
 16777216
100
AcDbPoint
 10
1869.353874574065
 20
1859.895956148017
 30
0.0
  0
ENDBLK
  5
7E01
330
7CD5
100
AcDbEntity
  8
0
100
AcDbBlockEnd
  0
BLOCK
  5
7E02
330
7CE1
100
AcDbEntity
  8
0
100
AcDbBlockBegin
  2
*D2
 70
     1
 10
0.0
 20
0.0
 30
0.0
  3
*D2
  1

  0
LINE
  5
7E03
330
7CE1
100
AcDbEntity
  8
0
  6
ByBlock
440
 16777216
100
AcDbLine
 10
1869.353874574065
 20
1733.738013274415
 30
0.0
 11
1869.353874574065
 21
1975.282319747928
 31
0.0
  0
LINE
  5
7E04
330
7CE1
100
AcDbEntity
  8
0
  6
ByBlock
440
 16777216
100
AcDbLine
 10
2407.353874574065
 20
1754.228207278293
 30
0.0
 11
2407.353874574065
 21
1975.282319747928
 31
0.0
  0
LINE
  5
7E05
330
7CE1
100
AcDbEntity
  8
0
  6
ByBlock
440
 16777216
100
AcDbLine
 10
1909.353874574065
 20
1955.282319747928
 30
0.0
 11
2367.353874574065
 21
1955.282319747928
 31
0.0
  0
INSERT
  5
7E06
330
7CE1
100
AcDbEntity
  8
0
  6
ByBlock
440
 16777216
100
AcDbBlockReference
  2
_OPEN
 10
1869.353874574065
 20
1955.282319747928
 30
0.0
 41
40.0
 42
40.0
 43
40.0
 50
180.0
  0
INSERT
  5
7E07
330
7CE1
100
AcDbEntity
  8
0
  6
ByBlock
440
 16777216
100
AcDbBlockReference
  2
_OPEN
 10
2407.353874574065
 20
1955.282319747928
 30
0.0
 41
40.0
 42
40.0
 43
40.0
  0
MTEXT
  5
7E08
330
7CE1
100
AcDbEntity
  8
0
  6
ByBlock
440
 16777216
100
AcDbMText
 10
2138.353874574065
 20
1995.282319747928
 30
0.0
 40
60.0
 41
0.0
 46
0.0
 71
     5
 72
     5
  1
\A1;538
 73
     1
 44
1.0
  0
POINT
  5
7E09
330
7CE1
100
AcDbEntity
  8
DEFPOINTS
  6
ByBlock
 62
     0
440
 16777216
100
AcDbPoint
 10
1869.353874574065
 20
1713.738013274415
 30
0.0
  0
POINT
  5
7E0A
330
7CE1
100
AcDbEntity
  8
DEFPOINTS
  6
ByBlock
 62
     0
440
 16777216
100
AcDbPoint
 10
2407.353874574065
 20
1734.228207278293
 30
0.0
  0
POINT
  5
7E0B
330
7CE1
100
AcDbEntity
  8
DEFPOINTS
  6
ByBlock
 62
     0
440
 16777216
100
AcDbPoint
 10
2407.353874574065
 20
1955.282319747928
 30
0.0
  0
ENDBLK
  5
7E0C
330
7CE1
100
AcDbEntity
  8
0
100
AcDbBlockEnd
  0
BLOCK
  5
7E0D
330
7CED
100
AcDbEntity
  8
0
100
AcDbBlockBegin
  2
*D3
 70
     1
 10
0.0
 20
0.0
 30
0.0
  3
*D3
  1

  0
LINE
  5
7E0E
330
7CED
100
AcDbEntity
  8
0
  6
ByBlock
440
 16777216
100
AcDbLine
 10
3534.715630230972
 20
1733.738013274415
 30
0.0
 11
3534.715630230972
 21
1859.030767319659
 31
0.0
  0
LINE
  5
7E0F
330
7CED
100
AcDbEntity
  8
0
  6
ByBlock
440
 16777216
100
AcDbLine
 10
4204.715630230971
 20
1733.738013274415
 30
0.0
 11
4204.715630230971
 21
1859.030767319659
 31
0.0
  0
LINE
  5
7E10
330
7CED
100
AcDbEntity
  8
0
  6
ByBlock
440
 16777216
100
AcDbLine
 10
3574.715630230971
 20
1839.030767319659
 30
0.0
 11
4164.715630230971
 21
1839.030767319659
 31
0.0
  0
INSERT
  5
7E11
330
7CED
100
AcDbEntity
  8
0
  6
ByBlock
440
 16777216
100
AcDbBlockReference
  2
_OPEN
 10
3534.715630230972
 20
1839.030767319659
 30
0.0
 41
40.0
 42
40.0
 43
40.0
 50
180.0
  0
INSERT
  5
7E12
330
7CED
100
AcDbEntity
  8
0
  6
ByBlock
440
 16777216
100
AcDbBlockReference
  2
_OPEN
 10
4204.715630230971
 20
1839.030767319659
 30
0.0
 41
40.0
 42
40.0
 43
40.0
  0
MTEXT
  5
7E13
330
7CED
100
AcDbEntity
  8
0
  6
ByBlock
440
 16777216
100
AcDbMText
 10
3869.715630230972
 20
1879.030767319659
 30
0.0
 40
60.0
 41
0.0
 46
0.0
 71
     5
 72
     5
  1
\A1;670
 73
     1
 44
1.0
  0
POINT
  5
7E14
330
7CED
100
AcDbEntity
  8
DEFPOINTS
  6
ByBlock
 62
     0
440
 16777216
100
AcDbPoint
 10
3534.715630230972
 20
1713.738013274415
 30
0.0
  0
POINT
  5
7E15
330
7CED
100
AcDbEntity
  8
DEFPOINTS
  6
ByBlock
 62
     0
440
 16777216
100
AcDbPoint
 10
4204.715630230971
 20
1713.738013274415
 30
0.0
  0
POINT
  5
7E16
330
7CED
100
AcDbEntity
  8
DEFPOINTS
  6
ByBlock
 62
     0
440
 16777216
100
AcDbPoint
 10
4204.715630230971
 20
1839.030767319659
 30
0.0
  0
ENDBLK
  5
7E17
330
7CED
100
AcDbEntity
  8
0
100
AcDbBlockEnd
  0
BLOCK
  5
7E18
330
7CF9
100
AcDbEntity
  8
0
100
AcDbBlockBegin
  2
*D4
 70
     1
 10
0.0
 20
0.0
 30
0.0
  3
*D4
  1

  0
LINE
  5
8180
330
7CF9
100
AcDbEntity
  8
3
440
 16777216
370
    -2
100
AcDbLine
 10
3391.480437000265
 20
2028.275576062918
 30
0.0
 11
3391.480437000265
 21
2776.678844086982
 31
0.0
  0
LINE
  5
8181
330
7CF9
100
AcDbEntity
  8
3
440
 16777216
370
    -2
100
AcDbLine
 10
2961.480437000265
 20
2741.196663374927
 30
0.0
 11
2961.480437000265
 21
2776.678844086982
 31
0.0
  0
LINE
  5
8182
330
7CF9
100
AcDbEntity
  8
3
440
 16777216
370
    -2
100
AcDbLine
 10
3351.480437000265
 20
2756.678844086982
 30
0.0
 11
3001.480437000265
 21
2756.678844086982
 31
0.0
  0
INSERT
  5
8183
330
7CF9
100
AcDbEntity
  8
3
440
 16777216
370
    -2
100
AcDbBlockReference
  2
_OPEN
 10
3391.480437000265
 20
2756.678844086982
 30
0.0
 41
40.0
 42
40.0
 43
40.0
  0
INSERT
  5
8184
330
7CF9
100
AcDbEntity
  8
3
440
 16777216
370
    -2
100
AcDbBlockReference
  2
_OPEN
 10
2961.480437000265
 20
2756.678844086982
 30
0.0
 41
40.0
 42
40.0
 43
40.0
 50
180.0
  0
MTEXT
  5
8185
330
7CF9
100
AcDbEntity
  8
3
440
 16777216
100
AcDbMText
 10
3176.480437000265
 20
2812.393129801268
 30
0.0
 40
60.0
 41
0.0
 46
0.0
 71
     5
 72
     1
  1
\A1;(430)
 73
     1
 44
1.0
  0
POINT
  5
8186
330
7CF9
100
AcDbEntity
  8
DEFPOINTS
 62
     0
440
 16777216
100
AcDbPoint
 10
3391.480437000265
 20
2008.275576062918
 30
0.0
  0
POINT
  5
8187
330
7CF9
100
AcDbEntity
  8
DEFPOINTS
 62
     0
440
 16777216
100
AcDbPoint
 10
2961.480437000265
 20
2721.196663374927
 30
0.0
  0
POINT
  5
8188
330
7CF9
100
AcDbEntity
  8
DEFPOINTS
 62
     0
440
 16777216
100
AcDbPoint
 10
2961.480437000265
 20
2756.678844086982
 30
0.0
  0
ENDBLK
  5
7E22
330
7CF9
100
AcDbEntity
  8
0
100
AcDbBlockEnd
  0
BLOCK
  5
7E65
330
7D4D
100
AcDbEntity
  8
0
100
AcDbBlockBegin
  2
*D5
 70
     1
 10
0.0
 20
0.0
 30
0.0
  3
*D5
  1

  0
LINE
  5
7E66
330
7D4D
100
AcDbEntity
  8
0
  6
ByBlock
440
 16777216
100
AcDbLine
 10
2807.844068577943
 20
1353.738013274415
 30
0.0
 11
3028.898181047578
 21
1353.738013274415
 31
0.0
  0
LINE
  5
7E67
330
7D4D
100
AcDbEntity
  8
0
  6
ByBlock
440
 16777216
100
AcDbLine
 10
2742.353874574064
 20
853.7380132744152
 30
0.0
 11
3028.898181047578
 21
853.7380132744152
 31
0.0
  0
LINE
  5
7E68
330
7D4D
100
AcDbEntity
  8
0
  6
ByBlock
440
 16777216
100
AcDbLine
 10
3008.898181047578
 20
1313.738013274415
 30
0.0
 11
3008.898181047578
 21
893.738013274415
 31
0.0
  0
INSERT
  5
7E69
330
7D4D
100
AcDbEntity
  8
0
  6
ByBlock
440
 16777216
100
AcDbBlockReference
  2
_OPEN
 10
3008.898181047578
 20
1353.738013274415
 30
0.0
 41
40.0
 42
40.0
 43
40.0
 50
90.0
  0
INSERT
  5
7E6A
330
7D4D
100
AcDbEntity
  8
0
  6
ByBlock
440
 16777216
100
AcDbBlockReference
  2
_OPEN
 10
3008.898181047578
 20
853.7380132744152
 30
0.0
 41
40.0
 42
40.0
 43
40.0
 50
270.0
  0
MTEXT
  5
7E6B
330
7D4D
100
AcDbEntity
  8
0
  6
ByBlock
440
 16777216
100
AcDbMText
 10
2968.898181047578
 20
1103.738013274415
 30
0.0
 40
60.0
 41
0.0
 46
0.0
 71
     5
 72
     5
  1
\A1;500
 11
0.0
 21
1.0
 31
0.0
 73
     1
 44
1.0
  0
POINT
  5
7E6C
330
7D4D
100
AcDbEntity
  8
DEFPOINTS
  6
ByBlock
 62
     0
440
 16777216
100
AcDbPoint
 10
2787.844068577943
 20
1353.738013274415
 30
0.0
  0
POINT
  5
7E6D
330
7D4D
100
AcDbEntity
  8
DEFPOINTS
  6
ByBlock
 62
     0
440
 16777216
100
AcDbPoint
 10
2722.353874574065
 20
853.7380132744152
 30
0.0
  0
POINT
  5
7E6E
330
7D4D
100
AcDbEntity
  8
DEFPOINTS
  6
ByBlock
 62
     0
440
 16777216
100
AcDbPoint
 10
3008.898181047578
 20
853.7380132744152
 30
0.0
  0
ENDBLK
  5
7E6F
330
7D4D
100
AcDbEntity
  8
0
100
AcDbBlockEnd
  0
BLOCK
  5
801D
330
7D75
100
AcDbEntity
  8
0
100
AcDbBlockBegin
  2
*D6
 70
     1
 10
0.0
 20
0.0
 30
0.0
  3
*D6
  1

  0
LINE
  5
8189
330
7D75
100
AcDbEntity
  8
3
440
 16777216
370
    -2
100
AcDbLine
 10
2961.480437000265
 20
2741.196663374927
 30
0.0
 11
2961.480437000265
 21
2776.678844086982
 31
0.0
  0
LINE
  5
818A
330
7D75
100
AcDbEntity
  8
3
440
 16777216
370
    -2
100
AcDbLine
 10
2301.480437000265
 20
2304.775576062918
 30
0.0
 11
2301.480437000265
 21
2776.678844086982
 31
0.0
  0
LINE
  5
818B
330
7D75
100
AcDbEntity
  8
3
440
 16777216
370
    -2
100
AcDbLine
 10
2921.480437000265
 20
2756.678844086982
 30
0.0
 11
2341.480437000265
 21
2756.678844086982
 31
0.0
  0
INSERT
  5
818C
330
7D75
100
AcDbEntity
  8
3
440
 16777216
370
    -2
100
AcDbBlockReference
  2
_OPEN
 10
2961.480437000265
 20
2756.678844086982
 30
0.0
 41
40.0
 42
40.0
 43
40.0
  0
INSERT
  5
818D
330
7D75
100
AcDbEntity
  8
3
440
 16777216
370
    -2
100
AcDbBlockReference
  2
_OPEN
 10
2301.480437000265
 20
2756.678844086982
 30
0.0
 41
40.0
 42
40.0
 43
40.0
 50
180.0
  0
MTEXT
  5
818E
330
7D75
100
AcDbEntity
  8
3
440
 16777216
100
AcDbMText
 10
2631.480437000265
 20
2812.393129801268
 30
0.0
 40
60.0
 41
0.0
 46
0.0
 71
     5
 72
     1
  1
\A1;(660)
 73
     1
 44
1.0
  0
POINT
  5
818F
330
7D75
100
AcDbEntity
  8
DEFPOINTS
 62
     0
440
 16777216
100
AcDbPoint
 10
2961.480437000265
 20
2721.196663374927
 30
0.0
  0
POINT
  5
8190
330
7D75
100
AcDbEntity
  8
DEFPOINTS
 62
     0
440
 16777216
100
AcDbPoint
 10
2301.480437000265
 20
2284.775576062918
 30
0.0
  0
POINT
  5
8191
330
7D75
100
AcDbEntity
  8
DEFPOINTS
 62
     0
440
 16777216
100
AcDbPoint
 10
2301.480437000265
 20
2756.678844086982
 30
0.0
  0
ENDBLK
  5
8027
330
7D75
100
AcDbEntity
  8
0
100
AcDbBlockEnd
  0
BLOCK
  5
7E95
330
7D81
100
AcDbEntity
  8
0
100
AcDbBlockBegin
  2
*D7
 70
     1
 10
0.0
 20
0.0
 30
0.0
  3
*D7
  1

  0
LINE
  5
7E96
330
7D81
100
AcDbEntity
  8
0
  6
ByBlock
440
 16777216
100
AcDbLine
 10
2742.353874574065
 20
3495.293972495946
 30
0.0
 11
2968.806814828646
 21
3495.293972495946
 31
0.0
  0
LINE
  5
7E97
330
7D81
100
AcDbEntity
  8
0
  6
ByBlock
440
 16777216
100
AcDbLine
 10
2742.353874574065
 20
2655.293972495946
 30
0.0
 11
2968.806814828646
 21
2655.293972495946
 31
0.0
  0
LINE
  5
7E98
330
7D81
100
AcDbEntity
  8
0
  6
ByBlock
440
 16777216
100
AcDbLine
 10
2948.806814828646
 20
3455.293972495946
 30
0.0
 11
2948.806814828646
 21
2695.293972495946
 31
0.0
  0
INSERT
  5
7E99
330
7D81
100
AcDbEntity
  8
0
  6
ByBlock
440
 16777216
100
AcDbBlockReference
  2
_OPEN
 10
2948.806814828646
 20
3495.293972495946
 30
0.0
 41
40.0
 42
40.0
 43
40.0
 50
90.0
  0
INSERT
  5
7E9A
330
7D81
100
AcDbEntity
  8
0
  6
ByBlock
440
 16777216
100
AcDbBlockReference
  2
_OPEN
 10
2948.806814828646
 20
2655.293972495946
 30
0.0
 41
40.0
 42
40.0
 43
40.0
 50
270.0
  0
MTEXT
  5
7E9B
330
7D81
100
AcDbEntity
  8
0
  6
ByBlock
440
 16777216
100
AcDbMText
 10
2908.806814828646
 20
3075.293972495946
 30
0.0
 40
60.0
 41
0.0
 46
0.0
 71
     5
 72
     5
  1
\A1;840
 11
0.0
 21
1.0
 31
0.0
 73
     1
 44
1.0
  0
POINT
  5
7E9C
330
7D81
100
AcDbEntity
  8
DEFPOINTS
  6
ByBlock
 62
     0
440
 16777216
100
AcDbPoint
 10
2722.353874574065
 20
3495.293972495946
 30
0.0
  0
POINT
  5
7E9D
330
7D81
100
AcDbEntity
  8
DEFPOINTS
  6
ByBlock
 62
     0
440
 16777216
100
AcDbPoint
 10
2722.353874574065
 20
2655.293972495946
 30
0.0
  0
POINT
  5
7E9E
330
7D81
100
AcDbEntity
  8
DEFPOINTS
  6
ByBlock
 62
     0
440
 16777216
100
AcDbPoint
 10
2948.806814828646
 20
2655.293972495946
 30
0.0
  0
ENDBLK
  5
7E9F
330
7D81
100
AcDbEntity
  8
0
100
AcDbBlockEnd
  0
BLOCK
  5
7EA0
330
7D8D
100
AcDbEntity
  8
0
100
AcDbBlockBegin
  2
*D8
 70
     1
 10
0.0
 20
0.0
 30
0.0
  3
*D8
  1

  0
LINE
  5
7EA1
330
7D8D
100
AcDbEntity
  8
0
  6
ByBlock
440
 16777216
100
AcDbLine
 10
1562.353874574064
 20
3255.293972495946
 30
0.0
 11
1376.753241416491
 21
3255.293972495946
 31
0.0
  0
LINE
  5
7EA2
330
7D8D
100
AcDbEntity
  8
0
  6
ByBlock
440
 16777216
100
AcDbLine
 10
1562.353874574065
 20
2655.293972495946
 30
0.0
 11
1376.753241416491
 21
2655.293972495946
 31
0.0
  0
LINE
  5
7EA3
330
7D8D
100
AcDbEntity
  8
0
  6
ByBlock
440
 16777216
100
AcDbLine
 10
1396.75324141649
 20
3215.293972495946
 30
0.0
 11
1396.75324141649
 21
2695.293972495946
 31
0.0
  0
INSERT
  5
7EA4
330
7D8D
100
AcDbEntity
  8
0
  6
ByBlock
440
 16777216
100
AcDbBlockReference
  2
_OPEN
 10
1396.75324141649
 20
3255.293972495946
 30
0.0
 41
40.0
 42
40.0
 43
40.0
 50
90.0
  0
INSERT
  5
7EA5
330
7D8D
100
AcDbEntity
  8
0
  6
ByBlock
440
 16777216
100
AcDbBlockReference
  2
_OPEN
 10
1396.75324141649
 20
2655.293972495946
 30
0.0
 41
40.0
 42
40.0
 43
40.0
 50
270.0
  0
MTEXT
  5
7EA6
330
7D8D
100
AcDbEntity
  8
0
  6
ByBlock
440
 16777216
100
AcDbMText
 10
1356.75324141649
 20
2955.293972495946
 30
0.0
 40
60.0
 41
0.0
 46
0.0
 71
     5
 72
     5
  1
\A1;600
 11
0.0
 21
1.0
 31
0.0
 73
     1
 44
1.0
  0
POINT
  5
7EA7
330
7D8D
100
AcDbEntity
  8
DEFPOINTS
  6
ByBlock
 62
     0
440
 16777216
100
AcDbPoint
 10
1582.353874574064
 20
3255.293972495946
 30
0.0
  0
POINT
  5
7EA8
330
7D8D
100
AcDbEntity
  8
DEFPOINTS
  6
ByBlock
 62
     0
440
 16777216
100
AcDbPoint
 10
1582.353874574065
 20
2655.293972495946
 30
0.0
  0
POINT
  5
7EA9
330
7D8D
100
AcDbEntity
  8
DEFPOINTS
  6
ByBlock
 62
     0
440
 16777216
100
AcDbPoint
 10
1396.75324141649
 20
2655.293972495946
 30
0.0
  0
ENDBLK
  5
7EAA
330
7D8D
100
AcDbEntity
  8
0
100
AcDbBlockEnd
  0
BLOCK
  5
7EAB
330
7D99
100
AcDbEntity
  8
0
100
AcDbBlockBegin
  2
*D9
 70
     1
 10
0.0
 20
0.0
 30
0.0
  3
*D9
  1

  0
LINE
  5
7EAC
330
7D99
100
AcDbEntity
  8
0
  6
ByBlock
440
 16777216
100
AcDbLine
 10
1582.353874574065
 20
2635.293972495946
 30
0.0
 11
1582.353874574065
 21
2357.800794208676
 31
0.0
  0
LINE
  5
7EAD
330
7D99
100
AcDbEntity
  8
0
  6
ByBlock
440
 16777216
100
AcDbLine
 10
2722.353874574065
 20
2635.293972495946
 30
0.0
 11
2722.353874574065
 21
2357.800794208676
 31
0.0
  0
LINE
  5
7EAE
330
7D99
100
AcDbEntity
  8
0
  6
ByBlock
440
 16777216
100
AcDbLine
 10
1622.353874574065
 20
2377.800794208676
 30
0.0
 11
2682.353874574065
 21
2377.800794208676
 31
0.0
  0
INSERT
  5
7EAF
330
7D99
100
AcDbEntity
  8
0
  6
ByBlock
440
 16777216
100
AcDbBlockReference
  2
_OPEN
 10
1582.353874574065
 20
2377.800794208676
 30
0.0
 41
40.0
 42
40.0
 43
40.0
 50
180.0
  0
INSERT
  5
7EB0
330
7D99
100
AcDbEntity
  8
0
  6
ByBlock
440
 16777216
100
AcDbBlockReference
  2
_OPEN
 10
2722.353874574065
 20
2377.800794208676
 30
0.0
 41
40.0
 42
40.0
 43
40.0
  0
MTEXT
  5
7EB1
330
7D99
100
AcDbEntity
  8
0
  6
ByBlock
440
 16777216
100
AcDbMText
 10
2152.353874574065
 20
2417.800794208676
 30
0.0
 40
60.0
 41
0.0
 46
0.0
 71
     5
 72
     5
  1
\A1;1140
 73
     1
 44
1.0
  0
POINT
  5
7EB2
330
7D99
100
AcDbEntity
  8
DEFPOINTS
  6
ByBlock
 62
     0
440
 16777216
100
AcDbPoint
 10
1582.353874574065
 20
2655.293972495946
 30
0.0
  0
POINT
  5
7EB3
330
7D99
100
AcDbEntity
  8
DEFPOINTS
  6
ByBlock
 62
     0
440
 16777216
100
AcDbPoint
 10
2722.353874574065
 20
2655.293972495946
 30
0.0
  0
POINT
  5
7EB4
330
7D99
100
AcDbEntity
  8
DEFPOINTS
  6
ByBlock
 62
     0
440
 16777216
100
AcDbPoint
 10
2722.353874574065
 20
2377.800794208676
 30
0.0
  0
ENDBLK
  5
7EB5
330
7D99
100
AcDbEntity
  8
0
100
AcDbBlockEnd
  0
BLOCK
  5
7EB6
330
7DA5
100
AcDbEntity
  8
0
100
AcDbBlockBegin
  2
*D10
 70
     1
 10
0.0
 20
0.0
 30
0.0
  3
*D10
  1

  0
LINE
  5
7EB7
330
7DA5
100
AcDbEntity
  8
0
  6
ByBlock
440
 16777216
100
AcDbLine
 10
4224.715630230971
 20
1603.738013274415
 30
0.0
 11
4440.574767322805
 21
1603.738013274415
 31
0.0
  0
LINE
  5
7EB8
330
7DA5
100
AcDbEntity
  8
0
  6
ByBlock
440
 16777216
100
AcDbLine
 10
4224.71563023097
 20
1103.738013274415
 30
0.0
 11
4440.574767322805
 21
1103.738013274415
 31
0.0
  0
LINE
  5
7EB9
330
7DA5
100
AcDbEntity
  8
0
  6
ByBlock
440
 16777216
100
AcDbLine
 10
4420.574767322805
 20
1563.738013274415
 30
0.0
 11
4420.574767322805
 21
1143.738013274415
 31
0.0
  0
INSERT
  5
7EBA
330
7DA5
100
AcDbEntity
  8
0
  6
ByBlock
440
 16777216
100
AcDbBlockReference
  2
_OPEN
 10
4420.574767322805
 20
1603.738013274415
 30
0.0
 41
40.0
 42
40.0
 43
40.0
 50
90.0
  0
INSERT
  5
7EBB
330
7DA5
100
AcDbEntity
  8
0
  6
ByBlock
440
 16777216
100
AcDbBlockReference
  2
_OPEN
 10
4420.574767322805
 20
1103.738013274415
 30
0.0
 41
40.0
 42
40.0
 43
40.0
 50
270.0
  0
MTEXT
  5
7EBC
330
7DA5
100
AcDbEntity
  8
0
  6
ByBlock
440
 16777216
100
AcDbMText
 10
4380.574767322805
 20
1353.738013274415
 30
0.0
 40
60.0
 41
0.0
 46
0.0
 71
     5
 72
     5
  1
\A1;φ500
 11
0.0
 21
1.0
 31
0.0
 73
     1
 44
1.0
  0
POINT
  5
7EBD
330
7DA5
100
AcDbEntity
  8
DEFPOINTS
  6
ByBlock
 62
     0
440
 16777216
100
AcDbPoint
 10
4204.715630230971
 20
1603.738013274415
 30
0.0
  0
POINT
  5
7EBE
330
7DA5
100
AcDbEntity
  8
DEFPOINTS
  6
ByBlock
 62
     0
440
 16777216
100
AcDbPoint
 10
4204.71563023097
 20
1103.738013274415
 30
0.0
  0
POINT
  5
7EBF
330
7DA5
100
AcDbEntity
  8
DEFPOINTS
  6
ByBlock
 62
     0
440
 16777216
100
AcDbPoint
 10
4420.574767322805
 20
1103.738013274415
 30
0.0
  0
ENDBLK
  5
7EC0
330
7DA5
100
AcDbEntity
  8
0
100
AcDbBlockEnd
  0
BLOCK
  5
7EC1
330
7DB1
100
AcDbEntity
  8
0
100
AcDbBlockBegin
  2
*D11
 70
     1
 10
0.0
 20
0.0
 30
0.0
  3
*D11
  1

  0
LINE
  5
7EC2
330
7DB1
100
AcDbEntity
  8
0
  6
ByBlock
440
 16777216
100
AcDbLine
 10
2722.353874574065
 20
3515.293972495946
 30
0.0
 11
2722.353874574065
 21
3656.010197370611
 31
0.0
  0
LINE
  5
7EC3
330
7DB1
100
AcDbEntity
  8
0
  6
ByBlock
440
 16777216
100
AcDbLine
 10
2092.353874574064
 20
3515.293972495946
 30
0.0
 11
2092.353874574064
 21
3656.010197370611
 31
0.0
  0
LINE
  5
7EC4
330
7DB1
100
AcDbEntity
  8
0
  6
ByBlock
440
 16777216
100
AcDbLine
 10
2682.353874574065
 20
3636.010197370611
 30
0.0
 11
2132.353874574064
 21
3636.010197370611
 31
0.0
  0
INSERT
  5
7EC5
330
7DB1
100
AcDbEntity
  8
0
  6
ByBlock
440
 16777216
100
AcDbBlockReference
  2
_OPEN
 10
2722.353874574065
 20
3636.010197370611
 30
0.0
 41
40.0
 42
40.0
 43
40.0
  0
INSERT
  5
7EC6
330
7DB1
100
AcDbEntity
  8
0
  6
ByBlock
440
 16777216
100
AcDbBlockReference
  2
_OPEN
 10
2092.353874574064
 20
3636.010197370611
 30
0.0
 41
40.0
 42
40.0
 43
40.0
 50
180.0
  0
MTEXT
  5
7EC7
330
7DB1
100
AcDbEntity
  8
0
  6
ByBlock
440
 16777216
100
AcDbMText
 10
2407.353874574065
 20
3676.010197370611
 30
0.0
 40
60.0
 41
0.0
 46
0.0
 71
     5
 72
     5
  1
\A1;630
 73
     1
 44
1.0
  0
POINT
  5
7EC8
330
7DB1
100
AcDbEntity
  8
DEFPOINTS
  6
ByBlock
 62
     0
440
 16777216
100
AcDbPoint
 10
2722.353874574065
 20
3495.293972495946
 30
0.0
  0
POINT
  5
7EC9
330
7DB1
100
AcDbEntity
  8
DEFPOINTS
  6
ByBlock
 62
     0
440
 16777216
100
AcDbPoint
 10
2092.353874574064
 20
3495.293972495947
 30
0.0
  0
POINT
  5
7ECA
330
7DB1
100
AcDbEntity
  8
DEFPOINTS
  6
ByBlock
 62
     0
440
 16777216
100
AcDbPoint
 10
2092.353874574064
 20
3636.010197370611
 30
0.0
  0
ENDBLK
  5
7ECB
330
7DB1
100
AcDbEntity
  8
0
100
AcDbBlockEnd
  0
BLOCK
  5
7ECC
330
7DBD
100
AcDbEntity
  8
0
100
AcDbBlockBegin
  2
*D12
 70
     1
 10
0.0
 20
0.0
 30
0.0
  3
*D12
  1

  0
LINE
  5
7ECD
330
7DBD
100
AcDbEntity
  8
0
  6
ByBlock
440
 16777216
100
AcDbLine
 10
2092.353874574064
 20
3515.293972495946
 30
0.0
 11
2092.353874574064
 21
3656.010197370611
 31
0.0
  0
LINE
  5
7ECE
330
7DBD
100
AcDbEntity
  8
0
  6
ByBlock
440
 16777216
100
AcDbLine
 10
1582.353874574064
 20
3275.293972495946
 30
0.0
 11
1582.353874574064
 21
3656.010197370611
 31
0.0
  0
LINE
  5
7ECF
330
7DBD
100
AcDbEntity
  8
0
  6
ByBlock
440
 16777216
100
AcDbLine
 10
2052.353874574064
 20
3636.010197370611
 30
0.0
 11
1622.353874574064
 21
3636.010197370611
 31
0.0
  0
INSERT
  5
7ED0
330
7DBD
100
AcDbEntity
  8
0
  6
ByBlock
440
 16777216
100
AcDbBlockReference
  2
_OPEN
 10
2092.353874574064
 20
3636.010197370611
 30
0.0
 41
40.0
 42
40.0
 43
40.0
  0
INSERT
  5
7ED1
330
7DBD
100
AcDbEntity
  8
0
  6
ByBlock
440
 16777216
100
AcDbBlockReference
  2
_OPEN
 10
1582.353874574064
 20
3636.010197370611
 30
0.0
 41
40.0
 42
40.0
 43
40.0
 50
180.0
  0
MTEXT
  5
7ED2
330
7DBD
100
AcDbEntity
  8
0
  6
ByBlock
440
 16777216
100
AcDbMText
 10
1837.353874574064
 20
3676.010197370611
 30
0.0
 40
60.0
 41
0.0
 46
0.0
 71
     5
 72
     5
  1
\A1;510
 73
     1
 44
1.0
  0
POINT
  5
7ED3
330
7DBD
100
AcDbEntity
  8
DEFPOINTS
  6
ByBlock
 62
     0
440
 16777216
100
AcDbPoint
 10
2092.353874574064
 20
3495.293972495947
 30
0.0
  0
POINT
  5
7ED4
330
7DBD
100
AcDbEntity
  8
DEFPOINTS
  6
ByBlock
 62
     0
440
 16777216
100
AcDbPoint
 10
1582.353874574064
 20
3255.293972495946
 30
0.0
  0
POINT
  5
7ED5
330
7DBD
100
AcDbEntity
  8
DEFPOINTS
  6
ByBlock
 62
     0
440
 16777216
100
AcDbPoint
 10
1582.353874574064
 20
3636.010197370611
 30
0.0
  0
ENDBLK
  5
7ED6
330
7DBD
100
AcDbEntity
  8
0
100
AcDbBlockEnd
  0
BLOCK
  5
7ED7
330
7DC9
100
AcDbEntity
  8
0
100
AcDbBlockBegin
  2
*D13
 70
     1
 10
0.0
 20
0.0
 30
0.0
  3
*D13
  1

  0
LINE
  5
80D9
330
7DC9
100
AcDbEntity
  8
3
440
 16777216
100
AcDbLine
 10
1861.566672151219
 20
2117.775576062918
 30
0.0
 11
1861.566672151219
 21
2756.319882536431
 31
0.0
  0
LINE
  5
80DA
330
7DC9
100
AcDbEntity
  8
3
440
 16777216
100
AcDbLine
 10
1539.118681343358
 20
2736.31988253643
 30
0.0
 11
1821.566672151219
 21
2736.31988253643
 31
0.0
  0
INSERT
  5
80DB
330
7DC9
100
AcDbEntity
  8
3
440
 16777216
100
AcDbBlockReference
  2
_OPEN
 10
1499.118681343358
 20
2736.31988253643
 30
0.0
 41
40.0
 42
40.0
 43
40.0
 50
180.0
  0
INSERT
  5
80DC
330
7DC9
100
AcDbEntity
  8
3
440
 16777216
100
AcDbBlockReference
  2
_OPEN
 10
1861.566672151219
 20
2736.31988253643
 30
0.0
 41
40.0
 42
40.0
 43
40.0
  0
MTEXT
  5
80DD
330
7DC9
100
AcDbEntity
  8
3
440
 16777216
100
AcDbMText
 10
1680.342676747288
 20
2776.319882536431
 30
0.0
 40
60.0
 41
0.0
 46
0.0
 71
     5
 72
     5
  1
\A1;361
 73
     1
 44
1.0
  0
POINT
  5
80DE
330
7DC9
100
AcDbEntity
  8
DEFPOINTS
 62
     0
440
 16777216
100
AcDbPoint
 10
1499.118681343358
 20
2515.265770066795
 30
0.0
  0
POINT
  5
80DF
330
7DC9
100
AcDbEntity
  8
DEFPOINTS
 62
     0
440
 16777216
100
AcDbPoint
 10
1861.566672151219
 20
2097.775576062918
 30
0.0
  0
POINT
  5
80E0
330
7DC9
100
AcDbEntity
  8
DEFPOINTS
 62
     0
440
 16777216
100
AcDbPoint
 10
1861.566672151219
 20
2736.31988253643
 30
0.0
  0
ENDBLK
  5
7EE0
330
7DC9
100
AcDbEntity
  8
0
100
AcDbBlockEnd
  0
BLOCK
  5
7EEC
330
7DE0
100
AcDbEntity
  8
0
100
AcDbBlockBegin
  2
*D14
 70
     1
 10
0.0
 20
0.0
 30
0.0
  3
*D14
  1

  0
LINE
  5
80E1
330
7DE0
100
AcDbEntity
  8
3
440
 16777216
100
AcDbLine
 10
1524.718681343358
 20
2494.775576062917
 30
0.0
 11
2120.662987816871
 21
2494.775576062917
 31
0.0
  0
LINE
  5
80E2
330
7DE0
100
AcDbEntity
  8
3
440
 16777216
100
AcDbLine
 10
2100.662987816871
 20
2174.775576062918
 30
0.0
 11
2100.662987816871
 21
2454.775576062918
 31
0.0
  0
INSERT
  5
80E3
330
7DE0
100
AcDbEntity
  8
3
440
 16777216
100
AcDbBlockReference
  2
_OPEN
 10
2100.662987816871
 20
2134.775576062918
 30
0.0
 41
40.0
 42
40.0
 43
40.0
 50
270.0
  0
INSERT
  5
80E4
330
7DE0
100
AcDbEntity
  8
3
440
 16777216
100
AcDbBlockReference
  2
_OPEN
 10
2100.662987816871
 20
2494.775576062917
 30
0.0
 41
40.0
 42
40.0
 43
40.0
 50
90.0
  0
MTEXT
  5
80E5
330
7DE0
100
AcDbEntity
  8
3
440
 16777216
100
AcDbMText
 10
2060.662987816871
 20
2314.775576062918
 30
0.0
 40
60.0
 41
0.0
 46
0.0
 71
     5
 72
     5
  1
\A1;360
 11
0.0000000000000001
 21
1.0
 31
0.0
 73
     1
 44
1.0
  0
POINT
  5
80E6
330
7DE0
100
AcDbEntity
  8
DEFPOINTS
 62
     0
440
 16777216
100
AcDbPoint
 10
1879.608875347235
 20
2134.775576062918
 30
0.0
  0
POINT
  5
80E7
330
7DE0
100
AcDbEntity
  8
DEFPOINTS
 62
     0
440
 16777216
100
AcDbPoint
 10
1504.718681343358
 20
2494.775576062917
 30
0.0
  0
POINT
  5
80E8
330
7DE0
100
AcDbEntity
  8
DEFPOINTS
 62
     0
440
 16777216
100
AcDbPoint
 10
2100.662987816871
 20
2494.775576062917
 30
0.0
  0
ENDBLK
  5
7EF5
330
7DE0
100
AcDbEntity
  8
0
100
AcDbBlockEnd
  0
BLOCK
  5
7EF6
330
7DEB
100
AcDbEntity
  8
0
100
AcDbBlockBegin
  2
*D15
 70
     1
 10
0.0
 20
0.0
 30
0.0
  3
*D15
  1

  0
LINE
  5
7EF7
330
7DEB
100
AcDbEntity
  8
0
  6
ByBlock
440
 16777216
100
AcDbLine
 10
2769.801865381925
 20
1336.738013274415
 30
0.0
 11
2769.801865381925
 21
2079.039971180575
 31
0.0
  0
LINE
  5
7EF8
330
7DEB
100
AcDbEntity
  8
0
  6
ByBlock
440
 16777216
100
AcDbLine
 10
1582.353874574064
 20
948.7380132744156
 30
0.0
 11
1582.353874574064
 21
2079.039971180575
 31
0.0
  0
LINE
  5
7EF9
330
7DEB
100
AcDbEntity
  8
0
  6
ByBlock
440
 16777216
100
AcDbLine
 10
2729.801865381926
 20
2059.039971180575
 30
0.0
 11
1622.353874574065
 21
2059.039971180575
 31
0.0
  0
INSERT
  5
7EFA
330
7DEB
100
AcDbEntity
  8
0
  6
ByBlock
440
 16777216
100
AcDbBlockReference
  2
_OPEN
 10
2769.801865381925
 20
2059.039971180575
 30
0.0
 41
40.0
 42
40.0
 43
40.0
  0
INSERT
  5
7EFB
330
7DEB
100
AcDbEntity
  8
0
  6
ByBlock
440
 16777216
100
AcDbBlockReference
  2
_OPEN
 10
1582.353874574064
 20
2059.039971180575
 30
0.0
 41
40.0
 42
40.0
 43
40.0
 50
180.0
  0
MTEXT
  5
7EFC
330
7DEB
100
AcDbEntity
  8
0
  6
ByBlock
440
 16777216
100
AcDbMText
 10
2176.077869977995
 20
2099.039971180575
 30
0.0
 40
60.0
 41
0.0
 46
0.0
 71
     5
 72
     5
  1
\A1;1186
 73
     1
 44
1.0
  0
POINT
  5
7EFD
330
7DEB
100
AcDbEntity
  8
DEFPOINTS
  6
ByBlock
 62
     0
440
 16777216
100
AcDbPoint
 10
2769.801865381925
 20
1316.738013274415
 30
0.0
  0
POINT
  5
7EFE
330
7DEB
100
AcDbEntity
  8
DEFPOINTS
  6
ByBlock
 62
     0
440
 16777216
100
AcDbPoint
 10
1582.353874574064
 20
928.7380132744155
 30
0.0
  0
POINT
  5
7EFF
330
7DEB
100
AcDbEntity
  8
DEFPOINTS
  6
ByBlock
 62
     0
440
 16777216
100
AcDbPoint
 10
1582.353874574064
 20
2059.039971180575
 30
0.0
  0
ENDBLK
  5
7F00
330
7DEB
100
AcDbEntity
  8
0
100
AcDbBlockEnd
  0
BLOCK
  5
7FE8
330
7F3C
100
AcDbEntity
  8
0
100
AcDbBlockBegin
  2
*D16
 70
     1
 10
0.0
 20
0.0
 30
0.0
  3
*D16
  1

  0
LINE
  5
81B5
330
7F3C
100
AcDbEntity
  8
3
 62
     0
440
 16777216
370
    -2
100
AcDbLine
 10
1824.118681343358
 20
1554.775576062918
 30
0.0
 11
2120.662987816871
 21
1554.775576062918
 31
0.0
  0
LINE
  5
81B6
330
7F3C
100
AcDbEntity
  8
3
 62
     0
440
 16777216
370
    -2
100
AcDbLine
 10
1824.118681343357
 20
1479.775576062917
 30
0.0
 11
2120.662987816871
 21
1479.775576062917
 31
0.0
  0
LINE
  5
81B7
330
7F3C
100
AcDbEntity
  8
3
 62
     0
440
 16777216
370
    -2
100
AcDbLine
 10
2100.662987816871
 20
1594.775576062918
 30
0.0
 11
2100.662987816871
 21
1634.775576062918
 31
0.0
  0
LINE
  5
81B8
330
7F3C
100
AcDbEntity
  8
3
 62
     0
440
 16777216
370
    -2
100
AcDbLine
 10
2100.662987816871
 20
1439.775576062917
 30
0.0
 11
2100.662987816871
 21
1262.63271892006
 31
0.0
  0
LINE
  5
81B9
330
7F3C
100
AcDbEntity
  8
3
 62
     0
440
 16777216
370
    -2
100
AcDbLine
 10
2100.662987816871
 20
1554.775576062918
 30
0.0
 11
2100.662987816871
 21
1479.775576062917
 31
0.0
  0
INSERT
  5
81BA
330
7F3C
100
AcDbEntity
  8
3
 62
     0
440
 16777216
370
    -2
100
AcDbBlockReference
  2
_DOT
 10
2100.662987816871
 20
1554.775576062918
 30
0.0
 41
40.0
 42
40.0
 43
40.0
 50
270.0
  0
INSERT
  5
81BB
330
7F3C
100
AcDbEntity
  8
3
 62
     0
440
 16777216
370
    -2
100
AcDbBlockReference
  2
_OPEN
 10
2100.662987816871
 20
1479.775576062917
 30
0.0
 41
40.0
 42
40.0
 43
40.0
 50
90.0
  0
MTEXT
  5
81BC
330
7F3C
100
AcDbEntity
  8
3
 62
     0
440
 16777216
100
AcDbMText
 10
2050.66298781687
 20
1331.204147491489
 30
0.0
 40
60.0
 41
0.0
 46
0.0
 71
     5
 72
     1
  1
\A1;75
 11
0.0000000000000001
 21
1.0
 31
0.0
 73
     1
 44
1.0
  0
POINT
  5
81BD
330
7F3C
100
AcDbEntity
  8
DEFPOINTS
 62
     0
440
 16777216
100
AcDbPoint
 10
1814.118681343358
 20
1554.775576062918
 30
0.0
  0
POINT
  5
81BE
330
7F3C
100
AcDbEntity
  8
DEFPOINTS
 62
     0
440
 16777216
100
AcDbPoint
 10
1814.118681343357
 20
1479.775576062917
 30
0.0
  0
POINT
  5
81BF
330
7F3C
100
AcDbEntity
  8
DEFPOINTS
 62
     0
440
 16777216
100
AcDbPoint
 10
2100.662987816871
 20
1479.775576062917
 30
0.0
  0
ENDBLK
  5
7FF4
330
7F3C
100
AcDbEntity
  8
0
100
AcDbBlockEnd
  0
BLOCK
  5
7FA6
330
7FA0
100
AcDbEntity
  8
0
100
AcDbBlockBegin
  2
_DOT
 70
     0
 10
0.0
 20
0.0
 30
0.0
  3
_DOT
  1

  0
LWPOLYLINE
  5
7FA1
330
7FA0
100
AcDbEntity
  8
0
  6
ByBlock
 62
     0
100
AcDbPolyline
 90
        2
 70
     1
 43
0.25
 10
-0.125
 20
0.0
 42
1.0
 10
0.125
 20
0.0
 42
1.0
  0
LINE
  5
7FA5
330
7FA0
100
AcDbEntity
  8
0
  6
ByBlock
 62
     0
100
AcDbLine
 10
-0.25
 20
0.0
 30
0.0
 11
-1.0
 21
0.0
 31
0.0
  0
ENDBLK
  5
7FA7
330
7FA0
100
AcDbEntity
  8
0
100
AcDbBlockEnd
  0
BLOCK
  5
8035
330
8034
100
AcDbEntity
  8
0
100
AcDbBlockBegin
  2
*D18
 70
     1
 10
0.0
 20
0.0
 30
0.0
  3
*D18
  1

  0
LINE
  5
81C0
330
8034
100
AcDbEntity
  8
3
 62
     0
440
 16777216
370
    -2
100
AcDbLine
 10
674.1186813433578
 20
1469.775576062917
 30
0.0
 11
674.1186813433578
 21
1340.905335002484
 31
0.0
  0
LINE
  5
81C1
330
8034
100
AcDbEntity
  8
3
 62
     0
440
 16777216
370
    -2
100
AcDbLine
 10
1499.118681343358
 20
1469.775576062917
 30
0.0
 11
1499.118681343358
 21
1340.905335002484
 31
0.0
  0
LINE
  5
81C2
330
8034
100
AcDbEntity
  8
3
 62
     0
440
 16777216
370
    -2
100
AcDbLine
 10
714.1186813433578
 20
1360.905335002484
 30
0.0
 11
1459.118681343358
 21
1360.905335002484
 31
0.0
  0
INSERT
  5
81C3
330
8034
100
AcDbEntity
  8
3
 62
     0
440
 16777216
370
    -2
100
AcDbBlockReference
  2
_OPEN
 10
674.1186813433578
 20
1360.905335002484
 30
0.0
 41
40.0
 42
40.0
 43
40.0
 50
180.0
  0
INSERT
  5
81C4
330
8034
100
AcDbEntity
  8
3
 62
     0
440
 16777216
370
    -2
100
AcDbBlockReference
  2
_OPEN
 10
1499.118681343358
 20
1360.905335002484
 30
0.0
 41
40.0
 42
40.0
 43
40.0
  0
MTEXT
  5
81C5
330
8034
100
AcDbEntity
  8
3
 62
     0
440
 16777216
100
AcDbMText
 10
1086.618681343358
 20
1410.905335002484
 30
0.0
 40
60.0
 41
0.0
 46
0.0
 71
     5
 72
     1
  1
\A1;825
 73
     1
 44
1.0
  0
POINT
  5
81C6
330
8034
100
AcDbEntity
  8
DEFPOINTS
 62
     0
440
 16777216
100
AcDbPoint
 10
674.1186813433578
 20
1479.775576062917
 30
0.0
  0
POINT
  5
81C7
330
8034
100
AcDbEntity
  8
DEFPOINTS
 62
     0
440
 16777216
100
AcDbPoint
 10
1499.118681343358
 20
1479.775576062917
 30
0.0
  0
POINT
  5
81C8
330
8034
100
AcDbEntity
  8
DEFPOINTS
 62
     0
440
 16777216
100
AcDbPoint
 10
1499.118681343358
 20
1360.905335002484
 30
0.0
  0
ENDBLK
  5
803F
330
8034
100
AcDbEntity
  8
0
100
AcDbBlockEnd
  0
BLOCK
  5
8042
330
8041
100
AcDbEntity
  8
0
100
AcDbBlockBegin
  2
*D19
 70
     1
 10
0.0
 20
0.0
 30
0.0
  3
*D19
  1

  0
LINE
  5
81C9
330
8041
100
AcDbEntity
  8
3
 62
     0
440
 16777216
370
    -2
100
AcDbLine
 10
1499.118681343358
 20
1469.775576062917
 30
0.0
 11
1499.118681343358
 21
1340.905335002484
 31
0.0
  0
LINE
  5
81CA
330
8041
100
AcDbEntity
  8
3
 62
     0
440
 16777216
370
    -2
100
AcDbLine
 10
1814.118681343357
 20
1469.775576062917
 30
0.0
 11
1814.118681343357
 21
1340.905335002484
 31
0.0
  0
LINE
  5
81CB
330
8041
100
AcDbEntity
  8
3
 62
     0
440
 16777216
370
    -2
100
AcDbLine
 10
1539.118681343358
 20
1360.905335002484
 30
0.0
 11
1774.118681343357
 21
1360.905335002484
 31
0.0
  0
INSERT
  5
81CC
330
8041
100
AcDbEntity
  8
3
 62
     0
440
 16777216
370
    -2
100
AcDbBlockReference
  2
_OPEN
 10
1499.118681343358
 20
1360.905335002484
 30
0.0
 41
40.0
 42
40.0
 43
40.0
 50
180.0
  0
INSERT
  5
81CD
330
8041
100
AcDbEntity
  8
3
 62
     0
440
 16777216
370
    -2
100
AcDbBlockReference
  2
_OPEN
 10
1814.118681343357
 20
1360.905335002484
 30
0.0
 41
40.0
 42
40.0
 43
40.0
  0
MTEXT
  5
81CE
330
8041
100
AcDbEntity
  8
3
 62
     0
440
 16777216
100
AcDbMText
 10
1656.618681343357
 20
1410.905335002484
 30
0.0
 40
60.0
 41
0.0
 46
0.0
 71
     5
 72
     1
  1
\A1;315
 73
     1
 44
1.0
  0
POINT
  5
81CF
330
8041
100
AcDbEntity
  8
DEFPOINTS
 62
     0
440
 16777216
100
AcDbPoint
 10
1499.118681343358
 20
1479.775576062917
 30
0.0
  0
POINT
  5
81D0
330
8041
100
AcDbEntity
  8
DEFPOINTS
 62
     0
440
 16777216
100
AcDbPoint
 10
1814.118681343357
 20
1479.775576062917
 30
0.0
  0
POINT
  5
81D1
330
8041
100
AcDbEntity
  8
DEFPOINTS
 62
     0
440
 16777216
100
AcDbPoint
 10
1814.118681343357
 20
1360.905335002484
 30
0.0
  0
ENDBLK
  5
804C
330
8041
100
AcDbEntity
  8
0
100
AcDbBlockEnd
  0
BLOCK
  5
804F
330
804E
100
AcDbEntity
  8
0
100
AcDbBlockBegin
  2
*D20
 70
     1
 10
0.0
 20
0.0
 30
0.0
  3
*D20
  1

  0
LINE
  5
81D2
330
804E
100
AcDbEntity
  8
3
 62
     0
440
 16777216
370
    -2
100
AcDbLine
 10
2499.480437000265
 20
1469.775576062918
 30
0.0
 11
2499.480437000265
 21
1340.905335002484
 31
0.0
  0
LINE
  5
81D3
330
804E
100
AcDbEntity
  8
3
 62
     0
440
 16777216
370
    -2
100
AcDbLine
 10
2961.480437000265
 20
1469.775576062918
 30
0.0
 11
2961.480437000265
 21
1340.905335002484
 31
0.0
  0
LINE
  5
81D4
330
804E
100
AcDbEntity
  8
3
 62
     0
440
 16777216
370
    -2
100
AcDbLine
 10
2539.480437000265
 20
1360.905335002484
 30
0.0
 11
2921.480437000265
 21
1360.905335002484
 31
0.0
  0
INSERT
  5
81D5
330
804E
100
AcDbEntity
  8
3
 62
     0
440
 16777216
370
    -2
100
AcDbBlockReference
  2
_OPEN
 10
2499.480437000265
 20
1360.905335002484
 30
0.0
 41
40.0
 42
40.0
 43
40.0
 50
180.0
  0
INSERT
  5
81D6
330
804E
100
AcDbEntity
  8
3
 62
     0
440
 16777216
370
    -2
100
AcDbBlockReference
  2
_OPEN
 10
2961.480437000265
 20
1360.905335002484
 30
0.0
 41
40.0
 42
40.0
 43
40.0
  0
MTEXT
  5
81D7
330
804E
100
AcDbEntity
  8
3
 62
     0
440
 16777216
100
AcDbMText
 10
2730.480437000265
 20
1410.905335002484
 30
0.0
 40
60.0
 41
0.0
 46
0.0
 71
     5
 72
     1
  1
\A1;462
 73
     1
 44
1.0
  0
POINT
  5
81D8
330
804E
100
AcDbEntity
  8
DEFPOINTS
 62
     0
440
 16777216
100
AcDbPoint
 10
2499.480437000265
 20
1479.775576062918
 30
0.0
  0
POINT
  5
81D9
330
804E
100
AcDbEntity
  8
DEFPOINTS
 62
     0
440
 16777216
100
AcDbPoint
 10
2961.480437000265
 20
1479.775576062918
 30
0.0
  0
POINT
  5
81DA
330
804E
100
AcDbEntity
  8
DEFPOINTS
 62
     0
440
 16777216
100
AcDbPoint
 10
2961.480437000265
 20
1360.905335002484
 30
0.0
  0
ENDBLK
  5
8059
330
804E
100
AcDbEntity
  8
0
100
AcDbBlockEnd
  0
BLOCK
  5
805C
330
805B
100
AcDbEntity
  8
0
100
AcDbBlockBegin
  2
*D21
 70
     1
 10
0.0
 20
0.0
 30
0.0
  3
*D21
  1

  0
LINE
  5
81DB
330
805B
100
AcDbEntity
  8
3
 62
     0
440
 16777216
370
    -2
100
AcDbLine
 10
2961.480437000265
 20
1469.775576062918
 30
0.0
 11
2961.480437000265
 21
1340.905335002484
 31
0.0
  0
LINE
  5
81DC
330
805B
100
AcDbEntity
  8
3
 62
     0
440
 16777216
370
    -2
100
AcDbLine
 10
3339.480437000265
 20
1469.775576062918
 30
0.0
 11
3339.480437000265
 21
1340.905335002484
 31
0.0
  0
LINE
  5
81DD
330
805B
100
AcDbEntity
  8
3
 62
     0
440
 16777216
370
    -2
100
AcDbLine
 10
3001.480437000265
 20
1360.905335002484
 30
0.0
 11
3299.480437000265
 21
1360.905335002484
 31
0.0
  0
INSERT
  5
81DE
330
805B
100
AcDbEntity
  8
3
 62
     0
440
 16777216
370
    -2
100
AcDbBlockReference
  2
_OPEN
 10
2961.480437000265
 20
1360.905335002484
 30
0.0
 41
40.0
 42
40.0
 43
40.0
 50
180.0
  0
INSERT
  5
81DF
330
805B
100
AcDbEntity
  8
3
 62
     0
440
 16777216
370
    -2
100
AcDbBlockReference
  2
_OPEN
 10
3339.480437000265
 20
1360.905335002484
 30
0.0
 41
40.0
 42
40.0
 43
40.0
  0
MTEXT
  5
81E0
330
805B
100
AcDbEntity
  8
3
 62
     0
440
 16777216
100
AcDbMText
 10
3150.480437000265
 20
1410.905335002484
 30
0.0
 40
60.0
 41
0.0
 46
0.0
 71
     5
 72
     1
  1
\A1;378
 73
     1
 44
1.0
  0
POINT
  5
81E1
330
805B
100
AcDbEntity
  8
DEFPOINTS
 62
     0
440
 16777216
100
AcDbPoint
 10
2961.480437000265
 20
1479.775576062918
 30
0.0
  0
POINT
  5
81E2
330
805B
100
AcDbEntity
  8
DEFPOINTS
 62
     0
440
 16777216
100
AcDbPoint
 10
3339.480437000265
 20
1479.775576062918
 30
0.0
  0
POINT
  5
81E3
330
805B
100
AcDbEntity
  8
DEFPOINTS
 62
     0
440
 16777216
100
AcDbPoint
 10
3339.480437000265
 20
1360.905335002484
 30
0.0
  0
ENDBLK
  5
8066
330
805B
100
AcDbEntity
  8
0
100
AcDbBlockEnd
  0
BLOCK
  5
8069
330
8068
100
AcDbEntity
  8
0
100
AcDbBlockBegin
  2
_NONE
 70
     0
 10
0.0
 20
0.0
 30
0.0
  3
_NONE
  1

  0
CIRCLE
  5
806A
330
8068
100
AcDbEntity
  8
0
  6
ByBlock
 62
     0
100
AcDbCircle
 10
0.0
 20
0.0
 30
0.0
 40
0.25
  0
ENDBLK
  5
806B
330
8068
100
AcDbEntity
  8
0
100
AcDbBlockEnd
  0
BLOCK
  5
8086
330
8085
100
AcDbEntity
  8
0
100
AcDbBlockBegin
  2
*D23
 70
     1
 10
0.0
 20
0.0
 30
0.0
  3
*D23
  1

  0
LINE
  5
81F2
330
8085
100
AcDbEntity
  8
3
 62
     0
440
 16777216
370
    -2
100
AcDbLine
 10
2099.291913608915
 20
1554.775576062918
 30
0.0
 11
2099.291913608915
 21
1634.775576062917
 31
0.0
  0
MTEXT
  5
81F3
330
8085
100
AcDbEntity
  8
3
 62
     0
440
 16777216
100
AcDbMText
 10
2182.292384712317
 20
1594.775576062918
 30
0.0
 40
60.0
 41
0.0
 46
0.0
 71
     5
 72
     1
  1
\A1;(80)
 11
0.0000000000000001
 21
1.0
 31
0.0
 73
     1
 44
1.0
  0
POINT
  5
81F4
330
8085
100
AcDbEntity
  8
DEFPOINTS
 62
     0
440
 16777216
100
AcDbPoint
 10
1814.118681343357
 20
1554.775576062918
 30
0.0
  0
POINT
  5
81F5
330
8085
100
AcDbEntity
  8
DEFPOINTS
 62
     0
440
 16777216
100
AcDbPoint
 10
1814.118681343357
 20
1634.775576062917
 30
0.0
  0
POINT
  5
81F6
330
8085
100
AcDbEntity
  8
DEFPOINTS
 62
     0
440
 16777216
100
AcDbPoint
 10
2099.291913608915
 20
1634.775576062917
 30
0.0
  0
ENDBLK
  5
808C
330
8085
100
AcDbEntity
  8
0
100
AcDbBlockEnd
  0
BLOCK
  5
808F
330
808E
100
AcDbEntity
  8
0
100
AcDbBlockBegin
  2
*D24
 70
     1
 10
0.0
 20
0.0
 30
0.0
  3
*D24
  1

  0
LINE
  5
81E9
330
808E
100
AcDbEntity
  8
3
 62
     0
440
 16777216
370
    -2
100
AcDbLine
 10
1514.718681343358
 20
2494.775576062917
 30
0.0
 11
2275.679171935371
 21
2494.775576062917
 31
0.0
  0
LINE
  5
81EA
330
808E
100
AcDbEntity
  8
3
 62
     0
440
 16777216
370
    -2
100
AcDbLine
 10
1824.118681343357
 20
1479.775576062917
 30
0.0
 11
2275.679171935371
 21
1479.775576062917
 31
0.0
  0
LINE
  5
81EB
330
808E
100
AcDbEntity
  8
3
 62
     0
440
 16777216
370
    -2
100
AcDbLine
 10
2255.679171935371
 20
2454.775576062918
 30
0.0
 11
2255.679171935371
 21
1519.775576062917
 31
0.0
  0
INSERT
  5
81EC
330
808E
100
AcDbEntity
  8
3
 62
     0
440
 16777216
370
    -2
100
AcDbBlockReference
  2
_OPEN
 10
2255.679171935371
 20
2494.775576062917
 30
0.0
 41
40.0
 42
40.0
 43
40.0
 50
90.0
  0
INSERT
  5
81ED
330
808E
100
AcDbEntity
  8
3
 62
     0
440
 16777216
370
    -2
100
AcDbBlockReference
  2
_OPEN
 10
2255.679171935371
 20
1479.775576062917
 30
0.0
 41
40.0
 42
40.0
 43
40.0
 50
270.0
  0
MTEXT
  5
81EE
330
808E
100
AcDbEntity
  8
3
 62
     0
440
 16777216
100
AcDbMText
 10
2189.964886221085
 20
1987.275576062918
 30
0.0
 40
60.0
 41
0.0
 46
0.0
 71
     5
 72
     1
  1
\A1;(1015)
 11
0.0000000000000001
 21
1.0
 31
0.0
 73
     1
 44
1.0
  0
POINT
  5
81EF
330
808E
100
AcDbEntity
  8
DEFPOINTS
 62
     0
440
 16777216
100
AcDbPoint
 10
1504.718681343358
 20
2494.775576062917
 30
0.0
  0
POINT
  5
81F0
330
808E
100
AcDbEntity
  8
DEFPOINTS
 62
     0
440
 16777216
100
AcDbPoint
 10
1814.118681343357
 20
1479.775576062917
 30
0.0
  0
POINT
  5
81F1
330
808E
100
AcDbEntity
  8
DEFPOINTS
 62
     0
440
 16777216
100
AcDbPoint
 10
2255.679171935371
 20
1479.775576062917
 30
0.0
  0
ENDBLK
  5
8099
330
808E
100
AcDbEntity
  8
0
100
AcDbBlockEnd
  0
ENDSEC
  0
SECTION
  2
ENTITIES
  0
LINE
  5
7C07
330
19
100
AcDbEntity
  8
2
100
AcDbLine
 10
1499.118681343358
 20
4326.51948402265
 30
0.0
 11
1499.118681343358
 21
3198.696246274546
 31
0.0
  0
LINE
  5
7C08
330
19
100
AcDbEntity
  8
2
100
AcDbLine
 10
3399.290280894769
 20
2134.775576062918
 30
0.0
 11
2257.649294548794
 21
2134.775576062918
 31
0.0
  0
LINE
  5
7C09
330
19
100
AcDbEntity
  8
2
100
AcDbLine
 10
961.1186813433578
 20
3898.331535284448
 30
0.0
 11
1879.761094263038
 21
3898.331535284448
 31
0.0
  0
LINE
  5
7C0A
330
19
100
AcDbEntity
  8
2
100
AcDbLine
 10
2961.480437000265
 20
1479.775576062918
 30
0.0
 11
2961.480437000265
 21
2604.441633081743
 31
0.0
  0
LINE
  5
7C0B
330
19
100
AcDbEntity
  8
1
100
AcDbLine
 10
929.5134983800553
 20
2491.775576062918
 30
0.0
 11
1504.718681343358
 21
2491.775576062918
 31
0.0
  0
LINE
  5
7C0C
330
19
100
AcDbEntity
  8
1
100
AcDbLine
 10
961.1186813433578
 20
2494.775576062917
 30
0.0
 11
1473.118681343358
 21
2494.775576062917
 31
0.0
  0
LINE
  5
7C0D
330
19
100
AcDbEntity
  8
1
100
AcDbLine
 10
1473.118681343358
 20
2428.855254456027
 30
0.0
 11
1473.118681343358
 21
2494.775576062917
 31
0.0
  0
LINE
  5
7C0E
330
19
100
AcDbEntity
  8
1
100
AcDbLine
 10
1483.118681343358
 20
2494.775576062917
 30
0.0
 11
951.0862878227126
 21
2494.775576062917
 31
0.0
  0
CIRCLE
  5
7C0F
330
19
100
AcDbEntity
  8
1
100
AcDbCircle
 10
1499.118681343358
 20
2134.775576062918
 30
0.0
 40
237.5
  0
LINE
  5
7C10
330
19
100
AcDbEntity
  8
2
100
AcDbLine
 10
1879.608875347235
 20
2134.775576062918
 30
0.0
 11
954.9948149205738
 21
2134.775576062918
 31
0.0
  0
LINE
  5
7C11
330
19
100
AcDbEntity
  8
2
100
AcDbLine
 10
1499.118681343358
 20
2681.854865570363
 30
0.0
 11
1499.118681343358
 21
1479.775576062918
 31
0.0
  0
DIMENSION
  5
7C12
330
19
100
AcDbEntity
  8
3
100
AcDbDimension
280
     0
  2
*D1
 10
961.1186813433578
 20
2640.933518936519
 30
0.0
 11
1217.118681343358
 21
2680.933518936519
 31
0.0
 12
-908.2351932307064
 22
781.0375627885023
 32
0.0
 70
    32
 71
     5
 42
-1.0
 73
     0
 74
     0
 75
     0
  3
MATSU
100
AcDbAlignedDimension
 13
1473.118681343358
 23
2494.775576062917
 33
0.0
 14
961.1186813433578
 24
2494.775576062917
 34
0.0
100
AcDbRotatedDimension
1001
ACAD
1000
DSTYLE
1002
{
1070
    40
1040
20.0
1002
}
  0
DIMENSION
  5
7C13
330
19
100
AcDbEntity
  8
3
100
AcDbDimension
280
     0
  2
*D2
 10
1499.118681343358
 20
2736.31988253643
 30
0.0
 11
1230.118681343358
 21
2776.319882536431
 31
0.0
 12
-908.2351932307064
 22
781.0375627885023
 32
0.0
 70
    32
 71
     5
 42
-1.0
 73
     0
 74
     0
 75
     0
  3
MATSU
100
AcDbAlignedDimension
 13
961.1186813433578
 23
2494.775576062917
 33
0.0
 14
1499.118681343358
 24
2515.265770066795
 34
0.0
100
AcDbRotatedDimension
1001
ACAD
1000
DSTYLE
1002
{
1070
    40
1040
20.0
1002
}
  0
LINE
  5
7C1C
330
19
100
AcDbEntity
  8
1
100
AcDbLine
 10
963.5353480100247
 20
2464.775576062917
 30
0.0
 11
1473.118681343358
 21
2464.775576062917
 31
0.0
  0
LINE
  5
7C1D
330
19
100
AcDbEntity
  8
1
100
AcDbLine
 10
1504.718681343358
 20
2491.775576062917
 30
0.0
 11
1504.718681343358
 21
2494.775576062917
 31
0.0
  0
LINE
  5
7C1E
330
19
100
AcDbEntity
  8
1
100
AcDbLine
 10
1504.718681343358
 20
2494.775576062917
 30
0.0
 11
929.5134983800544
 21
2494.775576062917
 31
0.0
  0
LINE
  5
7C1F
330
19
100
AcDbEntity
  8
1
100
AcDbLine
 10
929.5134983800544
 20
2494.775576062917
 30
0.0
 11
929.5134983800553
 21
2491.775576062917
 31
0.0
  0
LINE
  5
7C20
330
19
100
AcDbEntity
  8
1
100
AcDbLine
 10
1814.118681343357
 20
1634.775576062917
 30
0.0
 11
674.1186813433578
 21
1634.775576062917
 31
0.0
  0
LINE
  5
7C21
330
19
100
AcDbEntity
  8
1
100
AcDbLine
 10
1814.118681343357
 20
1709.775576062917
 30
0.0
 11
647.1186813433578
 21
1709.775576062918
 31
0.0
  0
LINE
  5
7C22
330
19
100
AcDbEntity
  8
1
100
AcDbLine
 10
1814.118681343357
 20
1554.775576062918
 30
0.0
 11
674.1186813433578
 21
1554.775576062918
 31
0.0
  0
LINE
  5
7C23
330
19
100
AcDbEntity
  8
1
100
AcDbLine
 10
1814.118681343357
 20
1479.775576062917
 30
0.0
 11
674.1186813433578
 21
1479.775576062917
 31
0.0
  0
LINE
  5
7C24
330
19
100
AcDbEntity
  8
1
100
AcDbLine
 10
1814.118681343357
 20
1709.775576062918
 30
0.0
 11
1814.118681343358
 21
1634.775576062917
 31
0.0
  0
LINE
  5
7C25
330
19
100
AcDbEntity
  8
1
100
AcDbLine
 10
674.1186813433578
 20
1709.775576062918
 30
0.0
 11
674.1186813433578
 21
1634.775576062917
 31
0.0
  0
LINE
  5
7C26
330
19
100
AcDbEntity
  8
1
100
AcDbLine
 10
674.1186813433578
 20
1554.775576062918
 30
0.0
 11
674.1186813433578
 21
1479.775576062917
 31
0.0
  0
LINE
  5
7C27
330
19
100
AcDbEntity
  8
1
100
AcDbLine
 10
1814.118681343358
 20
1554.775576062917
 30
0.0
 11
1814.118681343357
 21
1479.775576062917
 31
0.0
  0
LINE
  5
7C28
330
19
100
AcDbEntity
  8
1
100
AcDbLine
 10
3339.480437000265
 20
1634.775576062918
 30
0.0
 11
2499.480437000265
 21
1634.775576062917
 31
0.0
  0
LINE
  5
7C29
330
19
100
AcDbEntity
  8
1
100
AcDbLine
 10
3339.480437000265
 20
1709.775576062918
 30
0.0
 11
2499.480437000265
 21
1709.775576062918
 31
0.0
  0
LINE
  5
7C2A
330
19
100
AcDbEntity
  8
1
100
AcDbLine
 10
3339.480437000265
 20
1554.775576062918
 30
0.0
 11
2499.480437000265
 21
1554.775576062918
 31
0.0
  0
LINE
  5
7C2B
330
19
100
AcDbEntity
  8
1
100
AcDbLine
 10
3339.480437000265
 20
1479.775576062918
 30
0.0
 11
2499.480437000265
 21
1479.775576062918
 31
0.0
  0
LINE
  5
7C2C
330
19
100
AcDbEntity
  8
1
100
AcDbLine
 10
3339.480437000264
 20
1479.775576062918
 30
0.0
 11
3339.480437000264
 21
1554.775576062917
 31
0.0
  0
LINE
  5
7C2D
330
19
100
AcDbEntity
  8
1
100
AcDbLine
 10
2499.480437000265
 20
1479.775576062918
 30
0.0
 11
2499.480437000265
 21
1554.775576062917
 31
0.0
  0
LINE
  5
7C2E
330
19
100
AcDbEntity
  8
1
100
AcDbLine
 10
2499.480437000265
 20
1634.775576062917
 30
0.0
 11
2499.480437000265
 21
1709.775576062918
 31
0.0
  0
LINE
  5
7C2F
330
19
100
AcDbEntity
  8
1
100
AcDbLine
 10
3339.480437000264
 20
1634.775576062918
 30
0.0
 11
3339.480437000265
 21
1709.775576062918
 31
0.0
  0
LINE
  5
7C30
330
19
100
AcDbEntity
  8
1
100
AcDbLine
 10
3296.480437000264
 20
1709.775576062918
 30
0.0
 11
3296.480437000265
 21
2494.775576062917
 31
0.0
  0
LINE
  5
7C31
330
19
100
AcDbEntity
  8
1
100
AcDbLine
 10
2626.480437000265
 20
1709.775576062918
 30
0.0
 11
2626.480437000265
 21
2494.775576062917
 31
0.0
  0
LINE
  5
7C32
330
19
100
AcDbEntity
  8
1
100
AcDbLine
 10
3326.480437000265
 20
2494.775576062918
 30
0.0
 11
2596.480437000265
 21
2494.775576062917
 31
0.0
  0
DIMENSION
  5
7C33
330
19
100
AcDbEntity
  8
3
100
AcDbDimension
280
     0
  2
*D3
 10
3296.480437000265
 20
2620.068330108162
 30
0.0
 11
2961.480437000265
 21
2660.068330108162
 31
0.0
 12
-908.2351932307064
 22
781.0375627885023
 32
0.0
 70
    32
 71
     5
 42
-1.0
 73
     0
 74
     0
 75
     0
  3
MATSU
100
AcDbAlignedDimension
 13
2626.480437000265
 23
2494.775576062917
 33
0.0
 14
3296.480437000265
 24
2494.775576062917
 34
0.0
100
AcDbRotatedDimension
1001
ACAD
1000
DSTYLE
1002
{
1070
    40
1040
20.0
1002
}
  0
LINE
  5
7C34
330
19
100
AcDbEntity
  8
1
100
AcDbLine
 10
3381.480437000265
 20
2098.275576062918
 30
0.0
 11
3321.480437000265
 21
2098.275576062917
 31
0.0
  0
LINE
  5
7C35
330
19
100
AcDbEntity
  8
1
100
AcDbLine
 10
2616.480437000265
 20
1985.575576062917
 30
0.0
 11
2616.480437000265
 21
2085.575576062917
 31
0.0
  0
LINE
  5
7C36
330
19
100
AcDbEntity
  8
1
100
AcDbLine
 10
2546.480437000266
 20
1995.575576062917
 30
0.0
 11
2546.480437000265
 21
2075.575576062917
 31
0.0
  0
LINE
  5
7C37
330
19
100
AcDbEntity
  8
1
100
AcDbLine
 10
3391.480437000265
 20
2008.275576062918
 30
0.0
 11
3391.480437000265
 21
2088.275576062918
 31
0.0
  0
LINE
  5
7C38
330
19
100
AcDbEntity
  8
1
100
AcDbLine
 10
3321.480437000265
 20
1998.275576062918
 30
0.0
 11
3321.480437000265
 21
2098.275576062917
 31
0.0
  0
LINE
  5
7C39
330
19
100
AcDbEntity
  8
1
100
AcDbLine
 10
3381.480437000265
 20
1998.275576062918
 30
0.0
 11
3321.480437000265
 21
1998.275576062917
 31
0.0
  0
LINE
  5
7C3A
330
19
100
AcDbEntity
  8
1
100
AcDbLine
 10
3381.480437000265
 20
2098.275576062918
 30
0.0
 11
3391.480437000265
 21
2088.275576062918
 31
0.0
  0
LINE
  5
7C3B
330
19
100
AcDbEntity
  8
1
100
AcDbLine
 10
3391.480437000265
 20
2008.275576062918
 30
0.0
 11
3381.480437000265
 21
1998.275576062918
 31
0.0
  0
LINE
  5
7C3C
330
19
100
AcDbEntity
  8
1
100
AcDbLine
 10
2616.480437000264
 20
2085.575576062917
 30
0.0
 11
2556.480437000265
 21
2085.575576062917
 31
0.0
  0
LINE
  5
7C3D
330
19
100
AcDbEntity
  8
1
100
AcDbLine
 10
2616.480437000264
 20
1985.575576062917
 30
0.0
 11
2556.480437000266
 21
1985.575576062917
 31
0.0
  0
LINE
  5
7C3E
330
19
100
AcDbEntity
  8
1
100
AcDbLine
 10
2556.480437000265
 20
2085.575576062917
 30
0.0
 11
2546.480437000265
 21
2075.575576062917
 31
0.0
  0
LINE
  5
7C3F
330
19
100
AcDbEntity
  8
1
100
AcDbLine
 10
2546.480437000266
 20
1995.575576062917
 30
0.0
 11
2556.480437000266
 21
1985.575576062917
 31
0.0
  0
DIMENSION
  5
7C40
330
19
100
AcDbEntity
  8
3
100
AcDbDimension
280
     0
  2
*D4
 10
2961.480437000265
 20
2756.678844086982
 30
0.0
 11
3176.480437000265
 21
2812.393129801268
 31
0.0
 70
    32
  1
(<>)
 71
     5
 42
430.0
 73
     0
 74
     0
 75
     0
  3
MATSU
100
AcDbAlignedDimension
 13
3391.480437000265
 23
2008.275576062918
 33
0.0
 14
2961.480437000265
 24
2721.196663374927
 34
0.0
100
AcDbRotatedDimension
1001
ACAD
1000
DSTYLE
1002
{
1070
    40
1040
20.0
1002
}
  0
DIMENSION
  5
7C47
330
19
100
AcDbEntity
  8
3
100
AcDbDimension
280
     0
  2
*D5
 10
2100.662987816871
 20
1634.775576062917
 30
0.0
 11
2060.662987816871
 21
1884.775576062917
 31
0.0
 12
-908.2351932307064
 22
781.0375627885023
 32
0.0
 70
    32
 71
     5
 42
-1.0
 73
     0
 74
     0
 75
     0
  3
MATSU
100
AcDbAlignedDimension
 13
1879.608875347235
 23
2134.775576062918
 33
0.0
 14
1814.118681343358
 24
1634.775576062917
 34
0.0
 50
90.0
100
AcDbRotatedDimension
1001
ACAD
1000
DSTYLE
1002
{
1070
    40
1040
20.0
1002
}
  0
LINE
  5
7C4A
330
19
100
AcDbEntity
  8
1
100
AcDbLine
 10
1184.118681343358
 20
4276.331535284448
 30
0.0
 11
1814.118681343358
 21
4276.331535284447
 31
0.0
  0
LINE
  5
7C4B
330
19
100
AcDbEntity
  8
1
100
AcDbLine
 10
674.1186813433587
 20
3436.331535284448
 30
0.0
 11
1814.118681343358
 21
3436.331535284448
 31
0.0
  0
LINE
  5
7C4C
330
19
100
AcDbEntity
  8
1
100
AcDbLine
 10
1814.118681343358
 20
4276.331535284447
 30
0.0
 11
1814.118681343359
 21
4233.331535284447
 31
0.0
  0
LINE
  5
7C4D
330
19
100
AcDbEntity
  8
1
100
AcDbLine
 10
674.1186813433578
 20
4036.331535284448
 30
0.0
 11
674.1186813433578
 21
3436.331535284449
 31
0.0
  0
LINE
  5
7C4E
330
19
100
AcDbEntity
  8
1
100
AcDbLine
 10
674.1186813433587
 20
4036.331535284448
 30
0.0
 11
961.1186813433578
 21
4036.331535284449
 31
0.0
  0
LINE
  5
7C4F
330
19
100
AcDbEntity
  8
1
100
AcDbLine
 10
1184.118681343358
 20
4276.331535284449
 30
0.0
 11
1184.118681343358
 21
4233.331535284448
 31
0.0
  0
LINE
  5
7C50
330
19
100
AcDbEntity
  8
1
100
AcDbLine
 10
961.1186813433578
 20
4233.331535284447
 30
0.0
 11
1860.118681343359
 21
4233.331535284447
 31
0.0
  0
LINE
  5
7C51
330
19
100
AcDbEntity
  8
1
100
AcDbLine
 10
961.1186813433578
 20
3563.331535284449
 30
0.0
 11
1860.118681343359
 21
3563.331535284449
 31
0.0
  0
LINE
  5
7C52
330
19
100
AcDbEntity
  8
1
100
AcDbLine
 10
2301.480437000265
 20
1699.775576062918
 30
0.0
 11
2301.480437000265
 21
2284.775576062918
 31
0.0
  0
LINE
  5
7C53
330
19
100
AcDbEntity
  8
1
100
AcDbLine
 10
629.1186813433577
 20
3238.331535284448
 30
0.0
 11
1649.118681343358
 21
3238.331535284448
 31
0.0
  0
LINE
  5
7C54
330
19
100
AcDbEntity
  8
1
100
AcDbLine
 10
2626.480437000264
 20
2154.775576062921
 30
0.0
 11
2491.980437000265
 21
2154.775576062918
 31
0.0
  0
LINE
  5
7C55
330
19
100
AcDbEntity
  8
1
100
AcDbLine
 10
2626.480437000264
 20
2114.775576062917
 30
0.0
 11
2491.980437000265
 21
2114.775576062917
 31
0.0
  0
LINE
  5
7C56
330
19
100
AcDbEntity
  8
1
100
AcDbLine
 10
1519.118681343358
 20
3563.331535284449
 30
0.0
 11
1519.118681343358
 21
3428.831535284447
 31
0.0
  0
LINE
  5
7C57
330
19
100
AcDbEntity
  8
1
100
AcDbLine
 10
1479.118681343359
 20
3563.331535284449
 30
0.0
 11
1479.118681343359
 21
3428.831535284447
 31
0.0
  0
LINE
  5
7C58
330
19
100
AcDbEntity
  8
2
100
AcDbLine
 10
849.1186813433579
 20
4104.159706512394
 30
0.0
 11
849.1186813433579
 21
3208.410691928625
 31
0.0
  0
LINE
  5
7C59
330
19
100
AcDbEntity
  8
1
100
AcDbLine
 10
1003.118681343358
 20
1775.775576062918
 30
0.0
 11
983.6861813433579
 21
1829.165576062918
 31
0.0
  0
LINE
  5
7C5A
330
19
100
AcDbEntity
  8
1
100
AcDbLine
 10
695.1186813433578
 20
1775.775576062918
 30
0.0
 11
714.5512813433579
 21
1829.165576062918
 31
0.0
  0
ARC
  5
7C5B
330
19
100
AcDbEntity
  8
1
100
AcDbCircle
 10
849.1186813433579
 20
1919.775576062917
 30
0.0
 40
162.0
100
AcDbArc
 50
285.6481
 51
0.0
  0
ARC
  5
7C5E
330
19
100
AcDbEntity
  8
1
100
AcDbCircle
 10
849.1186813433579
 20
1919.775576062917
 30
0.0
 40
162.0
100
AcDbArc
 50
0.0
 51
254.5427
  0
LINE
  5
7C5F
330
19
100
AcDbEntity
  8
2
100
AcDbLine
 10
849.1186813433579
 20
2146.175231372938
 30
0.0
 11
849.1186813433577
 21
1479.775576062917
 31
0.0
  0
LINE
  5
7C61
330
19
100
AcDbEntity
  8
1
100
AcDbLine
 10
805.4380813433581
 20
1763.775576062918
 30
0.0
 11
892.7993813433577
 21
1763.775576062918
 31
0.0
  0
LINE
  5
7C62
330
19
100
AcDbEntity
  8
1
100
AcDbLine
 10
764.1747813433576
 20
1781.831576062917
 30
0.0
 11
755.997381343358
 21
1773.653576062917
 31
0.0
  0
LINE
  5
7C65
330
19
100
AcDbEntity
  8
1
100
AcDbLine
 10
741.9054813433576
 20
1777.775576062918
 30
0.0
 11
697.1186813433578
 21
1777.775576062918
 31
0.0
  0
LINE
  5
7C66
330
19
100
AcDbEntity
  8
1
100
AcDbLine
 10
695.1186813433578
 20
1759.775576062918
 30
0.0
 11
755.1186813433578
 21
1759.775576062918
 31
0.0
  0
ARC
  5
7C68
330
19
100
AcDbEntity
  8
1
100
AcDbCircle
 10
697.1186813433578
 20
1775.775576062918
 30
0.0
 40
2.0
100
AcDbArc
 50
90.0
 51
180.0
  0
LINE
  5
7C6A
330
19
100
AcDbEntity
  8
1
100
AcDbLine
 10
695.1186813433578
 20
1759.775576062918
 30
0.0
 11
695.1186813433578
 21
1775.775576062918
 31
0.0
  0
ARC
  5
7C6D
330
19
100
AcDbEntity
  8
1
100
AcDbCircle
 10
758.1186813433578
 20
1771.532576062918
 30
0.0
 40
3.0
100
AcDbArc
 50
135.0
 51
180.0
  0
LINE
  5
7C6E
330
19
100
AcDbEntity
  8
1
100
AcDbLine
 10
755.1186813433578
 20
1759.775576062918
 30
0.0
 11
755.1186813433578
 21
1771.532576062918
 31
0.0
  0
LINE
  5
7C70
330
19
100
AcDbEntity
  8
1
100
AcDbLine
 10
754.0074813433584
 20
1788.634576062917
 30
0.0
 11
744.0268813433577
 21
1778.653576062918
 31
0.0
  0
ARC
  5
7C71
330
19
100
AcDbEntity
  8
1
100
AcDbCircle
 10
741.9054813433576
 20
1780.775576062918
 30
0.0
 40
3.0
100
AcDbArc
 50
270.0
 51
315.0
  0
LINE
  5
7C74
330
19
100
AcDbEntity
  8
1
100
AcDbLine
 10
956.331881343358
 20
1777.775576062918
 30
0.0
 11
1001.118681343358
 21
1777.775576062918
 31
0.0
  0
LINE
  5
7C75
330
19
100
AcDbEntity
  8
1
100
AcDbLine
 10
1003.118681343358
 20
1759.775576062918
 30
0.0
 11
943.1186813433578
 21
1759.775576062918
 31
0.0
  0
LINE
  5
7C76
330
19
100
AcDbEntity
  8
1
100
AcDbLine
 10
934.0625813433581
 20
1781.831576062917
 30
0.0
 11
942.2400813433577
 21
1773.653576062917
 31
0.0
  0
ARC
  5
7C77
330
19
100
AcDbEntity
  8
1
100
AcDbCircle
 10
940.1186813433579
 20
1771.532576062918
 30
0.0
 40
3.0
100
AcDbArc
 50
0.0
 51
45.0
  0
LINE
  5
7C78
330
19
100
AcDbEntity
  8
1
100
AcDbLine
 10
943.1186813433578
 20
1759.775576062918
 30
0.0
 11
943.1186813433578
 21
1771.532576062918
 31
0.0
  0
LINE
  5
7C7A
330
19
100
AcDbEntity
  8
1
100
AcDbLine
 10
954.1571813433584
 20
1778.707576062918
 30
0.0
 11
944.2298813433581
 21
1788.634576062917
 31
0.0
  0
ARC
  5
7C7B
330
19
100
AcDbEntity
  8
1
100
AcDbCircle
 10
956.331881343358
 20
1780.775576062918
 30
0.0
 40
3.0
100
AcDbArc
 50
225.0
 51
270.0
  0
ARC
  5
7C7C
330
19
100
AcDbEntity
  8
1
100
AcDbCircle
 10
1001.118681343358
 20
1775.775576062918
 30
0.0
 40
2.0
100
AcDbArc
 50
0.0
 51
90.0
  0
LINE
  5
7C81
330
19
100
AcDbEntity
  8
1
100
AcDbLine
 10
1003.118681343358
 20
1759.775576062918
 30
0.0
 11
1003.118681343358
 21
1775.775576062918
 31
0.0
  0
LINE
  5
7C82
330
19
100
AcDbEntity
  8
2
100
AcDbLine
 10
608.4191835618658
 20
1919.775576062917
 30
0.0
 11
1054.71784473065
 21
1919.775576062917
 31
0.0
  0
LINE
  5
7C84
330
19
100
AcDbEntity
  8
1
100
AcDbLine
 10
870.1186813433578
 20
3438.331535284449
 30
0.0
 11
870.1186813433578
 21
3428.831535284447
 31
0.0
  0
LINE
  5
7C85
330
19
100
AcDbEntity
  8
1
100
AcDbLine
 10
828.1186813433578
 20
3438.331535284449
 30
0.0
 11
828.1186813433578
 21
3428.831535284447
 31
0.0
  0
LINE
  5
7C86
330
19
100
AcDbEntity
  8
1
100
AcDbLine
 10
1041.118681343358
 20
1759.775576062918
 30
0.0
 11
911.6186813433579
 21
1759.775576062918
 31
0.0
  0
LINE
  5
7C87
330
19
100
AcDbEntity
  8
1
100
AcDbLine
 10
911.6186813433579
 20
1759.775576062918
 30
0.0
 11
911.6186813433579
 21
1749.775576062918
 31
0.0
  0
LINE
  5
7C88
330
19
100
AcDbEntity
  8
1
100
AcDbLine
 10
786.6186813433578
 20
1759.775576062918
 30
0.0
 11
786.6186813433578
 21
1749.775576062918
 31
0.0
  0
LINE
  5
7C89
330
19
100
AcDbEntity
  8
1
100
AcDbLine
 10
911.6186813433579
 20
1749.775576062917
 30
0.0
 11
786.6186813433578
 21
1749.775576062918
 31
0.0
  0
LINE
  5
7C8B
330
19
100
AcDbEntity
  8
1
100
AcDbLine
 10
786.6186813433578
 20
1759.775576062918
 30
0.0
 11
657.1186813433587
 21
1759.775576062918
 31
0.0
  0
LINE
  5
7C8E
330
19
100
AcDbEntity
  8
1
100
AcDbLine
 10
657.1186813433578
 20
1759.775576062918
 30
0.0
 11
647.1186813433578
 21
1709.775576062918
 31
0.0
  0
LINE
  5
7C8F
330
19
100
AcDbEntity
  8
1
100
AcDbLine
 10
1041.118681343358
 20
1759.775576062917
 30
0.0
 11
1051.118681343358
 21
1709.775576062918
 31
0.0
  0
LINE
  5
7C90
330
19
100
AcDbEntity
  8
2
100
AcDbLine
 10
2626.480437000266
 20
1919.775576062918
 30
0.0
 11
2251.499086287675
 21
1919.775576062917
 31
0.0
  0
LINE
  5
7C91
330
19
100
AcDbEntity
  8
1
100
AcDbLine
 10
2521.480437000266
 20
1699.775576062918
 30
0.0
 11
2521.480437000266
 21
1770.72241058274
 31
0.0
  0
ARC
  5
7C92
330
19
100
AcDbEntity
  8
1
100
AcDbCircle
 10
1499.118681343358
 20
2134.775576062918
 30
0.0
 40
150.0
100
AcDbArc
 50
287.7857246769537
 51
95.68044363587071
  0
ARC
  5
7C93
330
19
100
AcDbEntity
  8
1
100
AcDbCircle
 10
849.1186813433579
 20
1919.775576062917
 30
0.0
 40
220.0
100
AcDbArc
 50
95.68044363587068
 51
287.7857246769538
  0
LINE
  5
7C94
330
19
100
AcDbEntity
  8
1
100
AcDbLine
 10
827.3430574363029
 20
2138.695246726516
 30
0.0
 11
1484.271665043093
 21
2284.038987879007
 31
0.0
  0
LINE
  5
7C95
330
19
100
AcDbEntity
  8
1
100
AcDbLine
 10
1544.937392010859
 20
1991.944746923099
 30
0.0
 11
916.3194569890256
 21
1710.290359991185
 31
0.0
  0
CIRCLE
  5
7C96
330
19
100
AcDbEntity
  8
1
100
AcDbCircle
 10
1499.118681343358
 20
2134.775576062918
 30
0.0
 40
75.0
  0
CIRCLE
  5
7C97
330
19
100
AcDbEntity
  8
1
100
AcDbCircle
 10
849.1186813433579
 20
1919.775576062917
 30
0.0
 40
110.0
  0
LINE
  5
7C98
330
19
100
AcDbEntity
  8
1
100
AcDbLine
 10
1487.759901803267
 20
2208.910440515209
 30
0.0
 11
832.4591380178908
 21
2028.506710592945
 31
0.0
  0
LINE
  5
7C99
330
19
100
AcDbEntity
  8
1
100
AcDbLine
 10
1518.220384475258
 20
2062.248857279694
 30
0.0
 11
877.1345126034784
 21
1813.403055180857
 31
0.0
  0
LINE
  5
7C9A
330
19
100
AcDbEntity
  8
1
100
AcDbLine
 10
629.1186813433587
 20
3458.331535284449
 30
0.0
 11
629.1186813433577
 21
3238.331535284448
 31
0.0
  0
LINE
  5
7C9B
330
19
100
AcDbEntity
  8
1
100
AcDbLine
 10
1649.118681343358
 20
3458.331535284448
 30
0.0
 11
1649.118681343358
 21
3238.331535284448
 31
0.0
  0
LINE
  5
7C9C
330
19
100
AcDbEntity
  8
1
100
AcDbLine
 10
629.1186813433577
 20
3458.331535284448
 30
0.0
 11
1649.118681343358
 21
3458.331535284447
 31
0.0
  0
LINE
  5
7C9D
330
19
100
AcDbEntity
  8
1
100
AcDbLine
 10
739.1186813433578
 20
3428.831535284448
 30
0.0
 11
959.1186813433578
 21
3428.831535284447
 31
0.0
  0
LINE
  5
7C9E
330
19
100
AcDbEntity
  8
1
100
AcDbLine
 10
739.1186813433578
 20
3327.831535284448
 30
0.0
 11
959.1186813433578
 21
3327.831535284448
 31
0.0
  0
LINE
  5
7C9F
330
19
100
AcDbEntity
  8
1
100
AcDbLine
 10
959.1186813433578
 20
3428.831535284448
 30
0.0
 11
959.1186813433587
 21
3327.831535284448
 31
0.0
  0
LINE
  5
7CA0
330
19
100
AcDbEntity
  8
1
100
AcDbLine
 10
739.1186813433578
 20
3428.831535284448
 30
0.0
 11
739.1186813433578
 21
3327.831535284448
 31
0.0
  0
LINE
  5
7CA1
330
19
100
AcDbEntity
  8
1
100
AcDbLine
 10
1574.118681343358
 20
3428.831535284448
 30
0.0
 11
1574.118681343358
 21
3327.831535284448
 31
0.0
  0
LINE
  5
7CA2
330
19
100
AcDbEntity
  8
1
100
AcDbLine
 10
1424.118681343358
 20
3428.831535284448
 30
0.0
 11
1424.118681343358
 21
3327.831535284448
 31
0.0
  0
LINE
  5
7CA3
330
19
100
AcDbEntity
  8
1
100
AcDbLine
 10
1424.118681343358
 20
3327.831535284448
 30
0.0
 11
1574.118681343358
 21
3327.831535284448
 31
0.0
  0
LINE
  5
7CA4
330
19
100
AcDbEntity
  8
1
100
AcDbLine
 10
1424.118681343358
 20
3428.831535284448
 30
0.0
 11
1574.118681343358
 21
3428.831535284447
 31
0.0
  0
LINE
  5
7CA5
330
19
100
AcDbEntity
  8
1
100
AcDbLine
 10
687.1186813433578
 20
3923.331535284449
 30
0.0
 11
687.1186813433578
 21
3438.331535284449
 31
0.0
  0
LINE
  5
7CA6
330
19
100
AcDbEntity
  8
1
100
AcDbLine
 10
1011.118681343358
 20
3563.331535284449
 30
0.0
 11
1011.118681343358
 21
3438.331535284449
 31
0.0
  0
LINE
  5
7CA7
330
19
100
AcDbEntity
  8
1
100
AcDbLine
 10
687.1186813433578
 20
3923.331535284449
 30
0.0
 11
961.1186813433578
 21
3923.331535284449
 31
0.0
  0
LINE
  5
7CA8
330
19
100
AcDbEntity
  8
1
100
AcDbLine
 10
687.1186813433578
 20
3438.331535284449
 30
0.0
 11
1011.118681343358
 21
3438.331535284449
 31
0.0
  0
LINE
  5
7CA9
330
19
100
AcDbEntity
  8
1
100
AcDbLine
 10
2301.480437000265
 20
1699.775576062918
 30
0.0
 11
2521.480437000265
 21
1699.775576062918
 31
0.0
  0
LINE
  5
7CAA
330
19
100
AcDbEntity
  8
1
100
AcDbLine
 10
2301.480437000265
 20
2284.775576062918
 30
0.0
 11
2521.480437000265
 21
2284.775576062918
 31
0.0
  0
LINE
  5
7CAC
330
19
100
AcDbEntity
  8
1
100
AcDbLine
 10
2390.980437000265
 20
1809.775576062918
 30
0.0
 11
2390.980437000264
 21
2209.775576062918
 31
0.0
  0
LINE
  5
7CAD
330
19
100
AcDbEntity
  8
1
100
AcDbLine
 10
2491.980437000265
 20
1809.775576062918
 30
0.0
 11
2491.980437000265
 21
2209.775576062918
 31
0.0
  0
LINE
  5
7CAE
330
19
100
AcDbEntity
  8
1
100
AcDbLine
 10
2491.980437000265
 20
2209.775576062918
 30
0.0
 11
2390.980437000264
 21
2209.775576062918
 31
0.0
  0
LINE
  5
7CAF
330
19
100
AcDbEntity
  8
1
100
AcDbLine
 10
2491.980437000265
 20
2059.775576062918
 30
0.0
 11
2390.980437000264
 21
2059.775576062918
 31
0.0
  0
LINE
  5
7CB0
330
19
100
AcDbEntity
  8
1
100
AcDbLine
 10
2491.980437000265
 20
1809.775576062918
 30
0.0
 11
2390.980437000265
 21
1809.775576062918
 31
0.0
  0
LINE
  5
7CB1
330
19
100
AcDbEntity
  8
1
100
AcDbLine
 10
2491.980437000264
 20
2029.775576062918
 30
0.0
 11
2390.980437000264
 21
2029.775576062918
 31
0.0
  0
DIMENSION
  5
7CB2
330
19
100
AcDbEntity
  8
3
100
AcDbDimension
280
     0
  2
*D6
 10
2301.480437000265
 20
2756.678844086982
 30
0.0
 11
2631.480437000265
 21
2812.393129801268
 31
0.0
 70
    32
  1
(<>)
 71
     5
 42
660.0000000000004
 73
     0
 74
     0
 75
     0
  3
MATSU
100
AcDbAlignedDimension
 13
2961.480437000265
 23
2721.196663374927
 33
0.0
 14
2301.480437000265
 24
2284.775576062918
 34
0.0
100
AcDbRotatedDimension
1001
ACAD
1000
DSTYLE
1002
{
1070
    40
1040
20.0
1002
}
  0
LINE
  5
7CB3
330
19
100
AcDbEntity
  8
1
100
AcDbLine
 10
2961.480437000265
 20
2708.827638413146
 30
0.0
 11
2961.480437000265
 21
2721.196663374927
 31
0.0
  0
LINE
  5
7CB4
330
19
100
AcDbEntity
  8
1
100
AcDbLine
 10
2626.480437000265
 20
2081.775576062918
 30
0.0
 11
2616.480437000265
 21
2081.775576062918
 31
0.0
  0
LINE
  5
7CB5
330
19
100
AcDbEntity
  8
1
100
AcDbLine
 10
2626.480437000265
 20
1757.775576062918
 30
0.0
 11
2500.980437000265
 21
1757.775576062918
 31
0.0
  0
LINE
  5
7CB6
330
19
100
AcDbEntity
  8
1
100
AcDbLine
 10
2500.980437000265
 20
1898.775576062918
 30
0.0
 11
2491.980437000265
 21
1898.775576062917
 31
0.0
  0
LINE
  5
7CB7
330
19
100
AcDbEntity
  8
1
100
AcDbLine
 10
2500.980437000265
 20
1940.775576062918
 30
0.0
 11
2491.980437000265
 21
1940.775576062918
 31
0.0
  0
LINE
  5
7CB8
330
19
100
AcDbEntity
  8
1
100
AcDbLine
 10
2500.980437000265
 20
2081.775576062918
 30
0.0
 11
2500.980437000265
 21
1757.775576062918
 31
0.0
  0
DIMENSION
  5
7CB9
330
19
100
AcDbEntity
  8
3
100
AcDbDimension
280
     0
  2
*D7
 10
2040.571621597939
 20
3436.331535284448
 30
0.0
 11
2000.571621597939
 21
3856.331535284448
 31
0.0
 12
-908.2351932307064
 22
781.0375627885023
 32
0.0
 70
    32
 71
     5
 42
-1.0
 73
     0
 74
     0
 75
     0
  3
MATSU
100
AcDbAlignedDimension
 13
1814.118681343358
 23
4276.331535284447
 33
0.0
 14
1814.118681343358
 24
3436.331535284448
 34
0.0
 50
90.0
100
AcDbRotatedDimension
1001
ACAD
1000
DSTYLE
1002
{
1070
    40
1040
20.0
1002
}
  0
DIMENSION
  5
7CBA
330
19
100
AcDbEntity
  8
3
100
AcDbDimension
280
     0
  2
*D8
 10
488.5180481857842
 20
3436.331535284448
 30
0.0
 11
448.5180481857842
 21
3736.331535284448
 31
0.0
 12
-908.2351932307064
 22
781.0375627885023
 32
0.0
 70
    32
 71
     5
 42
-1.0
 73
     0
 74
     0
 75
     0
  3
MATSU
100
AcDbAlignedDimension
 13
674.1186813433578
 23
4036.331535284448
 33
0.0
 14
674.1186813433578
 24
3436.331535284448
 34
0.0
 50
90.0
100
AcDbRotatedDimension
1001
ACAD
1000
DSTYLE
1002
{
1070
    40
1040
20.0
1002
}
  0
DIMENSION
  5
7CBB
330
19
100
AcDbEntity
  8
3
100
AcDbDimension
280
     0
  2
*D9
 10
1814.118681343358
 20
3158.838356997179
 30
0.0
 11
1244.118681343358
 21
3198.838356997179
 31
0.0
 12
-908.2351932307064
 22
781.0375627885023
 32
0.0
 70
    32
 71
     5
 42
-1.0
 73
     0
 74
     0
 75
     0
  3
MATSU
100
AcDbAlignedDimension
 13
674.1186813433578
 23
3436.331535284448
 33
0.0
 14
1814.118681343358
 24
3436.331535284448
 34
0.0
100
AcDbRotatedDimension
1001
ACAD
1000
DSTYLE
1002
{
1070
    40
1040
20.0
1002
}
  0
DIMENSION
  5
7CBC
330
19
100
AcDbEntity
  8
3
100
AcDbDimension
280
     0
  2
*D10
 10
3512.339574092099
 20
1884.775576062917
 30
0.0
 11
3472.339574092099
 21
2134.775576062918
 31
0.0
 12
-908.2351932307064
 22
781.0375627885023
 32
0.0
 70
    32
 71
     5
 42
-1.0
 73
     0
 74
     0
 75
     0
  3
MATSU
100
AcDbAlignedDimension
 13
3296.480437000265
 23
2384.775576062918
 33
0.0
 14
3296.480437000264
 24
1884.775576062917
 34
0.0
 50
90.0
100
AcDbRotatedDimension
1001
ACAD
1000
DSTYLE
1002
{
1070
    40
1040
20.0
1070
     3
1000
φ<>
1002
}
  0
DIMENSION
  5
7CC3
330
19
100
AcDbEntity
  8
3
100
AcDbDimension
280
     0
  2
*D11
 10
1184.118681343358
 20
4417.047760159113
 30
0.0
 11
1499.118681343358
 21
4457.047760159112
 31
0.0
 12
-908.2351932307064
 22
781.0375627885023
 32
0.0
 70
    32
 71
     5
 42
-1.0
 73
     0
 74
     0
 75
     0
  3
MATSU
100
AcDbAlignedDimension
 13
1814.118681343358
 23
4276.331535284447
 33
0.0
 14
1184.118681343358
 24
4276.331535284448
 34
0.0
100
AcDbRotatedDimension
1001
ACAD
1000
DSTYLE
1002
{
1070
    40
1040
20.0
1002
}
  0
DIMENSION
  5
7CC4
330
19
100
AcDbEntity
  8
3
100
AcDbDimension
280
     0
  2
*D12
 10
674.1186813433578
 20
4417.047760159113
 30
0.0
 11
929.1186813433577
 21
4457.047760159112
 31
0.0
 12
-908.2351932307064
 22
781.0375627885023
 32
0.0
 70
    32
 71
     5
 42
-1.0
 73
     0
 74
     0
 75
     0
  3
MATSU
100
AcDbAlignedDimension
 13
1184.118681343358
 23
4276.331535284448
 33
0.0
 14
674.1186813433578
 24
4036.331535284448
 34
0.0
100
AcDbRotatedDimension
1001
ACAD
1000
DSTYLE
1002
{
1070
    40
1040
20.0
1002
}
  0
LINE
  5
7CC5
330
19
100
AcDbEntity
  8
1
100
AcDbLine
 10
2521.480437000265
 20
2233.488585871028
 30
0.0
 11
2521.480437000265
 21
2284.775576062918
 31
0.0
  0
CIRCLE
  5
7CC6
330
19
100
AcDbEntity
  8
1
100
AcDbCircle
 10
1499.118681343358
 20
2134.775576062918
 30
0.0
 40
267.5
  0
DIMENSION
  5
7CC7
330
19
100
AcDbEntity
  8
3
100
AcDbDimension
280
     0
  2
*D13
 10
1861.566672151219
 20
2736.31988253643
 30
0.0
 11
1680.342676747288
 21
2776.319882536431
 31
0.0
 70
    32
  1
361
 71
     5
 42
-1.0
 73
     0
 74
     0
 75
     0
  3
MATSU
100
AcDbAlignedDimension
 13
1499.118681343358
 23
2515.265770066795
 33
0.0
 14
1861.566672151219
 24
2097.775576062918
 34
0.0
100
AcDbRotatedDimension
1001
ACAD
1000
DSTYLE
1002
{
1070
   287
1070
     4
1070
    40
1040
20.0
1070
    75
1070
     1
1070
   279
1070
     1
1070
   289
1070
     3
1002
}
  0
DIMENSION
  5
7CC9
330
19
100
AcDbEntity
  8
3
100
AcDbDimension
280
     0
  2
*D14
 10
2100.662987816871
 20
2494.775576062917
 30
0.0
 11
2060.662987816871
 21
2314.775576062918
 31
0.0
 70
    32
 71
     5
 42
-1.0
 73
     0
 74
     0
 75
     0
  3
MATSU
100
AcDbAlignedDimension
 13
1879.608875347235
 23
2134.775576062918
 33
0.0
 14
1504.718681343358
 24
2494.775576062917
 34
0.0
 50
90.0
100
AcDbRotatedDimension
1001
ACAD
1000
DSTYLE
1002
{
1070
   287
1070
     4
1070
    40
1040
20.0
1070
    75
1070
     1
1070
   279
1070
     1
1070
   289
1070
     3
1002
}
  0
LINE
  5
7CCA
330
19
100
AcDbEntity
  8
1
100
AcDbLine
 10
2596.480437000265
 20
2491.775576062917
 30
0.0
 11
2596.480437000265
 21
2494.775576062917
 31
0.0
  0
LINE
  5
7CCB
330
19
100
AcDbEntity
  8
1
100
AcDbLine
 10
3326.480437000264
 20
2491.775576062918
 30
0.0
 11
3326.480437000265
 21
2494.775576062917
 31
0.0
  0
LINE
  5
7CCC
330
19
100
AcDbEntity
  8
1
100
AcDbLine
 10
3326.480437000265
 20
2491.775576062918
 30
0.0
 11
2596.480437000265
 21
2491.775576062917
 31
0.0
  0
LINE
  5
7CCD
330
19
100
AcDbEntity
  8
1
100
AcDbLine
 10
2552.680437000266
 20
2081.775576062918
 30
0.0
 11
2500.980437000265
 21
2081.775576062918
 31
0.0
  0
LINE
  5
7CCE
330
19
100
AcDbEntity
  8
1
100
AcDbLine
 10
961.1186813433578
 20
4233.331535284447
 30
0.0
 11
961.1186813433578
 21
3563.331535284449
 31
0.0
  0
LINE
  5
7CCF
330
19
100
AcDbEntity
  8
1
100
AcDbLine
 10
1860.118681343358
 20
4233.331535284447
 30
0.0
 11
1860.118681343358
 21
3563.331535284449
 31
0.0
  0
LINE
  5
7CD0
330
19
100
AcDbEntity
  8
1
100
AcDbLine
 10
1473.118681343358
 20
4233.331535284447
 30
0.0
 11
1473.118681343358
 21
3563.331535284449
 31
0.0
  0
LINE
  5
7CD1
330
19
100
AcDbEntity
  8
1
100
AcDbLine
 10
1473.118681343358
 20
4233.331535284447
 30
0.0
 11
961.1186813433578
 21
3563.331535284449
 31
0.0
  0
LINE
  5
7CD2
330
19
100
AcDbEntity
  8
1
100
AcDbLine
 10
961.1186813433578
 20
4233.331535284447
 30
0.0
 11
1473.118681343358
 21
3563.331535284449
 31
0.0
  0
LINE
  5
7CD3
330
19
100
AcDbEntity
  8
1
100
AcDbLine
 10
1814.118681343359
 20
3563.331535284449
 30
0.0
 11
1814.118681343358
 21
3436.331535284448
 31
0.0
  0
DIMENSION
  5
7CD4
330
19
100
AcDbEntity
  8
3
100
AcDbDimension
280
     0
  2
*D15
 10
674.1186813433578
 20
2840.077533969077
 30
0.0
 11
1267.842676747288
 21
2880.077533969077
 31
0.0
 12
-908.2351932307064
 22
781.0375627885023
 32
0.0
 70
    32
  1
1186
 71
     5
 42
-1.0
 73
     0
 74
     0
 75
     0
  3
MATSU
100
AcDbAlignedDimension
 13
1861.566672151219
 23
2097.775576062918
 33
0.0
 14
674.1186813433578
 24
1709.775576062918
 34
0.0
100
AcDbRotatedDimension
1001
ACAD
1000
DSTYLE
1002
{
1070
    40
1040
20.0
1002
}
  0
LINE
  5
7F01
330
19
100
AcDbEntity
  8
4
100
AcDbLine
 10
3700.0
 20
1000.0
 30
0.0
 11
3700.0
 21
600.0
 31
0.0
  0
LINE
  5
7F02
330
19
100
AcDbEntity
  8
4
100
AcDbLine
 10
2300.0
 20
1000.0
 30
0.0
 11
2300.0
 21
600.0
 31
0.0
  0
LINE
  5
7F03
330
19
100
AcDbEntity
  8
4
100
AcDbLine
 10
1300.0
 20
1000.0
 30
0.0
 11
1300.0
 21
600.0
 31
0.0
  0
LINE
  5
7F06
330
19
100
AcDbEntity
  8
4
100
AcDbLine
 10
1300.0
 20
600.0
 30
0.0
 11
3700.0
 21
600.0
 31
0.0
  0
LINE
  5
7F07
330
19
100
AcDbEntity
  8
4
100
AcDbLine
 10
1300.0
 20
800.0
 30
0.0
 11
3700.0
 21
800.0
 31
0.0
  0
TEXT
  5
7F08
330
19
100
AcDbEntity
  8
4
100
AcDbText
 10
1377.004161693803
 20
863.0860517332257
 30
0.0
 40
100.0
  1
機器名称
100
AcDbText
  0
TEXT
  5
7F09
330
19
100
AcDbEntity
  8
4
100
AcDbText
 10
1372.516212049595
 20
643.2903134640219
 30
0.0
 40
100.0
  1
機器型番
100
AcDbText
  0
TEXT
  5
7F0A
330
19
100
AcDbEntity
  8
4
100
AcDbText
 10
2351.883488160925
 20
857.214249465939
 30
0.0
 40
80.0
  1
ミツヤリミットロードファン
100
AcDbText
  0
TEXT
  5
7F0B
330
19
100
AcDbEntity
  8
4
100
AcDbText
 10
2373.308991170961
 20
634.3191685598867
 30
0.0
 40
100.0
  1
LL#3-5
100
AcDbText
  0
TEXT
  5
7F0D
330
19
100
AcDbEntity
  8
4
100
AcDbText
 10
1619.475793773494
 20
4766.857682665031
 30
0.0
 40
108.0
  1
床置防振ベット
100
AcDbText
  0
TEXT
  5
7F0E
330
19
100
AcDbEntity
  8
4
100
AcDbText
 10
632.3351866588928
 20
5067.761952398596
 30
0.0
 40
144.0
  1
遠心式両吸込両持リミットロードファン
100
AcDbText
  0
LINE
  5
7F0F
330
19
100
AcDbEntity
  8
4
100
AcDbLine
 10
500.0
 20
4938.817508529609
 30
0.0
 11
3700.0
 21
4938.817508529609
 31
0.0
  0
LINE
  5
7F10
330
19
100
AcDbEntity
  8
4
100
AcDbLine
 10
500.0
 20
5338.81750852961
 30
0.0
 11
3700.0
 21
5338.81750852961
 31
0.0
  0
LINE
  5
7F11
330
19
100
AcDbEntity
  8
4
100
AcDbLine
 10
1300.0
 20
1000.0
 30
0.0
 11
3700.0
 21
1000.0
 31
0.0
  0
LINE
  5
7F12
330
19
100
AcDbEntity
  8
4
100
AcDbLine
 10
500.0
 20
5338.81750852961
 30
0.0
 11
500.0
 21
4938.817508529609
 31
0.0
  0
TEXT
  5
7F13
330
19
100
AcDbEntity
  8
4
100
AcDbText
 10
747.7581292880895
 20
4764.638955092687
 30
0.0
 40
108.0
  1
右回転上向
100
AcDbText
  0
TEXT
  5
7F14
330
19
100
AcDbEntity
  8
4
100
AcDbText
 10
2937.93911849858
 20
5412.122162990618
 30
0.0
 40
112.0
  1
No.
100
AcDbText
  0
TEXT
  5
7F15
330
19
100
AcDbEntity
  8
4
100
AcDbText
 10
2622.592125200026
 20
4766.857682665031
 30
0.0
 40
108.0
  1
縮尺：1/20
100
AcDbText
  0
LINE
  5
7F16
330
19
100
AcDbEntity
  8
4
100
AcDbLine
 10
3700.0
 20
5338.81750852961
 30
0.0
 11
3700.0
 21
4938.817508529609
 31
0.0
  0
LINE
  5
7F17
330
19
100
AcDbEntity
  8
4
100
AcDbLine
 10
4200.0
 20
5900.0
 30
0.0
 11
4200.0
 21
5900.0
 31
0.0
  0
LINE
  5
7F18
330
19
100
AcDbEntity
  8
4
100
AcDbLine
 10
2881.234844719729
 20
5362.527166250802
 30
0.0
 11
2881.234844719729
 21
5573.304523099505
 31
0.0
  0
LINE
  5
7F19
330
19
100
AcDbEntity
  8
4
100
AcDbLine
 10
2881.234844719729
 20
5573.304523099505
 30
0.0
 11
3700.0
 21
5573.304523099505
 31
0.0
  0
LINE
  5
7F1A
330
19
100
AcDbEntity
  8
4
100
AcDbLine
 10
3700.0
 20
5573.304523099505
 30
0.0
 11
3700.0
 21
5362.527166250802
 31
0.0
  0
LINE
  5
7F1B
330
19
100
AcDbEntity
  8
4
100
AcDbLine
 10
3700.0
 20
5362.527166250802
 30
0.0
 11
2881.234844719729
 21
5362.527166250802
 31
0.0
  0
LINE
  5
7F1C
330
19
100
AcDbEntity
  8
4
100
AcDbLine
 10
0.0
 20
0.0
 30
0.0
 11
0.0
 21
5900.0
 31
0.0
  0
LINE
  5
7F1D
330
19
100
AcDbEntity
  8
4
100
AcDbLine
 10
0.0
 20
5900.0
 30
0.0
 11
4200.0
 21
5900.0
 31
0.0
  0
LINE
  5
7F1E
330
19
100
AcDbEntity
  8
4
100
AcDbLine
 10
4200.0
 20
5900.0
 30
0.0
 11
4200.0
 21
0.0
 31
0.0
  0
LINE
  5
7F1F
330
19
100
AcDbEntity
  8
4
100
AcDbLine
 10
4200.0
 20
0.0
 30
0.0
 11
0.0
 21
0.0
 31
0.0
  0
LINE
  5
7F20
330
19
100
AcDbEntity
  8
1
100
AcDbLine
 10
961.1186813433578
 20
2494.775576062917
 30
0.0
 11
990.1186813433579
 21
2134.775576062918
 31
0.0
  0
ARC
  5
7F21
330
19
100
AcDbEntity
  8
1
100
AcDbCircle
 10
1462.118681343358
 20
2171.775576062918
 30
0.0
 40
473.4479908078608
100
AcDbArc
 50
184.4822403704249
 51
270.0
  0
ARC
  5
7F22
330
19
100
AcDbEntity
  8
1
100
AcDbCircle
 10
1462.118681343358
 20
2097.775576062918
 30
0.0
 40
399.4479908078606
100
AcDbArc
 50
270.0
 51
5.042451069170892
  0
ARC
  5
7F23
330
19
100
AcDbEntity
  8
1
100
AcDbCircle
 10
1530.118681343358
 20
2103.775576062917
 30
0.0
 40
331.1837981443563
100
AcDbArc
 50
5.042451069170891
 51
90.0
  0
ARC
  5
7F24
330
19
100
AcDbEntity
  8
1
100
AcDbCircle
 10
1530.118681343357
 20
2165.775576062916
 30
0.0
 40
269.1837981443577
100
AcDbArc
 50
89.99999999999982
 51
102.2249984889337
  0
DIMENSION
  5
7F4B
330
19
100
AcDbEntity
  8
3
100
AcDbDimension
280
     0
  2
*D16
 10
2100.662987816871
 20
1479.775576062917
 30
0.0
 11
2050.66298781687
 21
1331.204147491489
 31
0.0
 70
    32
 71
     5
 42
75.00000000000046
 73
     0
 74
     0
 75
     0
  3
IGA
100
AcDbAlignedDimension
 13
1814.118681343358
 23
1554.775576062918
 33
0.0
 14
1814.118681343357
 24
1479.775576062917
 34
0.0
 50
90.0
100
AcDbRotatedDimension
1001
ACAD
1000
DSTYLE
1002
{
1070
   287
1070
     3
1070
    40
1040
20.0
1070
   143
1040
0.039
1070
   172
1070
     1
1070
   271
1070
     0
1070
   279
1070
     0
1070
   288
1070
     1
1070
     6
1000
DOT
1002
}
  0
DIMENSION
  5
8040
330
19
100
AcDbEntity
  8
3
100
AcDbDimension
280
     0
  2
*D18
 10
1499.118681343358
 20
1360.905335002484
 30
0.0
 11
1086.618681343358
 21
1410.905335002484
 31
0.0
 70
    32
 71
     5
 42
825.0
 73
     0
 74
     0
 75
     0
  3
IGA
100
AcDbAlignedDimension
 13
674.1186813433578
 23
1479.775576062917
 33
0.0
 14
1499.118681343358
 24
1479.775576062917
 34
0.0
100
AcDbRotatedDimension
1001
ACAD
1000
DSTYLE
1002
{
1070
   172
1070
     1
1070
    40
1040
20.0
1070
   271
1070
     0
1070
   143
1040
0.039
1002
}
  0
DIMENSION
  5
804D
330
19
100
AcDbEntity
  8
3
100
AcDbDimension
280
     0
  2
*D19
 10
1814.118681343357
 20
1360.905335002484
 30
0.0
 11
1656.618681343357
 21
1410.905335002484
 31
0.0
 70
    32
 71
     5
 42
314.9999999999995
 73
     0
 74
     0
 75
     0
  3
IGA
100
AcDbAlignedDimension
 13
1499.118681343358
 23
1479.775576062917
 33
0.0
 14
1814.118681343357
 24
1479.775576062917
 34
0.0
100
AcDbRotatedDimension
1001
ACAD
1000
DSTYLE
1002
{
1070
   172
1070
     1
1070
    40
1040
20.0
1070
   271
1070
     0
1070
   143
1040
0.039
1002
}
  0
DIMENSION
  5
805A
330
19
100
AcDbEntity
  8
3
100
AcDbDimension
280
     0
  2
*D20
 10
2961.480437000265
 20
1360.905335002484
 30
0.0
 11
2730.480437000265
 21
1410.905335002484
 31
0.0
 70
    32
 71
     5
 42
462.0
 73
     0
 74
     0
 75
     0
  3
IGA
100
AcDbAlignedDimension
 13
2499.480437000265
 23
1479.775576062918
 33
0.0
 14
2961.480437000265
 24
1479.775576062918
 34
0.0
100
AcDbRotatedDimension
1001
ACAD
1000
DSTYLE
1002
{
1070
   172
1070
     1
1070
    40
1040
20.0
1070
   271
1070
     0
1070
   143
1040
0.039
1002
}
  0
DIMENSION
  5
8067
330
19
100
AcDbEntity
  8
3
100
AcDbDimension
280
     0
  2
*D21
 10
3339.480437000265
 20
1360.905335002484
 30
0.0
 11
3150.480437000265
 21
1410.905335002484
 31
0.0
 70
    32
 71
     5
 42
378.0
 73
     0
 74
     0
 75
     0
  3
IGA
100
AcDbAlignedDimension
 13
2961.480437000265
 23
1479.775576062918
 33
0.0
 14
3339.480437000265
 24
1479.775576062918
 34
0.0
100
AcDbRotatedDimension
1001
ACAD
1000
DSTYLE
1002
{
1070
   172
1070
     1
1070
    40
1040
20.0
1070
   271
1070
     0
1070
   143
1040
0.039
1002
}
  0
DIMENSION
  5
808D
330
19
100
AcDbEntity
  8
3
100
AcDbDimension
280
     0
  2
*D23
 10
2099.291913608915
 20
1634.775576062917
 30
0.0
 11
2182.292384712317
 21
1594.775576062918
 31
0.0
 70
   160
 71
     5
 42
79.99999999999954
 73
     0
 74
     0
 75
     0
  3
IGA
100
AcDbAlignedDimension
 13
1814.118681343357
 23
1554.775576062918
 33
0.0
 14
1814.118681343357
 24
1634.775576062917
 34
0.0
 50
90.0
100
AcDbRotatedDimension
1001
ACAD
1000
DSTYLE
1002
{
1070
     3
1000
(<>)
1070
    40
1040
20.0
1070
    75
1070
     1
1070
    76
1070
     1
1070
   143
1040
0.039
1070
   172
1070
     1
1070
   271
1070
     0
1070
   343
1005
8068
1070
   344
1005
8068
1002
}
  0
DIMENSION
  5
809A
330
19
100
AcDbEntity
  8
3
100
AcDbDimension
280
     0
  2
*D24
 10
2255.679171935371
 20
1479.775576062917
 30
0.0
 11
2189.964886221085
 21
1987.275576062918
 31
0.0
 70
    32
 71
     5
 42
1015.0
 73
     0
 74
     0
 75
     0
  3
IGA
100
AcDbAlignedDimension
 13
1504.718681343358
 23
2494.775576062917
 33
0.0
 14
1814.118681343357
 24
1479.775576062917
 34
0.0
 50
90.0
100
AcDbRotatedDimension
1001
ACAD
1000
DSTYLE
1002
{
1070
   172
1070
     1
1070
    40
1040
20.0
1070
     3
1000
(<>)
1070
   271
1070
     0
1070
   143
1040
0.039
1002
}
  0
ENDSEC
  0
SECTION
  2
OBJECTS
  0
DICTIONARY
  5
C
330
0
100
AcDbDictionary
281
     1
  3
ACAD_CIP_PREVIOUS_PRODUCT_INFO
350
814F
  3
ACAD_COLOR
350
8132
  3
ACAD_DETAILVIEWSTYLE
350
814B
  3
ACAD_GROUP
350
D
  3
ACAD_LAYOUT
350
80A4
  3
ACAD_MATERIAL
350
8100
  3
ACAD_MLEADERSTYLE
350
8147
  3
ACAD_MLINESTYLE
350
E
  3
ACAD_PLOTSETTINGS
350
80A5
  3
ACAD_PLOTSTYLENAME
350
80A2
  3
ACAD_SCALELIST
350
8135
  3
ACAD_SECTIONVIEWSTYLE
350
8149
  3
ACAD_TABLESTYLE
350
8133
  3
ACAD_VISUALSTYLE
350
8119
  3
ACDB_RECOMPOSE_DATA
350
8214
  3
AcDbVariableDictionary
350
8203
  3
AcDsDecomposeData
350
821A
  0
DICTIONARY
  5
819F
330
2
100
AcDbDictionary
280
     1
281
     1
  3
ACAD_LAYERSTATES
360
81A0
  0
DICTIONARY
  5
8192
330
F
100
AcDbDictionary
280
     1
281
     1
  3
ADSK_XREC_LAYER_RECONCILED
360
8193
  0
DICTIONARY
  5
8194
330
31
100
AcDbDictionary
280
     1
281
     1
  3
ADSK_XREC_LAYER_RECONCILED
360
8195
  0
DICTIONARY
  5
8196
330
76D0
100
AcDbDictionary
280
     1
281
     1
  3
ADSK_XREC_LAYER_RECONCILED
360
8197
  0
DICTIONARY
  5
8198
330
76D1
100
AcDbDictionary
280
     1
281
     1
  3
ADSK_XREC_LAYER_RECONCILED
360
8199
  0
DICTIONARY
  5
819A
330
76D2
100
AcDbDictionary
280
     1
281
     1
  3
ADSK_XREC_LAYER_RECONCILED
360
819B
  0
DICTIONARY
  5
80D1
330
19
100
AcDbDictionary
280
     1
281
     1
  3
ACAD_LAYOUTSELFREF
360
80D2
  0
DICTIONARY
  5
80CF
330
16
100
AcDbDictionary
280
     1
281
     1
  3
ACAD_LAYOUTSELFREF
360
80D0
  0
XRECORD
  5
814F
102
{ACAD_REACTORS
330
C
102
}
330
C
100
AcDbXrecord
280
     1
300
ACDLT
300
2023
300

  0
DICTIONARY
  5
8132
102
{ACAD_REACTORS
330
C
102
}
330
C
100
AcDbDictionary
281
     1
  0
DICTIONARY
  5
814B
102
{ACAD_REACTORS
330
C
102
}
330
C
100
AcDbDictionary
281
     1
  3
Metric50
350
814C
  0
DICTIONARY
  5
D
102
{ACAD_REACTORS
330
C
102
}
330
C
100
AcDbDictionary
281
     1
  0
DICTIONARY
  5
80A4
102
{ACAD_REACTORS
330
C
102
}
330
C
100
AcDbDictionary
281
     1
  3
Model
350
80A6
  3
ﾚｲｱｳﾄ1
350
80A7
  0
DICTIONARY
  5
8100
102
{ACAD_REACTORS
330
C
102
}
330
C
100
AcDbDictionary
281
     1
  3
ByBlock
350
8109
  3
ByLayer
350
8101
  3
Global
350
8111
  0
DICTIONARY
  5
8147
102
{ACAD_REACTORS
330
C
102
}
330
C
100
AcDbDictionary
281
     1
  3
Standard
350
8148
  0
DICTIONARY
  5
E
102
{ACAD_REACTORS
330
C
102
}
330
C
100
AcDbDictionary
281
     1
  3
STANDARD
350
1C
  0
DICTIONARY
  5
80A5
102
{ACAD_REACTORS
330
C
102
}
330
C
100
AcDbDictionary
281
     1
  0
ACDBDICTIONARYWDFLT
  5
80A2
102
{ACAD_REACTORS
330
C
102
}
330
C
100
AcDbDictionary
281
     1
  3
Normal
350
80A3
100
AcDbDictionaryWithDefault
340
80A3
  0
DICTIONARY
  5
8135
102
{ACAD_REACTORS
330
C
102
}
330
C
100
AcDbDictionary
281
     1
  3
A0
350
8136
  3
A1
350
8137
  3
A2
350
8138
  3
A3
350
8139
  3
A4
350
813A
  3
A5
350
813B
  3
A6
350
813C
  3
A7
350
813D
  3
A8
350
813E
  3
A9
350
813F
  3
B0
350
8140
  3
B1
350
8141
  3
B2
350
8142
  3
B3
350
8143
  3
B4
350
8144
  3
B5
350
8145
  3
B6
350
8146
  0
DICTIONARY
  5
8149
102
{ACAD_REACTORS
330
C
102
}
330
C
100
AcDbDictionary
281
     1
  3
Metric50
350
814A
  0
DICTIONARY
  5
8133
102
{ACAD_REACTORS
330
C
102
}
330
C
100
AcDbDictionary
281
     1
  3
Standard
350
8134
  0
DICTIONARY
  5
8119
102
{ACAD_REACTORS
330
C
102
}
330
C
100
AcDbDictionary
281
     1
  3
2dWireframe
350
811F
  3
Basic
350
811E
  3
Brighten
350
8125
  3
ColorChange
350
8129
  3
Conceptual
350
8122
  3
Dim
350
8124
  3
EdgeColorOff
350
8131
  3
Facepattern
350
8128
  3
Flat
350
811A
  3
FlatWithEdges
350
811B
  3
Gouraud
350
811C
  3
GouraudWithEdges
350
811D
  3
Hidden
350
8121
  3
JitterOff
350
812F
  3
Linepattern
350
8127
  3
OverhangOff
350
8130
  3
Realistic
350
8123
  3
Shaded
350
812E
  3
Shaded with edges
350
812D
  3
Shades of Gray
350
812A
  3
Sketchy
350
812B
  3
Thicken
350
8126
  3
Wireframe
350
8120
  3
X-Ray
350
812C
  0
XRECORD
  5
8214
102
{ACAD_REACTORS
330
C
102
}
330
C
100
AcDbXrecord
280
     1
 90
        1
330
7CC7
330
7CC9
330
8134
  0
DICTIONARY
  5
8203
102
{ACAD_REACTORS
330
C
102
}
330
C
100
AcDbDictionary
281
     1
  3
CANNOSCALE
350
8209
  3
CMLEADERSTYLE
350
8205
  3
CTABLESTYLE
350
8204
  3
CVIEWDETAILSTYLE
350
8206
  3
CVIEWSECTIONSTYLE
350
8207
  3
LAYEREVAL
350
820B
  3
LAYERNOTIFY
350
820C
  3
LIGHTINGUNITS
350
820A
  3
MARKUPASSISTMODE
350
8211
  3
MSLTSCALE
350
8208
  0
DICTIONARY
  5
821A
102
{ACAD_REACTORS
330
C
102
}
330
C
100
AcDbDictionary
281
     1
  3
AcDsRecords
350
821C
  3
AcDsSchemas
350
821B
1001
ACAD
1070
     2
  0
DICTIONARY
  5
81A0
102
{ACAD_REACTORS
330
819F
102
}
330
819F
100
AcDbDictionary
281
     1
  0
XRECORD
  5
8193
102
{ACAD_REACTORS
330
8192
102
}
330
8192
100
AcDbXrecord
280
     1
290
     1
  0
XRECORD
  5
8195
102
{ACAD_REACTORS
330
8194
102
}
330
8194
100
AcDbXrecord
280
     1
290
     1
  0
XRECORD
  5
8197
102
{ACAD_REACTORS
330
8196
102
}
330
8196
100
AcDbXrecord
280
     1
290
     1
  0
XRECORD
  5
8199
102
{ACAD_REACTORS
330
8198
102
}
330
8198
100
AcDbXrecord
280
     1
290
     1
  0
XRECORD
  5
819B
102
{ACAD_REACTORS
330
819A
102
}
330
819A
100
AcDbXrecord
280
     1
290
     1
  0
XRECORD
  5
80D2
102
{ACAD_REACTORS
330
80D1
102
}
330
80D1
100
AcDbXrecord
280
     1
340
19
  0
XRECORD
  5
80D0
102
{ACAD_REACTORS
330
80CF
102
}
330
80CF
100
AcDbXrecord
280
     1
340
16
  0
ACDBDETAILVIEWSTYLE
  5
814C
102
{ACAD_XDICTIONARY
360
821F
102
}
102
{ACAD_REACTORS
330
814B
102
}
330
814B
100
AcDbModelDocViewStyle
 70
     0
  3
Metric50
290
     0
100
AcDbDetailViewStyle
 70
     0
 71
     0
 90
        3
 71
     1
340
10
 62
   256
 40
5.0
340
0
 62
   256
 40
5.0
300

 40
0.0
280
     1
 71
     2
340
15
 90
       25
 62
   256
 71
     3
340
10
 62
   256
 40
5.0
 90
        0
 40
15.0
 90
        1
300
%<\AcVar ViewDetailId>% (%<\AcVar ViewScale \f "%sn">%)
 71
     4
340
15
 90
       25
 62
   256
340
15
 90
       25
 62
   256
280
     0
  0
LAYOUT
  5
80A6
102
{ACAD_REACTORS
330
80A4
102
}
330
80A4
100
AcDbPlotSettings
  1

  2
EPSON LP-9300
  4

  6

 40
0.0
 41
0.0
 42
0.0
 43
0.0
 44
0.0
 45
0.0
 46
0.0
 47
0.0
 48
0.0
 49
0.0
140
0.0
141
0.0
142
1.0
143
1.0
 70
  1712
 72
     0
 73
     0
 74
     0
  7

 75
     0
147
1.0
 76
     0
 77
     2
 78
   300
148
0.0
149
0.0
100
AcDbLayout
  1
Model
 70
     1
 71
     0
 10
0.0
 20
0.0
 11
12.0
 21
9.0
 12
0.0
 22
0.0
 32
0.0
 14
0.0
 24
0.0
 34
0.0
 15
0.0
 25
0.0
 35
0.0
146
0.0
 13
0.0
 23
0.0
 33
0.0
 16
1.0
 26
0.0
 36
0.0
 17
0.0
 27
1.0
 37
0.0
 76
     0
330
19
331
80FE
  0
LAYOUT
  5
80A7
102
{ACAD_REACTORS
330
80A4
102
}
330
80A4
100
AcDbPlotSettings
  1

  2
EPSON LP-9300
  4

  6

 40
0.0
 41
0.0
 42
0.0
 43
0.0
 44
0.0
 45
0.0
 46
0.0
 47
0.0
 48
0.0
 49
0.0
140
0.0
141
0.0
142
1.0
143
1.0
 70
   688
 72
     0
 73
     0
 74
     5
  7

 75
    16
147
1.0
 76
     0
 77
     2
 78
   300
148
0.0
149
0.0
100
AcDbLayout
  1
ﾚｲｱｳﾄ1
 70
     1
 71
     1
 10
0.0
 20
0.0
 11
12.0
 21
9.0
 12
0.0
 22
0.0
 32
0.0
 14
1.000000000000000E+20
 24
1.000000000000000E+20
 34
1.000000000000000E+20
 15
-1.000000000000000E+20
 25
-1.000000000000000E+20
 35
-1.000000000000000E+20
146
0.0
 13
0.0
 23
0.0
 33
0.0
 16
1.0
 26
0.0
 36
0.0
 17
0.0
 27
1.0
 37
0.0
 76
     0
330
16
  0
MATERIAL
  5
8109
102
{ACAD_XDICTIONARY
360
810A
102
}
102
{ACAD_REACTORS
330
8100
102
}
330
8100
100
AcDbMaterial
  1
ByBlock
 72
     0
 43
0.0208333333333333
 43
0.0
 43
0.0
 43
0.0
 43
0.0
 43
0.0208333333333333
 43
0.0
 43
0.0
 43
0.0
 43
0.0
 43
1.0
 43
0.0
 43
0.0
 43
0.0
 43
0.0
 43
1.0
 77
     0
 47
0.0208333333333333
 47
0.0
 47
0.0
 47
0.0
 47
0.0
 47
0.0208333333333333
 47
0.0
 47
0.0
 47
0.0
 47
0.0
 47
1.0
 47
0.0
 47
0.0
 47
0.0
 47
0.0
 47
1.0
171
     0
 49
0.0208333333333333
 49
0.0
 49
0.0
 49
0.0
 49
0.0
 49
0.0208333333333333
 49
0.0
 49
0.0
 49
0.0
 49
0.0
 49
1.0
 49
0.0
 49
0.0
 49
0.0
 49
0.0
 49
1.0
175
     0
142
0.0208333333333333
142
0.0
142
0.0
142
0.0
142
0.0
142
0.0208333333333333
142
0.0
142
0.0
142
0.0
142
0.0
142
1.0
142
0.0
142
0.0
142
0.0
142
0.0
142
1.0
179
     0
144
0.0208333333333333
144
0.0
144
0.0
144
0.0
144
0.0
144
0.0208333333333333
144
0.0
144
0.0
144
0.0
144
0.0
144
1.0
144
0.0
144
0.0
144
0.0
144
0.0
144
1.0
147
0.0208333333333333
147
0.0
147
0.0
147
0.0
147
0.0
147
0.0208333333333333
147
0.0
147
0.0
147
0.0
147
0.0
147
1.0
147
0.0
147
0.0
147
0.0
147
0.0
147
1.0
  0
MATERIAL
  5
8101
102
{ACAD_XDICTIONARY
360
8102
102
}
102
{ACAD_REACTORS
330
8100
102
}
330
8100
100
AcDbMaterial
  1
ByLayer
 72
     0
 43
0.0208333333333333
 43
0.0
 43
0.0
 43
0.0
 43
0.0
 43
0.0208333333333333
 43
0.0
 43
0.0
 43
0.0
 43
0.0
 43
1.0
 43
0.0
 43
0.0
 43
0.0
 43
0.0
 43
1.0
 77
     0
 47
0.0208333333333333
 47
0.0
 47
0.0
 47
0.0
 47
0.0
 47
0.0208333333333333
 47
0.0
 47
0.0
 47
0.0
 47
0.0
 47
1.0
 47
0.0
 47
0.0
 47
0.0
 47
0.0
 47
1.0
171
     0
 49
0.0208333333333333
 49
0.0
 49
0.0
 49
0.0
 49
0.0
 49
0.0208333333333333
 49
0.0
 49
0.0
 49
0.0
 49
0.0
 49
1.0
 49
0.0
 49
0.0
 49
0.0
 49
0.0
 49
1.0
175
     0
142
0.0208333333333333
142
0.0
142
0.0
142
0.0
142
0.0
142
0.0208333333333333
142
0.0
142
0.0
142
0.0
142
0.0
142
1.0
142
0.0
142
0.0
142
0.0
142
0.0
142
1.0
179
     0
144
0.0208333333333333
144
0.0
144
0.0
144
0.0
144
0.0
144
0.0208333333333333
144
0.0
144
0.0
144
0.0
144
0.0
144
1.0
144
0.0
144
0.0
144
0.0
144
0.0
144
1.0
147
0.0208333333333333
147
0.0
147
0.0
147
0.0
147
0.0
147
0.0208333333333333
147
0.0
147
0.0
147
0.0
147
0.0
147
1.0
147
0.0
147
0.0
147
0.0
147
0.0
147
1.0
  0
MATERIAL
  5
8111
102
{ACAD_XDICTIONARY
360
8112
102
}
102
{ACAD_REACTORS
330
8100
102
}
330
8100
100
AcDbMaterial
  1
Global
 72
     0
 43
0.0208333333333333
 43
0.0
 43
0.0
 43
0.0
 43
0.0
 43
0.0208333333333333
 43
0.0
 43
0.0
 43
0.0
 43
0.0
 43
1.0
 43
0.0
 43
0.0
 43
0.0
 43
0.0
 43
1.0
 77
     0
 47
0.0208333333333333
 47
0.0
 47
0.0
 47
0.0
 47
0.0
 47
0.0208333333333333
 47
0.0
 47
0.0
 47
0.0
 47
0.0
 47
1.0
 47
0.0
 47
0.0
 47
0.0
 47
0.0
 47
1.0
171
     0
 49
0.0208333333333333
 49
0.0
 49
0.0
 49
0.0
 49
0.0
 49
0.0208333333333333
 49
0.0
 49
0.0
 49
0.0
 49
0.0
 49
1.0
 49
0.0
 49
0.0
 49
0.0
 49
0.0
 49
1.0
175
     0
142
0.0208333333333333
142
0.0
142
0.0
142
0.0
142
0.0
142
0.0208333333333333
142
0.0
142
0.0
142
0.0
142
0.0
142
1.0
142
0.0
142
0.0
142
0.0
142
0.0
142
1.0
179
     0
144
0.0208333333333333
144
0.0
144
0.0
144
0.0
144
0.0
144
0.0208333333333333
144
0.0
144
0.0
144
0.0
144
0.0
144
1.0
144
0.0
144
0.0
144
0.0
144
0.0
144
1.0
147
0.0208333333333333
147
0.0
147
0.0
147
0.0
147
0.0
147
0.0208333333333333
147
0.0
147
0.0
147
0.0
147
0.0
147
1.0
147
0.0
147
0.0
147
0.0
147
0.0
147
1.0
  0
MLEADERSTYLE
  5
8148
102
{ACAD_REACTORS
330
8147
102
}
330
8147
100
AcDbMLeaderStyle
179
     2
170
     2
171
     1
172
     0
 90
        2
 40
0.0
 41
0.0
173
     1
 91
-1056964608
340
13
 92
       -2
290
     1
 42
2.0
291
     1
 43
0.36
  3
Standard
 44
4.0
300

342
10
174
     1
178
     6
175
     1
176
     0
 93
-1056964608
 45
4.0
292
     0
297
     0
 46
4.0
 94
-1056964608
 47
1.0
 49
1.0
140
1.0
293
     1
141
0.0
294
     1
177
     0
142
1.0
295
     0
296
     0
143
0.125
271
     0
272
     9
273
     9
298
     1
  0
MLINESTYLE
  5
1C
102
{ACAD_REACTORS
330
E
102
}
330
E
100
AcDbMlineStyle
  2
STANDARD
 70
     0
  3

 62
     0
 51
90.0
 52
90.0
 71
     2
 49
0.5
 62
   256
  6
BYLAYER
 49
-0.5
 62
   256
  6
BYLAYER
  0
ACDBPLACEHOLDER
  5
80A3
102
{ACAD_REACTORS
330
80A2
102
}
330
80A2
  0
SCALE
  5
8136
102
{ACAD_REACTORS
330
8135
102
}
330
8135
100
AcDbScale
 70
     0
300
1:1
140
1.0
141
1.0
290
     1
  0
SCALE
  5
8137
102
{ACAD_REACTORS
330
8135
102
}
330
8135
100
AcDbScale
 70
     0
300
1:2
140
1.0
141
2.0
290
     0
  0
SCALE
  5
8138
102
{ACAD_REACTORS
330
8135
102
}
330
8135
100
AcDbScale
 70
     0
300
1:4
140
1.0
141
4.0
290
     0
  0
SCALE
  5
8139
102
{ACAD_REACTORS
330
8135
102
}
330
8135
100
AcDbScale
 70
     0
300
1:5
140
1.0
141
5.0
290
     0
  0
SCALE
  5
813A
102
{ACAD_REACTORS
330
8135
102
}
330
8135
100
AcDbScale
 70
     0
300
1:8
140
1.0
141
8.0
290
     0
  0
SCALE
  5
813B
102
{ACAD_REACTORS
330
8135
102
}
330
8135
100
AcDbScale
 70
     0
300
1:10
140
1.0
141
10.0
290
     0
  0
SCALE
  5
813C
102
{ACAD_REACTORS
330
8135
102
}
330
8135
100
AcDbScale
 70
     0
300
1:16
140
1.0
141
16.0
290
     0
  0
SCALE
  5
813D
102
{ACAD_REACTORS
330
8135
102
}
330
8135
100
AcDbScale
 70
     0
300
1:20
140
1.0
141
20.0
290
     0
  0
SCALE
  5
813E
102
{ACAD_REACTORS
330
8135
102
}
330
8135
100
AcDbScale
 70
     0
300
1:30
140
1.0
141
30.0
290
     0
  0
SCALE
  5
813F
102
{ACAD_REACTORS
330
8135
102
}
330
8135
100
AcDbScale
 70
     0
300
1:40
140
1.0
141
40.0
290
     0
  0
SCALE
  5
8140
102
{ACAD_REACTORS
330
8135
102
}
330
8135
100
AcDbScale
 70
     0
300
1:50
140
1.0
141
50.0
290
     0
  0
SCALE
  5
8141
102
{ACAD_REACTORS
330
8135
102
}
330
8135
100
AcDbScale
 70
     0
300
1:100
140
1.0
141
100.0
290
     0
  0
SCALE
  5
8142
102
{ACAD_REACTORS
330
8135
102
}
330
8135
100
AcDbScale
 70
     0
300
2:1
140
2.0
141
1.0
290
     0
  0
SCALE
  5
8143
102
{ACAD_REACTORS
330
8135
102
}
330
8135
100
AcDbScale
 70
     0
300
4:1
140
4.0
141
1.0
290
     0
  0
SCALE
  5
8144
102
{ACAD_REACTORS
330
8135
102
}
330
8135
100
AcDbScale
 70
     0
300
8:1
140
8.0
141
1.0
290
     0
  0
SCALE
  5
8145
102
{ACAD_REACTORS
330
8135
102
}
330
8135
100
AcDbScale
 70
     0
300
10:1
140
10.0
141
1.0
290
     0
  0
SCALE
  5
8146
102
{ACAD_REACTORS
330
8135
102
}
330
8135
100
AcDbScale
 70
     0
300
100:1
140
100.0
141
1.0
290
     0
  0
ACDBSECTIONVIEWSTYLE
  5
814A
102
{ACAD_XDICTIONARY
360
821D
102
}
102
{ACAD_REACTORS
330
8149
102
}
330
8149
100
AcDbModelDocViewStyle
 70
     0
  3
Metric50
290
     0
100
AcDbSectionViewStyle
 70
     0
 71
     0
 90
      102
 71
     1
340
10
 62
   256
 40
5.0
340
0
340
0
 62
   256
 40
5.0
300
I, O, Q, S, X, Z
 40
10.0
 90
        0
 40
2.5
 90
        0
 71
     2
340
15
 90
       25
 62
   256
340
15
 90
       50
 62
   256
 40
5.0
 40
2.5
 40
5.0
 71
     3
340
10
 62
   256
 40
5.0
 90
        0
 40
15.0
 90
        1
300
%<\AcVar ViewSectionStartId>%-%<\AcVar ViewSectionEndId>% (%<\AcVar ViewScale \f "%sn">%)
 71
     4
 62
   256
 62
   257
300
ANSI31
 40
1.0
 90
        0
290
     0
290
     0
 90
        6
 40
0.0
 40
1.570796326794896
 40
0.2617993877991494
 40
1.308996938995747
 40
-0.2617993877991494
 40
1.832595714594046
  0
TABLESTYLE
  5
8134
102
{ACAD_XDICTIONARY
360
8212
102
}
102
{ACAD_REACTORS
330
8133
102
}
330
8133
100
AcDbTableStyle
280
     0
  3
Standard
 70
     0
 71
     0
 40
1.5
 41
1.5
280
     0
281
     0
  7
STANDARD
140
4.5
170
     2
 62
     0
 63
     7
283
     0
 90
      512
 91
        0
  1

274
    -2
284
     1
 64
     0
275
    -2
285
     1
 65
     0
276
    -2
286
     1
 66
     0
277
    -2
287
     1
 67
     0
278
    -2
288
     1
 68
     0
279
    -2
289
     1
 69
     0
  7
STANDARD
140
6.0
170
     5
 62
     0
 63
     7
283
     0
 90
      512
 91
        0
  1

274
    -2
284
     1
 64
     0
275
    -2
285
     1
 65
     0
276
    -2
286
     1
 66
     0
277
    -2
287
     1
 67
     0
278
    -2
288
     1
 68
     0
279
    -2
289
     1
 69
     0
  7
STANDARD
140
4.5
170
     5
 62
     0
 63
     7
283
     0
 90
      512
 91
        0
  1

274
    -2
284
     1
 64
     0
275
    -2
285
     1
 65
     0
276
    -2
286
     1
 66
     0
277
    -2
287
     1
 67
     0
278
    -2
288
     1
 68
     0
279
    -2
289
     1
 69
     0
  0
VISUALSTYLE
  5
811F
102
{ACAD_REACTORS
330
8119
102
}
330
8119
100
AcDbVisualStyle
  2
2dWireframe
 70
     4
177
     3
291
     0
 70
    58
 90
        0
176
     1
 90
        2
176
     1
 90
        0
176
     1
 90
        0
176
     1
 40
0.6
176
     1
 40
30.0
176
     1
 62
     7
420
 16777215
176
     1
 90
        1
176
     1
 90
        4
176
     1
 62
     7
176
     1
 62
   257
176
     1
 90
        1
176
     1
 90
        1
176
     1
 40
1.0
176
     1
 90
        0
176
     1
 62
   257
176
     1
 40
1.0
176
     1
 90
        1
176
     1
 90
        6
176
     1
 90
        2
176
     1
 62
     7
176
     1
 90
        5
176
     1
 90
        0
176
     1
 90
        0
176
     1
290
     0
176
     1
 90
        1
176
     1
 40
0.0
176
     1
 90
        0
176
     1
290
     1
176
     1
290
     1
176
     1
290
     0
176
     1
290
     0
176
     1
290
     0
176
     1
290
     0
176
     1
290
     0
176
     1
290
     0
176
     1
290
     0
176
     1
 90
       50
176
     1
 40
0.0
176
     1
 40
1.0
176
     1
 90
        0
176
     1
 62
    18
420
        0
176
     1
 90
       50
176
     1
 90
        3
176
     1
 62
     5
420
      255
176
     1
290
     0
176
     1
 90
       50
176
     1
 90
       50
176
     1
 90
       50
176
     1
290
     0
176
     1
 90
       50
176
     1
 62
   256
176
     0
 40
1.0
176
     0
 90
        2
176
     1
  1
strokes_ogs.tif
176
     1
290
     0
176
     1
 40
1.0
176
     1
 40
1.0
176
     1
1001
ACAD
1000
AcDbSavedByObjectVersion
1070
     0
  0
VISUALSTYLE
  5
811E
102
{ACAD_REACTORS
330
8119
102
}
330
8119
100
AcDbVisualStyle
  2
Basic
 70
     7
177
     3
291
     1
 70
    58
 90
        1
176
     1
 90
        0
176
     1
 90
        1
176
     1
 90
        0
176
     1
 40
0.6
176
     1
 40
30.0
176
     1
 62
     7
420
 16777215
176
     1
 90
        0
176
     1
 90
        4
176
     1
 62
     7
176
     1
 62
   257
176
     1
 90
        1
176
     1
 90
        1
176
     1
 40
1.0
176
     1
 90
        8
176
     1
 62
     7
176
     1
 40
1.0
176
     1
 90
        1
176
     1
 90
        6
176
     1
 90
        2
176
     1
 62
     7
176
     1
 90
        5
176
     1
 90
        0
176
     1
 90
        0
176
     1
290
     0
176
     1
 90
        1
176
     1
 40
0.0
176
     1
 90
        0
176
     1
290
     0
176
     1
290
     1
176
     1
290
     1
176
     1
290
     0
176
     1
290
     0
176
     1
290
     0
176
     1
290
     0
176
     1
290
     0
176
     1
290
     0
176
     1
 90
       50
176
     1
 40
0.0
176
     1
 40
1.0
176
     1
 90
        0
176
     1
 62
    18
420
        0
176
     1
 90
       50
176
     1
 90
        3
176
     1
 62
     5
420
      255
176
     1
290
     0
176
     1
 90
       50
176
     1
 90
       50
176
     1
 90
       50
176
     1
290
     0
176
     1
 90
       50
176
     1
 62
   256
176
     0
 40
1.0
176
     0
 90
        2
176
     1
  1
strokes_ogs.tif
176
     1
290
     0
176
     1
 40
1.0
176
     1
 40
1.0
176
     1
1001
ACAD
1000
AcDbSavedByObjectVersion
1070
     0
  0
VISUALSTYLE
  5
8125
102
{ACAD_REACTORS
330
8119
102
}
330
8119
100
AcDbVisualStyle
  2
Brighten
 70
    12
177
     3
291
     1
 70
    58
 90
        2
176
     1
 90
        2
176
     1
 90
        0
176
     1
 90
        0
176
     1
 40
0.6
176
     1
 40
30.0
176
     1
 62
     7
420
 16777215
176
     1
 90
        1
176
     1
 90
        4
176
     1
 62
     7
176
     1
 62
   257
176
     1
 90
        1
176
     1
 90
        1
176
     1
 40
1.0
176
     1
 90
        8
176
     1
 62
     7
176
     1
 40
1.0
176
     1
 90
        1
176
     1
 90
        6
176
     1
 90
        2
176
     1
 62
     7
176
     1
 90
        5
176
     1
 90
        0
176
     1
 90
        0
176
     1
290
     0
176
     1
 90
        1
176
     1
 40
50.0
176
     1
 90
        0
176
     1
290
     0
176
     1
290
     1
176
     1
290
     1
176
     1
290
     0
176
     1
290
     0
176
     1
290
     0
176
     1
290
     0
176
     1
290
     0
176
     1
290
     0
176
     1
 90
       50
176
     1
 40
0.0
176
     1
 40
1.0
176
     1
 90
        0
176
     1
 62
    18
420
        0
176
     1
 90
       50
176
     1
 90
        3
176
     1
 62
     5
420
      255
176
     1
290
     0
176
     1
 90
       50
176
     1
 90
       50
176
     1
 90
       50
176
     1
290
     0
176
     1
 90
       50
176
     1
 62
   256
176
     0
 40
1.0
176
     0
 90
        2
176
     1
  1
strokes_ogs.tif
176
     1
290
     0
176
     1
 40
1.0
176
     1
 40
1.0
176
     1
1001
ACAD
1000
AcDbSavedByObjectVersion
1070
     0
  0
VISUALSTYLE
  5
8129
102
{ACAD_REACTORS
330
8119
102
}
330
8119
100
AcDbVisualStyle
  2
ColorChange
 70
    16
177
     3
291
     1
 70
    58
 90
        2
176
     1
 90
        2
176
     1
 90
        3
176
     1
 90
        0
176
     1
 40
0.6
176
     1
 40
30.0
176
     1
 62
     8
420
  8421504
176
     1
 90
        1
176
     1
 90
        4
176
     1
 62
     7
176
     1
 62
   257
176
     1
 90
        1
176
     1
 90
        1
176
     1
 40
1.0
176
     1
 90
        8
176
     1
 62
     8
420
  8421504
176
     1
 40
1.0
176
     1
 90
        1
176
     1
 90
        6
176
     1
 90
        2
176
     1
 62
     7
176
     1
 90
        5
176
     1
 90
        0
176
     1
 90
        0
176
     1
290
     0
176
     1
 90
        1
176
     1
 40
0.0
176
     1
 90
        0
176
     1
290
     0
176
     1
290
     1
176
     1
290
     1
176
     1
290
     0
176
     1
290
     0
176
     1
290
     0
176
     1
290
     0
176
     1
290
     0
176
     1
290
     0
176
     1
 90
       50
176
     1
 40
0.0
176
     1
 40
1.0
176
     1
 90
        0
176
     1
 62
    18
420
        0
176
     1
 90
       50
176
     1
 90
        3
176
     1
 62
     5
420
      255
176
     1
290
     0
176
     1
 90
       50
176
     1
 90
       50
176
     1
 90
       50
176
     1
290
     0
176
     1
 90
       50
176
     1
 62
   256
176
     0
 40
1.0
176
     0
 90
        2
176
     1
  1
strokes_ogs.tif
176
     1
290
     0
176
     1
 40
1.0
176
     1
 40
1.0
176
     1
1001
ACAD
1000
AcDbSavedByObjectVersion
1070
     0
  0
VISUALSTYLE
  5
8122
102
{ACAD_REACTORS
330
8119
102
}
330
8119
100
AcDbVisualStyle
  2
Conceptual
 70
     9
177
     3
291
     0
 70
    58
 90
        3
176
     1
 90
        2
176
     1
 90
        0
176
     1
 90
        0
176
     1
 40
0.6
176
     1
 40
30.0
176
     1
 62
     7
420
 16777215
176
     1
 90
        2
176
     1
 90
        2
176
     1
 62
     7
176
     1
 62
   257
176
     1
 90
        1
176
     1
 90
        1
176
     1
 40
179.0
176
     1
 90
        8
176
     1
 62
     7
176
     1
 40
1.0
176
     1
 90
        1
176
     1
 90
        6
176
     1
 90
        2
176
     1
 62
     7
176
     1
 90
        3
176
     1
 90
        0
176
     1
 90
        0
176
     1
290
     0
176
     1
 90
        1
176
     1
 40
0.0
176
     1
 90
        0
176
     1
290
     0
176
     1
290
     1
176
     1
290
     1
176
     1
290
     0
176
     1
290
     0
176
     1
290
     0
176
     1
290
     0
176
     1
290
     0
176
     1
290
     0
176
     1
 90
       50
176
     1
 40
0.0
176
     1
 40
1.0
176
     1
 90
        0
176
     1
 62
    18
420
        0
176
     1
 90
       50
176
     1
 90
        3
176
     1
 62
     5
420
      255
176
     1
290
     0
176
     1
 90
       50
176
     1
 90
       50
176
     1
 90
       50
176
     1
290
     0
176
     1
 90
       50
176
     1
 62
   256
176
     0
 40
1.0
176
     0
 90
        2
176
     1
  1
strokes_ogs.tif
176
     1
290
     0
176
     1
 40
1.0
176
     1
 40
1.0
176
     1
1001
ACAD
1000
AcDbSavedByObjectVersion
1070
     0
  0
VISUALSTYLE
  5
8124
102
{ACAD_REACTORS
330
8119
102
}
330
8119
100
AcDbVisualStyle
  2
Dim
 70
    11
177
     3
291
     1
 70
    58
 90
        2
176
     1
 90
        2
176
     1
 90
        0
176
     1
 90
        0
176
     1
 40
0.6
176
     1
 40
30.0
176
     1
 62
     7
420
 16777215
176
     1
 90
        1
176
     1
 90
        4
176
     1
 62
     7
176
     1
 62
   257
176
     1
 90
        1
176
     1
 90
        1
176
     1
 40
1.0
176
     1
 90
        8
176
     1
 62
     7
176
     1
 40
1.0
176
     1
 90
        1
176
     1
 90
        6
176
     1
 90
        2
176
     1
 62
     7
176
     1
 90
        5
176
     1
 90
        0
176
     1
 90
        0
176
     1
290
     0
176
     1
 90
        1
176
     1
 40
-50.0
176
     1
 90
        0
176
     1
290
     0
176
     1
290
     1
176
     1
290
     1
176
     1
290
     0
176
     1
290
     0
176
     1
290
     0
176
     1
290
     0
176
     1
290
     0
176
     1
290
     0
176
     1
 90
       50
176
     1
 40
0.0
176
     1
 40
1.0
176
     1
 90
        0
176
     1
 62
    18
420
        0
176
     1
 90
       50
176
     1
 90
        3
176
     1
 62
     5
420
      255
176
     1
290
     0
176
     1
 90
       50
176
     1
 90
       50
176
     1
 90
       50
176
     1
290
     0
176
     1
 90
       50
176
     1
 62
   256
176
     0
 40
1.0
176
     0
 90
        2
176
     1
  1
strokes_ogs.tif
176
     1
290
     0
176
     1
 40
1.0
176
     1
 40
1.0
176
     1
1001
ACAD
1000
AcDbSavedByObjectVersion
1070
     0
  0
VISUALSTYLE
  5
8131
102
{ACAD_REACTORS
330
8119
102
}
330
8119
100
AcDbVisualStyle
  2
EdgeColorOff
 70
    22
177
     3
291
     1
 70
    58
 90
        2
176
     0
 90
        2
176
     0
 90
        0
176
     0
 90
        0
176
     0
 40
0.6
176
     0
 40
30.0
176
     0
 62
     7
420
 16777215
176
     0
 90
        1
176
     0
 90
        4
176
     0
 62
     7
176
     0
 62
   257
176
     0
 90
        1
176
     0
 90
        1
176
     0
 40
1.0
176
     0
 90
        8
176
     2
 62
     7
176
     0
 40
1.0
176
     0
 90
        1
176
     0
 90
        6
176
     0
 90
        2
176
     0
 62
     7
176
     0
 90
        5
176
     0
 90
        0
176
     0
 90
        0
176
     0
290
     0
176
     0
 90
        1
176
     0
 40
0.0
176
     0
 90
        0
176
     0
290
     0
176
     0
290
     1
176
     0
290
     1
176
     0
290
     0
176
     0
290
     0
176
     0
290
     0
176
     0
290
     0
176
     0
290
     0
176
     0
290
     0
176
     0
 90
       50
176
     0
 40
0.0
176
     0
 40
1.0
176
     0
 90
        0
176
     0
 62
    18
420
        0
176
     0
 90
       50
176
     0
 90
        3
176
     0
 62
     5
420
      255
176
     0
290
     0
176
     0
 90
       50
176
     0
 90
       50
176
     0
 90
       50
176
     0
290
     0
176
     0
 90
       50
176
     0
 62
   256
176
     0
 40
1.0
176
     0
 90
        2
176
     0
  1
strokes_ogs.tif
176
     0
290
     0
176
     0
 40
1.0
176
     0
 40
1.0
176
     0
1001
ACAD
1000
AcDbSavedByObjectVersion
1070
     0
  0
VISUALSTYLE
  5
8128
102
{ACAD_REACTORS
330
8119
102
}
330
8119
100
AcDbVisualStyle
  2
Facepattern
 70
    15
177
     3
291
     1
 70
    58
 90
        2
176
     1
 90
        2
176
     1
 90
        0
176
     1
 90
        0
176
     1
 40
0.6
176
     1
 40
30.0
176
     1
 62
     7
420
 16777215
176
     1
 90
        1
176
     1
 90
        4
176
     1
 62
     7
176
     1
 62
   257
176
     1
 90
        1
176
     1
 90
        1
176
     1
 40
1.0
176
     1
 90
        8
176
     1
 62
     7
176
     1
 40
1.0
176
     1
 90
        1
176
     1
 90
        6
176
     1
 90
        2
176
     1
 62
     7
176
     1
 90
        5
176
     1
 90
        0
176
     1
 90
        0
176
     1
290
     0
176
     1
 90
        1
176
     1
 40
0.0
176
     1
 90
        0
176
     1
290
     0
176
     1
290
     1
176
     1
290
     1
176
     1
290
     0
176
     1
290
     0
176
     1
290
     0
176
     1
290
     0
176
     1
290
     0
176
     1
290
     0
176
     1
 90
       50
176
     1
 40
0.0
176
     1
 40
1.0
176
     1
 90
        0
176
     1
 62
    18
420
        0
176
     1
 90
       50
176
     1
 90
        3
176
     1
 62
     5
420
      255
176
     1
290
     0
176
     1
 90
       50
176
     1
 90
       50
176
     1
 90
       50
176
     1
290
     0
176
     1
 90
       50
176
     1
 62
   256
176
     0
 40
1.0
176
     0
 90
        2
176
     1
  1
strokes_ogs.tif
176
     1
290
     0
176
     1
 40
1.0
176
     1
 40
1.0
176
     1
1001
ACAD
1000
AcDbSavedByObjectVersion
1070
     0
  0
VISUALSTYLE
  5
811A
102
{ACAD_REACTORS
330
8119
102
}
330
8119
100
AcDbVisualStyle
  2
Flat
 70
     0
177
     3
291
     1
 70
    58
 90
        2
176
     1
 90
        1
176
     1
 90
        1
176
     1
 90
        2
176
     1
 40
0.6
176
     1
 40
30.0
176
     1
 62
     7
420
 16777215
176
     1
 90
        0
176
     1
 90
        0
176
     1
 62
     7
176
     1
 62
   257
176
     1
 90
        1
176
     1
 90
        1
176
     1
 40
1.0
176
     1
 90
        8
176
     1
 62
     7
176
     1
 40
1.0
176
     1
 90
        1
176
     1
 90
        6
176
     1
 90
        2
176
     1
 62
     7
176
     1
 90
        5
176
     1
 90
        0
176
     1
 90
        0
176
     1
290
     0
176
     1
 90
       13
176
     1
 40
0.0
176
     1
 90
        0
176
     1
290
     0
176
     1
290
     1
176
     1
290
     1
176
     1
290
     0
176
     1
290
     0
176
     1
290
     0
176
     1
290
     0
176
     1
290
     0
176
     1
290
     0
176
     1
 90
       50
176
     1
 40
0.0
176
     1
 40
1.0
176
     1
 90
        0
176
     1
 62
    18
420
        0
176
     1
 90
       50
176
     1
 90
        3
176
     1
 62
     5
420
      255
176
     1
290
     0
176
     1
 90
       50
176
     1
 90
       50
176
     1
 90
       50
176
     1
290
     0
176
     1
 90
       50
176
     1
 62
   256
176
     0
 40
1.0
176
     0
 90
        2
176
     1
  1
strokes_ogs.tif
176
     1
290
     0
176
     1
 40
1.0
176
     1
 40
1.0
176
     1
1001
ACAD
1000
AcDbSavedByObjectVersion
1070
     0
  0
VISUALSTYLE
  5
811B
102
{ACAD_REACTORS
330
8119
102
}
330
8119
100
AcDbVisualStyle
  2
FlatWithEdges
 70
     1
177
     3
291
     1
 70
    58
 90
        2
176
     1
 90
        1
176
     1
 90
        1
176
     1
 90
        2
176
     1
 40
0.6
176
     1
 40
30.0
176
     1
 62
     7
420
 16777215
176
     1
 90
        1
176
     1
 90
        0
176
     1
 62
     7
176
     1
 62
   257
176
     1
 90
        1
176
     1
 90
        1
176
     1
 40
1.0
176
     1
 90
        0
176
     1
 62
   257
176
     1
 40
1.0
176
     1
 90
        1
176
     1
 90
        6
176
     1
 90
        2
176
     1
 62
     7
176
     1
 90
        5
176
     1
 90
        0
176
     1
 90
        0
176
     1
290
     0
176
     1
 90
       13
176
     1
 40
0.0
176
     1
 90
        0
176
     1
290
     0
176
     1
290
     1
176
     1
290
     1
176
     1
290
     0
176
     1
290
     0
176
     1
290
     0
176
     1
290
     0
176
     1
290
     0
176
     1
290
     0
176
     1
 90
       50
176
     1
 40
0.0
176
     1
 40
1.0
176
     1
 90
        0
176
     1
 62
    18
420
        0
176
     1
 90
       50
176
     1
 90
        3
176
     1
 62
     5
420
      255
176
     1
290
     0
176
     1
 90
       50
176
     1
 90
       50
176
     1
 90
       50
176
     1
290
     0
176
     1
 90
       50
176
     1
 62
   256
176
     0
 40
1.0
176
     0
 90
        2
176
     1
  1
strokes_ogs.tif
176
     1
290
     0
176
     1
 40
1.0
176
     1
 40
1.0
176
     1
1001
ACAD
1000
AcDbSavedByObjectVersion
1070
     0
  0
VISUALSTYLE
  5
811C
102
{ACAD_REACTORS
330
8119
102
}
330
8119
100
AcDbVisualStyle
  2
Gouraud
 70
     2
177
     3
291
     1
 70
    58
 90
        2
176
     1
 90
        2
176
     1
 90
        1
176
     1
 90
        2
176
     1
 40
0.6
176
     1
 40
30.0
176
     1
 62
     7
420
 16777215
176
     1
 90
        0
176
     1
 90
        0
176
     1
 62
     7
176
     1
 62
   257
176
     1
 90
        1
176
     1
 90
        1
176
     1
 40
1.0
176
     1
 90
        0
176
     1
 62
     7
176
     1
 40
1.0
176
     1
 90
        1
176
     1
 90
        6
176
     1
 90
        2
176
     1
 62
     7
176
     1
 90
        5
176
     1
 90
        0
176
     1
 90
        0
176
     1
290
     0
176
     1
 90
       13
176
     1
 40
0.0
176
     1
 90
        0
176
     1
290
     0
176
     1
290
     1
176
     1
290
     1
176
     1
290
     0
176
     1
290
     0
176
     1
290
     0
176
     1
290
     0
176
     1
290
     0
176
     1
290
     0
176
     1
 90
       50
176
     1
 40
0.0
176
     1
 40
1.0
176
     1
 90
        0
176
     1
 62
    18
420
        0
176
     1
 90
       50
176
     1
 90
        3
176
     1
 62
     5
420
      255
176
     1
290
     0
176
     1
 90
       50
176
     1
 90
       50
176
     1
 90
       50
176
     1
290
     0
176
     1
 90
       50
176
     1
 62
   256
176
     0
 40
1.0
176
     0
 90
        2
176
     1
  1
strokes_ogs.tif
176
     1
290
     0
176
     1
 40
1.0
176
     1
 40
1.0
176
     1
1001
ACAD
1000
AcDbSavedByObjectVersion
1070
     0
  0
VISUALSTYLE
  5
811D
102
{ACAD_REACTORS
330
8119
102
}
330
8119
100
AcDbVisualStyle
  2
GouraudWithEdges
 70
     3
177
     3
291
     1
 70
    58
 90
        2
176
     1
 90
        2
176
     1
 90
        1
176
     1
 90
        2
176
     1
 40
0.6
176
     1
 40
30.0
176
     1
 62
     7
420
 16777215
176
     1
 90
        1
176
     1
 90
        0
176
     1
 62
     7
176
     1
 62
   257
176
     1
 90
        1
176
     1
 90
        1
176
     1
 40
1.0
176
     1
 90
        0
176
     1
 62
   257
176
     1
 40
1.0
176
     1
 90
        1
176
     1
 90
        6
176
     1
 90
        2
176
     1
 62
     7
176
     1
 90
        5
176
     1
 90
        0
176
     1
 90
        0
176
     1
290
     0
176
     1
 90
       13
176
     1
 40
0.0
176
     1
 90
        0
176
     1
290
     0
176
     1
290
     1
176
     1
290
     1
176
     1
290
     0
176
     1
290
     0
176
     1
290
     0
176
     1
290
     0
176
     1
290
     0
176
     1
290
     0
176
     1
 90
       50
176
     1
 40
0.0
176
     1
 40
1.0
176
     1
 90
        0
176
     1
 62
    18
420
        0
176
     1
 90
       50
176
     1
 90
        3
176
     1
 62
     5
420
      255
176
     1
290
     0
176
     1
 90
       50
176
     1
 90
       50
176
     1
 90
       50
176
     1
290
     0
176
     1
 90
       50
176
     1
 62
   256
176
     0
 40
1.0
176
     0
 90
        2
176
     1
  1
strokes_ogs.tif
176
     1
290
     0
176
     1
 40
1.0
176
     1
 40
1.0
176
     1
1001
ACAD
1000
AcDbSavedByObjectVersion
1070
     0
  0
VISUALSTYLE
  5
8121
102
{ACAD_REACTORS
330
8119
102
}
330
8119
100
AcDbVisualStyle
  2
Hidden
 70
     6
177
     3
291
     0
 70
    58
 90
        1
176
     1
 90
        2
176
     1
 90
        2
176
     1
 90
        0
176
     1
 40
0.6
176
     1
 40
30.0
176
     1
 62
     7
420
 16777215
176
     1
 90
        2
176
     1
 90
        2
176
     1
 62
     7
176
     1
 62
   257
176
     1
 90
        2
176
     1
 90
        1
176
     1
 40
40.0
176
     1
 90
        0
176
     1
 62
   257
176
     1
 40
1.0
176
     1
 90
        1
176
     1
 90
        6
176
     1
 90
        2
176
     1
 62
     7
176
     1
 90
        3
176
     1
 90
        0
176
     1
 90
        0
176
     1
290
     0
176
     1
 90
        1
176
     1
 40
0.0
176
     1
 90
        0
176
     1
290
     0
176
     1
290
     1
176
     1
290
     1
176
     1
290
     0
176
     1
290
     0
176
     1
290
     0
176
     1
290
     0
176
     1
290
     0
176
     1
290
     0
176
     1
 90
       50
176
     1
 40
0.0
176
     1
 40
1.0
176
     1
 90
        0
176
     1
 62
    18
420
        0
176
     1
 90
       50
176
     1
 90
        3
176
     1
 62
     5
420
      255
176
     1
290
     0
176
     1
 90
       50
176
     1
 90
       50
176
     1
 90
       50
176
     1
290
     0
176
     1
 90
       50
176
     1
 62
   256
176
     0
 40
1.0
176
     0
 90
        2
176
     1
  1
strokes_ogs.tif
176
     1
290
     0
176
     1
 40
1.0
176
     1
 40
1.0
176
     1
1001
ACAD
1000
AcDbSavedByObjectVersion
1070
     0
  0
VISUALSTYLE
  5
812F
102
{ACAD_REACTORS
330
8119
102
}
330
8119
100
AcDbVisualStyle
  2
JitterOff
 70
    20
177
     3
291
     1
 70
    58
 90
        2
176
     0
 90
        2
176
     0
 90
        0
176
     0
 90
        0
176
     0
 40
0.6
176
     0
 40
30.0
176
     0
 62
     7
420
 16777215
176
     0
 90
        1
176
     0
 90
        4
176
     0
 62
     7
176
     0
 62
   257
176
     0
 90
        1
176
     0
 90
        1
176
     0
 40
1.0
176
     0
 90
       10
176
     2
 62
     7
176
     0
 40
1.0
176
     0
 90
        1
176
     0
 90
        6
176
     0
 90
        2
176
     0
 62
     7
176
     0
 90
        5
176
     0
 90
        0
176
     0
 90
        0
176
     0
290
     0
176
     0
 90
        1
176
     0
 40
0.0
176
     0
 90
        0
176
     0
290
     0
176
     0
290
     1
176
     0
290
     1
176
     0
290
     0
176
     0
290
     0
176
     0
290
     0
176
     0
290
     0
176
     0
290
     0
176
     0
290
     0
176
     0
 90
       50
176
     0
 40
0.0
176
     0
 40
1.0
176
     0
 90
        0
176
     0
 62
    18
420
        0
176
     0
 90
       50
176
     0
 90
        3
176
     0
 62
     5
420
      255
176
     0
290
     0
176
     0
 90
       50
176
     0
 90
       50
176
     0
 90
       50
176
     0
290
     0
176
     0
 90
       50
176
     0
 62
   256
176
     0
 40
1.0
176
     0
 90
        2
176
     0
  1
strokes_ogs.tif
176
     0
290
     0
176
     0
 40
1.0
176
     0
 40
1.0
176
     0
1001
ACAD
1000
AcDbSavedByObjectVersion
1070
     0
  0
VISUALSTYLE
  5
8127
102
{ACAD_REACTORS
330
8119
102
}
330
8119
100
AcDbVisualStyle
  2
Linepattern
 70
    14
177
     3
291
     1
 70
    58
 90
        2
176
     1
 90
        2
176
     1
 90
        0
176
     1
 90
        0
176
     1
 40
0.6
176
     1
 40
30.0
176
     1
 62
     7
420
 16777215
176
     1
 90
        1
176
     1
 90
        4
176
     1
 62
     7
176
     1
 62
   257
176
     1
 90
        7
176
     1
 90
        7
176
     1
 40
1.0
176
     1
 90
        8
176
     1
 62
     7
176
     1
 40
1.0
176
     1
 90
        1
176
     1
 90
        6
176
     1
 90
        2
176
     1
 62
     7
176
     1
 90
        5
176
     1
 90
        0
176
     1
 90
        0
176
     1
290
     0
176
     1
 90
        1
176
     1
 40
0.0
176
     1
 90
        0
176
     1
290
     0
176
     1
290
     1
176
     1
290
     1
176
     1
290
     0
176
     1
290
     0
176
     1
290
     0
176
     1
290
     0
176
     1
290
     0
176
     1
290
     0
176
     1
 90
       50
176
     1
 40
0.0
176
     1
 40
1.0
176
     1
 90
        0
176
     1
 62
    18
420
        0
176
     1
 90
       50
176
     1
 90
        3
176
     1
 62
     5
420
      255
176
     1
290
     0
176
     1
 90
       50
176
     1
 90
       50
176
     1
 90
       50
176
     1
290
     0
176
     1
 90
       50
176
     1
 62
   256
176
     0
 40
1.0
176
     0
 90
        2
176
     1
  1
strokes_ogs.tif
176
     1
290
     0
176
     1
 40
1.0
176
     1
 40
1.0
176
     1
1001
ACAD
1000
AcDbSavedByObjectVersion
1070
     0
  0
VISUALSTYLE
  5
8130
102
{ACAD_REACTORS
330
8119
102
}
330
8119
100
AcDbVisualStyle
  2
OverhangOff
 70
    21
177
     3
291
     1
 70
    58
 90
        2
176
     0
 90
        2
176
     0
 90
        0
176
     0
 90
        0
176
     0
 40
0.6
176
     0
 40
30.0
176
     0
 62
     7
420
 16777215
176
     0
 90
        1
176
     0
 90
        4
176
     0
 62
     7
176
     0
 62
   257
176
     0
 90
        1
176
     0
 90
        1
176
     0
 40
1.0
176
     0
 90
        9
176
     2
 62
     7
176
     0
 40
1.0
176
     0
 90
        1
176
     0
 90
        6
176
     0
 90
        2
176
     0
 62
     7
176
     0
 90
        5
176
     0
 90
        0
176
     0
 90
        0
176
     0
290
     0
176
     0
 90
        1
176
     0
 40
0.0
176
     0
 90
        0
176
     0
290
     0
176
     0
290
     1
176
     0
290
     1
176
     0
290
     0
176
     0
290
     0
176
     0
290
     0
176
     0
290
     0
176
     0
290
     0
176
     0
290
     0
176
     0
 90
       50
176
     0
 40
0.0
176
     0
 40
1.0
176
     0
 90
        0
176
     0
 62
    18
420
        0
176
     0
 90
       50
176
     0
 90
        3
176
     0
 62
     5
420
      255
176
     0
290
     0
176
     0
 90
       50
176
     0
 90
       50
176
     0
 90
       50
176
     0
290
     0
176
     0
 90
       50
176
     0
 62
   256
176
     0
 40
1.0
176
     0
 90
        2
176
     0
  1
strokes_ogs.tif
176
     0
290
     0
176
     0
 40
1.0
176
     0
 40
1.0
176
     0
1001
ACAD
1000
AcDbSavedByObjectVersion
1070
     0
  0
VISUALSTYLE
  5
8123
102
{ACAD_REACTORS
330
8119
102
}
330
8119
100
AcDbVisualStyle
  2
Realistic
 70
     8
177
     3
291
     0
 70
    58
 90
        2
176
     1
 90
        3
176
     1
 90
        0
176
     1
 90
        2
176
     1
 40
0.6
176
     1
 40
30.0
176
     1
 62
     7
420
 16777215
176
     1
 90
        0
176
     1
 90
        0
176
     1
 62
     7
176
     1
 62
   257
176
     1
 90
        1
176
     1
 90
        1
176
     1
 40
1.0
176
     1
 90
        8
176
     1
 62
   257
176
     1
 40
1.0
176
     1
 90
        1
176
     1
 90
        6
176
     1
 90
        2
176
     1
 62
     7
176
     1
 90
        3
176
     1
 90
        0
176
     1
 90
        0
176
     1
290
     0
176
     1
 90
       13
176
     1
 40
0.0
176
     1
 90
        0
176
     1
290
     0
176
     1
290
     1
176
     1
290
     1
176
     1
290
     0
176
     1
290
     0
176
     1
290
     0
176
     1
290
     0
176
     1
290
     0
176
     1
290
     0
176
     1
 90
       50
176
     1
 40
0.0
176
     1
 40
1.0
176
     1
 90
        0
176
     1
 62
    18
420
        0
176
     1
 90
       50
176
     1
 90
        3
176
     1
 62
     5
420
      255
176
     1
290
     0
176
     1
 90
       50
176
     1
 90
       50
176
     1
 90
       50
176
     1
290
     0
176
     1
 90
       50
176
     1
 62
   256
176
     0
 40
1.0
176
     0
 90
        2
176
     1
  1
strokes_ogs.tif
176
     1
290
     0
176
     1
 40
1.0
176
     1
 40
1.0
176
     1
1001
ACAD
1000
AcDbSavedByObjectVersion
1070
     0
  0
VISUALSTYLE
  5
812E
102
{ACAD_REACTORS
330
8119
102
}
330
8119
100
AcDbVisualStyle
  2
Shaded
 70
    27
177
     3
291
     0
 70
    58
 90
        2
176
     1
 90
        2
176
     1
 90
        1
176
     1
 90
        2
176
     1
 40
0.6
176
     1
 40
30.0
176
     1
 62
     7
420
 16777215
176
     1
 90
        0
176
     1
 90
        4
176
     1
 62
     7
176
     1
 62
   257
176
     1
 90
        1
176
     1
 90
        1
176
     1
 40
1.0
176
     1
 90
        8
176
     1
 62
   257
176
     1
 40
1.0
176
     1
 90
        1
176
     1
 90
        6
176
     1
 90
        2
176
     1
 62
     8
420
  7895160
176
     1
 90
        3
176
     1
 90
        0
176
     1
 90
        0
176
     1
290
     0
176
     1
 90
        5
176
     1
 40
0.0
176
     1
 90
        0
176
     1
290
     0
176
     1
290
     1
176
     1
290
     1
176
     1
290
     0
176
     1
290
     0
176
     1
290
     0
176
     1
290
     0
176
     1
290
     0
176
     1
290
     0
176
     1
 90
       50
176
     1
 40
0.0
176
     1
 40
1.0
176
     1
 90
        0
176
     1
 62
    18
420
        0
176
     1
 90
       50
176
     1
 90
        3
176
     1
 62
     5
420
      255
176
     1
290
     0
176
     1
 90
       50
176
     1
 90
       50
176
     1
 90
       50
176
     1
290
     0
176
     1
 90
       50
176
     1
 62
   256
176
     0
 40
1.0
176
     0
 90
        2
176
     1
  1
strokes_ogs.tif
176
     1
290
     0
176
     1
 40
1.0
176
     1
 40
1.0
176
     1
1001
ACAD
1000
AcDbSavedByObjectVersion
1070
     0
  0
VISUALSTYLE
  5
812D
102
{ACAD_REACTORS
330
8119
102
}
330
8119
100
AcDbVisualStyle
  2
Shaded with edges
 70
    26
177
     3
291
     0
 70
    58
 90
        2
176
     1
 90
        2
176
     1
 90
        1
176
     1
 90
        2
176
     1
 40
0.6
176
     1
 40
30.0
176
     1
 62
     7
420
 16777215
176
     1
 90
        1
176
     1
 90
        2
176
     1
 62
     7
176
     1
 62
   257
176
     1
 90
        2
176
     1
 90
        1
176
     1
 40
1.0
176
     1
 90
        8
176
     1
 62
   257
176
     1
 40
1.0
176
     1
 90
        1
176
     1
 90
        6
176
     1
 90
        2
176
     1
 62
     7
176
     1
 90
        3
176
     1
 90
        0
176
     1
 90
        0
176
     1
290
     0
176
     1
 90
        5
176
     1
 40
0.0
176
     1
 90
        0
176
     1
290
     0
176
     1
290
     1
176
     1
290
     1
176
     1
290
     0
176
     1
290
     0
176
     1
290
     0
176
     1
290
     0
176
     1
290
     0
176
     1
290
     0
176
     1
 90
       50
176
     1
 40
0.0
176
     1
 40
1.0
176
     1
 90
        0
176
     1
 62
    18
420
        0
176
     1
 90
       50
176
     1
 90
        3
176
     1
 62
     5
420
      255
176
     1
290
     0
176
     1
 90
       50
176
     1
 90
       50
176
     1
 90
       50
176
     1
290
     0
176
     1
 90
       50
176
     1
 62
   256
176
     0
 40
1.0
176
     0
 90
        2
176
     1
  1
strokes_ogs.tif
176
     1
290
     0
176
     1
 40
1.0
176
     1
 40
1.0
176
     1
1001
ACAD
1000
AcDbSavedByObjectVersion
1070
     0
  0
VISUALSTYLE
  5
812A
102
{ACAD_REACTORS
330
8119
102
}
330
8119
100
AcDbVisualStyle
  2
Shades of Gray
 70
    23
177
     3
291
     0
 70
    58
 90
        2
176
     1
 90
        2
176
     1
 90
        3
176
     1
 90
        0
176
     1
 40
0.6
176
     1
 40
30.0
176
     1
 62
     7
420
 16777215
176
     1
 90
        2
176
     1
 90
        2
176
     1
 62
     7
176
     1
 62
     7
176
     1
 90
        1
176
     1
 90
        1
176
     1
 40
40.0
176
     1
 90
        8
176
     1
 62
     7
176
     1
 40
1.0
176
     1
 90
        1
176
     1
 90
        6
176
     1
 90
        2
176
     1
 62
     7
176
     1
 90
        3
176
     1
 90
        0
176
     1
 90
        0
176
     1
290
     0
176
     1
 90
        1
176
     1
 40
0.0
176
     1
 90
        0
176
     1
290
     0
176
     1
290
     1
176
     1
290
     1
176
     1
290
     0
176
     1
290
     0
176
     1
290
     0
176
     1
290
     0
176
     1
290
     0
176
     1
290
     0
176
     1
 90
       50
176
     1
 40
0.0
176
     1
 40
1.0
176
     1
 90
        0
176
     1
 62
    18
420
        0
176
     1
 90
       50
176
     1
 90
        3
176
     1
 62
     5
420
      255
176
     1
290
     0
176
     1
 90
       50
176
     1
 90
       50
176
     1
 90
       50
176
     1
290
     0
176
     1
 90
       50
176
     1
 62
   256
176
     0
 40
1.0
176
     0
 90
        2
176
     1
  1
strokes_ogs.tif
176
     1
290
     0
176
     1
 40
1.0
176
     1
 40
1.0
176
     1
1001
ACAD
1000
AcDbSavedByObjectVersion
1070
     0
  0
VISUALSTYLE
  5
812B
102
{ACAD_REACTORS
330
8119
102
}
330
8119
100
AcDbVisualStyle
  2
Sketchy
 70
    24
177
     3
291
     0
 70
    58
 90
        1
176
     1
 90
        2
176
     1
 90
        2
176
     1
 90
        0
176
     1
 40
0.6
176
     1
 40
30.0
176
     1
 62
     7
420
 16777215
176
     1
 90
        2
176
     1
 90
        2
176
     1
 62
     7
176
     1
 62
     7
176
     1
 90
        1
176
     1
 90
        1
176
     1
 40
40.0
176
     1
 90
       11
176
     1
 62
     7
176
     1
 40
1.0
176
     1
 90
        1
176
     1
 90
        6
176
     1
 90
        2
176
     1
 62
     7
176
     1
 90
        6
176
     1
 90
        0
176
     1
 90
        0
176
     1
290
     0
176
     1
 90
        1
176
     1
 40
0.0
176
     1
 90
        0
176
     1
290
     0
176
     1
290
     1
176
     1
290
     1
176
     1
290
     0
176
     1
290
     0
176
     1
290
     0
176
     1
290
     0
176
     1
290
     0
176
     1
290
     0
176
     1
 90
       50
176
     1
 40
0.0
176
     1
 40
1.0
176
     1
 90
        0
176
     1
 62
    18
420
        0
176
     1
 90
       50
176
     1
 90
        3
176
     1
 62
     5
420
      255
176
     1
290
     0
176
     1
 90
       50
176
     1
 90
       50
176
     1
 90
       50
176
     1
290
     0
176
     1
 90
       50
176
     1
 62
   256
176
     0
 40
1.0
176
     0
 90
        2
176
     1
  1
strokes_ogs.tif
176
     1
290
     0
176
     1
 40
1.0
176
     1
 40
1.0
176
     1
1001
ACAD
1000
AcDbSavedByObjectVersion
1070
     0
  0
VISUALSTYLE
  5
8126
102
{ACAD_REACTORS
330
8119
102
}
330
8119
100
AcDbVisualStyle
  2
Thicken
 70
    13
177
     3
291
     1
 70
    58
 90
        2
176
     1
 90
        2
176
     1
 90
        0
176
     1
 90
        0
176
     1
 40
0.6
176
     1
 40
30.0
176
     1
 62
     7
420
 16777215
176
     1
 90
        1
176
     1
 90
        4
176
     1
 62
     7
176
     1
 62
   257
176
     1
 90
        1
176
     1
 90
        1
176
     1
 40
1.0
176
     1
 90
       12
176
     1
 62
     7
176
     1
 40
1.0
176
     1
 90
        1
176
     1
 90
        6
176
     1
 90
        2
176
     1
 62
     7
176
     1
 90
        5
176
     1
 90
        0
176
     1
 90
        0
176
     1
290
     0
176
     1
 90
        1
176
     1
 40
0.0
176
     1
 90
        0
176
     1
290
     0
176
     1
290
     1
176
     1
290
     1
176
     1
290
     0
176
     1
290
     0
176
     1
290
     0
176
     1
290
     0
176
     1
290
     0
176
     1
290
     0
176
     1
 90
       50
176
     1
 40
0.0
176
     1
 40
1.0
176
     1
 90
        0
176
     1
 62
    18
420
        0
176
     1
 90
       50
176
     1
 90
        3
176
     1
 62
     5
420
      255
176
     1
290
     0
176
     1
 90
       50
176
     1
 90
       50
176
     1
 90
       50
176
     1
290
     0
176
     1
 90
       50
176
     1
 62
   256
176
     0
 40
1.0
176
     0
 90
        2
176
     1
  1
strokes_ogs.tif
176
     1
290
     0
176
     1
 40
1.0
176
     1
 40
1.0
176
     1
1001
ACAD
1000
AcDbSavedByObjectVersion
1070
     0
  0
VISUALSTYLE
  5
8120
102
{ACAD_REACTORS
330
8119
102
}
330
8119
100
AcDbVisualStyle
  2
Wireframe
 70
     5
177
     3
291
     0
 70
    58
 90
        0
176
     1
 90
        2
176
     1
 90
        0
176
     1
 90
        0
176
     1
 40
0.6
176
     1
 40
30.0
176
     1
 62
     7
420
 16777215
176
     1
 90
        1
176
     1
 90
        4
176
     1
 62
     7
176
     1
 62
   257
176
     1
 90
        1
176
     1
 90
        1
176
     1
 40
1.0
176
     1
 90
        0
176
     1
 62
   257
176
     1
 40
1.0
176
     1
 90
        1
176
     1
 90
        6
176
     1
 90
        2
176
     1
 62
     7
176
     1
 90
        3
176
     1
 90
        0
176
     1
 90
        0
176
     1
290
     0
176
     1
 90
        1
176
     1
 40
0.0
176
     1
 90
        0
176
     1
290
     0
176
     1
290
     1
176
     1
290
     1
176
     1
290
     0
176
     1
290
     0
176
     1
290
     0
176
     1
290
     0
176
     1
290
     0
176
     1
290
     0
176
     1
 90
       50
176
     1
 40
0.0
176
     1
 40
1.0
176
     1
 90
        0
176
     1
 62
    18
420
        0
176
     1
 90
       50
176
     1
 90
        3
176
     1
 62
     5
420
      255
176
     1
290
     0
176
     1
 90
       50
176
     1
 90
       50
176
     1
 90
       50
176
     1
290
     0
176
     1
 90
       50
176
     1
 62
   256
176
     0
 40
1.0
176
     0
 90
        2
176
     1
  1
strokes_ogs.tif
176
     1
290
     0
176
     1
 40
1.0
176
     1
 40
1.0
176
     1
1001
ACAD
1000
AcDbSavedByObjectVersion
1070
     0
  0
VISUALSTYLE
  5
812C
102
{ACAD_REACTORS
330
8119
102
}
330
8119
100
AcDbVisualStyle
  2
X-Ray
 70
    25
177
     3
291
     0
 70
    58
 90
        2
176
     1
 90
        2
176
     1
 90
        1
176
     1
 90
        1
176
     1
 40
0.5
176
     1
 40
30.0
176
     1
 62
     7
420
 16777215
176
     1
 90
        1
176
     1
 90
        0
176
     1
 62
     7
176
     1
 62
   257
176
     1
 90
        1
176
     1
 90
        1
176
     1
 40
1.0
176
     1
 90
        8
176
     1
 62
     7
176
     1
 40
1.0
176
     1
 90
        1
176
     1
 90
        6
176
     1
 90
        2
176
     1
 62
     7
176
     1
 90
        3
176
     1
 90
        0
176
     1
 90
        0
176
     1
290
     0
176
     1
 90
       13
176
     1
 40
0.0
176
     1
 90
        0
176
     1
290
     0
176
     1
290
     1
176
     1
290
     1
176
     1
290
     0
176
     1
290
     0
176
     1
290
     0
176
     1
290
     0
176
     1
290
     0
176
     1
290
     0
176
     1
 90
       50
176
     1
 40
0.0
176
     1
 40
1.0
176
     1
 90
        0
176
     1
 62
    18
420
        0
176
     1
 90
       50
176
     1
 90
        3
176
     1
 62
     5
420
      255
176
     1
290
     0
176
     1
 90
       50
176
     1
 90
       50
176
     1
 90
       50
176
     1
290
     0
176
     1
 90
       50
176
     1
 62
   256
176
     0
 40
1.0
176
     0
 90
        2
176
     1
  1
strokes_ogs.tif
176
     1
290
     0
176
     1
 40
1.0
176
     1
 40
1.0
176
     1
1001
ACAD
1000
AcDbSavedByObjectVersion
1070
     0
  0
DICTIONARYVAR
  5
8209
102
{ACAD_REACTORS
330
8203
102
}
330
8203
100
DictionaryVariables
280
     0
  1
1:1
  0
DICTIONARYVAR
  5
8205
102
{ACAD_REACTORS
330
8203
102
}
330
8203
100
DictionaryVariables
280
     0
  1
STANDARD
  0
DICTIONARYVAR
  5
8204
102
{ACAD_REACTORS
330
8203
102
}
330
8203
100
DictionaryVariables
280
     0
  1
STANDARD
  0
DICTIONARYVAR
  5
8206
102
{ACAD_REACTORS
330
8203
102
}
330
8203
100
DictionaryVariables
280
     0
  1
Metric50
  0
DICTIONARYVAR
  5
8207
102
{ACAD_REACTORS
330
8203
102
}
330
8203
100
DictionaryVariables
280
     0
  1
Metric50
  0
DICTIONARYVAR
  5
820B
102
{ACAD_REACTORS
330
8203
102
}
330
8203
100
DictionaryVariables
280
     0
  1
1
  0
DICTIONARYVAR
  5
820C
102
{ACAD_REACTORS
330
8203
102
}
330
8203
100
DictionaryVariables
280
     0
  1
15
  0
DICTIONARYVAR
  5
820A
102
{ACAD_REACTORS
330
8203
102
}
330
8203
100
DictionaryVariables
280
     0
  1
0
  0
DICTIONARYVAR
  5
8211
102
{ACAD_REACTORS
330
8203
102
}
330
8203
100
DictionaryVariables
280
     0
  1
0
  0
DICTIONARYVAR
  5
8208
102
{ACAD_REACTORS
330
8203
102
}
330
8203
100
DictionaryVariables
280
     0
  1
0
  0
DICTIONARY
  5
821C
102
{ACAD_REACTORS
330
821A
102
}
330
821A
100
AcDbDictionary
281
     1
  0
DICTIONARY
  5
821B
102
{ACAD_REACTORS
330
821A
102
}
330
821A
100
AcDbDictionary
281
     1
  3
2040457540816
350
8215
  3
2040457540832
350
8216
  3
2040457540848
350
8217
  3
2040457540864
350
8218
  3
2040457540880
350
8219
  0
DICTIONARY
  5
821F
330
814C
100
AcDbDictionary
280
     1
281
     1
  3
ACAD_XREC_ROUNDTRIP
360
8220
  0
DICTIONARY
  5
810A
330
8109
100
AcDbDictionary
280
     1
281
     1
  3
BUMPTILE
360
810C
  3
DIFFUSETILE
360
810B
  3
OPACITYTILE
360
810F
  3
REFLECTIONTILE
360
810E
  3
REFRACTIONTILE
360
8110
  3
SPECULARTILE
360
810D
  0
DICTIONARY
  5
8102
330
8101
100
AcDbDictionary
280
     1
281
     1
  3
BUMPTILE
360
8104
  3
DIFFUSETILE
360
8103
  3
OPACITYTILE
360
8107
  3
REFLECTIONTILE
360
8106
  3
REFRACTIONTILE
360
8108
  3
SPECULARTILE
360
8105
  0
DICTIONARY
  5
8112
330
8111
100
AcDbDictionary
280
     1
281
     1
  3
BUMPTILE
360
8114
  3
DIFFUSETILE
360
8113
  3
OPACITYTILE
360
8117
  3
REFLECTIONTILE
360
8116
  3
REFRACTIONTILE
360
8118
  3
SPECULARTILE
360
8115
  0
DICTIONARY
  5
821D
330
814A
100
AcDbDictionary
280
     1
281
     1
  3
ACAD_XREC_ROUNDTRIP
360
821E
  0
DICTIONARY
  5
8212
330
8134
100
AcDbDictionary
280
     1
281
     1
  3
ACAD_ROUNDTRIP_2008_TABLESTYLE_CELLSTYLEMAP
360
8213
  0
XRECORD
  5
8215
102
{ACAD_REACTORS
330
821B
102
}
330
821B
100
AcDbXrecord
280
     1
  1
AcDb_Thumbnail_Schema
102
{ATTRRECORD
341
8216
  2
AcDbDs::TreatedAsObjectData
280
     1
291
     1
102
ATTRRECORD}
102
{ATTRRECORD
341
8217
  2
AcDbDs::Legacy
280
     1
291
     1
102
ATTRRECORD}
  2
AcDbDs::ID
280
    10
 91
        8
102
{ATTRRECORD
341
8218
  2
AcDs:Indexable
280
     1
291
     1
102
ATTRRECORD}
102
{ATTRRECORD
341
8219
  2
AcDbDs::HandleAttribute
280
     7
282
     1
102
ATTRRECORD}
  2
Thumbnail_Data
280
    15
 91
        0
  0
XRECORD
  5
8216
102
{ACAD_REACTORS
330
821B
102
}
330
821B
100
AcDbXrecord
280
     1
  1
AcDbDs::TreatedAsObjectDataSchema
  2
AcDbDs::TreatedAsObjectData
280
     1
 91
        0
  0
XRECORD
  5
8217
102
{ACAD_REACTORS
330
821B
102
}
330
821B
100
AcDbXrecord
280
     1
  1
AcDbDs::LegacySchema
  2
AcDbDs::Legacy
280
     1
 91
        0
  0
XRECORD
  5
8218
102
{ACAD_REACTORS
330
821B
102
}
330
821B
100
AcDbXrecord
280
     1
  1
AcDbDs::IndexedPropertySchema
  2
AcDs:Indexable
280
     1
 91
        0
  0
XRECORD
  5
8219
102
{ACAD_REACTORS
330
821B
102
}
330
821B
100
AcDbXrecord
280
     1
  1
AcDbDs::HandleAttributeSchema
  2
AcDbDs::HandleAttribute
280
     7
 91
        1
284
     1
  0
XRECORD
  5
8220
102
{ACAD_REACTORS
330
821F
102
}
330
821F
100
AcDbXrecord
280
     1
102
DISPLAYNAME
  1
Metric50
102
FLAGS
 90
        0
  0
XRECORD
  5
810C
102
{ACAD_REACTORS
330
810A
102
}
330
810A
100
AcDbXrecord
280
     1
270
     1
271
     1
  0
XRECORD
  5
810B
102
{ACAD_REACTORS
330
810A
102
}
330
810A
100
AcDbXrecord
280
     1
270
     1
271
     1
  0
XRECORD
  5
810F
102
{ACAD_REACTORS
330
810A
102
}
330
810A
100
AcDbXrecord
280
     1
270
     1
271
     1
  0
XRECORD
  5
810E
102
{ACAD_REACTORS
330
810A
102
}
330
810A
100
AcDbXrecord
280
     1
270
     1
271
     1
  0
XRECORD
  5
8110
102
{ACAD_REACTORS
330
810A
102
}
330
810A
100
AcDbXrecord
280
     1
270
     1
271
     1
  0
XRECORD
  5
810D
102
{ACAD_REACTORS
330
810A
102
}
330
810A
100
AcDbXrecord
280
     1
270
     1
271
     1
  0
XRECORD
  5
8104
102
{ACAD_REACTORS
330
8102
102
}
330
8102
100
AcDbXrecord
280
     1
270
     1
271
     1
  0
XRECORD
  5
8103
102
{ACAD_REACTORS
330
8102
102
}
330
8102
100
AcDbXrecord
280
     1
270
     1
271
     1
  0
XRECORD
  5
8107
102
{ACAD_REACTORS
330
8102
102
}
330
8102
100
AcDbXrecord
280
     1
270
     1
271
     1
  0
XRECORD
  5
8106
102
{ACAD_REACTORS
330
8102
102
}
330
8102
100
AcDbXrecord
280
     1
270
     1
271
     1
  0
XRECORD
  5
8108
102
{ACAD_REACTORS
330
8102
102
}
330
8102
100
AcDbXrecord
280
     1
270
     1
271
     1
  0
XRECORD
  5
8105
102
{ACAD_REACTORS
330
8102
102
}
330
8102
100
AcDbXrecord
280
     1
270
     1
271
     1
  0
XRECORD
  5
8114
102
{ACAD_REACTORS
330
8112
102
}
330
8112
100
AcDbXrecord
280
     1
270
     1
271
     1
  0
XRECORD
  5
8113
102
{ACAD_REACTORS
330
8112
102
}
330
8112
100
AcDbXrecord
280
     1
270
     1
271
     1
  0
XRECORD
  5
8117
102
{ACAD_REACTORS
330
8112
102
}
330
8112
100
AcDbXrecord
280
     1
270
     1
271
     1
  0
XRECORD
  5
8116
102
{ACAD_REACTORS
330
8112
102
}
330
8112
100
AcDbXrecord
280
     1
270
     1
271
     1
  0
XRECORD
  5
8118
102
{ACAD_REACTORS
330
8112
102
}
330
8112
100
AcDbXrecord
280
     1
270
     1
271
     1
  0
XRECORD
  5
8115
102
{ACAD_REACTORS
330
8112
102
}
330
8112
100
AcDbXrecord
280
     1
270
     1
271
     1
  0
XRECORD
  5
821E
102
{ACAD_REACTORS
330
821D
102
}
330
821D
100
AcDbXrecord
280
     1
102
DISPLAYNAME
  1
Metric50
102
FLAGS
 90
        0
  0
CELLSTYLEMAP
  5
8213
102
{ACAD_REACTORS
330
8212
102
}
330
8212
100
AcDbCellStyleMap
 90
        3
300
CELLSTYLE
  1
TABLEFORMAT_BEGIN
 90
        5
170
     1
 91
        0
 92
    32768
 62
   257
 93
        1
300
CONTENTFORMAT
  1
CONTENTFORMAT_BEGIN
 90
        0
 91
        0
 92
      512
 93
        0
300

 40
0.0
140
1.0
 94
        5
 62
     0
340
10
144
6.0
309
CONTENTFORMAT_END
171
     1
301
MARGIN
  1
CELLMARGIN_BEGIN
 40
1.5
 40
1.5
 40
1.5
 40
1.5
 40
4.5
 40
4.5
309
CELLMARGIN_END
 94
        6
 95
        1
302
GRIDFORMAT
  1
GRIDFORMAT_BEGIN
 90
        0
 91
        1
 62
     0
 92
       -2
340
0
 93
        0
 40
1.125
309
GRIDFORMAT_END
 95
        2
302
GRIDFORMAT
  1
GRIDFORMAT_BEGIN
 90
        0
 91
        1
 62
     0
 92
       -2
340
0
 93
        0
 40
1.125
309
GRIDFORMAT_END
 95
        4
302
GRIDFORMAT
  1
GRIDFORMAT_BEGIN
 90
        0
 91
        1
 62
     0
 92
       -2
340
0
 93
        0
 40
1.125
309
GRIDFORMAT_END
 95
        8
302
GRIDFORMAT
  1
GRIDFORMAT_BEGIN
 90
        0
 91
        1
 62
     0
 92
       -2
340
0
 93
        0
 40
1.125
309
GRIDFORMAT_END
 95
       16
302
GRIDFORMAT
  1
GRIDFORMAT_BEGIN
 90
        0
 91
        1
 62
     0
 92
       -2
340
0
 93
        0
 40
1.125
309
GRIDFORMAT_END
 95
       32
302
GRIDFORMAT
  1
GRIDFORMAT_BEGIN
 90
        0
 91
        1
 62
     0
 92
       -2
340
0
 93
        0
 40
1.125
309
GRIDFORMAT_END
309
TABLEFORMAT_END
  1
CELLSTYLE_BEGIN
 90
        1
 91
        1
300
_TITLE
309
CELLSTYLE_END
300
CELLSTYLE
  1
TABLEFORMAT_BEGIN
 90
        5
170
     1
 91
        0
 92
        0
 62
   257
 93
        1
300
CONTENTFORMAT
  1
CONTENTFORMAT_BEGIN
 90
        0
 91
        0
 92
      512
 93
        0
300

 40
0.0
140
1.0
 94
        5
 62
     0
340
10
144
4.5
309
CONTENTFORMAT_END
171
     1
301
MARGIN
  1
CELLMARGIN_BEGIN
 40
1.5
 40
1.5
 40
1.5
 40
1.5
 40
4.5
 40
4.5
309
CELLMARGIN_END
 94
        6
 95
        1
302
GRIDFORMAT
  1
GRIDFORMAT_BEGIN
 90
        0
 91
        1
 62
     0
 92
       -2
340
0
 93
        0
 40
1.125
309
GRIDFORMAT_END
 95
        2
302
GRIDFORMAT
  1
GRIDFORMAT_BEGIN
 90
        0
 91
        1
 62
     0
 92
       -2
340
0
 93
        0
 40
1.125
309
GRIDFORMAT_END
 95
        4
302
GRIDFORMAT
  1
GRIDFORMAT_BEGIN
 90
        0
 91
        1
 62
     0
 92
       -2
340
0
 93
        0
 40
1.125
309
GRIDFORMAT_END
 95
        8
302
GRIDFORMAT
  1
GRIDFORMAT_BEGIN
 90
        0
 91
        1
 62
     0
 92
       -2
340
0
 93
        0
 40
1.125
309
GRIDFORMAT_END
 95
       16
302
GRIDFORMAT
  1
GRIDFORMAT_BEGIN
 90
        0
 91
        1
 62
     0
 92
       -2
340
0
 93
        0
 40
1.125
309
GRIDFORMAT_END
 95
       32
302
GRIDFORMAT
  1
GRIDFORMAT_BEGIN
 90
        0
 91
        1
 62
     0
 92
       -2
340
0
 93
        0
 40
1.125
309
GRIDFORMAT_END
309
TABLEFORMAT_END
  1
CELLSTYLE_BEGIN
 90
        2
 91
        1
300
_HEADER
309
CELLSTYLE_END
300
CELLSTYLE
  1
TABLEFORMAT_BEGIN
 90
        5
170
     1
 91
        0
 92
        0
 62
   257
 93
        1
300
CONTENTFORMAT
  1
CONTENTFORMAT_BEGIN
 90
        0
 91
        0
 92
      512
 93
        0
300

 40
0.0
140
1.0
 94
        2
 62
     0
340
10
144
4.5
309
CONTENTFORMAT_END
171
     1
301
MARGIN
  1
CELLMARGIN_BEGIN
 40
1.5
 40
1.5
 40
1.5
 40
1.5
 40
4.5
 40
4.5
309
CELLMARGIN_END
 94
        6
 95
        1
302
GRIDFORMAT
  1
GRIDFORMAT_BEGIN
 90
        0
 91
        1
 62
     0
 92
       -2
340
0
 93
        0
 40
1.125
309
GRIDFORMAT_END
 95
        2
302
GRIDFORMAT
  1
GRIDFORMAT_BEGIN
 90
        0
 91
        1
 62
     0
 92
       -2
340
0
 93
        0
 40
1.125
309
GRIDFORMAT_END
 95
        4
302
GRIDFORMAT
  1
GRIDFORMAT_BEGIN
 90
        0
 91
        1
 62
     0
 92
       -2
340
0
 93
        0
 40
1.125
309
GRIDFORMAT_END
 95
        8
302
GRIDFORMAT
  1
GRIDFORMAT_BEGIN
 90
        0
 91
        1
 62
     0
 92
       -2
340
0
 93
        0
 40
1.125
309
GRIDFORMAT_END
 95
       16
302
GRIDFORMAT
  1
GRIDFORMAT_BEGIN
 90
        0
 91
        1
 62
     0
 92
       -2
340
0
 93
        0
 40
1.125
309
GRIDFORMAT_END
 95
       32
302
GRIDFORMAT
  1
GRIDFORMAT_BEGIN
 90
        0
 91
        1
 62
     0
 92
       -2
340
0
 93
        0
 40
1.125
309
GRIDFORMAT_END
309
TABLEFORMAT_END
  1
CELLSTYLE_BEGIN
 90
        3
 91
        2
300
_DATA
309
CELLSTYLE_END
  0
ENDSEC
  0
SECTION
  2
ACDSDATA
 70
     2
 71
     8
  0
ACDSSCHEMA
 90
        0
  1
AcDb_Thumbnail_Schema
  2
AcDbDs::ID
280
    10
 91
        8
  2
Thumbnail_Data
280
    15
 91
        0
101
ACDSRECORD
 95
        0
 90
        1
  2
AcDbDs::TreatedAsObjectData
280
     1
291
     1
101
ACDSRECORD
 95
        0
 90
        2
  2
AcDbDs::Legacy
280
     1
291
     1
101
ACDSRECORD
  1
AcDbDs::ID
 90
        3
  2
AcDs:Indexable
280
     1
291
     1
101
ACDSRECORD
  1
AcDbDs::ID
 90
        4
  2
AcDbDs::HandleAttribute
280
     7
282
     1
  0
ACDSSCHEMA
 90
        1
  1
AcDbDs::TreatedAsObjectDataSchema
  2
AcDbDs::TreatedAsObjectData
280
     1
 91
        0
  0
ACDSSCHEMA
 90
        2
  1
AcDbDs::LegacySchema
  2
AcDbDs::Legacy
280
     1
 91
        0
  0
ACDSSCHEMA
 90
        3
  1
AcDbDs::IndexedPropertySchema
  2
AcDs:Indexable
280
     1
 91
        0
  0
ACDSSCHEMA
 90
        4
  1
AcDbDs::HandleAttributeSchema
  2
AcDbDs::HandleAttribute
280
     7
 91
        1
284
     1
  0
ACDSRECORD
 90
        0
  2
AcDbDs::ID
280
    10
320
80A6
  2
Thumbnail_Data
280
    15
 94
     1744
310
89504E470D0A1A0A0000000D49484452000001000000007C0803000000B13B9E5A00000300504C5445000000000000C8C8C80000000000000000000000000000000000000000000000000000330000660000990000CC0000FF0033000033330033660033990033CC0033FF0066000066330066660066990066CC0066FF0099
310
000099330099660099990099CC0099FF00CC0000CC3300CC6600CC9900CCCC00CCFF00FF0000FF3300FF6600FF9900FFCC00FFFF3300003300333300663300993300CC3300FF3333003333333333663333993333CC3333FF3366003366333366663366993366CC3366FF3399003399333399663399993399CC3399FF33CC00
310
33CC3333CC6633CC9933CCCC33CCFF33FF0033FF3333FF6633FF9933FFCC33FFFF6600006600336600666600996600CC6600FF6633006633336633666633996633CC6633FF6666006666336666666666996666CC6666FF6699006699336699666699996699CC6699FF66CC0066CC3366CC6666CC9966CCCC66CCFF66FF0066
310
FF3366FF6666FF9966FFCC66FFFF9900009900339900669900999900CC9900FF9933009933339933669933999933CC9933FF9966009966339966669966999966CC9966FF9999009999339999669999999999CC9999FF99CC0099CC3399CC6699CC9999CCCC99CCFF99FF0099FF3399FF6699FF9999FFCC99FFFFCC0000CC00
310
33CC0066CC0099CC00CCCC00FFCC3300CC3333CC3366CC3399CC33CCCC33FFCC6600CC6633CC6666CC6699CC66CCCC66FFCC9900CC9933CC9966CC9999CC99CCCC99FFCCCC00CCCC33CCCC66CCCC99CCCCCCCCCCFFCCFF00CCFF33CCFF66CCFF99CCFFCCCCFFFFFF0000FF0033FF0066FF0099FF00CCFF00FFFF3300FF3333
310
FF3366FF3399FF33CCFF33FFFF6600FF6633FF6666FF6699FF66CCFF66FFFF9900FF9933FF9966FF9999FF99CCFF99FFFFCC00FFCC33FFCC66FFCC99FFCCCCFFCCFFFFFF00FFFF33FFFF66FFFF99FFFFCCFFFFFF0000000D0D0D1A1A1A2828283535354343435050505D5D5D6B6B6B787878868686939393A1A1A1AEAEAEBB
310
BBBBC9C9C9D6D6D6E4E4E4F1F1F1FFFFFF00000000000000000000000000000000000000000000000000000000000008F1915C000003824944415478DAED9D5992E3200C86751C5EB8FF65B806EF13A305B1D85DE99ACC044974951B3B892B7CFEB518540EC0075AFD5083535A3DEAB40120000480001000BEE79B3E043F2F
310
00A68F57970A700FA07A063059C1D900FEEA1DC09100BEEC6401E03F00201D2B49D7A10F2C727C6FB71C3A680100E0A0A10F1B68977D5EAD940154EE42E5AD0905C09D7F2305E058BB02D40B564C8093BCAA6DE2796C359C60E4010E6F867E348903018C117055067F4422848E83B600D42D801E0218C0E4FE8F378121F399
310
C7AF63200F7F8A11EE7C40FD946B39C70906800010006C0128A5A86EDF7101A0DC35370036BD75CF1380E41740D6ED6D3B381B405EDBBB2A381D00EDE64C2610001C0148D770330DDB1300F473AF6BDE2C3EE3A85D29A0E040138FBE6DDD01109FBF00289E14905EAD6FDA7F5F003C2A0013BD00C000FC45811180C33C6000
310
E033130C000A80CBBBC10E005801A2054FF702FBE66442241711BCCC8CBC7FF5CF06C08910293FB903E05D01320F4C2D813B0524E5F57E17020F06102B4377037503E0DB4F1B0002C03FFBA6BF2F0D30E2042700EB6A7959BAA6C36059DFF5A8141B0A501D5535A300BC36D85D189C0DE04901E3D17C97291D0E00788E5006
310
5676CE400DDCAE026E00CCFAB0A7806EF17B0072B3887B01C01280B53A6AB18965D2D89602D6297128120169E660508039003241A2E7C4CA3D8035129A00700D3E0112780690172F6001C035F226808C122700596A886C0320EB4F80040400AF9BCF008A2900BD50AC5D7E048076D064611940BBF2AD2C087BD75FEAC5C2A5
310
1DA1B748CBC90C005E19E25AB1B63274E503ECEB697F524036A480D40BE5940948B4CBA0178FAC99002E8DD1A23875290C3C03C8760048E4271F80350259B21DD2C3AC00301106D30B00FA34F4F4992B871580846E319904200A404F27C9005EEF0705984985FBF2F860E4E201EEF300B07133944BBF034404BA660C24135C
310
A38039009B2A310270FFB2853C206F0A24607002E305B7A600C85220B12912EB000C2BC03D00EF26506605949D02CAF2B21D003DB1E1037DDD639823A79523D82E8BD82C9252CB443FD75059299262CDCF00A68E1D004FEDAD8A91A8110A000120000480D301B87FA2E47E64F208BDFEE9BA9ECC32803A3F7719F4A3164D01
310
80CDCF26E9E72CB310F8B9D39615E0D3076C15303E54FBEE64D69DA03B003776E14801F164E94885034000080001200004800010000240003006E0A09FDEFE030474138CA79D68B90000000049454E44AE4260820049454E44AE426082
  0
ENDSEC
  0
EOF
