  0
SECTION
  2
HEADER
  9
$ACADVER
  1
AC1027
  9
$ACADMAINTVER
 70
   125
  9
$DWGCODEPAGE
  3
ANSI_932
  9
$LASTSAVEDBY
  1
yasukiyo.ogawa
  9
$REQUIREDVERSIONS
160
                 0
  9
$INSBASE
 10
0.0
 20
0.0
 30
0.0
  9
$EXTMIN
 10
0.0
 20
0.0
 30
0.0
  9
$EXTMAX
 10
4200.0
 20
5900.0
 30
0.0
  9
$LIMMIN
 10
0.0
 20
0.0
  9
$LIMMAX
 10
297.0
 20
210.0
  9
$ORTHOMODE
 70
     1
  9
$REGENMODE
 70
     1
  9
$FILLMODE
 70
     0
  9
$QTEXTMODE
 70
     0
  9
$MIRRTEXT
 70
     1
  9
$LTSCALE
 40
100.0
  9
$ATTMODE
 70
     1
  9
$TEXTSIZE
 40
180.0
  9
$TRACEWID
 40
0.05
  9
$TEXTSTYLE
  7
STANDARD
  9
$CLAYER
  8
3
  9
$CELTYPE
  6
BYLAYER
  9
$CECOLOR
 62
   256
  9
$CELTSCALE
 40
1.0
  9
$DISPSILH
 70
     0
  9
$DIMSCALE
 40
20.0
  9
$DIMASZ
 40
2.0
  9
$DIMEXO
 40
0.5
  9
$DIMDLI
 40
10.0
  9
$DIMRND
 40
0.0
  9
$DIMDLE
 40
0.0
  9
$DIMEXE
 40
1.0
  9
$DIMTP
 40
1.0
  9
$DIMTM
 40
1.0
  9
$DIMTXT
 40
3.0
  9
$DIMCEN
 40
0.0
  9
$DIMTSZ
 40
0.0
  9
$DIMTOL
 70
     0
  9
$DIMLIM
 70
     0
  9
$DIMTIH
 70
     0
  9
$DIMTOH
 70
     0
  9
$DIMSE1
 70
     0
  9
$DIMSE2
 70
     0
  9
$DIMTAD
 70
     1
  9
$DIMZIN
 70
     8
  9
$DIMBLK
  1

  9
$DIMASO
 70
     1
  9
$DIMSHO
 70
     1
  9
$DIMPOST
  1
(<>)
  9
$DIMAPOST
  1

  9
$DIMALT
 70
     0
  9
$DIMALTD
 70
     2
  9
$DIMALTF
 40
0.039
  9
$DIMLFAC
 40
1.0
  9
$DIMTOFL
 70
     1
  9
$DIMTVP
 40
0.0
  9
$DIMTIX
 70
     0
  9
$DIMSOXD
 70
     0
  9
$DIMSAH
 70
     1
  9
$DIMBLK1
  1
OPEN
  9
$DIMBLK2
  1
OPEN
  9
$DIMSTYLE
  2
IGA
  9
$DIMCLRD
 70
     0
  9
$DIMCLRE
 70
     0
  9
$DIMCLRT
 70
     0
  9
$DIMTFAC
 40
10.0
  9
$DIMGAP
 40
1.0
  9
$DIMJUST
 70
     0
  9
$DIMSD1
 70
     0
  9
$DIMSD2
 70
     0
  9
$DIMTOLJ
 70
     1
  9
$DIMTZIN
 70
     8
  9
$DIMALTZ
 70
     0
  9
$DIMALTTZ
 70
     0
  9
$DIMUPT
 70
     0
  9
$DIMDEC
 70
     0
  9
$DIMTDEC
 70
     0
  9
$DIMALTU
 70
     2
  9
$DIMALTTD
 70
     2
  9
$DIMTXSTY
  7
STANDARD
  9
$DIMAUNIT
 70
     0
  9
$DIMADEC
 70
     0
  9
$DIMALTRND
 40
0.0
  9
$DIMAZIN
 70
     0
  9
$DIMDSEP
 70
    46
  9
$DIMATFIT
 70
     3
  9
$DIMFRAC
 70
     0
  9
$DIMLDRBLK
  1
OPEN
  9
$DIMLUNIT
 70
     2
  9
$DIMLWD
 70
    -2
  9
$DIMLWE
 70
    -2
  9
$DIMTMOVE
 70
     2
  9
$DIMFXL
 40
1.0
  9
$DIMFXLON
 70
     0
  9
$DIMJOGANG
 40
0.7853981633974483
  9
$DIMTFILL
 70
     0
  9
$DIMTFILLCLR
 70
     0
  9
$DIMARCSYM
 70
     0
  9
$DIMLTYPE
  6

  9
$DIMLTEX1
  6

  9
$DIMLTEX2
  6

  9
$DIMTXTDIRECTION
 70
     0
  9
$LUNITS
 70
     2
  9
$LUPREC
 70
     3
  9
$SKETCHINC
 40
0.1
  9
$FILLETRAD
 40
50.0
  9
$AUNITS
 70
     0
  9
$AUPREC
 70
     0
  9
$MENU
  1
acad
  9
$ELEVATION
 40
0.0
  9
$PELEVATION
 40
0.0
  9
$THICKNESS
 40
0.0
  9
$LIMCHECK
 70
     0
  9
$CHAMFERA
 40
0.5
  9
$CHAMFERB
 40
0.5
  9
$CHAMFERC
 40
20.0
  9
$CHAMFERD
 40
0.0
  9
$SKPOLY
 70
     0
  9
$TDCREATE
 40
2451373.622129630
  9
$TDUCREATE
 40
2451373.247132870
  9
$TDUPDATE
 40
2460216.737141204
  9
$TDUUPDATE
 40
2460216.362145440
  9
$TDINDWG
 40
0.0349513194
  9
$TDUSRTIMER
 40
0.0349513194
  9
$USRTIMER
 70
     1
  9
$ANGBASE
 50
0.0
  9
$ANGDIR
 70
     0
  9
$PDMODE
 70
     0
  9
$PDSIZE
 40
0.0
  9
$PLINEWID
 40
0.0
  9
$SPLFRAME
 70
     0
  9
$SPLINETYPE
 70
     6
  9
$SPLINESEGS
 70
     8
  9
$HANDSEED
  5
81B6
  9
$SURFTAB1
 70
     6
  9
$SURFTAB2
 70
     6
  9
$SURFTYPE
 70
     6
  9
$SURFU
 70
     6
  9
$SURFV
 70
     6
  9
$UCSBASE
  2

  9
$UCSNAME
  2

  9
$UCSORG
 10
0.0
 20
0.0
 30
0.0
  9
$UCSXDIR
 10
1.0
 20
0.0
 30
0.0
  9
$UCSYDIR
 10
0.0
 20
1.0
 30
0.0
  9
$UCSORTHOREF
  2

  9
$UCSORTHOVIEW
 70
     0
  9
$UCSORGTOP
 10
0.0
 20
0.0
 30
0.0
  9
$UCSORGBOTTOM
 10
0.0
 20
0.0
 30
0.0
  9
$UCSORGLEFT
 10
0.0
 20
0.0
 30
0.0
  9
$UCSORGRIGHT
 10
0.0
 20
0.0
 30
0.0
  9
$UCSORGFRONT
 10
0.0
 20
0.0
 30
0.0
  9
$UCSORGBACK
 10
0.0
 20
0.0
 30
0.0
  9
$PUCSBASE
  2

  9
$PUCSNAME
  2

  9
$PUCSORG
 10
0.0
 20
0.0
 30
0.0
  9
$PUCSXDIR
 10
1.0
 20
0.0
 30
0.0
  9
$PUCSYDIR
 10
0.0
 20
1.0
 30
0.0
  9
$PUCSORTHOREF
  2

  9
$PUCSORTHOVIEW
 70
     0
  9
$PUCSORGTOP
 10
0.0
 20
0.0
 30
0.0
  9
$PUCSORGBOTTOM
 10
0.0
 20
0.0
 30
0.0
  9
$PUCSORGLEFT
 10
0.0
 20
0.0
 30
0.0
  9
$PUCSORGRIGHT
 10
0.0
 20
0.0
 30
0.0
  9
$PUCSORGFRONT
 10
0.0
 20
0.0
 30
0.0
  9
$PUCSORGBACK
 10
0.0
 20
0.0
 30
0.0
  9
$USERI1
 70
     0
  9
$USERI2
 70
     0
  9
$USERI3
 70
     0
  9
$USERI4
 70
     0
  9
$USERI5
 70
     0
  9
$USERR1
 40
0.0
  9
$USERR2
 40
0.0
  9
$USERR3
 40
0.0
  9
$USERR4
 40
0.0
  9
$USERR5
 40
0.0
  9
$WORLDVIEW
 70
     1
  9
$SHADEDGE
 70
     3
  9
$SHADEDIF
 70
    70
  9
$TILEMODE
 70
     1
  9
$MAXACTVP
 70
    16
  9
$PINSBASE
 10
0.0
 20
0.0
 30
0.0
  9
$PLIMCHECK
 70
     0
  9
$PEXTMIN
 10
1.000000000000000E+20
 20
1.000000000000000E+20
 30
1.000000000000000E+20
  9
$PEXTMAX
 10
-1.000000000000000E+20
 20
-1.000000000000000E+20
 30
-1.000000000000000E+20
  9
$PLIMMIN
 10
0.0
 20
0.0
  9
$PLIMMAX
 10
12.0
 20
9.0
  9
$UNITMODE
 70
     0
  9
$VISRETAIN
 70
     0
  9
$PLINEGEN
 70
     0
  9
$PSLTSCALE
 70
     1
  9
$TREEDEPTH
 70
  3020
  9
$CMLSTYLE
  2
STANDARD
  9
$CMLJUST
 70
     0
  9
$CMLSCALE
 40
20.0
  9
$PROXYGRAPHICS
 70
     1
  9
$MEASUREMENT
 70
     1
  9
$CELWEIGHT
370
    -1
  9
$ENDCAPS
280
     0
  9
$JOINSTYLE
280
     0
  9
$LWDISPLAY
290
     0
  9
$INSUNITS
 70
     0
  9
$HYPERLINKBASE
  1

  9
$STYLESHEET
  1

  9
$XEDIT
290
     1
  9
$CEPSNTYPE
380
     0
  9
$PSTYLEMODE
290
     1
  9
$FINGERPRINTGUID
  2
{51176C51-3F7B-4B90-9CFE-1A3E477EFF52}
  9
$VERSIONGUID
  2
{748DC103-64B8-467F-B588-180385AD2CC4}
  9
$EXTNAMES
290
     1
  9
$PSVPSCALE
 40
0.0
  9
$OLESTARTUP
290
     0
  9
$SORTENTS
280
   127
  9
$INDEXCTL
280
     0
  9
$HIDETEXT
280
     0
  9
$XCLIPFRAME
280
     2
  9
$HALOGAP
280
     0
  9
$OBSCOLOR
 70
   257
  9
$OBSLTYPE
280
     0
  9
$INTERSECTIONDISPLAY
280
     0
  9
$INTERSECTIONCOLOR
 70
   257
  9
$DIMASSOC
280
     1
  9
$PROJECTNAME
  1

  9
$CAMERADISPLAY
290
     0
  9
$LENSLENGTH
 40
50.0
  9
$CAMERAHEIGHT
 40
0.0
  9
$STEPSPERSEC
 40
2.0
  9
$STEPSIZE
 40
6.0
  9
$3DDWFPREC
 40
2.0
  9
$PSOLWIDTH
 40
0.25
  9
$PSOLHEIGHT
 40
4.0
  9
$LOFTANG1
 40
1.570796326794896
  9
$LOFTANG2
 40
1.570796326794896
  9
$LOFTMAG1
 40
0.0
  9
$LOFTMAG2
 40
0.0
  9
$LOFTPARAM
 70
     7
  9
$LOFTNORMALS
280
     1
  9
$LATITUDE
 40
37.795
  9
$LONGITUDE
 40
-122.394
  9
$NORTHDIRECTION
 40
0.0
  9
$TIMEZONE
 70
 -8000
  9
$LIGHTGLYPHDISPLAY
280
     1
  9
$TILEMODELIGHTSYNCH
280
     1
  9
$CMATERIAL
347
80D8
  9
$SOLIDHIST
280
     0
  9
$SHOWHIST
280
     1
  9
$DWFFRAME
280
     2
  9
$DGNFRAME
280
     0
  9
$REALWORLDSCALE
290
     1
  9
$INTERFERECOLOR
 62
     1
  9
$INTERFEREOBJVS
345
80FA
  9
$INTERFEREVPVS
346
80F7
  9
$CSHADOW
280
     0
  9
$SHADOWPLANELOCATION
 40
0.0
  0
ENDSEC
  0
SECTION
  2
CLASSES
  0
CLASS
  1
ACDBDICTIONARYWDFLT
  2
AcDbDictionaryWithDefault
  3
ObjectDBX Classes
 90
        0
 91
        1
280
     0
281
     0
  0
CLASS
  1
MATERIAL
  2
AcDbMaterial
  3
ObjectDBX Classes
 90
     1153
 91
        3
280
     0
281
     0
  0
CLASS
  1
VISUALSTYLE
  2
AcDbVisualStyle
  3
ObjectDBX Classes
 90
     4095
 91
       24
280
     0
281
     0
  0
CLASS
  1
TABLESTYLE
  2
AcDbTableStyle
  3
ObjectDBX Classes
 90
     4095
 91
        1
280
     0
281
     0
  0
CLASS
  1
SCALE
  2
AcDbScale
  3
ObjectDBX Classes
 90
     1153
 91
       17
280
     0
281
     0
  0
CLASS
  1
MLEADERSTYLE
  2
AcDbMLeaderStyle
  3
ACDB_MLEADERSTYLE_CLASS
 90
     4095
 91
        1
280
     0
281
     0
  0
CLASS
  1
ACDBSECTIONVIEWSTYLE
  2
AcDbSectionViewStyle
  3
ObjectDBX Classes
 90
     1025
 91
        1
280
     0
281
     0
  0
CLASS
  1
ACDBDETAILVIEWSTYLE
  2
AcDbDetailViewStyle
  3
ObjectDBX Classes
 90
     1025
 91
        1
280
     0
281
     0
  0
CLASS
  1
DICTIONARYVAR
  2
AcDbDictionaryVar
  3
ObjectDBX Classes
 90
        0
 91
       10
280
     0
281
     0
  0
CLASS
  1
CELLSTYLEMAP
  2
AcDbCellStyleMap
  3
ObjectDBX Classes
 90
     1152
 91
        1
280
     0
281
     0
  0
ENDSEC
  0
SECTION
  2
TABLES
  0
TABLE
  2
VPORT
  5
8
330
0
100
AcDbSymbolTable
 70
     1
1001
ACAD
1000
DbSaveVer
1071
      278
  0
VPORT
  5
80D5
330
8
100
AcDbSymbolTableRecord
100
AcDbViewportTableRecord
  2
*Active
 70
     0
 10
0.0
 20
0.0
 11
1.0
 21
1.0
 12
2694.113519327956
 22
2950.000013737006
 13
0.0
 23
0.0
 14
10.0
 24
10.0
 15
10.0
 25
10.0
 16
0.0
 26
0.0
 36
1.0
 17
0.0
 27
0.0
 37
0.0
 40
5938.142562752639
 41
2.250314465408805
 42
50.0
 43
0.0
 44
0.0
 50
0.0
 51
0.0
 71
     0
 72
   100
 73
     1
 74
     0
 75
     0
 76
     0
 77
     0
 78
     0
281
     0
 65
     1
110
0.0
120
0.0
130
0.0
111
1.0
121
0.0
131
0.0
112
0.0
122
1.0
132
0.0
 79
     0
146
0.0
348
80F6
 60
     3
 61
     5
292
     1
282
     1
141
0.0
142
0.0
 63
   250
421
  3355443
1001
ACAD_NAV_VCDISPLAY
1070
     3
  0
ENDTAB
  0
TABLE
  2
LTYPE
  5
5
330
0
100
AcDbSymbolTable
 70
     2
  0
LTYPE
  5
13
330
5
100
AcDbSymbolTableRecord
100
AcDbLinetypeTableRecord
  2
BYBLOCK
 70
     0
  3

 72
    65
 73
     0
 40
0.0
  0
LTYPE
  5
14
330
5
100
AcDbSymbolTableRecord
100
AcDbLinetypeTableRecord
  2
BYLAYER
 70
     0
  3

 72
    65
 73
     0
 40
0.0
  0
LTYPE
  5
15
330
5
100
AcDbSymbolTableRecord
100
AcDbLinetypeTableRecord
  2
CONTINUOUS
 70
     0
  3
Solid line
 72
    65
 73
     0
 40
0.0
  0
LTYPE
  5
1F
330
5
100
AcDbSymbolTableRecord
100
AcDbLinetypeTableRecord
  2
CENTER
 70
     0
  3
____ _ ____ _ ____ _ ____ _ ____ _ ____ _ ____ 
 72
    65
 73
     4
 40
2.0
 49
1.25
 74
     0
 49
-0.25
 74
     0
 49
0.25
 74
     0
 49
-0.25
 74
     0
  0
ENDTAB
  0
TABLE
  2
LAYER
  5
2
102
{ACAD_XDICTIONARY
360
8176
102
}
330
0
100
AcDbSymbolTable
 70
     6
  0
LAYER
  5
F
102
{ACAD_XDICTIONARY
360
8169
102
}
330
2
100
AcDbSymbolTableRecord
100
AcDbLayerTableRecord
  2
0
 70
     0
 62
     7
  6
CONTINUOUS
370
    -3
390
8083
347
80E8
348
0
  0
LAYER
  5
31
102
{ACAD_XDICTIONARY
360
816B
102
}
330
2
100
AcDbSymbolTableRecord
100
AcDbLayerTableRecord
  2
3
 70
     0
 62
     2
  6
CONTINUOUS
370
    -3
390
8083
347
80E8
348
0
  0
LAYER
  5
76D0
102
{ACAD_XDICTIONARY
360
816D
102
}
330
2
100
AcDbSymbolTableRecord
100
AcDbLayerTableRecord
  2
2
 70
     0
 62
     3
  6
CENTER
370
    -3
390
8083
347
80E8
348
0
  0
LAYER
  5
76D1
102
{ACAD_XDICTIONARY
360
816F
102
}
330
2
100
AcDbSymbolTableRecord
100
AcDbLayerTableRecord
  2
1
 70
     0
 62
     4
  6
CONTINUOUS
370
    -3
390
8083
347
80E8
348
0
  0
LAYER
  5
76D2
102
{ACAD_XDICTIONARY
360
8171
102
}
330
2
100
AcDbSymbolTableRecord
100
AcDbLayerTableRecord
  2
4
 70
     0
 62
     7
  6
CONTINUOUS
370
    -3
390
8083
347
80E8
348
0
  0
LAYER
  5
7B3F
330
2
100
AcDbSymbolTableRecord
100
AcDbLayerTableRecord
  2
DEFPOINTS
 70
     0
 62
     7
  6
CONTINUOUS
290
     0
370
    -3
390
8083
347
80E8
348
0
  0
ENDTAB
  0
TABLE
  2
STYLE
  5
3
330
0
100
AcDbSymbolTable
 70
     1
  0
STYLE
  5
10
330
3
100
AcDbSymbolTableRecord
100
AcDbTextStyleTableRecord
  2
STANDARD
 70
     0
 40
0.0
 41
1.0
 50
0.0
 71
     0
 42
180.0
  3
simplex.shx
  4
extfont.shx
  0
ENDTAB
  0
TABLE
  2
VIEW
  5
6
330
0
100
AcDbSymbolTable
 70
     0
  0
ENDTAB
  0
TABLE
  2
UCS
  5
7
330
0
100
AcDbSymbolTable
 70
     0
  0
ENDTAB
  0
TABLE
  2
APPID
  5
9
330
0
100
AcDbSymbolTable
 70
     4
  0
APPID
  5
11
330
9
100
AcDbSymbolTableRecord
100
AcDbRegAppTableRecord
  2
ACAD
 70
     0
  0
APPID
  5
8127
330
9
100
AcDbSymbolTableRecord
100
AcDbRegAppTableRecord
  2
AcadAnnoMonitorAlertIconDisabled
 70
     0
  0
APPID
  5
8128
330
9
100
AcDbSymbolTableRecord
100
AcDbRegAppTableRecord
  2
ACAD_EXEMPT_FROM_CAD_STANDARDS
 70
     0
  0
APPID
  5
817C
330
9
100
AcDbSymbolTableRecord
100
AcDbRegAppTableRecord
  2
ACAD_NAV_VCDISPLAY
 70
     0
  0
ENDTAB
  0
TABLE
  2
DIMSTYLE
  5
A
330
0
100
AcDbSymbolTable
 70
     2
100
AcDbDimStyleTable
 71
     1
340
1D
  0
DIMSTYLE
105
1D
102
{ACAD_REACTORS
330
7F8B
330
802A
330
8037
330
8044
330
8051
330
8060
330
806E
330
807B
102
}
330
A
100
AcDbSymbolTableRecord
100
AcDbDimStyleTableRecord
  2
IGA
 70
     0
 40
2.0
 41
2.0
 42
0.5
 43
10.0
 44
1.0
 47
1.0
 48
1.0
 73
     0
 74
     0
 77
     1
 78
     8
140
3.0
141
0.0
143
0.03937
146
10.0
147
1.0
173
     1
271
     1
272
     0
279
     2
284
     8
340
10
341
79FC
343
79FC
344
79FC
  0
DIMSTYLE
105
7B41
102
{ACAD_REACTORS
330
7C21
330
7C22
330
7C23
330
7C42
330
7C4F
330
7C56
330
7C62
330
7CC3
330
7CCA
330
7CCB
330
7CCC
330
7CCD
330
7CD4
330
7CD5
330
7CD9
102
}
330
A
100
AcDbSymbolTableRecord
100
AcDbDimStyleTableRecord
  2
MATSU
 70
     0
 41
2.0
 42
1.0
 43
10.0
 44
1.0
 73
     0
 74
     0
 77
     1
 78
     8
140
3.0
141
0.0
143
0.03937
147
0.5
172
     1
173
     1
176
   256
177
   256
178
   256
284
     8
289
     0
340
10
341
79FC
343
79FC
344
79FC
  0
ENDTAB
  0
TABLE
  2
BLOCK_RECORD
  5
1
330
0
100
AcDbSymbolTable
 70
    26
  0
BLOCK_RECORD
  5
19
102
{ACAD_XDICTIONARY
360
80B1
102
}
330
1
100
AcDbSymbolTableRecord
100
AcDbBlockTableRecord
  2
*MODEL_SPACE
340
8086
 70
     0
280
     1
281
     0
  0
BLOCK_RECORD
  5
16
102
{ACAD_XDICTIONARY
360
80AF
102
}
330
1
100
AcDbSymbolTableRecord
100
AcDbBlockTableRecord
  2
*PAPER_SPACE
340
8087
 70
     0
280
     1
281
     0
  0
BLOCK_RECORD
  5
79FC
330
1
100
AcDbSymbolTableRecord
100
AcDbBlockTableRecord
  2
_OPEN
340
0
102
{BLKREFS
331
7E92
331
7E93
331
7EB7
331
7EB8
331
7ECD
331
7ECE
331
7ED8
331
7ED9
331
7EE3
331
7EE4
331
7EEE
331
7EEF
331
7EF9
331
7EFA
331
7F04
331
7F05
331
7F0F
331
7F10
331
8023
331
8024
331
7E19
331
7E1A
331
7E24
331
7E25
331
7E2F
331
7E30
331
7E3A
331
7E3B
331
8163
331
8164
331
8030
331
8031
331
803D
331
803E
331
804A
331
804B
331
8067
331
8068
331
8074
331
8075
331
80C6
331
815A
331
815B
102
}
 70
     0
280
     1
281
     0
  0
BLOCK_RECORD
  5
7CE6
330
1
100
AcDbSymbolTableRecord
100
AcDbBlockTableRecord
  2
*D1
340
0
 70
     0
280
     1
281
     0
  0
BLOCK_RECORD
  5
7CF2
330
1
100
AcDbSymbolTableRecord
100
AcDbBlockTableRecord
  2
*D2
340
0
 70
     0
280
     1
281
     0
  0
BLOCK_RECORD
  5
7CFE
330
1
100
AcDbSymbolTableRecord
100
AcDbBlockTableRecord
  2
*D3
340
0
 70
     0
280
     1
281
     0
  0
BLOCK_RECORD
  5
7D0A
330
1
100
AcDbSymbolTableRecord
100
AcDbBlockTableRecord
  2
*D4
340
0
 70
     0
280
     1
281
     0
  0
BLOCK_RECORD
  5
7D16
330
1
100
AcDbSymbolTableRecord
100
AcDbBlockTableRecord
  2
*D5
340
0
 70
     0
280
     1
281
     0
  0
BLOCK_RECORD
  5
7D6A
330
1
100
AcDbSymbolTableRecord
100
AcDbBlockTableRecord
  2
*D6
340
0
 70
     0
280
     1
281
     0
  0
BLOCK_RECORD
  5
7D92
330
1
100
AcDbSymbolTableRecord
100
AcDbBlockTableRecord
  2
*D7
340
0
 70
     0
280
     1
281
     0
  0
BLOCK_RECORD
  5
7D9E
330
1
100
AcDbSymbolTableRecord
100
AcDbBlockTableRecord
  2
*D8
340
0
 70
     0
280
     1
281
     0
  0
BLOCK_RECORD
  5
7DAA
330
1
100
AcDbSymbolTableRecord
100
AcDbBlockTableRecord
  2
*D9
340
0
 70
     0
280
     1
281
     0
  0
BLOCK_RECORD
  5
7DB6
330
1
100
AcDbSymbolTableRecord
100
AcDbBlockTableRecord
  2
*D10
340
0
 70
     0
280
     1
281
     0
  0
BLOCK_RECORD
  5
7DC2
330
1
100
AcDbSymbolTableRecord
100
AcDbBlockTableRecord
  2
*D11
340
0
 70
     0
280
     1
281
     0
  0
BLOCK_RECORD
  5
7DCE
330
1
100
AcDbSymbolTableRecord
100
AcDbBlockTableRecord
  2
*D12
340
0
 70
     0
280
     1
281
     0
  0
BLOCK_RECORD
  5
7DDA
330
1
100
AcDbSymbolTableRecord
100
AcDbBlockTableRecord
  2
*D13
340
0
 70
     0
280
     1
281
     0
  0
BLOCK_RECORD
  5
7DE6
330
1
100
AcDbSymbolTableRecord
100
AcDbBlockTableRecord
  2
*D14
340
0
 70
     0
280
     1
281
     0
  0
BLOCK_RECORD
  5
7DF2
330
1
100
AcDbSymbolTableRecord
100
AcDbBlockTableRecord
  2
*D15
340
0
 70
     0
280
     1
281
     0
  0
BLOCK_RECORD
  5
7F7C
330
1
100
AcDbSymbolTableRecord
100
AcDbBlockTableRecord
  2
*D16
340
0
 70
     0
280
     1
281
     0
  0
BLOCK_RECORD
  5
7FB3
330
1
100
AcDbSymbolTableRecord
100
AcDbBlockTableRecord
  2
_DOT
340
0
102
{BLKREFS
331
80C5
102
}
 70
     0
280
     1
281
     0
  0
BLOCK_RECORD
  5
801E
330
1
100
AcDbSymbolTableRecord
100
AcDbBlockTableRecord
  2
*D18
340
0
 70
     0
280
     1
281
     0
  0
BLOCK_RECORD
  5
802B
330
1
100
AcDbSymbolTableRecord
100
AcDbBlockTableRecord
  2
*D19
340
0
 70
     0
280
     1
281
     0
  0
BLOCK_RECORD
  5
8038
330
1
100
AcDbSymbolTableRecord
100
AcDbBlockTableRecord
  2
*D20
340
0
 70
     0
280
     1
281
     0
  0
BLOCK_RECORD
  5
8045
330
1
100
AcDbSymbolTableRecord
100
AcDbBlockTableRecord
  2
*D21
340
0
 70
     0
280
     1
281
     0
  0
BLOCK_RECORD
  5
8052
330
1
100
AcDbSymbolTableRecord
100
AcDbBlockTableRecord
  2
_NONE
340
0
 70
     0
280
     1
281
     0
  0
BLOCK_RECORD
  5
8056
330
1
100
AcDbSymbolTableRecord
100
AcDbBlockTableRecord
  2
*D23
340
0
 70
     0
280
     1
281
     0
  0
BLOCK_RECORD
  5
8062
330
1
100
AcDbSymbolTableRecord
100
AcDbBlockTableRecord
  2
*D24
340
0
 70
     0
280
     1
281
     0
  0
BLOCK_RECORD
  5
806F
330
1
100
AcDbSymbolTableRecord
100
AcDbBlockTableRecord
  2
*D25
340
0
 70
     0
280
     1
281
     0
  0
ENDTAB
  0
ENDSEC
  0
SECTION
  2
BLOCKS
  0
BLOCK
  5
1A
330
19
100
AcDbEntity
  8
0
100
AcDbBlockBegin
  2
*MODEL_SPACE
 70
     0
 10
0.0
 20
0.0
 30
0.0
  3
*MODEL_SPACE
  1

  0
ENDBLK
  5
1B
330
19
100
AcDbEntity
  8
0
100
AcDbBlockEnd
  0
BLOCK
  5
17
330
16
100
AcDbEntity
 67
     1
  8
0
100
AcDbBlockBegin
  2
*PAPER_SPACE
 70
     0
 10
0.0
 20
0.0
 30
0.0
  3
*PAPER_SPACE
  1

  0
ENDBLK
  5
18
330
16
100
AcDbEntity
 67
     1
  8
0
100
AcDbBlockEnd
  0
BLOCK
  5
7A00
330
79FC
100
AcDbEntity
  8
0
100
AcDbBlockBegin
  2
_OPEN
 70
     0
 10
0.0
 20
0.0
 30
0.0
  3
_OPEN
  1

  0
LINE
  5
79FD
330
79FC
100
AcDbEntity
  8
0
  6
ByBlock
 62
     0
100
AcDbLine
 10
-1.0
 20
0.1666666666666666
 30
0.0
 11
0.0
 21
0.0
 31
0.0
  0
LINE
  5
79FE
330
79FC
100
AcDbEntity
  8
0
  6
ByBlock
 62
     0
100
AcDbLine
 10
0.0
 20
0.0
 30
0.0
 11
-1.0
 21
-0.1666666666666666
 31
0.0
  0
LINE
  5
79FF
330
79FC
100
AcDbEntity
  8
0
  6
ByBlock
 62
     0
100
AcDbLine
 10
0.0
 20
0.0
 30
0.0
 11
-1.0
 21
0.0
 31
0.0
  0
ENDBLK
  5
7A01
330
79FC
100
AcDbEntity
  8
0
100
AcDbBlockEnd
  0
BLOCK
  5
7E15
330
7CE6
100
AcDbEntity
  8
0
100
AcDbBlockBegin
  2
*D1
 70
     1
 10
0.0
 20
0.0
 30
0.0
  3
*D1
  1

  0
LINE
  5
7E16
330
7CE6
100
AcDbEntity
  8
0
  6
ByBlock
440
 16777216
100
AcDbLine
 10
2630.34211183302
 20
1327.738013274415
 30
0.0
 11
2776.500054706622
 21
1327.738013274415
 31
0.0
  0
LINE
  5
7E17
330
7CE6
100
AcDbEntity
  8
0
  6
ByBlock
440
 16777216
100
AcDbLine
 10
2630.34211183302
 20
815.7380132744151
 30
0.0
 11
2776.500054706622
 21
815.7380132744151
 31
0.0
  0
LINE
  5
7E18
330
7CE6
100
AcDbEntity
  8
0
  6
ByBlock
440
 16777216
100
AcDbLine
 10
2756.500054706622
 20
1287.738013274415
 30
0.0
 11
2756.500054706622
 21
855.7380132744151
 31
0.0
  0
INSERT
  5
7E19
330
7CE6
100
AcDbEntity
  8
0
  6
ByBlock
440
 16777216
100
AcDbBlockReference
  2
_OPEN
 10
2756.500054706622
 20
1327.738013274415
 30
0.0
 41
40.0
 42
40.0
 43
40.0
 50
90.0
  0
INSERT
  5
7E1A
330
7CE6
100
AcDbEntity
  8
0
  6
ByBlock
440
 16777216
100
AcDbBlockReference
  2
_OPEN
 10
2756.500054706622
 20
815.7380132744151
 30
0.0
 41
40.0
 42
40.0
 43
40.0
 50
270.0
  0
MTEXT
  5
7E1B
330
7CE6
100
AcDbEntity
  8
0
  6
ByBlock
440
 16777216
100
AcDbMText
 10
2716.500054706622
 20
1071.738013274415
 30
0.0
 40
60.0
 41
0.0
 46
0.0
 71
     5
 72
     5
  1
\A1;512
 11
0.0
 21
1.0
 31
0.0
 73
     1
 44
1.0
  0
POINT
  5
7E1C
330
7CE6
100
AcDbEntity
  8
DEFPOINTS
  6
ByBlock
 62
     0
440
 16777216
100
AcDbPoint
 10
2610.34211183302
 20
1327.738013274415
 30
0.0
  0
POINT
  5
7E1D
330
7CE6
100
AcDbEntity
  8
DEFPOINTS
  6
ByBlock
 62
     0
440
 16777216
100
AcDbPoint
 10
2610.34211183302
 20
815.7380132744151
 30
0.0
  0
POINT
  5
7E1E
330
7CE6
100
AcDbEntity
  8
DEFPOINTS
  6
ByBlock
 62
     0
440
 16777216
100
AcDbPoint
 10
2756.500054706622
 20
815.7380132744151
 30
0.0
  0
ENDBLK
  5
7E1F
330
7CE6
100
AcDbEntity
  8
0
100
AcDbBlockEnd
  0
BLOCK
  5
7E20
330
7CF2
100
AcDbEntity
  8
0
100
AcDbBlockBegin
  2
*D2
 70
     1
 10
0.0
 20
0.0
 30
0.0
  3
*D2
  1

  0
LINE
  5
7E21
330
7CF2
100
AcDbEntity
  8
0
  6
ByBlock
440
 16777216
100
AcDbLine
 10
2630.34211183302
 20
815.7380132744151
 30
0.0
 11
2871.886418306532
 21
815.7380132744151
 31
0.0
  0
LINE
  5
7E22
330
7CF2
100
AcDbEntity
  8
0
  6
ByBlock
440
 16777216
100
AcDbLine
 10
2650.832305836897
 20
1353.738013274415
 30
0.0
 11
2871.886418306532
 21
1353.738013274415
 31
0.0
  0
LINE
  5
7E23
330
7CF2
100
AcDbEntity
  8
0
  6
ByBlock
440
 16777216
100
AcDbLine
 10
2851.886418306533
 20
855.7380132744151
 30
0.0
 11
2851.886418306533
 21
1313.738013274415
 31
0.0
  0
INSERT
  5
7E24
330
7CF2
100
AcDbEntity
  8
0
  6
ByBlock
440
 16777216
100
AcDbBlockReference
  2
_OPEN
 10
2851.886418306533
 20
815.7380132744151
 30
0.0
 41
40.0
 42
40.0
 43
40.0
 50
270.0
  0
INSERT
  5
7E25
330
7CF2
100
AcDbEntity
  8
0
  6
ByBlock
440
 16777216
100
AcDbBlockReference
  2
_OPEN
 10
2851.886418306533
 20
1353.738013274415
 30
0.0
 41
40.0
 42
40.0
 43
40.0
 50
90.0
  0
MTEXT
  5
7E26
330
7CF2
100
AcDbEntity
  8
0
  6
ByBlock
440
 16777216
100
AcDbMText
 10
2811.886418306533
 20
1084.738013274415
 30
0.0
 40
60.0
 41
0.0
 46
0.0
 71
     5
 72
     5
  1
\A1;538
 11
0.0
 21
1.0
 31
0.0
 73
     1
 44
1.0
  0
POINT
  5
7E27
330
7CF2
100
AcDbEntity
  8
DEFPOINTS
  6
ByBlock
 62
     0
440
 16777216
100
AcDbPoint
 10
2610.34211183302
 20
815.7380132744151
 30
0.0
  0
POINT
  5
7E28
330
7CF2
100
AcDbEntity
  8
DEFPOINTS
  6
ByBlock
 62
     0
440
 16777216
100
AcDbPoint
 10
2630.832305836897
 20
1353.738013274415
 30
0.0
  0
POINT
  5
7E29
330
7CF2
100
AcDbEntity
  8
DEFPOINTS
  6
ByBlock
 62
     0
440
 16777216
100
AcDbPoint
 10
2851.886418306533
 20
1353.738013274415
 30
0.0
  0
ENDBLK
  5
7E2A
330
7CF2
100
AcDbEntity
  8
0
100
AcDbBlockEnd
  0
BLOCK
  5
7E2B
330
7CFE
100
AcDbEntity
  8
0
100
AcDbBlockBegin
  2
*D3
 70
     1
 10
0.0
 20
0.0
 30
0.0
  3
*D3
  1

  0
LINE
  5
7E2C
330
7CFE
100
AcDbEntity
  8
0
  6
ByBlock
440
 16777216
100
AcDbLine
 10
2610.34211183302
 20
1368.534045950982
 30
0.0
 11
2610.34211183302
 21
1859.997525260064
 31
0.0
  0
LINE
  5
7E2D
330
7CFE
100
AcDbEntity
  8
0
  6
ByBlock
440
 16777216
100
AcDbLine
 10
2250.34211183302
 20
1763.791700863477
 30
0.0
 11
2250.34211183302
 21
1859.997525260064
 31
0.0
  0
LINE
  5
7E2E
330
7CFE
100
AcDbEntity
  8
0
  6
ByBlock
440
 16777216
100
AcDbLine
 10
2570.34211183302
 20
1839.997525260064
 30
0.0
 11
2290.34211183302
 21
1839.997525260064
 31
0.0
  0
INSERT
  5
7E2F
330
7CFE
100
AcDbEntity
  8
0
  6
ByBlock
440
 16777216
100
AcDbBlockReference
  2
_OPEN
 10
2610.34211183302
 20
1839.997525260064
 30
0.0
 41
40.0
 42
40.0
 43
40.0
  0
INSERT
  5
7E30
330
7CFE
100
AcDbEntity
  8
0
  6
ByBlock
440
 16777216
100
AcDbBlockReference
  2
_OPEN
 10
2250.34211183302
 20
1839.997525260064
 30
0.0
 41
40.0
 42
40.0
 43
40.0
 50
180.0
  0
MTEXT
  5
7E31
330
7CFE
100
AcDbEntity
  8
0
  6
ByBlock
440
 16777216
100
AcDbMText
 10
2430.34211183302
 20
1879.997525260064
 30
0.0
 40
60.0
 41
0.0
 46
0.0
 71
     5
 72
     5
  1
\A1;360
 73
     1
 44
1.0
  0
POINT
  5
7E32
330
7CFE
100
AcDbEntity
  8
DEFPOINTS
  6
ByBlock
 62
     0
440
 16777216
100
AcDbPoint
 10
2610.34211183302
 20
1348.534045950982
 30
0.0
  0
POINT
  5
7E33
330
7CFE
100
AcDbEntity
  8
DEFPOINTS
  6
ByBlock
 62
     0
440
 16777216
100
AcDbPoint
 10
2250.34211183302
 20
1743.791700863476
 30
0.0
  0
POINT
  5
7E34
330
7CFE
100
AcDbEntity
  8
DEFPOINTS
  6
ByBlock
 62
     0
440
 16777216
100
AcDbPoint
 10
2250.34211183302
 20
1839.997525260064
 30
0.0
  0
ENDBLK
  5
7E35
330
7CFE
100
AcDbEntity
  8
0
100
AcDbBlockEnd
  0
BLOCK
  5
7E36
330
7D0A
100
AcDbEntity
  8
0
100
AcDbBlockBegin
  2
*D4
 70
     1
 10
0.0
 20
0.0
 30
0.0
  3
*D4
  1

  0
LINE
  5
7E37
330
7D0A
100
AcDbEntity
  8
0
  6
ByBlock
440
 16777216
100
AcDbLine
 10
3534.715630230972
 20
1734.738013274415
 30
0.0
 11
3534.715630230972
 21
1852.030767319659
 31
0.0
  0
LINE
  5
7E38
330
7D0A
100
AcDbEntity
  8
0
  6
ByBlock
440
 16777216
100
AcDbLine
 10
4204.715630230971
 20
1734.738013274415
 30
0.0
 11
4204.715630230971
 21
1852.030767319659
 31
0.0
  0
LINE
  5
7E39
330
7D0A
100
AcDbEntity
  8
0
  6
ByBlock
440
 16777216
100
AcDbLine
 10
3574.715630230971
 20
1832.030767319659
 30
0.0
 11
4164.715630230971
 21
1832.030767319659
 31
0.0
  0
INSERT
  5
7E3A
330
7D0A
100
AcDbEntity
  8
0
  6
ByBlock
440
 16777216
100
AcDbBlockReference
  2
_OPEN
 10
3534.715630230972
 20
1832.030767319659
 30
0.0
 41
40.0
 42
40.0
 43
40.0
 50
180.0
  0
INSERT
  5
7E3B
330
7D0A
100
AcDbEntity
  8
0
  6
ByBlock
440
 16777216
100
AcDbBlockReference
  2
_OPEN
 10
4204.715630230971
 20
1832.030767319659
 30
0.0
 41
40.0
 42
40.0
 43
40.0
  0
MTEXT
  5
7E3C
330
7D0A
100
AcDbEntity
  8
0
  6
ByBlock
440
 16777216
100
AcDbMText
 10
3869.715630230972
 20
1872.030767319659
 30
0.0
 40
60.0
 41
0.0
 46
0.0
 71
     5
 72
     5
  1
\A1;670
 73
     1
 44
1.0
  0
POINT
  5
7E3D
330
7D0A
100
AcDbEntity
  8
DEFPOINTS
  6
ByBlock
 62
     0
440
 16777216
100
AcDbPoint
 10
3534.715630230972
 20
1714.738013274415
 30
0.0
  0
POINT
  5
7E3E
330
7D0A
100
AcDbEntity
  8
DEFPOINTS
  6
ByBlock
 62
     0
440
 16777216
100
AcDbPoint
 10
4204.715630230971
 20
1714.738013274415
 30
0.0
  0
POINT
  5
7E3F
330
7D0A
100
AcDbEntity
  8
DEFPOINTS
  6
ByBlock
 62
     0
440
 16777216
100
AcDbPoint
 10
4204.715630230971
 20
1832.030767319659
 30
0.0
  0
ENDBLK
  5
7E40
330
7D0A
100
AcDbEntity
  8
0
100
AcDbBlockEnd
  0
BLOCK
  5
7E41
330
7D16
100
AcDbEntity
  8
0
100
AcDbBlockBegin
  2
*D5
 70
     1
 10
0.0
 20
0.0
 30
0.0
  3
*D5
  1

  0
LINE
  5
8157
330
7D16
100
AcDbEntity
  8
3
440
 16777216
370
    -2
100
AcDbLine
 10
3433.723950192257
 20
2049.384714232346
 30
0.0
 11
3433.723950192257
 21
2790.78798225641
 31
0.0
  0
LINE
  5
8158
330
7D16
100
AcDbEntity
  8
3
440
 16777216
370
    -2
100
AcDbLine
 10
3003.723950192257
 20
2755.305801544355
 30
0.0
 11
3003.723950192257
 21
2790.78798225641
 31
0.0
  0
LINE
  5
8159
330
7D16
100
AcDbEntity
  8
3
440
 16777216
370
    -2
100
AcDbLine
 10
3393.723950192257
 20
2770.78798225641
 30
0.0
 11
3043.723950192257
 21
2770.78798225641
 31
0.0
  0
INSERT
  5
815A
330
7D16
100
AcDbEntity
  8
3
440
 16777216
370
    -2
100
AcDbBlockReference
  2
_OPEN
 10
3433.723950192257
 20
2770.78798225641
 30
0.0
 41
40.0
 42
40.0
 43
40.0
  0
INSERT
  5
815B
330
7D16
100
AcDbEntity
  8
3
440
 16777216
370
    -2
100
AcDbBlockReference
  2
_OPEN
 10
3003.723950192257
 20
2770.78798225641
 30
0.0
 41
40.0
 42
40.0
 43
40.0
 50
180.0
  0
MTEXT
  5
815C
330
7D16
100
AcDbEntity
  8
3
440
 16777216
100
AcDbMText
 10
3218.723950192257
 20
2826.502267970696
 30
0.0
 40
60.0
 41
0.0
 46
0.0
 71
     5
 72
     1
  1
\A1;(430)
 73
     1
 44
1.0
  0
POINT
  5
815D
330
7D16
100
AcDbEntity
  8
DEFPOINTS
 62
     0
440
 16777216
100
AcDbPoint
 10
3433.723950192257
 20
2029.384714232346
 30
0.0
  0
POINT
  5
815E
330
7D16
100
AcDbEntity
  8
DEFPOINTS
 62
     0
440
 16777216
100
AcDbPoint
 10
3003.723950192257
 20
2735.305801544355
 30
0.0
  0
POINT
  5
815F
330
7D16
100
AcDbEntity
  8
DEFPOINTS
 62
     0
440
 16777216
100
AcDbPoint
 10
3003.723950192257
 20
2770.78798225641
 30
0.0
  0
ENDBLK
  5
7E4B
330
7D16
100
AcDbEntity
  8
0
100
AcDbBlockEnd
  0
BLOCK
  5
7E8E
330
7D6A
100
AcDbEntity
  8
0
100
AcDbBlockBegin
  2
*D6
 70
     1
 10
0.0
 20
0.0
 30
0.0
  3
*D6
  1

  0
LINE
  5
7E8F
330
7D6A
100
AcDbEntity
  8
0
  6
ByBlock
440
 16777216
100
AcDbLine
 10
2650.832305836897
 20
1353.738013274415
 30
0.0
 11
3003.349947318236
 21
1353.738013274415
 31
0.0
  0
LINE
  5
7E90
330
7D6A
100
AcDbEntity
  8
0
  6
ByBlock
440
 16777216
100
AcDbLine
 10
2585.34211183302
 20
713.7380132744151
 30
0.0
 11
3003.349947318236
 21
713.7380132744151
 31
0.0
  0
LINE
  5
7E91
330
7D6A
100
AcDbEntity
  8
0
  6
ByBlock
440
 16777216
100
AcDbLine
 10
2983.349947318237
 20
1313.738013274415
 30
0.0
 11
2983.349947318237
 21
753.7380132744151
 31
0.0
  0
INSERT
  5
7E92
330
7D6A
100
AcDbEntity
  8
0
  6
ByBlock
440
 16777216
100
AcDbBlockReference
  2
_OPEN
 10
2983.349947318237
 20
1353.738013274415
 30
0.0
 41
40.0
 42
40.0
 43
40.0
 50
90.0
  0
INSERT
  5
7E93
330
7D6A
100
AcDbEntity
  8
0
  6
ByBlock
440
 16777216
100
AcDbBlockReference
  2
_OPEN
 10
2983.349947318237
 20
713.7380132744151
 30
0.0
 41
40.0
 42
40.0
 43
40.0
 50
270.0
  0
MTEXT
  5
7E94
330
7D6A
100
AcDbEntity
  8
0
  6
ByBlock
440
 16777216
100
AcDbMText
 10
2943.349947318237
 20
1033.738013274415
 30
0.0
 40
60.0
 41
0.0
 46
0.0
 71
     5
 72
     5
  1
\A1;640
 11
0.0
 21
1.0
 31
0.0
 73
     1
 44
1.0
  0
POINT
  5
7E95
330
7D6A
100
AcDbEntity
  8
DEFPOINTS
  6
ByBlock
 62
     0
440
 16777216
100
AcDbPoint
 10
2630.832305836897
 20
1353.738013274415
 30
0.0
  0
POINT
  5
7E96
330
7D6A
100
AcDbEntity
  8
DEFPOINTS
  6
ByBlock
 62
     0
440
 16777216
100
AcDbPoint
 10
2565.34211183302
 20
713.7380132744151
 30
0.0
  0
POINT
  5
7E97
330
7D6A
100
AcDbEntity
  8
DEFPOINTS
  6
ByBlock
 62
     0
440
 16777216
100
AcDbPoint
 10
2983.349947318237
 20
713.7380132744151
 30
0.0
  0
ENDBLK
  5
7E98
330
7D6A
100
AcDbEntity
  8
0
100
AcDbBlockEnd
  0
BLOCK
  5
7EB3
330
7D92
100
AcDbEntity
  8
0
100
AcDbBlockBegin
  2
*D7
 70
     1
 10
0.0
 20
0.0
 30
0.0
  3
*D7
  1

  0
LINE
  5
7EB4
330
7D92
100
AcDbEntity
  8
0
  6
ByBlock
440
 16777216
100
AcDbLine
 10
2250.34211183302
 20
1763.791700863477
 30
0.0
 11
2250.34211183302
 21
1859.997525260064
 31
0.0
  0
LINE
  5
7EB5
330
7D92
100
AcDbEntity
  8
0
  6
ByBlock
440
 16777216
100
AcDbLine
 10
1813.894121025159
 20
1410.738013274415
 30
0.0
 11
1813.894121025159
 21
1859.997525260064
 31
0.0
  0
LINE
  5
7EB6
330
7D92
100
AcDbEntity
  8
0
  6
ByBlock
440
 16777216
100
AcDbLine
 10
2210.34211183302
 20
1839.997525260064
 30
0.0
 11
1853.894121025159
 21
1839.997525260064
 31
0.0
  0
INSERT
  5
7EB7
330
7D92
100
AcDbEntity
  8
0
  6
ByBlock
440
 16777216
100
AcDbBlockReference
  2
_OPEN
 10
2250.34211183302
 20
1839.997525260064
 30
0.0
 41
40.0
 42
40.0
 43
40.0
  0
INSERT
  5
7EB8
330
7D92
100
AcDbEntity
  8
0
  6
ByBlock
440
 16777216
100
AcDbBlockReference
  2
_OPEN
 10
1813.894121025159
 20
1839.997525260064
 30
0.0
 41
40.0
 42
40.0
 43
40.0
 50
180.0
  0
MTEXT
  5
7EB9
330
7D92
100
AcDbEntity
  8
0
  6
ByBlock
440
 16777216
100
AcDbMText
 10
2032.11811642909
 20
1879.997525260064
 30
0.0
 40
60.0
 41
0.0
 46
0.0
 71
     5
 72
     5
  1
\A1;435
 73
     1
 44
1.0
  0
POINT
  5
7EBA
330
7D92
100
AcDbEntity
  8
DEFPOINTS
  6
ByBlock
 62
     0
440
 16777216
100
AcDbPoint
 10
2250.34211183302
 20
1743.791700863476
 30
0.0
  0
POINT
  5
7EBB
330
7D92
100
AcDbEntity
  8
DEFPOINTS
  6
ByBlock
 62
     0
440
 16777216
100
AcDbPoint
 10
1813.894121025159
 20
1390.738013274415
 30
0.0
  0
POINT
  5
7EBC
330
7D92
100
AcDbEntity
  8
DEFPOINTS
  6
ByBlock
 62
     0
440
 16777216
100
AcDbPoint
 10
1813.894121025159
 20
1839.997525260064
 30
0.0
  0
ENDBLK
  5
7EBD
330
7D92
100
AcDbEntity
  8
0
100
AcDbBlockEnd
  0
BLOCK
  5
8006
330
7D9E
100
AcDbEntity
  8
0
100
AcDbBlockBegin
  2
*D8
 70
     1
 10
0.0
 20
0.0
 30
0.0
  3
*D8
  1

  0
LINE
  5
8160
330
7D9E
100
AcDbEntity
  8
3
440
 16777216
370
    -2
100
AcDbLine
 10
3003.723950192257
 20
2755.305801544355
 30
0.0
 11
3003.723950192257
 21
2790.78798225641
 31
0.0
  0
LINE
  5
8161
330
7D9E
100
AcDbEntity
  8
3
440
 16777216
370
    -2
100
AcDbLine
 10
2343.723950192256
 20
2325.884714232345
 30
0.0
 11
2343.723950192256
 21
2790.78798225641
 31
0.0
  0
LINE
  5
8162
330
7D9E
100
AcDbEntity
  8
3
440
 16777216
370
    -2
100
AcDbLine
 10
2963.723950192257
 20
2770.78798225641
 30
0.0
 11
2383.723950192257
 21
2770.78798225641
 31
0.0
  0
INSERT
  5
8163
330
7D9E
100
AcDbEntity
  8
3
440
 16777216
370
    -2
100
AcDbBlockReference
  2
_OPEN
 10
3003.723950192257
 20
2770.78798225641
 30
0.0
 41
40.0
 42
40.0
 43
40.0
  0
INSERT
  5
8164
330
7D9E
100
AcDbEntity
  8
3
440
 16777216
370
    -2
100
AcDbBlockReference
  2
_OPEN
 10
2343.723950192256
 20
2770.78798225641
 30
0.0
 41
40.0
 42
40.0
 43
40.0
 50
180.0
  0
MTEXT
  5
8165
330
7D9E
100
AcDbEntity
  8
3
440
 16777216
100
AcDbMText
 10
2673.723950192257
 20
2826.502267970696
 30
0.0
 40
60.0
 41
0.0
 46
0.0
 71
     5
 72
     1
  1
\A1;(660)
 73
     1
 44
1.0
  0
POINT
  5
8166
330
7D9E
100
AcDbEntity
  8
DEFPOINTS
 62
     0
440
 16777216
100
AcDbPoint
 10
3003.723950192257
 20
2735.305801544355
 30
0.0
  0
POINT
  5
8167
330
7D9E
100
AcDbEntity
  8
DEFPOINTS
 62
     0
440
 16777216
100
AcDbPoint
 10
2343.723950192256
 20
2305.884714232345
 30
0.0
  0
POINT
  5
8168
330
7D9E
100
AcDbEntity
  8
DEFPOINTS
 62
     0
440
 16777216
100
AcDbPoint
 10
2343.723950192256
 20
2770.78798225641
 30
0.0
  0
ENDBLK
  5
8010
330
7D9E
100
AcDbEntity
  8
0
100
AcDbBlockEnd
  0
BLOCK
  5
7EC9
330
7DAA
100
AcDbEntity
  8
0
100
AcDbBlockBegin
  2
*D9
 70
     1
 10
0.0
 20
0.0
 30
0.0
  3
*D9
  1

  0
LINE
  5
7ECA
330
7DAA
100
AcDbEntity
  8
0
  6
ByBlock
440
 16777216
100
AcDbLine
 10
2585.342111833019
 20
3495.293972495947
 30
0.0
 11
2811.7950520876
 21
3495.293972495947
 31
0.0
  0
LINE
  5
7ECB
330
7DAA
100
AcDbEntity
  8
0
  6
ByBlock
440
 16777216
100
AcDbLine
 10
2585.342111833019
 20
2655.293972495946
 30
0.0
 11
2811.7950520876
 21
2655.293972495946
 31
0.0
  0
LINE
  5
7ECC
330
7DAA
100
AcDbEntity
  8
0
  6
ByBlock
440
 16777216
100
AcDbLine
 10
2791.7950520876
 20
3455.293972495946
 30
0.0
 11
2791.7950520876
 21
2695.293972495946
 31
0.0
  0
INSERT
  5
7ECD
330
7DAA
100
AcDbEntity
  8
0
  6
ByBlock
440
 16777216
100
AcDbBlockReference
  2
_OPEN
 10
2791.7950520876
 20
3495.293972495947
 30
0.0
 41
40.0
 42
40.0
 43
40.0
 50
90.0
  0
INSERT
  5
7ECE
330
7DAA
100
AcDbEntity
  8
0
  6
ByBlock
440
 16777216
100
AcDbBlockReference
  2
_OPEN
 10
2791.7950520876
 20
2655.293972495946
 30
0.0
 41
40.0
 42
40.0
 43
40.0
 50
270.0
  0
MTEXT
  5
7ECF
330
7DAA
100
AcDbEntity
  8
0
  6
ByBlock
440
 16777216
100
AcDbMText
 10
2751.7950520876
 20
3075.293972495946
 30
0.0
 40
60.0
 41
0.0
 46
0.0
 71
     5
 72
     5
  1
\A1;840
 11
0.0
 21
1.0
 31
0.0
 73
     1
 44
1.0
  0
POINT
  5
7ED0
330
7DAA
100
AcDbEntity
  8
DEFPOINTS
  6
ByBlock
 62
     0
440
 16777216
100
AcDbPoint
 10
2565.342111833019
 20
3495.293972495947
 30
0.0
  0
POINT
  5
7ED1
330
7DAA
100
AcDbEntity
  8
DEFPOINTS
  6
ByBlock
 62
     0
440
 16777216
100
AcDbPoint
 10
2565.342111833019
 20
2655.293972495946
 30
0.0
  0
POINT
  5
7ED2
330
7DAA
100
AcDbEntity
  8
DEFPOINTS
  6
ByBlock
 62
     0
440
 16777216
100
AcDbPoint
 10
2791.7950520876
 20
2655.293972495946
 30
0.0
  0
ENDBLK
  5
7ED3
330
7DAA
100
AcDbEntity
  8
0
100
AcDbBlockEnd
  0
BLOCK
  5
7ED4
330
7DB6
100
AcDbEntity
  8
0
100
AcDbBlockBegin
  2
*D10
 70
     1
 10
0.0
 20
0.0
 30
0.0
  3
*D10
  1

  0
LINE
  5
7ED5
330
7DB6
100
AcDbEntity
  8
0
  6
ByBlock
440
 16777216
100
AcDbLine
 10
1405.342111833019
 20
3255.293972495945
 30
0.0
 11
1219.741478675445
 21
3255.293972495945
 31
0.0
  0
LINE
  5
7ED6
330
7DB6
100
AcDbEntity
  8
0
  6
ByBlock
440
 16777216
100
AcDbLine
 10
1405.342111833019
 20
2655.293972495945
 30
0.0
 11
1219.741478675445
 21
2655.293972495945
 31
0.0
  0
LINE
  5
7ED7
330
7DB6
100
AcDbEntity
  8
0
  6
ByBlock
440
 16777216
100
AcDbLine
 10
1239.741478675445
 20
3215.293972495945
 30
0.0
 11
1239.741478675445
 21
2695.293972495945
 31
0.0
  0
INSERT
  5
7ED8
330
7DB6
100
AcDbEntity
  8
0
  6
ByBlock
440
 16777216
100
AcDbBlockReference
  2
_OPEN
 10
1239.741478675445
 20
3255.293972495945
 30
0.0
 41
40.0
 42
40.0
 43
40.0
 50
90.0
  0
INSERT
  5
7ED9
330
7DB6
100
AcDbEntity
  8
0
  6
ByBlock
440
 16777216
100
AcDbBlockReference
  2
_OPEN
 10
1239.741478675445
 20
2655.293972495945
 30
0.0
 41
40.0
 42
40.0
 43
40.0
 50
270.0
  0
MTEXT
  5
7EDA
330
7DB6
100
AcDbEntity
  8
0
  6
ByBlock
440
 16777216
100
AcDbMText
 10
1199.741478675445
 20
2955.293972495945
 30
0.0
 40
60.0
 41
0.0
 46
0.0
 71
     5
 72
     5
  1
\A1;600
 11
0.0
 21
1.0
 31
0.0
 73
     1
 44
1.0
  0
POINT
  5
7EDB
330
7DB6
100
AcDbEntity
  8
DEFPOINTS
  6
ByBlock
 62
     0
440
 16777216
100
AcDbPoint
 10
1425.342111833019
 20
3255.293972495945
 30
0.0
  0
POINT
  5
7EDC
330
7DB6
100
AcDbEntity
  8
DEFPOINTS
  6
ByBlock
 62
     0
440
 16777216
100
AcDbPoint
 10
1425.342111833019
 20
2655.293972495945
 30
0.0
  0
POINT
  5
7EDD
330
7DB6
100
AcDbEntity
  8
DEFPOINTS
  6
ByBlock
 62
     0
440
 16777216
100
AcDbPoint
 10
1239.741478675445
 20
2655.293972495945
 30
0.0
  0
ENDBLK
  5
7EDE
330
7DB6
100
AcDbEntity
  8
0
100
AcDbBlockEnd
  0
BLOCK
  5
7EDF
330
7DC2
100
AcDbEntity
  8
0
100
AcDbBlockBegin
  2
*D11
 70
     1
 10
0.0
 20
0.0
 30
0.0
  3
*D11
  1

  0
LINE
  5
7EE0
330
7DC2
100
AcDbEntity
  8
0
  6
ByBlock
440
 16777216
100
AcDbLine
 10
1425.342111833019
 20
2635.293972495945
 30
0.0
 11
1425.342111833019
 21
2357.800794208676
 31
0.0
  0
LINE
  5
7EE1
330
7DC2
100
AcDbEntity
  8
0
  6
ByBlock
440
 16777216
100
AcDbLine
 10
2565.342111833019
 20
2635.293972495946
 30
0.0
 11
2565.342111833019
 21
2357.800794208676
 31
0.0
  0
LINE
  5
7EE2
330
7DC2
100
AcDbEntity
  8
0
  6
ByBlock
440
 16777216
100
AcDbLine
 10
1465.342111833019
 20
2377.800794208676
 30
0.0
 11
2525.342111833019
 21
2377.800794208676
 31
0.0
  0
INSERT
  5
7EE3
330
7DC2
100
AcDbEntity
  8
0
  6
ByBlock
440
 16777216
100
AcDbBlockReference
  2
_OPEN
 10
1425.342111833019
 20
2377.800794208676
 30
0.0
 41
40.0
 42
40.0
 43
40.0
 50
180.0
  0
INSERT
  5
7EE4
330
7DC2
100
AcDbEntity
  8
0
  6
ByBlock
440
 16777216
100
AcDbBlockReference
  2
_OPEN
 10
2565.342111833019
 20
2377.800794208676
 30
0.0
 41
40.0
 42
40.0
 43
40.0
  0
MTEXT
  5
7EE5
330
7DC2
100
AcDbEntity
  8
0
  6
ByBlock
440
 16777216
100
AcDbMText
 10
1995.342111833019
 20
2417.800794208676
 30
0.0
 40
60.0
 41
0.0
 46
0.0
 71
     5
 72
     5
  1
\A1;1140
 73
     1
 44
1.0
  0
POINT
  5
7EE6
330
7DC2
100
AcDbEntity
  8
DEFPOINTS
  6
ByBlock
 62
     0
440
 16777216
100
AcDbPoint
 10
1425.342111833019
 20
2655.293972495945
 30
0.0
  0
POINT
  5
7EE7
330
7DC2
100
AcDbEntity
  8
DEFPOINTS
  6
ByBlock
 62
     0
440
 16777216
100
AcDbPoint
 10
2565.342111833019
 20
2655.293972495946
 30
0.0
  0
POINT
  5
7EE8
330
7DC2
100
AcDbEntity
  8
DEFPOINTS
  6
ByBlock
 62
     0
440
 16777216
100
AcDbPoint
 10
2565.342111833019
 20
2377.800794208676
 30
0.0
  0
ENDBLK
  5
7EE9
330
7DC2
100
AcDbEntity
  8
0
100
AcDbBlockEnd
  0
BLOCK
  5
7EEA
330
7DCE
100
AcDbEntity
  8
0
100
AcDbBlockBegin
  2
*D12
 70
     1
 10
0.0
 20
0.0
 30
0.0
  3
*D12
  1

  0
LINE
  5
7EEB
330
7DCE
100
AcDbEntity
  8
0
  6
ByBlock
440
 16777216
100
AcDbLine
 10
4224.715630230971
 20
1603.738013274415
 30
0.0
 11
4440.574767322805
 21
1603.738013274415
 31
0.0
  0
LINE
  5
7EEC
330
7DCE
100
AcDbEntity
  8
0
  6
ByBlock
440
 16777216
100
AcDbLine
 10
4224.71563023097
 20
1103.738013274415
 30
0.0
 11
4440.574767322805
 21
1103.738013274415
 31
0.0
  0
LINE
  5
7EED
330
7DCE
100
AcDbEntity
  8
0
  6
ByBlock
440
 16777216
100
AcDbLine
 10
4420.574767322805
 20
1563.738013274415
 30
0.0
 11
4420.574767322805
 21
1143.738013274415
 31
0.0
  0
INSERT
  5
7EEE
330
7DCE
100
AcDbEntity
  8
0
  6
ByBlock
440
 16777216
100
AcDbBlockReference
  2
_OPEN
 10
4420.574767322805
 20
1603.738013274415
 30
0.0
 41
40.0
 42
40.0
 43
40.0
 50
90.0
  0
INSERT
  5
7EEF
330
7DCE
100
AcDbEntity
  8
0
  6
ByBlock
440
 16777216
100
AcDbBlockReference
  2
_OPEN
 10
4420.574767322805
 20
1103.738013274415
 30
0.0
 41
40.0
 42
40.0
 43
40.0
 50
270.0
  0
MTEXT
  5
7EF0
330
7DCE
100
AcDbEntity
  8
0
  6
ByBlock
440
 16777216
100
AcDbMText
 10
4380.574767322805
 20
1353.738013274415
 30
0.0
 40
60.0
 41
0.0
 46
0.0
 71
     5
 72
     5
  1
\A1;φ500
 11
0.0
 21
1.0
 31
0.0
 73
     1
 44
1.0
  0
POINT
  5
7EF1
330
7DCE
100
AcDbEntity
  8
DEFPOINTS
  6
ByBlock
 62
     0
440
 16777216
100
AcDbPoint
 10
4204.715630230971
 20
1603.738013274415
 30
0.0
  0
POINT
  5
7EF2
330
7DCE
100
AcDbEntity
  8
DEFPOINTS
  6
ByBlock
 62
     0
440
 16777216
100
AcDbPoint
 10
4204.71563023097
 20
1103.738013274415
 30
0.0
  0
POINT
  5
7EF3
330
7DCE
100
AcDbEntity
  8
DEFPOINTS
  6
ByBlock
 62
     0
440
 16777216
100
AcDbPoint
 10
4420.574767322805
 20
1103.738013274415
 30
0.0
  0
ENDBLK
  5
7EF4
330
7DCE
100
AcDbEntity
  8
0
100
AcDbBlockEnd
  0
BLOCK
  5
7EF5
330
7DDA
100
AcDbEntity
  8
0
100
AcDbBlockBegin
  2
*D13
 70
     1
 10
0.0
 20
0.0
 30
0.0
  3
*D13
  1

  0
LINE
  5
7EF6
330
7DDA
100
AcDbEntity
  8
0
  6
ByBlock
440
 16777216
100
AcDbLine
 10
2565.342111833019
 20
3515.293972495946
 30
0.0
 11
2565.342111833019
 21
3656.010197370611
 31
0.0
  0
LINE
  5
7EF7
330
7DDA
100
AcDbEntity
  8
0
  6
ByBlock
440
 16777216
100
AcDbLine
 10
1935.342111833018
 20
3515.293972495946
 30
0.0
 11
1935.342111833018
 21
3656.010197370611
 31
0.0
  0
LINE
  5
7EF8
330
7DDA
100
AcDbEntity
  8
0
  6
ByBlock
440
 16777216
100
AcDbLine
 10
2525.342111833019
 20
3636.010197370611
 30
0.0
 11
1975.342111833018
 21
3636.010197370611
 31
0.0
  0
INSERT
  5
7EF9
330
7DDA
100
AcDbEntity
  8
0
  6
ByBlock
440
 16777216
100
AcDbBlockReference
  2
_OPEN
 10
2565.342111833019
 20
3636.010197370611
 30
0.0
 41
40.0
 42
40.0
 43
40.0
  0
INSERT
  5
7EFA
330
7DDA
100
AcDbEntity
  8
0
  6
ByBlock
440
 16777216
100
AcDbBlockReference
  2
_OPEN
 10
1935.342111833018
 20
3636.010197370611
 30
0.0
 41
40.0
 42
40.0
 43
40.0
 50
180.0
  0
MTEXT
  5
7EFB
330
7DDA
100
AcDbEntity
  8
0
  6
ByBlock
440
 16777216
100
AcDbMText
 10
2250.342111833019
 20
3676.010197370611
 30
0.0
 40
60.0
 41
0.0
 46
0.0
 71
     5
 72
     5
  1
\A1;630
 73
     1
 44
1.0
  0
POINT
  5
7EFC
330
7DDA
100
AcDbEntity
  8
DEFPOINTS
  6
ByBlock
 62
     0
440
 16777216
100
AcDbPoint
 10
2565.342111833019
 20
3495.293972495947
 30
0.0
  0
POINT
  5
7EFD
330
7DDA
100
AcDbEntity
  8
DEFPOINTS
  6
ByBlock
 62
     0
440
 16777216
100
AcDbPoint
 10
1935.342111833018
 20
3495.293972495947
 30
0.0
  0
POINT
  5
7EFE
330
7DDA
100
AcDbEntity
  8
DEFPOINTS
  6
ByBlock
 62
     0
440
 16777216
100
AcDbPoint
 10
1935.342111833018
 20
3636.010197370611
 30
0.0
  0
ENDBLK
  5
7EFF
330
7DDA
100
AcDbEntity
  8
0
100
AcDbBlockEnd
  0
BLOCK
  5
7F00
330
7DE6
100
AcDbEntity
  8
0
100
AcDbBlockBegin
  2
*D14
 70
     1
 10
0.0
 20
0.0
 30
0.0
  3
*D14
  1

  0
LINE
  5
7F01
330
7DE6
100
AcDbEntity
  8
0
  6
ByBlock
440
 16777216
100
AcDbLine
 10
1935.342111833018
 20
3515.293972495946
 30
0.0
 11
1935.342111833018
 21
3656.010197370611
 31
0.0
  0
LINE
  5
7F02
330
7DE6
100
AcDbEntity
  8
0
  6
ByBlock
440
 16777216
100
AcDbLine
 10
1425.342111833019
 20
3275.293972495946
 30
0.0
 11
1425.342111833019
 21
3656.010197370611
 31
0.0
  0
LINE
  5
7F03
330
7DE6
100
AcDbEntity
  8
0
  6
ByBlock
440
 16777216
100
AcDbLine
 10
1895.342111833018
 20
3636.010197370611
 30
0.0
 11
1465.342111833019
 21
3636.010197370611
 31
0.0
  0
INSERT
  5
7F04
330
7DE6
100
AcDbEntity
  8
0
  6
ByBlock
440
 16777216
100
AcDbBlockReference
  2
_OPEN
 10
1935.342111833018
 20
3636.010197370611
 30
0.0
 41
40.0
 42
40.0
 43
40.0
  0
INSERT
  5
7F05
330
7DE6
100
AcDbEntity
  8
0
  6
ByBlock
440
 16777216
100
AcDbBlockReference
  2
_OPEN
 10
1425.342111833019
 20
3636.010197370611
 30
0.0
 41
40.0
 42
40.0
 43
40.0
 50
180.0
  0
MTEXT
  5
7F06
330
7DE6
100
AcDbEntity
  8
0
  6
ByBlock
440
 16777216
100
AcDbMText
 10
1680.342111833019
 20
3676.010197370611
 30
0.0
 40
60.0
 41
0.0
 46
0.0
 71
     5
 72
     5
  1
\A1;510
 73
     1
 44
1.0
  0
POINT
  5
7F07
330
7DE6
100
AcDbEntity
  8
DEFPOINTS
  6
ByBlock
 62
     0
440
 16777216
100
AcDbPoint
 10
1935.342111833018
 20
3495.293972495947
 30
0.0
  0
POINT
  5
7F08
330
7DE6
100
AcDbEntity
  8
DEFPOINTS
  6
ByBlock
 62
     0
440
 16777216
100
AcDbPoint
 10
1425.342111833019
 20
3255.293972495945
 30
0.0
  0
POINT
  5
7F09
330
7DE6
100
AcDbEntity
  8
DEFPOINTS
  6
ByBlock
 62
     0
440
 16777216
100
AcDbPoint
 10
1425.342111833019
 20
3636.010197370611
 30
0.0
  0
ENDBLK
  5
7F0A
330
7DE6
100
AcDbEntity
  8
0
100
AcDbBlockEnd
  0
BLOCK
  5
7F0B
330
7DF2
100
AcDbEntity
  8
0
100
AcDbBlockBegin
  2
*D15
 70
     1
 10
0.0
 20
0.0
 30
0.0
  3
*D15
  1

  0
LINE
  5
7F0C
330
7DF2
100
AcDbEntity
  8
0
  6
ByBlock
440
 16777216
100
AcDbLine
 10
2610.34211183302
 20
1368.534045950982
 30
0.0
 11
2610.34211183302
 21
1966.6922485577
 31
0.0
  0
LINE
  5
7F0D
330
7DF2
100
AcDbEntity
  8
0
  6
ByBlock
440
 16777216
100
AcDbLine
 10
1425.34211183302
 20
808.7380132744151
 30
0.0
 11
1425.34211183302
 21
1966.6922485577
 31
0.0
  0
LINE
  5
7F0E
330
7DF2
100
AcDbEntity
  8
0
  6
ByBlock
440
 16777216
100
AcDbLine
 10
2570.34211183302
 20
1946.692248557699
 30
0.0
 11
1465.34211183302
 21
1946.692248557699
 31
0.0
  0
INSERT
  5
7F0F
330
7DF2
100
AcDbEntity
  8
0
  6
ByBlock
440
 16777216
100
AcDbBlockReference
  2
_OPEN
 10
2610.34211183302
 20
1946.692248557699
 30
0.0
 41
40.0
 42
40.0
 43
40.0
  0
INSERT
  5
7F10
330
7DF2
100
AcDbEntity
  8
0
  6
ByBlock
440
 16777216
100
AcDbBlockReference
  2
_OPEN
 10
1425.34211183302
 20
1946.692248557699
 30
0.0
 41
40.0
 42
40.0
 43
40.0
 50
180.0
  0
MTEXT
  5
7F11
330
7DF2
100
AcDbEntity
  8
0
  6
ByBlock
440
 16777216
100
AcDbMText
 10
2017.84211183302
 20
1986.692248557699
 30
0.0
 40
60.0
 41
0.0
 46
0.0
 71
     5
 72
     5
  1
\A1;1185
 73
     1
 44
1.0
  0
POINT
  5
7F12
330
7DF2
100
AcDbEntity
  8
DEFPOINTS
  6
ByBlock
 62
     0
440
 16777216
100
AcDbPoint
 10
2610.34211183302
 20
1348.534045950982
 30
0.0
  0
POINT
  5
7F13
330
7DF2
100
AcDbEntity
  8
DEFPOINTS
  6
ByBlock
 62
     0
440
 16777216
100
AcDbPoint
 10
1425.34211183302
 20
788.7380132744151
 30
0.0
  0
POINT
  5
7F14
330
7DF2
100
AcDbEntity
  8
DEFPOINTS
  6
ByBlock
 62
     0
440
 16777216
100
AcDbPoint
 10
1425.34211183302
 20
1946.692248557699
 30
0.0
  0
ENDBLK
  5
7F15
330
7DF2
100
AcDbEntity
  8
0
100
AcDbBlockEnd
  0
BLOCK
  5
7FEA
330
7F7C
100
AcDbEntity
  8
0
100
AcDbBlockBegin
  2
*D16
 70
     1
 10
0.0
 20
0.0
 30
0.0
  3
*D16
  1

  0
LINE
  5
80C0
330
7F7C
100
AcDbEntity
  8
3
 62
     0
440
 16777216
100
AcDbLine
 10
1709.350431794305
 20
1478.884714232346
 30
0.0
 11
2137.358267279522
 21
1478.884714232346
 31
0.0
  0
LINE
  5
80C1
330
7F7C
100
AcDbEntity
  8
3
 62
     0
440
 16777216
100
AcDbLine
 10
1709.350431794304
 20
1403.884714232345
 30
0.0
 11
2137.358267279522
 21
1403.884714232345
 31
0.0
  0
LINE
  5
80C2
330
7F7C
100
AcDbEntity
  8
3
 62
     0
440
 16777216
100
AcDbLine
 10
2117.358267279522
 20
1518.884714232346
 30
0.0
 11
2117.358267279522
 21
1558.884714232346
 31
0.0
  0
LINE
  5
80C3
330
7F7C
100
AcDbEntity
  8
3
 62
     0
440
 16777216
100
AcDbLine
 10
2117.358267279522
 20
1363.884714232345
 30
0.0
 11
2117.358267279522
 21
1186.741857089488
 31
0.0
  0
LINE
  5
80C4
330
7F7C
100
AcDbEntity
  8
3
 62
     0
440
 16777216
100
AcDbLine
 10
2117.358267279522
 20
1478.884714232346
 30
0.0
 11
2117.358267279522
 21
1403.884714232345
 31
0.0
  0
INSERT
  5
80C5
330
7F7C
100
AcDbEntity
  8
3
 62
     0
440
 16777216
100
AcDbBlockReference
  2
_DOT
 10
2117.358267279522
 20
1478.884714232346
 30
0.0
 41
40.0
 42
40.0
 43
40.0
 50
270.0
  0
INSERT
  5
80C6
330
7F7C
100
AcDbEntity
  8
3
 62
     0
440
 16777216
100
AcDbBlockReference
  2
_OPEN
 10
2117.358267279522
 20
1403.884714232345
 30
0.0
 41
40.0
 42
40.0
 43
40.0
 50
90.0
  0
MTEXT
  5
80C7
330
7F7C
100
AcDbEntity
  8
3
 62
     0
440
 16777216
100
AcDbMText
 10
2067.358267279522
 20
1255.313285660917
 30
0.0
 40
60.0
 41
0.0
 46
0.0
 71
     5
 72
     5
  1
\A1;75
 11
0.0000000000000001
 21
1.0
 31
0.0
 73
     1
 44
1.0
  0
POINT
  5
80C8
330
7F7C
100
AcDbEntity
  8
DEFPOINTS
 62
     0
440
 16777216
100
AcDbPoint
 10
1699.350431794305
 20
1478.884714232346
 30
0.0
  0
POINT
  5
80C9
330
7F7C
100
AcDbEntity
  8
DEFPOINTS
 62
     0
440
 16777216
100
AcDbPoint
 10
1699.350431794304
 20
1403.884714232345
 30
0.0
  0
POINT
  5
80CA
330
7F7C
100
AcDbEntity
  8
DEFPOINTS
 62
     0
440
 16777216
100
AcDbPoint
 10
2117.358267279522
 20
1403.884714232345
 30
0.0
  0
ENDBLK
  5
7FF6
330
7F7C
100
AcDbEntity
  8
0
100
AcDbBlockEnd
  0
BLOCK
  5
7FB4
330
7FB3
100
AcDbEntity
  8
0
100
AcDbBlockBegin
  2
_DOT
 70
     0
 10
0.0
 20
0.0
 30
0.0
  3
_DOT
  1

  0
LWPOLYLINE
  5
7FBD
330
7FB3
100
AcDbEntity
  8
0
  6
ByBlock
 62
     0
100
AcDbPolyline
 90
        2
 70
     1
 43
0.25
 10
-0.125
 20
0.0
 42
1.0
 10
0.125
 20
0.0
 42
1.0
  0
LINE
  5
7FC1
330
7FB3
100
AcDbEntity
  8
0
  6
ByBlock
 62
     0
100
AcDbLine
 10
-0.25
 20
0.0
 30
0.0
 11
-1.0
 21
0.0
 31
0.0
  0
ENDBLK
  5
7FBA
330
7FB3
100
AcDbEntity
  8
0
100
AcDbBlockEnd
  0
BLOCK
  5
801F
330
801E
100
AcDbEntity
  8
0
100
AcDbBlockBegin
  2
*D18
 70
     1
 10
0.0
 20
0.0
 30
0.0
  3
*D18
  1

  0
LINE
  5
8020
330
801E
100
AcDbEntity
  8
0
  6
ByBlock
 62
     0
440
 16777216
100
AcDbLine
 10
559.3504317943052
 20
1393.884714232345
 30
0.0
 11
559.3504317943052
 21
1249.932156191136
 31
0.0
  0
LINE
  5
8021
330
801E
100
AcDbEntity
  8
0
  6
ByBlock
 62
     0
440
 16777216
100
AcDbLine
 10
1384.350431794305
 20
1393.884714232345
 30
0.0
 11
1384.350431794305
 21
1249.932156191136
 31
0.0
  0
LINE
  5
8022
330
801E
100
AcDbEntity
  8
0
  6
ByBlock
 62
     0
440
 16777216
100
AcDbLine
 10
599.3504317943052
 20
1269.932156191136
 30
0.0
 11
1344.350431794305
 21
1269.932156191136
 31
0.0
  0
INSERT
  5
8023
330
801E
100
AcDbEntity
  8
0
  6
ByBlock
 62
     0
440
 16777216
100
AcDbBlockReference
  2
_OPEN
 10
559.3504317943052
 20
1269.932156191136
 30
0.0
 41
40.0
 42
40.0
 43
40.0
 50
180.0
  0
INSERT
  5
8024
330
801E
100
AcDbEntity
  8
0
  6
ByBlock
 62
     0
440
 16777216
100
AcDbBlockReference
  2
_OPEN
 10
1384.350431794305
 20
1269.932156191136
 30
0.0
 41
40.0
 42
40.0
 43
40.0
  0
MTEXT
  5
8025
330
801E
100
AcDbEntity
  8
0
  6
ByBlock
 62
     0
440
 16777216
100
AcDbMText
 10
971.8504317943054
 20
1319.932156191136
 30
0.0
 40
60.0
 41
0.0
 46
0.0
 71
     5
 72
     5
  1
\A1;825
 73
     1
 44
1.0
  0
POINT
  5
8026
330
801E
100
AcDbEntity
  8
DEFPOINTS
  6
ByBlock
 62
     0
440
 16777216
100
AcDbPoint
 10
559.3504317943052
 20
1403.884714232345
 30
0.0
  0
POINT
  5
8027
330
801E
100
AcDbEntity
  8
DEFPOINTS
  6
ByBlock
 62
     0
440
 16777216
100
AcDbPoint
 10
1384.350431794305
 20
1403.884714232345
 30
0.0
  0
POINT
  5
8028
330
801E
100
AcDbEntity
  8
DEFPOINTS
  6
ByBlock
 62
     0
440
 16777216
100
AcDbPoint
 10
1384.350431794305
 20
1269.932156191136
 30
0.0
  0
ENDBLK
  5
8029
330
801E
100
AcDbEntity
  8
0
100
AcDbBlockEnd
  0
BLOCK
  5
802C
330
802B
100
AcDbEntity
  8
0
100
AcDbBlockBegin
  2
*D19
 70
     1
 10
0.0
 20
0.0
 30
0.0
  3
*D19
  1

  0
LINE
  5
802D
330
802B
100
AcDbEntity
  8
0
  6
ByBlock
 62
     0
440
 16777216
100
AcDbLine
 10
1384.350431794305
 20
1393.884714232345
 30
0.0
 11
1384.350431794305
 21
1249.932156191136
 31
0.0
  0
LINE
  5
802E
330
802B
100
AcDbEntity
  8
0
  6
ByBlock
 62
     0
440
 16777216
100
AcDbLine
 10
1699.350431794304
 20
1393.884714232345
 30
0.0
 11
1699.350431794304
 21
1249.932156191136
 31
0.0
  0
LINE
  5
802F
330
802B
100
AcDbEntity
  8
0
  6
ByBlock
 62
     0
440
 16777216
100
AcDbLine
 10
1424.350431794305
 20
1269.932156191136
 30
0.0
 11
1659.350431794304
 21
1269.932156191136
 31
0.0
  0
INSERT
  5
8030
330
802B
100
AcDbEntity
  8
0
  6
ByBlock
 62
     0
440
 16777216
100
AcDbBlockReference
  2
_OPEN
 10
1384.350431794305
 20
1269.932156191136
 30
0.0
 41
40.0
 42
40.0
 43
40.0
 50
180.0
  0
INSERT
  5
8031
330
802B
100
AcDbEntity
  8
0
  6
ByBlock
 62
     0
440
 16777216
100
AcDbBlockReference
  2
_OPEN
 10
1699.350431794304
 20
1269.932156191136
 30
0.0
 41
40.0
 42
40.0
 43
40.0
  0
MTEXT
  5
8032
330
802B
100
AcDbEntity
  8
0
  6
ByBlock
 62
     0
440
 16777216
100
AcDbMText
 10
1541.850431794305
 20
1319.932156191136
 30
0.0
 40
60.0
 41
0.0
 46
0.0
 71
     5
 72
     5
  1
\A1;315
 73
     1
 44
1.0
  0
POINT
  5
8033
330
802B
100
AcDbEntity
  8
DEFPOINTS
  6
ByBlock
 62
     0
440
 16777216
100
AcDbPoint
 10
1384.350431794305
 20
1403.884714232345
 30
0.0
  0
POINT
  5
8034
330
802B
100
AcDbEntity
  8
DEFPOINTS
  6
ByBlock
 62
     0
440
 16777216
100
AcDbPoint
 10
1699.350431794304
 20
1403.884714232345
 30
0.0
  0
POINT
  5
8035
330
802B
100
AcDbEntity
  8
DEFPOINTS
  6
ByBlock
 62
     0
440
 16777216
100
AcDbPoint
 10
1699.350431794304
 20
1269.932156191136
 30
0.0
  0
ENDBLK
  5
8036
330
802B
100
AcDbEntity
  8
0
100
AcDbBlockEnd
  0
BLOCK
  5
8039
330
8038
100
AcDbEntity
  8
0
100
AcDbBlockBegin
  2
*D20
 70
     1
 10
0.0
 20
0.0
 30
0.0
  3
*D20
  1

  0
LINE
  5
803A
330
8038
100
AcDbEntity
  8
0
  6
ByBlock
 62
     0
440
 16777216
100
AcDbLine
 10
2541.723950192257
 20
1393.884714232346
 30
0.0
 11
2541.723950192257
 21
1249.932156191136
 31
0.0
  0
LINE
  5
803B
330
8038
100
AcDbEntity
  8
0
  6
ByBlock
 62
     0
440
 16777216
100
AcDbLine
 10
3003.723950192256
 20
1393.884714232346
 30
0.0
 11
3003.723950192256
 21
1249.932156191136
 31
0.0
  0
LINE
  5
803C
330
8038
100
AcDbEntity
  8
0
  6
ByBlock
 62
     0
440
 16777216
100
AcDbLine
 10
2581.723950192257
 20
1269.932156191136
 30
0.0
 11
2963.723950192257
 21
1269.932156191136
 31
0.0
  0
INSERT
  5
803D
330
8038
100
AcDbEntity
  8
0
  6
ByBlock
 62
     0
440
 16777216
100
AcDbBlockReference
  2
_OPEN
 10
2541.723950192257
 20
1269.932156191136
 30
0.0
 41
40.0
 42
40.0
 43
40.0
 50
180.0
  0
INSERT
  5
803E
330
8038
100
AcDbEntity
  8
0
  6
ByBlock
 62
     0
440
 16777216
100
AcDbBlockReference
  2
_OPEN
 10
3003.723950192256
 20
1269.932156191136
 30
0.0
 41
40.0
 42
40.0
 43
40.0
  0
MTEXT
  5
803F
330
8038
100
AcDbEntity
  8
0
  6
ByBlock
 62
     0
440
 16777216
100
AcDbMText
 10
2772.723950192256
 20
1319.932156191136
 30
0.0
 40
60.0
 41
0.0
 46
0.0
 71
     5
 72
     5
  1
\A1;462
 73
     1
 44
1.0
  0
POINT
  5
8040
330
8038
100
AcDbEntity
  8
DEFPOINTS
  6
ByBlock
 62
     0
440
 16777216
100
AcDbPoint
 10
2541.723950192257
 20
1403.884714232346
 30
0.0
  0
POINT
  5
8041
330
8038
100
AcDbEntity
  8
DEFPOINTS
  6
ByBlock
 62
     0
440
 16777216
100
AcDbPoint
 10
3003.723950192256
 20
1403.884714232346
 30
0.0
  0
POINT
  5
8042
330
8038
100
AcDbEntity
  8
DEFPOINTS
  6
ByBlock
 62
     0
440
 16777216
100
AcDbPoint
 10
3003.723950192256
 20
1269.932156191136
 30
0.0
  0
ENDBLK
  5
8043
330
8038
100
AcDbEntity
  8
0
100
AcDbBlockEnd
  0
BLOCK
  5
8046
330
8045
100
AcDbEntity
  8
0
100
AcDbBlockBegin
  2
*D21
 70
     1
 10
0.0
 20
0.0
 30
0.0
  3
*D21
  1

  0
LINE
  5
8047
330
8045
100
AcDbEntity
  8
0
  6
ByBlock
 62
     0
440
 16777216
100
AcDbLine
 10
3003.723950192256
 20
1393.884714232346
 30
0.0
 11
3003.723950192256
 21
1249.932156191136
 31
0.0
  0
LINE
  5
8048
330
8045
100
AcDbEntity
  8
0
  6
ByBlock
 62
     0
440
 16777216
100
AcDbLine
 10
3381.723950192257
 20
1393.884714232346
 30
0.0
 11
3381.723950192257
 21
1249.932156191136
 31
0.0
  0
LINE
  5
8049
330
8045
100
AcDbEntity
  8
0
  6
ByBlock
 62
     0
440
 16777216
100
AcDbLine
 10
3043.723950192256
 20
1269.932156191136
 30
0.0
 11
3341.723950192257
 21
1269.932156191136
 31
0.0
  0
INSERT
  5
804A
330
8045
100
AcDbEntity
  8
0
  6
ByBlock
 62
     0
440
 16777216
100
AcDbBlockReference
  2
_OPEN
 10
3003.723950192256
 20
1269.932156191136
 30
0.0
 41
40.0
 42
40.0
 43
40.0
 50
180.0
  0
INSERT
  5
804B
330
8045
100
AcDbEntity
  8
0
  6
ByBlock
 62
     0
440
 16777216
100
AcDbBlockReference
  2
_OPEN
 10
3381.723950192257
 20
1269.932156191136
 30
0.0
 41
40.0
 42
40.0
 43
40.0
  0
MTEXT
  5
804C
330
8045
100
AcDbEntity
  8
0
  6
ByBlock
 62
     0
440
 16777216
100
AcDbMText
 10
3192.723950192257
 20
1319.932156191136
 30
0.0
 40
60.0
 41
0.0
 46
0.0
 71
     5
 72
     5
  1
\A1;378
 73
     1
 44
1.0
  0
POINT
  5
804D
330
8045
100
AcDbEntity
  8
DEFPOINTS
  6
ByBlock
 62
     0
440
 16777216
100
AcDbPoint
 10
3003.723950192256
 20
1403.884714232346
 30
0.0
  0
POINT
  5
804E
330
8045
100
AcDbEntity
  8
DEFPOINTS
  6
ByBlock
 62
     0
440
 16777216
100
AcDbPoint
 10
3381.723950192257
 20
1403.884714232346
 30
0.0
  0
POINT
  5
804F
330
8045
100
AcDbEntity
  8
DEFPOINTS
  6
ByBlock
 62
     0
440
 16777216
100
AcDbPoint
 10
3381.723950192257
 20
1269.932156191136
 30
0.0
  0
ENDBLK
  5
8050
330
8045
100
AcDbEntity
  8
0
100
AcDbBlockEnd
  0
BLOCK
  5
8053
330
8052
100
AcDbEntity
  8
0
100
AcDbBlockBegin
  2
_NONE
 70
     0
 10
0.0
 20
0.0
 30
0.0
  3
_NONE
  1

  0
CIRCLE
  5
8054
330
8052
100
AcDbEntity
  8
0
  6
ByBlock
 62
     0
100
AcDbCircle
 10
0.0
 20
0.0
 30
0.0
 40
0.25
  0
ENDBLK
  5
8055
330
8052
100
AcDbEntity
  8
0
100
AcDbBlockEnd
  0
BLOCK
  5
8057
330
8056
100
AcDbEntity
  8
0
100
AcDbBlockBegin
  2
*D23
 70
     1
 10
0.0
 20
0.0
 30
0.0
  3
*D23
  1

  0
LINE
  5
8058
330
8056
100
AcDbEntity
  8
0
  6
ByBlock
 62
     0
440
 16777216
100
AcDbLine
 10
2116.883837906033
 20
1478.884714232346
 30
0.0
 11
2116.883837906033
 21
1478.884714232346
 31
0.0
  0
LINE
  5
8059
330
8056
100
AcDbEntity
  8
0
  6
ByBlock
 62
     0
440
 16777216
100
AcDbLine
 10
2116.883837906033
 20
1515.884714232345
 30
0.0
 11
2116.883837906033
 21
1595.884714232345
 31
0.0
  0
MTEXT
  5
805A
330
8056
100
AcDbEntity
  8
0
  6
ByBlock
 62
     0
440
 16777216
100
AcDbMText
 10
2212.598123620319
 20
1497.384714232345
 30
0.0
 40
60.0
 41
0.0
 46
0.0
 71
     5
 72
     5
  1
\A1;(37)
 11
0.0
 21
1.0
 31
0.0
 73
     1
 44
1.0
  0
LINE
  5
805B
330
8056
100
AcDbEntity
  8
0
  6
ByBlock
 62
     0
440
 16777216
100
AcDbLine
 10
2116.883837906033
 20
1478.884714232346
 30
0.0
 11
2116.883837906033
 21
1515.884714232345
 31
0.0
  0
POINT
  5
805C
330
8056
100
AcDbEntity
  8
DEFPOINTS
  6
ByBlock
 62
     0
440
 16777216
100
AcDbPoint
 10
1699.350431794304
 20
1478.884714232346
 30
0.0
  0
POINT
  5
805D
330
8056
100
AcDbEntity
  8
DEFPOINTS
  6
ByBlock
 62
     0
440
 16777216
100
AcDbPoint
 10
1699.350431794304
 20
1515.884714232345
 30
0.0
  0
POINT
  5
805E
330
8056
100
AcDbEntity
  8
DEFPOINTS
  6
ByBlock
 62
     0
440
 16777216
100
AcDbPoint
 10
2116.883837906033
 20
1515.884714232345
 30
0.0
  0
ENDBLK
  5
805F
330
8056
100
AcDbEntity
  8
0
100
AcDbBlockEnd
  0
BLOCK
  5
8063
330
8062
100
AcDbEntity
  8
0
100
AcDbBlockBegin
  2
*D24
 70
     1
 10
0.0
 20
0.0
 30
0.0
  3
*D24
  1

  0
LINE
  5
8064
330
8062
100
AcDbEntity
  8
0
  6
ByBlock
 62
     0
440
 16777216
100
AcDbLine
 10
1323.369593658138
 20
2516.884714232345
 30
0.0
 11
2138.51389641425
 21
2516.884714232345
 31
0.0
  0
LINE
  5
8065
330
8062
100
AcDbEntity
  8
0
  6
ByBlock
 62
     0
440
 16777216
100
AcDbLine
 10
1774.840625798183
 20
2155.884714232346
 30
0.0
 11
2138.51389641425
 21
2155.884714232346
 31
0.0
  0
LINE
  5
8066
330
8062
100
AcDbEntity
  8
0
  6
ByBlock
 62
     0
440
 16777216
100
AcDbLine
 10
2118.51389641425
 20
2476.884714232345
 30
0.0
 11
2118.51389641425
 21
2195.884714232345
 31
0.0
  0
INSERT
  5
8067
330
8062
100
AcDbEntity
  8
0
  6
ByBlock
 62
     0
440
 16777216
100
AcDbBlockReference
  2
_OPEN
 10
2118.51389641425
 20
2516.884714232345
 30
0.0
 41
40.0
 42
40.0
 43
40.0
 50
90.0
  0
INSERT
  5
8068
330
8062
100
AcDbEntity
  8
0
  6
ByBlock
 62
     0
440
 16777216
100
AcDbBlockReference
  2
_OPEN
 10
2118.51389641425
 20
2155.884714232346
 30
0.0
 41
40.0
 42
40.0
 43
40.0
 50
270.0
  0
MTEXT
  5
8069
330
8062
100
AcDbEntity
  8
0
  6
ByBlock
 62
     0
440
 16777216
100
AcDbMText
 10
2068.51389641425
 20
2336.384714232345
 30
0.0
 40
60.0
 41
0.0
 46
0.0
 71
     5
 72
     5
  1
\A1;361
 11
0.0
 21
1.0
 31
0.0
 73
     1
 44
1.0
  0
POINT
  5
806A
330
8062
100
AcDbEntity
  8
DEFPOINTS
  6
ByBlock
 62
     0
440
 16777216
100
AcDbPoint
 10
1313.369593658137
 20
2516.884714232345
 30
0.0
  0
POINT
  5
806B
330
8062
100
AcDbEntity
  8
DEFPOINTS
  6
ByBlock
 62
     0
440
 16777216
100
AcDbPoint
 10
1764.840625798183
 20
2155.884714232346
 30
0.0
  0
POINT
  5
806C
330
8062
100
AcDbEntity
  8
DEFPOINTS
  6
ByBlock
 62
     0
440
 16777216
100
AcDbPoint
 10
2118.51389641425
 20
2155.884714232346
 30
0.0
  0
ENDBLK
  5
806D
330
8062
100
AcDbEntity
  8
0
100
AcDbBlockEnd
  0
BLOCK
  5
8070
330
806F
100
AcDbEntity
  8
0
100
AcDbBlockBegin
  2
*D25
 70
     1
 10
0.0
 20
0.0
 30
0.0
  3
*D25
  1

  0
LINE
  5
8071
330
806F
100
AcDbEntity
  8
0
  6
ByBlock
 62
     0
440
 16777216
100
AcDbLine
 10
1333.369593658138
 20
2516.884714232345
 30
0.0
 11
2294.18688495511
 21
2516.884714232345
 31
0.0
  0
LINE
  5
8072
330
806F
100
AcDbEntity
  8
0
  6
ByBlock
 62
     0
440
 16777216
100
AcDbLine
 10
1709.350431794304
 20
1403.884714232345
 30
0.0
 11
2294.18688495511
 21
1403.884714232345
 31
0.0
  0
LINE
  5
8073
330
806F
100
AcDbEntity
  8
0
  6
ByBlock
 62
     0
440
 16777216
100
AcDbLine
 10
2274.18688495511
 20
2476.884714232345
 30
0.0
 11
2274.18688495511
 21
1443.884714232345
 31
0.0
  0
INSERT
  5
8074
330
806F
100
AcDbEntity
  8
0
  6
ByBlock
 62
     0
440
 16777216
100
AcDbBlockReference
  2
_OPEN
 10
2274.18688495511
 20
2516.884714232345
 30
0.0
 41
40.0
 42
40.0
 43
40.0
 50
90.0
  0
INSERT
  5
8075
330
806F
100
AcDbEntity
  8
0
  6
ByBlock
 62
     0
440
 16777216
100
AcDbBlockReference
  2
_OPEN
 10
2274.18688495511
 20
1403.884714232345
 30
0.0
 41
40.0
 42
40.0
 43
40.0
 50
270.0
  0
MTEXT
  5
8076
330
806F
100
AcDbEntity
  8
0
  6
ByBlock
 62
     0
440
 16777216
100
AcDbMText
 10
2208.472599240824
 20
1960.384714232345
 30
0.0
 40
60.0
 41
0.0
 46
0.0
 71
     5
 72
     5
  1
\A1;(1113)
 11
0.0
 21
1.0
 31
0.0
 73
     1
 44
1.0
  0
POINT
  5
8077
330
806F
100
AcDbEntity
  8
DEFPOINTS
  6
ByBlock
 62
     0
440
 16777216
100
AcDbPoint
 10
1323.369593658138
 20
2516.884714232345
 30
0.0
  0
POINT
  5
8078
330
806F
100
AcDbEntity
  8
DEFPOINTS
  6
ByBlock
 62
     0
440
 16777216
100
AcDbPoint
 10
1699.350431794304
 20
1403.884714232345
 30
0.0
  0
POINT
  5
8079
330
806F
100
AcDbEntity
  8
DEFPOINTS
  6
ByBlock
 62
     0
440
 16777216
100
AcDbPoint
 10
2274.18688495511
 20
1403.884714232345
 30
0.0
  0
ENDBLK
  5
807A
330
806F
100
AcDbEntity
  8
0
100
AcDbBlockEnd
  0
ENDSEC
  0
SECTION
  2
ENTITIES
  0
LINE
  5
7C16
330
19
100
AcDbEntity
  8
2
100
AcDbLine
 10
1384.350431794304
 20
4347.628622192078
 30
0.0
 11
1384.350431794304
 21
3219.805384443974
 31
0.0
  0
LINE
  5
7C17
330
19
100
AcDbEntity
  8
2
100
AcDbLine
 10
3441.533794086762
 20
2155.884714232346
 30
0.0
 11
2299.892807740786
 21
2155.884714232346
 31
0.0
  0
LINE
  5
7C18
330
19
100
AcDbEntity
  8
2
100
AcDbLine
 10
949.3504317943049
 20
3919.440673453876
 30
0.0
 11
1764.992844713985
 21
3919.440673453876
 31
0.0
  0
LINE
  5
7C19
330
19
100
AcDbEntity
  8
2
100
AcDbLine
 10
3003.723950192256
 20
1403.884714232346
 30
0.0
 11
3003.723950192257
 21
2618.550771251171
 31
0.0
  0
LINE
  5
7C1A
330
19
100
AcDbEntity
  8
1
100
AcDbLine
 10
1741.350431794305
 20
1586.279531269042
 30
0.0
 11
1741.350431794305
 21
2161.484714232345
 31
0.0
  0
LINE
  5
7C1B
330
19
100
AcDbEntity
  8
1
100
AcDbLine
 10
1744.350431794305
 20
1617.884714232345
 30
0.0
 11
1744.350431794305
 21
2129.884714232345
 31
0.0
  0
LINE
  5
7C1C
330
19
100
AcDbEntity
  8
1
100
AcDbLine
 10
1678.430110187414
 20
2129.884714232345
 30
0.0
 11
1744.350431794305
 21
2129.884714232345
 31
0.0
  0
LINE
  5
7C1D
330
19
100
AcDbEntity
  8
1
100
AcDbLine
 10
1744.350431794305
 20
2139.884714232346
 30
0.0
 11
1744.350431794305
 21
1607.8523207117
 31
0.0
  0
CIRCLE
  5
7C1E
330
19
100
AcDbEntity
  8
1
100
AcDbCircle
 10
1384.350431794305
 20
2155.884714232346
 30
0.0
 40
237.5
  0
LINE
  5
7C1F
330
19
100
AcDbEntity
  8
2
100
AcDbLine
 10
1764.840625798183
 20
2155.884714232346
 30
0.0
 11
917.7418133185501
 21
2155.884714232345
 31
0.0
  0
LINE
  5
7C20
330
19
100
AcDbEntity
  8
2
100
AcDbLine
 10
1384.350431794305
 20
2545.938401821407
 30
0.0
 11
1384.350431794305
 21
1403.884714232345
 31
0.0
  0
DIMENSION
  5
7C21
330
19
100
AcDbEntity
  8
3
100
AcDbDimension
280
     0
  2
*D1
 10
1890.508374667907
 20
1617.884714232345
 30
0.0
 11
1850.508374667907
 21
1873.884714232345
 31
0.0
 12
-865.9916800387145
 22
802.14670095793
 32
0.0
 70
    32
 71
     5
 42
-1.0
 73
     0
 74
     0
 75
     0
  3
MATSU
100
AcDbAlignedDimension
 13
1744.350431794305
 23
2129.884714232345
 33
0.0
 14
1744.350431794305
 24
1617.884714232345
 34
0.0
 50
270.0
100
AcDbRotatedDimension
1001
ACAD
1000
DSTYLE
1002
{
1070
    40
1040
20.0
1002
}
  0
DIMENSION
  5
7C22
330
19
100
AcDbEntity
  8
3
100
AcDbDimension
280
     0
  2
*D2
 10
1985.894738267818
 20
2155.884714232346
 30
0.0
 11
1945.894738267818
 21
1886.884714232345
 31
0.0
 12
-865.9916800387145
 22
802.14670095793
 32
0.0
 70
    32
 71
     5
 42
-1.0
 73
     0
 74
     0
 75
     0
  3
MATSU
100
AcDbAlignedDimension
 13
1744.350431794305
 23
1617.884714232345
 33
0.0
 14
1764.840625798183
 24
2155.884714232346
 34
0.0
 50
270.0
100
AcDbRotatedDimension
1001
ACAD
1000
DSTYLE
1002
{
1070
    40
1040
20.0
1002
}
  0
DIMENSION
  5
7C23
330
19
100
AcDbEntity
  8
3
100
AcDbDimension
280
     0
  2
*D3
 10
1384.350431794305
 20
2642.144226217995
 30
0.0
 11
1564.350431794305
 21
2682.144226217995
 31
0.0
 12
-865.9916800387145
 22
802.14670095793
 32
0.0
 70
    32
 71
     5
 42
-1.0
 73
     0
 74
     0
 75
     0
  3
MATSU
100
AcDbAlignedDimension
 13
1744.350431794305
 23
2150.680746908912
 33
0.0
 14
1384.350431794305
 24
2545.938401821407
 34
0.0
100
AcDbRotatedDimension
1001
ACAD
1000
DSTYLE
1002
{
1070
    40
1040
20.0
1002
}
  0
LWPOLYLINE
  5
7C24
330
19
100
AcDbEntity
  8
1
100
AcDbPolyline
 90
        6
 70
     0
 43
0.0
 10
1744.350431794305
 20
1617.884714232345
 10
1384.350431794305
 20
1646.884714232345
 42
-0.391481819872034
 10
947.9024409864447
 20
2118.884714232345
 42
-0.4402316384525868
 10
1382.459437721632
 20
2516.786781408719
 42
-0.3886655081045431
 10
1684.534229938661
 20
2186.884714232345
 42
-0.0533922677890136
 10
1678.430110187414
 20
2129.884714232345
 42
-0.3936265759256327
  0
LINE
  5
7C2C
330
19
100
AcDbEntity
  8
1
100
AcDbLine
 10
1714.350431794305
 20
1620.301380899012
 30
0.0
 11
1714.350431794304
 21
2129.884714232345
 31
0.0
  0
LINE
  5
7C2D
330
19
100
AcDbEntity
  8
1
100
AcDbLine
 10
1741.350431794305
 20
2161.484714232345
 30
0.0
 11
1744.350431794305
 21
2161.484714232345
 31
0.0
  0
LINE
  5
7C2E
330
19
100
AcDbEntity
  8
1
100
AcDbLine
 10
1744.350431794305
 20
2161.484714232345
 30
0.0
 11
1744.350431794305
 21
1586.279531269042
 31
0.0
  0
LINE
  5
7C2F
330
19
100
AcDbEntity
  8
1
100
AcDbLine
 10
1744.350431794305
 20
1586.279531269042
 30
0.0
 11
1741.350431794305
 21
1586.279531269042
 31
0.0
  0
LINE
  5
7C30
330
19
100
AcDbEntity
  8
1
100
AcDbLine
 10
1699.350431794304
 20
1515.884714232345
 30
0.0
 11
559.3504317943052
 21
1515.884714232345
 31
0.0
  0
LINE
  5
7C31
330
19
100
AcDbEntity
  8
1
100
AcDbLine
 10
1699.350431794304
 20
1590.884714232345
 30
0.0
 11
532.3504317943052
 21
1590.884714232345
 31
0.0
  0
LINE
  5
7C32
330
19
100
AcDbEntity
  8
1
100
AcDbLine
 10
1699.350431794304
 20
1478.884714232346
 30
0.0
 11
559.3504317943052
 21
1478.884714232345
 31
0.0
  0
LINE
  5
7C33
330
19
100
AcDbEntity
  8
1
100
AcDbLine
 10
1699.350431794304
 20
1403.884714232345
 30
0.0
 11
559.3504317943052
 21
1403.884714232345
 31
0.0
  0
LINE
  5
7C34
330
19
100
AcDbEntity
  8
1
100
AcDbLine
 10
1699.350431794304
 20
1590.884714232345
 30
0.0
 11
1699.350431794305
 21
1515.884714232345
 31
0.0
  0
LINE
  5
7C35
330
19
100
AcDbEntity
  8
1
100
AcDbLine
 10
559.3504317943052
 20
1590.884714232345
 30
0.0
 11
559.3504317943052
 21
1515.884714232344
 31
0.0
  0
LINE
  5
7C36
330
19
100
AcDbEntity
  8
1
100
AcDbLine
 10
559.3504317943052
 20
1478.884714232345
 30
0.0
 11
559.3504317943052
 21
1403.884714232345
 31
0.0
  0
LINE
  5
7C37
330
19
100
AcDbEntity
  8
1
100
AcDbLine
 10
1699.350431794305
 20
1478.884714232345
 30
0.0
 11
1699.350431794304
 21
1403.884714232345
 31
0.0
  0
LINE
  5
7C38
330
19
100
AcDbEntity
  8
1
100
AcDbLine
 10
3381.723950192257
 20
1515.884714232346
 30
0.0
 11
2541.723950192257
 21
1515.884714232345
 31
0.0
  0
LINE
  5
7C39
330
19
100
AcDbEntity
  8
1
100
AcDbLine
 10
3381.723950192257
 20
1590.884714232346
 30
0.0
 11
2541.723950192257
 21
1590.884714232346
 31
0.0
  0
LINE
  5
7C3A
330
19
100
AcDbEntity
  8
1
100
AcDbLine
 10
3381.723950192257
 20
1478.884714232346
 30
0.0
 11
2541.723950192257
 21
1478.884714232346
 31
0.0
  0
LINE
  5
7C3B
330
19
100
AcDbEntity
  8
1
100
AcDbLine
 10
3381.723950192257
 20
1403.884714232346
 30
0.0
 11
2541.723950192257
 21
1403.884714232346
 31
0.0
  0
LINE
  5
7C3C
330
19
100
AcDbEntity
  8
1
100
AcDbLine
 10
3381.723950192256
 20
1403.884714232346
 30
0.0
 11
3381.723950192256
 21
1478.884714232345
 31
0.0
  0
LINE
  5
7C3D
330
19
100
AcDbEntity
  8
1
100
AcDbLine
 10
2541.723950192257
 20
1403.884714232346
 30
0.0
 11
2541.723950192257
 21
1478.884714232345
 31
0.0
  0
LINE
  5
7C3E
330
19
100
AcDbEntity
  8
1
100
AcDbLine
 10
2541.723950192257
 20
1515.884714232345
 30
0.0
 11
2541.723950192257
 21
1590.884714232346
 31
0.0
  0
LINE
  5
7C3F
330
19
100
AcDbEntity
  8
1
100
AcDbLine
 10
3381.723950192256
 20
1515.884714232346
 30
0.0
 11
3381.723950192257
 21
1590.884714232346
 31
0.0
  0
LINE
  5
7C40
330
19
100
AcDbEntity
  8
1
100
AcDbLine
 10
3338.723950192256
 20
1617.884714232345
 30
0.0
 11
3338.723950192257
 21
2516.884714232345
 31
0.0
  0
LINE
  5
7C41
330
19
100
AcDbEntity
  8
1
100
AcDbLine
 10
3338.723950192258
 20
2516.884714232345
 30
0.0
 11
2668.723950192257
 21
2516.884714232345
 31
0.0
  0
DIMENSION
  5
7C42
330
19
100
AcDbEntity
  8
3
100
AcDbDimension
280
     0
  2
*D4
 10
3338.723950192257
 20
2634.17746827759
 30
0.0
 11
3003.723950192257
 21
2674.177468277589
 31
0.0
 12
-865.9916800387145
 22
802.14670095793
 32
0.0
 70
    32
 71
     5
 42
-1.0
 73
     0
 74
     0
 75
     0
  3
MATSU
100
AcDbAlignedDimension
 13
2668.723950192257
 23
2516.884714232345
 33
0.0
 14
3338.723950192257
 24
2516.884714232345
 34
0.0
100
AcDbRotatedDimension
1001
ACAD
1000
DSTYLE
1002
{
1070
    40
1040
20.0
1002
}
  0
LINE
  5
7C43
330
19
100
AcDbEntity
  8
1
100
AcDbLine
 10
3423.723950192257
 20
2119.384714232346
 30
0.0
 11
3363.723950192257
 21
2119.384714232345
 31
0.0
  0
LINE
  5
7C44
330
19
100
AcDbEntity
  8
1
100
AcDbLine
 10
2658.723950192257
 20
2006.684714232346
 30
0.0
 11
2658.723950192257
 21
2106.684714232345
 31
0.0
  0
LINE
  5
7C45
330
19
100
AcDbEntity
  8
1
100
AcDbLine
 10
2588.723950192257
 20
2016.684714232345
 30
0.0
 11
2588.723950192257
 21
2096.684714232345
 31
0.0
  0
LINE
  5
7C46
330
19
100
AcDbEntity
  8
1
100
AcDbLine
 10
3433.723950192257
 20
2029.384714232346
 30
0.0
 11
3433.723950192257
 21
2109.384714232346
 31
0.0
  0
LINE
  5
7C47
330
19
100
AcDbEntity
  8
1
100
AcDbLine
 10
3363.723950192257
 20
2019.384714232346
 30
0.0
 11
3363.723950192257
 21
2119.384714232345
 31
0.0
  0
LINE
  5
7C48
330
19
100
AcDbEntity
  8
1
100
AcDbLine
 10
3423.723950192257
 20
2019.384714232346
 30
0.0
 11
3363.723950192257
 21
2019.384714232345
 31
0.0
  0
LINE
  5
7C49
330
19
100
AcDbEntity
  8
1
100
AcDbLine
 10
3423.723950192257
 20
2119.384714232346
 30
0.0
 11
3433.723950192257
 21
2109.384714232346
 31
0.0
  0
LINE
  5
7C4A
330
19
100
AcDbEntity
  8
1
100
AcDbLine
 10
3433.723950192257
 20
2029.384714232346
 30
0.0
 11
3423.723950192257
 21
2019.384714232346
 31
0.0
  0
LINE
  5
7C4B
330
19
100
AcDbEntity
  8
1
100
AcDbLine
 10
2658.723950192256
 20
2106.684714232345
 30
0.0
 11
2598.723950192257
 21
2106.684714232345
 31
0.0
  0
LINE
  5
7C4C
330
19
100
AcDbEntity
  8
1
100
AcDbLine
 10
2658.723950192256
 20
2006.684714232345
 30
0.0
 11
2598.723950192257
 21
2006.684714232345
 31
0.0
  0
LINE
  5
7C4D
330
19
100
AcDbEntity
  8
1
100
AcDbLine
 10
2598.723950192257
 20
2106.684714232345
 30
0.0
 11
2588.723950192257
 21
2096.684714232345
 31
0.0
  0
LINE
  5
7C4E
330
19
100
AcDbEntity
  8
1
100
AcDbLine
 10
2588.723950192257
 20
2016.684714232345
 30
0.0
 11
2598.723950192257
 21
2006.684714232345
 31
0.0
  0
DIMENSION
  5
7C4F
330
19
100
AcDbEntity
  8
3
100
AcDbDimension
280
     0
  2
*D5
 10
3003.723950192257
 20
2770.78798225641
 30
0.0
 11
3218.723950192257
 21
2826.502267970696
 31
0.0
 70
    32
  1
(<>)
 71
     5
 42
430.0
 73
     0
 74
     0
 75
     0
  3
MATSU
100
AcDbAlignedDimension
 13
3433.723950192257
 23
2029.384714232346
 33
0.0
 14
3003.723950192257
 24
2735.305801544355
 34
0.0
100
AcDbRotatedDimension
1001
ACAD
1000
DSTYLE
1002
{
1070
    40
1040
20.0
1002
}
  0
DIMENSION
  5
7C56
330
19
100
AcDbEntity
  8
3
100
AcDbDimension
280
     0
  2
*D6
 10
2117.358267279522
 20
1515.884714232345
 30
0.0
 11
2077.358267279522
 21
1835.884714232345
 31
0.0
 12
-865.9916800387145
 22
802.14670095793
 32
0.0
 70
    32
 71
     5
 42
-1.0
 73
     0
 74
     0
 75
     0
  3
MATSU
100
AcDbAlignedDimension
 13
1764.840625798183
 23
2155.884714232346
 33
0.0
 14
1699.350431794305
 24
1515.884714232345
 34
0.0
 50
90.0
100
AcDbRotatedDimension
1001
ACAD
1000
DSTYLE
1002
{
1070
    40
1040
20.0
1002
}
  0
LINE
  5
7C59
330
19
100
AcDbEntity
  8
1
100
AcDbLine
 10
1069.350431794304
 20
4297.440673453876
 30
0.0
 11
1699.350431794305
 21
4297.440673453876
 31
0.0
  0
LINE
  5
7C5A
330
19
100
AcDbEntity
  8
1
100
AcDbLine
 10
559.3504317943052
 20
3457.440673453876
 30
0.0
 11
1699.350431794305
 21
3457.440673453876
 31
0.0
  0
LINE
  5
7C5B
330
19
100
AcDbEntity
  8
1
100
AcDbLine
 10
1699.350431794305
 20
4297.440673453876
 30
0.0
 11
1699.350431794305
 21
4254.440673453876
 31
0.0
  0
LINE
  5
7C5C
330
19
100
AcDbEntity
  8
1
100
AcDbLine
 10
559.3504317943042
 20
4057.440673453875
 30
0.0
 11
559.3504317943048
 21
3457.440673453876
 31
0.0
  0
LINE
  5
7C5D
330
19
100
AcDbEntity
  8
1
100
AcDbLine
 10
559.3504317943052
 20
4057.440673453875
 30
0.0
 11
949.3504317943052
 21
4057.440673453876
 31
0.0
  0
LINE
  5
7C5E
330
19
100
AcDbEntity
  8
1
100
AcDbLine
 10
1069.350431794304
 20
4297.440673453876
 30
0.0
 11
1069.350431794304
 21
4254.440673453875
 31
0.0
  0
LINE
  5
7C5F
330
19
100
AcDbEntity
  8
1
100
AcDbLine
 10
949.3504317943052
 20
4254.440673453876
 30
0.0
 11
1744.350431794305
 21
4254.440673453876
 31
0.0
  0
LINE
  5
7C60
330
19
100
AcDbEntity
  8
1
100
AcDbLine
 10
949.3504317943052
 20
3584.440673453876
 30
0.0
 11
1744.350431794305
 21
3584.440673453876
 31
0.0
  0
LINE
  5
7C61
330
19
100
AcDbEntity
  8
1
100
AcDbLine
 10
1744.350431794304
 20
4284.440673453876
 30
0.0
 11
1744.350431794305
 21
3554.440673453876
 31
0.0
  0
DIMENSION
  5
7C62
330
19
100
AcDbEntity
  8
3
100
AcDbDimension
280
     0
  2
*D7
 10
947.9024409864447
 20
2642.144226217995
 30
0.0
 11
1166.126436390374
 21
2682.144226217995
 31
0.0
 12
-865.9916800387145
 22
802.14670095793
 32
0.0
 70
    32
  1
435
 71
     5
 42
-1.0
 73
     0
 74
     0
 75
     0
  3
MATSU
100
AcDbAlignedDimension
 13
1384.350431794305
 23
2545.938401821407
 33
0.0
 14
947.9024409864447
 24
2192.884714232346
 34
0.0
100
AcDbRotatedDimension
1001
ACAD
1000
DSTYLE
1002
{
1070
    40
1040
20.0
1002
}
  0
LINE
  5
7C63
330
19
100
AcDbEntity
  8
1
100
AcDbLine
 10
949.3504317943044
 20
4254.440673453875
 30
0.0
 11
949.3504317943052
 21
3584.440673453876
 31
0.0
  0
LINE
  5
7C64
330
19
100
AcDbEntity
  8
1
100
AcDbLine
 10
1739.350431794304
 20
4284.440673453876
 30
0.0
 11
1739.350431794305
 21
3554.440673453876
 31
0.0
  0
LINE
  5
7C65
330
19
100
AcDbEntity
  8
1
100
AcDbLine
 10
1739.350431794303
 20
4284.440673453876
 30
0.0
 11
1744.350431794305
 21
4284.440673453876
 31
0.0
  0
LINE
  5
7C66
330
19
100
AcDbEntity
  8
1
100
AcDbLine
 10
1739.350431794305
 20
3554.440673453877
 30
0.0
 11
1744.350431794305
 21
3554.440673453876
 31
0.0
  0
LINE
  5
7C67
330
19
100
AcDbEntity
  8
1
100
AcDbLine
 10
2343.723950192257
 20
1580.884714232346
 30
0.0
 11
2343.723950192256
 21
2305.884714232345
 31
0.0
  0
LINE
  5
7C68
330
19
100
AcDbEntity
  8
1
100
AcDbLine
 10
514.3504317943043
 20
3259.440673453875
 30
0.0
 11
1534.350431794305
 21
3259.440673453875
 31
0.0
  0
LINE
  5
7C69
330
19
100
AcDbEntity
  8
1
100
AcDbLine
 10
2668.723950192257
 20
2175.884714232349
 30
0.0
 11
2534.223950192258
 21
2175.884714232346
 31
0.0
  0
LINE
  5
7C6A
330
19
100
AcDbEntity
  8
1
100
AcDbLine
 10
2668.723950192257
 20
2135.884714232345
 30
0.0
 11
2534.223950192258
 21
2135.884714232345
 31
0.0
  0
LINE
  5
7C6B
330
19
100
AcDbEntity
  8
1
100
AcDbLine
 10
1404.350431794305
 20
3584.440673453877
 30
0.0
 11
1404.350431794304
 21
3449.940673453875
 31
0.0
  0
LINE
  5
7C6C
330
19
100
AcDbEntity
  8
1
100
AcDbLine
 10
1364.350431794305
 20
3584.440673453877
 30
0.0
 11
1364.350431794305
 21
3449.940673453875
 31
0.0
  0
LINE
  5
7C6D
330
19
100
AcDbEntity
  8
2
100
AcDbLine
 10
734.3504317943048
 20
4125.268844681822
 30
0.0
 11
734.3504317943052
 21
3229.519830098053
 31
0.0
  0
LINE
  5
7C6E
330
19
100
AcDbEntity
  8
1
100
AcDbLine
 10
888.3504317943051
 20
1656.884714232345
 30
0.0
 11
868.9179317943054
 21
1710.274714232345
 31
0.0
  0
LINE
  5
7C6F
330
19
100
AcDbEntity
  8
1
100
AcDbLine
 10
580.3504317943052
 20
1656.884714232345
 30
0.0
 11
599.7830317943053
 21
1710.274714232345
 31
0.0
  0
ARC
  5
7C70
330
19
100
AcDbEntity
  8
1
100
AcDbCircle
 10
734.3504317943052
 20
1800.884714232345
 30
0.0
 40
162.0
100
AcDbArc
 50
285.6481
 51
0.0000000000000172
  0
ARC
  5
7C73
330
19
100
AcDbEntity
  8
1
100
AcDbCircle
 10
734.3504317943052
 20
1800.884714232345
 30
0.0
 40
162.0
100
AcDbArc
 50
0.0000000000000172
 51
254.5427
  0
LINE
  5
7C74
330
19
100
AcDbEntity
  8
2
100
AcDbLine
 10
734.3504317943052
 20
2027.284369542366
 30
0.0
 11
734.3504317943052
 21
1403.884714232345
 31
0.0
  0
LINE
  5
7C76
330
19
100
AcDbEntity
  8
1
100
AcDbLine
 10
690.6698317943055
 20
1644.884714232345
 30
0.0
 11
778.0311317943051
 21
1644.884714232345
 31
0.0
  0
LINE
  5
7C77
330
19
100
AcDbEntity
  8
1
100
AcDbLine
 10
649.4065317943059
 20
1662.940714232345
 30
0.0
 11
641.2291317943054
 21
1654.762714232345
 31
0.0
  0
LINE
  5
7C7A
330
19
100
AcDbEntity
  8
1
100
AcDbLine
 10
627.137231794305
 20
1658.884714232345
 30
0.0
 11
582.3504317943052
 21
1658.884714232345
 31
0.0
  0
LINE
  5
7C7B
330
19
100
AcDbEntity
  8
1
100
AcDbLine
 10
580.3504317943052
 20
1640.884714232345
 30
0.0
 11
640.3504317943052
 21
1640.884714232345
 31
0.0
  0
ARC
  5
7C7D
330
19
100
AcDbEntity
  8
1
100
AcDbCircle
 10
582.3504317943052
 20
1656.884714232345
 30
0.0
 40
2.0
100
AcDbArc
 50
90.00000000000003
 51
180.0
  0
LINE
  5
7C7F
330
19
100
AcDbEntity
  8
1
100
AcDbLine
 10
580.3504317943052
 20
1640.884714232345
 30
0.0
 11
580.3504317943052
 21
1656.884714232345
 31
0.0
  0
ARC
  5
7C82
330
19
100
AcDbEntity
  8
1
100
AcDbCircle
 10
643.3504317943052
 20
1652.641714232345
 30
0.0
 40
3.0
100
AcDbArc
 50
135.0
 51
180.0
  0
LINE
  5
7C83
330
19
100
AcDbEntity
  8
1
100
AcDbLine
 10
640.3504317943052
 20
1640.884714232345
 30
0.0
 11
640.3504317943052
 21
1652.641714232345
 31
0.0
  0
LINE
  5
7C85
330
19
100
AcDbEntity
  8
1
100
AcDbLine
 10
639.2392317943058
 20
1669.743714232344
 30
0.0
 11
629.258631794305
 21
1659.762714232345
 31
0.0
  0
ARC
  5
7C86
330
19
100
AcDbEntity
  8
1
100
AcDbCircle
 10
627.137231794305
 20
1661.884714232345
 30
0.0
 40
3.0
100
AcDbArc
 50
270.0
 51
315.0000000000001
  0
LINE
  5
7C89
330
19
100
AcDbEntity
  8
1
100
AcDbLine
 10
841.5636317943054
 20
1658.884714232345
 30
0.0
 11
886.3504317943052
 21
1658.884714232345
 31
0.0
  0
LINE
  5
7C8A
330
19
100
AcDbEntity
  8
1
100
AcDbLine
 10
888.3504317943051
 20
1640.884714232345
 30
0.0
 11
828.3504317943052
 21
1640.884714232345
 31
0.0
  0
LINE
  5
7C8B
330
19
100
AcDbEntity
  8
1
100
AcDbLine
 10
819.2943317943054
 20
1662.940714232345
 30
0.0
 11
827.4718317943051
 21
1654.762714232345
 31
0.0
  0
ARC
  5
7C8C
330
19
100
AcDbEntity
  8
1
100
AcDbCircle
 10
825.3504317943052
 20
1652.641714232345
 30
0.0
 40
3.0
100
AcDbArc
 50
0.0000000000000172
 51
45.00000000000002
  0
LINE
  5
7C8D
330
19
100
AcDbEntity
  8
1
100
AcDbLine
 10
828.3504317943052
 20
1640.884714232345
 30
0.0
 11
828.3504317943052
 21
1652.641714232345
 31
0.0
  0
LINE
  5
7C8F
330
19
100
AcDbEntity
  8
1
100
AcDbLine
 10
839.3889317943058
 20
1659.816714232345
 30
0.0
 11
829.4616317943054
 21
1669.743714232344
 31
0.0
  0
ARC
  5
7C90
330
19
100
AcDbEntity
  8
1
100
AcDbCircle
 10
841.5636317943054
 20
1661.884714232345
 30
0.0
 40
3.0
100
AcDbArc
 50
225.0
 51
270.0
  0
ARC
  5
7C91
330
19
100
AcDbEntity
  8
1
100
AcDbCircle
 10
886.3504317943052
 20
1656.884714232345
 30
0.0
 40
2.0
100
AcDbArc
 50
0.0000000000000172
 51
90.00000000000003
  0
LINE
  5
7C96
330
19
100
AcDbEntity
  8
1
100
AcDbLine
 10
888.3504317943051
 20
1640.884714232345
 30
0.0
 11
888.3504317943051
 21
1656.884714232345
 31
0.0
  0
LINE
  5
7C97
330
19
100
AcDbEntity
  8
2
100
AcDbLine
 10
493.6509340128131
 20
1800.884714232345
 30
0.0
 11
939.9495951815978
 21
1800.884714232345
 31
0.0
  0
LINE
  5
7C99
330
19
100
AcDbEntity
  8
1
100
AcDbLine
 10
755.3504317943048
 20
3459.440673453876
 30
0.0
 11
755.3504317943052
 21
3449.940673453875
 31
0.0
  0
LINE
  5
7C9A
330
19
100
AcDbEntity
  8
1
100
AcDbLine
 10
713.3504317943048
 20
3459.440673453876
 30
0.0
 11
713.3504317943042
 21
3449.940673453875
 31
0.0
  0
LINE
  5
7C9B
330
19
100
AcDbEntity
  8
1
100
AcDbLine
 10
926.3504317943052
 20
1640.884714232345
 30
0.0
 11
796.8504317943052
 21
1640.884714232345
 31
0.0
  0
LINE
  5
7C9C
330
19
100
AcDbEntity
  8
1
100
AcDbLine
 10
796.8504317943052
 20
1640.884714232345
 30
0.0
 11
796.8504317943052
 21
1630.884714232345
 31
0.0
  0
LINE
  5
7C9D
330
19
100
AcDbEntity
  8
1
100
AcDbLine
 10
671.8504317943052
 20
1640.884714232345
 30
0.0
 11
671.8504317943061
 21
1630.884714232345
 31
0.0
  0
LINE
  5
7C9E
330
19
100
AcDbEntity
  8
1
100
AcDbLine
 10
796.8504317943052
 20
1630.884714232345
 30
0.0
 11
671.8504317943052
 21
1630.884714232345
 31
0.0
  0
LINE
  5
7CA0
330
19
100
AcDbEntity
  8
1
100
AcDbLine
 10
671.8504317943052
 20
1640.884714232345
 30
0.0
 11
542.3504317943061
 21
1640.884714232345
 31
0.0
  0
LINE
  5
7CA3
330
19
100
AcDbEntity
  8
1
100
AcDbLine
 10
542.3504317943061
 20
1640.884714232345
 30
0.0
 11
532.3504317943052
 21
1590.884714232345
 31
0.0
  0
LINE
  5
7CA4
330
19
100
AcDbEntity
  8
1
100
AcDbLine
 10
926.3504317943052
 20
1640.884714232345
 30
0.0
 11
936.3504317943052
 21
1590.884714232345
 31
0.0
  0
LINE
  5
7CA5
330
19
100
AcDbEntity
  8
2
100
AcDbLine
 10
2668.723950192256
 20
1800.884714232346
 30
0.0
 11
2293.742599479667
 21
1800.884714232346
 31
0.0
  0
LINE
  5
7CA6
330
19
100
AcDbEntity
  8
1
100
AcDbLine
 10
2563.723950192257
 20
1580.884714232346
 30
0.0
 11
2563.723950192257
 21
1672.654865396969
 31
0.0
  0
ARC
  5
7CA7
330
19
100
AcDbEntity
  8
1
100
AcDbCircle
 10
1384.350431794305
 20
2155.884714232346
 30
0.0
 40
150.0
100
AcDbArc
 50
304.0647245710069
 51
117.0089575258733
  0
ARC
  5
7CA8
330
19
100
AcDbEntity
  8
1
100
AcDbCircle
 10
734.3504317943052
 20
1800.884714232345
 30
0.0
 40
220.0
100
AcDbArc
 50
113.2179358966656
 51
304.064724571007
  0
CIRCLE
  5
7CA9
330
19
100
AcDbEntity
  8
1
100
AcDbCircle
 10
1384.350431794305
 20
2155.884714232346
 30
0.0
 40
75.0
  0
CIRCLE
  5
7CAA
330
19
100
AcDbEntity
  8
1
100
AcDbCircle
 10
734.3504317943052
 20
1800.884714232345
 30
0.0
 40
110.0
  0
LINE
  5
7CAB
330
19
100
AcDbEntity
  8
1
100
AcDbLine
 10
514.3504317943052
 20
3479.440673453876
 30
0.0
 11
514.3504317943052
 21
3259.440673453875
 31
0.0
  0
LINE
  5
7CAC
330
19
100
AcDbEntity
  8
1
100
AcDbLine
 10
1534.350431794305
 20
3479.440673453876
 30
0.0
 11
1534.350431794305
 21
3259.440673453877
 31
0.0
  0
LINE
  5
7CAD
330
19
100
AcDbEntity
  8
1
100
AcDbLine
 10
514.3504317943043
 20
3479.440673453876
 30
0.0
 11
1534.350431794305
 21
3479.440673453876
 31
0.0
  0
LINE
  5
7CAE
330
19
100
AcDbEntity
  8
1
100
AcDbLine
 10
624.3504317943052
 20
3449.940673453876
 30
0.0
 11
844.3504317943052
 21
3449.940673453875
 31
0.0
  0
LINE
  5
7CAF
330
19
100
AcDbEntity
  8
1
100
AcDbLine
 10
624.3504317943052
 20
3348.940673453876
 30
0.0
 11
844.3504317943052
 21
3348.940673453876
 31
0.0
  0
LINE
  5
7CB0
330
19
100
AcDbEntity
  8
1
100
AcDbLine
 10
844.3504317943052
 20
3449.940673453876
 30
0.0
 11
844.3504317943052
 21
3348.940673453876
 31
0.0
  0
LINE
  5
7CB1
330
19
100
AcDbEntity
  8
1
100
AcDbLine
 10
624.3504317943043
 20
3449.940673453876
 30
0.0
 11
624.3504317943052
 21
3348.940673453876
 31
0.0
  0
LINE
  5
7CB2
330
19
100
AcDbEntity
  8
1
100
AcDbLine
 10
1459.350431794305
 20
3449.940673453876
 30
0.0
 11
1459.350431794305
 21
3348.940673453875
 31
0.0
  0
LINE
  5
7CB3
330
19
100
AcDbEntity
  8
1
100
AcDbLine
 10
1309.350431794304
 20
3449.940673453876
 30
0.0
 11
1309.350431794304
 21
3348.940673453875
 31
0.0
  0
LINE
  5
7CB4
330
19
100
AcDbEntity
  8
1
100
AcDbLine
 10
1309.350431794304
 20
3348.940673453876
 30
0.0
 11
1459.350431794304
 21
3348.940673453876
 31
0.0
  0
LINE
  5
7CB5
330
19
100
AcDbEntity
  8
1
100
AcDbLine
 10
1309.350431794304
 20
3449.940673453876
 30
0.0
 11
1459.350431794304
 21
3449.940673453875
 31
0.0
  0
LINE
  5
7CB6
330
19
100
AcDbEntity
  8
1
100
AcDbLine
 10
572.3504317943048
 20
3944.440673453876
 30
0.0
 11
572.3504317943048
 21
3459.440673453876
 31
0.0
  0
LINE
  5
7CB7
330
19
100
AcDbEntity
  8
1
100
AcDbLine
 10
896.3504317943048
 20
3944.440673453876
 30
0.0
 11
896.3504317943042
 21
3459.440673453876
 31
0.0
  0
LINE
  5
7CB8
330
19
100
AcDbEntity
  8
1
100
AcDbLine
 10
572.3504317943048
 20
3944.440673453876
 30
0.0
 11
896.3504317943048
 21
3944.440673453876
 31
0.0
  0
LINE
  5
7CB9
330
19
100
AcDbEntity
  8
1
100
AcDbLine
 10
572.3504317943048
 20
3459.440673453876
 30
0.0
 11
896.3504317943048
 21
3459.440673453876
 31
0.0
  0
LINE
  5
7CBA
330
19
100
AcDbEntity
  8
1
100
AcDbLine
 10
2343.723950192257
 20
1580.884714232346
 30
0.0
 11
2563.723950192257
 21
1580.884714232346
 31
0.0
  0
LINE
  5
7CBB
330
19
100
AcDbEntity
  8
1
100
AcDbLine
 10
2343.723950192256
 20
2305.884714232345
 30
0.0
 11
2563.723950192257
 21
2305.884714232346
 31
0.0
  0
LINE
  5
7CBD
330
19
100
AcDbEntity
  8
1
100
AcDbLine
 10
2433.223950192257
 20
1690.884714232345
 30
0.0
 11
2433.223950192256
 21
2230.884714232345
 31
0.0
  0
LINE
  5
7CBE
330
19
100
AcDbEntity
  8
1
100
AcDbLine
 10
2534.223950192257
 20
1690.884714232345
 30
0.0
 11
2534.223950192257
 21
2230.884714232345
 31
0.0
  0
LINE
  5
7CBF
330
19
100
AcDbEntity
  8
1
100
AcDbLine
 10
2534.223950192256
 20
2230.884714232345
 30
0.0
 11
2433.223950192257
 21
2230.884714232345
 31
0.0
  0
LINE
  5
7CC0
330
19
100
AcDbEntity
  8
1
100
AcDbLine
 10
2534.223950192256
 20
2080.884714232345
 30
0.0
 11
2433.223950192257
 21
2080.884714232345
 31
0.0
  0
LINE
  5
7CC1
330
19
100
AcDbEntity
  8
1
100
AcDbLine
 10
2534.223950192256
 20
1690.884714232345
 30
0.0
 11
2433.223950192257
 21
1690.884714232345
 31
0.0
  0
LINE
  5
7CC2
330
19
100
AcDbEntity
  8
1
100
AcDbLine
 10
2534.223950192256
 20
1910.884714232346
 30
0.0
 11
2433.223950192257
 21
1910.884714232346
 31
0.0
  0
DIMENSION
  5
7CC3
330
19
100
AcDbEntity
  8
3
100
AcDbDimension
280
     0
  2
*D8
 10
2343.723950192256
 20
2770.78798225641
 30
0.0
 11
2673.723950192257
 21
2826.502267970696
 31
0.0
 70
    32
  1
(<>)
 71
     5
 42
660.0000000000004
 73
     0
 74
     0
 75
     0
  3
MATSU
100
AcDbAlignedDimension
 13
3003.723950192257
 23
2735.305801544355
 33
0.0
 14
2343.723950192256
 24
2305.884714232345
 34
0.0
100
AcDbRotatedDimension
1001
ACAD
1000
DSTYLE
1002
{
1070
    40
1040
20.0
1002
}
  0
LINE
  5
7CC4
330
19
100
AcDbEntity
  8
1
100
AcDbLine
 10
3003.723950192258
 20
2722.936776582574
 30
0.0
 11
3003.723950192257
 21
2735.305801544355
 31
0.0
  0
LINE
  5
7CC5
330
19
100
AcDbEntity
  8
1
100
AcDbLine
 10
2668.723950192257
 20
1962.884714232346
 30
0.0
 11
2543.223950192257
 21
1962.884714232346
 31
0.0
  0
LINE
  5
7CC6
330
19
100
AcDbEntity
  8
1
100
AcDbLine
 10
2668.723950192257
 20
1638.884714232346
 30
0.0
 11
2543.223950192257
 21
1638.884714232346
 31
0.0
  0
LINE
  5
7CC7
330
19
100
AcDbEntity
  8
1
100
AcDbLine
 10
2543.223950192257
 20
1779.884714232345
 30
0.0
 11
2534.223950192256
 21
1779.884714232345
 31
0.0
  0
LINE
  5
7CC8
330
19
100
AcDbEntity
  8
1
100
AcDbLine
 10
2543.223950192257
 20
1821.884714232346
 30
0.0
 11
2534.223950192258
 21
1821.884714232346
 31
0.0
  0
LINE
  5
7CC9
330
19
100
AcDbEntity
  8
1
100
AcDbLine
 10
2543.223950192257
 20
1962.884714232346
 30
0.0
 11
2543.223950192257
 21
1638.884714232345
 31
0.0
  0
DIMENSION
  5
7CCA
330
19
100
AcDbEntity
  8
3
100
AcDbDimension
280
     0
  2
*D9
 10
1925.803372048886
 20
3457.440673453876
 30
0.0
 11
1885.803372048886
 21
3877.440673453877
 31
0.0
 12
-865.9916800387145
 22
802.14670095793
 32
0.0
 70
    32
 71
     5
 42
-1.0
 73
     0
 74
     0
 75
     0
  3
MATSU
100
AcDbAlignedDimension
 13
1699.350431794305
 23
4297.440673453876
 33
0.0
 14
1699.350431794305
 24
3457.440673453876
 34
0.0
 50
90.0
100
AcDbRotatedDimension
1001
ACAD
1000
DSTYLE
1002
{
1070
    40
1040
20.0
1002
}
  0
DIMENSION
  5
7CCB
330
19
100
AcDbEntity
  8
3
100
AcDbDimension
280
     0
  2
*D10
 10
373.7497986367307
 20
3457.440673453876
 30
0.0
 11
333.7497986367307
 21
3757.440673453876
 31
0.0
 12
-865.9916800387145
 22
802.14670095793
 32
0.0
 70
    32
 71
     5
 42
-1.0
 73
     0
 74
     0
 75
     0
  3
MATSU
100
AcDbAlignedDimension
 13
559.3504317943042
 23
4057.440673453875
 33
0.0
 14
559.3504317943048
 24
3457.440673453876
 34
0.0
 50
90.0
100
AcDbRotatedDimension
1001
ACAD
1000
DSTYLE
1002
{
1070
    40
1040
20.0
1002
}
  0
DIMENSION
  5
7CCC
330
19
100
AcDbEntity
  8
3
100
AcDbDimension
280
     0
  2
*D11
 10
1699.350431794305
 20
3179.947495166607
 30
0.0
 11
1129.350431794305
 21
3219.947495166606
 31
0.0
 12
-865.9916800387145
 22
802.14670095793
 32
0.0
 70
    32
 71
     5
 42
-1.0
 73
     0
 74
     0
 75
     0
  3
MATSU
100
AcDbAlignedDimension
 13
559.3504317943048
 23
3457.440673453876
 33
0.0
 14
1699.350431794305
 24
3457.440673453876
 34
0.0
100
AcDbRotatedDimension
1001
ACAD
1000
DSTYLE
1002
{
1070
    40
1040
20.0
1002
}
  0
DIMENSION
  5
7CCD
330
19
100
AcDbEntity
  8
3
100
AcDbDimension
280
     0
  2
*D12
 10
3554.583087284091
 20
1905.884714232345
 30
0.0
 11
3514.583087284091
 21
2155.884714232346
 31
0.0
 12
-865.9916800387145
 22
802.14670095793
 32
0.0
 70
    32
 71
     5
 42
-1.0
 73
     0
 74
     0
 75
     0
  3
MATSU
100
AcDbAlignedDimension
 13
3338.723950192257
 23
2405.884714232346
 33
0.0
 14
3338.723950192256
 24
1905.884714232345
 34
0.0
 50
90.0
100
AcDbRotatedDimension
1001
ACAD
1000
DSTYLE
1002
{
1070
    40
1040
20.0
1070
     3
1000
φ<>
1002
}
  0
DIMENSION
  5
7CD4
330
19
100
AcDbEntity
  8
3
100
AcDbDimension
280
     0
  2
*D13
 10
1069.350431794304
 20
4438.15689832854
 30
0.0
 11
1384.350431794304
 21
4478.15689832854
 31
0.0
 12
-865.9916800387145
 22
802.14670095793
 32
0.0
 70
    32
 71
     5
 42
-1.0
 73
     0
 74
     0
 75
     0
  3
MATSU
100
AcDbAlignedDimension
 13
1699.350431794305
 23
4297.440673453876
 33
0.0
 14
1069.350431794304
 24
4297.440673453876
 34
0.0
100
AcDbRotatedDimension
1001
ACAD
1000
DSTYLE
1002
{
1070
    40
1040
20.0
1002
}
  0
DIMENSION
  5
7CD5
330
19
100
AcDbEntity
  8
3
100
AcDbDimension
280
     0
  2
*D14
 10
559.3504317943042
 20
4438.15689832854
 30
0.0
 11
814.3504317943042
 21
4478.15689832854
 31
0.0
 12
-865.9916800387145
 22
802.14670095793
 32
0.0
 70
    32
 71
     5
 42
-1.0
 73
     0
 74
     0
 75
     0
  3
MATSU
100
AcDbAlignedDimension
 13
1069.350431794304
 23
4297.440673453876
 33
0.0
 14
559.3504317943042
 24
4057.440673453875
 34
0.0
100
AcDbRotatedDimension
1001
ACAD
1000
DSTYLE
1002
{
1070
    40
1040
20.0
1002
}
  0
LINE
  5
7CD6
330
19
100
AcDbEntity
  8
1
100
AcDbLine
 10
2563.723950192257
 20
2254.597724040455
 30
0.0
 11
2563.723950192257
 21
2305.884714232345
 31
0.0
  0
CIRCLE
  5
7CD7
330
19
100
AcDbEntity
  8
1
100
AcDbCircle
 10
1384.350431794305
 20
2155.884714232346
 30
0.0
 40
267.5
  0
LINE
  5
7CD8
330
19
100
AcDbEntity
  8
1
100
AcDbLine
 10
1699.350431794305
 20
3584.440673453876
 30
0.0
 11
1699.350431794305
 21
3457.440673453876
 31
0.0
  0
DIMENSION
  5
7CD9
330
19
100
AcDbEntity
  8
3
100
AcDbDimension
280
     0
  2
*D15
 10
559.3504317943052
 20
2748.83894951563
 30
0.0
 11
1151.850431794305
 21
2788.83894951563
 31
0.0
 12
-865.9916800387145
 22
802.14670095793
 32
0.0
 70
    32
 71
     5
 42
-1.0
 73
     0
 74
     0
 75
     0
  3
MATSU
100
AcDbAlignedDimension
 13
1744.350431794305
 23
2150.680746908912
 33
0.0
 14
559.3504317943052
 24
1590.884714232345
 34
0.0
100
AcDbRotatedDimension
1001
ACAD
1000
DSTYLE
1002
{
1070
    40
1040
20.0
1002
}
  0
LINE
  5
7CDC
330
19
100
AcDbEntity
  8
1
100
AcDbLine
 10
3338.723950192256
 20
1617.884714232345
 30
0.0
 11
2668.723950192257
 21
1617.884714232345
 31
0.0
  0
LINE
  5
7CDD
330
19
100
AcDbEntity
  8
1
100
AcDbLine
 10
3338.723950192256
 20
2129.884714232345
 30
0.0
 11
2668.723950192257
 21
2129.884714232345
 31
0.0
  0
LINE
  5
7CDE
330
19
100
AcDbEntity
  8
1
100
AcDbLine
 10
3338.723950192257
 20
2129.884714232345
 30
0.0
 11
2668.723950192256
 21
1617.884714232345
 31
0.0
  0
LINE
  5
7CDF
330
19
100
AcDbEntity
  8
1
100
AcDbLine
 10
2668.723950192257
 20
2129.884714232345
 30
0.0
 11
2887.259106442257
 21
1962.884714232346
 31
0.0
  0
LINE
  5
7CE0
330
19
100
AcDbEntity
  8
1
100
AcDbLine
 10
647.6199160927063
 20
2003.067348615555
 30
0.0
 11
1325.215989270488
 21
2293.736510402716
 31
0.0
  0
LINE
  5
7CE1
330
19
100
AcDbEntity
  8
1
100
AcDbLine
 10
1468.369792963581
 20
2031.623912091418
 30
0.0
 11
857.5788281759097
 21
1618.635537758985
 31
0.0
  0
LINE
  5
7CE2
330
19
100
AcDbEntity
  8
1
100
AcDbLine
 10
1351.551831363762
 20
2223.332855865734
 30
0.0
 11
686.2458178295091
 21
1899.808655294648
 31
0.0
  0
LINE
  5
7CE3
330
19
100
AcDbEntity
  8
1
100
AcDbLine
 10
1423.370261886212
 20
2091.834321106317
 30
0.0
 11
791.5795159291028
 21
1706.944137647505
 31
0.0
  0
LINE
  5
7CE4
330
19
100
AcDbEntity
  8
1
100
AcDbLine
 10
2668.723950192257
 20
1617.884714232345
 30
0.0
 11
2668.723950192257
 21
2516.884714232345
 31
0.0
  0
LINE
  5
7CE5
330
19
100
AcDbEntity
  8
1
100
AcDbLine
 10
2887.259106442258
 20
1962.884714232346
 30
0.0
 11
3338.723950192256
 21
1617.884714232345
 31
0.0
  0
LINE
  5
7F2B
330
19
100
AcDbEntity
  8
4
100
AcDbLine
 10
3700.0
 20
1000.0
 30
0.0
 11
3700.0
 21
600.0
 31
0.0
  0
LINE
  5
7F2C
330
19
100
AcDbEntity
  8
4
100
AcDbLine
 10
2300.0
 20
1000.0
 30
0.0
 11
2300.0
 21
600.0
 31
0.0
  0
LINE
  5
7F2D
330
19
100
AcDbEntity
  8
4
100
AcDbLine
 10
1300.0
 20
1000.0
 30
0.0
 11
1300.0
 21
600.0
 31
0.0
  0
LINE
  5
7F30
330
19
100
AcDbEntity
  8
4
100
AcDbLine
 10
1300.0
 20
600.0
 30
0.0
 11
3700.0
 21
600.0
 31
0.0
  0
LINE
  5
7F31
330
19
100
AcDbEntity
  8
4
100
AcDbLine
 10
1300.0
 20
800.0
 30
0.0
 11
3700.0
 21
800.0
 31
0.0
  0
TEXT
  5
7F32
330
19
100
AcDbEntity
  8
4
100
AcDbText
 10
1377.004161693803
 20
863.0860517332257
 30
0.0
 40
100.0
  1
機器名称
100
AcDbText
  0
TEXT
  5
7F33
330
19
100
AcDbEntity
  8
4
100
AcDbText
 10
1372.516212049595
 20
643.2903134640219
 30
0.0
 40
100.0
  1
機器型番
100
AcDbText
  0
TEXT
  5
7F34
330
19
100
AcDbEntity
  8
4
100
AcDbText
 10
2369.030117789544
 20
852.3760038199922
 30
0.0
 40
80.0
  1
ミツヤリミットロードファン
100
AcDbText
  0
TEXT
  5
7F35
330
19
100
AcDbEntity
  8
4
100
AcDbText
 10
2373.308991170961
 20
634.3191685598867
 30
0.0
 40
100.0
  1
LL#3-5
100
AcDbText
  0
TEXT
  5
7F37
330
19
100
AcDbEntity
  8
4
100
AcDbText
 10
1619.475793773494
 20
4766.857682665031
 30
0.0
 40
108.0
  1
床置防振ベット
100
AcDbText
  0
TEXT
  5
7F38
330
19
100
AcDbEntity
  8
4
100
AcDbText
 10
632.3351866588928
 20
5067.761952398596
 30
0.0
 40
144.0
  1
遠心式両吸込両持リミットロードファン
100
AcDbText
  0
LINE
  5
7F39
330
19
100
AcDbEntity
  8
4
100
AcDbLine
 10
500.0
 20
4938.817508529609
 30
0.0
 11
3700.0
 21
4938.817508529609
 31
0.0
  0
LINE
  5
7F3A
330
19
100
AcDbEntity
  8
4
100
AcDbLine
 10
500.0
 20
5338.81750852961
 30
0.0
 11
3700.0
 21
5338.81750852961
 31
0.0
  0
LINE
  5
7F3B
330
19
100
AcDbEntity
  8
4
100
AcDbLine
 10
1300.0
 20
1000.0
 30
0.0
 11
3700.0
 21
1000.0
 31
0.0
  0
LINE
  5
7F3C
330
19
100
AcDbEntity
  8
4
100
AcDbLine
 10
500.0
 20
5338.81750852961
 30
0.0
 11
500.0
 21
4938.817508529609
 31
0.0
  0
TEXT
  5
7F3D
330
19
100
AcDbEntity
  8
4
100
AcDbText
 10
747.7581292880895
 20
4764.638955092687
 30
0.0
 40
108.0
  1
左回転右横向
100
AcDbText
  0
TEXT
  5
7F3E
330
19
100
AcDbEntity
  8
4
100
AcDbText
 10
2937.93911849858
 20
5412.122162990618
 30
0.0
 40
112.0
  1
No.
100
AcDbText
  0
TEXT
  5
7F3F
330
19
100
AcDbEntity
  8
4
100
AcDbText
 10
2622.592125200026
 20
4766.857682665031
 30
0.0
 40
108.0
  1
縮尺：1/20
100
AcDbText
  0
LINE
  5
7F40
330
19
100
AcDbEntity
  8
4
100
AcDbLine
 10
3700.0
 20
5338.81750852961
 30
0.0
 11
3700.0
 21
4938.817508529609
 31
0.0
  0
LINE
  5
7F41
330
19
100
AcDbEntity
  8
4
100
AcDbLine
 10
4200.0
 20
5900.0
 30
0.0
 11
4200.0
 21
5900.0
 31
0.0
  0
LINE
  5
7F42
330
19
100
AcDbEntity
  8
4
100
AcDbLine
 10
2881.234844719729
 20
5362.527166250802
 30
0.0
 11
2881.234844719729
 21
5573.304523099505
 31
0.0
  0
LINE
  5
7F43
330
19
100
AcDbEntity
  8
4
100
AcDbLine
 10
2881.234844719729
 20
5573.304523099505
 30
0.0
 11
3700.0
 21
5573.304523099505
 31
0.0
  0
LINE
  5
7F44
330
19
100
AcDbEntity
  8
4
100
AcDbLine
 10
3700.0
 20
5573.304523099505
 30
0.0
 11
3700.0
 21
5362.527166250802
 31
0.0
  0
LINE
  5
7F45
330
19
100
AcDbEntity
  8
4
100
AcDbLine
 10
3700.0
 20
5362.527166250802
 30
0.0
 11
2881.234844719729
 21
5362.527166250802
 31
0.0
  0
LINE
  5
7F46
330
19
100
AcDbEntity
  8
4
100
AcDbLine
 10
0.0
 20
0.0
 30
0.0
 11
0.0
 21
5900.0
 31
0.0
  0
LINE
  5
7F47
330
19
100
AcDbEntity
  8
4
100
AcDbLine
 10
0.0
 20
5900.0
 30
0.0
 11
4200.0
 21
5900.0
 31
0.0
  0
LINE
  5
7F48
330
19
100
AcDbEntity
  8
4
100
AcDbLine
 10
4200.0
 20
5900.0
 30
0.0
 11
4200.0
 21
0.0
 31
0.0
  0
LINE
  5
7F49
330
19
100
AcDbEntity
  8
4
100
AcDbLine
 10
4200.0
 20
0.0
 30
0.0
 11
0.0
 21
0.0
 31
0.0
  0
DIMENSION
  5
7F8B
330
19
100
AcDbEntity
  8
3
100
AcDbDimension
280
     0
  2
*D16
 10
2117.358267279522
 20
1403.884714232345
 30
0.0
 11
2067.358267279522
 21
1255.313285660917
 31
0.0
 70
    32
 71
     5
 42
-1.0
 73
     0
 74
     0
 75
     0
  3
IGA
100
AcDbAlignedDimension
 13
1699.350431794305
 23
1478.884714232346
 33
0.0
 14
1699.350431794304
 24
1403.884714232345
 34
0.0
 50
90.0
100
AcDbRotatedDimension
1001
ACAD
1000
DSTYLE
1002
{
1070
   287
1070
     3
1070
    40
1040
20.0
1070
   143
1040
0.039
1070
   172
1070
     1
1070
   271
1070
     0
1070
   279
1070
     0
1070
   288
1070
     1
1070
     6
1000
DOT
1002
}
  0
DIMENSION
  5
802A
330
19
100
AcDbEntity
  8
3
100
AcDbDimension
280
     0
  2
*D18
 10
1384.350431794305
 20
1269.932156191136
 30
0.0
 11
971.8504317943054
 21
1319.932156191136
 31
0.0
 70
    32
 71
     5
 42
-1.0
 73
     0
 74
     0
 75
     0
  3
IGA
100
AcDbAlignedDimension
 13
559.3504317943052
 23
1403.884714232345
 33
0.0
 14
1384.350431794305
 24
1403.884714232345
 34
0.0
100
AcDbRotatedDimension
1001
ACAD
1000
DSTYLE
1002
{
1070
   172
1070
     1
1070
    40
1040
20.0
1070
   271
1070
     0
1070
   143
1040
0.039
1002
}
  0
DIMENSION
  5
8037
330
19
100
AcDbEntity
  8
3
100
AcDbDimension
280
     0
  2
*D19
 10
1699.350431794304
 20
1269.932156191136
 30
0.0
 11
1541.850431794305
 21
1319.932156191136
 31
0.0
 70
    32
 71
     5
 42
-1.0
 73
     0
 74
     0
 75
     0
  3
IGA
100
AcDbAlignedDimension
 13
1384.350431794305
 23
1403.884714232345
 33
0.0
 14
1699.350431794304
 24
1403.884714232345
 34
0.0
100
AcDbRotatedDimension
1001
ACAD
1000
DSTYLE
1002
{
1070
   172
1070
     1
1070
    40
1040
20.0
1070
   271
1070
     0
1070
   143
1040
0.039
1002
}
  0
DIMENSION
  5
8044
330
19
100
AcDbEntity
  8
3
100
AcDbDimension
280
     0
  2
*D20
 10
3003.723950192256
 20
1269.932156191136
 30
0.0
 11
2772.723950192256
 21
1319.932156191136
 31
0.0
 70
    32
 71
     5
 42
-1.0
 73
     0
 74
     0
 75
     0
  3
IGA
100
AcDbAlignedDimension
 13
2541.723950192257
 23
1403.884714232346
 33
0.0
 14
3003.723950192256
 24
1403.884714232346
 34
0.0
100
AcDbRotatedDimension
1001
ACAD
1000
DSTYLE
1002
{
1070
   172
1070
     1
1070
    40
1040
20.0
1070
   271
1070
     0
1070
   143
1040
0.039
1002
}
  0
DIMENSION
  5
8051
330
19
100
AcDbEntity
  8
3
100
AcDbDimension
280
     0
  2
*D21
 10
3381.723950192257
 20
1269.932156191136
 30
0.0
 11
3192.723950192257
 21
1319.932156191136
 31
0.0
 70
    32
 71
     5
 42
-1.0
 73
     0
 74
     0
 75
     0
  3
IGA
100
AcDbAlignedDimension
 13
3003.723950192256
 23
1403.884714232346
 33
0.0
 14
3381.723950192257
 24
1403.884714232346
 34
0.0
100
AcDbRotatedDimension
1001
ACAD
1000
DSTYLE
1002
{
1070
   172
1070
     1
1070
    40
1040
20.0
1070
   271
1070
     0
1070
   143
1040
0.039
1002
}
  0
DIMENSION
  5
8060
330
19
100
AcDbEntity
  8
3
100
AcDbDimension
280
     0
  2
*D23
 10
2116.883837906033
 20
1515.884714232345
 30
0.0
 11
2212.598123620319
 21
1497.384714232345
 31
0.0
 70
    32
 71
     5
 42
-1.0
 73
     0
 74
     0
 75
     0
  3
IGA
100
AcDbAlignedDimension
 13
1699.350431794304
 23
1478.884714232346
 33
0.0
 14
1699.350431794304
 24
1515.884714232345
 34
0.0
 50
90.0
100
AcDbRotatedDimension
1001
ACAD
1000
DSTYLE
1002
{
1070
   172
1070
     1
1070
    76
1070
     1
1070
    75
1070
     1
1070
    40
1040
20.0
1070
     3
1000
(<>)
1070
   271
1070
     0
1070
     7
1000
_NONE
1070
     6
1000
_NONE
1070
   143
1040
0.039
1002
}
  0
DIMENSION
  5
806E
330
19
100
AcDbEntity
  8
3
100
AcDbDimension
280
     0
  2
*D24
 10
2118.51389641425
 20
2155.884714232346
 30
0.0
 11
2068.51389641425
 21
2336.384714232345
 31
0.0
 70
    32
 71
     5
 42
-1.0
 73
     0
 74
     0
 75
     0
  3
IGA
100
AcDbAlignedDimension
 13
1313.369593658137
 23
2516.884714232345
 33
0.0
 14
1764.840625798183
 24
2155.884714232346
 34
0.0
 50
90.0
100
AcDbRotatedDimension
1001
ACAD
1000
DSTYLE
1002
{
1070
   172
1070
     1
1070
    40
1040
20.0
1070
   271
1070
     0
1070
   143
1040
0.039
1002
}
  0
DIMENSION
  5
807B
330
19
100
AcDbEntity
  8
3
100
AcDbDimension
280
     0
  2
*D25
 10
2274.18688495511
 20
1403.884714232345
 30
0.0
 11
2208.472599240824
 21
1960.384714232345
 31
0.0
 70
    32
 71
     5
 42
-1.0
 73
     0
 74
     0
 75
     0
  3
IGA
100
AcDbAlignedDimension
 13
1323.369593658138
 23
2516.884714232345
 33
0.0
 14
1699.350431794304
 24
1403.884714232345
 34
0.0
 50
90.0
100
AcDbRotatedDimension
1001
ACAD
1000
DSTYLE
1002
{
1070
   172
1070
     1
1070
    40
1040
20.0
1070
     3
1000
(<>)
1070
   271
1070
     0
1070
   143
1040
0.039
1002
}
  0
ENDSEC
  0
SECTION
  2
OBJECTS
  0
DICTIONARY
  5
C
330
0
100
AcDbDictionary
281
     1
  3
ACAD_CIP_PREVIOUS_PRODUCT_INFO
350
8126
  3
ACAD_COLOR
350
8109
  3
ACAD_DETAILVIEWSTYLE
350
8122
  3
ACAD_GROUP
350
D
  3
ACAD_LAYOUT
350
8084
  3
ACAD_MATERIAL
350
80D7
  3
ACAD_MLEADERSTYLE
350
811E
  3
ACAD_MLINESTYLE
350
E
  3
ACAD_PLOTSETTINGS
350
8085
  3
ACAD_PLOTSTYLENAME
350
8082
  3
ACAD_SCALELIST
350
810C
  3
ACAD_SECTIONVIEWSTYLE
350
8120
  3
ACAD_TABLESTYLE
350
810A
  3
ACAD_VISUALSTYLE
350
80F0
  3
ACDB_RECOMPOSE_DATA
350
81A9
  3
AcDbVariableDictionary
350
8198
  3
AcDsDecomposeData
350
81AF
  0
DICTIONARY
  5
8176
330
2
100
AcDbDictionary
280
     1
281
     1
  3
ACAD_LAYERSTATES
360
8177
  0
DICTIONARY
  5
8169
330
F
100
AcDbDictionary
280
     1
281
     1
  3
ADSK_XREC_LAYER_RECONCILED
360
816A
  0
DICTIONARY
  5
816B
330
31
100
AcDbDictionary
280
     1
281
     1
  3
ADSK_XREC_LAYER_RECONCILED
360
816C
  0
DICTIONARY
  5
816D
330
76D0
100
AcDbDictionary
280
     1
281
     1
  3
ADSK_XREC_LAYER_RECONCILED
360
816E
  0
DICTIONARY
  5
816F
330
76D1
100
AcDbDictionary
280
     1
281
     1
  3
ADSK_XREC_LAYER_RECONCILED
360
8170
  0
DICTIONARY
  5
8171
330
76D2
100
AcDbDictionary
280
     1
281
     1
  3
ADSK_XREC_LAYER_RECONCILED
360
8172
  0
DICTIONARY
  5
80B1
330
19
100
AcDbDictionary
280
     1
281
     1
  3
ACAD_LAYOUTSELFREF
360
80B2
  0
DICTIONARY
  5
80AF
330
16
100
AcDbDictionary
280
     1
281
     1
  3
ACAD_LAYOUTSELFREF
360
80B0
  0
XRECORD
  5
8126
102
{ACAD_REACTORS
330
C
102
}
330
C
100
AcDbXrecord
280
     1
300
ACDLT
300
2023
300

  0
DICTIONARY
  5
8109
102
{ACAD_REACTORS
330
C
102
}
330
C
100
AcDbDictionary
281
     1
  0
DICTIONARY
  5
8122
102
{ACAD_REACTORS
330
C
102
}
330
C
100
AcDbDictionary
281
     1
  3
Metric50
350
8123
  0
DICTIONARY
  5
D
102
{ACAD_REACTORS
330
C
102
}
330
C
100
AcDbDictionary
281
     1
  0
DICTIONARY
  5
8084
102
{ACAD_REACTORS
330
C
102
}
330
C
100
AcDbDictionary
281
     1
  3
Model
350
8086
  3
ﾚｲｱｳﾄ1
350
8087
  0
DICTIONARY
  5
80D7
102
{ACAD_REACTORS
330
C
102
}
330
C
100
AcDbDictionary
281
     1
  3
ByBlock
350
80E0
  3
ByLayer
350
80D8
  3
Global
350
80E8
  0
DICTIONARY
  5
811E
102
{ACAD_REACTORS
330
C
102
}
330
C
100
AcDbDictionary
281
     1
  3
Standard
350
811F
  0
DICTIONARY
  5
E
102
{ACAD_REACTORS
330
C
102
}
330
C
100
AcDbDictionary
281
     1
  3
STANDARD
350
1C
  0
DICTIONARY
  5
8085
102
{ACAD_REACTORS
330
C
102
}
330
C
100
AcDbDictionary
281
     1
  0
ACDBDICTIONARYWDFLT
  5
8082
102
{ACAD_REACTORS
330
C
102
}
330
C
100
AcDbDictionary
281
     1
  3
Normal
350
8083
100
AcDbDictionaryWithDefault
340
8083
  0
DICTIONARY
  5
810C
102
{ACAD_REACTORS
330
C
102
}
330
C
100
AcDbDictionary
281
     1
  3
A0
350
810D
  3
A1
350
810E
  3
A2
350
810F
  3
A3
350
8110
  3
A4
350
8111
  3
A5
350
8112
  3
A6
350
8113
  3
A7
350
8114
  3
A8
350
8115
  3
A9
350
8116
  3
B0
350
8117
  3
B1
350
8118
  3
B2
350
8119
  3
B3
350
811A
  3
B4
350
811B
  3
B5
350
811C
  3
B6
350
811D
  0
DICTIONARY
  5
8120
102
{ACAD_REACTORS
330
C
102
}
330
C
100
AcDbDictionary
281
     1
  3
Metric50
350
8121
  0
DICTIONARY
  5
810A
102
{ACAD_REACTORS
330
C
102
}
330
C
100
AcDbDictionary
281
     1
  3
Standard
350
810B
  0
DICTIONARY
  5
80F0
102
{ACAD_REACTORS
330
C
102
}
330
C
100
AcDbDictionary
281
     1
  3
2dWireframe
350
80F6
  3
Basic
350
80F5
  3
Brighten
350
80FC
  3
ColorChange
350
8100
  3
Conceptual
350
80F9
  3
Dim
350
80FB
  3
EdgeColorOff
350
8108
  3
Facepattern
350
80FF
  3
Flat
350
80F1
  3
FlatWithEdges
350
80F2
  3
Gouraud
350
80F3
  3
GouraudWithEdges
350
80F4
  3
Hidden
350
80F8
  3
JitterOff
350
8106
  3
Linepattern
350
80FE
  3
OverhangOff
350
8107
  3
Realistic
350
80FA
  3
Shaded
350
8105
  3
Shaded with edges
350
8104
  3
Shades of Gray
350
8101
  3
Sketchy
350
8102
  3
Thicken
350
80FD
  3
Wireframe
350
80F7
  3
X-Ray
350
8103
  0
XRECORD
  5
81A9
102
{ACAD_REACTORS
330
C
102
}
330
C
100
AcDbXrecord
280
     1
 90
        1
330
810B
  0
DICTIONARY
  5
8198
102
{ACAD_REACTORS
330
C
102
}
330
C
100
AcDbDictionary
281
     1
  3
CANNOSCALE
350
819E
  3
CMLEADERSTYLE
350
819A
  3
CTABLESTYLE
350
8199
  3
CVIEWDETAILSTYLE
350
819B
  3
CVIEWSECTIONSTYLE
350
819C
  3
LAYEREVAL
350
81A0
  3
LAYERNOTIFY
350
81A1
  3
LIGHTINGUNITS
350
819F
  3
MARKUPASSISTMODE
350
81A6
  3
MSLTSCALE
350
819D
  0
DICTIONARY
  5
81AF
102
{ACAD_REACTORS
330
C
102
}
330
C
100
AcDbDictionary
281
     1
  3
AcDsRecords
350
81B1
  3
AcDsSchemas
350
81B0
1001
ACAD
1070
     2
  0
DICTIONARY
  5
8177
102
{ACAD_REACTORS
330
8176
102
}
330
8176
100
AcDbDictionary
281
     1
  0
XRECORD
  5
816A
102
{ACAD_REACTORS
330
8169
102
}
330
8169
100
AcDbXrecord
280
     1
290
     1
  0
XRECORD
  5
816C
102
{ACAD_REACTORS
330
816B
102
}
330
816B
100
AcDbXrecord
280
     1
290
     1
  0
XRECORD
  5
816E
102
{ACAD_REACTORS
330
816D
102
}
330
816D
100
AcDbXrecord
280
     1
290
     1
  0
XRECORD
  5
8170
102
{ACAD_REACTORS
330
816F
102
}
330
816F
100
AcDbXrecord
280
     1
290
     1
  0
XRECORD
  5
8172
102
{ACAD_REACTORS
330
8171
102
}
330
8171
100
AcDbXrecord
280
     1
290
     1
  0
XRECORD
  5
80B2
102
{ACAD_REACTORS
330
80B1
102
}
330
80B1
100
AcDbXrecord
280
     1
340
19
  0
XRECORD
  5
80B0
102
{ACAD_REACTORS
330
80AF
102
}
330
80AF
100
AcDbXrecord
280
     1
340
16
  0
ACDBDETAILVIEWSTYLE
  5
8123
102
{ACAD_XDICTIONARY
360
81B4
102
}
102
{ACAD_REACTORS
330
8122
102
}
330
8122
100
AcDbModelDocViewStyle
 70
     0
  3
Metric50
290
     0
100
AcDbDetailViewStyle
 70
     0
 71
     0
 90
        3
 71
     1
340
10
 62
   256
 40
5.0
340
0
 62
   256
 40
5.0
300

 40
0.0
280
     1
 71
     2
340
15
 90
       25
 62
   256
 71
     3
340
10
 62
   256
 40
5.0
 90
        0
 40
15.0
 90
        1
300
%<\AcVar ViewDetailId>% (%<\AcVar ViewScale \f "%sn">%)
 71
     4
340
15
 90
       25
 62
   256
340
15
 90
       25
 62
   256
280
     0
  0
LAYOUT
  5
8086
102
{ACAD_REACTORS
330
8084
102
}
330
8084
100
AcDbPlotSettings
  1

  2
EPSON LP-9300
  4

  6

 40
0.0
 41
0.0
 42
0.0
 43
0.0
 44
0.0
 45
0.0
 46
0.0
 47
0.0
 48
0.0
 49
0.0
140
0.0
141
0.0
142
1.0
143
1.0
 70
  1712
 72
     0
 73
     0
 74
     0
  7

 75
     0
147
1.0
 76
     0
 77
     2
 78
   300
148
0.0
149
0.0
100
AcDbLayout
  1
Model
 70
     1
 71
     0
 10
0.0
 20
0.0
 11
12.0
 21
9.0
 12
0.0
 22
0.0
 32
0.0
 14
0.0
 24
0.0
 34
0.0
 15
0.0
 25
0.0
 35
0.0
146
0.0
 13
0.0
 23
0.0
 33
0.0
 16
1.0
 26
0.0
 36
0.0
 17
0.0
 27
1.0
 37
0.0
 76
     0
330
19
331
80D5
  0
LAYOUT
  5
8087
102
{ACAD_REACTORS
330
8084
102
}
330
8084
100
AcDbPlotSettings
  1

  2
EPSON LP-9300
  4

  6

 40
0.0
 41
0.0
 42
0.0
 43
0.0
 44
0.0
 45
0.0
 46
0.0
 47
0.0
 48
0.0
 49
0.0
140
0.0
141
0.0
142
1.0
143
1.0
 70
   688
 72
     0
 73
     0
 74
     5
  7

 75
    16
147
1.0
 76
     0
 77
     2
 78
   300
148
0.0
149
0.0
100
AcDbLayout
  1
ﾚｲｱｳﾄ1
 70
     1
 71
     1
 10
0.0
 20
0.0
 11
12.0
 21
9.0
 12
0.0
 22
0.0
 32
0.0
 14
1.000000000000000E+20
 24
1.000000000000000E+20
 34
1.000000000000000E+20
 15
-1.000000000000000E+20
 25
-1.000000000000000E+20
 35
-1.000000000000000E+20
146
0.0
 13
0.0
 23
0.0
 33
0.0
 16
1.0
 26
0.0
 36
0.0
 17
0.0
 27
1.0
 37
0.0
 76
     0
330
16
  0
MATERIAL
  5
80E0
102
{ACAD_XDICTIONARY
360
80E1
102
}
102
{ACAD_REACTORS
330
80D7
102
}
330
80D7
100
AcDbMaterial
  1
ByBlock
 72
     0
 43
0.0208333333333333
 43
0.0
 43
0.0
 43
0.0
 43
0.0
 43
0.0208333333333333
 43
0.0
 43
0.0
 43
0.0
 43
0.0
 43
1.0
 43
0.0
 43
0.0
 43
0.0
 43
0.0
 43
1.0
 77
     0
 47
0.0208333333333333
 47
0.0
 47
0.0
 47
0.0
 47
0.0
 47
0.0208333333333333
 47
0.0
 47
0.0
 47
0.0
 47
0.0
 47
1.0
 47
0.0
 47
0.0
 47
0.0
 47
0.0
 47
1.0
171
     0
 49
0.0208333333333333
 49
0.0
 49
0.0
 49
0.0
 49
0.0
 49
0.0208333333333333
 49
0.0
 49
0.0
 49
0.0
 49
0.0
 49
1.0
 49
0.0
 49
0.0
 49
0.0
 49
0.0
 49
1.0
175
     0
142
0.0208333333333333
142
0.0
142
0.0
142
0.0
142
0.0
142
0.0208333333333333
142
0.0
142
0.0
142
0.0
142
0.0
142
1.0
142
0.0
142
0.0
142
0.0
142
0.0
142
1.0
179
     0
144
0.0208333333333333
144
0.0
144
0.0
144
0.0
144
0.0
144
0.0208333333333333
144
0.0
144
0.0
144
0.0
144
0.0
144
1.0
144
0.0
144
0.0
144
0.0
144
0.0
144
1.0
147
0.0208333333333333
147
0.0
147
0.0
147
0.0
147
0.0
147
0.0208333333333333
147
0.0
147
0.0
147
0.0
147
0.0
147
1.0
147
0.0
147
0.0
147
0.0
147
0.0
147
1.0
  0
MATERIAL
  5
80D8
102
{ACAD_XDICTIONARY
360
80D9
102
}
102
{ACAD_REACTORS
330
80D7
102
}
330
80D7
100
AcDbMaterial
  1
ByLayer
 72
     0
 43
0.0208333333333333
 43
0.0
 43
0.0
 43
0.0
 43
0.0
 43
0.0208333333333333
 43
0.0
 43
0.0
 43
0.0
 43
0.0
 43
1.0
 43
0.0
 43
0.0
 43
0.0
 43
0.0
 43
1.0
 77
     0
 47
0.0208333333333333
 47
0.0
 47
0.0
 47
0.0
 47
0.0
 47
0.0208333333333333
 47
0.0
 47
0.0
 47
0.0
 47
0.0
 47
1.0
 47
0.0
 47
0.0
 47
0.0
 47
0.0
 47
1.0
171
     0
 49
0.0208333333333333
 49
0.0
 49
0.0
 49
0.0
 49
0.0
 49
0.0208333333333333
 49
0.0
 49
0.0
 49
0.0
 49
0.0
 49
1.0
 49
0.0
 49
0.0
 49
0.0
 49
0.0
 49
1.0
175
     0
142
0.0208333333333333
142
0.0
142
0.0
142
0.0
142
0.0
142
0.0208333333333333
142
0.0
142
0.0
142
0.0
142
0.0
142
1.0
142
0.0
142
0.0
142
0.0
142
0.0
142
1.0
179
     0
144
0.0208333333333333
144
0.0
144
0.0
144
0.0
144
0.0
144
0.0208333333333333
144
0.0
144
0.0
144
0.0
144
0.0
144
1.0
144
0.0
144
0.0
144
0.0
144
0.0
144
1.0
147
0.0208333333333333
147
0.0
147
0.0
147
0.0
147
0.0
147
0.0208333333333333
147
0.0
147
0.0
147
0.0
147
0.0
147
1.0
147
0.0
147
0.0
147
0.0
147
0.0
147
1.0
  0
MATERIAL
  5
80E8
102
{ACAD_XDICTIONARY
360
80E9
102
}
102
{ACAD_REACTORS
330
80D7
102
}
330
80D7
100
AcDbMaterial
  1
Global
 72
     0
 43
0.0208333333333333
 43
0.0
 43
0.0
 43
0.0
 43
0.0
 43
0.0208333333333333
 43
0.0
 43
0.0
 43
0.0
 43
0.0
 43
1.0
 43
0.0
 43
0.0
 43
0.0
 43
0.0
 43
1.0
 77
     0
 47
0.0208333333333333
 47
0.0
 47
0.0
 47
0.0
 47
0.0
 47
0.0208333333333333
 47
0.0
 47
0.0
 47
0.0
 47
0.0
 47
1.0
 47
0.0
 47
0.0
 47
0.0
 47
0.0
 47
1.0
171
     0
 49
0.0208333333333333
 49
0.0
 49
0.0
 49
0.0
 49
0.0
 49
0.0208333333333333
 49
0.0
 49
0.0
 49
0.0
 49
0.0
 49
1.0
 49
0.0
 49
0.0
 49
0.0
 49
0.0
 49
1.0
175
     0
142
0.0208333333333333
142
0.0
142
0.0
142
0.0
142
0.0
142
0.0208333333333333
142
0.0
142
0.0
142
0.0
142
0.0
142
1.0
142
0.0
142
0.0
142
0.0
142
0.0
142
1.0
179
     0
144
0.0208333333333333
144
0.0
144
0.0
144
0.0
144
0.0
144
0.0208333333333333
144
0.0
144
0.0
144
0.0
144
0.0
144
1.0
144
0.0
144
0.0
144
0.0
144
0.0
144
1.0
147
0.0208333333333333
147
0.0
147
0.0
147
0.0
147
0.0
147
0.0208333333333333
147
0.0
147
0.0
147
0.0
147
0.0
147
1.0
147
0.0
147
0.0
147
0.0
147
0.0
147
1.0
  0
MLEADERSTYLE
  5
811F
102
{ACAD_REACTORS
330
811E
102
}
330
811E
100
AcDbMLeaderStyle
179
     2
170
     2
171
     1
172
     0
 90
        2
 40
0.0
 41
0.0
173
     1
 91
-1056964608
340
13
 92
       -2
290
     1
 42
2.0
291
     1
 43
0.36
  3
Standard
 44
4.0
300

342
10
174
     1
178
     6
175
     1
176
     0
 93
-1056964608
 45
4.0
292
     0
297
     0
 46
4.0
 94
-1056964608
 47
1.0
 49
1.0
140
1.0
293
     1
141
0.0
294
     1
177
     0
142
1.0
295
     0
296
     0
143
0.125
271
     0
272
     9
273
     9
298
     1
  0
MLINESTYLE
  5
1C
102
{ACAD_REACTORS
330
E
102
}
330
E
100
AcDbMlineStyle
  2
STANDARD
 70
     0
  3

 62
     0
 51
90.0
 52
90.0
 71
     2
 49
0.5
 62
   256
  6
BYLAYER
 49
-0.5
 62
   256
  6
BYLAYER
  0
ACDBPLACEHOLDER
  5
8083
102
{ACAD_REACTORS
330
8082
102
}
330
8082
  0
SCALE
  5
810D
102
{ACAD_REACTORS
330
810C
102
}
330
810C
100
AcDbScale
 70
     0
300
1:1
140
1.0
141
1.0
290
     1
  0
SCALE
  5
810E
102
{ACAD_REACTORS
330
810C
102
}
330
810C
100
AcDbScale
 70
     0
300
1:2
140
1.0
141
2.0
290
     0
  0
SCALE
  5
810F
102
{ACAD_REACTORS
330
810C
102
}
330
810C
100
AcDbScale
 70
     0
300
1:4
140
1.0
141
4.0
290
     0
  0
SCALE
  5
8110
102
{ACAD_REACTORS
330
810C
102
}
330
810C
100
AcDbScale
 70
     0
300
1:5
140
1.0
141
5.0
290
     0
  0
SCALE
  5
8111
102
{ACAD_REACTORS
330
810C
102
}
330
810C
100
AcDbScale
 70
     0
300
1:8
140
1.0
141
8.0
290
     0
  0
SCALE
  5
8112
102
{ACAD_REACTORS
330
810C
102
}
330
810C
100
AcDbScale
 70
     0
300
1:10
140
1.0
141
10.0
290
     0
  0
SCALE
  5
8113
102
{ACAD_REACTORS
330
810C
102
}
330
810C
100
AcDbScale
 70
     0
300
1:16
140
1.0
141
16.0
290
     0
  0
SCALE
  5
8114
102
{ACAD_REACTORS
330
810C
102
}
330
810C
100
AcDbScale
 70
     0
300
1:20
140
1.0
141
20.0
290
     0
  0
SCALE
  5
8115
102
{ACAD_REACTORS
330
810C
102
}
330
810C
100
AcDbScale
 70
     0
300
1:30
140
1.0
141
30.0
290
     0
  0
SCALE
  5
8116
102
{ACAD_REACTORS
330
810C
102
}
330
810C
100
AcDbScale
 70
     0
300
1:40
140
1.0
141
40.0
290
     0
  0
SCALE
  5
8117
102
{ACAD_REACTORS
330
810C
102
}
330
810C
100
AcDbScale
 70
     0
300
1:50
140
1.0
141
50.0
290
     0
  0
SCALE
  5
8118
102
{ACAD_REACTORS
330
810C
102
}
330
810C
100
AcDbScale
 70
     0
300
1:100
140
1.0
141
100.0
290
     0
  0
SCALE
  5
8119
102
{ACAD_REACTORS
330
810C
102
}
330
810C
100
AcDbScale
 70
     0
300
2:1
140
2.0
141
1.0
290
     0
  0
SCALE
  5
811A
102
{ACAD_REACTORS
330
810C
102
}
330
810C
100
AcDbScale
 70
     0
300
4:1
140
4.0
141
1.0
290
     0
  0
SCALE
  5
811B
102
{ACAD_REACTORS
330
810C
102
}
330
810C
100
AcDbScale
 70
     0
300
8:1
140
8.0
141
1.0
290
     0
  0
SCALE
  5
811C
102
{ACAD_REACTORS
330
810C
102
}
330
810C
100
AcDbScale
 70
     0
300
10:1
140
10.0
141
1.0
290
     0
  0
SCALE
  5
811D
102
{ACAD_REACTORS
330
810C
102
}
330
810C
100
AcDbScale
 70
     0
300
100:1
140
100.0
141
1.0
290
     0
  0
ACDBSECTIONVIEWSTYLE
  5
8121
102
{ACAD_XDICTIONARY
360
81B2
102
}
102
{ACAD_REACTORS
330
8120
102
}
330
8120
100
AcDbModelDocViewStyle
 70
     0
  3
Metric50
290
     0
100
AcDbSectionViewStyle
 70
     0
 71
     0
 90
      102
 71
     1
340
10
 62
   256
 40
5.0
340
0
340
0
 62
   256
 40
5.0
300
I, O, Q, S, X, Z
 40
10.0
 90
        0
 40
2.5
 90
        0
 71
     2
340
15
 90
       25
 62
   256
340
15
 90
       50
 62
   256
 40
5.0
 40
2.5
 40
5.0
 71
     3
340
10
 62
   256
 40
5.0
 90
        0
 40
15.0
 90
        1
300
%<\AcVar ViewSectionStartId>%-%<\AcVar ViewSectionEndId>% (%<\AcVar ViewScale \f "%sn">%)
 71
     4
 62
   256
 62
   257
300
ANSI31
 40
1.0
 90
        0
290
     0
290
     0
 90
        6
 40
0.0
 40
1.570796326794896
 40
0.2617993877991494
 40
1.308996938995747
 40
-0.2617993877991494
 40
1.832595714594046
  0
TABLESTYLE
  5
810B
102
{ACAD_XDICTIONARY
360
81A7
102
}
102
{ACAD_REACTORS
330
810A
102
}
330
810A
100
AcDbTableStyle
280
     0
  3
Standard
 70
     0
 71
     0
 40
1.5
 41
1.5
280
     0
281
     0
  7
STANDARD
140
4.5
170
     2
 62
     0
 63
     7
283
     0
 90
      512
 91
        0
  1

274
    -2
284
     1
 64
     0
275
    -2
285
     1
 65
     0
276
    -2
286
     1
 66
     0
277
    -2
287
     1
 67
     0
278
    -2
288
     1
 68
     0
279
    -2
289
     1
 69
     0
  7
STANDARD
140
6.0
170
     5
 62
     0
 63
     7
283
     0
 90
      512
 91
        0
  1

274
    -2
284
     1
 64
     0
275
    -2
285
     1
 65
     0
276
    -2
286
     1
 66
     0
277
    -2
287
     1
 67
     0
278
    -2
288
     1
 68
     0
279
    -2
289
     1
 69
     0
  7
STANDARD
140
4.5
170
     5
 62
     0
 63
     7
283
     0
 90
      512
 91
        0
  1

274
    -2
284
     1
 64
     0
275
    -2
285
     1
 65
     0
276
    -2
286
     1
 66
     0
277
    -2
287
     1
 67
     0
278
    -2
288
     1
 68
     0
279
    -2
289
     1
 69
     0
  0
VISUALSTYLE
  5
80F6
102
{ACAD_REACTORS
330
80F0
102
}
330
80F0
100
AcDbVisualStyle
  2
2dWireframe
 70
     4
177
     3
291
     0
 70
    58
 90
        0
176
     1
 90
        2
176
     1
 90
        0
176
     1
 90
        0
176
     1
 40
0.6
176
     1
 40
30.0
176
     1
 62
     7
420
 16777215
176
     1
 90
        1
176
     1
 90
        4
176
     1
 62
     7
176
     1
 62
   257
176
     1
 90
        1
176
     1
 90
        1
176
     1
 40
1.0
176
     1
 90
        0
176
     1
 62
   257
176
     1
 40
1.0
176
     1
 90
        1
176
     1
 90
        6
176
     1
 90
        2
176
     1
 62
     7
176
     1
 90
        5
176
     1
 90
        0
176
     1
 90
        0
176
     1
290
     0
176
     1
 90
        1
176
     1
 40
0.0
176
     1
 90
        0
176
     1
290
     1
176
     1
290
     1
176
     1
290
     0
176
     1
290
     0
176
     1
290
     0
176
     1
290
     0
176
     1
290
     0
176
     1
290
     0
176
     1
290
     0
176
     1
 90
       50
176
     1
 40
0.0
176
     1
 40
1.0
176
     1
 90
        0
176
     1
 62
    18
420
        0
176
     1
 90
       50
176
     1
 90
        3
176
     1
 62
     5
420
      255
176
     1
290
     0
176
     1
 90
       50
176
     1
 90
       50
176
     1
 90
       50
176
     1
290
     0
176
     1
 90
       50
176
     1
 62
   256
176
     0
 40
1.0
176
     0
 90
        2
176
     1
  1
strokes_ogs.tif
176
     1
290
     0
176
     1
 40
1.0
176
     1
 40
1.0
176
     1
1001
ACAD
1000
AcDbSavedByObjectVersion
1070
     0
  0
VISUALSTYLE
  5
80F5
102
{ACAD_REACTORS
330
80F0
102
}
330
80F0
100
AcDbVisualStyle
  2
Basic
 70
     7
177
     3
291
     1
 70
    58
 90
        1
176
     1
 90
        0
176
     1
 90
        1
176
     1
 90
        0
176
     1
 40
0.6
176
     1
 40
30.0
176
     1
 62
     7
420
 16777215
176
     1
 90
        0
176
     1
 90
        4
176
     1
 62
     7
176
     1
 62
   257
176
     1
 90
        1
176
     1
 90
        1
176
     1
 40
1.0
176
     1
 90
        8
176
     1
 62
     7
176
     1
 40
1.0
176
     1
 90
        1
176
     1
 90
        6
176
     1
 90
        2
176
     1
 62
     7
176
     1
 90
        5
176
     1
 90
        0
176
     1
 90
        0
176
     1
290
     0
176
     1
 90
        1
176
     1
 40
0.0
176
     1
 90
        0
176
     1
290
     0
176
     1
290
     1
176
     1
290
     1
176
     1
290
     0
176
     1
290
     0
176
     1
290
     0
176
     1
290
     0
176
     1
290
     0
176
     1
290
     0
176
     1
 90
       50
176
     1
 40
0.0
176
     1
 40
1.0
176
     1
 90
        0
176
     1
 62
    18
420
        0
176
     1
 90
       50
176
     1
 90
        3
176
     1
 62
     5
420
      255
176
     1
290
     0
176
     1
 90
       50
176
     1
 90
       50
176
     1
 90
       50
176
     1
290
     0
176
     1
 90
       50
176
     1
 62
   256
176
     0
 40
1.0
176
     0
 90
        2
176
     1
  1
strokes_ogs.tif
176
     1
290
     0
176
     1
 40
1.0
176
     1
 40
1.0
176
     1
1001
ACAD
1000
AcDbSavedByObjectVersion
1070
     0
  0
VISUALSTYLE
  5
80FC
102
{ACAD_REACTORS
330
80F0
102
}
330
80F0
100
AcDbVisualStyle
  2
Brighten
 70
    12
177
     3
291
     1
 70
    58
 90
        2
176
     1
 90
        2
176
     1
 90
        0
176
     1
 90
        0
176
     1
 40
0.6
176
     1
 40
30.0
176
     1
 62
     7
420
 16777215
176
     1
 90
        1
176
     1
 90
        4
176
     1
 62
     7
176
     1
 62
   257
176
     1
 90
        1
176
     1
 90
        1
176
     1
 40
1.0
176
     1
 90
        8
176
     1
 62
     7
176
     1
 40
1.0
176
     1
 90
        1
176
     1
 90
        6
176
     1
 90
        2
176
     1
 62
     7
176
     1
 90
        5
176
     1
 90
        0
176
     1
 90
        0
176
     1
290
     0
176
     1
 90
        1
176
     1
 40
50.0
176
     1
 90
        0
176
     1
290
     0
176
     1
290
     1
176
     1
290
     1
176
     1
290
     0
176
     1
290
     0
176
     1
290
     0
176
     1
290
     0
176
     1
290
     0
176
     1
290
     0
176
     1
 90
       50
176
     1
 40
0.0
176
     1
 40
1.0
176
     1
 90
        0
176
     1
 62
    18
420
        0
176
     1
 90
       50
176
     1
 90
        3
176
     1
 62
     5
420
      255
176
     1
290
     0
176
     1
 90
       50
176
     1
 90
       50
176
     1
 90
       50
176
     1
290
     0
176
     1
 90
       50
176
     1
 62
   256
176
     0
 40
1.0
176
     0
 90
        2
176
     1
  1
strokes_ogs.tif
176
     1
290
     0
176
     1
 40
1.0
176
     1
 40
1.0
176
     1
1001
ACAD
1000
AcDbSavedByObjectVersion
1070
     0
  0
VISUALSTYLE
  5
8100
102
{ACAD_REACTORS
330
80F0
102
}
330
80F0
100
AcDbVisualStyle
  2
ColorChange
 70
    16
177
     3
291
     1
 70
    58
 90
        2
176
     1
 90
        2
176
     1
 90
        3
176
     1
 90
        0
176
     1
 40
0.6
176
     1
 40
30.0
176
     1
 62
     8
420
  8421504
176
     1
 90
        1
176
     1
 90
        4
176
     1
 62
     7
176
     1
 62
   257
176
     1
 90
        1
176
     1
 90
        1
176
     1
 40
1.0
176
     1
 90
        8
176
     1
 62
     8
420
  8421504
176
     1
 40
1.0
176
     1
 90
        1
176
     1
 90
        6
176
     1
 90
        2
176
     1
 62
     7
176
     1
 90
        5
176
     1
 90
        0
176
     1
 90
        0
176
     1
290
     0
176
     1
 90
        1
176
     1
 40
0.0
176
     1
 90
        0
176
     1
290
     0
176
     1
290
     1
176
     1
290
     1
176
     1
290
     0
176
     1
290
     0
176
     1
290
     0
176
     1
290
     0
176
     1
290
     0
176
     1
290
     0
176
     1
 90
       50
176
     1
 40
0.0
176
     1
 40
1.0
176
     1
 90
        0
176
     1
 62
    18
420
        0
176
     1
 90
       50
176
     1
 90
        3
176
     1
 62
     5
420
      255
176
     1
290
     0
176
     1
 90
       50
176
     1
 90
       50
176
     1
 90
       50
176
     1
290
     0
176
     1
 90
       50
176
     1
 62
   256
176
     0
 40
1.0
176
     0
 90
        2
176
     1
  1
strokes_ogs.tif
176
     1
290
     0
176
     1
 40
1.0
176
     1
 40
1.0
176
     1
1001
ACAD
1000
AcDbSavedByObjectVersion
1070
     0
  0
VISUALSTYLE
  5
80F9
102
{ACAD_REACTORS
330
80F0
102
}
330
80F0
100
AcDbVisualStyle
  2
Conceptual
 70
     9
177
     3
291
     0
 70
    58
 90
        3
176
     1
 90
        2
176
     1
 90
        0
176
     1
 90
        0
176
     1
 40
0.6
176
     1
 40
30.0
176
     1
 62
     7
420
 16777215
176
     1
 90
        2
176
     1
 90
        2
176
     1
 62
     7
176
     1
 62
   257
176
     1
 90
        1
176
     1
 90
        1
176
     1
 40
179.0
176
     1
 90
        8
176
     1
 62
     7
176
     1
 40
1.0
176
     1
 90
        1
176
     1
 90
        6
176
     1
 90
        2
176
     1
 62
     7
176
     1
 90
        3
176
     1
 90
        0
176
     1
 90
        0
176
     1
290
     0
176
     1
 90
        1
176
     1
 40
0.0
176
     1
 90
        0
176
     1
290
     0
176
     1
290
     1
176
     1
290
     1
176
     1
290
     0
176
     1
290
     0
176
     1
290
     0
176
     1
290
     0
176
     1
290
     0
176
     1
290
     0
176
     1
 90
       50
176
     1
 40
0.0
176
     1
 40
1.0
176
     1
 90
        0
176
     1
 62
    18
420
        0
176
     1
 90
       50
176
     1
 90
        3
176
     1
 62
     5
420
      255
176
     1
290
     0
176
     1
 90
       50
176
     1
 90
       50
176
     1
 90
       50
176
     1
290
     0
176
     1
 90
       50
176
     1
 62
   256
176
     0
 40
1.0
176
     0
 90
        2
176
     1
  1
strokes_ogs.tif
176
     1
290
     0
176
     1
 40
1.0
176
     1
 40
1.0
176
     1
1001
ACAD
1000
AcDbSavedByObjectVersion
1070
     0
  0
VISUALSTYLE
  5
80FB
102
{ACAD_REACTORS
330
80F0
102
}
330
80F0
100
AcDbVisualStyle
  2
Dim
 70
    11
177
     3
291
     1
 70
    58
 90
        2
176
     1
 90
        2
176
     1
 90
        0
176
     1
 90
        0
176
     1
 40
0.6
176
     1
 40
30.0
176
     1
 62
     7
420
 16777215
176
     1
 90
        1
176
     1
 90
        4
176
     1
 62
     7
176
     1
 62
   257
176
     1
 90
        1
176
     1
 90
        1
176
     1
 40
1.0
176
     1
 90
        8
176
     1
 62
     7
176
     1
 40
1.0
176
     1
 90
        1
176
     1
 90
        6
176
     1
 90
        2
176
     1
 62
     7
176
     1
 90
        5
176
     1
 90
        0
176
     1
 90
        0
176
     1
290
     0
176
     1
 90
        1
176
     1
 40
-50.0
176
     1
 90
        0
176
     1
290
     0
176
     1
290
     1
176
     1
290
     1
176
     1
290
     0
176
     1
290
     0
176
     1
290
     0
176
     1
290
     0
176
     1
290
     0
176
     1
290
     0
176
     1
 90
       50
176
     1
 40
0.0
176
     1
 40
1.0
176
     1
 90
        0
176
     1
 62
    18
420
        0
176
     1
 90
       50
176
     1
 90
        3
176
     1
 62
     5
420
      255
176
     1
290
     0
176
     1
 90
       50
176
     1
 90
       50
176
     1
 90
       50
176
     1
290
     0
176
     1
 90
       50
176
     1
 62
   256
176
     0
 40
1.0
176
     0
 90
        2
176
     1
  1
strokes_ogs.tif
176
     1
290
     0
176
     1
 40
1.0
176
     1
 40
1.0
176
     1
1001
ACAD
1000
AcDbSavedByObjectVersion
1070
     0
  0
VISUALSTYLE
  5
8108
102
{ACAD_REACTORS
330
80F0
102
}
330
80F0
100
AcDbVisualStyle
  2
EdgeColorOff
 70
    22
177
     3
291
     1
 70
    58
 90
        2
176
     0
 90
        2
176
     0
 90
        0
176
     0
 90
        0
176
     0
 40
0.6
176
     0
 40
30.0
176
     0
 62
     7
420
 16777215
176
     0
 90
        1
176
     0
 90
        4
176
     0
 62
     7
176
     0
 62
   257
176
     0
 90
        1
176
     0
 90
        1
176
     0
 40
1.0
176
     0
 90
        8
176
     2
 62
     7
176
     0
 40
1.0
176
     0
 90
        1
176
     0
 90
        6
176
     0
 90
        2
176
     0
 62
     7
176
     0
 90
        5
176
     0
 90
        0
176
     0
 90
        0
176
     0
290
     0
176
     0
 90
        1
176
     0
 40
0.0
176
     0
 90
        0
176
     0
290
     0
176
     0
290
     1
176
     0
290
     1
176
     0
290
     0
176
     0
290
     0
176
     0
290
     0
176
     0
290
     0
176
     0
290
     0
176
     0
290
     0
176
     0
 90
       50
176
     0
 40
0.0
176
     0
 40
1.0
176
     0
 90
        0
176
     0
 62
    18
420
        0
176
     0
 90
       50
176
     0
 90
        3
176
     0
 62
     5
420
      255
176
     0
290
     0
176
     0
 90
       50
176
     0
 90
       50
176
     0
 90
       50
176
     0
290
     0
176
     0
 90
       50
176
     0
 62
   256
176
     0
 40
1.0
176
     0
 90
        2
176
     0
  1
strokes_ogs.tif
176
     0
290
     0
176
     0
 40
1.0
176
     0
 40
1.0
176
     0
1001
ACAD
1000
AcDbSavedByObjectVersion
1070
     0
  0
VISUALSTYLE
  5
80FF
102
{ACAD_REACTORS
330
80F0
102
}
330
80F0
100
AcDbVisualStyle
  2
Facepattern
 70
    15
177
     3
291
     1
 70
    58
 90
        2
176
     1
 90
        2
176
     1
 90
        0
176
     1
 90
        0
176
     1
 40
0.6
176
     1
 40
30.0
176
     1
 62
     7
420
 16777215
176
     1
 90
        1
176
     1
 90
        4
176
     1
 62
     7
176
     1
 62
   257
176
     1
 90
        1
176
     1
 90
        1
176
     1
 40
1.0
176
     1
 90
        8
176
     1
 62
     7
176
     1
 40
1.0
176
     1
 90
        1
176
     1
 90
        6
176
     1
 90
        2
176
     1
 62
     7
176
     1
 90
        5
176
     1
 90
        0
176
     1
 90
        0
176
     1
290
     0
176
     1
 90
        1
176
     1
 40
0.0
176
     1
 90
        0
176
     1
290
     0
176
     1
290
     1
176
     1
290
     1
176
     1
290
     0
176
     1
290
     0
176
     1
290
     0
176
     1
290
     0
176
     1
290
     0
176
     1
290
     0
176
     1
 90
       50
176
     1
 40
0.0
176
     1
 40
1.0
176
     1
 90
        0
176
     1
 62
    18
420
        0
176
     1
 90
       50
176
     1
 90
        3
176
     1
 62
     5
420
      255
176
     1
290
     0
176
     1
 90
       50
176
     1
 90
       50
176
     1
 90
       50
176
     1
290
     0
176
     1
 90
       50
176
     1
 62
   256
176
     0
 40
1.0
176
     0
 90
        2
176
     1
  1
strokes_ogs.tif
176
     1
290
     0
176
     1
 40
1.0
176
     1
 40
1.0
176
     1
1001
ACAD
1000
AcDbSavedByObjectVersion
1070
     0
  0
VISUALSTYLE
  5
80F1
102
{ACAD_REACTORS
330
80F0
102
}
330
80F0
100
AcDbVisualStyle
  2
Flat
 70
     0
177
     3
291
     1
 70
    58
 90
        2
176
     1
 90
        1
176
     1
 90
        1
176
     1
 90
        2
176
     1
 40
0.6
176
     1
 40
30.0
176
     1
 62
     7
420
 16777215
176
     1
 90
        0
176
     1
 90
        0
176
     1
 62
     7
176
     1
 62
   257
176
     1
 90
        1
176
     1
 90
        1
176
     1
 40
1.0
176
     1
 90
        8
176
     1
 62
     7
176
     1
 40
1.0
176
     1
 90
        1
176
     1
 90
        6
176
     1
 90
        2
176
     1
 62
     7
176
     1
 90
        5
176
     1
 90
        0
176
     1
 90
        0
176
     1
290
     0
176
     1
 90
       13
176
     1
 40
0.0
176
     1
 90
        0
176
     1
290
     0
176
     1
290
     1
176
     1
290
     1
176
     1
290
     0
176
     1
290
     0
176
     1
290
     0
176
     1
290
     0
176
     1
290
     0
176
     1
290
     0
176
     1
 90
       50
176
     1
 40
0.0
176
     1
 40
1.0
176
     1
 90
        0
176
     1
 62
    18
420
        0
176
     1
 90
       50
176
     1
 90
        3
176
     1
 62
     5
420
      255
176
     1
290
     0
176
     1
 90
       50
176
     1
 90
       50
176
     1
 90
       50
176
     1
290
     0
176
     1
 90
       50
176
     1
 62
   256
176
     0
 40
1.0
176
     0
 90
        2
176
     1
  1
strokes_ogs.tif
176
     1
290
     0
176
     1
 40
1.0
176
     1
 40
1.0
176
     1
1001
ACAD
1000
AcDbSavedByObjectVersion
1070
     0
  0
VISUALSTYLE
  5
80F2
102
{ACAD_REACTORS
330
80F0
102
}
330
80F0
100
AcDbVisualStyle
  2
FlatWithEdges
 70
     1
177
     3
291
     1
 70
    58
 90
        2
176
     1
 90
        1
176
     1
 90
        1
176
     1
 90
        2
176
     1
 40
0.6
176
     1
 40
30.0
176
     1
 62
     7
420
 16777215
176
     1
 90
        1
176
     1
 90
        0
176
     1
 62
     7
176
     1
 62
   257
176
     1
 90
        1
176
     1
 90
        1
176
     1
 40
1.0
176
     1
 90
        0
176
     1
 62
   257
176
     1
 40
1.0
176
     1
 90
        1
176
     1
 90
        6
176
     1
 90
        2
176
     1
 62
     7
176
     1
 90
        5
176
     1
 90
        0
176
     1
 90
        0
176
     1
290
     0
176
     1
 90
       13
176
     1
 40
0.0
176
     1
 90
        0
176
     1
290
     0
176
     1
290
     1
176
     1
290
     1
176
     1
290
     0
176
     1
290
     0
176
     1
290
     0
176
     1
290
     0
176
     1
290
     0
176
     1
290
     0
176
     1
 90
       50
176
     1
 40
0.0
176
     1
 40
1.0
176
     1
 90
        0
176
     1
 62
    18
420
        0
176
     1
 90
       50
176
     1
 90
        3
176
     1
 62
     5
420
      255
176
     1
290
     0
176
     1
 90
       50
176
     1
 90
       50
176
     1
 90
       50
176
     1
290
     0
176
     1
 90
       50
176
     1
 62
   256
176
     0
 40
1.0
176
     0
 90
        2
176
     1
  1
strokes_ogs.tif
176
     1
290
     0
176
     1
 40
1.0
176
     1
 40
1.0
176
     1
1001
ACAD
1000
AcDbSavedByObjectVersion
1070
     0
  0
VISUALSTYLE
  5
80F3
102
{ACAD_REACTORS
330
80F0
102
}
330
80F0
100
AcDbVisualStyle
  2
Gouraud
 70
     2
177
     3
291
     1
 70
    58
 90
        2
176
     1
 90
        2
176
     1
 90
        1
176
     1
 90
        2
176
     1
 40
0.6
176
     1
 40
30.0
176
     1
 62
     7
420
 16777215
176
     1
 90
        0
176
     1
 90
        0
176
     1
 62
     7
176
     1
 62
   257
176
     1
 90
        1
176
     1
 90
        1
176
     1
 40
1.0
176
     1
 90
        0
176
     1
 62
     7
176
     1
 40
1.0
176
     1
 90
        1
176
     1
 90
        6
176
     1
 90
        2
176
     1
 62
     7
176
     1
 90
        5
176
     1
 90
        0
176
     1
 90
        0
176
     1
290
     0
176
     1
 90
       13
176
     1
 40
0.0
176
     1
 90
        0
176
     1
290
     0
176
     1
290
     1
176
     1
290
     1
176
     1
290
     0
176
     1
290
     0
176
     1
290
     0
176
     1
290
     0
176
     1
290
     0
176
     1
290
     0
176
     1
 90
       50
176
     1
 40
0.0
176
     1
 40
1.0
176
     1
 90
        0
176
     1
 62
    18
420
        0
176
     1
 90
       50
176
     1
 90
        3
176
     1
 62
     5
420
      255
176
     1
290
     0
176
     1
 90
       50
176
     1
 90
       50
176
     1
 90
       50
176
     1
290
     0
176
     1
 90
       50
176
     1
 62
   256
176
     0
 40
1.0
176
     0
 90
        2
176
     1
  1
strokes_ogs.tif
176
     1
290
     0
176
     1
 40
1.0
176
     1
 40
1.0
176
     1
1001
ACAD
1000
AcDbSavedByObjectVersion
1070
     0
  0
VISUALSTYLE
  5
80F4
102
{ACAD_REACTORS
330
80F0
102
}
330
80F0
100
AcDbVisualStyle
  2
GouraudWithEdges
 70
     3
177
     3
291
     1
 70
    58
 90
        2
176
     1
 90
        2
176
     1
 90
        1
176
     1
 90
        2
176
     1
 40
0.6
176
     1
 40
30.0
176
     1
 62
     7
420
 16777215
176
     1
 90
        1
176
     1
 90
        0
176
     1
 62
     7
176
     1
 62
   257
176
     1
 90
        1
176
     1
 90
        1
176
     1
 40
1.0
176
     1
 90
        0
176
     1
 62
   257
176
     1
 40
1.0
176
     1
 90
        1
176
     1
 90
        6
176
     1
 90
        2
176
     1
 62
     7
176
     1
 90
        5
176
     1
 90
        0
176
     1
 90
        0
176
     1
290
     0
176
     1
 90
       13
176
     1
 40
0.0
176
     1
 90
        0
176
     1
290
     0
176
     1
290
     1
176
     1
290
     1
176
     1
290
     0
176
     1
290
     0
176
     1
290
     0
176
     1
290
     0
176
     1
290
     0
176
     1
290
     0
176
     1
 90
       50
176
     1
 40
0.0
176
     1
 40
1.0
176
     1
 90
        0
176
     1
 62
    18
420
        0
176
     1
 90
       50
176
     1
 90
        3
176
     1
 62
     5
420
      255
176
     1
290
     0
176
     1
 90
       50
176
     1
 90
       50
176
     1
 90
       50
176
     1
290
     0
176
     1
 90
       50
176
     1
 62
   256
176
     0
 40
1.0
176
     0
 90
        2
176
     1
  1
strokes_ogs.tif
176
     1
290
     0
176
     1
 40
1.0
176
     1
 40
1.0
176
     1
1001
ACAD
1000
AcDbSavedByObjectVersion
1070
     0
  0
VISUALSTYLE
  5
80F8
102
{ACAD_REACTORS
330
80F0
102
}
330
80F0
100
AcDbVisualStyle
  2
Hidden
 70
     6
177
     3
291
     0
 70
    58
 90
        1
176
     1
 90
        2
176
     1
 90
        2
176
     1
 90
        0
176
     1
 40
0.6
176
     1
 40
30.0
176
     1
 62
     7
420
 16777215
176
     1
 90
        2
176
     1
 90
        2
176
     1
 62
     7
176
     1
 62
   257
176
     1
 90
        2
176
     1
 90
        1
176
     1
 40
40.0
176
     1
 90
        0
176
     1
 62
   257
176
     1
 40
1.0
176
     1
 90
        1
176
     1
 90
        6
176
     1
 90
        2
176
     1
 62
     7
176
     1
 90
        3
176
     1
 90
        0
176
     1
 90
        0
176
     1
290
     0
176
     1
 90
        1
176
     1
 40
0.0
176
     1
 90
        0
176
     1
290
     0
176
     1
290
     1
176
     1
290
     1
176
     1
290
     0
176
     1
290
     0
176
     1
290
     0
176
     1
290
     0
176
     1
290
     0
176
     1
290
     0
176
     1
 90
       50
176
     1
 40
0.0
176
     1
 40
1.0
176
     1
 90
        0
176
     1
 62
    18
420
        0
176
     1
 90
       50
176
     1
 90
        3
176
     1
 62
     5
420
      255
176
     1
290
     0
176
     1
 90
       50
176
     1
 90
       50
176
     1
 90
       50
176
     1
290
     0
176
     1
 90
       50
176
     1
 62
   256
176
     0
 40
1.0
176
     0
 90
        2
176
     1
  1
strokes_ogs.tif
176
     1
290
     0
176
     1
 40
1.0
176
     1
 40
1.0
176
     1
1001
ACAD
1000
AcDbSavedByObjectVersion
1070
     0
  0
VISUALSTYLE
  5
8106
102
{ACAD_REACTORS
330
80F0
102
}
330
80F0
100
AcDbVisualStyle
  2
JitterOff
 70
    20
177
     3
291
     1
 70
    58
 90
        2
176
     0
 90
        2
176
     0
 90
        0
176
     0
 90
        0
176
     0
 40
0.6
176
     0
 40
30.0
176
     0
 62
     7
420
 16777215
176
     0
 90
        1
176
     0
 90
        4
176
     0
 62
     7
176
     0
 62
   257
176
     0
 90
        1
176
     0
 90
        1
176
     0
 40
1.0
176
     0
 90
       10
176
     2
 62
     7
176
     0
 40
1.0
176
     0
 90
        1
176
     0
 90
        6
176
     0
 90
        2
176
     0
 62
     7
176
     0
 90
        5
176
     0
 90
        0
176
     0
 90
        0
176
     0
290
     0
176
     0
 90
        1
176
     0
 40
0.0
176
     0
 90
        0
176
     0
290
     0
176
     0
290
     1
176
     0
290
     1
176
     0
290
     0
176
     0
290
     0
176
     0
290
     0
176
     0
290
     0
176
     0
290
     0
176
     0
290
     0
176
     0
 90
       50
176
     0
 40
0.0
176
     0
 40
1.0
176
     0
 90
        0
176
     0
 62
    18
420
        0
176
     0
 90
       50
176
     0
 90
        3
176
     0
 62
     5
420
      255
176
     0
290
     0
176
     0
 90
       50
176
     0
 90
       50
176
     0
 90
       50
176
     0
290
     0
176
     0
 90
       50
176
     0
 62
   256
176
     0
 40
1.0
176
     0
 90
        2
176
     0
  1
strokes_ogs.tif
176
     0
290
     0
176
     0
 40
1.0
176
     0
 40
1.0
176
     0
1001
ACAD
1000
AcDbSavedByObjectVersion
1070
     0
  0
VISUALSTYLE
  5
80FE
102
{ACAD_REACTORS
330
80F0
102
}
330
80F0
100
AcDbVisualStyle
  2
Linepattern
 70
    14
177
     3
291
     1
 70
    58
 90
        2
176
     1
 90
        2
176
     1
 90
        0
176
     1
 90
        0
176
     1
 40
0.6
176
     1
 40
30.0
176
     1
 62
     7
420
 16777215
176
     1
 90
        1
176
     1
 90
        4
176
     1
 62
     7
176
     1
 62
   257
176
     1
 90
        7
176
     1
 90
        7
176
     1
 40
1.0
176
     1
 90
        8
176
     1
 62
     7
176
     1
 40
1.0
176
     1
 90
        1
176
     1
 90
        6
176
     1
 90
        2
176
     1
 62
     7
176
     1
 90
        5
176
     1
 90
        0
176
     1
 90
        0
176
     1
290
     0
176
     1
 90
        1
176
     1
 40
0.0
176
     1
 90
        0
176
     1
290
     0
176
     1
290
     1
176
     1
290
     1
176
     1
290
     0
176
     1
290
     0
176
     1
290
     0
176
     1
290
     0
176
     1
290
     0
176
     1
290
     0
176
     1
 90
       50
176
     1
 40
0.0
176
     1
 40
1.0
176
     1
 90
        0
176
     1
 62
    18
420
        0
176
     1
 90
       50
176
     1
 90
        3
176
     1
 62
     5
420
      255
176
     1
290
     0
176
     1
 90
       50
176
     1
 90
       50
176
     1
 90
       50
176
     1
290
     0
176
     1
 90
       50
176
     1
 62
   256
176
     0
 40
1.0
176
     0
 90
        2
176
     1
  1
strokes_ogs.tif
176
     1
290
     0
176
     1
 40
1.0
176
     1
 40
1.0
176
     1
1001
ACAD
1000
AcDbSavedByObjectVersion
1070
     0
  0
VISUALSTYLE
  5
8107
102
{ACAD_REACTORS
330
80F0
102
}
330
80F0
100
AcDbVisualStyle
  2
OverhangOff
 70
    21
177
     3
291
     1
 70
    58
 90
        2
176
     0
 90
        2
176
     0
 90
        0
176
     0
 90
        0
176
     0
 40
0.6
176
     0
 40
30.0
176
     0
 62
     7
420
 16777215
176
     0
 90
        1
176
     0
 90
        4
176
     0
 62
     7
176
     0
 62
   257
176
     0
 90
        1
176
     0
 90
        1
176
     0
 40
1.0
176
     0
 90
        9
176
     2
 62
     7
176
     0
 40
1.0
176
     0
 90
        1
176
     0
 90
        6
176
     0
 90
        2
176
     0
 62
     7
176
     0
 90
        5
176
     0
 90
        0
176
     0
 90
        0
176
     0
290
     0
176
     0
 90
        1
176
     0
 40
0.0
176
     0
 90
        0
176
     0
290
     0
176
     0
290
     1
176
     0
290
     1
176
     0
290
     0
176
     0
290
     0
176
     0
290
     0
176
     0
290
     0
176
     0
290
     0
176
     0
290
     0
176
     0
 90
       50
176
     0
 40
0.0
176
     0
 40
1.0
176
     0
 90
        0
176
     0
 62
    18
420
        0
176
     0
 90
       50
176
     0
 90
        3
176
     0
 62
     5
420
      255
176
     0
290
     0
176
     0
 90
       50
176
     0
 90
       50
176
     0
 90
       50
176
     0
290
     0
176
     0
 90
       50
176
     0
 62
   256
176
     0
 40
1.0
176
     0
 90
        2
176
     0
  1
strokes_ogs.tif
176
     0
290
     0
176
     0
 40
1.0
176
     0
 40
1.0
176
     0
1001
ACAD
1000
AcDbSavedByObjectVersion
1070
     0
  0
VISUALSTYLE
  5
80FA
102
{ACAD_REACTORS
330
80F0
102
}
330
80F0
100
AcDbVisualStyle
  2
Realistic
 70
     8
177
     3
291
     0
 70
    58
 90
        2
176
     1
 90
        3
176
     1
 90
        0
176
     1
 90
        2
176
     1
 40
0.6
176
     1
 40
30.0
176
     1
 62
     7
420
 16777215
176
     1
 90
        0
176
     1
 90
        0
176
     1
 62
     7
176
     1
 62
   257
176
     1
 90
        1
176
     1
 90
        1
176
     1
 40
1.0
176
     1
 90
        8
176
     1
 62
   257
176
     1
 40
1.0
176
     1
 90
        1
176
     1
 90
        6
176
     1
 90
        2
176
     1
 62
     7
176
     1
 90
        3
176
     1
 90
        0
176
     1
 90
        0
176
     1
290
     0
176
     1
 90
       13
176
     1
 40
0.0
176
     1
 90
        0
176
     1
290
     0
176
     1
290
     1
176
     1
290
     1
176
     1
290
     0
176
     1
290
     0
176
     1
290
     0
176
     1
290
     0
176
     1
290
     0
176
     1
290
     0
176
     1
 90
       50
176
     1
 40
0.0
176
     1
 40
1.0
176
     1
 90
        0
176
     1
 62
    18
420
        0
176
     1
 90
       50
176
     1
 90
        3
176
     1
 62
     5
420
      255
176
     1
290
     0
176
     1
 90
       50
176
     1
 90
       50
176
     1
 90
       50
176
     1
290
     0
176
     1
 90
       50
176
     1
 62
   256
176
     0
 40
1.0
176
     0
 90
        2
176
     1
  1
strokes_ogs.tif
176
     1
290
     0
176
     1
 40
1.0
176
     1
 40
1.0
176
     1
1001
ACAD
1000
AcDbSavedByObjectVersion
1070
     0
  0
VISUALSTYLE
  5
8105
102
{ACAD_REACTORS
330
80F0
102
}
330
80F0
100
AcDbVisualStyle
  2
Shaded
 70
    27
177
     3
291
     0
 70
    58
 90
        2
176
     1
 90
        2
176
     1
 90
        1
176
     1
 90
        2
176
     1
 40
0.6
176
     1
 40
30.0
176
     1
 62
     7
420
 16777215
176
     1
 90
        0
176
     1
 90
        4
176
     1
 62
     7
176
     1
 62
   257
176
     1
 90
        1
176
     1
 90
        1
176
     1
 40
1.0
176
     1
 90
        8
176
     1
 62
   257
176
     1
 40
1.0
176
     1
 90
        1
176
     1
 90
        6
176
     1
 90
        2
176
     1
 62
     8
420
  7895160
176
     1
 90
        3
176
     1
 90
        0
176
     1
 90
        0
176
     1
290
     0
176
     1
 90
        5
176
     1
 40
0.0
176
     1
 90
        0
176
     1
290
     0
176
     1
290
     1
176
     1
290
     1
176
     1
290
     0
176
     1
290
     0
176
     1
290
     0
176
     1
290
     0
176
     1
290
     0
176
     1
290
     0
176
     1
 90
       50
176
     1
 40
0.0
176
     1
 40
1.0
176
     1
 90
        0
176
     1
 62
    18
420
        0
176
     1
 90
       50
176
     1
 90
        3
176
     1
 62
     5
420
      255
176
     1
290
     0
176
     1
 90
       50
176
     1
 90
       50
176
     1
 90
       50
176
     1
290
     0
176
     1
 90
       50
176
     1
 62
   256
176
     0
 40
1.0
176
     0
 90
        2
176
     1
  1
strokes_ogs.tif
176
     1
290
     0
176
     1
 40
1.0
176
     1
 40
1.0
176
     1
1001
ACAD
1000
AcDbSavedByObjectVersion
1070
     0
  0
VISUALSTYLE
  5
8104
102
{ACAD_REACTORS
330
80F0
102
}
330
80F0
100
AcDbVisualStyle
  2
Shaded with edges
 70
    26
177
     3
291
     0
 70
    58
 90
        2
176
     1
 90
        2
176
     1
 90
        1
176
     1
 90
        2
176
     1
 40
0.6
176
     1
 40
30.0
176
     1
 62
     7
420
 16777215
176
     1
 90
        1
176
     1
 90
        2
176
     1
 62
     7
176
     1
 62
   257
176
     1
 90
        2
176
     1
 90
        1
176
     1
 40
1.0
176
     1
 90
        8
176
     1
 62
   257
176
     1
 40
1.0
176
     1
 90
        1
176
     1
 90
        6
176
     1
 90
        2
176
     1
 62
     7
176
     1
 90
        3
176
     1
 90
        0
176
     1
 90
        0
176
     1
290
     0
176
     1
 90
        5
176
     1
 40
0.0
176
     1
 90
        0
176
     1
290
     0
176
     1
290
     1
176
     1
290
     1
176
     1
290
     0
176
     1
290
     0
176
     1
290
     0
176
     1
290
     0
176
     1
290
     0
176
     1
290
     0
176
     1
 90
       50
176
     1
 40
0.0
176
     1
 40
1.0
176
     1
 90
        0
176
     1
 62
    18
420
        0
176
     1
 90
       50
176
     1
 90
        3
176
     1
 62
     5
420
      255
176
     1
290
     0
176
     1
 90
       50
176
     1
 90
       50
176
     1
 90
       50
176
     1
290
     0
176
     1
 90
       50
176
     1
 62
   256
176
     0
 40
1.0
176
     0
 90
        2
176
     1
  1
strokes_ogs.tif
176
     1
290
     0
176
     1
 40
1.0
176
     1
 40
1.0
176
     1
1001
ACAD
1000
AcDbSavedByObjectVersion
1070
     0
  0
VISUALSTYLE
  5
8101
102
{ACAD_REACTORS
330
80F0
102
}
330
80F0
100
AcDbVisualStyle
  2
Shades of Gray
 70
    23
177
     3
291
     0
 70
    58
 90
        2
176
     1
 90
        2
176
     1
 90
        3
176
     1
 90
        0
176
     1
 40
0.6
176
     1
 40
30.0
176
     1
 62
     7
420
 16777215
176
     1
 90
        2
176
     1
 90
        2
176
     1
 62
     7
176
     1
 62
     7
176
     1
 90
        1
176
     1
 90
        1
176
     1
 40
40.0
176
     1
 90
        8
176
     1
 62
     7
176
     1
 40
1.0
176
     1
 90
        1
176
     1
 90
        6
176
     1
 90
        2
176
     1
 62
     7
176
     1
 90
        3
176
     1
 90
        0
176
     1
 90
        0
176
     1
290
     0
176
     1
 90
        1
176
     1
 40
0.0
176
     1
 90
        0
176
     1
290
     0
176
     1
290
     1
176
     1
290
     1
176
     1
290
     0
176
     1
290
     0
176
     1
290
     0
176
     1
290
     0
176
     1
290
     0
176
     1
290
     0
176
     1
 90
       50
176
     1
 40
0.0
176
     1
 40
1.0
176
     1
 90
        0
176
     1
 62
    18
420
        0
176
     1
 90
       50
176
     1
 90
        3
176
     1
 62
     5
420
      255
176
     1
290
     0
176
     1
 90
       50
176
     1
 90
       50
176
     1
 90
       50
176
     1
290
     0
176
     1
 90
       50
176
     1
 62
   256
176
     0
 40
1.0
176
     0
 90
        2
176
     1
  1
strokes_ogs.tif
176
     1
290
     0
176
     1
 40
1.0
176
     1
 40
1.0
176
     1
1001
ACAD
1000
AcDbSavedByObjectVersion
1070
     0
  0
VISUALSTYLE
  5
8102
102
{ACAD_REACTORS
330
80F0
102
}
330
80F0
100
AcDbVisualStyle
  2
Sketchy
 70
    24
177
     3
291
     0
 70
    58
 90
        1
176
     1
 90
        2
176
     1
 90
        2
176
     1
 90
        0
176
     1
 40
0.6
176
     1
 40
30.0
176
     1
 62
     7
420
 16777215
176
     1
 90
        2
176
     1
 90
        2
176
     1
 62
     7
176
     1
 62
     7
176
     1
 90
        1
176
     1
 90
        1
176
     1
 40
40.0
176
     1
 90
       11
176
     1
 62
     7
176
     1
 40
1.0
176
     1
 90
        1
176
     1
 90
        6
176
     1
 90
        2
176
     1
 62
     7
176
     1
 90
        6
176
     1
 90
        0
176
     1
 90
        0
176
     1
290
     0
176
     1
 90
        1
176
     1
 40
0.0
176
     1
 90
        0
176
     1
290
     0
176
     1
290
     1
176
     1
290
     1
176
     1
290
     0
176
     1
290
     0
176
     1
290
     0
176
     1
290
     0
176
     1
290
     0
176
     1
290
     0
176
     1
 90
       50
176
     1
 40
0.0
176
     1
 40
1.0
176
     1
 90
        0
176
     1
 62
    18
420
        0
176
     1
 90
       50
176
     1
 90
        3
176
     1
 62
     5
420
      255
176
     1
290
     0
176
     1
 90
       50
176
     1
 90
       50
176
     1
 90
       50
176
     1
290
     0
176
     1
 90
       50
176
     1
 62
   256
176
     0
 40
1.0
176
     0
 90
        2
176
     1
  1
strokes_ogs.tif
176
     1
290
     0
176
     1
 40
1.0
176
     1
 40
1.0
176
     1
1001
ACAD
1000
AcDbSavedByObjectVersion
1070
     0
  0
VISUALSTYLE
  5
80FD
102
{ACAD_REACTORS
330
80F0
102
}
330
80F0
100
AcDbVisualStyle
  2
Thicken
 70
    13
177
     3
291
     1
 70
    58
 90
        2
176
     1
 90
        2
176
     1
 90
        0
176
     1
 90
        0
176
     1
 40
0.6
176
     1
 40
30.0
176
     1
 62
     7
420
 16777215
176
     1
 90
        1
176
     1
 90
        4
176
     1
 62
     7
176
     1
 62
   257
176
     1
 90
        1
176
     1
 90
        1
176
     1
 40
1.0
176
     1
 90
       12
176
     1
 62
     7
176
     1
 40
1.0
176
     1
 90
        1
176
     1
 90
        6
176
     1
 90
        2
176
     1
 62
     7
176
     1
 90
        5
176
     1
 90
        0
176
     1
 90
        0
176
     1
290
     0
176
     1
 90
        1
176
     1
 40
0.0
176
     1
 90
        0
176
     1
290
     0
176
     1
290
     1
176
     1
290
     1
176
     1
290
     0
176
     1
290
     0
176
     1
290
     0
176
     1
290
     0
176
     1
290
     0
176
     1
290
     0
176
     1
 90
       50
176
     1
 40
0.0
176
     1
 40
1.0
176
     1
 90
        0
176
     1
 62
    18
420
        0
176
     1
 90
       50
176
     1
 90
        3
176
     1
 62
     5
420
      255
176
     1
290
     0
176
     1
 90
       50
176
     1
 90
       50
176
     1
 90
       50
176
     1
290
     0
176
     1
 90
       50
176
     1
 62
   256
176
     0
 40
1.0
176
     0
 90
        2
176
     1
  1
strokes_ogs.tif
176
     1
290
     0
176
     1
 40
1.0
176
     1
 40
1.0
176
     1
1001
ACAD
1000
AcDbSavedByObjectVersion
1070
     0
  0
VISUALSTYLE
  5
80F7
102
{ACAD_REACTORS
330
80F0
102
}
330
80F0
100
AcDbVisualStyle
  2
Wireframe
 70
     5
177
     3
291
     0
 70
    58
 90
        0
176
     1
 90
        2
176
     1
 90
        0
176
     1
 90
        0
176
     1
 40
0.6
176
     1
 40
30.0
176
     1
 62
     7
420
 16777215
176
     1
 90
        1
176
     1
 90
        4
176
     1
 62
     7
176
     1
 62
   257
176
     1
 90
        1
176
     1
 90
        1
176
     1
 40
1.0
176
     1
 90
        0
176
     1
 62
   257
176
     1
 40
1.0
176
     1
 90
        1
176
     1
 90
        6
176
     1
 90
        2
176
     1
 62
     7
176
     1
 90
        3
176
     1
 90
        0
176
     1
 90
        0
176
     1
290
     0
176
     1
 90
        1
176
     1
 40
0.0
176
     1
 90
        0
176
     1
290
     0
176
     1
290
     1
176
     1
290
     1
176
     1
290
     0
176
     1
290
     0
176
     1
290
     0
176
     1
290
     0
176
     1
290
     0
176
     1
290
     0
176
     1
 90
       50
176
     1
 40
0.0
176
     1
 40
1.0
176
     1
 90
        0
176
     1
 62
    18
420
        0
176
     1
 90
       50
176
     1
 90
        3
176
     1
 62
     5
420
      255
176
     1
290
     0
176
     1
 90
       50
176
     1
 90
       50
176
     1
 90
       50
176
     1
290
     0
176
     1
 90
       50
176
     1
 62
   256
176
     0
 40
1.0
176
     0
 90
        2
176
     1
  1
strokes_ogs.tif
176
     1
290
     0
176
     1
 40
1.0
176
     1
 40
1.0
176
     1
1001
ACAD
1000
AcDbSavedByObjectVersion
1070
     0
  0
VISUALSTYLE
  5
8103
102
{ACAD_REACTORS
330
80F0
102
}
330
80F0
100
AcDbVisualStyle
  2
X-Ray
 70
    25
177
     3
291
     0
 70
    58
 90
        2
176
     1
 90
        2
176
     1
 90
        1
176
     1
 90
        1
176
     1
 40
0.5
176
     1
 40
30.0
176
     1
 62
     7
420
 16777215
176
     1
 90
        1
176
     1
 90
        0
176
     1
 62
     7
176
     1
 62
   257
176
     1
 90
        1
176
     1
 90
        1
176
     1
 40
1.0
176
     1
 90
        8
176
     1
 62
     7
176
     1
 40
1.0
176
     1
 90
        1
176
     1
 90
        6
176
     1
 90
        2
176
     1
 62
     7
176
     1
 90
        3
176
     1
 90
        0
176
     1
 90
        0
176
     1
290
     0
176
     1
 90
       13
176
     1
 40
0.0
176
     1
 90
        0
176
     1
290
     0
176
     1
290
     1
176
     1
290
     1
176
     1
290
     0
176
     1
290
     0
176
     1
290
     0
176
     1
290
     0
176
     1
290
     0
176
     1
290
     0
176
     1
 90
       50
176
     1
 40
0.0
176
     1
 40
1.0
176
     1
 90
        0
176
     1
 62
    18
420
        0
176
     1
 90
       50
176
     1
 90
        3
176
     1
 62
     5
420
      255
176
     1
290
     0
176
     1
 90
       50
176
     1
 90
       50
176
     1
 90
       50
176
     1
290
     0
176
     1
 90
       50
176
     1
 62
   256
176
     0
 40
1.0
176
     0
 90
        2
176
     1
  1
strokes_ogs.tif
176
     1
290
     0
176
     1
 40
1.0
176
     1
 40
1.0
176
     1
1001
ACAD
1000
AcDbSavedByObjectVersion
1070
     0
  0
DICTIONARYVAR
  5
819E
102
{ACAD_REACTORS
330
8198
102
}
330
8198
100
DictionaryVariables
280
     0
  1
1:1
  0
DICTIONARYVAR
  5
819A
102
{ACAD_REACTORS
330
8198
102
}
330
8198
100
DictionaryVariables
280
     0
  1
STANDARD
  0
DICTIONARYVAR
  5
8199
102
{ACAD_REACTORS
330
8198
102
}
330
8198
100
DictionaryVariables
280
     0
  1
STANDARD
  0
DICTIONARYVAR
  5
819B
102
{ACAD_REACTORS
330
8198
102
}
330
8198
100
DictionaryVariables
280
     0
  1
Metric50
  0
DICTIONARYVAR
  5
819C
102
{ACAD_REACTORS
330
8198
102
}
330
8198
100
DictionaryVariables
280
     0
  1
Metric50
  0
DICTIONARYVAR
  5
81A0
102
{ACAD_REACTORS
330
8198
102
}
330
8198
100
DictionaryVariables
280
     0
  1
1
  0
DICTIONARYVAR
  5
81A1
102
{ACAD_REACTORS
330
8198
102
}
330
8198
100
DictionaryVariables
280
     0
  1
15
  0
DICTIONARYVAR
  5
819F
102
{ACAD_REACTORS
330
8198
102
}
330
8198
100
DictionaryVariables
280
     0
  1
0
  0
DICTIONARYVAR
  5
81A6
102
{ACAD_REACTORS
330
8198
102
}
330
8198
100
DictionaryVariables
280
     0
  1
0
  0
DICTIONARYVAR
  5
819D
102
{ACAD_REACTORS
330
8198
102
}
330
8198
100
DictionaryVariables
280
     0
  1
0
  0
DICTIONARY
  5
81B1
102
{ACAD_REACTORS
330
81AF
102
}
330
81AF
100
AcDbDictionary
281
     1
  0
DICTIONARY
  5
81B0
102
{ACAD_REACTORS
330
81AF
102
}
330
81AF
100
AcDbDictionary
281
     1
  3
2040033977248
350
81AA
  3
2040033977264
350
81AB
  3
2040033977280
350
81AC
  3
2040033977296
350
81AD
  3
2040033977312
350
81AE
  0
DICTIONARY
  5
81B4
330
8123
100
AcDbDictionary
280
     1
281
     1
  3
ACAD_XREC_ROUNDTRIP
360
81B5
  0
DICTIONARY
  5
80E1
330
80E0
100
AcDbDictionary
280
     1
281
     1
  3
BUMPTILE
360
80E3
  3
DIFFUSETILE
360
80E2
  3
OPACITYTILE
360
80E6
  3
REFLECTIONTILE
360
80E5
  3
REFRACTIONTILE
360
80E7
  3
SPECULARTILE
360
80E4
  0
DICTIONARY
  5
80D9
330
80D8
100
AcDbDictionary
280
     1
281
     1
  3
BUMPTILE
360
80DB
  3
DIFFUSETILE
360
80DA
  3
OPACITYTILE
360
80DE
  3
REFLECTIONTILE
360
80DD
  3
REFRACTIONTILE
360
80DF
  3
SPECULARTILE
360
80DC
  0
DICTIONARY
  5
80E9
330
80E8
100
AcDbDictionary
280
     1
281
     1
  3
BUMPTILE
360
80EB
  3
DIFFUSETILE
360
80EA
  3
OPACITYTILE
360
80EE
  3
REFLECTIONTILE
360
80ED
  3
REFRACTIONTILE
360
80EF
  3
SPECULARTILE
360
80EC
  0
DICTIONARY
  5
81B2
330
8121
100
AcDbDictionary
280
     1
281
     1
  3
ACAD_XREC_ROUNDTRIP
360
81B3
  0
DICTIONARY
  5
81A7
330
810B
100
AcDbDictionary
280
     1
281
     1
  3
ACAD_ROUNDTRIP_2008_TABLESTYLE_CELLSTYLEMAP
360
81A8
  0
XRECORD
  5
81AA
102
{ACAD_REACTORS
330
81B0
102
}
330
81B0
100
AcDbXrecord
280
     1
  1
AcDb_Thumbnail_Schema
102
{ATTRRECORD
341
81AB
  2
AcDbDs::TreatedAsObjectData
280
     1
291
     1
102
ATTRRECORD}
102
{ATTRRECORD
341
81AC
  2
AcDbDs::Legacy
280
     1
291
     1
102
ATTRRECORD}
  2
AcDbDs::ID
280
    10
 91
        8
102
{ATTRRECORD
341
81AD
  2
AcDs:Indexable
280
     1
291
     1
102
ATTRRECORD}
102
{ATTRRECORD
341
81AE
  2
AcDbDs::HandleAttribute
280
     7
282
     1
102
ATTRRECORD}
  2
Thumbnail_Data
280
    15
 91
        0
  0
XRECORD
  5
81AB
102
{ACAD_REACTORS
330
81B0
102
}
330
81B0
100
AcDbXrecord
280
     1
  1
AcDbDs::TreatedAsObjectDataSchema
  2
AcDbDs::TreatedAsObjectData
280
     1
 91
        0
  0
XRECORD
  5
81AC
102
{ACAD_REACTORS
330
81B0
102
}
330
81B0
100
AcDbXrecord
280
     1
  1
AcDbDs::LegacySchema
  2
AcDbDs::Legacy
280
     1
 91
        0
  0
XRECORD
  5
81AD
102
{ACAD_REACTORS
330
81B0
102
}
330
81B0
100
AcDbXrecord
280
     1
  1
AcDbDs::IndexedPropertySchema
  2
AcDs:Indexable
280
     1
 91
        0
  0
XRECORD
  5
81AE
102
{ACAD_REACTORS
330
81B0
102
}
330
81B0
100
AcDbXrecord
280
     1
  1
AcDbDs::HandleAttributeSchema
  2
AcDbDs::HandleAttribute
280
     7
 91
        1
284
     1
  0
XRECORD
  5
81B5
102
{ACAD_REACTORS
330
81B4
102
}
330
81B4
100
AcDbXrecord
280
     1
102
DISPLAYNAME
  1
Metric50
102
FLAGS
 90
        0
  0
XRECORD
  5
80E3
102
{ACAD_REACTORS
330
80E1
102
}
330
80E1
100
AcDbXrecord
280
     1
270
     1
271
     1
  0
XRECORD
  5
80E2
102
{ACAD_REACTORS
330
80E1
102
}
330
80E1
100
AcDbXrecord
280
     1
270
     1
271
     1
  0
XRECORD
  5
80E6
102
{ACAD_REACTORS
330
80E1
102
}
330
80E1
100
AcDbXrecord
280
     1
270
     1
271
     1
  0
XRECORD
  5
80E5
102
{ACAD_REACTORS
330
80E1
102
}
330
80E1
100
AcDbXrecord
280
     1
270
     1
271
     1
  0
XRECORD
  5
80E7
102
{ACAD_REACTORS
330
80E1
102
}
330
80E1
100
AcDbXrecord
280
     1
270
     1
271
     1
  0
XRECORD
  5
80E4
102
{ACAD_REACTORS
330
80E1
102
}
330
80E1
100
AcDbXrecord
280
     1
270
     1
271
     1
  0
XRECORD
  5
80DB
102
{ACAD_REACTORS
330
80D9
102
}
330
80D9
100
AcDbXrecord
280
     1
270
     1
271
     1
  0
XRECORD
  5
80DA
102
{ACAD_REACTORS
330
80D9
102
}
330
80D9
100
AcDbXrecord
280
     1
270
     1
271
     1
  0
XRECORD
  5
80DE
102
{ACAD_REACTORS
330
80D9
102
}
330
80D9
100
AcDbXrecord
280
     1
270
     1
271
     1
  0
XRECORD
  5
80DD
102
{ACAD_REACTORS
330
80D9
102
}
330
80D9
100
AcDbXrecord
280
     1
270
     1
271
     1
  0
XRECORD
  5
80DF
102
{ACAD_REACTORS
330
80D9
102
}
330
80D9
100
AcDbXrecord
280
     1
270
     1
271
     1
  0
XRECORD
  5
80DC
102
{ACAD_REACTORS
330
80D9
102
}
330
80D9
100
AcDbXrecord
280
     1
270
     1
271
     1
  0
XRECORD
  5
80EB
102
{ACAD_REACTORS
330
80E9
102
}
330
80E9
100
AcDbXrecord
280
     1
270
     1
271
     1
  0
XRECORD
  5
80EA
102
{ACAD_REACTORS
330
80E9
102
}
330
80E9
100
AcDbXrecord
280
     1
270
     1
271
     1
  0
XRECORD
  5
80EE
102
{ACAD_REACTORS
330
80E9
102
}
330
80E9
100
AcDbXrecord
280
     1
270
     1
271
     1
  0
XRECORD
  5
80ED
102
{ACAD_REACTORS
330
80E9
102
}
330
80E9
100
AcDbXrecord
280
     1
270
     1
271
     1
  0
XRECORD
  5
80EF
102
{ACAD_REACTORS
330
80E9
102
}
330
80E9
100
AcDbXrecord
280
     1
270
     1
271
     1
  0
XRECORD
  5
80EC
102
{ACAD_REACTORS
330
80E9
102
}
330
80E9
100
AcDbXrecord
280
     1
270
     1
271
     1
  0
XRECORD
  5
81B3
102
{ACAD_REACTORS
330
81B2
102
}
330
81B2
100
AcDbXrecord
280
     1
102
DISPLAYNAME
  1
Metric50
102
FLAGS
 90
        0
  0
CELLSTYLEMAP
  5
81A8
102
{ACAD_REACTORS
330
81A7
102
}
330
81A7
100
AcDbCellStyleMap
 90
        3
300
CELLSTYLE
  1
TABLEFORMAT_BEGIN
 90
        5
170
     1
 91
        0
 92
    32768
 62
   257
 93
        1
300
CONTENTFORMAT
  1
CONTENTFORMAT_BEGIN
 90
        0
 91
        0
 92
      512
 93
        0
300

 40
0.0
140
1.0
 94
        5
 62
     0
340
10
144
6.0
309
CONTENTFORMAT_END
171
     1
301
MARGIN
  1
CELLMARGIN_BEGIN
 40
1.5
 40
1.5
 40
1.5
 40
1.5
 40
4.5
 40
4.5
309
CELLMARGIN_END
 94
        6
 95
        1
302
GRIDFORMAT
  1
GRIDFORMAT_BEGIN
 90
        0
 91
        1
 62
     0
 92
       -2
340
0
 93
        0
 40
1.125
309
GRIDFORMAT_END
 95
        2
302
GRIDFORMAT
  1
GRIDFORMAT_BEGIN
 90
        0
 91
        1
 62
     0
 92
       -2
340
0
 93
        0
 40
1.125
309
GRIDFORMAT_END
 95
        4
302
GRIDFORMAT
  1
GRIDFORMAT_BEGIN
 90
        0
 91
        1
 62
     0
 92
       -2
340
0
 93
        0
 40
1.125
309
GRIDFORMAT_END
 95
        8
302
GRIDFORMAT
  1
GRIDFORMAT_BEGIN
 90
        0
 91
        1
 62
     0
 92
       -2
340
0
 93
        0
 40
1.125
309
GRIDFORMAT_END
 95
       16
302
GRIDFORMAT
  1
GRIDFORMAT_BEGIN
 90
        0
 91
        1
 62
     0
 92
       -2
340
0
 93
        0
 40
1.125
309
GRIDFORMAT_END
 95
       32
302
GRIDFORMAT
  1
GRIDFORMAT_BEGIN
 90
        0
 91
        1
 62
     0
 92
       -2
340
0
 93
        0
 40
1.125
309
GRIDFORMAT_END
309
TABLEFORMAT_END
  1
CELLSTYLE_BEGIN
 90
        1
 91
        1
300
_TITLE
309
CELLSTYLE_END
300
CELLSTYLE
  1
TABLEFORMAT_BEGIN
 90
        5
170
     1
 91
        0
 92
        0
 62
   257
 93
        1
300
CONTENTFORMAT
  1
CONTENTFORMAT_BEGIN
 90
        0
 91
        0
 92
      512
 93
        0
300

 40
0.0
140
1.0
 94
        5
 62
     0
340
10
144
4.5
309
CONTENTFORMAT_END
171
     1
301
MARGIN
  1
CELLMARGIN_BEGIN
 40
1.5
 40
1.5
 40
1.5
 40
1.5
 40
4.5
 40
4.5
309
CELLMARGIN_END
 94
        6
 95
        1
302
GRIDFORMAT
  1
GRIDFORMAT_BEGIN
 90
        0
 91
        1
 62
     0
 92
       -2
340
0
 93
        0
 40
1.125
309
GRIDFORMAT_END
 95
        2
302
GRIDFORMAT
  1
GRIDFORMAT_BEGIN
 90
        0
 91
        1
 62
     0
 92
       -2
340
0
 93
        0
 40
1.125
309
GRIDFORMAT_END
 95
        4
302
GRIDFORMAT
  1
GRIDFORMAT_BEGIN
 90
        0
 91
        1
 62
     0
 92
       -2
340
0
 93
        0
 40
1.125
309
GRIDFORMAT_END
 95
        8
302
GRIDFORMAT
  1
GRIDFORMAT_BEGIN
 90
        0
 91
        1
 62
     0
 92
       -2
340
0
 93
        0
 40
1.125
309
GRIDFORMAT_END
 95
       16
302
GRIDFORMAT
  1
GRIDFORMAT_BEGIN
 90
        0
 91
        1
 62
     0
 92
       -2
340
0
 93
        0
 40
1.125
309
GRIDFORMAT_END
 95
       32
302
GRIDFORMAT
  1
GRIDFORMAT_BEGIN
 90
        0
 91
        1
 62
     0
 92
       -2
340
0
 93
        0
 40
1.125
309
GRIDFORMAT_END
309
TABLEFORMAT_END
  1
CELLSTYLE_BEGIN
 90
        2
 91
        1
300
_HEADER
309
CELLSTYLE_END
300
CELLSTYLE
  1
TABLEFORMAT_BEGIN
 90
        5
170
     1
 91
        0
 92
        0
 62
   257
 93
        1
300
CONTENTFORMAT
  1
CONTENTFORMAT_BEGIN
 90
        0
 91
        0
 92
      512
 93
        0
300

 40
0.0
140
1.0
 94
        2
 62
     0
340
10
144
4.5
309
CONTENTFORMAT_END
171
     1
301
MARGIN
  1
CELLMARGIN_BEGIN
 40
1.5
 40
1.5
 40
1.5
 40
1.5
 40
4.5
 40
4.5
309
CELLMARGIN_END
 94
        6
 95
        1
302
GRIDFORMAT
  1
GRIDFORMAT_BEGIN
 90
        0
 91
        1
 62
     0
 92
       -2
340
0
 93
        0
 40
1.125
309
GRIDFORMAT_END
 95
        2
302
GRIDFORMAT
  1
GRIDFORMAT_BEGIN
 90
        0
 91
        1
 62
     0
 92
       -2
340
0
 93
        0
 40
1.125
309
GRIDFORMAT_END
 95
        4
302
GRIDFORMAT
  1
GRIDFORMAT_BEGIN
 90
        0
 91
        1
 62
     0
 92
       -2
340
0
 93
        0
 40
1.125
309
GRIDFORMAT_END
 95
        8
302
GRIDFORMAT
  1
GRIDFORMAT_BEGIN
 90
        0
 91
        1
 62
     0
 92
       -2
340
0
 93
        0
 40
1.125
309
GRIDFORMAT_END
 95
       16
302
GRIDFORMAT
  1
GRIDFORMAT_BEGIN
 90
        0
 91
        1
 62
     0
 92
       -2
340
0
 93
        0
 40
1.125
309
GRIDFORMAT_END
 95
       32
302
GRIDFORMAT
  1
GRIDFORMAT_BEGIN
 90
        0
 91
        1
 62
     0
 92
       -2
340
0
 93
        0
 40
1.125
309
GRIDFORMAT_END
309
TABLEFORMAT_END
  1
CELLSTYLE_BEGIN
 90
        3
 91
        2
300
_DATA
309
CELLSTYLE_END
  0
ENDSEC
  0
SECTION
  2
ACDSDATA
 70
     2
 71
     8
  0
ACDSSCHEMA
 90
        0
  1
AcDb_Thumbnail_Schema
  2
AcDbDs::ID
280
    10
 91
        8
  2
Thumbnail_Data
280
    15
 91
        0
101
ACDSRECORD
 95
        0
 90
        1
  2
AcDbDs::TreatedAsObjectData
280
     1
291
     1
101
ACDSRECORD
 95
        0
 90
        2
  2
AcDbDs::Legacy
280
     1
291
     1
101
ACDSRECORD
  1
AcDbDs::ID
 90
        3
  2
AcDs:Indexable
280
     1
291
     1
101
ACDSRECORD
  1
AcDbDs::ID
 90
        4
  2
AcDbDs::HandleAttribute
280
     7
282
     1
  0
ACDSSCHEMA
 90
        1
  1
AcDbDs::TreatedAsObjectDataSchema
  2
AcDbDs::TreatedAsObjectData
280
     1
 91
        0
  0
ACDSSCHEMA
 90
        2
  1
AcDbDs::LegacySchema
  2
AcDbDs::Legacy
280
     1
 91
        0
  0
ACDSSCHEMA
 90
        3
  1
AcDbDs::IndexedPropertySchema
  2
AcDs:Indexable
280
     1
 91
        0
  0
ACDSSCHEMA
 90
        4
  1
AcDbDs::HandleAttributeSchema
  2
AcDbDs::HandleAttribute
280
     7
 91
        1
284
     1
  0
ACDSRECORD
 90
        0
  2
AcDbDs::ID
280
    10
320
8086
  2
Thumbnail_Data
280
    15
 94
     1966
310
89504E470D0A1A0A0000000D49484452000001000000007C0803000000B13B9E5A00000300504C5445000000000000C8C8C80000000000000000000000000000000000000000000000000000330000660000990000CC0000FF0033000033330033660033990033CC0033FF0066000066330066660066990066CC0066FF0099
310
000099330099660099990099CC0099FF00CC0000CC3300CC6600CC9900CCCC00CCFF00FF0000FF3300FF6600FF9900FFCC00FFFF3300003300333300663300993300CC3300FF3333003333333333663333993333CC3333FF3366003366333366663366993366CC3366FF3399003399333399663399993399CC3399FF33CC00
310
33CC3333CC6633CC9933CCCC33CCFF33FF0033FF3333FF6633FF9933FFCC33FFFF6600006600336600666600996600CC6600FF6633006633336633666633996633CC6633FF6666006666336666666666996666CC6666FF6699006699336699666699996699CC6699FF66CC0066CC3366CC6666CC9966CCCC66CCFF66FF0066
310
FF3366FF6666FF9966FFCC66FFFF9900009900339900669900999900CC9900FF9933009933339933669933999933CC9933FF9966009966339966669966999966CC9966FF9999009999339999669999999999CC9999FF99CC0099CC3399CC6699CC9999CCCC99CCFF99FF0099FF3399FF6699FF9999FFCC99FFFFCC0000CC00
310
33CC0066CC0099CC00CCCC00FFCC3300CC3333CC3366CC3399CC33CCCC33FFCC6600CC6633CC6666CC6699CC66CCCC66FFCC9900CC9933CC9966CC9999CC99CCCC99FFCCCC00CCCC33CCCC66CCCC99CCCCCCCCCCFFCCFF00CCFF33CCFF66CCFF99CCFFCCCCFFFFFF0000FF0033FF0066FF0099FF00CCFF00FFFF3300FF3333
310
FF3366FF3399FF33CCFF33FFFF6600FF6633FF6666FF6699FF66CCFF66FFFF9900FF9933FF9966FF9999FF99CCFF99FFFFCC00FFCC33FFCC66FFCC99FFCCCCFFCCFFFFFF00FFFF33FFFF66FFFF99FFFFCCFFFFFF0000000D0D0D1A1A1A2828283535354343435050505D5D5D6B6B6B787878868686939393A1A1A1AEAEAEBB
310
BBBBC9C9C9D6D6D6E4E4E4F1F1F1FFFFFF00000000000000000000000000000000000000000000000000000000000008F1915C0000039B4944415478DAED9D5172EB200C45B51C7EB4FFCDB00DFE9F0D028400BBEDB4F382243AD3C18EE309C71749084200FEA0A43F2A704A4947DDD601380007E0001CC0E77CD207E76705
310
80787B32A900F300926500A2179C0DE05747004702F8B09B3980FF008074CC249D863A5491976B7BCFA1931A00406934F466031D569B97124500A95621D5FF2A14003BFB460A286DED0A602F68E90235C84BBC4F3CB72DB911F438C0E060E8B54B1C086069FBC4234ECDF9A56E39AD00E82EA00210E65F1F80C9155600D0FE
310
3401F8ADF77B4ED00138803301C4ABACEA2600C4DEE8C80144330076C59202E6AA25054CD5601300224664E527FDE06C00ED4CE8271C801100C101180590EDDC65F0C26DF54C02A076DA5540717FA5045110F4BBC102203FF35517500F203A0007F00840BD11340F001C000730156300DA6BA405070060672CB02C46122218
310
AF671DB800E00A82D14E4AEC06308C05F3812D00CDF17537680A40CD075C9D1E9B453096150EDD2482BDB4B8F599A1036EEB001C800370009FF049B97358FB89D301BC383FA500A268E1EA856DB4A03A10DAAF17C1E5D9D315109B0262E90B5B00AC23A802F00505C80BB42960ACAD00B4F172395209E0C920889C99420039
310
131010A571A0031C1480FA006081304E8A18028045E481A784AA5F5800984DE5E10010EA2C4126F00A008B385401C09A22C6922DED006AB2583100241B78373EAF1BAD42CF703600A22A00E5D9E796760040000A18C500B2F50B79B154A9B01020867C5A9610831A00247EAE0024E39719B457BA024A28A40300B5BE7601B2
310
852300B2026D59E15D5702E0D27297408E04819A3A29A0B8429A4DCF6642018012FAD436B5C623D2B85700E893C9F30A8243014073FD087DAA9800901DE46EF0E2A52812BC274773EC471260366E04D0DD20F23524703E8070AF12A609620409A050B82F08F4E4C72E008A1400C2CBB5E4D810083123A80240B601019B0590
310
00442438B8412D00C8EF034FFACC005A14C009290180387D63847D712EF6A1F2BC925213805DFB7824F842E048002D07B45A26F8901275006A00C062991C77721DC078C1C20F9E3C16E0CF7E56401CAC456C13032A0088E75CA708A3CC98B49161AB2801F03C392C36D7785E4977FAFA80E1CC02C094465401E0A5C4EF2C19
310
F545520EC0019C0FC0FC8E920F2D4BCB23B001406C373CEC3DA80C002C7E3629C1BC9762C5A15901366DC05201E3A6DABB9B29B60136016CFA852105F8CED21E0A3B0007E0001C800370000EC001380007A00CC0413FBDFD0F784236F5A7CAF9140000000049454E44AE426082C48F05403551C84E104D240CE200DE004650
310
808E7B25FE61600FBF03000700CAD1EAB708D29440EF61303B7C90DF0FC8E96F28F1E00A8001A8AAE8D30B6D7A018039E4EB4F2CD90DEAD195F972034079009D408E02A0E43A160053C1521DA808582940390034D71E0C0000295F2D07A200567E90A1D500F26CA08A023A137C1F36D07C4002B04DFF3101B185EAB23903A0
310
A500FB181FCAF12B00B0C8B6D280C9692D003A01F052C0C0005087F406809C0F357C4052D38700FC00B2B18D533262D7320000000049454E44AE426082
  0
ENDSEC
  0
EOF
