  0
SECTION
  2
HEADER
  9
$ACADVER
  1
AC1009
  9
$INSBASE
 10
0.0
 20
0.0
 30
0.0
  9
$EXTMIN
 10
0.0
 20
0.0
 30
0.0
  9
$EXTMAX
 10
4200.0
 20
5900.0
 30
0.0
  9
$LIMMIN
 10
0.0
 20
0.0
  9
$LIMMAX
 10
297.0
 20
210.0
  9
$ORTHOMODE
 70
     0
  9
$REGENMODE
 70
     1
  9
$FILLMODE
 70
     0
  9
$QTEXTMODE
 70
     0
  9
$MIRRTEXT
 70
     1
  9
$DRAGMODE
 70
     2
  9
$LTSCALE
 40
100.0
  9
$OSMODE
 70
    37
  9
$ATTMODE
 70
     1
  9
$TEXTSIZE
 40
180.0
  9
$TRACEWID
 40
0.05
  9
$TEXTSTYLE
  7
STANDARD
  9
$CLAYER
  8
3
  9
$CELTYPE
  6
BYLAYER
  9
$CECOLOR
 62
   256
  9
$DIMSCALE
 40
20.0
  9
$DIMASZ
 40
2.0
  9
$DIMEXO
 40
0.5
  9
$DIMDLI
 40
10.0
  9
$DIMRND
 40
0.0
  9
$DIMDLE
 40
0.0
  9
$DIMEXE
 40
1.0
  9
$DIMTP
 40
1.0
  9
$DIMTM
 40
1.0
  9
$DIMTXT
 40
3.0
  9
$DIMCEN
 40
0.0
  9
$DIMTSZ
 40
0.0
  9
$DIMTOL
 70
     0
  9
$DIMLIM
 70
     0
  9
$DIMTIH
 70
     0
  9
$DIMTOH
 70
     0
  9
$DIMSE1
 70
     0
  9
$DIMSE2
 70
     0
  9
$DIMTAD
 70
     1
  9
$DIMZIN
 70
     8
  9
$DIMBLK
  1

  9
$DIMASO
 70
     1
  9
$DIMSHO
 70
     1
  9
$DIMPOST
  1

  9
$DIMAPOST
  1

  9
$DIMALT
 70
     0
  9
$DIMALTD
 70
     2
  9
$DIMALTF
 40
0.039
  9
$DIMLFAC
 40
1.0
  9
$DIMTOFL
 70
     1
  9
$DIMTVP
 40
0.0
  9
$DIMTIX
 70
     0
  9
$DIMSOXD
 70
     0
  9
$DIMSAH
 70
     1
  9
$DIMBLK1
  1
OPEN
  9
$DIMBLK2
  1
OPEN
  9
$DIMSTYLE
  2
IGA
  9
$DIMCLRD
 70
     0
  9
$DIMCLRE
 70
     0
  9
$DIMCLRT
 70
     0
  9
$DIMTFAC
 40
10.0
  9
$DIMGAP
 40
1.0
  9
$LUNITS
 70
     2
  9
$LUPREC
 70
     3
  9
$SKETCHINC
 40
0.1
  9
$FILLETRAD
 40
50.0
  9
$AUNITS
 70
     0
  9
$AUPREC
 70
     0
  9
$MENU
  1
acad
  9
$ELEVATION
 40
0.0
  9
$PELEVATION
 40
0.0
  9
$THICKNESS
 40
0.0
  9
$LIMCHECK
 70
     0
  9
$BLIPMODE
 70
     0
  9
$CHAMFERA
 40
0.5
  9
$CHAMFERB
 40
0.5
  9
$SKPOLY
 70
     0
  9
$TDCREATE
 40
2451019.6507322919
  9
$TDUPDATE
 40
2454953.640452465
  9
$TDINDWG
 40
0.0233065625
  9
$TDUSRTIMER
 40
0.0233065625
  9
$USRTIMER
 70
     1
  9
$ANGBASE
 50
0.0
  9
$ANGDIR
 70
     0
  9
$PDMODE
 70
     0
  9
$PDSIZE
 40
0.0
  9
$PLINEWID
 40
0.0
  9
$COORDS
 70
     1
  9
$SPLFRAME
 70
     0
  9
$SPLINETYPE
 70
     6
  9
$SPLINESEGS
 70
     8
  9
$ATTDIA
 70
     0
  9
$ATTREQ
 70
     1
  9
$HANDLING
 70
 10241
  9
$HANDSEED
  5
848D
  9
$SURFTAB1
 70
     6
  9
$SURFTAB2
 70
     6
  9
$SURFTYPE
 70
     6
  9
$SURFU
 70
     6
  9
$SURFV
 70
     6
  9
$UCSNAME
  2

  9
$UCSORG
 10
0.0
 20
0.0
 30
0.0
  9
$UCSXDIR
 10
1.0
 20
0.0
 30
0.0
  9
$UCSYDIR
 10
0.0
 20
1.0
 30
0.0
  9
$PUCSNAME
  2

  9
$PUCSORG
 10
0.0
 20
0.0
 30
0.0
  9
$PUCSXDIR
 10
1.0
 20
0.0
 30
0.0
  9
$PUCSYDIR
 10
0.0
 20
1.0
 30
0.0
  9
$USERI1
 70
     0
  9
$USERI2
 70
     0
  9
$USERI3
 70
     0
  9
$USERI4
 70
     0
  9
$USERI5
 70
     0
  9
$USERR1
 40
0.0
  9
$USERR2
 40
0.0
  9
$USERR3
 40
0.0
  9
$USERR4
 40
0.0
  9
$USERR5
 40
0.0
  9
$WORLDVIEW
 70
     1
  9
$SHADEDGE
 70
     3
  9
$SHADEDIF
 70
    70
  9
$TILEMODE
 70
     1
  9
$MAXACTVP
 70
    16
  9
$PLIMCHECK
 70
     0
  9
$PEXTMIN
 10
1.0000000000000000E+020
 20
1.0000000000000000E+020
 30
1.0000000000000000E+020
  9
$PEXTMAX
 10
-1.0000000000000000E+020
 20
-1.0000000000000000E+020
 30
-1.0000000000000000E+020
  9
$PLIMMIN
 10
0.0
 20
0.0
  9
$PLIMMAX
 10
12.0
 20
9.0
  9
$UNITMODE
 70
     0
  9
$VISRETAIN
 70
     0
  9
$PLINEGEN
 70
     0
  9
$PSLTSCALE
 70
     1
  0
ENDSEC
  0
SECTION
  2
TABLES
  0
TABLE
  2
VPORT
 70
     2
  0
VPORT
  2
*ACTIVE
 70
     0
 10
0.0
 20
0.0
 11
1.0
 21
1.0
 12
4039.607666642502
 22
671.67750458236605
 13
0.0
 23
0.0
 14
10.0
 24
10.0
 15
10.0
 25
10.0
 16
0.0
 26
0.0
 36
1.0
 17
0.0
 27
0.0
 37
0.0
 40
1795.8166356177701
 41
3.1666666666666661
 42
50.0
 43
0.0
 44
0.0
 50
0.0
 51
0.0
 71
     0
 72
   100
 73
     1
 74
     0
 75
     0
 76
     0
 77
     0
 78
     0
  0
ENDTAB
  0
TABLE
  2
LTYPE
 70
     2
  0
LTYPE
  2
CONTINUOUS
 70
     0
  3
Solid line
 72
    65
 73
     0
 40
0.0
  0
LTYPE
  2
CENTER
 70
     0
  3
____ _ ____ _ ____ _ ____ _ ____ _ ____ _ ____ 
 72
    65
 73
     4
 40
2.0
 49
1.25
 49
-0.25
 49
0.25
 49
-0.25
  0
ENDTAB
  0
TABLE
  2
LAYER
 70
     6
  0
LAYER
  2
0
 70
     0
 62
     7
  6
CONTINUOUS
  0
LAYER
  2
3
 70
     0
 62
     2
  6
CONTINUOUS
  0
LAYER
  2
2
 70
     0
 62
     3
  6
CENTER
  0
LAYER
  2
1
 70
     0
 62
     4
  6
CONTINUOUS
  0
LAYER
  2
4
 70
     0
 62
     7
  6
CONTINUOUS
  0
LAYER
  2
DEFPOINTS
 70
     0
 62
     7
  6
CONTINUOUS
  0
ENDTAB
  0
TABLE
  2
STYLE
 70
     1
  0
STYLE
  2
STANDARD
 70
     0
 40
0.0
 41
1.0
 50
0.0
 71
     0
 42
180.0
  3
simplex.shx
  4
extfont.shx
  0
ENDTAB
  0
TABLE
  2
VIEW
 70
     0
  0
ENDTAB
  0
TABLE
  2
UCS
 70
     0
  0
ENDTAB
  0
TABLE
  2
APPID
 70
     1
  0
APPID
  2
ACAD
 70
     0
  0
ENDTAB
  0
TABLE
  2
DIMSTYLE
 70
     1
  0
DIMSTYLE
  2
IGA
 70
     0
  3

  4

  5

  6
OPEN
  7
OPEN
 40
2.0
 41
2.0
 42
0.5
 43
10.0
 44
1.0
 45
0.0
 46
0.0
 47
1.0
 48
1.0
140
3.0
141
0.0
142
0.0
143
0.03937
144
1.0
145
0.0
146
10.0
147
1.0
 71
     0
 72
     0
 73
     0
 74
     0
 75
     0
 76
     0
 77
     1
 78
     8
170
     0
171
     2
172
     0
173
     1
174
     0
175
     0
176
     0
177
     0
178
     0
  0
ENDTAB
  0
ENDSEC
  0
SECTION
  2
BLOCKS
  0
BLOCK
  8
0
  2
$MODEL_SPACE
 70
     0
 10
0.0
 20
0.0
 30
0.0
  3
$MODEL_SPACE
  1

  0
ENDBLK
  5
1B
  8
0
  0
BLOCK
 67
     1
  8
0
  2
$PAPER_SPACE
 70
     0
 10
0.0
 20
0.0
 30
0.0
  3
$PAPER_SPACE
  1

  0
ENDBLK
  5
18
 67
     1
  8
0
  0
BLOCK
  8
0
  2
_OPEN
 70
     0
 10
0.0
 20
0.0
 30
0.0
  3
_OPEN
  1

  0
LINE
  5
7A06
  8
0
  6
BYBLOCK
 62
     0
 10
-1.0
 20
0.1666666666666666
 30
0.0
 11
0.0
 21
0.0
 31
0.0
  0
LINE
  5
7A07
  8
0
  6
BYBLOCK
 62
     0
 10
0.0
 20
0.0
 30
0.0
 11
-1.0
 21
-0.1666666666666666
 31
0.0
  0
LINE
  5
7A08
  8
0
  6
BYBLOCK
 62
     0
 10
0.0
 20
0.0
 30
0.0
 11
-1.0
 21
0.0
 31
0.0
  0
ENDBLK
  5
7A0A
  8
0
  0
BLOCK
  8
0
  2
*D1
 70
     1
 10
0.0
 20
0.0
 30
0.0
  3
*D1
  1

  0
LINE
  5
83A1
  8
3
 62
     0
 10
2453.7762554624592
 20
2154.6797421827559
 30
0.0
 11
2453.7762554624592
 21
2611.8272725538709
 31
0.0
  0
LINE
  5
83A2
  8
3
 62
     0
 10
3308.7762554624592
 20
2541.7090967925569
 30
0.0
 11
3308.7762554624592
 21
2611.8272725538709
 31
0.0
  0
LINE
  5
83A3
  8
3
 62
     0
 10
2493.7762554624578
 20
2591.8272725538709
 30
0.0
 11
3268.7762554624592
 21
2591.8272725538709
 31
0.0
  0
INSERT
  5
83A4
  8
3
 62
     0
  2
_OPEN
 10
2453.7762554624592
 20
2591.8272725538709
 30
0.0
 41
40.0
 42
40.0
 43
40.0
 50
180.0
  0
INSERT
  5
83A5
  8
3
 62
     0
  2
_OPEN
 10
3308.7762554624592
 20
2591.8272725538709
 30
0.0
 41
40.0
 42
40.0
 43
40.0
  0
TEXT
  8
3
  40
60
  5
847A
  62
0
  72
0
  71
0
 10
2761.28
 20
2585.63
 30
0.000000
  1
MAX
  0
TEXT
  8
3
  40
60
  5
847B
  62
0
  72
0
  71
0
 10
2761.28
 20
2507.63
 30
0.000000
  1
930
  0
POINT
  5
83A7
  8
DEFPOINTS
 62
     0
 10
2453.7762554624592
 20
2144.6797421827559
 30
0.0
  0
POINT
  5
83A8
  8
DEFPOINTS
 62
     0
 10
3308.7762554624592
 20
2531.7090967925569
 30
0.0
  0
POINT
  5
83A9
  8
DEFPOINTS
 62
     0
 10
3308.7762554624592
 20
2591.8272725538709
 30
0.0
  0
ENDBLK
  5
82A3
  8
0
  0
BLOCK
  8
0
  2
*D2
 70
     1
 10
0.0
 20
0.0
 30
0.0
  3
*D2
  1

  0
LINE
  5
83AA
  8
3
 62
     0
 10
2538.7762554624592
 20
1304.6797421827559
 30
0.0
 11
2538.7762554624592
 21
1141.099633947809
 31
0.0
  0
LINE
  5
83AB
  8
3
 62
     0
 10
3308.7762554624592
 20
1276.201855650276
 30
0.0
 11
3308.7762554624592
 21
1141.099633947809
 31
0.0
  0
LINE
  5
83AC
  8
3
 62
     0
 10
2578.7762554624592
 20
1161.099633947809
 30
0.0
 11
3268.7762554624592
 21
1161.099633947809
 31
0.0
  0
INSERT
  5
83AD
  8
3
 62
     0
  2
_OPEN
 10
2538.7762554624592
 20
1161.099633947809
 30
0.0
 41
40.0
 42
40.0
 43
40.0
 50
180.0
  0
INSERT
  5
83AE
  8
3
 62
     0
  2
_OPEN
 10
3308.7762554624592
 20
1161.099633947809
 30
0.0
 41
40.0
 42
40.0
 43
40.0
  0
TEXT
  8
3
  40
60
  5
847C
  62
0
  72
0
  71
0
 10
2803.78
 20
1104.90
 30
0.000000
  1
770
  0
POINT
  5
83B0
  8
DEFPOINTS
 62
     0
 10
2538.7762554624592
 20
1314.6797421827559
 30
0.0
  0
POINT
  5
83B1
  8
DEFPOINTS
 62
     0
 10
3308.7762554624592
 20
1286.201855650276
 30
0.0
  0
POINT
  5
83B2
  8
DEFPOINTS
 62
     0
 10
3308.7762554624592
 20
1161.099633947809
 30
0.0
  0
ENDBLK
  5
826E
  8
0
  0
BLOCK
  8
0
  2
*D3
 70
     1
 10
0.0
 20
0.0
 30
0.0
  3
*D3
  1

  0
LINE
  5
83B3
  8
3
 62
     0
 10
1422.5902873486259
 20
2364.6797421827569
 30
0.0
 11
1422.5902873486259
 21
2462.3586998725432
 31
0.0
  0
LINE
  5
83B4
  8
3
 62
     0
 10
910.59028734862659
 20
2364.6797421827569
 30
0.0
 11
910.59028734862659
 21
2462.3586998725432
 31
0.0
  0
LINE
  5
83B5
  8
3
 62
     0
 10
1382.5902873486259
 20
2442.3586998725432
 30
0.0
 11
950.59028734862648
 21
2442.3586998725432
 31
0.0
  0
INSERT
  5
83B6
  8
3
 62
     0
  2
_OPEN
 10
1422.5902873486259
 20
2442.3586998725432
 30
0.0
 41
40.0
 42
40.0
 43
40.0
  0
INSERT
  5
83B7
  8
3
 62
     0
  2
_OPEN
 10
910.59028734862659
 20
2442.3586998725432
 30
0.0
 41
40.0
 42
40.0
 43
40.0
 50
180.0
  0
TEXT
  8
3
  40
60
  5
847D
  62
0
  72
0
  71
0
 10
1046.59
 20
2386.16
 30
0.000000
  1
512
  0
POINT
  5
83B9
  8
DEFPOINTS
 62
     0
 10
1422.5902873486259
 20
2354.6797421827569
 30
0.0
  0
POINT
  5
83BA
  8
DEFPOINTS
 62
     0
 10
910.59028734862659
 20
2354.6797421827569
 30
0.0
  0
POINT
  5
83BB
  8
DEFPOINTS
 62
     0
 10
910.59028734862659
 20
2442.3586998725432
 30
0.0
  0
ENDBLK
  5
816E
  8
0
  0
BLOCK
  8
0
  2
*D4
 70
     1
 10
0.0
 20
0.0
 30
0.0
  3
*D4
  1

  0
LINE
  5
83BC
  8
3
 62
     0
 10
910.59028734862659
 20
2364.6797421827569
 30
0.0
 11
910.59028734862659
 21
2568.5162160607319
 31
0.0
  0
LINE
  5
83BD
  8
3
 62
     0
 10
1448.5902873486259
 20
2392.5822650888399
 30
0.0
 11
1448.5902873486259
 21
2568.5162160607319
 31
0.0
  0
LINE
  5
83BE
  8
3
 62
     0
 10
950.59028734862648
 20
2548.5162160607319
 30
0.0
 11
1408.5902873486259
 21
2548.5162160607319
 31
0.0
  0
INSERT
  5
83BF
  8
3
 62
     0
  2
_OPEN
 10
910.59028734862659
 20
2548.5162160607319
 30
0.0
 41
40.0
 42
40.0
 43
40.0
 50
180.0
  0
INSERT
  5
83C0
  8
3
 62
     0
  2
_OPEN
 10
1448.5902873486259
 20
2548.5162160607319
 30
0.0
 41
40.0
 42
40.0
 43
40.0
  0
TEXT
  8
3
  40
60
  5
847E
  62
0
  72
0
  71
0
 10
1059.59
 20
2492.32
 30
0.000000
  1
538
  0
POINT
  5
83C2
  8
DEFPOINTS
 62
     0
 10
910.59028734862659
 20
2354.6797421827569
 30
0.0
  0
POINT
  5
83C3
  8
DEFPOINTS
 62
     0
 10
1448.5902873486259
 20
2382.582265088839
 30
0.0
  0
POINT
  5
83C4
  8
DEFPOINTS
 62
     0
 10
1448.5902873486259
 20
2548.5162160607319
 30
0.0
  0
ENDBLK
  5
8163
  8
0
  0
BLOCK
  8
0
  2
*D5
 70
     1
 10
0.0
 20
0.0
 30
0.0
  3
*D5
  1

  0
LINE
  5
83C5
  8
3
 62
     0
 10
1448.5902873486259
 20
2392.5822650888399
 30
0.0
 11
1448.5902873486259
 21
2568.5162160607319
 31
0.0
  0
LINE
  5
83C6
  8
3
 62
     0
 10
1809.638278156486
 20
1967.6797421827559
 30
0.0
 11
1809.638278156486
 21
2568.5162160607319
 31
0.0
  0
LINE
  5
83C7
  8
3
 62
     0
 10
1488.5902873486259
 20
2548.5162160607319
 30
0.0
 11
1769.6382781564871
 21
2548.5162160607319
 31
0.0
  0
INSERT
  5
83C8
  8
3
 62
     0
  2
_OPEN
 10
1448.5902873486259
 20
2548.5162160607319
 30
0.0
 41
40.0
 42
40.0
 43
40.0
 50
180.0
  0
INSERT
  5
83C9
  8
3
 62
     0
  2
_OPEN
 10
1809.638278156486
 20
2548.5162160607319
 30
0.0
 41
40.0
 42
40.0
 43
40.0
  0
TEXT
  8
3
  40
60
  5
847F
  62
0
  72
0
  71
0
 10
1509.11
 20
2492.32
 30
0.000000
  1
361
  0
POINT
  5
83CB
  8
DEFPOINTS
 62
     0
 10
1448.5902873486259
 20
2382.582265088839
 30
0.0
  0
POINT
  5
83CC
  8
DEFPOINTS
 62
     0
 10
1809.638278156486
 20
1957.6797421827559
 30
0.0
  0
POINT
  5
83CD
  8
DEFPOINTS
 62
     0
 10
1809.638278156486
 20
2548.5162160607319
 30
0.0
  0
ENDBLK
  5
8158
  8
0
  0
BLOCK
  8
0
  2
*D6
 70
     1
 10
0.0
 20
0.0
 30
0.0
  3
*D6
  1

  0
LINE
  5
83CE
  8
3
 62
     0
 10
1448.5902873486259
 20
1276.201855650276
 30
0.0
 11
1448.5902873486259
 21
1145.350179538568
 31
0.0
  0
LINE
  5
83CF
  8
3
 62
     0
 10
618.59028734862704
 20
1304.6797421827559
 30
0.0
 11
618.59028734862704
 21
1145.350179538568
 31
0.0
  0
LINE
  5
83D0
  8
3
 62
     0
 10
1408.5902873486259
 20
1165.350179538568
 30
0.0
 11
658.59028734862704
 21
1165.350179538568
 31
0.0
  0
INSERT
  5
83D1
  8
3
 62
     0
  2
_OPEN
 10
1448.5902873486259
 20
1165.350179538568
 30
0.0
 41
40.0
 42
40.0
 43
40.0
  0
INSERT
  5
83D2
  8
3
 62
     0
  2
_OPEN
 10
618.59028734862704
 20
1165.350179538568
 30
0.0
 41
40.0
 42
40.0
 43
40.0
 50
180.0
  0
TEXT
  8
3
  40
60
  5
8480
  62
0
  72
0
  71
0
 10
913.590
 20
1109.15
 30
0.000000
  1
830
  0
POINT
  5
83D4
  8
DEFPOINTS
 62
     0
 10
1448.5902873486259
 20
1286.201855650276
 30
0.0
  0
POINT
  5
83D5
  8
DEFPOINTS
 62
     0
 10
618.59028734862704
 20
1314.6797421827559
 30
0.0
  0
POINT
  5
83D6
  8
DEFPOINTS
 62
     0
 10
618.59028734862704
 20
1165.350179538568
 30
0.0
  0
ENDBLK
  5
8279
  8
0
  0
BLOCK
  8
0
  2
*D7
 70
     1
 10
0.0
 20
0.0
 30
0.0
  3
*D7
  1

  0
LINE
  5
83D7
  8
3
 62
     0
 10
1708.5902873486259
 20
1389.6797421827571
 30
0.0
 11
2017.405541058582
 21
1389.6797421827571
 31
0.0
  0
LINE
  5
83D8
  8
3
 62
     0
 10
1708.5902873486259
 20
1314.6797421827559
 30
0.0
 11
2017.405541058582
 21
1314.6797421827559
 31
0.0
  0
LINE
  5
83D9
  8
3
 62
     0
 10
1997.4055410585829
 20
1429.6797421827559
 30
0.0
 11
1997.4055410585829
 21
1469.6797421827571
 31
0.0
  0
LINE
  5
83DA
  8
3
 62
     0
 10
1997.4055410585829
 20
1274.6797421827559
 30
0.0
 11
1997.4055410585829
 21
1097.5368850398991
 31
0.0
  0
LINE
  5
83DB
  8
3
 62
     0
 10
1997.4055410585829
 20
1389.6797421827571
 30
0.0
 11
1997.4055410585829
 21
1314.6797421827559
 31
0.0
  0
INSERT
  5
83DC
  8
3
 62
     0
  2
_DOT
 10
1997.4055410585829
 20
1389.6797421827571
 30
0.0
 41
40.0
 42
40.0
 43
40.0
 50
270.0
  0
INSERT
  5
83DD
  8
3
 62
     0
  2
_OPEN
 10
1997.4055410585829
 20
1314.6797421827559
 30
0.0
 41
40.0
 42
40.0
 43
40.0
 50
90.0
  0
TEXT
  8
3
  40
60
  5
8481
  62
0
  72
0
  71
0
 10
1827.41
 20
1059.91
 30
0.000000
  1
75
  0
POINT
  5
83DF
  8
DEFPOINTS
 62
     0
 10
1698.5902873486259
 20
1389.6797421827571
 30
0.0
  0
POINT
  5
83E0
  8
DEFPOINTS
 62
     0
 10
1698.5902873486259
 20
1314.6797421827559
 30
0.0
  0
POINT
  5
83E1
  8
DEFPOINTS
 62
     0
 10
1997.4055410585829
 20
1314.6797421827559
 30
0.0
  0
ENDBLK
  5
833B
  8
0
  0
BLOCK
  8
0
  2
*D8
 70
     1
 10
0.0
 20
0.0
 30
0.0
  3
*D8
  1

  0
LINE
  5
827B
  8
0
  6
BYBLOCK
 62
     0
 10
1698.5902873486259
 20
1361.6797421827559
 30
0.0
 11
1698.5902873486259
 21
1202.350179538568
 31
0.0
  0
LINE
  5
827C
  8
0
  6
BYBLOCK
 62
     0
 10
1448.5902873486259
 20
1333.201855650276
 30
0.0
 11
1448.5902873486259
 21
1202.350179538568
 31
0.0
  0
LINE
  5
827D
  8
0
  6
BYBLOCK
 62
     0
 10
1658.5902873486259
 20
1222.350179538568
 30
0.0
 11
1488.5902873486259
 21
1222.350179538568
 31
0.0
  0
TEXT
  5
827E
  8
3
 62
     0
 10
1496.447430205769
 20
1250.767468508109
 30
0.0
 40
60.0
  1
250
  0
INSERT
  5
827F
  8
0
  6
BYBLOCK
 62
     0
  2
_OPEN
 10
1698.5902873486259
 20
1222.350179538568
 30
0.0
 41
40.0
 42
40.0
 43
40.0
  0
INSERT
  5
8280
  8
0
  6
BYBLOCK
 62
     0
  2
_OPEN
 10
1448.5902873486259
 20
1222.350179538568
 30
0.0
 41
40.0
 42
40.0
 43
40.0
 50
180.0
  0
POINT
  5
8281
  8
DEFPOINTS
  6
BYBLOCK
 62
     0
 10
1698.5902873486259
 20
1371.6797421827559
 30
0.0
  0
POINT
  5
8282
  8
DEFPOINTS
  6
BYBLOCK
 62
     0
 10
1448.5902873486259
 20
1343.201855650276
 30
0.0
  0
POINT
  5
8283
  8
DEFPOINTS
  6
BYBLOCK
 62
     0
 10
1448.5902873486259
 20
1222.350179538568
 30
0.0
  0
ENDBLK
  5
8284
  8
0
  0
BLOCK
  8
0
  2
*D9
 70
     1
 10
0.0
 20
0.0
 30
0.0
  3
*D9
  1

  0
LINE
  5
83E2
  8
3
 62
     0
 10
1901.7367806648699
 20
1994.6797421827559
 30
0.0
 11
2017.4055410585829
 21
1994.6797421827559
 31
0.0
  0
LINE
  5
83E3
  8
3
 62
     0
 10
1708.5902873486259
 20
1484.6797421827559
 30
0.0
 11
2017.405541058582
 21
1484.6797421827559
 31
0.0
  0
LINE
  5
83E4
  8
3
 62
     0
 10
1997.4055410585829
 20
1954.6797421827559
 30
0.0
 11
1997.4055410585829
 21
1524.6797421827559
 31
0.0
  0
INSERT
  5
83E5
  8
3
 62
     0
  2
_OPEN
 10
1997.4055410585829
 20
1994.6797421827559
 30
0.0
 41
40.0
 42
40.0
 43
40.0
 50
90.0
  0
INSERT
  5
83E6
  8
3
 62
     0
  2
_OPEN
 10
1997.4055410585829
 20
1484.6797421827559
 30
0.0
 41
40.0
 42
40.0
 43
40.0
 50
270.0
  0
TEXT
  8
3
  40
60
  5
8482
  62
0
  72
0
  71
0
 10
1827.41
 20
1633.48
 30
0.000000
  1
510
  0
POINT
  5
83E8
  8
DEFPOINTS
 62
     0
 10
1891.736780664871
 20
1994.6797421827559
 30
0.0
  0
POINT
  5
83E9
  8
DEFPOINTS
 62
     0
 10
1698.5902873486259
 20
1484.6797421827559
 30
0.0
  0
POINT
  5
83EA
  8
DEFPOINTS
 62
     0
 10
1997.4055410585829
 20
1484.6797421827559
 30
0.0
  0
ENDBLK
  5
811D
  8
0
  0
BLOCK
  8
0
  2
*D10
 70
     1
 10
0.0
 20
0.0
 30
0.0
  3
*D10
  1

  0
LINE
  5
83EB
  8
3
 62
     0
 10
1459.190287348626
 20
2354.6797421827569
 30
0.0
 11
2017.405541058582
 21
2354.6797421827569
 31
0.0
  0
LINE
  5
83EC
  8
3
 62
     0
 10
1901.7367806648699
 20
1994.6797421827559
 30
0.0
 11
2017.405541058582
 21
1994.6797421827559
 31
0.0
  0
LINE
  5
83ED
  8
3
 62
     0
 10
1997.4055410585829
 20
2314.6797421827569
 30
0.0
 11
1997.4055410585829
 21
2034.6797421827571
 31
0.0
  0
INSERT
  5
83EE
  8
3
 62
     0
  2
_OPEN
 10
1997.4055410585829
 20
2354.6797421827569
 30
0.0
 41
40.0
 42
40.0
 43
40.0
 50
90.0
  0
INSERT
  5
83EF
  8
3
 62
     0
  2
_OPEN
 10
1997.4055410585829
 20
1994.6797421827559
 30
0.0
 41
40.0
 42
40.0
 43
40.0
 50
270.0
  0
TEXT
  8
3
  40
60
  5
8483
  62
0
  72
0
  71
0
 10
1827.41
 20
2068.48
 30
0.000000
  1
360
  0
POINT
  5
83F1
  8
DEFPOINTS
 62
     0
 10
1449.190287348626
 20
2354.6797421827569
 30
0.0
  0
POINT
  5
83F2
  8
DEFPOINTS
 62
     0
 10
1891.736780664871
 20
1994.6797421827559
 30
0.0
  0
POINT
  5
83F3
  8
DEFPOINTS
 62
     0
 10
1997.4055410585829
 20
1994.6797421827559
 30
0.0
  0
ENDBLK
  5
8105
  8
0
  0
BLOCK
  8
0
  2
*D11
 70
     1
 10
0.0
 20
0.0
 30
0.0
  3
*D11
  1

  0
LINE
  5
83F4
  8
3
 62
     0
 10
1198.5902873486259
 20
4336.1541628245923
 30
0.0
 11
1198.5902873486259
 21
4489.4389140303074
 31
0.0
  0
LINE
  5
83F5
  8
3
 62
     0
 10
618.59028734862704
 20
3896.1541628245918
 30
0.0
 11
618.59028734862704
 21
4489.4389140303074
 31
0.0
  0
LINE
  5
83F6
  8
3
 62
     0
 10
1158.5902873486259
 20
4469.4389140303056
 30
0.0
 11
658.59028734862704
 21
4469.4389140303056
 31
0.0
  0
INSERT
  5
83F7
  8
3
 62
     0
  2
_OPEN
 10
1198.5902873486259
 20
4469.4389140303056
 30
0.0
 41
40.0
 42
40.0
 43
40.0
  0
INSERT
  5
83F8
  8
3
 62
     0
  2
_OPEN
 10
618.59028734862704
 20
4469.4389140303056
 30
0.0
 41
40.0
 42
40.0
 43
40.0
 50
180.0
  0
TEXT
  8
3
  40
60
  5
8484
  62
0
  72
0
  71
0
 10
788.590
 20
4413.24
 30
0.000000
  1
580
  0
POINT
  5
83FA
  8
DEFPOINTS
 62
     0
 10
1198.5902873486259
 20
4326.1541628245923
 30
0.0
  0
POINT
  5
83FB
  8
DEFPOINTS
 62
     0
 10
618.59028734862704
 20
3886.1541628245918
 30
0.0
  0
POINT
  5
83FC
  8
DEFPOINTS
 62
     0
 10
618.59028734862704
 20
4469.4389140303056
 30
0.0
  0
ENDBLK
  5
80FA
  8
0
  0
BLOCK
  8
0
  2
*D12
 70
     1
 10
0.0
 20
0.0
 30
0.0
  3
*D12
  1

  0
LINE
  5
83FD
  8
3
 62
     0
 10
1698.5902873486259
 20
3316.1541628245918
 30
0.0
 11
1698.5902873486259
 21
2989.3359103246339
 31
0.0
  0
LINE
  5
83FE
  8
3
 62
     0
 10
618.59028734862704
 20
3316.1541628245918
 30
0.0
 11
618.59028734862704
 21
2989.3359103246339
 31
0.0
  0
LINE
  5
83FF
  8
3
 62
     0
 10
1658.5902873486259
 20
3009.3359103246339
 30
0.0
 11
658.59028734862704
 21
3009.3359103246339
 31
0.0
  0
INSERT
  5
8400
  8
3
 62
     0
  2
_OPEN
 10
1698.5902873486259
 20
3009.3359103246339
 30
0.0
 41
40.0
 42
40.0
 43
40.0
  0
INSERT
  5
8401
  8
3
 62
     0
  2
_OPEN
 10
618.59028734862704
 20
3009.3359103246339
 30
0.0
 41
40.0
 42
40.0
 43
40.0
 50
180.0
  0
TEXT
  8
3
  40
60
  5
8485
  62
0
  72
0
  71
0
 10
1038.59
 20
2953.14
 30
0.000000
  1
1080
  0
POINT
  5
8403
  8
DEFPOINTS
 62
     0
 10
1698.5902873486259
 20
3326.1541628245918
 30
0.0
  0
POINT
  5
8404
  8
DEFPOINTS
 62
     0
 10
618.59028734862704
 20
3326.1541628245918
 30
0.0
  0
POINT
  5
8405
  8
DEFPOINTS
 62
     0
 10
618.59028734862704
 20
3009.3359103246339
 30
0.0
  0
ENDBLK
  5
80EF
  8
0
  0
BLOCK
  8
0
  2
*D13
 70
     1
 10
0.0
 20
0.0
 30
0.0
  3
*D13
  1

  0
LINE
  5
8406
  8
3
 62
     0
 10
608.59028734862704
 20
3886.1541628245918
 30
0.0
 11
411.9557027898723
 21
3886.1541628245918
 31
0.0
  0
LINE
  5
8407
  8
3
 62
     0
 10
608.59028734862704
 20
3326.1541628245918
 30
0.0
 11
411.95570278987219
 21
3326.1541628245918
 31
0.0
  0
LINE
  5
8408
  8
3
 62
     0
 10
431.9557027898723
 20
3846.1541628245909
 30
0.0
 11
431.95570278987219
 21
3366.1541628245918
 31
0.0
  0
INSERT
  5
8409
  8
3
 62
     0
  2
_OPEN
 10
431.9557027898723
 20
3886.1541628245918
 30
0.0
 41
40.0
 42
40.0
 43
40.0
 50
90.0
  0
INSERT
  5
840A
  8
3
 62
     0
  2
_OPEN
 10
431.95570278987219
 20
3326.1541628245918
 30
0.0
 41
40.0
 42
40.0
 43
40.0
 50
270.0
  0
TEXT
  8
3
  40
60
  5
8486
  62
0
  72
0
  71
0
 10
261.956
 20
3499.95
 30
0.000000
  1
560
  0
POINT
  5
840C
  8
DEFPOINTS
 62
     0
 10
618.59028734862704
 20
3886.1541628245918
 30
0.0
  0
POINT
  5
840D
  8
DEFPOINTS
 62
     0
 10
618.59028734862704
 20
3326.1541628245918
 30
0.0
  0
POINT
  5
840E
  8
DEFPOINTS
 62
     0
 10
431.95570278987219
 20
3326.1541628245918
 30
0.0
  0
ENDBLK
  5
80E4
  8
0
  0
BLOCK
  8
0
  2
*D14
 70
     1
 10
0.0
 20
0.0
 30
0.0
  3
*D14
  1

  0
LINE
  5
840F
  8
3
 62
     0
 10
1708.5902873486259
 20
3326.1541628245918
 30
0.0
 11
2023.4080191371299
 21
3326.1541628245918
 31
0.0
  0
LINE
  5
8410
  8
3
 62
     0
 10
1708.5902873486259
 20
4326.1541628245923
 30
0.0
 11
2023.4080191371299
 21
4326.1541628245923
 31
0.0
  0
LINE
  5
8411
  8
3
 62
     0
 10
2003.4080191371299
 20
3366.1541628245918
 30
0.0
 11
2003.4080191371299
 21
4286.1541628245923
 31
0.0
  0
INSERT
  5
8412
  8
3
 62
     0
  2
_OPEN
 10
2003.4080191371299
 20
3326.1541628245918
 30
0.0
 41
40.0
 42
40.0
 43
40.0
 50
270.0
  0
INSERT
  5
8413
  8
3
 62
     0
  2
_OPEN
 10
2003.4080191371299
 20
4326.1541628245923
 30
0.0
 41
40.0
 42
40.0
 43
40.0
 50
90.0
  0
TEXT
  8
3
  40
60
  5
8487
  62
0
  72
0
  71
0
 10
1833.41
 20
3719.95
 30
0.000000
  1
1000
  0
POINT
  5
8415
  8
DEFPOINTS
 62
     0
 10
1698.5902873486259
 20
3326.1541628245918
 30
0.0
  0
POINT
  5
8416
  8
DEFPOINTS
 62
     0
 10
1698.5902873486259
 20
4326.1541628245923
 30
0.0
  0
POINT
  5
8417
  8
DEFPOINTS
 62
     0
 10
2003.4080191371299
 20
4326.1541628245923
 30
0.0
  0
ENDBLK
  5
80D9
  8
0
  0
BLOCK
  8
0
  2
*D15
 70
     1
 10
0.0
 20
0.0
 30
0.0
  3
*D15
  1

  0
LINE
  5
8418
  8
3
 62
     0
 10
1698.5902873486259
 20
4336.1541628245923
 30
0.0
 11
1698.5902873486259
 21
4489.4389140303074
 31
0.0
  0
LINE
  5
8419
  8
3
 62
     0
 10
1198.5902873486259
 20
4336.1541628245923
 30
0.0
 11
1198.5902873486259
 21
4489.4389140303074
 31
0.0
  0
LINE
  5
841A
  8
3
 62
     0
 10
1658.5902873486259
 20
4469.4389140303056
 30
0.0
 11
1238.5902873486259
 21
4469.4389140303056
 31
0.0
  0
INSERT
  5
841B
  8
3
 62
     0
  2
_OPEN
 10
1698.5902873486259
 20
4469.4389140303056
 30
0.0
 41
40.0
 42
40.0
 43
40.0
  0
INSERT
  5
841C
  8
3
 62
     0
  2
_OPEN
 10
1198.5902873486259
 20
4469.4389140303056
 30
0.0
 41
40.0
 42
40.0
 43
40.0
 50
180.0
  0
TEXT
  8
3
  40
60
  5
8488
  62
0
  72
0
  71
0
 10
1328.59
 20
4413.24
 30
0.000000
  1
500
  0
POINT
  5
841E
  8
DEFPOINTS
 62
     0
 10
1698.5902873486259
 20
4326.1541628245923
 30
0.0
  0
POINT
  5
841F
  8
DEFPOINTS
 62
     0
 10
1198.5902873486259
 20
4326.1541628245923
 30
0.0
  0
POINT
  5
8420
  8
DEFPOINTS
 62
     0
 10
1198.5902873486259
 20
4469.4389140303056
 30
0.0
  0
ENDBLK
  5
80CE
  8
0
  0
BLOCK
  8
0
  2
*D16
 70
     1
 10
0.0
 20
0.0
 30
0.0
  3
*D16
  1

  0
LINE
  5
82C5
  8
0
  6
BYBLOCK
 62
     0
 10
3308.7762554624592
 20
2541.7090967925569
 30
0.0
 11
3308.7762554624592
 21
2611.8272725538709
 31
0.0
  0
LINE
  5
82C6
  8
0
  6
BYBLOCK
 62
     0
 10
3500.7762554624592
 20
2279.6797421827569
 30
0.0
 11
3500.7762554624592
 21
2611.8272725538709
 31
0.0
  0
LINE
  5
82C7
  8
0
  6
BYBLOCK
 62
     0
 10
3348.7762554624592
 20
2591.8272725538709
 30
0.0
 11
3460.7762554624592
 21
2591.8272725538709
 31
0.0
  0
TEXT
  5
82C8
  8
3
 62
     0
 10
3333.3476840338872
 20
2616.040200834198
 30
0.0
 40
60.0
  1
192
  0
INSERT
  5
82C9
  8
0
  6
BYBLOCK
 62
     0
  2
_OPEN
 10
3308.7762554624592
 20
2591.8272725538709
 30
0.0
 41
40.0
 42
40.0
 43
40.0
 50
180.0
  0
INSERT
  5
82CA
  8
0
  6
BYBLOCK
 62
     0
  2
_OPEN
 10
3500.7762554624592
 20
2591.8272725538709
 30
0.0
 41
40.0
 42
40.0
 43
40.0
  0
POINT
  5
82CB
  8
DEFPOINTS
  6
BYBLOCK
 62
     0
 10
3308.7762554624592
 20
2531.7090967925569
 30
0.0
  0
POINT
  5
82CC
  8
DEFPOINTS
  6
BYBLOCK
 62
     0
 10
3500.7762554624592
 20
2269.6797421827569
 30
0.0
  0
POINT
  5
82CD
  8
DEFPOINTS
  6
BYBLOCK
 62
     0
 10
3500.7762554624592
 20
2591.8272725538709
 30
0.0
  0
ENDBLK
  5
82CE
  8
0
  0
BLOCK
  8
0
  2
*D17
 70
     1
 10
0.0
 20
0.0
 30
0.0
  3
*D17
  1

  0
LINE
  5
8421
  8
3
 62
     0
 10
3121.2762554624592
 20
2364.6797421827559
 30
0.0
 11
3121.2762554624592
 21
2464.1436902347282
 31
0.0
  0
LINE
  5
8422
  8
3
 62
     0
 10
3496.2762554624592
 20
2364.6797421827559
 30
0.0
 11
3496.2762554624592
 21
2464.1436902347282
 31
0.0
  0
LINE
  5
8423
  8
3
 62
     0
 10
3161.2762554624592
 20
2444.1436902347282
 30
0.0
 11
3456.2762554624592
 21
2444.1436902347282
 31
0.0
  0
INSERT
  5
8424
  8
3
 62
     0
  2
_OPEN
 10
3121.2762554624592
 20
2444.1436902347282
 30
0.0
 41
40.0
 42
40.0
 43
40.0
 50
180.0
  0
INSERT
  5
8425
  8
3
 62
     0
  2
_OPEN
 10
3496.2762554624592
 20
2444.1436902347282
 30
0.0
 41
40.0
 42
40.0
 43
40.0
  0
TEXT
  8
3
  40
60
  5
8489
  62
0
  72
0
  71
0
 10
3188.78
 20
2387.94
 30
0.000000
  1
375
  0
POINT
  5
8427
  8
DEFPOINTS
 62
     0
 10
3121.2762554624592
 20
2354.6797421827559
 30
0.0
  0
POINT
  5
8428
  8
DEFPOINTS
 62
     0
 10
3496.2762554624592
 20
2354.6797421827559
 30
0.0
  0
POINT
  5
8429
  8
DEFPOINTS
 62
     0
 10
3496.2762554624592
 20
2444.1436902347282
 30
0.0
  0
ENDBLK
  5
80B6
  8
0
  0
BLOCK
  8
0
  2
*D18
 70
     1
 10
0.0
 20
0.0
 30
0.0
  3
*D18
  1

  0
LINE
  5
825A
  8
0
  6
BYBLOCK
 62
     0
 10
3308.7762554624592
 20
1333.201855650276
 30
0.0
 11
3308.7762554624592
 21
1198.099633947809
 31
0.0
  0
LINE
  5
825B
  8
0
  6
BYBLOCK
 62
     0
 10
3538.7762554624578
 20
1361.6797421827559
 30
0.0
 11
3538.7762554624578
 21
1198.099633947809
 31
0.0
  0
LINE
  5
825C
  8
0
  6
BYBLOCK
 62
     0
 10
3348.7762554624592
 20
1218.099633947809
 30
0.0
 11
3498.7762554624592
 21
1218.099633947809
 31
0.0
  0
TEXT
  5
825D
  8
3
 62
     0
 10
3346.6333983196009
 20
1246.8425443226779
 30
0.0
 40
60.0
  1
230
  0
INSERT
  5
825E
  8
0
  6
BYBLOCK
 62
     0
  2
_OPEN
 10
3308.7762554624592
 20
1218.099633947809
 30
0.0
 41
40.0
 42
40.0
 43
40.0
 50
180.0
  0
INSERT
  5
825F
  8
0
  6
BYBLOCK
 62
     0
  2
_OPEN
 10
3538.7762554624578
 20
1218.099633947809
 30
0.0
 41
40.0
 42
40.0
 43
40.0
  0
POINT
  5
8260
  8
DEFPOINTS
  6
BYBLOCK
 62
     0
 10
3308.7762554624592
 20
1343.201855650276
 30
0.0
  0
POINT
  5
8261
  8
DEFPOINTS
  6
BYBLOCK
 62
     0
 10
3538.7762554624578
 20
1371.6797421827559
 30
0.0
  0
POINT
  5
8262
  8
DEFPOINTS
  6
BYBLOCK
 62
     0
 10
3538.7762554624578
 20
1218.099633947809
 30
0.0
  0
ENDBLK
  5
8263
  8
0
  0
BLOCK
  8
0
  2
*D19
 70
     1
 10
0.0
 20
0.0
 30
0.0
  3
*D19
  1

  0
LINE
  5
8448
  8
3
 62
     0
 10
3534.7762554624592
 20
2244.6797421827569
 30
0.0
 11
3734.5503481469082
 21
2244.6797421827569
 31
0.0
  0
LINE
  5
8449
  8
3
 62
     0
 10
3534.7762554624592
 20
1744.6797421827559
 30
0.0
 11
3734.5503481469082
 21
1744.6797421827559
 31
0.0
  0
LINE
  5
844A
  8
3
 62
     0
 10
3714.5503481469082
 20
2204.6797421827569
 30
0.0
 11
3714.5503481469082
 21
1784.6797421827559
 31
0.0
  0
INSERT
  5
844B
  8
3
 62
     0
  2
_OPEN
 10
3714.5503481469082
 20
2244.6797421827569
 30
0.0
 41
40.0
 42
40.0
 43
40.0
 50
90.0
  0
INSERT
  5
844C
  8
3
 62
     0
  2
_OPEN
 10
3714.5503481469082
 20
1744.6797421827559
 30
0.0
 41
40.0
 42
40.0
 43
40.0
 50
270.0
  0
TEXT
  8
3
  40
60
  5
848A
  62
0
  72
0
  71
0
 10
3544.55
 20
1888.48
 30
0.000000
  1
φ500
  0
POINT
  5
844E
  8
DEFPOINTS
 62
     0
 10
3524.7762554624592
 20
2244.6797421827569
 30
0.0
  0
POINT
  5
844F
  8
DEFPOINTS
 62
     0
 10
3524.7762554624592
 20
1744.6797421827559
 30
0.0
  0
POINT
  5
8450
  8
DEFPOINTS
 62
     0
 10
3714.5503481469082
 20
1744.6797421827559
 30
0.0
  0
ENDBLK
  5
81D3
  8
0
  0
BLOCK
  8
0
  2
*D20
 70
     1
 10
0.0
 20
0.0
 30
0.0
  3
*D20
  1

  0
LINE
  5
8465
  8
3
 62
     0
 10
1459.190287348626
 20
2354.6797421827569
 30
0.0
 11
2197.5179121206529
 21
2354.6797421827569
 31
0.0
  0
LINE
  5
8466
  8
3
 62
     0
 10
1708.5902873486259
 20
1314.6797421827559
 30
0.0
 11
2197.5179121206529
 21
1314.6797421827559
 31
0.0
  0
LINE
  5
8467
  8
3
 62
     0
 10
2177.5179121206529
 20
2314.6797421827569
 30
0.0
 11
2177.5179121206529
 21
1354.6797421827559
 31
0.0
  0
INSERT
  5
8468
  8
3
 62
     0
  2
_OPEN
 10
2177.5179121206529
 20
2354.6797421827569
 30
0.0
 41
40.0
 42
40.0
 43
40.0
 50
90.0
  0
INSERT
  5
8469
  8
3
 62
     0
  2
_OPEN
 10
2177.5179121206529
 20
1314.6797421827559
 30
0.0
 41
40.0
 42
40.0
 43
40.0
 50
270.0
  0
TEXT
  8
3
  40
60
  5
848B
  62
0
  72
0
  71
0
 10
2007.52
 20
1669.11
 30
0.000000
  1
1040
  0
POINT
  5
846B
  8
DEFPOINTS
 62
     0
 10
1449.1902873486249
 20
2354.6797421827569
 30
0.0
  0
POINT
  5
846C
  8
DEFPOINTS
 62
     0
 10
1698.5902873486259
 20
1314.6797421827559
 30
0.0
  0
POINT
  5
846D
  8
DEFPOINTS
 62
     0
 10
2177.5179121206529
 20
1314.6797421827559
 30
0.0
  0
ENDBLK
  5
8321
  8
0
  0
BLOCK
  8
0
  2
_DOT
 70
     0
 10
0.0
 20
0.0
 30
0.0
  3
_DOT
  1

  0
LINE
  5
8228
  8
0
  6
BYBLOCK
 62
     0
 10
0.0
 20
0.0
 30
0.0
 11
-1.0
 21
-0.0000000000000284
 31
0.0
  0
POLYLINE
  5
8229
  8
0
  6
BYBLOCK
 62
     0
 66
     1
 10
0.0
 20
0.0
 30
0.0
 70
     1
 40
0.1666666666666666
 41
0.1666666666666666
  0
VERTEX
  5
8477
  8
0
  6
BYBLOCK
 62
     0
 10
-0.0833333333333286
 20
-0.0000000000000284
 30
0.0
 42
1.0
  0
VERTEX
  5
8478
  8
0
  6
BYBLOCK
 62
     0
 10
0.0833333333333286
 20
-0.0000000000000284
 30
0.0
 42
1.0
  0
SEQEND
  5
8479
  8
0
  6
BYBLOCK
 62
     0
  0
ENDBLK
  5
81F3
  8
0
  0
BLOCK
  8
0
  2
*D22
 70
     1
 10
0.0
 20
0.0
 30
0.0
  3
*D22
  1

  0
LINE
  5
846E
  8
3
 62
     0
 10
618.59028734862704
 20
1569.6797421827559
 30
0.0
 11
618.59028734862704
 21
2702.2208973180668
 31
0.0
  0
LINE
  5
846F
  8
3
 62
     0
 10
1809.638278156486
 20
1967.6797421827559
 30
0.0
 11
1809.638278156486
 21
2702.2208973180668
 31
0.0
  0
LINE
  5
8470
  8
3
 62
     0
 10
658.59028734862704
 20
2682.2208973180668
 30
0.0
 11
1769.6382781564871
 21
2682.2208973180668
 31
0.0
  0
INSERT
  5
8471
  8
3
 62
     0
  2
_OPEN
 10
618.59028734862704
 20
2682.2208973180668
 30
0.0
 41
40.0
 42
40.0
 43
40.0
 50
180.0
  0
INSERT
  5
8472
  8
3
 62
     0
  2
_OPEN
 10
1809.638278156486
 20
2682.2208973180668
 30
0.0
 41
40.0
 42
40.0
 43
40.0
  0
TEXT
  8
3
  40
60
  5
848C
  62
0
  72
0
  71
0
 10
1122.22
 20
2626.02
 30
0.000000
  1
1191
  0
POINT
  5
8474
  8
DEFPOINTS
 62
     0
 10
618.59028734862704
 20
1559.6797421827571
 30
0.0
  0
POINT
  5
8475
  8
DEFPOINTS
 62
     0
 10
1809.638278156486
 20
1957.6797421827559
 30
0.0
  0
POINT
  5
8476
  8
DEFPOINTS
 62
     0
 10
1809.638278156486
 20
2682.2208973180668
 30
0.0
  0
ENDBLK
  5
82C3
  8
0
  0
BLOCK
  8
0
  2
L-30-3
 70
     0
 10
0.0
 20
0.0
 30
0.0
  3
L-30-3
  1

  0
LINE
  5
82AA
  8
0
 10
115.2488417492448
 20
98.116970357453638
 30
0.0
 11
145.2488417492448
 21
98.116970357453638
 31
0.0
  0
LINE
  5
82AB
  8
0
 10
115.2488417492448
 20
98.116970357453638
 30
0.0
 11
115.2488417492448
 21
128.1169703574536
 31
0.0
  0
LINE
  5
82AC
  8
0
 10
145.2488417492448
 20
98.116970357453638
 30
0.0
 11
145.2488417492448
 21
99.116970357453638
 31
0.0
  0
LINE
  5
82AD
  8
0
 10
115.2488417492448
 20
128.1169703574536
 30
0.0
 11
116.2488417492448
 21
128.1169703574536
 31
0.0
  0
LINE
  5
82AE
  8
0
 10
122.2488417492448
 20
101.1169703574536
 30
0.0
 11
143.2488417492448
 21
101.1169703574536
 31
0.0
  0
LINE
  5
82AF
  8
0
 10
118.2488417492448
 20
105.1169703574536
 30
0.0
 11
118.2488417492448
 21
126.1169703574536
 31
0.0
  0
ARC
  5
82B0
  8
0
 10
143.2488417492448
 20
99.116970357453638
 30
0.0
 40
2.0
 50
0.0
 51
90.0
  0
ARC
  5
82B1
  8
0
 10
116.2488417492448
 20
126.1169703574536
 30
0.0
 40
2.0
 50
0.0
 51
90.0
  0
ARC
  5
82B2
  8
0
 10
122.2488417492448
 20
105.1169703574536
 30
0.0
 40
4.0
 50
180.0
 51
270.0
  0
ENDBLK
  5
82B4
  8
0
  0
BLOCK
  8
0
  2
*D24
 70
     1
 10
0.0
 20
0.0
 30
0.0
  3
*D24
  1

  0
LINE
  5
8375
  8
0
  6
BYBLOCK
 62
     0
 10
1708.5902873486259
 20
1389.6797421827571
 30
0.0
 11
2017.405541058582
 21
1389.6797421827571
 31
0.0
  0
LINE
  5
8376
  8
0
  6
BYBLOCK
 62
     0
 10
1997.4055410585829
 20
1524.6797421827559
 30
0.0
 11
1997.4055410585829
 21
1564.6797421827559
 31
0.0
  0
LINE
  5
8377
  8
0
  6
BYBLOCK
 62
     0
 10
1997.4055410585829
 20
1349.6797421827571
 30
0.0
 11
1997.4055410585829
 21
1309.6797421827571
 31
0.0
  0
TEXT
  5
8378
  8
3
 62
     0
 10
2113.1198267728691
 20
1350.0368850398991
 30
0.0
 40
60.0
  1
(95)
 50
90.0
  0
LINE
  5
8379
  8
0
  6
BYBLOCK
 62
     0
 10
1997.4055410585829
 20
1484.6797421827559
 30
0.0
 11
1997.4055410585829
 21
1389.6797421827571
 31
0.0
  0
INSERT
  5
837A
  8
0
  6
BYBLOCK
 62
     0
  2
_OPEN
 10
1997.4055410585829
 20
1484.6797421827559
 30
0.0
 41
40.0
 42
40.0
 43
40.0
 50
270.0
  0
INSERT
  5
837B
  8
0
  6
BYBLOCK
 62
     0
  2
_DOT
 10
1997.4055410585829
 20
1389.6797421827571
 30
0.0
 41
40.0
 42
40.0
 43
40.0
 50
90.0
  0
POINT
  5
837C
  8
DEFPOINTS
  6
BYBLOCK
 62
     0
 10
1698.5902873486259
 20
1484.6797421827559
 30
0.0
  0
POINT
  5
837D
  8
DEFPOINTS
  6
BYBLOCK
 62
     0
 10
1698.5902873486259
 20
1389.6797421827571
 30
0.0
  0
POINT
  5
837E
  8
DEFPOINTS
  6
BYBLOCK
 62
     0
 10
1997.4055410585829
 20
1389.6797421827571
 30
0.0
  0
ENDBLK
  5
837F
  8
0
  0
ENDSEC
  0
SECTION
  2
ENTITIES
  0
DIMENSION
  5
7CD2
  8
3
  2
*D1
 10
3308.7762554624592
 20
2591.8272725538709
 30
0.0
 11
2881.2762554624578
 21
2691.8272725538709
 31
0.0
 70
     0
  1
MAX\P930
 13
2453.7762554624592
 23
2144.6797421827559
 33
0.0
 14
3308.7762554624592
 24
2531.7090967925569
 34
0.0
1001
ACAD
1000
DSTYLE
1002
{
1070
   287
1070
     3
1070
    40
1040
20.0
1070
   143
1040
0.039
1070
   172
1070
     1
1070
   271
1070
     0
1070
   279
1070
     0
1070
   288
1070
     1
1002
}
  0
LINE
  5
7CD3
  8
1
 10
2453.7762554624592
 20
1591.679442182756
 30
0.0
 11
2575.7762554624592
 21
1591.679442182756
 31
0.0
  0
LINE
  5
7CD4
  8
1
 10
2453.7762554624592
 20
2144.6797421827559
 30
0.0
 11
2575.7762554624592
 21
2144.6797421827559
 31
0.0
  0
DIMENSION
  5
7CD5
  8
3
  2
*D2
 10
3308.7762554624592
 20
1161.099633947809
 30
0.0
 11
2923.7762554624592
 21
1211.099633947809
 31
0.0
 70
     0
 13
2538.7762554624592
 23
1314.6797421827559
 33
0.0
 14
3308.7762554624592
 24
1286.201855650276
 34
0.0
1001
ACAD
1000
DSTYLE
1002
{
1070
   287
1070
     3
1070
    40
1040
20.0
1070
   143
1040
0.039
1070
   172
1070
     1
1070
   271
1070
     0
1070
   279
1070
     0
1070
   288
1070
     1
1002
}
  0
LINE
  5
7CD8
  8
2
 10
2480.186255462459
 20
1741.679442182756
 30
0.0
 11
2647.4998555497509
 21
1741.679442182756
 31
0.0
  0
LINE
  5
7CD9
  8
1
 10
2578.7762554624592
 20
1642.6797421827559
 30
0.0
 11
2561.7762554624578
 21
1642.6797421827559
 31
0.0
  0
LINE
  5
7CDA
  8
1
 10
2559.7762554624592
 20
1862.679442182756
 30
0.0
 11
2578.7762554624592
 21
1862.679442182756
 31
0.0
  0
LINE
  5
7CDB
  8
1
 10
2538.7762554624592
 20
1389.6797421827571
 30
0.0
 11
3538.7762554624592
 21
1389.6797421827571
 31
0.0
  0
LINE
  5
7CDC
  8
1
 10
2538.7762554624592
 20
1314.6797421827559
 30
0.0
 11
3538.7762554624592
 21
1314.6797421827559
 31
0.0
  0
LINE
  5
7CDD
  8
2
 10
2477.4886332918982
 20
1994.6797421827559
 30
0.0
 11
3582.4103512588322
 21
1994.6797421827559
 31
0.0
  0
LINE
  5
7CDE
  8
1
 10
2568.7762554624592
 20
1931.479742182757
 30
0.0
 11
3053.7762554624592
 21
1931.479742182757
 31
0.0
  0
LINE
  5
7CDF
  8
1
 10
2538.7762554624592
 20
1484.6797421827559
 30
0.0
 11
3538.7762554624592
 21
1484.6797421827559
 31
0.0
  0
LINE
  5
7CE0
  8
1
 10
2538.7762554624592
 20
1559.6797421827571
 30
0.0
 11
3538.7762554624592
 21
1559.6797421827571
 31
0.0
  0
LINE
  5
7CE1
  8
1
 10
2568.7762554624592
 20
1934.6797421827571
 30
0.0
 11
3053.7762554624592
 21
1934.6797421827571
 31
0.0
  0
DIMENSION
  5
7CE2
  8
3
  2
*D3
 10
910.59028734862659
 20
2442.3586998725432
 30
0.0
 11
1166.5902873486259
 21
2492.3586998725432
 31
0.0
 70
     0
 13
1422.5902873486259
 23
2354.6797421827569
 33
0.0
 14
910.59028734862659
 24
2354.6797421827569
 34
0.0
1001
ACAD
1000
DSTYLE
1002
{
1070
   287
1070
     3
1070
    40
1040
20.0
1070
   143
1040
0.039
1070
   172
1070
     1
1070
   271
1070
     0
1070
   279
1070
     0
1070
   288
1070
     1
1002
}
  0
DIMENSION
  5
7CE3
  8
3
  2
*D4
 10
1448.5902873486259
 20
2548.5162160607319
 30
0.0
 11
1179.5902873486259
 21
2598.5162160607319
 31
0.0
 70
     0
 13
910.59028734862659
 23
2354.6797421827569
 33
0.0
 14
1448.5902873486259
 24
2382.582265088839
 34
0.0
1001
ACAD
1000
DSTYLE
1002
{
1070
   287
1070
     3
1070
    40
1040
20.0
1070
   143
1040
0.039
1070
   172
1070
     1
1070
   271
1070
     0
1070
   279
1070
     0
1070
   288
1070
     1
1002
}
  0
DIMENSION
  5
7CE4
  8
3
  2
*D5
 10
1809.638278156486
 20
2548.5162160607319
 30
0.0
 11
1629.1142827525559
 21
2598.5162160607319
 31
0.0
 70
     0
 13
1448.5902873486259
 23
2382.582265088839
 33
0.0
 14
1809.638278156486
 24
1957.6797421827559
 34
0.0
1001
ACAD
1000
DSTYLE
1002
{
1070
   287
1070
     3
1070
    40
1040
20.0
1070
   143
1040
0.039
1070
   172
1070
     1
1070
   271
1070
     0
1070
   279
1070
     0
1070
   288
1070
     1
1002
}
  0
LINE
  5
7CE6
  8
1
 10
910.59028734862659
 20
2354.6797421827569
 30
0.0
 11
1422.590287348625
 21
2354.6797421827569
 31
0.0
  0
LINE
  5
7CE7
  8
1
 10
1432.5902873486259
 20
2354.6797421827569
 30
0.0
 11
900.55789382798139
 21
2354.6797421827569
 31
0.0
  0
LINE
  5
7CE8
  8
1
 10
1440.1625825441461
 20
2354.6797421827569
 30
0.0
 11
891.85224181378396
 21
2354.6797421827569
 31
0.0
  0
LINE
  5
7CE9
  8
1
 10
889.44388633567041
 20
2351.6797421827569
 30
0.0
 11
1441.8623794221569
 21
2351.6797421827569
 31
0.0
  0
LINE
  5
7CEA
  8
1
 10
910.4740479895554
 20
2324.6797421827569
 30
0.0
 11
1422.5902873486259
 21
2324.6797421827569
 31
0.0
  0
LINE
  5
7CEB
  8
1
 10
1226.5902873486291
 20
1875.4797421827559
 30
0.0
 11
964.65118635163367
 21
1875.4797421827559
 31
0.0
  0
LINE
  5
7CEC
  8
1
 10
1226.5902873486291
 20
1881.4797421827559
 30
0.0
 11
962.59924066729218
 21
1881.4797421827559
 31
0.0
  0
ARC
  5
7CEE
  8
1
 10
1411.5902873486259
 20
2031.6797421827571
 30
0.0
 40
473.44799080786078
 50
184.48224037042479
 51
270.0
  0
LINE
  5
7CEF
  8
1
 10
1472.072542721133
 20
1935.6811516689111
 30
0.0
 11
806.76899379563554
 21
1670.8811335661419
 31
0.0
  0
LINE
  5
7CF0
  8
1
 10
1501.5800618161329
 20
1854.3512568282749
 30
0.0
 11
831.58006181613325
 21
1601.350956828275
 31
0.0
  0
DIMENSION
  5
7CF1
  8
3
  2
*D6
 10
618.59028734862704
 20
1165.350179538568
 30
0.0
 11
1033.5902873486259
 21
1215.350179538568
 31
0.0
 70
     0
 13
1448.5902873486259
 23
1286.201855650276
 33
0.0
 14
618.59028734862704
 24
1314.6797421827559
 34
0.0
1001
ACAD
1000
DSTYLE
1002
{
1070
   287
1070
     3
1070
    40
1040
20.0
1070
   143
1040
0.039
1070
   172
1070
     1
1070
   271
1070
     0
1070
   279
1070
     0
1070
   288
1070
     1
1002
}
  0
LINE
  5
7CF2
  8
1
 10
1698.5902873486259
 20
1559.6797421827571
 30
0.0
 11
618.59028734862704
 21
1559.6797421827571
 31
0.0
  0
LINE
  5
7CF3
  8
1
 10
1698.5902873486259
 20
1484.6797421827559
 30
0.0
 11
618.59028734862704
 21
1484.6797421827559
 31
0.0
  0
LINE
  5
7CF4
  8
2
 10
873.1486100001498
 20
1994.6797421827559
 30
0.0
 11
1891.736780664871
 21
1994.6797421827559
 31
0.0
  0
LINE
  5
7CF5
  8
1
 10
1698.5902873486259
 20
1389.6797421827571
 30
0.0
 11
618.59028734862704
 21
1389.6797421827571
 31
0.0
  0
LINE
  5
7CF6
  8
1
 10
1698.5902873486259
 20
1314.6797421827559
 30
0.0
 11
618.59028734862704
 21
1314.6797421827559
 31
0.0
  0
LINE
  5
7CF7
  8
1
 10
1427.214921658644
 20
2054.4739203409981
 30
0.0
 11
752.93984852064796
 21
1813.432455972646
 31
0.0
  0
LINE
  5
7CF8
  8
1
 10
1395.60051288112
 20
2135.008227537237
 30
0.0
 11
725.60051288112072
 21
1882.007927537237
 31
0.0
  0
LINE
  5
7CF9
  8
2
 10
778.59028734862704
 20
1630.314442182756
 30
0.0
 11
778.59028734862704
 21
1867.2624421827561
 31
0.0
  0
ARC
  5
7CFB
  8
1
 10
778.59028734862704
 20
1741.679442182756
 30
0.0
 40
121.5
 50
296.18489999999991
 51
180.0
  0
ARC
  5
7CFC
  8
1
 10
778.59028734862704
 20
1741.679442182756
 30
0.0
 40
150.0
 50
110.6871576406769
 51
290.68715764067701
  0
LINE
  5
7CFD
  8
1
 10
618.59028734862704
 20
1484.6797421827559
 30
0.0
 11
618.59028734862704
 21
1559.6797421827571
 31
0.0
  0
LINE
  5
7CFE
  8
1
 10
618.59028734862704
 20
1389.6797421827571
 30
0.0
 11
618.59028734862704
 21
1314.6797421827559
 31
0.0
  0
LINE
  5
7D00
  8
1
 10
832.26758734862676
 20
1632.6797421827559
 30
0.0
 11
724.91298734862676
 21
1632.6797421827559
 31
0.0
  0
LINE
  5
7D01
  8
2
 10
652.71988734862725
 20
1741.679442182756
 30
0.0
 11
904.42288734862723
 21
1741.679442182756
 31
0.0
  0
LINE
  5
7D02
  8
1
 10
928.5902873486275
 20
1589.6797421827571
 30
0.0
 11
628.5902873486275
 21
1589.6797421827571
 31
0.0
  0
LINE
  5
7D03
  8
1
 10
910.10273811725881
 20
1629.6797421827571
 30
0.0
 11
647.07783657999505
 21
1629.6797421827559
 31
0.0
  0
CIRCLE
  5
7D04
  8
1
 10
778.59028734862704
 20
1741.679442182756
 30
0.0
 40
76.200000000000003
  0
ARC
  5
7D06
  8
1
 10
778.59028734862704
 20
1741.679442182756
 30
0.0
 40
121.5
 50
180.0
 51
243.7502999999999
  0
LINE
  5
7D07
  8
1
 10
677.75768734862675
 20
1673.8929421827561
 30
0.0
 11
668.59028734862704
 21
1639.6797421827559
 31
0.0
  0
LINE
  5
7D08
  8
1
 10
668.59028734862704
 20
1629.6797421827559
 30
0.0
 11
708.59028734862704
 21
1629.6797421827559
 31
0.0
  0
LINE
  5
7D09
  8
1
 10
636.09028734862704
 20
1589.6797421827571
 30
0.0
 11
647.07783657999505
 21
1629.6797421827571
 31
0.0
  0
LINE
  5
7D0A
  8
1
 10
628.5902873486275
 20
1559.6797421827571
 30
0.0
 11
628.5902873486275
 21
1589.6797421827571
 31
0.0
  0
LINE
  5
7D0B
  8
1
 10
668.59028734862704
 20
1629.6797421827559
 30
0.0
 11
668.59028734862704
 21
1639.6797421827559
 31
0.0
  0
LINE
  5
7D0C
  8
1
 10
708.59028734862704
 20
1629.6797421827559
 30
0.0
 11
708.59028734862704
 21
1634.6086421827561
 31
0.0
  0
LINE
  5
7D0D
  8
1
 10
711.97798734862715
 20
1640.0674421827559
 30
0.0
 11
710.05478734862697
 21
1638.144142182756
 31
0.0
  0
ARC
  5
7D0E
  8
1
 10
713.59018734862684
 20
1634.6086421827561
 30
0.0
 40
4.9999000000000002
 50
134.99950000000001
 51
180.0
  0
LINE
  5
7D0F
  8
1
 10
879.42288734862723
 20
1673.8929421827561
 30
0.0
 11
888.59028734862704
 21
1639.6797421827559
 31
0.0
  0
LINE
  5
7D10
  8
1
 10
888.59028734862704
 20
1629.6797421827559
 30
0.0
 11
848.59028734862704
 21
1629.6797421827559
 31
0.0
  0
LINE
  5
7D11
  8
1
 10
848.59028734862704
 20
1629.6797421827559
 30
0.0
 11
848.59028734862704
 21
1634.6086421827561
 31
0.0
  0
ARC
  5
7D12
  8
1
 10
843.59038734862668
 20
1634.6086421827561
 30
0.0
 40
4.9999000000000002
 50
0.0
 51
45.000500000000002
  0
LINE
  5
7D13
  8
1
 10
845.20258734862716
 20
1640.0674421827559
 30
0.0
 11
847.12578734862689
 21
1638.144142182756
 31
0.0
  0
LINE
  5
7D14
  8
1
 10
888.59028734862704
 20
1629.6797421827559
 30
0.0
 11
888.59028734862704
 21
1639.6797421827559
 31
0.0
  0
LINE
  5
7D15
  8
1
 10
921.09028734862704
 20
1589.6797421827571
 30
0.0
 11
910.10273811725881
 21
1629.6797421827571
 31
0.0
  0
LINE
  5
7D16
  8
1
 10
928.5902873486275
 20
1559.6797421827571
 30
0.0
 11
928.5902873486275
 21
1589.6797421827571
 31
0.0
  0
LINE
  5
7D17
  8
1
 10
910.59028734862659
 20
2354.6797421827569
 30
0.0
 11
939.59028734862648
 21
1994.6797421827571
 31
0.0
  0
POINT
  5
7D1B
  8
1
 10
910.69028734862638
 20
2354.6797421827569
 30
0.0
  0
POINT
  5
7D1C
  8
1
 10
909.08510438532312
 20
2354.6797421827569
 30
0.0
  0
DIMENSION
  5
7D1D
  8
3
  2
*D7
 10
1997.4055410585829
 20
1314.6797421827559
 30
0.0
 11
1947.405541058582
 21
1166.108313611328
 31
0.0
 70
     0
 13
1698.5902873486259
 23
1389.6797421827571
 33
0.0
 14
1698.5902873486259
 24
1314.6797421827559
 34
0.0
 50
270.0
1001
ACAD
1000
DSTYLE
1002
{
1070
   287
1070
     3
1070
    40
1040
20.0
1070
   143
1040
0.039
1070
   172
1070
     1
1070
   271
1070
     0
1070
   279
1070
     0
1070
   288
1070
     1
1070
     6
1000
DOT
1002
}
  0
DIMENSION
  5
7D1E
  8
3
  2
*D8
 10
1448.5902873486259
 20
1165.350179538568
 30
0.0
 11
1573.5902873486259
 21
1223.767468508109
 31
0.0
 12
0.0
 22
-57.0
 32
0.0
 70
   128
 13
1698.5902873486259
 23
1314.6797421827559
 33
0.0
 14
1448.5902873486259
 24
1286.201855650276
 34
0.0
1001
ACAD
1000
DSTYLE
1002
{
1070
   288
1070
     1
1070
   172
1070
     1
1070
    40
1040
20.0
1070
   271
1070
     0
1070
   143
1040
0.039
1002
}
  0
LINE
  5
7D1F
  8
1
 10
1802.2765591655079
 20
1881.4797421827559
 30
0.0
 11
1670.5902873486259
 21
1881.4797421827559
 31
0.0
  0
LINE
  5
7D20
  8
1
 10
1801.058338652163
 20
1875.4797421827559
 30
0.0
 11
1670.5902873486259
 21
1875.4797421827559
 31
0.0
  0
DIMENSION
  5
7D22
  8
3
  2
*D9
 10
1997.4055410585829
 20
1484.6797421827559
 30
0.0
 11
1947.405541058582
 21
1739.6797421827571
 31
0.0
 70
     0
 13
1891.736780664871
 23
1994.6797421827559
 33
0.0
 14
1698.5902873486259
 24
1484.6797421827559
 34
0.0
 50
270.0
1001
ACAD
1000
DSTYLE
1002
{
1070
   287
1070
     3
1070
    40
1040
20.0
1070
   143
1040
0.039
1070
   172
1070
     1
1070
   271
1070
     0
1070
   279
1070
     0
1070
   288
1070
     1
1002
}
  0
ARC
  5
7D24
  8
1
 10
1411.5902873486259
 20
1957.6797421827559
 30
0.0
 40
398.04799080786057
 50
270.0
 51
5.0424510691709212
  0
ARC
  5
7D26
  8
1
 10
1479.5902873486259
 20
1963.6797421827559
 30
0.0
 40
329.7837981443563
 50
5.0424510691709212
 51
90.0
  0
DIMENSION
  5
7D27
  8
3
  2
*D10
 10
1997.4055410585829
 20
1994.6797421827559
 30
0.0
 11
1947.405541058582
 21
2174.6797421827569
 31
0.0
 70
     0
 13
1449.190287348626
 23
2354.6797421827569
 33
0.0
 14
1891.736780664871
 24
1994.6797421827559
 34
0.0
 50
270.0
1001
ACAD
1000
DSTYLE
1002
{
1070
   287
1070
     3
1070
    40
1040
20.0
1070
   143
1040
0.039
1070
   172
1070
     1
1070
   271
1070
     0
1070
   279
1070
     0
1070
   288
1070
     1
1002
}
  0
LINE
  5
7D28
  8
1
 10
1226.5902873486459
 20
1559.6797421827571
 30
0.0
 11
1226.5902873486259
 21
1931.4797421827559
 31
0.0
  0
LINE
  5
7D29
  8
1
 10
1670.5902873486259
 20
1559.6797421827571
 30
0.0
 11
1670.5902873486259
 21
1931.479742182757
 31
0.0
  0
LINE
  5
7D2A
  8
2
 10
1448.5902873486259
 20
1286.201855650276
 30
0.0
 11
1448.5902873486259
 21
2382.582265088839
 31
0.0
  0
LINE
  5
7D2B
  8
1
 10
1208.5902873486259
 20
1559.6797421827571
 30
0.0
 11
1208.5902873486259
 21
1599.6797421827571
 31
0.0
  0
LINE
  5
7D2C
  8
1
 10
1226.5902873486459
 20
1564.6797421827559
 30
0.0
 11
1208.5902873486259
 21
1564.6797421827559
 31
0.0
  0
LINE
  5
7D2D
  8
1
 10
1226.5902873486441
 20
1599.6797421827571
 30
0.0
 11
1208.5902873486259
 21
1599.6797421827571
 31
0.0
  0
LINE
  5
7D2E
  8
1
 10
1698.5902873486259
 20
1484.6797421827559
 30
0.0
 11
1698.5902873486259
 21
1559.6797421827571
 31
0.0
  0
LINE
  5
7D2F
  8
1
 10
1698.5902873486259
 20
1389.6797421827571
 30
0.0
 11
1698.5902873486259
 21
1314.6797421827559
 31
0.0
  0
LINE
  5
7D31
  8
1
 10
1688.5902873486259
 20
1564.6797421827559
 30
0.0
 11
1670.5902873486259
 21
1564.6797421827559
 31
0.0
  0
LINE
  5
7D32
  8
1
 10
1688.5902873486259
 20
1599.6797421827571
 30
0.0
 11
1670.5902873486259
 21
1599.6797421827571
 31
0.0
  0
LINE
  5
7D33
  8
1
 10
1688.5902873486259
 20
1559.6797421827571
 30
0.0
 11
1688.5902873486259
 21
1599.6797421827571
 31
0.0
  0
ARC
  5
7D34
  8
1
 10
1479.590287348625
 20
2025.6797421827559
 30
0.0
 40
269.18379814435679
 50
89.999999999999744
 51
102.22499848893369
  0
LINE
  5
7D35
  8
1
 10
1216.5902873486259
 20
1934.6797421827571
 30
0.0
 11
1680.5902873486259
 21
1934.6797421827571
 31
0.0
  0
LINE
  5
7D36
  8
1
 10
1183.5902873486259
 20
1931.479742182757
 30
0.0
 11
1713.5902873486259
 21
1931.479742182757
 31
0.0
  0
CIRCLE
  5
7D37
  8
1
 10
1448.5902873486259
 20
1994.6797421827559
 30
0.0
 40
63.5
  0
LINE
  5
7D38
  8
1
 10
1183.5902873486259
 20
1881.4797421827559
 30
0.0
 11
1183.5902873486259
 21
1931.4797421827559
 31
0.0
  0
LINE
  5
7D39
  8
1
 10
1216.5902873486259
 20
1931.4797421827559
 30
0.0
 11
1216.5902873486259
 21
1934.6797421827559
 31
0.0
  0
ARC
  5
7D3C
  8
1
 10
1448.5902873486259
 20
1994.6797421827559
 30
0.0
 40
150.0
 50
290.68715764067701
 51
110.6871576406769
  0
LINE
  5
7D3D
  8
1
 10
1680.5902873486259
 20
1931.479742182757
 30
0.0
 11
1680.5902873486259
 21
1934.6797421827571
 31
0.0
  0
LINE
  5
7D3E
  8
1
 10
1713.5902873486259
 20
1881.4797421827559
 30
0.0
 11
1713.5902873486259
 21
1931.4797421827559
 31
0.0
  0
LINE
  5
7D40
  8
1
 10
1422.5902873486259
 20
2288.759420575866
 30
0.0
 11
1422.5902873486259
 21
2354.6797421827569
 31
0.0
  0
LINE
  5
7D46
  8
1
 10
2453.7762554624592
 20
2144.6797421827569
 30
0.0
 11
2453.7762554624592
 21
1591.679442182756
 31
0.0
  0
LINE
  5
7D47
  8
1
 10
2533.7762554624592
 20
1931.1797421827571
 30
0.0
 11
2533.7762554624592
 21
1817.8794421827561
 31
0.0
  0
LINE
  5
7D48
  8
1
 10
2483.7762554624578
 20
1931.1797421827559
 30
0.0
 11
2483.7762554624578
 21
1809.6113556103601
 31
0.0
  0
LINE
  5
7D49
  8
1
 10
2559.7762554624592
 20
1644.6797421827559
 30
0.0
 11
2559.7762554624592
 21
1862.679442182756
 31
0.0
  0
LINE
  5
7D4B
  8
1
 10
2538.7762554624592
 20
1559.6797421827571
 30
0.0
 11
2538.7762554624592
 21
1484.6797421827559
 31
0.0
  0
LINE
  5
7D4C
  8
1
 10
2538.7762554624592
 20
1389.6797421827571
 30
0.0
 11
2538.7762554624592
 21
1314.6797421827559
 31
0.0
  0
LINE
  5
7D4D
  8
1
 10
2533.7762554624592
 20
1665.479442182756
 30
0.0
 11
2533.7762554624592
 21
1817.8794421827561
 31
0.0
  0
LINE
  5
7D4E
  8
1
 10
2483.7762554624578
 20
1665.479442182756
 30
0.0
 11
2483.7762554624578
 21
1817.8794421827561
 31
0.0
  0
LINE
  5
7D4F
  8
1
 10
2483.7762554624578
 20
1665.479442182756
 30
0.0
 11
2533.7762554624578
 21
1665.479442182756
 31
0.0
  0
ARC
  5
7D50
  8
1
 10
2561.7762554624578
 20
1644.6798421827559
 30
0.0
 40
2.0001000000000002
 50
180.00349999999989
 51
270.0
  0
LINE
  5
7D51
  8
1
 10
2543.7762554624592
 20
1726.179442182756
 30
0.0
 11
2543.7762554624592
 21
1757.179442182756
 31
0.0
  0
LINE
  5
7D52
  8
1
 10
2549.7762554624578
 20
1699.179442182756
 30
0.0
 11
2549.7762554624578
 21
1784.179442182756
 31
0.0
  0
LINE
  5
7D53
  8
1
 10
2549.7762554624578
 20
1726.179442182756
 30
0.0
 11
2543.7762554624592
 21
1726.179442182756
 31
0.0
  0
LINE
  5
7D54
  8
1
 10
2559.7762554624592
 20
1699.179442182756
 30
0.0
 11
2549.7762554624578
 21
1699.179442182756
 31
0.0
  0
LINE
  5
7D55
  8
1
 10
2543.7762554624592
 20
1727.679442182756
 30
0.0
 11
2533.7762554624592
 21
1727.679442182756
 31
0.0
  0
LINE
  5
7D56
  8
1
 10
2483.7762554624578
 20
1817.8794421827561
 30
0.0
 11
2533.7762554624578
 21
1817.8794421827561
 31
0.0
  0
LINE
  5
7D57
  8
1
 10
2543.7762554624592
 20
1757.179442182756
 30
0.0
 11
2549.7762554624578
 21
1757.179442182756
 31
0.0
  0
LINE
  5
7D58
  8
1
 10
2559.7762554624592
 20
1784.179442182756
 30
0.0
 11
2549.7762554624578
 21
1784.179442182756
 31
0.0
  0
LINE
  5
7D59
  8
1
 10
2543.7762554624592
 20
1755.679442182756
 30
0.0
 11
2533.7762554624592
 21
1755.679442182756
 31
0.0
  0
LINE
  5
7D5A
  8
1
 10
2533.7762554624592
 20
2058.1797421827559
 30
0.0
 11
2533.7762554624592
 21
1931.1797421827571
 31
0.0
  0
LINE
  5
7D5B
  8
1
 10
2483.7762554624578
 20
2058.1797421827559
 30
0.0
 11
2483.7762554624578
 21
1931.1797421827571
 31
0.0
  0
LINE
  5
7D5C
  8
1
 10
2483.7762554624578
 20
1931.1797421827559
 30
0.0
 11
2533.7762554624592
 21
1931.1797421827571
 31
0.0
  0
POINT
  5
7D5D
  8
1
 10
2568.7762554624592
 20
1934.6797421827571
 30
0.0
  0
LINE
  5
7D5E
  8
1
 10
2568.7762554624592
 20
1934.6797421827571
 30
0.0
 11
2568.7762554624592
 21
1931.479742182757
 31
0.0
  0
LINE
  5
7D5F
  8
1
 10
2483.7762554624578
 20
2058.1797421827569
 30
0.0
 11
2533.7762554624592
 21
2058.1797421827559
 31
0.0
  0
LINE
  5
7D60
  8
1
 10
903.98510438532321
 20
4286.1541628245941
 30
0.0
 11
1419.985104385323
 21
3906.1541628245941
 31
0.0
  0
LINE
  5
7D61
  8
1
 10
1419.985104385323
 20
4286.1541628245941
 30
0.0
 11
903.98510438532321
 21
3906.1541628245941
 31
0.0
  0
LINE
  5
7D62
  8
1
 10
1419.985104385323
 20
3906.1541628245941
 30
0.0
 11
903.98510438532321
 21
3906.1541628245941
 31
0.0
  0
LINE
  5
7D63
  8
1
 10
1419.985104385323
 20
4286.1541628245941
 30
0.0
 11
903.98510438532321
 21
4286.1541628245941
 31
0.0
  0
LINE
  5
7D64
  8
1
 10
1444.985104385323
 20
3881.1541628245941
 30
0.0
 11
878.98510438532321
 21
3881.1541628245941
 31
0.0
  0
LINE
  5
7D65
  8
1
 10
1444.985104385323
 20
4311.1541628245941
 30
0.0
 11
878.98510438532321
 21
4311.1541628245941
 31
0.0
  0
DIMENSION
  5
7D66
  8
3
  2
*D11
 10
618.59028734862704
 20
4469.4389140303056
 30
0.0
 11
908.59028734862693
 21
4519.4389140303056
 31
0.0
 70
     0
 13
1198.5902873486259
 23
4326.1541628245923
 33
0.0
 14
618.59028734862704
 24
3886.1541628245918
 34
0.0
1001
ACAD
1000
DSTYLE
1002
{
1070
   287
1070
     3
1070
    40
1040
20.0
1070
   143
1040
0.039
1070
   172
1070
     1
1070
   271
1070
     0
1070
   279
1070
     0
1070
   288
1070
     1
1002
}
  0
LINE
  5
7D67
  8
1
 10
1198.5902873486259
 20
3846.1541628245909
 30
0.0
 11
618.59028734862704
 21
3846.1541628245909
 31
0.0
  0
LINE
  5
7D68
  8
1
 10
1216.5902873486259
 20
3366.1541628245909
 30
0.0
 11
899.59028734862648
 21
3366.1541628245918
 31
0.0
  0
LINE
  5
7D69
  8
1
 10
1372.3902873486261
 20
3271.1541628245932
 30
0.0
 11
842.09028734862659
 21
3271.1541628245932
 31
0.0
  0
LINE
  5
7D6A
  8
1
 10
1372.3902873486261
 20
3321.1541628245932
 30
0.0
 11
842.09028734862602
 21
3321.1541628245932
 31
0.0
  0
LINE
  5
7D6B
  8
1
 10
1598.5902873486259
 20
3241.1541628245932
 30
0.0
 11
628.59028734862704
 21
3241.1541628245932
 31
0.0
  0
LINE
  5
7D6C
  8
1
 10
1598.5902873486259
 20
3363.1541628245932
 30
0.0
 11
628.59028734862704
 21
3363.1541628245932
 31
0.0
  0
LINE
  5
7D6D
  8
1
 10
1426.0902873486259
 20
3326.1541628245909
 30
0.0
 11
618.59028734862704
 21
3326.1541628245918
 31
0.0
  0
LINE
  5
7D6E
  8
2
 10
1847.74589202216
 20
4096.1541628245941
 30
0.0
 11
867.47046143043417
 21
4096.1541628245941
 31
0.0
  0
DIMENSION
  5
7D6F
  8
3
  2
*D12
 10
618.59028734862704
 20
3009.3359103246339
 30
0.0
 11
1158.5902873486259
 21
3059.3359103246339
 31
0.0
 70
     0
 13
1698.5902873486259
 23
3326.1541628245918
 33
0.0
 14
618.59028734862704
 24
3326.1541628245918
 34
0.0
1001
ACAD
1000
DSTYLE
1002
{
1070
   287
1070
     3
1070
    40
1040
20.0
1070
   143
1040
0.039
1070
   172
1070
     1
1070
   271
1070
     0
1070
   279
1070
     0
1070
   288
1070
     1
1002
}
  0
DIMENSION
  5
7D70
  8
3
  2
*D13
 10
431.95570278987219
 20
3326.1541628245918
 30
0.0
 11
381.95570278987168
 21
3606.1541628245918
 31
0.0
 70
     0
 13
618.59028734862704
 23
3886.1541628245918
 33
0.0
 14
618.59028734862704
 24
3326.1541628245918
 34
0.0
 50
270.0
1001
ACAD
1000
DSTYLE
1002
{
1070
   287
1070
     3
1070
    40
1040
20.0
1070
   143
1040
0.039
1070
   172
1070
     1
1070
   271
1070
     0
1070
   279
1070
     0
1070
   288
1070
     1
1002
}
  0
LINE
  5
7D71
  8
2
 10
778.59028734862648
 20
3267.564162824594
 30
0.0
 11
778.59028734862648
 21
3657.6799628245931
 31
0.0
  0
LINE
  5
7D72
  8
1
 10
899.59028734862648
 20
3347.1541628245932
 30
0.0
 11
899.59028734862648
 21
3654.1541628245932
 31
0.0
  0
LINE
  5
7D73
  8
1
 10
657.59028734862648
 20
3347.1541628245932
 30
0.0
 11
657.59028734862648
 21
3654.1541628245932
 31
0.0
  0
LINE
  5
7D74
  8
1
 10
736.09028734862648
 20
3337.1541628245932
 30
0.0
 11
821.09028734862648
 21
3337.1541628245932
 31
0.0
  0
LINE
  5
7D75
  8
1
 10
715.09028734862648
 20
3271.1541628245932
 30
0.0
 11
842.09028734862659
 21
3271.1541628245932
 31
0.0
  0
LINE
  5
7D76
  8
1
 10
715.09028734862704
 20
3321.1541628245941
 30
0.0
 11
842.09028734862693
 21
3321.1541628245932
 31
0.0
  0
LINE
  5
7D77
  8
1
 10
657.59028734862648
 20
3347.1541628245932
 30
0.0
 11
899.59028734862648
 21
3347.1541628245932
 31
0.0
  0
LINE
  5
7D78
  8
1
 10
628.59028734862704
 20
3241.1541628245932
 30
0.0
 11
628.59028734862704
 21
3363.1541628245932
 31
0.0
  0
LINE
  5
7D79
  8
1
 10
715.09028734862648
 20
3271.1541628245932
 30
0.0
 11
715.09028734862613
 21
3321.1541628245941
 31
0.0
  0
LINE
  5
7D7A
  8
1
 10
657.59028734862613
 20
3366.1541628245918
 30
0.0
 11
618.59028734862704
 21
3366.1541628245918
 31
0.0
  0
LINE
  5
7D7B
  8
1
 10
618.59028734862704
 20
3326.1541628245918
 30
0.0
 11
618.59028734862704
 21
3366.1541628245918
 31
0.0
  0
POINT
  5
7D7C
  8
1
 10
618.59028734862704
 20
3326.1541628245918
 30
0.0
  0
POINT
  5
7D7D
  8
1
 10
618.59028734862704
 20
3326.1541628245918
 30
0.0
  0
POINT
  5
7D7E
  8
1
 10
618.59028734862704
 20
3326.1541628245918
 30
0.0
  0
LINE
  5
7D7F
  8
1
 10
736.09028734862648
 20
3347.1541628245932
 30
0.0
 11
736.09028734862648
 21
3337.1541628245932
 31
0.0
  0
LINE
  5
7D80
  8
1
 10
763.09028734862659
 20
3337.1541628245932
 30
0.0
 11
763.09028734862659
 21
3331.1541628245932
 31
0.0
  0
LINE
  5
7D81
  8
1
 10
764.59028734862648
 20
3331.1541628245932
 30
0.0
 11
764.59028734862613
 21
3321.1541628245941
 31
0.0
  0
LINE
  5
7D82
  8
1
 10
794.09028734862648
 20
3331.1541628245932
 30
0.0
 11
794.09028734862648
 21
3337.1541628245932
 31
0.0
  0
LINE
  5
7D83
  8
1
 10
792.59028734862659
 20
3331.1541628245932
 30
0.0
 11
792.59028734862613
 21
3321.1541628245941
 31
0.0
  0
LINE
  5
7D84
  8
1
 10
763.09028734862659
 20
3331.1541628245932
 30
0.0
 11
794.09028734862648
 21
3331.1541628245932
 31
0.0
  0
LINE
  5
7D85
  8
1
 10
842.09028734862659
 20
3271.1541628245932
 30
0.0
 11
842.09028734862602
 21
3321.1541628245932
 31
0.0
  0
LINE
  5
7D86
  8
1
 10
821.09028734862648
 20
3347.1541628245932
 30
0.0
 11
821.09028734862648
 21
3337.1541628245932
 31
0.0
  0
LINE
  5
7D87
  8
1
 10
657.59028734862648
 20
3654.1541628245932
 30
0.0
 11
899.59028734862648
 21
3654.1541628245932
 31
0.0
  0
LINE
  5
7D88
  8
1
 10
903.98510438532321
 20
3906.1541628245941
 30
0.0
 11
903.98510438532321
 21
4286.1541628245941
 31
0.0
  0
LINE
  5
7D89
  8
1
 10
878.98510438532321
 20
3881.1541628245941
 30
0.0
 11
878.98510438532321
 21
4311.1541628245941
 31
0.0
  0
LINE
  5
7D8A
  8
1
 10
878.98510438532276
 20
3886.1541628245918
 30
0.0
 11
618.59028734862704
 21
3886.1541628245918
 31
0.0
  0
LINE
  5
7D8B
  8
1
 10
618.59028734862704
 20
3846.1541628245909
 30
0.0
 11
618.59028734862704
 21
3886.1541628245918
 31
0.0
  0
LINE
  5
7D90
  8
2
 10
1448.5902873486259
 20
3238.6715517134012
 30
0.0
 11
1448.5902873486259
 21
4342.7002279252774
 31
0.0
  0
LINE
  5
7D91
  8
1
 10
1198.5902873486259
 20
3366.1541628245918
 30
0.0
 11
1198.5902873486259
 21
3881.1541628245941
 31
0.0
  0
LINE
  5
7D92
  8
1
 10
1216.5902873486259
 20
3356.1541628245932
 30
0.0
 11
1216.5902873486259
 21
3841.1541628245932
 31
0.0
  0
LINE
  5
7D93
  8
1
 10
1698.5902873486259
 20
3326.1541628245918
 30
0.0
 11
1698.5902873486259
 21
3908.6541628245941
 31
0.0
  0
DIMENSION
  5
7D94
  8
3
  2
*D14
 10
2003.4080191371299
 20
4326.1541628245923
 30
0.0
 11
1953.4080191371299
 21
3826.1541628245918
 31
0.0
 70
     0
 13
1698.5902873486259
 23
3326.1541628245918
 33
0.0
 14
1698.5902873486259
 24
4326.1541628245923
 34
0.0
 50
270.0
1001
ACAD
1000
DSTYLE
1002
{
1070
   287
1070
     3
1070
    40
1040
20.0
1070
   143
1040
0.039
1070
   172
1070
     1
1070
   271
1070
     0
1070
   279
1070
     0
1070
   288
1070
     1
1002
}
  0
LINE
  5
7D95
  8
1
 10
1680.5902873486259
 20
3356.1541628245932
 30
0.0
 11
1680.5902873486259
 21
3841.1541628245932
 31
0.0
  0
LINE
  5
7D98
  8
1
 10
1524.790287348626
 20
3271.1541628245932
 30
0.0
 11
1372.3902873486261
 21
3271.1541628245932
 31
0.0
  0
LINE
  5
7D9D
  8
1
 10
1524.790287348626
 20
3321.1541628245932
 30
0.0
 11
1372.3902873486261
 21
3321.1541628245932
 31
0.0
  0
LINE
  5
7D9F
  8
1
 10
1426.0902873486259
 20
3356.1541628245932
 30
0.0
 11
1216.5902873486259
 21
3356.1541628245932
 31
0.0
  0
LINE
  5
7DA0
  8
1
 10
1372.3902873486261
 20
3271.1541628245932
 30
0.0
 11
1372.3902873486261
 21
3321.1541628245932
 31
0.0
  0
LINE
  5
7DA5
  8
1
 10
1680.5902873486259
 20
3356.1541628245932
 30
0.0
 11
1471.0902873486259
 21
3356.1541628245932
 31
0.0
  0
LINE
  5
7DA6
  8
1
 10
1698.5902873486259
 20
3326.1541628245918
 30
0.0
 11
1471.0902873486259
 21
3326.1541628245909
 31
0.0
  0
LINE
  5
7DA7
  8
1
 10
1524.790287348626
 20
3271.1541628245932
 30
0.0
 11
1524.790287348626
 21
3321.1541628245932
 31
0.0
  0
LINE
  5
7DAA
  8
1
 10
1426.0902873486259
 20
3321.1541628245932
 30
0.0
 11
1426.0902873486259
 21
3881.1541628245932
 31
0.0
  0
LINE
  5
7DAB
  8
1
 10
1471.0902873486259
 20
3321.1541628245932
 30
0.0
 11
1471.0902873486259
 21
3908.6541628245941
 31
0.0
  0
LINE
  5
7DAE
  8
1
 10
1598.5902873486259
 20
3241.1541628245918
 30
0.0
 11
1598.5902873486259
 21
3363.1541628245918
 31
0.0
  0
LINE
  5
7DAF
  8
1
 10
1698.5902873486259
 20
3366.1541628245918
 30
0.0
 11
1680.5902873486259
 21
3366.1541628245909
 31
0.0
  0
LINE
  5
7DB1
  8
1
 10
1809.638278156486
 20
3908.6541628245932
 30
0.0
 11
1444.985104385323
 21
3908.6541628245941
 31
0.0
  0
LINE
  5
7DB2
  8
1
 10
1809.638278156486
 20
4283.6541628245941
 30
0.0
 11
1444.985104385323
 21
4283.6541628245941
 31
0.0
  0
DIMENSION
  5
7DB3
  8
3
  2
*D15
 10
1198.5902873486259
 20
4469.4389140303056
 30
0.0
 11
1448.5902873486259
 21
4519.4389140303056
 31
0.0
 70
     0
 13
1698.5902873486259
 23
4326.1541628245923
 33
0.0
 14
1198.5902873486259
 24
4326.1541628245923
 34
0.0
1001
ACAD
1000
DSTYLE
1002
{
1070
   287
1070
     3
1070
    40
1040
20.0
1070
   143
1040
0.039
1070
   172
1070
     1
1070
   271
1070
     0
1070
   279
1070
     0
1070
   288
1070
     1
1002
}
  0
LINE
  5
7DB7
  8
1
 10
1680.5902873486259
 20
3841.1541628245932
 30
0.0
 11
1471.0902873486259
 21
3841.1541628245918
 31
0.0
  0
LINE
  5
7DB8
  8
1
 10
1698.5902873486259
 20
4326.1541628245923
 30
0.0
 11
1198.5902873486259
 21
4326.1541628245923
 31
0.0
  0
LINE
  5
7DB9
  8
1
 10
1238.5902873486259
 20
3841.1541628245932
 30
0.0
 11
1238.5902873486259
 21
3881.1541628245941
 31
0.0
  0
LINE
  5
7DBA
  8
1
 10
1238.5902873486259
 20
3841.1541628245932
 30
0.0
 11
1238.5902873486259
 21
3867.1541628245918
 31
0.0
  0
LINE
  5
7DBB
  8
1
 10
1198.5902873486259
 20
4311.1541628245941
 30
0.0
 11
1198.5902873486259
 21
4326.1541628245923
 31
0.0
  0
LINE
  5
7DBC
  8
1
 10
1238.5902873486259
 20
4311.1541628245941
 30
0.0
 11
1238.5902873486259
 21
4326.1541628245923
 31
0.0
  0
LINE
  5
7DBE
  8
1
 10
1419.985104385323
 20
3906.1541628245941
 30
0.0
 11
1419.985104385323
 21
4286.1541628245941
 31
0.0
  0
LINE
  5
7DBF
  8
1
 10
1444.985104385323
 20
3881.1541628245941
 30
0.0
 11
1444.985104385323
 21
4311.1541628245941
 31
0.0
  0
LINE
  5
7DC3
  8
1
 10
1658.5902873486259
 20
3841.1541628245932
 30
0.0
 11
1658.5902873486259
 21
3867.1541628245941
 31
0.0
  0
LINE
  5
7DC4
  8
1
 10
1658.5902873486259
 20
3841.1541628245932
 30
0.0
 11
1658.5902873486259
 21
3908.6541628245941
 31
0.0
  0
LINE
  5
7DC5
  8
1
 10
1658.5902873486259
 20
4286.1541628245941
 30
0.0
 11
1444.985104385323
 21
4286.1541628245932
 31
0.0
  0
LINE
  5
7DC6
  8
1
 10
1658.5902873486259
 20
4283.6541628245941
 30
0.0
 11
1658.5902873486259
 21
4326.1541628245923
 31
0.0
  0
LINE
  5
7DC7
  8
1
 10
1698.5902873486259
 20
4283.6541628245941
 30
0.0
 11
1698.5902873486259
 21
4326.1541628245923
 31
0.0
  0
LINE
  5
7DC8
  8
1
 10
1809.638278156486
 20
3908.6541628245941
 30
0.0
 11
1809.638278156486
 21
4283.6541628245941
 31
0.0
  0
DIMENSION
  5
7DC9
  8
3
  2
*D16
 10
3500.7762554624592
 20
2591.8272725538709
 30
0.0
 11
3404.7762554624592
 21
2646.0402008341989
 31
0.0
 70
   128
 13
3308.7762554624592
 23
2531.7090967925569
 33
0.0
 14
3500.7762554624592
 24
2269.6797421827569
 34
0.0
1001
ACAD
1000
DSTYLE
1002
{
1070
   288
1070
     1
1070
   172
1070
     1
1070
    40
1040
20.0
1070
   271
1070
     0
1070
   143
1040
0.039
1002
}
  0
DIMENSION
  5
7DCA
  8
3
  2
*D17
 10
3496.2762554624592
 20
2444.1436902347282
 30
0.0
 11
3308.7762554624592
 21
2494.1436902347282
 31
0.0
 70
     0
 13
3121.2762554624592
 23
2354.6797421827559
 33
0.0
 14
3496.2762554624592
 24
2354.6797421827559
 34
0.0
1001
ACAD
1000
DSTYLE
1002
{
1070
   287
1070
     3
1070
    40
1040
20.0
1070
   143
1040
0.039
1070
   172
1070
     1
1070
   271
1070
     0
1070
   279
1070
     0
1070
   288
1070
     1
1002
}
  0
DIMENSION
  5
7DCB
  8
3
  2
*D18
 10
3538.7762554624578
 20
1161.099633947809
 30
0.0
 11
3423.7762554624578
 21
1219.842544322679
 31
0.0
 12
0.0
 22
-57.0
 32
0.0
 70
   128
 13
3308.7762554624592
 23
1286.201855650276
 33
0.0
 14
3538.7762554624578
 24
1314.6797421827559
 34
0.0
1001
ACAD
1000
DSTYLE
1002
{
1070
   288
1070
     1
1070
   172
1070
     1
1070
    40
1040
20.0
1070
   271
1070
     0
1070
   143
1040
0.039
1002
}
  0
LINE
  5
7DCC
  8
1
 10
3121.3291499735128
 20
2351.6797421827559
 30
0.0
 11
3496.0764792290761
 21
2351.6797421827559
 31
0.0
  0
LINE
  5
7DCD
  8
1
 10
3119.2762554624592
 20
2329.6797421827569
 30
0.0
 11
3498.2762554624601
 21
2329.6797421827569
 31
0.0
  0
LINE
  5
7DCE
  8
1
 10
3119.2762554624592
 20
2354.6797421827559
 30
0.0
 11
3498.2762554624601
 21
2354.6797421827559
 31
0.0
  0
LINE
  5
7DCF
  8
1
 10
2575.7762554624592
 20
2144.6797421827569
 30
0.0
 11
2575.7762554624592
 21
2101.5082675279191
 31
0.0
  0
LINE
  5
7DD0
  8
2
 10
3308.7762554624592
 20
2451.3650794293399
 30
0.0
 11
3308.7762554624592
 21
1286.201855650276
 31
0.0
  0
LINE
  5
7DD1
  8
1
 10
3121.2762554624592
 20
1994.6797421827559
 30
0.0
 11
3121.2762554624592
 21
1559.6797421827571
 31
0.0
  0
LINE
  5
7DD3
  8
1
 10
3043.7762554624592
 20
1931.479742182757
 30
0.0
 11
3043.7762554624592
 21
1662.29185323569
 31
0.0
  0
LINE
  5
7DD4
  8
1
 10
2578.7762554624592
 20
1931.479742182757
 30
0.0
 11
2578.7762554624592
 21
1559.6797421827571
 31
0.0
  0
LINE
  5
7DD6
  8
1
 10
3043.7762554624592
 20
1680.4620745727209
 30
0.0
 11
3043.7762554624592
 21
1559.6797421827571
 31
0.0
  0
POLYLINE
  5
7DD7
  8
1
 66
     1
 10
0.0
 20
0.0
 30
0.0
 70
     1
  0
VERTEX
  5
842A
  8
1
 10
3119.2762554624592
 20
1559.6797421827571
 30
0.0
  0
VERTEX
  5
842B
  8
1
 10
3119.2762554624592
 20
1599.6797421827571
 30
0.0
  0
VERTEX
  5
842C
  8
1
 10
3117.2762554624592
 20
1599.6797421827571
 30
0.0
 42
0.4142135623730951
  0
VERTEX
  5
842D
  8
1
 10
3114.2762554624592
 20
1596.6797421827559
 30
0.0
  0
VERTEX
  5
842E
  8
1
 10
3114.2762554624592
 20
1569.1797421827571
 30
0.0
 42
-0.4142135623730951
  0
VERTEX
  5
842F
  8
1
 10
3109.7762554624592
 20
1564.6797421827559
 30
0.0
  0
VERTEX
  5
8430
  8
1
 10
3082.2762554624592
 20
1564.6797421827559
 30
0.0
 42
0.4142135623730951
  0
VERTEX
  5
8431
  8
1
 10
3079.2762554624592
 20
1561.6797421827559
 30
0.0
  0
VERTEX
  5
8432
  8
1
 10
3079.2762554624592
 20
1559.6797421827571
 30
0.0
  0
SEQEND
  5
8433
  8
1
  0
LINE
  5
7E09
  8
1
 10
3121.2762554624592
 20
2354.6797421827559
 30
0.0
 11
3121.2762554624592
 21
1994.6797421827559
 31
0.0
  0
LINE
  5
7E0E
  8
1
 10
2533.7762554624592
 20
1972.1797421827571
 30
0.0
 11
3119.2762554624592
 21
1972.1797421827571
 31
0.0
  0
POLYLINE
  5
7E0F
  8
1
 66
     1
 10
0.0
 20
0.0
 30
0.0
 70
     1
  0
VERTEX
  5
8434
  8
1
 10
3043.7762554624592
 20
1881.479742182757
 30
0.0
  0
VERTEX
  5
8435
  8
1
 10
3093.7762554624578
 20
1881.479742182757
 30
0.0
  0
VERTEX
  5
8436
  8
1
 10
3093.7762554624578
 20
1882.979742182757
 30
0.0
 42
0.4142135623730942
  0
VERTEX
  5
8437
  8
1
 10
3089.2762554624592
 20
1887.4797421827559
 30
0.0
  0
VERTEX
  5
8438
  8
1
 10
3056.2762554624578
 20
1887.4797421827559
 30
0.0
 42
-0.4142135623730951
  0
VERTEX
  5
8439
  8
1
 10
3049.7762554624578
 20
1893.979742182757
 30
0.0
  0
VERTEX
  5
843A
  8
1
 10
3049.7762554624578
 20
1926.979742182757
 30
0.0
 42
0.4142135623730951
  0
VERTEX
  5
843B
  8
1
 10
3045.2762554624592
 20
1931.479742182757
 30
0.0
  0
VERTEX
  5
843C
  8
1
 10
3043.7762554624592
 20
1931.479742182757
 30
0.0
  0
SEQEND
  5
843D
  8
1
  0
LINE
  5
7E1A
  8
1
 10
3046.976255462459
 20
1881.4797421827559
 30
0.0
 11
3121.2762554624592
 21
1881.4797421827559
 31
0.0
  0
LINE
  5
7E1B
  8
1
 10
3054.2762554624592
 20
1875.479742182757
 30
0.0
 11
3121.2762554624601
 21
1875.4797421827559
 31
0.0
  0
LINE
  5
7E1C
  8
1
 10
3054.2762554624592
 20
1881.4797421827559
 30
0.0
 11
3054.2762554624592
 21
1875.479742182757
 31
0.0
  0
LINE
  5
7E22
  8
1
 10
3053.7762554624592
 20
1934.6797421827571
 30
0.0
 11
3053.7762554624592
 21
1931.479742182757
 31
0.0
  0
LINE
  5
7E24
  8
1
 10
2533.7762554624592
 20
2017.1797421827589
 30
0.0
 11
3119.2762554624592
 21
2017.1797421827571
 31
0.0
  0
POLYLINE
  5
7E2F
  8
1
 66
     1
 10
0.0
 20
0.0
 30
0.0
 70
     1
  0
VERTEX
  5
843E
  8
1
 10
3121.2762554624592
 20
2354.6797421827559
 30
0.0
  0
VERTEX
  5
843F
  8
1
 10
3121.2762554624592
 20
2329.6797421827569
 30
0.0
  0
VERTEX
  5
8440
  8
1
 10
3120.2762554624592
 20
2329.6797421827569
 30
0.0
 42
-0.4142135623730951
  0
VERTEX
  5
8441
  8
1
 10
3118.2762554624592
 20
2331.6797421827559
 30
0.0
  0
VERTEX
  5
8442
  8
1
 10
3118.2762554624592
 20
2347.6797421827559
 30
0.0
 42
0.4142135623730951
  0
VERTEX
  5
8443
  8
1
 10
3114.2762554624592
 20
2351.6797421827559
 30
0.0
  0
VERTEX
  5
8444
  8
1
 10
3098.2762554624592
 20
2351.6797421827559
 30
0.0
 42
-0.4142135623730951
  0
VERTEX
  5
8445
  8
1
 10
3096.2762554624592
 20
2353.6797421827569
 30
0.0
  0
VERTEX
  5
8446
  8
1
 10
3096.2762554624592
 20
2354.6797421827559
 30
0.0
  0
SEQEND
  5
8447
  8
1
  0
POINT
  5
7E3A
  8
1
 10
3121.2762554624592
 20
2354.6797421827559
 30
0.0
  0
POINT
  5
7E3B
  8
1
 10
3119.2762554624592
 20
2354.6797421827559
 30
0.0
  0
DIMENSION
  5
7E3C
  8
3
  2
*D19
 10
3714.5503481469082
 20
1744.6797421827559
 30
0.0
 11
3664.5503481469068
 21
1994.6797421827571
 31
0.0
 70
     0
 13
3524.7762554624592
 23
2244.6797421827569
 33
0.0
 14
3524.7762554624592
 24
1744.6797421827559
 34
0.0
 50
90.0
1001
ACAD
1000
DSTYLE
1002
{
1070
   287
1070
     3
1070
     3
1000
φ<>
1070
    40
1040
20.0
1070
   143
1040
0.039
1070
   172
1070
     1
1070
   271
1070
     0
1070
   279
1070
     0
1070
   288
1070
     1
1002
}
  0
LINE
  5
7E3E
  8
1
 10
3525.7762554624592
 20
1988.6797421827571
 30
0.0
 11
3525.7762554624592
 21
1744.6797421827559
 31
0.0
  0
LINE
  5
7E3F
  8
1
 10
3500.7762554624592
 20
1744.6797421827559
 30
0.0
 11
3500.7762554624592
 21
1988.6797421827571
 31
0.0
  0
LINE
  5
7E40
  8
1
 10
3496.2762554624592
 20
1994.6797421827559
 30
0.0
 11
3496.2762554624592
 21
1559.6797421827571
 31
0.0
  0
LINE
  5
7E42
  8
1
 10
3538.7762554624592
 20
1559.6797421827571
 30
0.0
 11
3538.7762554624592
 21
1484.6797421827559
 31
0.0
  0
LINE
  5
7E43
  8
1
 10
3538.7762554624592
 20
1389.6797421827571
 30
0.0
 11
3538.7762554624578
 21
1314.6797421827559
 31
0.0
  0
LINE
  5
7E44
  8
1
 10
3503.7762554624578
 20
1596.6797421827559
 30
0.0
 11
3503.7762554624578
 21
1569.1797421827571
 31
0.0
  0
LINE
  5
7E45
  8
1
 10
3538.7762554624578
 20
1559.6797421827571
 30
0.0
 11
3498.2762554624578
 21
1559.6797421827571
 31
0.0
  0
LINE
  5
7E46
  8
1
 10
3508.2762554624578
 20
1564.6797421827559
 30
0.0
 11
3535.7762554624578
 21
1564.6797421827559
 31
0.0
  0
ARC
  5
7E47
  8
1
 10
3508.2762554624578
 20
1569.1797421827571
 30
0.0
 40
4.5
 50
180.0
 51
270.0
  0
LINE
  5
7E48
  8
1
 10
3498.2762554624578
 20
1559.6797421827571
 30
0.0
 11
3498.2762554624592
 21
1599.6797421827571
 31
0.0
  0
LINE
  5
7E4C
  8
1
 10
3538.7762554624578
 20
1557.6797421827571
 30
0.0
 11
3538.7762554624578
 21
1559.6797421827571
 31
0.0
  0
LINE
  5
7E4D
  8
1
 10
3538.7762554624578
 20
1561.6797421827559
 30
0.0
 11
3538.7762554624578
 21
1559.6797421827571
 31
0.0
  0
ARC
  5
7E4E
  8
1
 10
3535.7762554624578
 20
1561.6797421827559
 30
0.0
 40
3.0
 50
0.0
 51
90.0
  0
ARC
  5
7E4F
  8
1
 10
3500.7762554624592
 20
1596.6797421827559
 30
0.0
 40
3.0
 50
0.0
 51
90.0
  0
LINE
  5
7E50
  8
1
 10
3498.2762554624592
 20
1599.6797421827571
 30
0.0
 11
3500.7762554624592
 21
1599.6797421827571
 31
0.0
  0
LINE
  5
7E51
  8
1
 10
3523.7762554624592
 20
1741.6797421827559
 30
0.0
 11
3507.7762554624592
 21
1741.6797421827559
 31
0.0
  0
LINE
  5
7E52
  8
1
 10
3500.7762554624592
 20
1744.6797421827559
 30
0.0
 11
3525.7762554624592
 21
1744.6797421827559
 31
0.0
  0
LINE
  5
7E53
  8
1
 10
3500.7762554624592
 20
1719.6797421827571
 30
0.0
 11
3496.2762554624592
 21
1719.6797421827571
 31
0.0
  0
LINE
  5
7E54
  8
1
 10
3500.7762554624592
 20
1719.6797421827571
 30
0.0
 11
3500.7762554624592
 21
1744.6797421827559
 31
0.0
  0
LINE
  5
7E55
  8
1
 10
3501.7762554624592
 20
1719.6797421827571
 30
0.0
 11
3500.7762554624592
 21
1719.6797421827571
 31
0.0
  0
ARC
  5
7E56
  8
1
 10
3501.7762554624592
 20
1721.6797421827559
 30
0.0
 40
2.0
 50
270.0
 51
0.0
  0
LINE
  5
7E57
  8
1
 10
3503.7762554624592
 20
1737.6797421827571
 30
0.0
 11
3503.7762554624592
 21
1721.6797421827559
 31
0.0
  0
ARC
  5
7E58
  8
1
 10
3507.7762554624592
 20
1737.6797421827571
 30
0.0
 40
4.0
 50
90.0
 51
180.0
  0
ARC
  5
7E59
  8
1
 10
3523.7762554624592
 20
1743.6797421827571
 30
0.0
 40
2.0
 50
270.0
 51
0.0
  0
LINE
  5
7E5A
  8
1
 10
3525.7762554624592
 20
1744.6797421827559
 30
0.0
 11
3525.7762554624592
 21
1743.6797421827571
 31
0.0
  0
LINE
  5
7E5B
  8
1
 10
3500.7762554624592
 20
1988.6797421827571
 30
0.0
 11
3500.7762554624592
 21
2244.6797421827569
 31
0.0
  0
LINE
  5
7E5D
  8
1
 10
3496.2762554624592
 20
2354.6797421827559
 30
0.0
 11
3496.2762554624592
 21
1994.6797421827559
 31
0.0
  0
LINE
  5
7E5E
  8
1
 10
3525.7762554624592
 20
2244.6797421827569
 30
0.0
 11
3525.7762554624592
 21
1988.6797421827571
 31
0.0
  0
POLYLINE
  5
7E60
  8
1
 66
     1
 10
0.0
 20
0.0
 30
0.0
 70
     1
  0
VERTEX
  5
8451
  8
1
 10
3500.7762554624592
 20
2244.6797421827569
 30
0.0
  0
VERTEX
  5
8452
  8
1
 10
3525.7762554624592
 20
2244.6797421827569
 30
0.0
  0
VERTEX
  5
8453
  8
1
 10
3525.7762554624592
 20
2245.6797421827569
 30
0.0
 42
0.4142135623730951
  0
VERTEX
  5
8454
  8
1
 10
3523.7762554624592
 20
2247.6797421827569
 30
0.0
  0
VERTEX
  5
8455
  8
1
 10
3507.7762554624592
 20
2247.6797421827569
 30
0.0
 42
-0.4142135623730951
  0
VERTEX
  5
8456
  8
1
 10
3503.7762554624592
 20
2251.6797421827559
 30
0.0
  0
VERTEX
  5
8457
  8
1
 10
3503.7762554624592
 20
2267.6797421827559
 30
0.0
 42
0.4142135623730951
  0
VERTEX
  5
8458
  8
1
 10
3501.7762554624592
 20
2269.6797421827569
 30
0.0
  0
VERTEX
  5
8459
  8
1
 10
3500.7762554624592
 20
2269.6797421827569
 30
0.0
  0
SEQEND
  5
845A
  8
1
  0
LINE
  5
7E6B
  8
1
 10
3501.5762554624589
 20
2269.6797421827569
 30
0.0
 11
3496.2762554624592
 21
2269.6797421827569
 31
0.0
  0
POLYLINE
  5
7E6C
  8
1
 66
     1
 10
0.0
 20
0.0
 30
0.0
 70
     1
  0
VERTEX
  5
845B
  8
1
 10
3496.2762554624592
 20
2354.6797421827559
 30
0.0
  0
VERTEX
  5
845C
  8
1
 10
3496.2762554624592
 20
2329.6797421827569
 30
0.0
  0
VERTEX
  5
845D
  8
1
 10
3497.2762554624592
 20
2329.6797421827569
 30
0.0
 42
0.4142135623730951
  0
VERTEX
  5
845E
  8
1
 10
3499.2762554624592
 20
2331.6797421827559
 30
0.0
  0
VERTEX
  5
845F
  8
1
 10
3499.2762554624592
 20
2347.6797421827559
 30
0.0
 42
-0.4142135623730951
  0
VERTEX
  5
8460
  8
1
 10
3503.2762554624592
 20
2351.6797421827559
 30
0.0
  0
VERTEX
  5
8461
  8
1
 10
3519.2762554624592
 20
2351.6797421827559
 30
0.0
 42
0.4142135623730951
  0
VERTEX
  5
8462
  8
1
 10
3521.2762554624592
 20
2353.6797421827569
 30
0.0
  0
VERTEX
  5
8463
  8
1
 10
3521.2762554624592
 20
2354.6797421827559
 30
0.0
  0
SEQEND
  5
8464
  8
1
  0
POINT
  5
7E77
  8
1
 10
3498.2762554624592
 20
2354.6797421827559
 30
0.0
  0
POINT
  5
7E78
  8
1
 10
3496.2762554624592
 20
2354.6797421827559
 30
0.0
  0
LINE
  5
806F
  8
4
 10
3700.0
 20
1000.0
 30
0.0
 11
3700.0
 21
600.0
 31
0.0
  0
LINE
  5
8070
  8
4
 10
2300.0
 20
1000.0
 30
0.0
 11
2300.0
 21
600.0
 31
0.0
  0
LINE
  5
8071
  8
4
 10
1300.0
 20
1000.0
 30
0.0
 11
1300.0
 21
600.0
 31
0.0
  0
LINE
  5
8074
  8
4
 10
1300.0
 20
600.0
 30
0.0
 11
3700.0
 21
600.0
 31
0.0
  0
LINE
  5
8075
  8
4
 10
1300.0
 20
800.0
 30
0.0
 11
3700.0
 21
800.0
 31
0.0
  0
TEXT
  5
8076
  8
4
 10
1377.0041616938031
 20
863.08605173322564
 30
0.0
 40
100.0
  1
機器名称
  0
TEXT
  5
8077
  8
4
 10
1372.516212049595
 20
643.29031346402189
 30
0.0
 40
100.0
  1
機器型番
  0
TEXT
  5
8078
  8
4
 10
2309.586123402084
 20
844.3746047138942
 30
0.0
 40
90.0
  1
ミツヤリミットロードファン
  0
TEXT
  5
8079
  8
4
 10
2373.3089911709608
 20
634.31916855988675
 30
0.0
 40
100.0
  1
LL#3-1
  0
TEXT
  5
807B
  8
4
 10
1539.251891789397
 20
4766.8576826650306
 30
0.0
 40
107.9999999999999
  1
床置防振ベット
  0
TEXT
  5
807C
  8
4
 10
632.33518665889278
 20
5067.7619523985959
 30
0.0
 40
144.0
  1
遠心式片吸込片持リミットロードファン
  0
LINE
  5
807D
  8
4
 10
500.0
 20
4938.8175085296089
 30
0.0
 11
3700.0
 21
4938.8175085296089
 31
0.0
  0
LINE
  5
807E
  8
4
 10
500.0
 20
5338.8175085296098
 30
0.0
 11
3700.0
 21
5338.8175085296098
 31
0.0
  0
LINE
  5
807F
  8
4
 10
1300.0
 20
1000.0
 30
0.0
 11
3700.0
 21
1000.0
 31
0.0
  0
LINE
  5
8080
  8
4
 10
500.0
 20
5338.8175085296098
 30
0.0
 11
500.0
 21
4938.8175085296089
 31
0.0
  0
TEXT
  5
8081
  8
4
 10
667.53422730399325
 20
4764.638955092687
 30
0.0
 40
107.9999999999999
  1
右回転上向
  0
TEXT
  5
8082
  8
4
 10
2937.9391184985789
 20
5412.1221629906177
 30
0.0
 40
112.0
  1
No.
  0
TEXT
  5
8083
  8
4
 10
2622.5921252000262
 20
4766.8576826650306
 30
0.0
 40
107.9999999999999
  1
縮尺：1/20
  0
LINE
  5
8084
  8
4
 10
3700.0
 20
5338.8175085296098
 30
0.0
 11
3700.0
 21
4938.8175085296089
 31
0.0
  0
LINE
  5
8085
  8
4
 10
4200.0
 20
5900.0
 30
0.0
 11
4200.0
 21
5900.0
 31
0.0
  0
LINE
  5
8086
  8
4
 10
2881.2348447197292
 20
5362.5271662508021
 30
0.0
 11
2881.2348447197292
 21
5573.3045230995049
 31
0.0
  0
LINE
  5
8087
  8
4
 10
2881.2348447197292
 20
5573.3045230995049
 30
0.0
 11
3700.0
 21
5573.3045230995049
 31
0.0
  0
LINE
  5
8088
  8
4
 10
3700.0
 20
5573.3045230995049
 30
0.0
 11
3700.0
 21
5362.5271662508021
 31
0.0
  0
LINE
  5
8089
  8
4
 10
3700.0
 20
5362.5271662508021
 30
0.0
 11
2881.2348447197292
 21
5362.5271662508021
 31
0.0
  0
LINE
  5
808A
  8
4
 10
0.0
 20
0.0
 30
0.0
 11
0.0
 21
5900.0
 31
0.0
  0
LINE
  5
808B
  8
4
 10
0.0
 20
5900.0
 30
0.0
 11
4200.0
 21
5900.0
 31
0.0
  0
LINE
  5
808C
  8
4
 10
4200.0
 20
5900.0
 30
0.0
 11
4200.0
 21
0.0
 31
0.0
  0
LINE
  5
808D
  8
4
 10
4200.0
 20
0.0
 30
0.0
 11
0.0
 21
0.0
 31
0.0
  0
DIMENSION
  5
81E0
  8
3
  2
*D20
 10
2177.5179121206529
 20
1314.6797421827559
 30
0.0
 11
2177.5179121206529
 21
1775.3089873588669
 31
0.0
 70
   128
 13
1449.1902873486249
 23
2354.6797421827569
 33
0.0
 14
1698.5902873486259
 24
1314.6797421827559
 34
0.0
 50
90.0
1001
ACAD
1000
DSTYLE
1002
{
1070
   287
1070
     3
1070
    40
1040
20.0
1070
   143
1040
0.039
1070
   172
1070
     1
1070
   271
1070
     0
1070
   279
1070
     0
1070
   288
1070
     1
1002
}
  0
DIMENSION
  5
8227
  8
3
  2
*D22
 10
1809.638278156486
 20
2682.2208973180668
 30
0.0
 11
1242.219624338358
 21
2682.2208973180668
 31
0.0
 70
   128
 13
618.59028734862704
 23
1559.6797421827571
 33
0.0
 14
1809.638278156486
 24
1957.6797421827559
 34
0.0
1001
ACAD
1000
DSTYLE
1002
{
1070
   287
1070
     3
1070
    40
1040
20.0
1070
   143
1040
0.039
1070
   172
1070
     1
1070
   271
1070
     0
1070
   279
1070
     0
1070
   288
1070
     1
1002
}
  0
INSERT
  5
82B5
  8
1
  2
L-30-3
 10
1025.8391290978709
 20
2452.796712540211
 30
0.0
 50
180.0
  0
INSERT
  5
82B6
  8
1
  2
L-30-3
 10
1324.4733169911731
 20
2469.9285839320019
 30
0.0
 50
270.0
  0
LINE
  5
82D0
  8
1
 10
2575.7762554624592
 20
1627.211142193722
 30
0.0
 11
2575.7762554624592
 21
1591.679442182756
 31
0.0
  0
LINE
  5
82D9
  8
1
 10
1426.0902873486259
 20
3841.1541628245918
 30
0.0
 11
1216.5902873486259
 21
3841.1541628245932
 31
0.0
  0
DIMENSION
  5
834B
  8
3
  2
*D24
 10
1997.4055410585829
 20
1389.6797421827571
 30
0.0
 11
2093.1198267728678
 21
1437.1797421827571
 31
0.0
 70
     0
  1
(<>)
 13
1698.5902873486259
 23
1484.6797421827559
 33
0.0
 14
1698.5902873486259
 24
1389.6797421827571
 34
0.0
 50
90.0
1001
ACAD
1000
DSTYLE
1002
{
1070
   288
1070
     1
1070
   172
1070
     1
1070
    75
1070
     1
1070
    40
1040
20.0
1070
   271
1070
     0
1070
     7
1000
_DOT
1070
   143
1040
0.039
1002
}
  0
ENDSEC
  0
EOF
