  0
SECTION
  2
HEADER
  9
$ACADVER
  1
AC1009
  9
$INSBASE
 10
0.0
 20
0.0
 30
0.0
  9
$EXTMIN
 10
0.0
 20
0.0
 30
0.0
  9
$EXTMAX
 10
4200.0
 20
5900.0
 30
0.0
  9
$LIMMIN
 10
0.0
 20
0.0
  9
$LIMMAX
 10
297.0
 20
210.0
  9
$ORTHOMODE
 70
     0
  9
$REGENMODE
 70
     1
  9
$FILLMODE
 70
     0
  9
$QTEXTMODE
 70
     0
  9
$MIRRTEXT
 70
     1
  9
$DRAGMODE
 70
     2
  9
$LTSCALE
 40
100.0
  9
$OSMODE
 70
    37
  9
$ATTMODE
 70
     1
  9
$TEXTSIZE
 40
180.0
  9
$TRACEWID
 40
0.05
  9
$TEXTSTYLE
  7
STANDARD
  9
$CLAYER
  8
3
  9
$CELTYPE
  6
BYLAYER
  9
$CECOLOR
 62
   256
  9
$DIMSCALE
 40
20.0
  9
$DIMASZ
 40
2.0
  9
$DIMEXO
 40
0.5
  9
$DIMDLI
 40
10.0
  9
$DIMRND
 40
0.0
  9
$DIMDLE
 40
0.0
  9
$DIMEXE
 40
1.0
  9
$DIMTP
 40
1.0
  9
$DIMTM
 40
1.0
  9
$DIMTXT
 40
3.0
  9
$DIMCEN
 40
0.0
  9
$DIMTSZ
 40
0.0
  9
$DIMTOL
 70
     0
  9
$DIMLIM
 70
     0
  9
$DIMTIH
 70
     0
  9
$DIMTOH
 70
     0
  9
$DIMSE1
 70
     0
  9
$DIMSE2
 70
     0
  9
$DIMTAD
 70
     1
  9
$DIMZIN
 70
     8
  9
$DIMBLK
  1

  9
$DIMASO
 70
     1
  9
$DIMSHO
 70
     1
  9
$DIMPOST
  1

  9
$DIMAPOST
  1

  9
$DIMALT
 70
     0
  9
$DIMALTD
 70
     2
  9
$DIMALTF
 40
0.039
  9
$DIMLFAC
 40
1.0
  9
$DIMTOFL
 70
     1
  9
$DIMTVP
 40
0.0
  9
$DIMTIX
 70
     0
  9
$DIMSOXD
 70
     0
  9
$DIMSAH
 70
     1
  9
$DIMBLK1
  1
OPEN
  9
$DIMBLK2
  1
OPEN
  9
$DIMSTYLE
  2
IGA
  9
$DIMCLRD
 70
     0
  9
$DIMCLRE
 70
     0
  9
$DIMCLRT
 70
     0
  9
$DIMTFAC
 40
10.0
  9
$DIMGAP
 40
1.0
  9
$LUNITS
 70
     2
  9
$LUPREC
 70
     3
  9
$SKETCHINC
 40
0.1
  9
$FILLETRAD
 40
50.0
  9
$AUNITS
 70
     0
  9
$AUPREC
 70
     0
  9
$MENU
  1
acad
  9
$ELEVATION
 40
0.0
  9
$PELEVATION
 40
0.0
  9
$THICKNESS
 40
0.0
  9
$LIMCHECK
 70
     0
  9
$BLIPMODE
 70
     0
  9
$CHAMFERA
 40
0.5
  9
$CHAMFERB
 40
0.5
  9
$SKPOLY
 70
     0
  9
$TDCREATE
 40
2451988.604473379
  9
$TDUPDATE
 40
2454953.6398177082
  9
$TDINDWG
 40
0.0293985069
  9
$TDUSRTIMER
 40
0.0293985069
  9
$USRTIMER
 70
     1
  9
$ANGBASE
 50
0.0
  9
$ANGDIR
 70
     0
  9
$PDMODE
 70
     0
  9
$PDSIZE
 40
0.0
  9
$PLINEWID
 40
0.0
  9
$COORDS
 70
     1
  9
$SPLFRAME
 70
     0
  9
$SPLINETYPE
 70
     6
  9
$SPLINESEGS
 70
     8
  9
$ATTDIA
 70
     0
  9
$ATTREQ
 70
     1
  9
$HANDLING
 70
 10241
  9
$HANDSEED
  5
837E
  9
$SURFTAB1
 70
     6
  9
$SURFTAB2
 70
     6
  9
$SURFTYPE
 70
     6
  9
$SURFU
 70
     6
  9
$SURFV
 70
     6
  9
$UCSNAME
  2

  9
$UCSORG
 10
0.0
 20
0.0
 30
0.0
  9
$UCSXDIR
 10
1.0
 20
0.0
 30
0.0
  9
$UCSYDIR
 10
0.0
 20
1.0
 30
0.0
  9
$PUCSNAME
  2

  9
$PUCSORG
 10
0.0
 20
0.0
 30
0.0
  9
$PUCSXDIR
 10
1.0
 20
0.0
 30
0.0
  9
$PUCSYDIR
 10
0.0
 20
1.0
 30
0.0
  9
$USERI1
 70
     0
  9
$USERI2
 70
     0
  9
$USERI3
 70
     0
  9
$USERI4
 70
     0
  9
$USERI5
 70
     0
  9
$USERR1
 40
0.0
  9
$USERR2
 40
0.0
  9
$USERR3
 40
0.0
  9
$USERR4
 40
0.0
  9
$USERR5
 40
0.0
  9
$WORLDVIEW
 70
     1
  9
$SHADEDGE
 70
     3
  9
$SHADEDIF
 70
    70
  9
$TILEMODE
 70
     1
  9
$MAXACTVP
 70
    16
  9
$PLIMCHECK
 70
     0
  9
$PEXTMIN
 10
1.0000000000000000E+020
 20
1.0000000000000000E+020
 30
1.0000000000000000E+020
  9
$PEXTMAX
 10
-1.0000000000000000E+020
 20
-1.0000000000000000E+020
 30
-1.0000000000000000E+020
  9
$PLIMMIN
 10
0.0
 20
0.0
  9
$PLIMMAX
 10
12.0
 20
9.0
  9
$UNITMODE
 70
     0
  9
$VISRETAIN
 70
     0
  9
$PLINEGEN
 70
     0
  9
$PSLTSCALE
 70
     1
  0
ENDSEC
  0
SECTION
  2
TABLES
  0
TABLE
  2
VPORT
 70
     2
  0
VPORT
  2
*ACTIVE
 70
     0
 10
0.0
 20
0.0
 11
1.0
 21
1.0
 12
3940.197116530524
 22
671.67750458236605
 13
0.0
 23
0.0
 14
10.0
 24
10.0
 15
10.0
 25
10.0
 16
0.0
 26
0.0
 36
1.0
 17
0.0
 27
0.0
 37
0.0
 40
1720.990951502728
 41
3.1666666666666661
 42
50.0
 43
0.0
 44
0.0
 50
0.0
 51
0.0
 71
     0
 72
   100
 73
     1
 74
     0
 75
     0
 76
     0
 77
     0
 78
     0
  0
ENDTAB
  0
TABLE
  2
LTYPE
 70
     2
  0
LTYPE
  2
CONTINUOUS
 70
     0
  3
Solid line
 72
    65
 73
     0
 40
0.0
  0
LTYPE
  2
CENTER
 70
     0
  3
____ _ ____ _ ____ _ ____ _ ____ _ ____ _ ____ 
 72
    65
 73
     4
 40
2.0
 49
1.25
 49
-0.25
 49
0.25
 49
-0.25
  0
ENDTAB
  0
TABLE
  2
LAYER
 70
     6
  0
LAYER
  2
0
 70
     0
 62
     7
  6
CONTINUOUS
  0
LAYER
  2
3
 70
     0
 62
     2
  6
CONTINUOUS
  0
LAYER
  2
2
 70
     0
 62
     3
  6
CENTER
  0
LAYER
  2
1
 70
     0
 62
     4
  6
CONTINUOUS
  0
LAYER
  2
4
 70
     0
 62
     7
  6
CONTINUOUS
  0
LAYER
  2
DEFPOINTS
 70
     0
 62
     7
  6
CONTINUOUS
  0
ENDTAB
  0
TABLE
  2
STYLE
 70
     1
  0
STYLE
  2
STANDARD
 70
     0
 40
0.0
 41
1.0
 50
0.0
 71
     0
 42
180.0
  3
simplex.shx
  4
extfont.shx
  0
ENDTAB
  0
TABLE
  2
VIEW
 70
     0
  0
ENDTAB
  0
TABLE
  2
UCS
 70
     0
  0
ENDTAB
  0
TABLE
  2
APPID
 70
     1
  0
APPID
  2
ACAD
 70
     0
  0
ENDTAB
  0
TABLE
  2
DIMSTYLE
 70
     1
  0
DIMSTYLE
  2
IGA
 70
     0
  3

  4

  5

  6
OPEN
  7
OPEN
 40
2.0
 41
2.0
 42
0.5
 43
10.0
 44
1.0
 45
0.0
 46
0.0
 47
1.0
 48
1.0
140
3.0
141
0.0
142
0.0
143
0.03937
144
1.0
145
0.0
146
10.0
147
1.0
 71
     0
 72
     0
 73
     0
 74
     0
 75
     0
 76
     0
 77
     1
 78
     8
170
     0
171
     2
172
     0
173
     1
174
     0
175
     0
176
     0
177
     0
178
     0
  0
ENDTAB
  0
ENDSEC
  0
SECTION
  2
BLOCKS
  0
BLOCK
  8
0
  2
$MODEL_SPACE
 70
     0
 10
0.0
 20
0.0
 30
0.0
  3
$MODEL_SPACE
  1

  0
ENDBLK
  5
1B
  8
0
  0
BLOCK
 67
     1
  8
0
  2
$PAPER_SPACE
 70
     0
 10
0.0
 20
0.0
 30
0.0
  3
$PAPER_SPACE
  1

  0
ENDBLK
  5
18
 67
     1
  8
0
  0
BLOCK
  8
0
  2
YA_N
 70
     0
 10
0.0
 20
0.0
 30
0.0
  3
YA_N
  1

  0
ENDBLK
  5
79FE
  8
0
  0
BLOCK
  8
0
  2
_OPEN
 70
     0
 10
0.0
 20
0.0
 30
0.0
  3
_OPEN
  1

  0
LINE
  5
7A04
  8
0
  6
BYBLOCK
 62
     0
 10
-1.0
 20
0.1666666666666666
 30
0.0
 11
0.0
 21
0.0
 31
0.0
  0
LINE
  5
7A05
  8
0
  6
BYBLOCK
 62
     0
 10
0.0
 20
0.0
 30
0.0
 11
-1.0
 21
-0.1666666666666666
 31
0.0
  0
LINE
  5
7A06
  8
0
  6
BYBLOCK
 62
     0
 10
0.0
 20
0.0
 30
0.0
 11
-1.0
 21
0.0
 31
0.0
  0
ENDBLK
  5
7A08
  8
0
  0
BLOCK
  8
0
  2
*D2
 70
     1
 10
0.0
 20
0.0
 30
0.0
  3
*D2
  1

  0
LINE
  5
82C7
  8
3
 62
     0
 10
774.24264316971812
 20
2438.4728982226729
 30
0.0
 11
774.24264316971812
 21
2601.4084643570668
 31
0.0
  0
LINE
  5
82C8
  8
3
 62
     0
 10
1286.2426431697179
 20
2438.4728982226729
 30
0.0
 11
1286.2426431697179
 21
2601.4084643570668
 31
0.0
  0
LINE
  5
82C9
  8
3
 62
     0
 10
814.24264316971812
 20
2581.4084643570682
 30
0.0
 11
1246.2426431697179
 21
2581.4084643570682
 31
0.0
  0
INSERT
  5
82CA
  8
3
 62
     0
  2
_OPEN
 10
774.24264316971812
 20
2581.4084643570682
 30
0.0
 41
40.0
 42
40.0
 43
40.0
 50
180.0
  0
INSERT
  5
82CB
  8
3
 62
     0
  2
_OPEN
 10
1286.2426431697179
 20
2581.4084643570682
 30
0.0
 41
40.0
 42
40.0
 43
40.0
  0
TEXT
  8
3
  40
60
  5
836B
  62
0
  72
0
  71
0
 10
910.243
 20
2525.21
 30
0.000000
  1
512
  0
POINT
  5
82CD
  8
DEFPOINTS
 62
     0
 10
774.24264316971812
 20
2428.4728982226729
 30
0.0
  0
POINT
  5
82CE
  8
DEFPOINTS
 62
     0
 10
1286.2426431697179
 20
2428.4728982226729
 30
0.0
  0
POINT
  5
82CF
  8
DEFPOINTS
 62
     0
 10
1286.2426431697179
 20
2581.4084643570682
 30
0.0
  0
ENDBLK
  5
8034
  8
0
  0
BLOCK
  8
0
  2
*D3
 70
     1
 10
0.0
 20
0.0
 30
0.0
  3
*D3
  1

  0
LINE
  5
82D0
  8
3
 62
     0
 10
3772.9909332425032
 20
2406.7383472186202
 30
0.0
 11
3772.9909332425032
 21
2551.7109184689139
 31
0.0
  0
LINE
  5
82D1
  8
3
 62
     0
 10
3397.9909332425032
 20
2408.8859179347669
 30
0.0
 11
3397.9909332425032
 21
2551.7109184689139
 31
0.0
  0
LINE
  5
82D2
  8
3
 62
     0
 10
3732.9909332425032
 20
2531.7109184689139
 30
0.0
 11
3437.9909332425018
 21
2531.7109184689139
 31
0.0
  0
INSERT
  5
82D3
  8
3
 62
     0
  2
_OPEN
 10
3772.9909332425032
 20
2531.7109184689139
 30
0.0
 41
40.0
 42
40.0
 43
40.0
  0
INSERT
  5
82D4
  8
3
 62
     0
  2
_OPEN
 10
3397.9909332425032
 20
2531.7109184689139
 30
0.0
 41
40.0
 42
40.0
 43
40.0
 50
180.0
  0
TEXT
  8
3
  40
60
  5
836C
  62
0
  72
0
  71
0
 10
3465.49
 20
2475.51
 30
0.000000
  1
375
  0
POINT
  5
82D6
  8
DEFPOINTS
 62
     0
 10
3772.9909332425032
 20
2396.7383472186202
 30
0.0
  0
POINT
  5
82D7
  8
DEFPOINTS
 62
     0
 10
3397.9909332425032
 20
2398.8859179347669
 30
0.0
  0
POINT
  5
82D8
  8
DEFPOINTS
 62
     0
 10
3397.9909332425032
 20
2531.7109184689139
 30
0.0
  0
ENDBLK
  5
7FE7
  8
0
  0
BLOCK
  8
0
  2
*D4
 70
     1
 10
0.0
 20
0.0
 30
0.0
  3
*D4
  1

  0
LINE
  5
8043
  8
0
  6
BYBLOCK
 62
     0
 10
3777.2909332425029
 20
2353.4728982226729
 30
0.0
 11
3777.2909332425029
 21
2705.1583453940111
 31
0.0
  0
LINE
  5
8044
  8
0
  6
BYBLOCK
 62
     0
 10
3585.4909332425032
 20
2623.3862113922778
 30
0.0
 11
3585.4909332425032
 21
2705.1583453940111
 31
0.0
  0
LINE
  5
8045
  8
0
  6
BYBLOCK
 62
     0
 10
3737.2909332425029
 20
2685.1583453940111
 30
0.0
 11
3625.4909332425018
 21
2685.1583453940111
 31
0.0
  0
TEXT
  5
8046
  8
3
 62
     0
 10
3609.9623618139321
 20
2735.1583453940111
 30
0.0
 40
60.0
  1
192
  0
INSERT
  5
8047
  8
0
  6
BYBLOCK
 62
     0
  2
_OPEN
 10
3777.2909332425029
 20
2685.1583453940111
 30
0.0
 41
40.0
 42
40.0
 43
40.0
  0
INSERT
  5
8048
  8
0
  6
BYBLOCK
 62
     0
  2
_OPEN
 10
3585.4909332425032
 20
2685.1583453940111
 30
0.0
 41
40.0
 42
40.0
 43
40.0
 50
180.0
  0
POINT
  5
8049
  8
DEFPOINTS
  6
BYBLOCK
 62
     0
 10
3777.2909332425029
 20
2343.472898222672
 30
0.0
  0
POINT
  5
804A
  8
DEFPOINTS
  6
BYBLOCK
 62
     0
 10
3585.4909332425032
 20
2613.3862113922792
 30
0.0
  0
POINT
  5
804B
  8
DEFPOINTS
  6
BYBLOCK
 62
     0
 10
3585.4909332425032
 20
2685.1583453940111
 30
0.0
  0
ENDBLK
  5
804C
  8
0
  0
BLOCK
  8
0
  2
*D5
 70
     1
 10
0.0
 20
0.0
 30
0.0
  3
*D5
  1

  0
LINE
  5
82D9
  8
3
 62
     0
 10
3585.4909332425032
 20
2623.3862113922778
 30
0.0
 11
3585.4909332425032
 21
2705.1583453940111
 31
0.0
  0
LINE
  5
82DA
  8
3
 62
     0
 10
2713.5506948929919
 20
2268.1728982226718
 30
0.0
 11
2713.5506948929919
 21
2705.1583453940111
 31
0.0
  0
LINE
  5
82DB
  8
3
 62
     0
 10
3545.4909332425032
 20
2685.1583453940111
 30
0.0
 11
2753.5506948929919
 21
2685.1583453940111
 31
0.0
  0
INSERT
  5
82DC
  8
3
 62
     0
  2
_OPEN
 10
3585.4909332425032
 20
2685.1583453940111
 30
0.0
 41
40.0
 42
40.0
 43
40.0
  0
INSERT
  5
82DD
  8
3
 62
     0
  2
_OPEN
 10
2713.5506948929919
 20
2685.1583453940111
 30
0.0
 41
40.0
 42
40.0
 43
40.0
 50
180.0
  0
TEXT
  8
3
  40
60
  5
836D
  62
0
  72
0
  71
0
 10
3029.52
 20
2678.96
 30
0.000000
  1
MAX
  0
TEXT
  8
3
  40
60
  5
836E
  62
0
  72
0
  71
0
 10
3029.52
 20
2600.96
 30
0.000000
  1
930
  0
POINT
  5
82DF
  8
DEFPOINTS
 62
     0
 10
3585.4909332425032
 20
2613.3862113922792
 30
0.0
  0
POINT
  5
82E0
  8
DEFPOINTS
 62
     0
 10
2713.5506948929919
 20
2258.1728982226718
 30
0.0
  0
POINT
  5
82E1
  8
DEFPOINTS
 62
     0
 10
2713.5506948929919
 20
2685.1583453940111
 30
0.0
  0
ENDBLK
  5
81F6
  8
0
  0
BLOCK
  8
0
  2
*D6
 70
     1
 10
0.0
 20
0.0
 30
0.0
  3
*D6
  1

  0
LINE
  5
82E2
  8
3
 62
     0
 10
3812.2909332425029
 20
2318.472898222672
 30
0.0
 11
4012.364139714271
 21
2318.472898222672
 31
0.0
  0
LINE
  5
82E3
  8
3
 62
     0
 10
3812.2909332425029
 20
1818.472898222672
 30
0.0
 11
4012.364139714271
 21
1818.472898222672
 31
0.0
  0
LINE
  5
82E4
  8
3
 62
     0
 10
3992.3641397142701
 20
2278.4728982226729
 30
0.0
 11
3992.3641397142701
 21
1858.4728982226729
 31
0.0
  0
INSERT
  5
82E5
  8
3
 62
     0
  2
_OPEN
 10
3992.3641397142701
 20
2318.472898222672
 30
0.0
 41
40.0
 42
40.0
 43
40.0
 50
90.0
  0
INSERT
  5
82E6
  8
3
 62
     0
  2
_OPEN
 10
3992.3641397142701
 20
1818.472898222672
 30
0.0
 41
40.0
 42
40.0
 43
40.0
 50
270.0
  0
TEXT
  8
3
  40
60
  5
836F
  62
0
  72
0
  71
0
 10
3822.36
 20
1962.27
 30
0.000000
  1
φ500
  0
POINT
  5
82E8
  8
DEFPOINTS
 62
     0
 10
3802.2909332425029
 20
2318.472898222672
 30
0.0
  0
POINT
  5
82E9
  8
DEFPOINTS
 62
     0
 10
3802.2909332425029
 20
1818.472898222672
 30
0.0
  0
POINT
  5
82EA
  8
DEFPOINTS
 62
     0
 10
3992.3641397142701
 20
1818.472898222672
 30
0.0
  0
ENDBLK
  5
81E7
  8
0
  0
BLOCK
  8
0
  2
*D7
 70
     1
 10
0.0
 20
0.0
 30
0.0
  3
*D7
  1

  0
LINE
  5
82EB
  8
3
 62
     0
 10
1312.2426431697179
 20
2479.8254746896141
 30
0.0
 11
1312.2426431697179
 21
2724.8013004194781
 31
0.0
  0
LINE
  5
82EC
  8
3
 62
     0
 10
774.24264316971812
 20
2438.4728982226729
 30
0.0
 11
774.24264316971812
 21
2724.8013004194781
 31
0.0
  0
LINE
  5
82ED
  8
3
 62
     0
 10
1272.2426431697179
 20
2704.8013004194781
 30
0.0
 11
814.24264316971812
 21
2704.8013004194781
 31
0.0
  0
INSERT
  5
82EE
  8
3
 62
     0
  2
_OPEN
 10
1312.2426431697179
 20
2704.8013004194781
 30
0.0
 41
40.0
 42
40.0
 43
40.0
  0
INSERT
  5
82EF
  8
3
 62
     0
  2
_OPEN
 10
774.24264316971812
 20
2704.8013004194781
 30
0.0
 41
40.0
 42
40.0
 43
40.0
 50
180.0
  0
TEXT
  8
3
  40
60
  5
8370
  62
0
  72
0
  71
0
 10
923.243
 20
2648.60
 30
0.000000
  1
538
  0
POINT
  5
82F1
  8
DEFPOINTS
 62
     0
 10
1312.2426431697179
 20
2469.8254746896141
 30
0.0
  0
POINT
  5
82F2
  8
DEFPOINTS
 62
     0
 10
774.24264316971812
 20
2428.4728982226729
 30
0.0
  0
POINT
  5
82F3
  8
DEFPOINTS
 62
     0
 10
774.24264316971812
 20
2704.8013004194781
 30
0.0
  0
ENDBLK
  5
7FB9
  8
0
  0
BLOCK
  8
0
  2
*D8
 70
     1
 10
0.0
 20
0.0
 30
0.0
  3
*D8
  1

  0
LINE
  5
82F4
  8
3
 62
     0
 10
1327.8426431697169
 20
2428.4728982226729
 30
0.0
 11
1893.091799885716
 21
2428.4728982226729
 31
0.0
  0
LINE
  5
82F5
  8
3
 62
     0
 10
1723.5952196366591
 20
2068.472898222672
 30
0.0
 11
1893.091799885716
 21
2068.472898222672
 31
0.0
  0
LINE
  5
82F6
  8
3
 62
     0
 10
1873.091799885716
 20
2388.4728982226729
 30
0.0
 11
1873.091799885716
 21
2108.4728982226729
 31
0.0
  0
INSERT
  5
82F7
  8
3
 62
     0
  2
_OPEN
 10
1873.091799885716
 20
2428.4728982226729
 30
0.0
 41
40.0
 42
40.0
 43
40.0
 50
90.0
  0
INSERT
  5
82F8
  8
3
 62
     0
  2
_OPEN
 10
1873.091799885716
 20
2068.472898222672
 30
0.0
 41
40.0
 42
40.0
 43
40.0
 50
270.0
  0
TEXT
  8
3
  40
60
  5
8371
  62
0
  72
0
  71
0
 10
1703.09
 20
2142.27
 30
0.000000
  1
360
  0
POINT
  5
82FA
  8
DEFPOINTS
 62
     0
 10
1317.8426431697169
 20
2428.4728982226729
 30
0.0
  0
POINT
  5
82FB
  8
DEFPOINTS
 62
     0
 10
1713.5952196366591
 20
2068.472898222672
 30
0.0
  0
POINT
  5
82FC
  8
DEFPOINTS
 62
     0
 10
1873.091799885716
 20
2068.472898222672
 30
0.0
  0
ENDBLK
  5
7F98
  8
0
  0
BLOCK
  8
0
  2
*D9
 70
     1
 10
0.0
 20
0.0
 30
0.0
  3
*D9
  1

  0
LINE
  5
82FD
  8
3
 62
     0
 10
1723.5952196366591
 20
2068.472898222672
 30
0.0
 11
1893.091799885716
 21
2068.472898222672
 31
0.0
  0
LINE
  5
82FE
  8
3
 62
     0
 10
1572.2426431697179
 20
1558.4728982226729
 30
0.0
 11
1893.091799885716
 21
1558.4728982226729
 31
0.0
  0
LINE
  5
82FF
  8
3
 62
     0
 10
1873.091799885716
 20
2028.4728982226729
 30
0.0
 11
1873.091799885716
 21
1598.4728982226729
 31
0.0
  0
INSERT
  5
8300
  8
3
 62
     0
  2
_OPEN
 10
1873.091799885716
 20
2068.472898222672
 30
0.0
 41
40.0
 42
40.0
 43
40.0
 50
90.0
  0
INSERT
  5
8301
  8
3
 62
     0
  2
_OPEN
 10
1873.091799885716
 20
1558.4728982226729
 30
0.0
 41
40.0
 42
40.0
 43
40.0
 50
270.0
  0
TEXT
  8
3
  40
60
  5
8372
  62
0
  72
0
  71
0
 10
1703.09
 20
1707.27
 30
0.000000
  1
510
  0
POINT
  5
8303
  8
DEFPOINTS
 62
     0
 10
1713.5952196366591
 20
2068.472898222672
 30
0.0
  0
POINT
  5
8304
  8
DEFPOINTS
 62
     0
 10
1562.2426431697179
 20
1558.4728982226729
 30
0.0
  0
POINT
  5
8305
  8
DEFPOINTS
 62
     0
 10
1873.091799885716
 20
1558.4728982226729
 30
0.0
  0
ENDBLK
  5
7F8D
  8
0
  0
BLOCK
  8
0
  2
*D10
 70
     1
 10
0.0
 20
0.0
 30
0.0
  3
*D10
  1

  0
LINE
  5
8306
  8
3
 62
     0
 10
1312.2426431697179
 20
2479.8254746896141
 30
0.0
 11
1312.2426431697179
 21
2724.8013004194781
 31
0.0
  0
LINE
  5
8307
  8
3
 62
     0
 10
1673.346621027076
 20
2040.364237703151
 30
0.0
 11
1673.346621027076
 21
2724.8013004194781
 31
0.0
  0
LINE
  5
8308
  8
3
 62
     0
 10
1352.2426431697179
 20
2704.8013004194781
 30
0.0
 11
1633.346621027076
 21
2704.8013004194781
 31
0.0
  0
INSERT
  5
8309
  8
3
 62
     0
  2
_OPEN
 10
1312.2426431697179
 20
2704.8013004194781
 30
0.0
 41
40.0
 42
40.0
 43
40.0
 50
180.0
  0
INSERT
  5
830A
  8
3
 62
     0
  2
_OPEN
 10
1673.346621027076
 20
2704.8013004194781
 30
0.0
 41
40.0
 42
40.0
 43
40.0
  0
TEXT
  8
3
  40
60
  5
8373
  62
0
  72
0
  71
0
 10
1372.79
 20
2648.60
 30
0.000000
  1
361
  0
POINT
  5
830C
  8
DEFPOINTS
 62
     0
 10
1312.2426431697179
 20
2469.8254746896141
 30
0.0
  0
POINT
  5
830D
  8
DEFPOINTS
 62
     0
 10
1673.346621027076
 20
2030.364237703151
 30
0.0
  0
POINT
  5
830E
  8
DEFPOINTS
 62
     0
 10
1673.346621027076
 20
2704.8013004194781
 30
0.0
  0
ENDBLK
  5
7F68
  8
0
  0
BLOCK
  8
0
  2
_DOT
 70
     0
 10
0.0
 20
0.0
 30
0.0
  3
_DOT
  1

  0
LINE
  5
8070
  8
0
  6
BYBLOCK
 62
     0
 10
0.0
 20
0.0
 30
0.0
 11
-1.0
 21
-0.0000000000000284
 31
0.0
  0
POLYLINE
  5
8071
  8
0
  6
BYBLOCK
 62
     0
 66
     1
 10
0.0
 20
0.0
 30
0.0
 70
     1
 40
0.1666666666666666
 41
0.1666666666666666
  0
VERTEX
  5
830F
  8
0
  6
BYBLOCK
 62
     0
 10
-0.0833333333333286
 20
-0.0000000000000284
 30
0.0
 42
1.0
  0
VERTEX
  5
8310
  8
0
  6
BYBLOCK
 62
     0
 10
0.0833333333333286
 20
-0.0000000000000284
 30
0.0
 42
1.0
  0
SEQEND
  5
8311
  8
0
  6
BYBLOCK
 62
     0
  0
ENDBLK
  5
8055
  8
0
  0
BLOCK
  8
0
  2
*D12
 70
     1
 10
0.0
 20
0.0
 30
0.0
  3
*D12
  1

  0
LINE
  5
8312
  8
3
 62
     0
 10
1673.346621027076
 20
2040.364237703151
 30
0.0
 11
1673.346621027076
 21
2857.1065415554708
 31
0.0
  0
LINE
  5
8313
  8
3
 62
     0
 10
482.24264316971852
 20
1643.4728982226729
 30
0.0
 11
482.24264316971858
 21
2857.1065415554708
 31
0.0
  0
LINE
  5
8314
  8
3
 62
     0
 10
1633.346621027076
 20
2837.1065415554708
 30
0.0
 11
522.24264316971858
 21
2837.1065415554708
 31
0.0
  0
INSERT
  5
8315
  8
3
 62
     0
  2
_OPEN
 10
1673.346621027076
 20
2837.1065415554708
 30
0.0
 41
40.0
 42
40.0
 43
40.0
  0
INSERT
  5
8316
  8
3
 62
     0
  2
_OPEN
 10
482.24264316971858
 20
2837.1065415554708
 30
0.0
 41
40.0
 42
40.0
 43
40.0
 50
180.0
  0
TEXT
  8
3
  40
60
  5
8374
  62
0
  72
0
  71
0
 10
976.650
 20
2780.91
 30
0.000000
  1
1191
  0
POINT
  5
8318
  8
DEFPOINTS
 62
     0
 10
1673.346621027076
 20
2030.364237703151
 30
0.0
  0
POINT
  5
8319
  8
DEFPOINTS
 62
     0
 10
482.24264316971852
 20
1633.472898222672
 30
0.0
  0
POINT
  5
831A
  8
DEFPOINTS
 62
     0
 10
482.24264316971858
 20
2837.1065415554708
 30
0.0
  0
ENDBLK
  5
819D
  8
0
  0
BLOCK
  8
0
  2
*D13
 70
     1
 10
0.0
 20
0.0
 30
0.0
  3
*D13
  1

  0
LINE
  5
831B
  8
3
 62
     0
 10
1562.2426431697179
 20
4393.198782894784
 30
0.0
 11
1562.2426431697179
 21
4492.7139065020874
 31
0.0
  0
LINE
  5
831C
  8
3
 62
     0
 10
1062.2426431697179
 20
4393.1987828947831
 30
0.0
 11
1062.2426431697179
 21
4492.7139065020874
 31
0.0
  0
LINE
  5
831D
  8
3
 62
     0
 10
1522.2426431697179
 20
4472.7139065020874
 30
0.0
 11
1102.2426431697179
 21
4472.7139065020874
 31
0.0
  0
INSERT
  5
831E
  8
3
 62
     0
  2
_OPEN
 10
1562.2426431697179
 20
4472.7139065020874
 30
0.0
 41
40.0
 42
40.0
 43
40.0
  0
INSERT
  5
831F
  8
3
 62
     0
  2
_OPEN
 10
1062.2426431697179
 20
4472.7139065020874
 30
0.0
 41
40.0
 42
40.0
 43
40.0
 50
180.0
  0
TEXT
  8
3
  40
60
  5
8375
  62
0
  72
0
  71
0
 10
1203.43
 20
4416.51
 30
0.000000
  1
500
  0
POINT
  5
8321
  8
DEFPOINTS
 62
     0
 10
1562.2426431697179
 20
4383.1987828947831
 30
0.0
  0
POINT
  5
8322
  8
DEFPOINTS
 62
     0
 10
1062.2426431697179
 20
4383.1987828947822
 30
0.0
  0
POINT
  5
8323
  8
DEFPOINTS
 62
     0
 10
1062.2426431697179
 20
4472.7139065020874
 30
0.0
  0
ENDBLK
  5
81B5
  8
0
  0
BLOCK
  8
0
  2
*D14
 70
     1
 10
0.0
 20
0.0
 30
0.0
  3
*D14
  1

  0
LINE
  5
8324
  8
3
 62
     0
 10
482.24264316971852
 20
3953.198782894784
 30
0.0
 11
482.24264316971858
 21
4492.7139065020874
 31
0.0
  0
LINE
  5
8325
  8
3
 62
     0
 10
1022.242643169718
 20
4472.7139065020874
 30
0.0
 11
522.24264316971858
 21
4472.7139065020874
 31
0.0
  0
INSERT
  5
8326
  8
3
 62
     0
  2
_OPEN
 10
1062.2426431697179
 20
4472.7139065020874
 30
0.0
 41
40.0
 42
40.0
 43
40.0
  0
INSERT
  5
8327
  8
3
 62
     0
  2
_OPEN
 10
482.24264316971858
 20
4472.7139065020874
 30
0.0
 41
40.0
 42
40.0
 43
40.0
 50
180.0
  0
TEXT
  8
3
  40
60
  5
8376
  62
0
  72
0
  71
0
 10
652.243
 20
4416.51
 30
0.000000
  1
580
  0
POINT
  5
8329
  8
DEFPOINTS
 62
     0
 10
1062.2426431697179
 20
4383.1987828947822
 30
0.0
  0
POINT
  5
832A
  8
DEFPOINTS
 62
     0
 10
482.24264316971852
 20
3943.198782894784
 30
0.0
  0
POINT
  5
832B
  8
DEFPOINTS
 62
     0
 10
482.24264316971858
 20
4472.7139065020874
 30
0.0
  0
ENDBLK
  5
81C1
  8
0
  0
BLOCK
  8
0
  2
*D15
 70
     1
 10
0.0
 20
0.0
 30
0.0
  3
*D15
  1

  0
LINE
  5
832C
  8
3
 62
     0
 10
472.24264316971858
 20
3943.198782894784
 30
0.0
 11
331.36025632450099
 21
3943.198782894784
 31
0.0
  0
LINE
  5
832D
  8
3
 62
     0
 10
472.24264316971852
 20
3383.1987828947831
 30
0.0
 11
331.36025632450082
 21
3383.1987828947831
 31
0.0
  0
LINE
  5
832E
  8
3
 62
     0
 10
351.36025632450088
 20
3903.198782894784
 30
0.0
 11
351.36025632450082
 21
3423.198782894784
 31
0.0
  0
INSERT
  5
832F
  8
3
 62
     0
  2
_OPEN
 10
351.36025632450088
 20
3943.198782894784
 30
0.0
 41
40.0
 42
40.0
 43
40.0
 50
90.0
  0
INSERT
  5
8330
  8
3
 62
     0
  2
_OPEN
 10
351.36025632450082
 20
3383.1987828947831
 30
0.0
 41
40.0
 42
40.0
 43
40.0
 50
270.0
  0
TEXT
  8
3
  40
60
  5
8377
  62
0
  72
0
  71
0
 10
181.360
 20
3590.80
 30
0.000000
  1
560
  0
POINT
  5
8332
  8
DEFPOINTS
 62
     0
 10
482.24264316971852
 20
3943.198782894784
 30
0.0
  0
POINT
  5
8333
  8
DEFPOINTS
 62
     0
 10
482.24264316971852
 20
3383.1987828947831
 30
0.0
  0
POINT
  5
8334
  8
DEFPOINTS
 62
     0
 10
351.36025632450082
 20
3383.1987828947831
 30
0.0
  0
ENDBLK
  5
81CE
  8
0
  0
BLOCK
  8
0
  2
*D16
 70
     1
 10
0.0
 20
0.0
 30
0.0
  3
*D16
  1

  0
LINE
  5
8335
  8
3
 62
     0
 10
1572.2426431697179
 20
4383.1987828947831
 30
0.0
 11
1839.2569520108921
 21
4383.1987828947831
 31
0.0
  0
LINE
  5
8336
  8
3
 62
     0
 10
1572.2426431697179
 20
3383.1987828947831
 30
0.0
 11
1839.2569520108921
 21
3383.1987828947831
 31
0.0
  0
LINE
  5
8337
  8
3
 62
     0
 10
1819.2569520108921
 20
4343.1987828947831
 30
0.0
 11
1819.2569520108921
 21
3423.198782894784
 31
0.0
  0
INSERT
  5
8338
  8
3
 62
     0
  2
_OPEN
 10
1819.2569520108921
 20
4383.1987828947831
 30
0.0
 41
40.0
 42
40.0
 43
40.0
 50
90.0
  0
INSERT
  5
8339
  8
3
 62
     0
  2
_OPEN
 10
1819.2569520108921
 20
3383.1987828947831
 30
0.0
 41
40.0
 42
40.0
 43
40.0
 50
270.0
  0
TEXT
  8
3
  40
60
  5
8378
  62
0
  72
0
  71
0
 10
1649.26
 20
3770.06
 30
0.000000
  1
1000
  0
POINT
  5
833B
  8
DEFPOINTS
 62
     0
 10
1562.2426431697179
 20
4383.1987828947831
 30
0.0
  0
POINT
  5
833C
  8
DEFPOINTS
 62
     0
 10
1562.2426431697179
 20
3383.1987828947831
 30
0.0
  0
POINT
  5
833D
  8
DEFPOINTS
 62
     0
 10
1819.2569520108921
 20
3383.1987828947831
 30
0.0
  0
ENDBLK
  5
81DB
  8
0
  0
BLOCK
  8
0
  2
*D17
 70
     1
 10
0.0
 20
0.0
 30
0.0
  3
*D17
  1

  0
LINE
  5
833E
  8
3
 62
     0
 10
482.24264316971852
 20
1548.472898222672
 30
0.0
 11
482.24264316971852
 21
1382.053682484707
 31
0.0
  0
LINE
  5
833F
  8
3
 62
     0
 10
1312.2426431697179
 20
1548.4728982226729
 30
0.0
 11
1312.2426431697179
 21
1382.053682484707
 31
0.0
  0
LINE
  5
8340
  8
3
 62
     0
 10
522.24264316971858
 20
1402.053682484707
 30
0.0
 11
1272.2426431697179
 21
1402.053682484707
 31
0.0
  0
INSERT
  5
8341
  8
3
 62
     0
  2
_OPEN
 10
482.24264316971852
 20
1402.053682484707
 30
0.0
 41
40.0
 42
40.0
 43
40.0
 50
180.0
  0
INSERT
  5
8342
  8
3
 62
     0
  2
_OPEN
 10
1312.2426431697179
 20
1402.053682484707
 30
0.0
 41
40.0
 42
40.0
 43
40.0
  0
TEXT
  8
3
  40
60
  5
8379
  62
0
  72
0
  71
0
 10
777.243
 20
1345.85
 30
0.000000
  1
830
  0
POINT
  5
8344
  8
DEFPOINTS
 62
     0
 10
482.24264316971852
 20
1558.4728982226729
 30
0.0
  0
POINT
  5
8345
  8
DEFPOINTS
 62
     0
 10
1312.2426431697179
 20
1558.4728982226729
 30
0.0
  0
POINT
  5
8346
  8
DEFPOINTS
 62
     0
 10
1312.2426431697179
 20
1402.053682484707
 30
0.0
  0
ENDBLK
  5
8261
  8
0
  0
BLOCK
  8
0
  2
*D18
 70
     1
 10
0.0
 20
0.0
 30
0.0
  3
*D18
  1

  0
LINE
  5
8347
  8
3
 62
     0
 10
1312.2426431697179
 20
1548.4728982226729
 30
0.0
 11
1312.2426431697179
 21
1382.053682484707
 31
0.0
  0
LINE
  5
8348
  8
3
 62
     0
 10
1562.2426431697179
 20
1548.472898222672
 30
0.0
 11
1562.2426431697179
 21
1382.053682484707
 31
0.0
  0
LINE
  5
8349
  8
3
 62
     0
 10
1352.2426431697179
 20
1402.053682484707
 30
0.0
 11
1522.2426431697179
 21
1402.053682484707
 31
0.0
  0
INSERT
  5
834A
  8
3
 62
     0
  2
_OPEN
 10
1312.2426431697179
 20
1402.053682484707
 30
0.0
 41
40.0
 42
40.0
 43
40.0
 50
180.0
  0
INSERT
  5
834B
  8
3
 62
     0
  2
_OPEN
 10
1562.2426431697179
 20
1402.053682484707
 30
0.0
 41
40.0
 42
40.0
 43
40.0
  0
TEXT
  8
3
  40
60
  5
837A
  62
0
  72
0
  71
0
 10
1317.24
 20
1345.85
 30
0.000000
  1
250
  0
POINT
  5
834D
  8
DEFPOINTS
 62
     0
 10
1312.2426431697179
 20
1558.4728982226729
 30
0.0
  0
POINT
  5
834E
  8
DEFPOINTS
 62
     0
 10
1562.2426431697179
 20
1558.4728982226729
 30
0.0
  0
POINT
  5
834F
  8
DEFPOINTS
 62
     0
 10
1562.2426431697179
 20
1402.053682484707
 30
0.0
  0
ENDBLK
  5
8270
  8
0
  0
BLOCK
  8
0
  2
*D19
 70
     1
 10
0.0
 20
0.0
 30
0.0
  3
*D19
  1

  0
LINE
  5
8350
  8
3
 62
     0
 10
2815.4909332425032
 20
1548.472898222672
 30
0.0
 11
2815.4909332425032
 21
1382.053682484707
 31
0.0
  0
LINE
  5
8351
  8
3
 62
     0
 10
3585.4909332425032
 20
1548.4728982226729
 30
0.0
 11
3585.4909332425032
 21
1382.053682484707
 31
0.0
  0
LINE
  5
8352
  8
3
 62
     0
 10
2855.4909332425032
 20
1402.053682484707
 30
0.0
 11
3545.4909332425032
 21
1402.053682484707
 31
0.0
  0
INSERT
  5
8353
  8
3
 62
     0
  2
_OPEN
 10
2815.4909332425032
 20
1402.053682484707
 30
0.0
 41
40.0
 42
40.0
 43
40.0
 50
180.0
  0
INSERT
  5
8354
  8
3
 62
     0
  2
_OPEN
 10
3585.4909332425032
 20
1402.053682484707
 30
0.0
 41
40.0
 42
40.0
 43
40.0
  0
TEXT
  8
3
  40
60
  5
837B
  62
0
  72
0
  71
0
 10
3080.49
 20
1345.85
 30
0.000000
  1
770
  0
POINT
  5
8356
  8
DEFPOINTS
 62
     0
 10
2815.4909332425032
 20
1558.4728982226729
 30
0.0
  0
POINT
  5
8357
  8
DEFPOINTS
 62
     0
 10
3585.4909332425032
 20
1558.4728982226729
 30
0.0
  0
POINT
  5
8358
  8
DEFPOINTS
 62
     0
 10
3585.4909332425032
 20
1402.053682484707
 30
0.0
  0
ENDBLK
  5
827D
  8
0
  0
BLOCK
  8
0
  2
*D20
 70
     1
 10
0.0
 20
0.0
 30
0.0
  3
*D20
  1

  0
LINE
  5
8359
  8
3
 62
     0
 10
3585.4909332425032
 20
1548.4728982226729
 30
0.0
 11
3585.4909332425032
 21
1382.053682484707
 31
0.0
  0
LINE
  5
835A
  8
3
 62
     0
 10
3815.4909332425018
 20
1548.472898222672
 30
0.0
 11
3815.4909332425018
 21
1382.053682484707
 31
0.0
  0
LINE
  5
835B
  8
3
 62
     0
 10
3625.4909332425018
 20
1402.053682484707
 30
0.0
 11
3775.4909332425032
 21
1402.053682484707
 31
0.0
  0
INSERT
  5
835C
  8
3
 62
     0
  2
_OPEN
 10
3585.4909332425032
 20
1402.053682484707
 30
0.0
 41
40.0
 42
40.0
 43
40.0
 50
180.0
  0
INSERT
  5
835D
  8
3
 62
     0
  2
_OPEN
 10
3815.4909332425018
 20
1402.053682484707
 30
0.0
 41
40.0
 42
40.0
 43
40.0
  0
TEXT
  8
3
  40
60
  5
837C
  62
0
  72
0
  71
0
 10
3580.49
 20
1345.85
 30
0.000000
  1
230
  0
POINT
  5
835F
  8
DEFPOINTS
 62
     0
 10
3585.4909332425032
 20
1558.4728982226729
 30
0.0
  0
POINT
  5
8360
  8
DEFPOINTS
 62
     0
 10
3815.4909332425018
 20
1558.4728982226729
 30
0.0
  0
POINT
  5
8361
  8
DEFPOINTS
 62
     0
 10
3815.4909332425018
 20
1402.053682484707
 30
0.0
  0
ENDBLK
  5
828C
  8
0
  0
BLOCK
  8
0
  2
*D21
 70
     1
 10
0.0
 20
0.0
 30
0.0
  3
*D21
  1

  0
LINE
  5
8362
  8
3
 62
     0
 10
1337.8426431697169
 20
2428.4728982226729
 30
0.0
 11
2050.751538031127
 21
2428.4728982226729
 31
0.0
  0
LINE
  5
8363
  8
3
 62
     0
 10
1572.2426431697179
 20
1558.4728982226729
 30
0.0
 11
2050.751538031127
 21
1558.4728982226729
 31
0.0
  0
LINE
  5
8364
  8
3
 62
     0
 10
2030.751538031127
 20
2388.4728982226729
 30
0.0
 11
2030.751538031127
 21
1598.4728982226729
 31
0.0
  0
INSERT
  5
8365
  8
3
 62
     0
  2
_OPEN
 10
2030.751538031127
 20
2428.4728982226729
 30
0.0
 41
40.0
 42
40.0
 43
40.0
 50
90.0
  0
INSERT
  5
8366
  8
3
 62
     0
  2
_OPEN
 10
2030.751538031127
 20
1558.4728982226729
 30
0.0
 41
40.0
 42
40.0
 43
40.0
 50
270.0
  0
TEXT
  8
3
  40
60
  5
837D
  62
0
  72
0
  71
0
 10
1860.75
 20
1887.27
 30
0.000000
  1
870
  0
POINT
  5
8368
  8
DEFPOINTS
 62
     0
 10
1327.8426431697169
 20
2428.4728982226729
 30
0.0
  0
POINT
  5
8369
  8
DEFPOINTS
 62
     0
 10
1562.2426431697179
 20
1558.4728982226729
 30
0.0
  0
POINT
  5
836A
  8
DEFPOINTS
 62
     0
 10
2030.751538031127
 20
1558.4728982226729
 30
0.0
  0
ENDBLK
  5
8299
  8
0
  0
ENDSEC
  0
SECTION
  2
ENTITIES
  0
INSERT
  5
7C3D
  8
0
  2
YA_N
 10
6.0
 20
5.0
 30
0.0
  0
INSERT
  5
7C3E
  8
0
  2
YA_N
 10
6.0
 20
5.0
 30
0.0
  0
INSERT
  5
7C3F
  8
0
  2
YA_N
 10
6.0
 20
5.0
 30
0.0
  0
INSERT
  5
7C40
  8
0
  2
YA_N
 10
6.0
 20
5.0
 30
0.0
  0
INSERT
  5
7C41
  8
0
  2
YA_N
 10
6.0
 20
5.0
 30
0.0
  0
LINE
  5
7C42
  8
1
 10
2845.4909332425032
 20
2008.472898222672
 30
0.0
 11
3330.4909332425041
 21
2008.472898222672
 31
0.0
  0
LINE
  5
7C43
  8
1
 10
2852.2909332425029
 20
2005.2728982226729
 30
0.0
 11
2852.2909332425052
 21
1735.92969357681
 31
0.0
  0
LINE
  5
7C49
  8
1
 10
1090.2426431697379
 20
1633.472898222672
 30
0.0
 11
1090.2426431697179
 21
2005.272898222672
 31
0.0
  0
LINE
  5
7C4A
  8
1
 10
1534.2426431697179
 20
1633.472898222672
 30
0.0
 11
1534.2426431697179
 21
2005.2728982226729
 31
0.0
  0
LINE
  5
7C4B
  8
1
 10
1080.2426431697179
 20
2008.472898222672
 30
0.0
 11
1544.2426431697179
 21
2008.472898222672
 31
0.0
  0
LINE
  5
7C4C
  8
1
 10
1562.2426431697179
 20
1558.4728982226729
 30
0.0
 11
482.24264316971852
 21
1558.4728982226729
 31
0.0
  0
INSERT
  5
7C4D
  8
0
  2
YA_N
 10
6285.3947994874952
 20
6170.1179297020417
 30
0.0
  0
INSERT
  5
7C4E
  8
0
  2
YA_N
 10
9310.6143563453425
 20
8479.3824956818644
 30
0.0
  0
INSERT
  5
7C4F
  8
0
  2
YA_N
 10
6566.5323200881021
 20
7938.1589708423153
 30
0.0
  0
INSERT
  5
7C50
  8
0
  2
YA_N
 10
9396.3261307456396
 20
6429.6268749438577
 30
0.0
  0
POLYLINE
  5
7C51
  8
1
 66
     1
 10
0.0
 20
0.0
 30
0.0
 70
     1
  0
VERTEX
  5
82BD
  8
1
 10
3777.2909332425029
 20
2318.472898222672
 30
0.0
  0
VERTEX
  5
82BE
  8
1
 10
3802.2909332425029
 20
2318.472898222672
 30
0.0
  0
VERTEX
  5
82BF
  8
1
 10
3802.2909332425029
 20
2319.4728982226729
 30
0.0
 42
0.4142135623730951
  0
VERTEX
  5
82C0
  8
1
 10
3800.2909332425029
 20
2321.4728982226729
 30
0.0
  0
VERTEX
  5
82C1
  8
1
 10
3784.2909332425038
 20
2321.4728982226729
 30
0.0
 42
-0.4142135623730951
  0
VERTEX
  5
82C2
  8
1
 10
3780.2909332425029
 20
2325.4728982226729
 30
0.0
  0
VERTEX
  5
82C3
  8
1
 10
3780.2909332425029
 20
2341.4728982226729
 30
0.0
 42
0.4142135623730951
  0
VERTEX
  5
82C4
  8
1
 10
3778.2909332425029
 20
2343.472898222672
 30
0.0
  0
VERTEX
  5
82C5
  8
1
 10
3777.2909332425029
 20
2343.472898222672
 30
0.0
  0
SEQEND
  5
82C6
  8
1
  0
INSERT
  5
7C5C
  8
0
  2
YA_N
 10
120.0
 20
100.0
 30
0.0
 41
20.0
 42
20.0
 43
20.0
  0
LINE
  5
7C5F
  8
1
 10
3777.2909332425029
 20
1818.472898222672
 30
0.0
 11
3802.2909332425029
 21
1818.472898222672
 31
0.0
  0
LINE
  5
7C60
  8
1
 10
3802.2909332425029
 20
1818.472898222672
 30
0.0
 11
3802.2909332425029
 21
1817.472898222672
 31
0.0
  0
ARC
  5
7C61
  8
1
 10
3800.2909332425029
 20
1817.472898222672
 30
0.0
 40
2.0
 50
270.0
 51
0.0
  0
LINE
  5
7C62
  8
1
 10
3800.2909332425029
 20
1815.472898222672
 30
0.0
 11
3784.2909332425038
 21
1815.472898222672
 31
0.0
  0
ARC
  5
7C63
  8
1
 10
3784.2909332425038
 20
1811.4728982226729
 30
0.0
 40
4.0
 50
90.0
 51
180.0
  0
LINE
  5
7C64
  8
1
 10
3780.2909332425029
 20
1811.4728982226729
 30
0.0
 11
3780.2909332425029
 21
1795.4728982226729
 31
0.0
  0
ARC
  5
7C65
  8
1
 10
3778.2909332425029
 20
1795.4728982226729
 30
0.0
 40
2.0
 50
270.0
 51
0.0
  0
LINE
  5
7C66
  8
1
 10
3778.2909332425029
 20
1793.4728982226729
 30
0.0
 11
3777.2909332425029
 21
1793.4728982226729
 31
0.0
  0
LINE
  5
7C67
  8
1
 10
3777.2909332425029
 20
1793.4728982226729
 30
0.0
 11
3777.2909332425029
 21
1818.472898222672
 31
0.0
  0
LINE
  5
7C68
  8
1
 10
3780.2909332425029
 20
2325.472859192811
 30
0.0
 11
3780.2909332425029
 21
2062.872898222673
 31
0.0
  0
INSERT
  5
7C69
  8
0
  2
YA_N
 10
120.0
 20
100.0
 30
0.0
 41
20.0
 42
20.0
 43
20.0
  0
INSERT
  5
7C6C
  8
0
  2
YA_N
 10
120.0
 20
100.0
 30
0.0
 41
20.0
 42
20.0
 43
20.0
  0
INSERT
  5
7C6D
  8
0
  2
YA_N
 10
120.0
 20
100.0
 30
0.0
 41
20.0
 42
20.0
 43
20.0
  0
INSERT
  5
7C6E
  8
0
  2
YA_N
 10
120.0
 20
100.0
 30
0.0
 41
20.0
 42
20.0
 43
20.0
  0
LINE
  5
7C71
  8
1
 10
1080.2426431697179
 20
2005.272898222672
 30
0.0
 11
1080.2426431697179
 21
2008.472898222672
 31
0.0
  0
LINE
  5
7C72
  8
1
 10
1544.2426431697179
 20
2005.2728982226729
 30
0.0
 11
1544.2426431697179
 21
2008.472898222672
 31
0.0
  0
LINE
  5
7C73
  8
1
 10
2845.4909332425032
 20
2005.2728982226729
 30
0.0
 11
3330.4909332425041
 21
2005.2728982226729
 31
0.0
  0
LINE
  5
7C74
  8
1
 10
3330.4909332425041
 20
2008.4728982226729
 30
0.0
 11
3330.4909332425041
 21
2005.2728982226729
 31
0.0
  0
LINE
  5
7C75
  8
1
 10
2845.4909332425032
 20
2008.472898222672
 30
0.0
 11
2845.4909332425032
 21
2005.2728982226729
 31
0.0
  0
LINE
  5
7C76
  8
1
 10
3320.4909332425032
 20
2005.2728982226729
 30
0.0
 11
3320.4909332425032
 21
1965.2728982226729
 31
0.0
  0
LINE
  5
7C77
  8
2
 10
1312.2426431697179
 20
1558.4728982226729
 30
0.0
 11
1312.2426431697179
 21
2480.9411500749811
 31
0.0
  0
LINE
  5
7C78
  8
1
 10
3397.9909332425032
 20
2068.472898222672
 30
0.0
 11
3397.9909332425032
 21
1633.472898222672
 31
0.0
  0
LINE
  5
7C79
  8
1
 10
3772.9909332425032
 20
2068.472898222672
 30
0.0
 11
3772.9909332425032
 21
1633.472898222672
 31
0.0
  0
LINE
  5
7C7A
  8
1
 10
3397.9909332425018
 20
2398.4728982226729
 30
0.0
 11
3397.9909332425032
 21
2068.472898222672
 31
0.0
  0
LINE
  5
7C7B
  8
1
 10
3772.9909332425018
 20
2398.4728982226729
 30
0.0
 11
3772.9909332425032
 21
2068.472898222672
 31
0.0
  0
LINE
  5
7C7C
  8
1
 10
742.63746020641565
 20
2425.4728982226729
 30
0.0
 11
1317.8426431697169
 21
2425.4728982226729
 31
0.0
  0
LINE
  5
7C7D
  8
1
 10
774.24264316971812
 20
2428.4728982226729
 30
0.0
 11
1286.242643169717
 21
2428.4728982226729
 31
0.0
  0
LINE
  5
7C7E
  8
1
 10
1286.2426431697179
 20
2362.5525766157821
 30
0.0
 11
1286.2426431697179
 21
2428.4728982226729
 31
0.0
  0
LINE
  5
7C7F
  8
1
 10
1296.2426431697179
 20
2428.4728982226729
 30
0.0
 11
764.21024964907281
 21
2428.4728982226729
 31
0.0
  0
LINE
  5
7C80
  8
1
 10
3777.2909332425029
 20
1818.472898222672
 30
0.0
 11
3777.2909332425029
 21
2062.4728982226729
 31
0.0
  0
LINE
  5
7C81
  8
1
 10
3780.2909332425029
 20
2062.4728982226729
 30
0.0
 11
3780.2909332425029
 21
1811.4728982226729
 31
0.0
  0
LINE
  5
7C82
  8
1
 10
3777.2909332425029
 20
2062.4728982226729
 30
0.0
 11
3777.2909332425029
 21
2062.872898222673
 31
0.0
  0
LINE
  5
7C83
  8
1
 10
774.24264316971812
 20
2428.4728982226729
 30
0.0
 11
803.24264316971824
 21
2068.4728982226729
 31
0.0
  0
ARC
  5
7C84
  8
1
 10
1275.2426431697179
 20
2105.4728982226729
 30
0.0
 40
473.44799080786078
 50
184.48224037042479
 51
270.0
  0
ARC
  5
7C85
  8
1
 10
1275.0072211705219
 20
2030.364237703151
 30
0.0
 40
398.33939985655428
 50
270.03386229870438
 51
5.2166298389518211
  0
ARC
  5
7C86
  8
1
 10
1343.0522460030461
 20
2038.843784199335
 30
0.0
 40
329.81296712472692
 50
4.82442144322376
 51
89.966923815086446
  0
ARC
  5
7C87
  8
1
 10
1343.2426431697161
 20
2099.472898222672
 30
0.0
 40
269.18379814435679
 50
89.999999999999687
 51
122.98669047482041
  0
LINE
  5
7C88
  8
2
 10
3585.4909332425032
 20
2535.5985052600658
 30
0.0
 11
3585.4909332425032
 21
1558.4728982226729
 31
0.0
  0
LINE
  5
7C89
  8
2
 10
2690.598031422624
 20
2068.472898222672
 30
0.0
 11
3829.3671930826181
 21
2068.4728982226729
 31
0.0
1001
ACAD
1000
ASC_BOUNDS
1002
{
1070
    19
1002
}
  0
LINE
  5
7C8A
  8
1
 10
742.63746020641474
 20
2398.4728982226729
 30
0.0
 11
1317.8426431697169
 21
2398.4728982226729
 31
0.0
  0
LINE
  5
7C8B
  8
1
 10
1317.8426431697169
 20
2398.4728982226729
 30
0.0
 11
1317.8426431697169
 21
2428.4728982226729
 31
0.0
  0
LINE
  5
7C8C
  8
1
 10
1317.8426431697169
 20
2428.4728982226729
 30
0.0
 11
742.63746020641474
 21
2428.4728982226729
 31
0.0
  0
LINE
  5
7C8D
  8
1
 10
742.63746020641474
 20
2428.4728982226729
 30
0.0
 11
742.63746020641474
 21
2398.4728982226729
 31
0.0
  0
ARC
  5
7C8E
  8
1
 10
1164.2426431697179
 20
2361.4728982226729
 30
0.0
 40
49.0
 50
159.2350507232635
 51
314.31750806242439
  0
LINE
  5
7C8F
  8
1
 10
1137.2426431697179
 20
2428.4728982226729
 30
0.0
 11
1118.4255489915679
 21
2378.8451140016282
 31
0.0
  0
LINE
  5
7C90
  8
1
 10
1562.2426431697179
 20
1558.4728982226729
 30
0.0
 11
482.24264316971852
 21
1558.4728982226729
 31
0.0
  0
LINE
  5
7C91
  8
1
 10
2815.4909332425032
 20
1558.4728982226729
 30
0.0
 11
3815.4909332425032
 21
1558.4728982226729
 31
0.0
  0
LINE
  5
7C92
  8
1
 10
3777.2909332425029
 20
2343.472898222672
 30
0.0
 11
3772.9909332425018
 21
2343.472898222672
 31
0.0
  0
LINE
  5
7C93
  8
1
 10
3777.2909332425029
 20
1793.4728982226729
 30
0.0
 11
3772.9909332425032
 21
1793.4728982226729
 31
0.0
  0
LINE
  5
7C94
  8
1
 10
1544.2426431697179
 20
2005.272898222672
 30
0.0
 11
1080.2426431697179
 21
2005.272898222672
 31
0.0
  0
POINT
  5
7C95
  8
1
 10
772.63746020641474
 20
2428.4728982226729
 30
0.0
  0
POINT
  5
7C96
  8
1
 10
774.24264316971812
 20
2428.4728982226729
 30
0.0
  0
POINT
  5
7C97
  8
1
 10
2815.4909332425032
 20
1633.472898222672
 30
0.0
  0
POINT
  5
7C98
  8
1
 10
3777.2909332425029
 20
2343.472898222672
 30
0.0
  0
LINE
  5
7C99
  8
1
 10
3320.4909332425032
 20
2005.2728982226729
 30
0.0
 11
3320.4909332425041
 21
1633.4728982226729
 31
0.0
  0
LINE
  5
7C9A
  8
1
 10
3802.2909332425029
 20
1818.472898222672
 30
0.0
 11
3802.2909332425029
 21
1817.472898222672
 31
0.0
  0
INSERT
  5
7C9B
  8
0
  2
YA_N
 10
578.29819496493474
 20
667.15974685678236
 30
0.0
  0
INSERT
  5
7C9C
  8
0
  2
YA_N
 10
578.29819496493474
 20
667.15974685678236
 30
0.0
  0
INSERT
  5
7C9D
  8
0
  2
YA_N
 10
578.29819496493474
 20
667.15974685678236
 30
0.0
  0
INSERT
  5
7C9E
  8
0
  2
YA_N
 10
578.29819496493474
 20
667.15974685678236
 30
0.0
  0
INSERT
  5
7C9F
  8
0
  2
YA_N
 10
2798.551811518767
 20
1662.02584223804
 30
0.0
  0
INSERT
  5
7CA1
  8
0
  2
YA_N
 10
3145.897131625954
 20
1825.850693409124
 30
0.0
 41
3.191404879447199
 42
3.191404879447199
 43
3.191404879447199
  0
LINE
  5
7CA2
  8
1
 10
3802.2909332425029
 20
1818.472898222672
 30
0.0
 11
3802.2909332425029
 21
2318.472898222672
 31
0.0
  0
INSERT
  5
7CA3
  8
0
  2
YA_N
 10
18.0
 20
4050.5577889263582
 30
0.0
  0
INSERT
  5
7CA4
  8
0
  2
YA_N
 10
18.0
 20
4050.5577889263582
 30
0.0
  0
INSERT
  5
7CA5
  8
0
  2
YA_N
 10
18.0
 20
4050.5577889263582
 30
0.0
  0
INSERT
  5
7CA6
  8
0
  2
YA_N
 10
10018.0
 20
14050.55778892635
 30
0.0
  0
INSERT
  5
7CA7
  8
0
  2
YA_N
 10
10018.0
 20
14050.55778892635
 30
0.0
  0
INSERT
  5
7CA8
  8
0
  2
YA_N
 10
10018.0
 20
14050.55778892635
 30
0.0
  0
INSERT
  5
7CA9
  8
0
  2
YA_N
 10
10018.0
 20
14050.55778892635
 30
0.0
  0
INSERT
  5
7CAA
  8
0
  6
BYBLOCK
 62
     2
  2
YA_N
 10
3183.088503818366
 20
1711.274344822353
 30
0.0
 41
24.0
 42
24.0
 43
24.0
 50
270.0
  0
INSERT
  5
7CAB
  8
0
  6
BYBLOCK
 62
     2
  2
YA_N
 10
3290.1059722385171
 20
1726.595643880431
 30
0.0
 41
24.0
 42
24.0
 43
24.0
 50
270.0
  0
LINE
  5
7CAC
  8
1
 10
2760.4909332425018
 20
2208.1728982226732
 30
0.0
 11
2760.490933242505
 21
1928.772898222672
 31
0.0
  0
LINE
  5
7CAD
  8
1
 10
2800.4909332425032
 20
2087.4728982226729
 30
0.0
 11
2830.4909332425032
 21
2087.472898222672
 31
0.0
1001
ACAD
1000
ASC_BOUNDS
1002
{
1070
    19
1002
}
  0
LINE
  5
7CAE
  8
1
 10
2800.4909332425032
 20
2049.472898222672
 30
0.0
 11
2830.4909332425032
 21
2049.472898222672
 31
0.0
1001
ACAD
1000
ASC_BOUNDS
1002
{
1070
    19
1002
}
  0
LINE
  5
7CAF
  8
1
 10
2830.4909332425032
 20
2090.9728982226729
 30
0.0
 11
2830.4909332425032
 21
2045.9728982226729
 31
0.0
  0
LINE
  5
7CB0
  8
1
 10
2830.4909332425032
 20
2090.9728982226729
 30
0.0
 11
3397.9909332425032
 21
2090.9728982226729
 31
0.0
1001
ACAD
1000
ASC_BOUNDS
1002
{
1070
    19
1002
}
  0
LINE
  5
7CB1
  8
1
 10
2830.4909332425032
 20
2045.9728982226729
 30
0.0
 11
3397.9909332425032
 21
2045.9728982226729
 31
0.0
1001
ACAD
1000
ASC_BOUNDS
1002
{
1070
    19
1002
}
  0
LINE
  5
7CB2
  8
1
 10
2800.4909332425018
 20
2208.1728982226732
 30
0.0
 11
2800.4909332425032
 21
1928.772898222672
 31
0.0
  0
LINE
  5
7CB3
  8
1
 10
2760.4909332425009
 20
2208.1728982226732
 30
0.0
 11
2800.4909332425018
 21
2208.1728982226732
 31
0.0
1001
ACAD
1000
ASC_BOUNDS
1002
{
1070
    19
1002
}
  0
LINE
  5
7CB4
  8
1
 10
2852.2909332425038
 20
1759.4728982226729
 30
0.0
 11
2852.2909332425038
 21
1633.472898222672
 31
0.0
  0
LINE
  5
7CB5
  8
1
 10
2760.490933242505
 20
1928.772898222672
 30
0.0
 11
2760.490933242505
 21
1740.472898222672
 31
0.0
  0
LINE
  5
7CB6
  8
1
 10
2800.4909332425032
 20
1928.772898222672
 30
0.0
 11
2800.4909332425032
 21
1740.472898222672
 31
0.0
  0
LINE
  5
7CB7
  8
1
 10
2835.5506948929919
 20
2195.9538927031208
 30
0.0
 11
2835.5506948929919
 21
2258.1728982226732
 31
0.0
  0
LINE
  5
7CB8
  8
1
 10
2835.5506948929919
 20
2258.1728982226732
 30
0.0
 11
2713.5506948929919
 21
2258.1728982226732
 31
0.0
  0
LINE
  5
7CB9
  8
1
 10
2713.5506948929919
 20
2258.1728982226732
 30
0.0
 11
2713.550694892991
 21
1687.9728982226729
 31
0.0
  0
CIRCLE
  5
7CBA
  8
1
 10
1312.2426431697179
 20
2068.472898222672
 30
0.0
 40
139.69999999999999
  0
LINE
  5
7CBB
  8
1
 10
2713.5506948929919
 20
1687.9728982226729
 30
0.0
 11
2835.5506948929919
 21
1687.9728982226729
 31
0.0
  0
LINE
  5
7CBC
  8
1
 10
2835.5506948929919
 20
1740.4780755429249
 30
0.0
 11
2835.5506948929919
 21
1687.9728982226729
 31
0.0
  0
LINE
  5
7CBD
  8
1
 10
2713.5506948929919
 20
2258.1728982226718
 30
0.0
 11
2835.5506948929919
 21
2258.1728982226718
 31
0.0
  0
INSERT
  5
7CBE
  8
0
  6
BYBLOCK
 62
     2
  2
YA_N
 10
3220.312248982013
 20
845.60638416362042
 30
0.0
 41
24.0
 42
24.0
 43
24.0
 50
209.02222522655319
  0
LINE
  5
7CBF
  8
1
 10
1090.2426431697211
 20
1965.272898222672
 30
0.0
 11
823.02924221835383
 21
1965.272898222672
 31
0.0
  0
LINE
  5
7CC0
  8
1
 10
1534.2426431697179
 20
1965.272898222672
 30
0.0
 11
1669.166820341462
 21
1965.272898222672
 31
0.0
  0
LINE
  5
7CC1
  8
1
 10
1534.2426431697179
 20
1959.272898222672
 30
0.0
 11
1668.111396521821
 21
1959.272898222672
 31
0.0
  0
LINE
  5
7CC2
  8
1
 10
1090.2426431697199
 20
1959.272898222672
 30
0.0
 11
824.93323842671305
 21
1959.272898222672
 31
0.0
  0
LINE
  5
7CC3
  8
1
 10
3320.4909332425032
 20
1965.2728982226729
 30
0.0
 11
3397.9909332425032
 21
1965.2728982226729
 31
0.0
  0
LINE
  5
7CC4
  8
1
 10
3320.4909332425032
 20
1965.2728982226729
 30
0.0
 11
3320.4909332425032
 21
2005.2728982226729
 31
0.0
  0
LINE
  5
7CC5
  8
1
 10
3320.4909332425032
 20
2005.2728982226729
 30
0.0
 11
3322.4909332425032
 21
2005.2728982226729
 31
0.0
  0
LINE
  5
7CC6
  8
1
 10
3320.4909332425032
 20
1959.272898222672
 30
0.0
 11
3397.9909332425032
 21
1959.2728982226729
 31
0.0
  0
INSERT
  5
7CC7
  8
0
  2
YA_N
 10
1713.0203073866769
 20
330.47048422179881
 30
0.0
  0
INSERT
  5
7CCB
  8
0
  6
BYBLOCK
 62
     2
  2
YA_N
 10
362.7872676876068
 20
442.62049533921049
 30
0.0
 41
24.0
 42
24.0
 43
24.0
 50
270.0
  0
POINT
  5
7CCC
  8
1
 10
774.24264316971812
 20
2428.4728982226729
 30
0.0
  0
POINT
  5
7CCD
  8
1
 10
1286.2426431697179
 20
2428.4728982226729
 30
0.0
  0
POINT
  5
7CCE
  8
1
 10
774.24264316971812
 20
2428.4728982226729
 30
0.0
  0
LINE
  5
7CCF
  8
1
 10
3777.2909332425029
 20
2062.872898222673
 30
0.0
 11
3777.2909332425029
 21
2318.472898222672
 31
0.0
  0
LINE
  5
7CD0
  8
1
 10
3780.2909332425029
 20
2062.872898222673
 30
0.0
 11
3780.2909332425029
 21
2062.4728982226729
 31
0.0
  0
LINE
  5
7CD1
  8
1
 10
467.24264316971812
 20
1633.472898222672
 30
0.0
 11
817.24264316971801
 21
1633.472898222672
 31
0.0
  0
LINE
  5
7CD2
  8
2
 10
642.24264316971812
 20
1614.217527474307
 30
0.0
 11
642.24264316971812
 21
1982.9728982226729
 31
0.0
  0
LINE
  5
7CD3
  8
1
 10
467.24264316971812
 20
1633.472898222672
 30
0.0
 11
467.24264316971812
 21
1678.4728982226729
 31
0.0
  0
LINE
  5
7CD4
  8
1
 10
817.24264316971801
 20
1633.472898222672
 30
0.0
 11
817.24264316971801
 21
1678.4728982226729
 31
0.0
  0
LINE
  5
7CD5
  8
1
 10
2760.4909332425041
 20
1880.4728982226729
 30
0.0
 11
2800.4909332425032
 21
1880.4728982226729
 31
0.0
  0
LINE
  5
7CD6
  8
1
 10
2760.490933242505
 20
1740.472898222672
 30
0.0
 11
2800.4909332425032
 21
1740.472898222672
 31
0.0
  0
LINE
  5
7CD7
  8
1
 10
1412.2426431697179
 20
2008.472898222672
 30
0.0
 11
1212.2426431697179
 21
2008.472898222672
 31
0.0
  0
LINE
  5
7CD8
  8
1
 10
2932.9909332425032
 20
2008.472898222672
 30
0.0
 11
2867.9909332425032
 21
2008.472898222672
 31
0.0
  0
LINE
  5
7CD9
  8
2
 10
478.69740193058527
 20
1810.472898222672
 30
0.0
 11
817.7608662283601
 21
1810.472898222672
 31
0.0
  0
CIRCLE
  5
7CDA
  8
1
 10
642.24264316971812
 20
1810.472898222672
 30
0.0
 40
72.5
  0
LINE
  5
7CDB
  8
1
 10
1263.4536009696451
 20
2199.3763716723852
 30
0.0
 11
616.92263200647346
 21
1878.4077717023019
 31
0.0
  0
LINE
  5
7CDC
  8
1
 10
1334.8558126815619
 20
1930.6152377005651
 30
0.0
 11
653.97818210750393
 21
1738.9290157040409
 31
0.0
  0
ARC
  5
7CDD
  8
1
 10
1312.2426431697179
 20
2068.472898222672
 30
0.0
 40
189.69999999999999
 50
279.31542552106151
 51
110.4409309258598
  0
LINE
  5
7CDE
  8
1
 10
1342.9492878110691
 20
1881.2746290670259
 30
0.0
 11
662.0716572370111
 21
1689.5884070705019
 31
0.0
  0
ARC
  5
7CDF
  8
1
 10
642.24264316971812
 20
1810.472898222672
 30
0.0
 40
122.5
 50
110.4409309258598
 51
279.31542552106151
  0
DIMENSION
  5
7CE0
  8
3
  2
*D2
 10
1286.2426431697179
 20
2581.4084643570682
 30
0.0
 11
1030.2426431697179
 21
2631.4084643570668
 31
0.0
 70
     0
 13
774.24264316971812
 23
2428.4728982226729
 33
0.0
 14
1286.2426431697179
 24
2428.4728982226729
 34
0.0
 50
180.0
1001
ACAD
1000
DSTYLE
1002
{
1070
   287
1070
     3
1070
    40
1040
20.0
1070
   143
1040
0.039
1070
   172
1070
     1
1070
   271
1070
     0
1070
   279
1070
     0
1070
   288
1070
     1
1002
}
  0
LINE
  5
7CE1
  8
2
 10
1312.2426431697179
 20
3259.4905643831789
 30
0.0
 11
1312.2426431697179
 21
4455.2965767661954
 31
0.0
  0
LINE
  5
7CE2
  8
2
 10
642.24264316971858
 20
3254.836426330578
 30
0.0
 11
642.24264316971858
 21
3880.6578887080141
 31
0.0
  0
LINE
  5
7CE3
  8
2
 10
1742.07638853852
 20
4153.198782894784
 30
0.0
 11
689.88550988785926
 21
4153.198782894784
 31
0.0
  0
LINE
  5
7CE4
  8
1
 10
467.24264316971812
 20
1633.472898222672
 30
0.0
 11
1562.2426431697179
 21
1633.472898222672
 31
0.0
  0
LINE
  5
7CEA
  8
1
 10
2815.4909332425032
 20
1633.472898222672
 30
0.0
 11
3815.4909332425032
 21
1633.472898222672
 31
0.0
  0
DIMENSION
  5
7D01
  8
3
  2
*D3
 10
3397.9909332425032
 20
2531.7109184689139
 30
0.0
 11
3585.4909332425032
 21
2581.7109184689139
 31
0.0
 70
     0
 13
3772.9909332425032
 23
2396.7383472186202
 33
0.0
 14
3397.9909332425032
 24
2398.8859179347669
 34
0.0
1001
ACAD
1000
DSTYLE
1002
{
1070
   287
1070
     3
1070
    40
1040
20.0
1070
   143
1040
0.039
1070
   172
1070
     1
1070
   271
1070
     0
1070
   279
1070
     0
1070
   288
1070
     1
1002
}
  0
DIMENSION
  5
7D02
  8
3
  2
*D4
 10
3585.4909332425032
 20
2685.1583453940111
 30
0.0
 11
3681.3909332425028
 21
2765.1583453940111
 31
0.0
 70
     0
  1
192
 13
3777.2909332425029
 23
2343.472898222672
 33
0.0
 14
3585.4909332425032
 24
2613.3862113922792
 34
0.0
1001
ACAD
1000
DSTYLE
1002
{
1070
   288
1070
     1
1070
   172
1070
     1
1070
    40
1040
20.0
1070
   271
1070
     0
1070
   143
1040
0.039
1002
}
  0
DIMENSION
  5
7D03
  8
3
  2
*D5
 10
2713.5506948929919
 20
2685.1583453940111
 30
0.0
 11
3149.5208140677478
 21
2785.1583453940111
 31
0.0
 70
     0
  1
MAX\P930
 13
3585.4909332425032
 23
2613.3862113922792
 33
0.0
 14
2713.5506948929919
 24
2258.1728982226718
 34
0.0
1001
ACAD
1000
DSTYLE
1002
{
1070
   287
1070
     3
1070
    40
1040
20.0
1070
   143
1040
0.039
1070
   172
1070
     1
1070
   271
1070
     0
1070
   279
1070
     0
1070
   288
1070
     1
1002
}
  0
DIMENSION
  5
7D04
  8
3
  2
*D6
 10
3992.3641397142701
 20
1818.472898222672
 30
0.0
 11
3942.364139714271
 21
2068.4728982226729
 31
0.0
 70
     0
 13
3802.2909332425029
 23
2318.472898222672
 33
0.0
 14
3802.2909332425029
 24
1818.472898222672
 34
0.0
 50
90.0
1001
ACAD
1000
DSTYLE
1002
{
1070
   287
1070
     3
1070
     3
1000
φ<>
1070
    40
1040
20.0
1070
   143
1040
0.039
1070
   172
1070
     1
1070
   271
1070
     0
1070
   279
1070
     0
1070
   288
1070
     1
1002
}
  0
LINE
  5
7D05
  8
1
 10
1245.9915243053381
 20
2246.2280085548882
 30
0.0
 11
599.46055534216646
 21
1925.2594085848041
 31
0.0
  0
LINE
  5
7D06
  8
1
 10
467.24264316971812
 20
1678.4728982226729
 30
0.0
 11
817.24264316971801
 21
1678.4728982226729
 31
0.0
  0
ARC
  5
7D07
  8
1
 10
642.24264316971812
 20
1810.472898222672
 30
0.0
 40
142.5
 50
295.27460000000002
 51
0.0
  0
ARC
  5
7D08
  8
1
 10
642.24264316971812
 20
1810.472898222672
 30
0.0
 40
142.5
 50
0.0
 51
244.99879999999999
  0
LINE
  5
7D0A
  8
1
 10
702.78404316971819
 20
1681.472898222672
 30
0.0
 11
581.70134316971826
 21
1681.472898222672
 31
0.0
  0
LINE
  5
7D0B
  8
1
 10
512.24264316971812
 20
1678.4728982226729
 30
0.0
 11
562.24264316971812
 21
1678.4728982226729
 31
0.0
  0
LINE
  5
7D0C
  8
1
 10
522.75984316971835
 20
1732.723498222673
 30
0.0
 11
512.24264316971812
 21
1693.472898222672
 31
0.0
  0
LINE
  5
7D0D
  8
1
 10
512.24264316971812
 20
1693.275498222672
 30
0.0
 11
512.24264316971812
 21
1678.4728982226729
 31
0.0
  0
ARC
  5
7D0E
  8
1
 10
567.24264316971812
 20
1686.401898222673
 30
0.0
 40
4.9999000000000002
 50
134.99950000000001
 51
180.0
  0
LINE
  5
7D0F
  8
1
 10
563.36284316971842
 20
1689.593098222673
 30
0.0
 11
564.73374316971831
 21
1690.9639982226729
 31
0.0
  0
LINE
  5
7D10
  8
1
 10
562.24264316971812
 20
1678.4728982226729
 30
0.0
 11
562.24264316971812
 21
1686.401898222673
 31
0.0
  0
LINE
  5
7D11
  8
1
 10
761.76824316971795
 20
1732.564198222673
 30
0.0
 11
772.24264316971812
 21
1693.472898222672
 31
0.0
  0
LINE
  5
7D12
  8
1
 10
772.24264316971812
 20
1678.4728982226729
 30
0.0
 11
722.24264316971812
 21
1678.4728982226729
 31
0.0
  0
ARC
  5
7D13
  8
1
 10
717.24274316971832
 20
1686.401898222673
 30
0.0
 40
4.9999000000000002
 50
0.0
 51
45.000500000000002
  0
LINE
  5
7D14
  8
1
 10
720.61784316971853
 20
1690.097898222672
 30
0.0
 11
719.81584316971794
 21
1690.8998982226731
 31
0.0
  0
LINE
  5
7D15
  8
1
 10
722.24264316971812
 20
1678.4728982226729
 30
0.0
 11
722.24264316971812
 21
1686.401898222673
 31
0.0
  0
LINE
  5
7D16
  8
1
 10
772.24264316971812
 20
1693.275498222672
 30
0.0
 11
772.24264316971812
 21
1678.4728982226729
 31
0.0
  0
LINE
  5
7D18
  8
2
 10
2995.3389267613361
 20
1810.472898222672
 30
0.0
 11
2687.0986662807009
 21
1810.472898222672
 31
0.0
  0
LINE
  5
7D19
  8
1
 10
2852.2909332425038
 20
1791.4728982226729
 30
0.0
 11
2800.490933242505
 21
1791.4728982226729
 31
0.0
  0
LINE
  5
7D1A
  8
1
 10
2852.2909332425038
 20
1829.4728982226729
 30
0.0
 11
2800.490933242505
 21
1829.4728982226729
 31
0.0
  0
LINE
  5
7D1B
  8
1
 10
1331.2426431697179
 20
3368.198782894784
 30
0.0
 11
1331.2426431697179
 21
3398.198782894784
 31
0.0
1001
ACAD
1000
ASC_BOUNDS
1002
{
1070
    19
1002
}
  0
LINE
  5
7D1C
  8
1
 10
1293.2426431697179
 20
3368.198782894784
 30
0.0
 11
1293.2426431697179
 21
3398.198782894784
 31
0.0
1001
ACAD
1000
ASC_BOUNDS
1002
{
1070
    19
1002
}
  0
LINE
  5
7D1D
  8
1
 10
1532.2426431697179
 20
3403.2585445452728
 30
0.0
 11
1532.2426431697179
 21
3281.2585445452728
 31
0.0
  0
LINE
  5
7D1E
  8
1
 10
1532.2426431697179
 20
3281.2585445452728
 30
0.0
 11
1532.2426431697179
 21
3403.2585445452728
 31
0.0
  0
LINE
  5
7D20
  8
1
 10
492.24264316971858
 20
3281.2585445452728
 30
0.0
 11
492.24264316971858
 21
3403.2585445452728
 31
0.0
  0
LINE
  5
7D21
  8
1
 10
1451.942643169717
 20
3368.1987828947831
 30
0.0
 11
1172.5426431697169
 21
3368.1987828947849
 31
0.0
  0
LINE
  5
7D22
  8
1
 10
1451.942643169717
 20
3328.1987828947831
 30
0.0
 11
1172.5426431697169
 21
3328.1987828947858
 31
0.0
  0
LINE
  5
7D23
  8
1
 10
1532.2426431697179
 20
3281.2585445452728
 30
0.0
 11
492.24264316971858
 21
3281.2585445452728
 31
0.0
  0
LINE
  5
7D24
  8
1
 10
1172.5426431697169
 20
3368.1987828947849
 30
0.0
 11
572.24264316971858
 21
3368.1987828947849
 31
0.0
  0
LINE
  5
7D25
  8
1
 10
1172.5426431697169
 20
3328.1987828947858
 30
0.0
 11
572.24264316971858
 21
3328.1987828947858
 31
0.0
  0
LINE
  5
7D26
  8
1
 10
572.24264316971858
 20
3328.1987828947858
 30
0.0
 11
572.24264316971858
 21
3368.1987828947849
 31
0.0
  0
LINE
  5
7D27
  8
1
 10
712.24264316971846
 20
3328.198782894784
 30
0.0
 11
712.24264316971846
 21
3368.198782894784
 31
0.0
  0
LINE
  5
7D28
  8
1
 10
1451.942643169717
 20
3328.1987828947822
 30
0.0
 11
1451.942643169717
 21
3368.1987828947831
 31
0.0
1001
ACAD
1000
ASC_BOUNDS
1002
{
1070
    19
1002
}
  0
LINE
  5
7D29
  8
1
 10
1289.7426431697179
 20
3419.9987828947828
 30
0.0
 11
1092.576874329874
 21
3419.9987828947851
 31
0.0
  0
LINE
  5
7D2A
  8
1
 10
1289.7426431697179
 20
3888.198782894784
 30
0.0
 11
1092.576874329874
 21
3888.198782894784
 31
0.0
  0
LINE
  5
7D2B
  8
1
 10
1334.7426431697179
 20
3398.198782894784
 30
0.0
 11
1334.7426431697179
 21
3965.698782894784
 31
0.0
1001
ACAD
1000
ASC_BOUNDS
1002
{
1070
    19
1002
}
  0
LINE
  5
7D2C
  8
1
 10
1289.7426431697179
 20
3398.198782894784
 30
0.0
 11
1289.7426431697179
 21
3935.698782894784
 31
0.0
1001
ACAD
1000
ASC_BOUNDS
1002
{
1070
    19
1002
}
  0
LINE
  5
7D2D
  8
1
 10
1334.7426431697179
 20
3398.198782894784
 30
0.0
 11
1289.7426431697179
 21
3398.198782894784
 31
0.0
  0
LINE
  5
7D2E
  8
1
 10
1289.7426431697179
 20
3403.2585445452728
 30
0.0
 11
492.24264316971761
 21
3403.2585445452728
 31
0.0
  0
LINE
  5
7D2F
  8
1
 10
1334.7426431697179
 20
3403.2585445452728
 30
0.0
 11
1532.2426431697179
 21
3403.2585445452728
 31
0.0
  0
LINE
  5
7D30
  8
1
 10
1249.042643169719
 20
3888.198782894784
 30
0.0
 11
1209.042643169719
 21
3888.198782894784
 31
0.0
  0
LINE
  5
7D31
  8
1
 10
1209.042643169719
 20
3888.198782894784
 30
0.0
 11
1249.042643169719
 21
3888.198782894784
 31
0.0
  0
LINE
  5
7D32
  8
1
 10
1172.5426431697169
 20
3328.1987828947822
 30
0.0
 11
1172.5426431697169
 21
3368.1987828947831
 31
0.0
1001
ACAD
1000
ASC_BOUNDS
1002
{
1070
    19
1002
}
  0
LINE
  5
7D33
  8
2
 10
716.0418434723033
 20
2068.472898222672
 30
0.0
 11
1713.5952196366591
 21
2068.472898222672
 31
0.0
  0
DIMENSION
  5
7D34
  8
3
  2
*D7
 10
774.24264316971812
 20
2704.8013004194781
 30
0.0
 11
1043.2426431697179
 21
2754.8013004194781
 31
0.0
 70
     0
 13
1312.2426431697179
 23
2469.8254746896141
 33
0.0
 14
774.24264316971812
 24
2428.4728982226729
 34
0.0
 50
180.0
1001
ACAD
1000
DSTYLE
1002
{
1070
   287
1070
     3
1070
    40
1040
20.0
1070
   143
1040
0.039
1070
   172
1070
     1
1070
   271
1070
     0
1070
   279
1070
     0
1070
   288
1070
     1
1002
}
  0
LINE
  5
7D35
  8
1
 10
1673.242643169717
 20
4340.6987828947849
 30
0.0
 11
1316.2426431697179
 21
4340.698782894784
 31
0.0
  0
LINE
  5
7D36
  8
1
 10
1673.2426431697179
 20
3965.698782894784
 30
0.0
 11
1316.2426431697161
 21
3965.698782894784
 31
0.0
  0
LINE
  5
7D39
  8
1
 10
1092.576874329874
 20
3419.9987828947851
 30
0.0
 11
1092.576874329874
 21
3888.198782894784
 31
0.0
  0
LINE
  5
7D3A
  8
1
 10
1334.7426431697179
 20
3888.198782894784
 30
0.0
 11
1531.908412009562
 21
3888.198782894784
 31
0.0
  0
LINE
  5
7D3B
  8
1
 10
1531.908412009562
 20
3419.9987828947851
 30
0.0
 11
1531.908412009562
 21
3888.198782894784
 31
0.0
  0
LINE
  5
7D3C
  8
1
 10
1334.7426431697179
 20
3419.9987828947828
 30
0.0
 11
1531.908412009562
 21
3419.9987828947851
 31
0.0
  0
LINE
  5
7D3D
  8
1
 10
774.24264316971846
 20
3835.198482894782
 30
0.0
 11
774.24264316971846
 21
3445.1987828947822
 31
0.0
  0
LINE
  5
7D3E
  8
1
 10
500.24264316971858
 20
3445.1987828947822
 30
0.0
 11
500.24264316971858
 21
3835.198482894782
 31
0.0
  0
LINE
  5
7D3F
  8
1
 10
500.24264316971858
 20
3445.1987828947822
 30
0.0
 11
774.24264316971846
 21
3445.1987828947822
 31
0.0
  0
LINE
  5
7D40
  8
1
 10
700.24264316971858
 20
3435.1987828947822
 30
0.0
 11
584.24264316971858
 21
3435.1987828947822
 31
0.0
  0
LINE
  5
7D41
  8
1
 10
774.24264316971846
 20
3445.1987828947822
 30
0.0
 11
774.24264316971846
 21
3606.1987828947822
 31
0.0
  0
LINE
  5
7D42
  8
1
 10
701.24264316971858
 20
3445.1987828947822
 30
0.0
 11
701.24264316971858
 21
3436.1987828947822
 31
0.0
  0
ARC
  5
7D43
  8
1
 10
700.24264316971858
 20
3436.1987828947822
 30
0.0
 40
0.9999
 50
269.99650000000003
 51
0.0069999999999659
  0
LINE
  5
7D44
  8
1
 10
661.24264316971846
 20
3428.1987828947808
 30
0.0
 11
661.24264316971846
 21
3348.1987828947822
 31
0.0
  0
LINE
  5
7D45
  8
1
 10
623.24264316971846
 20
3428.1987828947808
 30
0.0
 11
623.24264316971846
 21
3348.1987828947822
 31
0.0
  0
LINE
  5
7D46
  8
1
 10
661.24264316971846
 20
3348.1987828947822
 30
0.0
 11
623.24264316971846
 21
3348.1987828947822
 31
0.0
  0
LINE
  5
7D47
  8
1
 10
662.24264316971846
 20
3428.1987828947808
 30
0.0
 11
622.24264316971858
 21
3428.1987828947808
 31
0.0
  0
LINE
  5
7D48
  8
1
 10
662.24264316971846
 20
3435.1987828947822
 30
0.0
 11
662.24264316971846
 21
3428.1987828947808
 31
0.0
  0
LINE
  5
7D49
  8
1
 10
622.24264316971858
 20
3435.1987828947822
 30
0.0
 11
622.24264316971858
 21
3428.1987828947808
 31
0.0
  0
LINE
  5
7D4A
  8
1
 10
583.24264316971846
 20
3445.1987828947822
 30
0.0
 11
583.24264316971846
 21
3436.1987828947822
 31
0.0
  0
ARC
  5
7D4B
  8
1
 10
525.24264316971858
 20
3447.1987828947822
 30
0.0
 40
2.0001000000000002
 50
180.00349999999989
 51
270.0
  0
ARC
  5
7D4C
  8
1
 10
584.24264316971858
 20
3436.197782894782
 30
0.0
 40
0.9998000000000001
 50
179.98599999999999
 51
270.00700000000001
  0
ARC
  5
7D4D
  8
1
 10
501.74264316971852
 20
3768.1983828947832
 30
0.0
 40
2.0001000000000002
 50
90.003500000000003
 51
179.9965
  0
LINE
  5
7D4E
  8
1
 10
500.24264316971858
 20
3835.198482894782
 30
0.0
 11
774.24264316971846
 21
3835.198482894782
 31
0.0
  0
ARC
  5
7D4F
  8
1
 10
765.30324316971735
 20
3833.198482894782
 30
0.0
 40
2.0
 50
1.762800000000037
 51
90.0
  0
DIMENSION
  5
7D52
  8
3
  2
*D8
 10
1873.091799885716
 20
2068.472898222672
 30
0.0
 11
1823.091799885716
 21
2248.4728982226729
 31
0.0
 70
     0
 13
1317.8426431697169
 23
2428.4728982226729
 33
0.0
 14
1713.5952196366591
 24
2068.472898222672
 34
0.0
 50
90.0
1001
ACAD
1000
DSTYLE
1002
{
1070
   287
1070
     3
1070
    40
1040
20.0
1070
   143
1040
0.039
1070
   172
1070
     1
1070
   271
1070
     0
1070
   279
1070
     0
1070
   288
1070
     1
1002
}
  0
DIMENSION
  5
7D53
  8
3
  2
*D9
 10
1873.091799885716
 20
1558.4728982226729
 30
0.0
 11
1823.091799885716
 21
1813.4728982226729
 31
0.0
 70
     0
 13
1713.5952196366591
 23
2068.472898222672
 33
0.0
 14
1562.2426431697179
 24
1558.4728982226729
 34
0.0
 50
90.0
1001
ACAD
1000
DSTYLE
1002
{
1070
   287
1070
     3
1070
    40
1040
20.0
1070
   143
1040
0.039
1070
   172
1070
     1
1070
   271
1070
     0
1070
   279
1070
     0
1070
   288
1070
     1
1002
}
  0
DIMENSION
  5
7D56
  8
3
  2
*D10
 10
1673.346621027076
 20
2704.8013004194781
 30
0.0
 11
1492.794632098397
 21
2754.8013004194781
 31
0.0
 70
     0
  1
361
 13
1312.2426431697179
 23
2469.8254746896141
 33
0.0
 14
1673.346621027076
 24
2030.364237703151
 34
0.0
1001
ACAD
1000
DSTYLE
1002
{
1070
   287
1070
     3
1070
    40
1040
20.0
1070
   143
1040
0.039
1070
   172
1070
     1
1070
   271
1070
     0
1070
   279
1070
     0
1070
   288
1070
     1
1002
}
  0
LINE
  5
7D59
  8
1
 10
1673.2426431697161
 20
3965.698782894784
 30
0.0
 11
1673.242643169717
 21
4340.6987828947849
 31
0.0
  0
LINE
  5
7D5A
  8
1
 10
774.24264316971755
 20
3965.6987828947831
 30
0.0
 11
774.24264316971846
 21
4340.698782894784
 31
0.0
  0
LINE
  5
7D5B
  8
1
 10
1286.242643169717
 20
3965.6987828947808
 30
0.0
 11
1286.2426431697179
 21
4340.6987828947831
 31
0.0
  0
LINE
  5
7D5C
  8
1
 10
1316.2426431697179
 20
4370.6987828947849
 30
0.0
 11
744.24264316971846
 21
4370.6987828947831
 31
0.0
  0
LINE
  5
7D5D
  8
1
 10
744.24264316971755
 20
3935.6987828947831
 30
0.0
 11
744.24264316971846
 21
4370.6987828947831
 31
0.0
  0
LINE
  5
7D5E
  8
1
 10
1316.2426431697161
 20
3935.698782894784
 30
0.0
 11
744.24264316971846
 21
3935.6987828947831
 31
0.0
  0
LINE
  5
7D5F
  8
1
 10
1316.2426431697161
 20
3935.698782894784
 30
0.0
 11
1316.2426431697179
 21
4370.6987828947849
 31
0.0
  0
LINE
  5
7D61
  8
1
 10
1286.242643169717
 20
4340.698782894784
 30
0.0
 11
774.24264316971755
 21
4340.698782894784
 31
0.0
  0
LINE
  5
7D62
  8
1
 10
1286.2426431697161
 20
3965.698782894784
 30
0.0
 11
774.24264316971846
 21
3965.698782894784
 31
0.0
  0
LINE
  5
7D63
  8
1
 10
1286.2426431697179
 20
4340.698782894784
 30
0.0
 11
774.24264316971755
 21
3965.698782894784
 31
0.0
  0
LINE
  5
7D64
  8
1
 10
774.24264316971846
 20
4340.698782894784
 30
0.0
 11
1286.242643169717
 21
3965.698782894784
 31
0.0
  0
LINE
  5
7D65
  8
1
 10
3367.9909332425018
 20
2428.4728982226729
 30
0.0
 11
3802.9909332425032
 21
2428.4728982226729
 31
0.0
1001
ACAD
1000
ASC_BOUNDS
1002
{
1070
    19
1002
}
  0
LINE
  5
7D66
  8
1
 10
3367.9909332425018
 20
2428.4728982226729
 30
0.0
 11
3367.9909332425018
 21
2398.4728982226729
 31
0.0
  0
LINE
  5
7D67
  8
1
 10
3802.9909332425041
 20
2428.4728982226729
 30
0.0
 11
3802.9909332425032
 21
2398.4728982226729
 31
0.0
  0
LINE
  5
7D68
  8
1
 10
3367.9909332425018
 20
2398.4728982226729
 30
0.0
 11
3802.9909332425032
 21
2398.4728982226729
 31
0.0
1001
ACAD
1000
ASC_BOUNDS
1002
{
1070
    19
1002
}
  0
LINE
  5
8075
  8
4
 10
3700.0
 20
1000.0
 30
0.0
 11
3700.0
 21
600.0
 31
0.0
  0
LINE
  5
8076
  8
4
 10
2300.0
 20
1000.0
 30
0.0
 11
2300.0
 21
600.0
 31
0.0
  0
LINE
  5
8077
  8
4
 10
1300.0
 20
1000.0
 30
0.0
 11
1300.0
 21
600.0
 31
0.0
  0
LINE
  5
807A
  8
4
 10
1300.0
 20
600.0
 30
0.0
 11
3700.0
 21
600.0
 31
0.0
  0
LINE
  5
807B
  8
4
 10
1300.0
 20
800.0
 30
0.0
 11
3700.0
 21
800.0
 31
0.0
  0
TEXT
  5
807C
  8
4
 10
1377.0041616938031
 20
863.08605173322564
 30
0.0
 40
100.0
  1
機器名称
  0
TEXT
  5
807D
  8
4
 10
1372.516212049595
 20
643.29031346402189
 30
0.0
 40
100.0
  1
機器型番
  0
TEXT
  5
807E
  8
4
 10
2355.3574909753288
 20
845.14353791513713
 30
0.0
 40
85.0
  1
ミツヤリミットロ－ﾄﾞファン
  0
TEXT
  5
807F
  8
4
 10
2373.3089911709608
 20
634.31916855988675
 30
0.0
 40
100.0
  1
LL#3-1
  0
TEXT
  5
8081
  8
4
 10
1495.7319232268851
 20
4766.8576826650306
 30
0.0
 40
107.9999999999999
  1
床置ベット
  0
TEXT
  5
8082
  8
4
 10
632.33518665889278
 20
5067.7619523985959
 30
0.0
 40
144.0
  1
遠心式片吸込片持リミットロ－ﾄﾞファン
  0
LINE
  5
8083
  8
4
 10
500.0
 20
4938.8175085296089
 30
0.0
 11
3700.0
 21
4938.8175085296089
 31
0.0
  0
LINE
  5
8084
  8
4
 10
500.0
 20
5338.8175085296098
 30
0.0
 11
3700.0
 21
5338.8175085296098
 31
0.0
  0
LINE
  5
8085
  8
4
 10
1300.0
 20
1000.0
 30
0.0
 11
3700.0
 21
1000.0
 31
0.0
  0
LINE
  5
8086
  8
4
 10
500.0
 20
5338.8175085296098
 30
0.0
 11
500.0
 21
4938.8175085296089
 31
0.0
  0
TEXT
  5
8087
  8
4
 10
624.01425874148106
 20
4764.638955092687
 30
0.0
 40
107.9999999999999
  1
右回転上向
  0
TEXT
  5
8088
  8
4
 10
2937.9391184985789
 20
5412.1221629906177
 30
0.0
 40
112.0
  1
No.
  0
TEXT
  5
8089
  8
4
 10
2622.5921252000262
 20
4766.8576826650306
 30
0.0
 40
107.9999999999999
  1
縮尺：1/20
  0
LINE
  5
808A
  8
4
 10
3700.0
 20
5338.8175085296098
 30
0.0
 11
3700.0
 21
4938.8175085296089
 31
0.0
  0
LINE
  5
808B
  8
4
 10
4200.0
 20
5900.0
 30
0.0
 11
4200.0
 21
5900.0
 31
0.0
  0
LINE
  5
808C
  8
4
 10
2881.2348447197292
 20
5362.5271662508021
 30
0.0
 11
2881.2348447197292
 21
5573.3045230995049
 31
0.0
  0
LINE
  5
808D
  8
4
 10
2881.2348447197292
 20
5573.3045230995049
 30
0.0
 11
3700.0
 21
5573.3045230995049
 31
0.0
  0
LINE
  5
808E
  8
4
 10
3700.0
 20
5573.3045230995049
 30
0.0
 11
3700.0
 21
5362.5271662508021
 31
0.0
  0
LINE
  5
808F
  8
4
 10
3700.0
 20
5362.5271662508021
 30
0.0
 11
2881.2348447197292
 21
5362.5271662508021
 31
0.0
  0
LINE
  5
8090
  8
4
 10
0.0
 20
0.0
 30
0.0
 11
0.0
 21
5900.0
 31
0.0
  0
LINE
  5
8091
  8
4
 10
0.0
 20
5900.0
 30
0.0
 11
4200.0
 21
5900.0
 31
0.0
  0
LINE
  5
8092
  8
4
 10
4200.0
 20
5900.0
 30
0.0
 11
4200.0
 21
0.0
 31
0.0
  0
LINE
  5
8093
  8
4
 10
4200.0
 20
0.0
 30
0.0
 11
0.0
 21
0.0
 31
0.0
  0
LINE
  5
809F
  8
1
 10
3815.4909332425018
 20
1558.4728982226729
 30
0.0
 11
3815.4909332425032
 21
1633.472898222672
 31
0.0
  0
LINE
  5
80A0
  8
1
 10
2815.4909332425032
 20
1558.4728982226729
 30
0.0
 11
2815.4909332425032
 21
1633.472898222672
 31
0.0
  0
LINE
  5
80A1
  8
1
 10
1562.2426431697179
 20
1558.4728982226729
 30
0.0
 11
1562.2426431697179
 21
1633.472898222672
 31
0.0
  0
LINE
  5
80A2
  8
1
 10
482.24264316971852
 20
1558.4728982226729
 30
0.0
 11
482.24264316971852
 21
1633.472898222672
 31
0.0
  0
DIMENSION
  5
819E
  8
3
  2
*D12
 10
482.24264316971858
 20
2837.1065415554708
 30
0.0
 11
1096.6497704558749
 21
2837.1065415554708
 31
0.0
 70
   128
 13
1673.346621027076
 23
2030.364237703151
 33
0.0
 14
482.24264316971852
 24
1633.472898222672
 34
0.0
1001
ACAD
1000
DSTYLE
1002
{
1070
   287
1070
     3
1070
    40
1040
20.0
1070
   143
1040
0.039
1070
   172
1070
     1
1070
   271
1070
     0
1070
   279
1070
     0
1070
   288
1070
     1
1002
}
  0
LINE
  5
81A0
  8
1
 10
1562.2426431697179
 20
4383.1987828947831
 30
0.0
 11
1062.2426431697179
 21
4383.1987828947822
 31
0.0
  0
LINE
  5
81A1
  8
1
 10
1562.2426431697179
 20
3383.1987828947831
 30
0.0
 11
1532.2426431697179
 21
3383.1987828947831
 31
0.0
  0
LINE
  5
81A4
  8
1
 10
1562.2426431697179
 20
3383.1987828947831
 30
0.0
 11
1562.2426431697179
 21
3965.6987828947849
 31
0.0
  0
LINE
  5
81A5
  8
1
 10
482.24264316971852
 20
3383.1987828947831
 30
0.0
 11
482.24264316971852
 21
3943.198782894784
 31
0.0
  0
LINE
  5
81A6
  8
1
 10
744.24264316971767
 20
3943.198782894784
 30
0.0
 11
482.24264316971852
 21
3943.198782894784
 31
0.0
  0
LINE
  5
81A7
  8
1
 10
1062.2426431697179
 20
4370.6987828947831
 30
0.0
 11
1062.2426431697179
 21
4383.1987828947831
 31
0.0
  0
LINE
  5
81A8
  8
1
 10
1562.2426431697179
 20
4340.6987828947849
 30
0.0
 11
1562.2426431697179
 21
4383.1987828947831
 31
0.0
  0
LINE
  5
81A9
  8
1
 10
492.24264316971852
 20
3383.1987828947831
 30
0.0
 11
482.24264316971852
 21
3383.1987828947831
 31
0.0
  0
DIMENSION
  5
81B6
  8
3
  2
*D13
 10
1062.2426431697179
 20
4472.7139065020874
 30
0.0
 11
1323.434077687157
 21
4472.7139065020874
 31
0.0
 70
   128
 13
1562.2426431697179
 23
4383.1987828947831
 33
0.0
 14
1062.2426431697179
 24
4383.1987828947822
 34
0.0
1001
ACAD
1000
DSTYLE
1002
{
1070
   287
1070
     3
1070
    40
1040
20.0
1070
   143
1040
0.039
1070
   172
1070
     1
1070
   271
1070
     0
1070
   279
1070
     0
1070
   288
1070
     1
1002
}
  0
DIMENSION
  5
81C2
  8
3
  2
*D14
 10
482.24264316971858
 20
4472.7139065020874
 30
0.0
 11
772.24264316971858
 21
4522.7139065020874
 31
0.0
 70
     0
 13
1062.2426431697179
 23
4383.1987828947822
 33
0.0
 14
482.24264316971852
 24
3943.198782894784
 34
0.0
1001
ACAD
1000
DSTYLE
1002
{
1070
   287
1070
     4
1070
    40
1040
20.0
1070
    75
1070
     1
1070
   143
1040
0.039
1070
   172
1070
     1
1070
   271
1070
     0
1070
   279
1070
     1
1070
   288
1070
     1
1002
}
  0
DIMENSION
  5
81CF
  8
3
  2
*D15
 10
351.36025632450082
 20
3383.1987828947831
 30
0.0
 11
351.36025632450031
 21
3697.0003272146009
 31
0.0
 70
   128
 13
482.24264316971852
 23
3943.198782894784
 33
0.0
 14
482.24264316971852
 24
3383.1987828947831
 34
0.0
 50
90.0
1001
ACAD
1000
DSTYLE
1002
{
1070
   287
1070
     3
1070
    40
1040
20.0
1070
   143
1040
0.039
1070
   172
1070
     1
1070
   271
1070
     0
1070
   279
1070
     0
1070
   288
1070
     1
1002
}
  0
DIMENSION
  5
81DC
  8
3
  2
*D16
 10
1819.2569520108921
 20
3383.1987828947831
 30
0.0
 11
1819.2569520108909
 21
3876.2618662801228
 31
0.0
 70
   128
 13
1562.2426431697179
 23
4383.1987828947831
 33
0.0
 14
1562.2426431697179
 24
3383.1987828947831
 34
0.0
 50
90.0
1001
ACAD
1000
DSTYLE
1002
{
1070
   287
1070
     3
1070
    40
1040
20.0
1070
   143
1040
0.039
1070
   172
1070
     1
1070
   271
1070
     0
1070
   279
1070
     0
1070
   288
1070
     1
1002
}
  0
DIMENSION
  5
8262
  8
3
  2
*D17
 10
1312.2426431697179
 20
1402.053682484707
 30
0.0
 11
897.24264316971835
 21
1452.053682484707
 31
0.0
 70
     0
 13
482.24264316971852
 23
1558.4728982226729
 33
0.0
 14
1312.2426431697179
 24
1558.4728982226729
 34
0.0
1001
ACAD
1000
DSTYLE
1002
{
1070
   287
1070
     3
1070
    40
1040
20.0
1070
   143
1040
0.039
1070
   172
1070
     1
1070
   271
1070
     0
1070
   279
1070
     0
1002
}
  0
DIMENSION
  5
8271
  8
3
  2
*D18
 10
1562.2426431697179
 20
1402.053682484707
 30
0.0
 11
1437.2426431697179
 21
1452.053682484707
 31
0.0
 70
     0
 13
1312.2426431697179
 23
1558.4728982226729
 33
0.0
 14
1562.2426431697179
 24
1558.4728982226729
 34
0.0
1001
ACAD
1000
DSTYLE
1002
{
1070
   287
1070
     3
1070
    40
1040
20.0
1070
   143
1040
0.039
1070
   172
1070
     1
1070
   271
1070
     0
1070
   279
1070
     0
1002
}
  0
DIMENSION
  5
827E
  8
3
  2
*D19
 10
3585.4909332425032
 20
1402.053682484707
 30
0.0
 11
3200.4909332425032
 21
1452.053682484707
 31
0.0
 70
     0
 13
2815.4909332425032
 23
1558.4728982226729
 33
0.0
 14
3585.4909332425032
 24
1558.4728982226729
 34
0.0
1001
ACAD
1000
DSTYLE
1002
{
1070
   287
1070
     3
1070
    40
1040
20.0
1070
   143
1040
0.039
1070
   172
1070
     1
1070
   271
1070
     0
1070
   279
1070
     0
1002
}
  0
DIMENSION
  5
828D
  8
3
  2
*D20
 10
3815.4909332425018
 20
1402.053682484707
 30
0.0
 11
3700.4909332425032
 21
1452.053682484707
 31
0.0
 70
     0
 13
3585.4909332425032
 23
1558.4728982226729
 33
0.0
 14
3815.4909332425018
 24
1558.4728982226729
 34
0.0
1001
ACAD
1000
DSTYLE
1002
{
1070
   287
1070
     3
1070
    40
1040
20.0
1070
   143
1040
0.039
1070
   172
1070
     1
1070
   271
1070
     0
1070
   279
1070
     0
1002
}
  0
DIMENSION
  5
829A
  8
3
  2
*D21
 10
2030.751538031127
 20
1558.4728982226729
 30
0.0
 11
1980.7515380311261
 21
1993.4728982226729
 31
0.0
 70
     0
 13
1327.8426431697169
 23
2428.4728982226729
 33
0.0
 14
1562.2426431697179
 24
1558.4728982226729
 34
0.0
 50
90.0
1001
ACAD
1000
DSTYLE
1002
{
1070
   287
1070
     3
1070
    40
1040
20.0
1070
   143
1040
0.039
1070
   172
1070
     1
1070
   271
1070
     0
1070
   279
1070
     0
1002
}
  0
ENDSEC
  0
EOF
