  0
SECTION
  2
HEADER
  9
$ACADVER
  1
AC1009
  9
$INSBASE
 10
0.0
 20
0.0
 30
0.0
  9
$EXTMIN
 10
0.0
 20
0.0
 30
0.0
  9
$EXTMAX
 10
4200.0
 20
5900.0
 30
0.0
  9
$LIMMIN
 10
0.0
 20
0.0
  9
$LIMMAX
 10
297.0
 20
210.0
  9
$ORTHOMODE
 70
     0
  9
$REGENMODE
 70
     1
  9
$FILLMODE
 70
     0
  9
$QTEXTMODE
 70
     0
  9
$MIRRTEXT
 70
     1
  9
$DRAGMODE
 70
     2
  9
$LTSCALE
 40
100.0
  9
$OSMODE
 70
    37
  9
$ATTMODE
 70
     1
  9
$TEXTSIZE
 40
180.0
  9
$TRACEWID
 40
0.05
  9
$TEXTSTYLE
  7
STANDARD
  9
$CLAYER
  8
3
  9
$CELTYPE
  6
BYLAYER
  9
$CECOLOR
 62
   256
  9
$DIMSCALE
 40
20.0
  9
$DIMASZ
 40
2.0
  9
$DIMEXO
 40
1.0
  9
$DIMDLI
 40
10.0
  9
$DIMRND
 40
0.0
  9
$DIMDLE
 40
0.0
  9
$DIMEXE
 40
1.0
  9
$DIMTP
 40
0.0
  9
$DIMTM
 40
0.0
  9
$DIMTXT
 40
3.0
  9
$DIMCEN
 40
0.0
  9
$DIMTSZ
 40
0.0
  9
$DIMTOL
 70
     0
  9
$DIMLIM
 70
     0
  9
$DIMTIH
 70
     0
  9
$DIMTOH
 70
     0
  9
$DIMSE1
 70
     0
  9
$DIMSE2
 70
     0
  9
$DIMTAD
 70
     1
  9
$DIMZIN
 70
     8
  9
$DIMBLK
  1

  9
$DIMASO
 70
     1
  9
$DIMSHO
 70
     1
  9
$DIMPOST
  1

  9
$DIMAPOST
  1

  9
$DIMALT
 70
     0
  9
$DIMALTD
 70
     2
  9
$DIMALTF
 40
25.399999999999999
  9
$DIMLFAC
 40
1.0
  9
$DIMTOFL
 70
     1
  9
$DIMTVP
 40
0.0
  9
$DIMTIX
 70
     0
  9
$DIMSOXD
 70
     0
  9
$DIMSAH
 70
     1
  9
$DIMBLK1
  1
OPEN
  9
$DIMBLK2
  1
OPEN
  9
$DIMSTYLE
  2
IGA
  9
$DIMCLRD
 70
     2
  9
$DIMCLRE
 70
     2
  9
$DIMCLRT
 70
     2
  9
$DIMTFAC
 40
1.0
  9
$DIMGAP
 40
0.5
  9
$LUNITS
 70
     2
  9
$LUPREC
 70
     3
  9
$SKETCHINC
 40
0.1
  9
$FILLETRAD
 40
50.0
  9
$AUNITS
 70
     0
  9
$AUPREC
 70
     0
  9
$MENU
  1
acad
  9
$ELEVATION
 40
0.0
  9
$PELEVATION
 40
0.0
  9
$THICKNESS
 40
0.0
  9
$LIMCHECK
 70
     0
  9
$BLIPMODE
 70
     0
  9
$CHAMFERA
 40
0.5
  9
$CHAMFERB
 40
0.5
  9
$SKPOLY
 70
     0
  9
$TDCREATE
 40
2451988.5779864579
  9
$TDUPDATE
 40
2454953.639762002
  9
$TDINDWG
 40
0.0440391898
  9
$TDUSRTIMER
 40
0.0440391898
  9
$USRTIMER
 70
     1
  9
$ANGBASE
 50
0.0
  9
$ANGDIR
 70
     0
  9
$PDMODE
 70
     0
  9
$PDSIZE
 40
0.0
  9
$PLINEWID
 40
0.0
  9
$COORDS
 70
     1
  9
$SPLFRAME
 70
     0
  9
$SPLINETYPE
 70
     6
  9
$SPLINESEGS
 70
     8
  9
$ATTDIA
 70
     0
  9
$ATTREQ
 70
     1
  9
$HANDLING
 70
 10241
  9
$HANDSEED
  5
892A
  9
$SURFTAB1
 70
     6
  9
$SURFTAB2
 70
     6
  9
$SURFTYPE
 70
     6
  9
$SURFU
 70
     6
  9
$SURFV
 70
     6
  9
$UCSNAME
  2

  9
$UCSORG
 10
0.0
 20
0.0
 30
0.0
  9
$UCSXDIR
 10
1.0
 20
0.0
 30
0.0
  9
$UCSYDIR
 10
0.0
 20
1.0
 30
0.0
  9
$PUCSNAME
  2

  9
$PUCSORG
 10
0.0
 20
0.0
 30
0.0
  9
$PUCSXDIR
 10
1.0
 20
0.0
 30
0.0
  9
$PUCSYDIR
 10
0.0
 20
1.0
 30
0.0
  9
$USERI1
 70
     0
  9
$USERI2
 70
     0
  9
$USERI3
 70
     0
  9
$USERI4
 70
     0
  9
$USERI5
 70
     0
  9
$USERR1
 40
0.0
  9
$USERR2
 40
0.0
  9
$USERR3
 40
0.0
  9
$USERR4
 40
0.0
  9
$USERR5
 40
0.0
  9
$WORLDVIEW
 70
     1
  9
$SHADEDGE
 70
     3
  9
$SHADEDIF
 70
    70
  9
$TILEMODE
 70
     1
  9
$MAXACTVP
 70
    16
  9
$PLIMCHECK
 70
     0
  9
$PEXTMIN
 10
1.0000000000000000E+020
 20
1.0000000000000000E+020
 30
1.0000000000000000E+020
  9
$PEXTMAX
 10
-1.0000000000000000E+020
 20
-1.0000000000000000E+020
 30
-1.0000000000000000E+020
  9
$PLIMMIN
 10
0.0
 20
0.0
  9
$PLIMMAX
 10
12.0
 20
9.0
  9
$UNITMODE
 70
     0
  9
$VISRETAIN
 70
     0
  9
$PLINEGEN
 70
     0
  9
$PSLTSCALE
 70
     1
  0
ENDSEC
  0
SECTION
  2
TABLES
  0
TABLE
  2
VPORT
 70
     2
  0
VPORT
  2
*ACTIVE
 70
     0
 10
0.0
 20
0.0
 11
1.0
 21
1.0
 12
3951.7754916565641
 22
676.44117262712098
 13
0.0
 23
0.0
 14
10.0
 24
10.0
 15
10.0
 25
10.0
 16
0.0
 26
0.0
 36
1.0
 17
0.0
 27
0.0
 37
0.0
 40
1758.4037852196041
 41
3.1666666666666661
 42
50.0
 43
0.0
 44
0.0
 50
0.0
 51
0.0
 71
     0
 72
   100
 73
     1
 74
     0
 75
     0
 76
     0
 77
     0
 78
     0
  0
ENDTAB
  0
TABLE
  2
LTYPE
 70
     2
  0
LTYPE
  2
CONTINUOUS
 70
     0
  3
Solid line
 72
    65
 73
     0
 40
0.0
  0
LTYPE
  2
CENTER
 70
     0
  3
____ _ ____ _ ____ _ ____ _ ____ _ ____ _ ____ 
 72
    65
 73
     4
 40
2.0
 49
1.25
 49
-0.25
 49
0.25
 49
-0.25
  0
ENDTAB
  0
TABLE
  2
LAYER
 70
     6
  0
LAYER
  2
0
 70
     0
 62
     7
  6
CONTINUOUS
  0
LAYER
  2
3
 70
     0
 62
     2
  6
CONTINUOUS
  0
LAYER
  2
2
 70
     0
 62
     3
  6
CENTER
  0
LAYER
  2
1
 70
     0
 62
     4
  6
CONTINUOUS
  0
LAYER
  2
4
 70
     0
 62
     7
  6
CONTINUOUS
  0
LAYER
  2
DEFPOINTS
 70
     0
 62
     7
  6
CONTINUOUS
  0
ENDTAB
  0
TABLE
  2
STYLE
 70
     1
  0
STYLE
  2
STANDARD
 70
     0
 40
0.0
 41
1.0
 50
0.0
 71
     0
 42
180.0
  3
simplex.shx
  4
extfont.shx
  0
ENDTAB
  0
TABLE
  2
VIEW
 70
     0
  0
ENDTAB
  0
TABLE
  2
UCS
 70
     0
  0
ENDTAB
  0
TABLE
  2
APPID
 70
     1
  0
APPID
  2
ACAD
 70
     0
  0
ENDTAB
  0
TABLE
  2
DIMSTYLE
 70
     1
  0
DIMSTYLE
  2
IGA
 70
     0
  3

  4

  5

  6
OPEN
  7
OPEN
 40
2.0
 41
2.0
 42
0.5
 43
10.0
 44
1.0
 45
0.0
 46
0.0
 47
1.0
 48
1.0
140
3.0
141
0.0
142
0.0
143
0.03937
144
1.0
145
0.0
146
10.0
147
1.0
 71
     0
 72
     0
 73
     0
 74
     0
 75
     0
 76
     0
 77
     1
 78
     8
170
     0
171
     2
172
     0
173
     1
174
     0
175
     0
176
     0
177
     0
178
     0
  0
ENDTAB
  0
ENDSEC
  0
SECTION
  2
BLOCKS
  0
BLOCK
  8
0
  2
$MODEL_SPACE
 70
     0
 10
0.0
 20
0.0
 30
0.0
  3
$MODEL_SPACE
  1

  0
ENDBLK
  5
1B
  8
0
  0
BLOCK
 67
     1
  8
0
  2
$PAPER_SPACE
 70
     0
 10
0.0
 20
0.0
 30
0.0
  3
$PAPER_SPACE
  1

  0
ENDBLK
  5
18
 67
     1
  8
0
  0
BLOCK
  8
0
  2
YA_N
 70
     0
 10
0.0
 20
0.0
 30
0.0
  3
YA_N
  1

  0
ENDBLK
  5
7F32
  8
0
  0
BLOCK
  8
0
  2
_OPEN
 70
     0
 10
0.0
 20
0.0
 30
0.0
  3
_OPEN
  1

  0
LINE
  5
7F38
  8
0
  6
BYBLOCK
 62
     0
 10
-1.0
 20
0.1666666666666666
 30
0.0
 11
0.0
 21
0.0
 31
0.0
  0
LINE
  5
7F39
  8
0
  6
BYBLOCK
 62
     0
 10
0.0
 20
0.0
 30
0.0
 11
-1.0
 21
-0.1666666666666666
 31
0.0
  0
LINE
  5
7F3A
  8
0
  6
BYBLOCK
 62
     0
 10
0.0
 20
0.0
 30
0.0
 11
-1.0
 21
0.0
 31
0.0
  0
ENDBLK
  5
7F3C
  8
0
  0
BLOCK
  8
0
  2
*D2
 70
     1
 10
0.0
 20
0.0
 30
0.0
  3
*D2
  1

  0
LINE
  5
8546
  8
0
  6
BYBLOCK
 62
     2
 10
1636.833722037087
 20
2489.7006791342151
 30
0.0
 11
1789.7692881714811
 21
2489.7006791342151
 31
0.0
  0
LINE
  5
8547
  8
0
  6
BYBLOCK
 62
     2
 10
1636.833722037087
 20
1977.7006791342151
 30
0.0
 11
1789.7692881714811
 21
1977.7006791342151
 31
0.0
  0
LINE
  5
8548
  8
0
  6
BYBLOCK
 62
     2
 10
1769.7692881714811
 20
2449.7006791342151
 30
0.0
 11
1769.7692881714811
 21
2017.7006791342151
 31
0.0
  0
INSERT
  5
8549
  8
0
  6
BYBLOCK
 62
     2
  2
_OPEN
 10
1769.7692881714811
 20
2489.7006791342151
 30
0.0
 41
40.0
 42
40.0
 43
40.0
 50
90.0
  0
INSERT
  5
854A
  8
0
  6
BYBLOCK
 62
     2
  2
_OPEN
 10
1769.7692881714811
 20
1977.7006791342151
 30
0.0
 41
40.0
 42
40.0
 43
40.0
 50
270.0
  0
TEXT
  5
854B
  8
3
 62
     2
 10
1759.76928817148
 20
2162.2721077056431
 30
0.0
 40
60.0
  1
512
 50
90.0
  0
POINT
  5
854C
  8
DEFPOINTS
  6
BYBLOCK
 62
     0
 10
1616.8337220370861
 20
2489.7006791342151
 30
0.0
  0
POINT
  5
854D
  8
DEFPOINTS
  6
BYBLOCK
 62
     0
 10
1616.8337220370861
 20
1977.7006791342151
 30
0.0
  0
POINT
  5
854E
  8
DEFPOINTS
  6
BYBLOCK
 62
     0
 10
1769.7692881714811
 20
1977.7006791342151
 30
0.0
  0
ENDBLK
  5
854F
  8
0
  0
BLOCK
  8
0
  2
*D3
 70
     1
 10
0.0
 20
0.0
 30
0.0
  3
*D3
  1

  0
LINE
  5
853B
  8
0
  6
BYBLOCK
 62
     2
 10
1616.8337220370861
 20
2541.305862097518
 30
0.0
 11
1616.8337220370861
 21
2683.578541820224
 31
0.0
  0
LINE
  5
853C
  8
0
  6
BYBLOCK
 62
     2
 10
1256.8337220370861
 20
2555.863368476384
 30
0.0
 11
1256.8337220370861
 21
2683.578541820224
 31
0.0
  0
LINE
  5
853D
  8
0
  6
BYBLOCK
 62
     2
 10
1576.8337220370861
 20
2663.5785418202249
 30
0.0
 11
1296.8337220370861
 21
2663.5785418202249
 31
0.0
  0
INSERT
  5
853E
  8
0
  6
BYBLOCK
 62
     2
  2
_OPEN
 10
1616.8337220370861
 20
2663.5785418202249
 30
0.0
 41
40.0
 42
40.0
 43
40.0
  0
INSERT
  5
853F
  8
0
  6
BYBLOCK
 62
     2
  2
_OPEN
 10
1256.8337220370861
 20
2663.5785418202249
 30
0.0
 41
40.0
 42
40.0
 43
40.0
 50
180.0
  0
TEXT
  5
8540
  8
3
 62
     2
 10
1359.690864894229
 20
2673.5785418202249
 30
0.0
 40
60.0
  1
360
  0
POINT
  5
8541
  8
DEFPOINTS
  6
BYBLOCK
 62
     0
 10
1616.8337220370861
 20
2521.305862097518
 30
0.0
  0
POINT
  5
8542
  8
DEFPOINTS
  6
BYBLOCK
 62
     0
 10
1256.8337220370861
 20
2535.863368476384
 30
0.0
  0
POINT
  5
8543
  8
DEFPOINTS
  6
BYBLOCK
 62
     0
 10
1256.8337220370861
 20
2663.5785418202249
 30
0.0
  0
ENDBLK
  5
8544
  8
0
  0
BLOCK
  8
0
  2
*D4
 70
     1
 10
0.0
 20
0.0
 30
0.0
  3
*D4
  1

  0
LINE
  5
8530
  8
0
  6
BYBLOCK
 62
     2
 10
1256.8337220370861
 20
2555.863368476384
 30
0.0
 11
1256.8337220370861
 21
2683.578541820224
 31
0.0
  0
LINE
  5
8531
  8
0
  6
BYBLOCK
 62
     2
 10
821.83372203708677
 20
2045.7006791342119
 30
0.0
 11
821.83372203708677
 21
2683.578541820224
 31
0.0
  0
LINE
  5
8532
  8
0
  6
BYBLOCK
 62
     2
 10
1216.8337220370861
 20
2663.5785418202249
 30
0.0
 11
861.83372203708677
 21
2663.5785418202249
 31
0.0
  0
INSERT
  5
8533
  8
0
  6
BYBLOCK
 62
     2
  2
_OPEN
 10
1256.8337220370861
 20
2663.5785418202249
 30
0.0
 41
40.0
 42
40.0
 43
40.0
  0
INSERT
  5
8534
  8
0
  6
BYBLOCK
 62
     2
  2
_OPEN
 10
821.83372203708677
 20
2663.5785418202249
 30
0.0
 41
40.0
 42
40.0
 43
40.0
 50
180.0
  0
TEXT
  5
8535
  8
3
 62
     2
 10
962.19086489422943
 20
2673.5785418202249
 30
0.0
 40
60.0
  1
435
  0
POINT
  5
8536
  8
DEFPOINTS
  6
BYBLOCK
 62
     0
 10
1256.8337220370861
 20
2535.863368476384
 30
0.0
  0
POINT
  5
8537
  8
DEFPOINTS
  6
BYBLOCK
 62
     0
 10
821.83372203708677
 20
2025.7006791342119
 30
0.0
  0
POINT
  5
8538
  8
DEFPOINTS
  6
BYBLOCK
 62
     0
 10
821.83372203708677
 20
2663.5785418202249
 30
0.0
  0
ENDBLK
  5
8539
  8
0
  0
BLOCK
  8
0
  2
*D5
 70
     1
 10
0.0
 20
0.0
 30
0.0
  3
*D5
  1

  0
LINE
  5
84E3
  8
0
  6
BYBLOCK
 62
     2
 10
3717.5820121098709
 20
2509.7006791342151
 30
0.0
 11
3717.5820121098709
 21
2621.0960271937729
 31
0.0
  0
LINE
  5
84E4
  8
0
  6
BYBLOCK
 62
     2
 10
3342.5820121098709
 20
2509.700679134216
 30
0.0
 11
3342.5820121098709
 21
2621.0960271937729
 31
0.0
  0
LINE
  5
84E5
  8
0
  6
BYBLOCK
 62
     2
 10
3677.5820121098709
 20
2601.0960271937729
 30
0.0
 11
3382.5820121098709
 21
2601.0960271937729
 31
0.0
  0
INSERT
  5
84E6
  8
0
  6
BYBLOCK
 62
     2
  2
_OPEN
 10
3717.5820121098709
 20
2601.0960271937729
 30
0.0
 41
40.0
 42
40.0
 43
40.0
  0
INSERT
  5
84E7
  8
0
  6
BYBLOCK
 62
     2
  2
_OPEN
 10
3342.5820121098709
 20
2601.0960271937729
 30
0.0
 41
40.0
 42
40.0
 43
40.0
 50
180.0
  0
TEXT
  5
84E8
  8
3
 62
     2
 10
3452.939154967014
 20
2611.096027193772
 30
0.0
 40
60.0
  1
375
  0
POINT
  5
84E9
  8
DEFPOINTS
  6
BYBLOCK
 62
     0
 10
3717.5820121098709
 20
2489.7006791342151
 30
0.0
  0
POINT
  5
84EA
  8
DEFPOINTS
  6
BYBLOCK
 62
     0
 10
3342.5820121098709
 20
2489.7006791342151
 30
0.0
  0
POINT
  5
84EB
  8
DEFPOINTS
  6
BYBLOCK
 62
     0
 10
3342.5820121098709
 20
2601.0960271937729
 30
0.0
  0
ENDBLK
  5
84EC
  8
0
  0
BLOCK
  8
0
  2
*D6
 70
     1
 10
0.0
 20
0.0
 30
0.0
  3
*D6
  1

  0
LINE
  5
84D8
  8
0
  6
BYBLOCK
 62
     2
 10
3721.8820121098711
 20
1965.8147820537069
 30
0.0
 11
3721.8820121098711
 21
2774.5434541188702
 31
0.0
  0
LINE
  5
84D9
  8
0
  6
BYBLOCK
 62
     2
 10
3530.0820121098709
 20
2702.7713201171368
 30
0.0
 11
3530.0820121098709
 21
2774.5434541188702
 31
0.0
  0
LINE
  5
84DA
  8
0
  6
BYBLOCK
 62
     2
 10
3681.882012109872
 20
2754.5434541188702
 30
0.0
 11
3570.0820121098709
 21
2754.5434541188702
 31
0.0
  0
TEXT
  5
84DB
  8
3
 62
     2
 10
3554.553440681299
 20
2789.5434541188702
 30
0.0
 40
60.0
  1
192
  0
INSERT
  5
84DC
  8
0
  6
BYBLOCK
 62
     2
  2
_OPEN
 10
3721.8820121098711
 20
2754.5434541188702
 30
0.0
 41
40.0
 42
40.0
 43
40.0
  0
INSERT
  5
84DD
  8
0
  6
BYBLOCK
 62
     2
  2
_OPEN
 10
3530.0820121098709
 20
2754.5434541188702
 30
0.0
 41
40.0
 42
40.0
 43
40.0
 50
180.0
  0
POINT
  5
84DE
  8
DEFPOINTS
  6
BYBLOCK
 62
     0
 10
3721.8820121098711
 20
1945.8147820537069
 30
0.0
  0
POINT
  5
84DF
  8
DEFPOINTS
  6
BYBLOCK
 62
     0
 10
3530.0820121098709
 20
2682.7713201171368
 30
0.0
  0
POINT
  5
84E0
  8
DEFPOINTS
  6
BYBLOCK
 62
     0
 10
3530.0820121098709
 20
2754.5434541188702
 30
0.0
  0
ENDBLK
  5
84E1
  8
0
  0
BLOCK
  8
0
  2
*D7
 70
     1
 10
0.0
 20
0.0
 30
0.0
  3
*D7
  1

  0
LINE
  5
87DE
  8
0
  6
BYBLOCK
 62
     2
 10
3530.0820121098709
 20
2830.7792032095331
 30
0.0
 11
3530.0820121098709
 21
2902.551337211265
 31
0.0
  0
LINE
  5
87DF
  8
0
  6
BYBLOCK
 62
     2
 10
2658.1417737603601
 20
2289.4085622266098
 30
0.0
 11
2658.1417737603601
 21
2902.551337211265
 31
0.0
  0
LINE
  5
87E0
  8
0
  6
BYBLOCK
 62
     2
 10
3490.0820121098709
 20
2882.551337211265
 30
0.0
 11
2698.1417737603601
 21
2882.551337211265
 31
0.0
  0
INSERT
  5
87E1
  8
0
  6
BYBLOCK
 62
     2
  2
_OPEN
 10
3530.0820121098709
 20
2882.551337211265
 30
0.0
 41
40.0
 42
40.0
 43
40.0
  0
INSERT
  5
87E2
  8
0
  6
BYBLOCK
 62
     2
  2
_OPEN
 10
2658.1417737603601
 20
2882.551337211265
 30
0.0
 41
40.0
 42
40.0
 43
40.0
 50
180.0
  0
INSERT
  5
87E3
  8
3
  2
*U22
 10
0.0
 20
0.0
 30
0.0
  0
POINT
  5
87E4
  8
DEFPOINTS
  6
BYBLOCK
 62
     0
 10
3530.0820121098709
 20
2810.7792032095331
 30
0.0
  0
POINT
  5
87E5
  8
DEFPOINTS
  6
BYBLOCK
 62
     0
 10
2658.1417737603601
 20
2269.4085622266098
 30
0.0
  0
POINT
  5
87E6
  8
DEFPOINTS
  6
BYBLOCK
 62
     0
 10
2658.1417737603601
 20
2882.551337211265
 30
0.0
  0
ENDBLK
  5
87E7
  8
0
  0
BLOCK
  8
0
  2
*D8
 70
     1
 10
0.0
 20
0.0
 30
0.0
  3
*D8
  1

  0
LINE
  5
87CA
  8
0
  6
BYBLOCK
 62
     2
 10
3766.882012109872
 20
2329.7085622266109
 30
0.0
 11
3956.9552185816392
 21
2329.7085622266109
 31
0.0
  0
LINE
  5
87CB
  8
0
  6
BYBLOCK
 62
     2
 10
3766.882012109872
 20
1829.7085622266111
 30
0.0
 11
3956.9552185816392
 21
1829.7085622266111
 31
0.0
  0
LINE
  5
87CC
  8
0
  6
BYBLOCK
 62
     2
 10
3936.9552185816392
 20
2289.70856222661
 30
0.0
 11
3936.9552185816392
 21
1869.7085622266111
 31
0.0
  0
INSERT
  5
87CD
  8
0
  6
BYBLOCK
 62
     2
  2
_OPEN
 10
3936.9552185816392
 20
2329.7085622266109
 30
0.0
 41
40.0
 42
40.0
 43
40.0
 50
90.0
  0
INSERT
  5
87CE
  8
0
  6
BYBLOCK
 62
     2
  2
_OPEN
 10
3936.9552185816392
 20
1829.7085622266111
 30
0.0
 41
40.0
 42
40.0
 43
40.0
 50
270.0
  0
TEXT
  5
87CF
  8
3
 62
     2
 10
3926.9552185816392
 20
1972.5657050837531
 30
0.0
 40
60.0
  1
φ500
 50
90.0
  0
POINT
  5
87D0
  8
DEFPOINTS
  6
BYBLOCK
 62
     0
 10
3746.8820121098711
 20
2329.7085622266109
 30
0.0
  0
POINT
  5
87D1
  8
DEFPOINTS
  6
BYBLOCK
 62
     0
 10
3746.8820121098711
 20
1829.7085622266111
 30
0.0
  0
POINT
  5
87D2
  8
DEFPOINTS
  6
BYBLOCK
 62
     0
 10
3936.9552185816392
 20
1829.7085622266111
 30
0.0
  0
ENDBLK
  5
87D3
  8
0
  0
BLOCK
  8
0
  2
*D9
 70
     1
 10
0.0
 20
0.0
 30
0.0
  3
*D9
  1

  0
LINE
  5
84AC
  8
0
  6
BYBLOCK
 62
     2
 10
1678.1862985040279
 20
1951.7006791342151
 30
0.0
 11
1913.1621242338911
 21
1951.7006791342151
 31
0.0
  0
LINE
  5
84AD
  8
0
  6
BYBLOCK
 62
     2
 10
1636.833722037087
 20
2489.7006791342151
 30
0.0
 11
1913.1621242338911
 21
2489.7006791342151
 31
0.0
  0
LINE
  5
84AE
  8
0
  6
BYBLOCK
 62
     2
 10
1893.1621242338911
 20
1991.7006791342151
 30
0.0
 11
1893.1621242338911
 21
2449.7006791342151
 31
0.0
  0
INSERT
  5
84AF
  8
0
  6
BYBLOCK
 62
     2
  2
_OPEN
 10
1893.1621242338911
 20
1951.7006791342151
 30
0.0
 41
40.0
 42
40.0
 43
40.0
 50
270.0
  0
INSERT
  5
84B0
  8
0
  6
BYBLOCK
 62
     2
  2
_OPEN
 10
1893.1621242338911
 20
2489.7006791342151
 30
0.0
 41
40.0
 42
40.0
 43
40.0
 50
90.0
  0
TEXT
  5
84B1
  8
3
 62
     2
 10
1883.1621242338911
 20
2143.5578219913568
 30
0.0
 40
60.0
  1
538
 50
90.0
  0
POINT
  5
84B2
  8
DEFPOINTS
  6
BYBLOCK
 62
     0
 10
1658.1862985040279
 20
1951.7006791342151
 30
0.0
  0
POINT
  5
84B3
  8
DEFPOINTS
  6
BYBLOCK
 62
     0
 10
1616.8337220370861
 20
2489.7006791342151
 30
0.0
  0
POINT
  5
84B4
  8
DEFPOINTS
  6
BYBLOCK
 62
     0
 10
1893.1621242338911
 20
2489.7006791342151
 30
0.0
  0
ENDBLK
  5
84B5
  8
0
  0
BLOCK
  8
0
  2
*D10
 70
     1
 10
0.0
 20
0.0
 30
0.0
  3
*D10
  1

  0
LINE
  5
84A1
  8
0
  6
BYBLOCK
 62
     2
 10
1678.1862985040279
 20
1951.7006791342151
 30
0.0
 11
1913.1621242338911
 21
1951.7006791342151
 31
0.0
  0
LINE
  5
84A2
  8
0
  6
BYBLOCK
 62
     2
 10
1526.8337220370861
 20
1501.7006791342151
 30
0.0
 11
1913.1621242338911
 21
1501.7006791342151
 31
0.0
  0
LINE
  5
84A3
  8
0
  6
BYBLOCK
 62
     2
 10
1893.1621242338911
 20
1911.7006791342151
 30
0.0
 11
1893.1621242338911
 21
1541.7006791342151
 31
0.0
  0
INSERT
  5
84A4
  8
0
  6
BYBLOCK
 62
     2
  2
_OPEN
 10
1893.1621242338911
 20
1951.7006791342151
 30
0.0
 41
40.0
 42
40.0
 43
40.0
 50
90.0
  0
INSERT
  5
84A5
  8
0
  6
BYBLOCK
 62
     2
  2
_OPEN
 10
1893.1621242338911
 20
1501.7006791342151
 30
0.0
 41
40.0
 42
40.0
 43
40.0
 50
270.0
  0
TEXT
  5
84A6
  8
3
 62
     2
 10
1883.1621242338911
 20
1649.557821991358
 30
0.0
 40
60.0
  1
450
 50
90.0
  0
POINT
  5
84A7
  8
DEFPOINTS
  6
BYBLOCK
 62
     0
 10
1658.1862985040279
 20
1951.7006791342151
 30
0.0
  0
POINT
  5
84A8
  8
DEFPOINTS
  6
BYBLOCK
 62
     0
 10
1506.8337220370861
 20
1501.7006791342151
 30
0.0
  0
POINT
  5
84A9
  8
DEFPOINTS
  6
BYBLOCK
 62
     0
 10
1893.1621242338911
 20
1501.7006791342151
 30
0.0
  0
ENDBLK
  5
84AA
  8
0
  0
BLOCK
  8
0
  2
_DOT
 70
     0
 10
0.0
 20
0.0
 30
0.0
  3
_DOT
  1

  0
LINE
  5
87D4
  8
0
  6
BYBLOCK
 62
     0
 10
0.0
 20
0.0
 30
0.0
 11
-1.0
 21
-0.0000000000000284
 31
0.0
  0
POLYLINE
  5
87D5
  8
0
  6
BYBLOCK
 62
     0
 66
     1
 10
0.0
 20
0.0
 30
0.0
 70
     1
 40
0.1666666666666666
 41
0.1666666666666666
  0
VERTEX
  5
88EB
  8
0
  6
BYBLOCK
 62
     0
 10
-0.0833333333333286
 20
-0.0000000000000284
 30
0.0
 42
1.0
  0
VERTEX
  5
88EC
  8
0
  6
BYBLOCK
 62
     0
 10
0.0833333333333286
 20
-0.0000000000000284
 30
0.0
 42
1.0
  0
SEQEND
  5
88ED
  8
0
  6
BYBLOCK
 62
     0
  0
ENDBLK
  5
85DF
  8
0
  0
BLOCK
  8
0
  2
*D12
 70
     1
 10
0.0
 20
0.0
 30
0.0
  3
*D12
  1

  0
LINE
  5
88BF
  8
3
 62
     2
 10
2012.8212570244159
 20
2669.3137451899138
 30
0.0
 11
2012.8212570244159
 21
2928.6160614468281
 31
0.0
  0
LINE
  5
88C0
  8
3
 62
     2
 10
822.82125702441579
 20
1724.70856222661
 30
0.0
 11
822.82125702441601
 21
2928.6160614468281
 31
0.0
  0
LINE
  5
88C1
  8
3
 62
     2
 10
1972.8212570244159
 20
2908.6160614468281
 30
0.0
 11
862.82125702441601
 21
2908.6160614468281
 31
0.0
  0
INSERT
  5
88C2
  8
3
 62
     2
  2
_OPEN
 10
2012.8212570244159
 20
2908.6160614468281
 30
0.0
 41
40.0
 42
40.0
 43
40.0
  0
INSERT
  5
88C3
  8
3
 62
     2
  2
_OPEN
 10
822.82125702441601
 20
2908.6160614468281
 30
0.0
 41
40.0
 42
40.0
 43
40.0
 50
180.0
  0
TEXT
  8
3
  40
60
  5
8920
  62
2
  72
0
  71
0
 10
1297.82
 20
2842.42
 30
0.000000
  1
1190
  0
POINT
  5
88C5
  8
DEFPOINTS
 62
     0
 10
2012.8212570244159
 20
2649.3137451899138
 30
0.0
  0
POINT
  5
88C6
  8
DEFPOINTS
 62
     0
 10
822.82125702441579
 20
1704.7085622266111
 30
0.0
  0
POINT
  5
88C7
  8
DEFPOINTS
 62
     0
 10
822.82125702441601
 20
2908.6160614468281
 30
0.0
  0
ENDBLK
  5
874D
  8
0
  0
BLOCK
  8
0
  2
*D13
 70
     1
 10
0.0
 20
0.0
 30
0.0
  3
*D13
  1

  0
LINE
  5
88C8
  8
3
 62
     2
 10
1902.8212570244159
 20
4370.205086297864
 30
0.0
 11
1902.8212570244159
 21
4496.3512052142569
 31
0.0
  0
LINE
  5
88C9
  8
3
 62
     2
 10
1402.8212570244159
 20
4370.205086297864
 30
0.0
 11
1402.8212570244159
 21
4496.3512052142569
 31
0.0
  0
LINE
  5
88CA
  8
3
 62
     2
 10
1862.8212570244159
 20
4476.3512052142578
 30
0.0
 11
1442.8212570244159
 21
4476.3512052142578
 31
0.0
  0
INSERT
  5
88CB
  8
3
 62
     2
  2
_OPEN
 10
1902.8212570244159
 20
4476.3512052142578
 30
0.0
 41
40.0
 42
40.0
 43
40.0
  0
INSERT
  5
88CC
  8
3
 62
     2
  2
_OPEN
 10
1402.8212570244159
 20
4476.3512052142578
 30
0.0
 41
40.0
 42
40.0
 43
40.0
 50
180.0
  0
TEXT
  8
3
  40
60
  5
8921
  62
2
  72
0
  71
0
 10
1532.82
 20
4410.15
 30
0.000000
  1
500
  0
POINT
  5
88CE
  8
DEFPOINTS
 62
     0
 10
1902.8212570244159
 20
4350.205086297864
 30
0.0
  0
POINT
  5
88CF
  8
DEFPOINTS
 62
     0
 10
1402.8212570244159
 20
4350.205086297864
 30
0.0
  0
POINT
  5
88D0
  8
DEFPOINTS
 62
     0
 10
1402.8212570244159
 20
4476.3512052142578
 30
0.0
  0
ENDBLK
  5
8795
  8
0
  0
BLOCK
  8
0
  2
*D14
 70
     1
 10
0.0
 20
0.0
 30
0.0
  3
*D14
  1

  0
LINE
  5
88D1
  8
3
 62
     2
 10
822.82125702441579
 20
3930.2050862978631
 30
0.0
 11
822.82125702441579
 21
4496.3512052142569
 31
0.0
  0
LINE
  5
88D2
  8
3
 62
     2
 10
1362.8212570244159
 20
4476.3512052142578
 30
0.0
 11
862.82125702441579
 21
4476.3512052142578
 31
0.0
  0
INSERT
  5
88D3
  8
3
 62
     2
  2
_OPEN
 10
1402.8212570244159
 20
4476.3512052142578
 30
0.0
 41
40.0
 42
40.0
 43
40.0
  0
INSERT
  5
88D4
  8
3
 62
     2
  2
_OPEN
 10
822.82125702441579
 20
4476.3512052142578
 30
0.0
 41
40.0
 42
40.0
 43
40.0
 50
180.0
  0
TEXT
  8
3
  40
60
  5
8922
  62
2
  72
0
  71
0
 10
992.821
 20
4410.15
 30
0.000000
  1
580
  0
POINT
  5
88D6
  8
DEFPOINTS
 62
     0
 10
1402.8212570244159
 20
4350.205086297864
 30
0.0
  0
POINT
  5
88D7
  8
DEFPOINTS
 62
     0
 10
822.82125702441579
 20
3910.2050862978622
 30
0.0
  0
POINT
  5
88D8
  8
DEFPOINTS
 62
     0
 10
822.82125702441579
 20
4476.3512052142578
 30
0.0
  0
ENDBLK
  5
87A1
  8
0
  0
BLOCK
  8
0
  2
*D15
 70
     1
 10
0.0
 20
0.0
 30
0.0
  3
*D15
  1

  0
LINE
  5
88D9
  8
3
 62
     2
 10
802.8212570244159
 20
3910.2050862978622
 30
0.0
 11
649.81114168210854
 21
3910.2050862978622
 31
0.0
  0
LINE
  5
88DA
  8
3
 62
     2
 10
802.8212570244159
 20
3350.2050862978631
 30
0.0
 11
649.81114168210843
 21
3350.2050862978631
 31
0.0
  0
LINE
  5
88DB
  8
3
 62
     2
 10
669.81114168210854
 20
3870.2050862978631
 30
0.0
 11
669.81114168210843
 21
3390.2050862978631
 31
0.0
  0
INSERT
  5
88DC
  8
3
 62
     2
  2
_OPEN
 10
669.81114168210854
 20
3910.2050862978622
 30
0.0
 41
40.0
 42
40.0
 43
40.0
 50
90.0
  0
INSERT
  5
88DD
  8
3
 62
     2
  2
_OPEN
 10
669.81114168210843
 20
3350.2050862978631
 30
0.0
 41
40.0
 42
40.0
 43
40.0
 50
270.0
  0
TEXT
  8
3
  40
60
  5
8923
  62
2
  72
0
  71
0
 10
509.811
 20
3524.01
 30
0.000000
  1
560
  0
POINT
  5
88DF
  8
DEFPOINTS
 62
     0
 10
822.82125702441579
 20
3910.2050862978622
 30
0.0
  0
POINT
  5
88E0
  8
DEFPOINTS
 62
     0
 10
822.82125702441579
 20
3350.2050862978631
 30
0.0
  0
POINT
  5
88E1
  8
DEFPOINTS
 62
     0
 10
669.81114168210843
 20
3350.2050862978631
 30
0.0
  0
ENDBLK
  5
87AE
  8
0
  0
BLOCK
  8
0
  2
*D16
 70
     1
 10
0.0
 20
0.0
 30
0.0
  3
*D16
  1

  0
LINE
  5
88E2
  8
3
 62
     2
 10
1922.8212570244159
 20
4350.205086297864
 30
0.0
 11
2210.0375467325748
 21
4350.2050862978631
 31
0.0
  0
LINE
  5
88E3
  8
3
 62
     2
 10
1922.8212570244159
 20
3350.2050862978631
 30
0.0
 11
2210.0375467325748
 21
3350.2050862978631
 31
0.0
  0
LINE
  5
88E4
  8
3
 62
     2
 10
2190.0375467325748
 20
4310.2050862978622
 30
0.0
 11
2190.0375467325748
 21
3390.2050862978631
 31
0.0
  0
INSERT
  5
88E5
  8
3
 62
     2
  2
_OPEN
 10
2190.0375467325748
 20
4350.2050862978631
 30
0.0
 41
40.0
 42
40.0
 43
40.0
 50
90.0
  0
INSERT
  5
88E6
  8
3
 62
     2
  2
_OPEN
 10
2190.0375467325748
 20
3350.2050862978631
 30
0.0
 41
40.0
 42
40.0
 43
40.0
 50
270.0
  0
TEXT
  8
3
  40
60
  5
8924
  62
2
  72
0
  71
0
 10
2030.04
 20
3744.01
 30
0.000000
  1
1000
  0
POINT
  5
88E8
  8
DEFPOINTS
 62
     0
 10
1902.8212570244159
 20
4350.205086297864
 30
0.0
  0
POINT
  5
88E9
  8
DEFPOINTS
 62
     0
 10
1902.8212570244159
 20
3350.2050862978631
 30
0.0
  0
POINT
  5
88EA
  8
DEFPOINTS
 62
     0
 10
2190.0375467325748
 20
3350.2050862978631
 30
0.0
  0
ENDBLK
  5
87C7
  8
0
  0
BLOCK
  8
0
  2
*D17
 70
     1
 10
0.0
 20
0.0
 30
0.0
  3
*D17
  1

  0
LINE
  5
88F3
  8
3
 62
     2
 10
822.82125702441579
 20
1609.7085622266111
 30
0.0
 11
822.82125702441579
 21
1442.5106118037399
 31
0.0
  0
LINE
  5
88F4
  8
3
 62
     2
 10
1652.8212570244159
 20
1609.7085622266111
 30
0.0
 11
1652.8212570244159
 21
1442.5106118037399
 31
0.0
  0
LINE
  5
88F5
  8
3
 62
     2
 10
862.82125702441579
 20
1462.5106118037399
 30
0.0
 11
1612.8212570244159
 21
1462.5106118037399
 31
0.0
  0
INSERT
  5
88F6
  8
3
 62
     2
  2
_OPEN
 10
822.82125702441579
 20
1462.5106118037399
 30
0.0
 41
40.0
 42
40.0
 43
40.0
 50
180.0
  0
INSERT
  5
88F7
  8
3
 62
     2
  2
_OPEN
 10
1652.8212570244159
 20
1462.5106118037399
 30
0.0
 41
40.0
 42
40.0
 43
40.0
  0
TEXT
  8
3
  40
60
  5
8925
  62
2
  72
0
  71
0
 10
1117.82
 20
1396.31
 30
0.000000
  1
830
  0
POINT
  5
88F9
  8
DEFPOINTS
 62
     0
 10
822.82125702441579
 20
1629.70856222661
 30
0.0
  0
POINT
  5
88FA
  8
DEFPOINTS
 62
     0
 10
1652.8212570244159
 20
1629.70856222661
 30
0.0
  0
POINT
  5
88FB
  8
DEFPOINTS
 62
     0
 10
1652.8212570244159
 20
1462.5106118037399
 30
0.0
  0
ENDBLK
  5
8857
  8
0
  0
BLOCK
  8
0
  2
*D18
 70
     1
 10
0.0
 20
0.0
 30
0.0
  3
*D18
  1

  0
LINE
  5
88FC
  8
3
 62
     2
 10
1652.8212570244159
 20
1609.7085622266111
 30
0.0
 11
1652.8212570244159
 21
1442.5106118037399
 31
0.0
  0
LINE
  5
88FD
  8
3
 62
     2
 10
1902.8212570244159
 20
1609.7085622266111
 30
0.0
 11
1902.8212570244159
 21
1442.5106118037399
 31
0.0
  0
LINE
  5
88FE
  8
3
 62
     2
 10
1692.8212570244159
 20
1462.5106118037399
 30
0.0
 11
1862.8212570244159
 21
1462.5106118037399
 31
0.0
  0
INSERT
  5
88FF
  8
3
 62
     2
  2
_OPEN
 10
1652.8212570244159
 20
1462.5106118037399
 30
0.0
 41
40.0
 42
40.0
 43
40.0
 50
180.0
  0
INSERT
  5
8900
  8
3
 62
     2
  2
_OPEN
 10
1902.8212570244159
 20
1462.5106118037399
 30
0.0
 41
40.0
 42
40.0
 43
40.0
  0
TEXT
  8
3
  40
60
  5
8926
  62
2
  72
0
  71
0
 10
1657.82
 20
1396.31
 30
0.000000
  1
250
  0
POINT
  5
8902
  8
DEFPOINTS
 62
     0
 10
1652.8212570244159
 20
1629.70856222661
 30
0.0
  0
POINT
  5
8903
  8
DEFPOINTS
 62
     0
 10
1902.8212570244159
 20
1629.70856222661
 30
0.0
  0
POINT
  5
8904
  8
DEFPOINTS
 62
     0
 10
1902.8212570244159
 20
1462.5106118037399
 30
0.0
  0
ENDBLK
  5
8866
  8
0
  0
BLOCK
  8
0
  2
*D19
 70
     1
 10
0.0
 20
0.0
 30
0.0
  3
*D19
  1

  0
LINE
  5
8905
  8
3
 62
     2
 10
2760.0820121098709
 20
1609.7085622266111
 30
0.0
 11
2760.0820121098709
 21
1442.5106118037399
 31
0.0
  0
LINE
  5
8906
  8
3
 62
     2
 10
3530.0820121098709
 20
1609.7085622266111
 30
0.0
 11
3530.0820121098709
 21
1442.5106118037399
 31
0.0
  0
LINE
  5
8907
  8
3
 62
     2
 10
2800.0820121098709
 20
1462.5106118037399
 30
0.0
 11
3490.0820121098709
 21
1462.5106118037399
 31
0.0
  0
INSERT
  5
8908
  8
3
 62
     2
  2
_OPEN
 10
2760.0820121098709
 20
1462.5106118037399
 30
0.0
 41
40.0
 42
40.0
 43
40.0
 50
180.0
  0
INSERT
  5
8909
  8
3
 62
     2
  2
_OPEN
 10
3530.0820121098709
 20
1462.5106118037399
 30
0.0
 41
40.0
 42
40.0
 43
40.0
  0
TEXT
  8
3
  40
60
  5
8927
  62
2
  72
0
  71
0
 10
3025.08
 20
1396.31
 30
0.000000
  1
770
  0
POINT
  5
890B
  8
DEFPOINTS
 62
     0
 10
2760.0820121098709
 20
1629.70856222661
 30
0.0
  0
POINT
  5
890C
  8
DEFPOINTS
 62
     0
 10
3530.0820121098709
 20
1629.70856222661
 30
0.0
  0
POINT
  5
890D
  8
DEFPOINTS
 62
     0
 10
3530.0820121098709
 20
1462.5106118037399
 30
0.0
  0
ENDBLK
  5
8873
  8
0
  0
BLOCK
  8
0
  2
*D20
 70
     1
 10
0.0
 20
0.0
 30
0.0
  3
*D20
  1

  0
LINE
  5
890E
  8
3
 62
     2
 10
3530.0820121098709
 20
1609.7085622266111
 30
0.0
 11
3530.0820121098709
 21
1442.5106118037399
 31
0.0
  0
LINE
  5
890F
  8
3
 62
     2
 10
3760.0820121098709
 20
1609.7085622266111
 30
0.0
 11
3760.0820121098709
 21
1442.5106118037399
 31
0.0
  0
LINE
  5
8910
  8
3
 62
     2
 10
3570.0820121098709
 20
1462.5106118037399
 30
0.0
 11
3720.0820121098709
 21
1462.5106118037399
 31
0.0
  0
INSERT
  5
8911
  8
3
 62
     2
  2
_OPEN
 10
3530.0820121098709
 20
1462.5106118037399
 30
0.0
 41
40.0
 42
40.0
 43
40.0
 50
180.0
  0
INSERT
  5
8912
  8
3
 62
     2
  2
_OPEN
 10
3760.0820121098709
 20
1462.5106118037399
 30
0.0
 41
40.0
 42
40.0
 43
40.0
  0
TEXT
  8
3
  40
60
  5
8928
  62
2
  72
0
  71
0
 10
3525.08
 20
1396.31
 30
0.000000
  1
230
  0
POINT
  5
8914
  8
DEFPOINTS
 62
     0
 10
3530.0820121098709
 20
1629.70856222661
 30
0.0
  0
POINT
  5
8915
  8
DEFPOINTS
 62
     0
 10
3760.0820121098709
 20
1629.70856222661
 30
0.0
  0
POINT
  5
8916
  8
DEFPOINTS
 62
     0
 10
3760.0820121098709
 20
1462.5106118037399
 30
0.0
  0
ENDBLK
  5
8882
  8
0
  0
BLOCK
  8
0
  2
*D21
 70
     1
 10
0.0
 20
0.0
 30
0.0
  3
*D21
  1

  0
LINE
  5
8917
  8
3
 62
     2
 10
2032.821257024415
 20
2649.3137451899138
 30
0.0
 11
2453.4662351676161
 21
2649.3137451899138
 31
0.0
  0
LINE
  5
8918
  8
3
 62
     2
 10
1922.8212570244159
 20
1629.70856222661
 30
0.0
 11
2453.4662351676161
 21
1629.70856222661
 31
0.0
  0
LINE
  5
8919
  8
3
 62
     2
 10
2433.4662351676161
 20
2609.3137451899138
 30
0.0
 11
2433.4662351676161
 21
1669.7085622266111
 31
0.0
  0
INSERT
  5
891A
  8
3
 62
     2
  2
_OPEN
 10
2433.4662351676161
 20
2649.3137451899138
 30
0.0
 41
40.0
 42
40.0
 43
40.0
 50
90.0
  0
INSERT
  5
891B
  8
3
 62
     2
  2
_OPEN
 10
2433.4662351676161
 20
1629.70856222661
 30
0.0
 41
40.0
 42
40.0
 43
40.0
 50
270.0
  0
TEXT
  8
3
  40
60
  5
8929
  62
2
  72
0
  71
0
 10
2273.47
 20
2033.31
 30
0.000000
  1
1020
  0
POINT
  5
891D
  8
DEFPOINTS
 62
     0
 10
2012.8212570244159
 20
2649.3137451899138
 30
0.0
  0
POINT
  5
891E
  8
DEFPOINTS
 62
     0
 10
1902.8212570244159
 20
1629.70856222661
 30
0.0
  0
POINT
  5
891F
  8
DEFPOINTS
 62
     0
 10
2433.4662351676161
 20
1629.70856222661
 30
0.0
  0
ENDBLK
  5
889C
  8
0
  0
BLOCK
  8
0
  2
*U22
 70
     1
 10
0.0
 20
0.0
 30
0.0
  3
*U22
  1

  0
TEXT
  5
88EF
  8
3
 62
     2
 10
3008.3976072208302
 20
2992.551337211265
 30
0.0
 40
60.0
  1
MAX
  0
TEXT
  5
88F0
  8
3
 62
     2
 10
3016.9690357922582
 20
2892.551337211265
 30
0.0
 40
60.0
  1
930
  0
ENDBLK
  5
88F2
  8
0
  0
ENDSEC
  0
SECTION
  2
ENTITIES
  0
INSERT
  5
8166
  8
0
  2
YA_N
 10
6.0
 20
5.0
 30
0.0
  0
INSERT
  5
8167
  8
0
  2
YA_N
 10
6.0
 20
5.0
 30
0.0
  0
INSERT
  5
8168
  8
0
  2
YA_N
 10
6.0
 20
5.0
 30
0.0
  0
INSERT
  5
8169
  8
0
  2
YA_N
 10
6.0
 20
5.0
 30
0.0
  0
INSERT
  5
816A
  8
0
  2
YA_N
 10
6.0
 20
5.0
 30
0.0
  0
LINE
  5
816B
  8
1
 10
2790.0820121098709
 20
2019.7085622266111
 30
0.0
 11
3275.0820121098718
 21
2019.7085622266111
 31
0.0
  0
LINE
  5
816C
  8
1
 10
2796.8820121098711
 20
2016.508562226611
 30
0.0
 11
2796.8820121098729
 21
1747.1653575807479
 31
0.0
  0
LINE
  5
816D
  8
1
 10
2795.0820121098709
 20
1704.7085622266111
 30
0.0
 11
3760.0820121098709
 21
1704.70856222661
 31
0.0
  0
LINE
  5
816E
  8
1
 10
2795.0820121098709
 20
1629.70856222661
 30
0.0
 11
3760.0820121098709
 21
1629.70856222661
 31
0.0
  0
LINE
  5
8170
  8
1
 10
822.82125702441579
 20
1629.70856222661
 30
0.0
 11
822.82125702441579
 21
1704.7085622266111
 31
0.0
  0
LINE
  5
8171
  8
1
 10
1902.8212570244159
 20
1629.70856222661
 30
0.0
 11
1902.8212570244159
 21
1704.7085622266111
 31
0.0
  0
LINE
  5
8172
  8
1
 10
1430.8212570244359
 20
1704.7085622266111
 30
0.0
 11
1430.821257024415
 21
2016.5085622266099
 31
0.0
  0
LINE
  5
8173
  8
1
 10
1874.821257024415
 20
1704.7085622266111
 30
0.0
 11
1874.821257024415
 21
2016.508562226611
 31
0.0
  0
LINE
  5
8174
  8
1
 10
1420.8212570244159
 20
2019.7085622266111
 30
0.0
 11
1884.821257024415
 21
2019.7085622266111
 31
0.0
  0
LINE
  5
8175
  8
1
 10
1902.8212570244159
 20
1629.70856222661
 30
0.0
 11
822.82125702441579
 21
1629.70856222661
 31
0.0
  0
INSERT
  5
8176
  8
0
  2
YA_N
 10
6285.3947994874952
 20
6170.1179297020417
 30
0.0
  0
INSERT
  5
8177
  8
0
  2
YA_N
 10
9310.6143563453425
 20
8479.3824956818644
 30
0.0
  0
INSERT
  5
8178
  8
0
  2
YA_N
 10
6566.5323200881021
 20
7938.1589708423153
 30
0.0
  0
INSERT
  5
8179
  8
0
  2
YA_N
 10
9396.3261307456396
 20
6429.6268749438577
 30
0.0
  0
INSERT
  5
817A
  8
0
  2
YA_N
 10
120.0
 20
100.0
 30
0.0
 41
20.0
 42
20.0
 43
20.0
  0
LINE
  5
817D
  8
1
 10
3721.8820121098711
 20
1829.7085622266111
 30
0.0
 11
3746.8820121098711
 21
1829.7085622266111
 31
0.0
  0
LINE
  5
817E
  8
1
 10
3746.8820121098711
 20
1829.7085622266111
 30
0.0
 11
3746.8820121098711
 21
1828.70856222661
 31
0.0
  0
ARC
  5
817F
  8
1
 10
3744.8820121098711
 20
1828.70856222661
 30
0.0
 40
2.0
 50
270.0
 51
0.0
  0
LINE
  5
8180
  8
1
 10
3744.8820121098711
 20
1826.7085622266111
 30
0.0
 11
3728.8820121098711
 21
1826.7085622266111
 31
0.0
  0
ARC
  5
8181
  8
1
 10
3728.8820121098711
 20
1822.70856222661
 30
0.0
 40
4.0
 50
90.0
 51
180.0
  0
LINE
  5
8182
  8
1
 10
3724.8820121098711
 20
1822.70856222661
 30
0.0
 11
3724.8820121098711
 21
1806.70856222661
 31
0.0
  0
ARC
  5
8183
  8
1
 10
3722.8820121098711
 20
1806.70856222661
 30
0.0
 40
2.0
 50
270.0
 51
0.0
  0
LINE
  5
8184
  8
1
 10
3722.8820121098711
 20
1804.70856222661
 30
0.0
 11
3721.8820121098711
 21
1804.70856222661
 31
0.0
  0
LINE
  5
8185
  8
1
 10
3721.8820121098711
 20
1804.70856222661
 30
0.0
 11
3721.8820121098711
 21
1829.7085622266111
 31
0.0
  0
INSERT
  5
8186
  8
0
  2
YA_N
 10
120.0
 20
100.0
 30
0.0
 41
20.0
 42
20.0
 43
20.0
  0
INSERT
  5
8189
  8
0
  2
YA_N
 10
120.0
 20
100.0
 30
0.0
 41
20.0
 42
20.0
 43
20.0
  0
INSERT
  5
818A
  8
0
  2
YA_N
 10
120.0
 20
100.0
 30
0.0
 41
20.0
 42
20.0
 43
20.0
  0
INSERT
  5
818B
  8
0
  2
YA_N
 10
120.0
 20
100.0
 30
0.0
 41
20.0
 42
20.0
 43
20.0
  0
LINE
  5
818E
  8
1
 10
1420.8212570244159
 20
2016.5085622266099
 30
0.0
 11
1420.8212570244159
 21
2019.70856222661
 31
0.0
  0
LINE
  5
818F
  8
1
 10
1884.821257024415
 20
2016.508562226611
 30
0.0
 11
1884.821257024415
 21
2019.7085622266111
 31
0.0
  0
LINE
  5
8190
  8
1
 10
2790.0820121098709
 20
2016.508562226611
 30
0.0
 11
3275.0820121098718
 21
2016.508562226611
 31
0.0
  0
LINE
  5
8191
  8
1
 10
3275.0820121098718
 20
2019.7085622266111
 30
0.0
 11
3275.0820121098718
 21
2016.508562226611
 31
0.0
  0
LINE
  5
8192
  8
1
 10
2790.0820121098709
 20
2019.7085622266111
 30
0.0
 11
2790.0820121098709
 21
2016.508562226611
 31
0.0
  0
LINE
  5
8193
  8
1
 10
3265.0820121098709
 20
2016.508562226611
 30
0.0
 11
3265.0820121098709
 21
1976.508562226611
 31
0.0
  0
LINE
  5
8194
  8
2
 10
1652.8212570244159
 20
1629.70856222661
 30
0.0
 11
1652.821257024415
 21
2663.8712515687798
 31
0.0
  0
LINE
  5
8195
  8
1
 10
3342.5820121098709
 20
2079.7085622266109
 30
0.0
 11
3342.5820121098709
 21
1704.7085622266111
 31
0.0
  0
LINE
  5
8196
  8
1
 10
3717.5820121098709
 20
2079.7085622266109
 30
0.0
 11
3717.5820121098709
 21
1704.7085622266111
 31
0.0
  0
LINE
  5
8197
  8
1
 10
3342.5820121098709
 20
2617.7085622266109
 30
0.0
 11
3342.5820121098709
 21
2079.70856222661
 31
0.0
  0
LINE
  5
8198
  8
1
 10
3717.5820121098709
 20
2617.7085622266109
 30
0.0
 11
3717.5820121098709
 21
2079.7085622266109
 31
0.0
  0
LINE
  5
8199
  8
1
 10
2009.8212570244159
 20
2649.3137451899129
 30
0.0
 11
2009.8212570244159
 21
2074.108562226611
 31
0.0
  0
LINE
  5
819A
  8
1
 10
2012.8212570244159
 20
2617.70856222661
 30
0.0
 11
2012.8212570244159
 21
2105.7085622266109
 31
0.0
  0
LINE
  5
819B
  8
1
 10
1946.900935417525
 20
2105.70856222661
 30
0.0
 11
2012.8212570244159
 21
2105.70856222661
 31
0.0
  0
LINE
  5
819C
  8
1
 10
2012.8212570244159
 20
2095.7085622266109
 30
0.0
 11
2012.8212570244159
 21
2627.7409557472561
 31
0.0
  0
LINE
  5
819D
  8
1
 10
3721.8820121098711
 20
1829.7085622266111
 30
0.0
 11
3721.8820121098711
 21
2073.70856222661
 31
0.0
  0
LINE
  5
819E
  8
1
 10
3724.8820121098711
 20
2073.70856222661
 30
0.0
 11
3724.8820121098711
 21
1822.70856222661
 31
0.0
  0
LINE
  5
819F
  8
1
 10
3721.8820121098711
 20
2073.70856222661
 30
0.0
 11
3721.8820121098711
 21
2074.108562226611
 31
0.0
  0
LINE
  5
81A0
  8
1
 10
2012.8212570244159
 20
2617.70856222661
 30
0.0
 11
1652.821257024415
 21
2588.7085622266109
 31
0.0
  0
ARC
  5
81A1
  8
1
 10
1689.8212570244159
 20
2116.70856222661
 30
0.0
 40
473.44799080786078
 50
94.48224037042489
 51
180.0
  0
ARC
  5
81A2
  8
1
 10
1615.8212570244159
 20
2116.7085622266109
 30
0.0
 40
399.44799080786061
 50
180.0
 51
275.04245106917091
  0
ARC
  5
81A3
  8
1
 10
1621.821257024415
 20
2048.7085622266109
 30
0.0
 40
331.18379814435627
 50
275.04245106917091
 51
359.99999999999989
  0
ARC
  5
81A4
  8
1
 10
1683.821257024415
 20
2048.7085622266118
 30
0.0
 40
269.18379814435679
 50
359.99999999999972
 51
32.986690474820392
  0
LINE
  5
81A5
  8
2
 10
3530.0820121098709
 20
2732.9914970773202
 30
0.0
 11
3530.0820121098709
 21
1629.70856222661
 31
0.0
  0
LINE
  5
81A6
  8
2
 10
2635.1891102899908
 20
2079.7085622266109
 30
0.0
 11
3773.9582719499872
 21
2079.7085622266109
 31
0.0
1001
ACAD
1000
ASC_BOUNDS
1002
{
1070
    19
1002
}
  0
LINE
  5
81A7
  8
1
 10
1982.821257024415
 20
2649.3137451899138
 30
0.0
 11
1982.821257024415
 21
2074.108562226611
 31
0.0
  0
LINE
  5
81A8
  8
1
 10
1982.821257024415
 20
2074.108562226611
 30
0.0
 11
2012.8212570244159
 21
2074.108562226611
 31
0.0
  0
LINE
  5
81A9
  8
1
 10
2012.8212570244159
 20
2074.108562226611
 30
0.0
 11
2012.8212570244159
 21
2649.3137451899138
 31
0.0
  0
LINE
  5
81AA
  8
1
 10
2012.8212570244159
 20
2649.3137451899138
 30
0.0
 11
1982.821257024415
 21
2649.3137451899138
 31
0.0
  0
ARC
  5
81AB
  8
1
 10
1945.8212570244159
 20
2227.7085622266109
 30
0.0
 40
49.0
 50
69.235050723263555
 51
224.31750806242439
  0
LINE
  5
81AC
  8
1
 10
2012.8212570244159
 20
2254.70856222661
 30
0.0
 11
1963.19347280337
 21
2273.52565640476
 31
0.0
  0
LINE
  5
81AD
  8
1
 10
1902.8212570244159
 20
1629.70856222661
 30
0.0
 11
822.82125702441579
 21
1629.70856222661
 31
0.0
  0
LINE
  5
81AE
  8
1
 10
2760.0820121098709
 20
1629.70856222661
 30
0.0
 11
3760.0820121098709
 21
1629.70856222661
 31
0.0
  0
LINE
  5
81AF
  8
1
 10
3721.8820121098711
 20
1804.70856222661
 30
0.0
 11
3717.5820121098709
 21
1804.70856222661
 31
0.0
  0
LINE
  5
81B0
  8
1
 10
1884.821257024415
 20
2016.5085622266099
 30
0.0
 11
1420.8212570244159
 21
2016.5085622266099
 31
0.0
  0
POINT
  5
81B1
  8
1
 10
2012.8212570244159
 20
2619.3137451899138
 30
0.0
  0
POINT
  5
81B2
  8
1
 10
2012.8212570244159
 20
2617.70856222661
 30
0.0
  0
POINT
  5
81B3
  8
1
 10
2760.0820121098709
 20
1704.7085622266111
 30
0.0
  0
POINT
  5
81B4
  8
1
 10
3721.8820121098711
 20
2354.7085622266109
 30
0.0
  0
LINE
  5
81B5
  8
1
 10
3265.0820121098709
 20
2016.508562226611
 30
0.0
 11
3265.0820121098718
 21
1704.7085622266111
 31
0.0
  0
LINE
  5
81B6
  8
1
 10
3746.8820121098711
 20
1829.7085622266111
 30
0.0
 11
3746.8820121098711
 21
1828.70856222661
 31
0.0
  0
INSERT
  5
81B7
  8
0
  2
YA_N
 10
578.29819496493474
 20
667.15974685678236
 30
0.0
  0
INSERT
  5
81B8
  8
0
  2
YA_N
 10
578.29819496493474
 20
667.15974685678236
 30
0.0
  0
INSERT
  5
81B9
  8
0
  2
YA_N
 10
578.29819496493474
 20
667.15974685678236
 30
0.0
  0
INSERT
  5
81BA
  8
0
  2
YA_N
 10
578.29819496493474
 20
667.15974685678236
 30
0.0
  0
INSERT
  5
81BB
  8
0
  2
YA_N
 10
2798.551811518767
 20
1662.02584223804
 30
0.0
  0
INSERT
  5
81BD
  8
0
  2
YA_N
 10
3145.897131625954
 20
1825.850693409124
 30
0.0
 41
3.191404879447199
 42
3.191404879447199
 43
3.191404879447199
  0
LINE
  5
81BE
  8
1
 10
3746.8820121098711
 20
1829.7085622266111
 30
0.0
 11
3746.8820121098711
 21
2329.7085622266109
 31
0.0
  0
INSERT
  5
81BF
  8
0
  2
YA_N
 10
18.0
 20
4050.5577889263582
 30
0.0
  0
INSERT
  5
81C0
  8
0
  2
YA_N
 10
18.0
 20
4050.5577889263582
 30
0.0
  0
INSERT
  5
81C1
  8
0
  2
YA_N
 10
18.0
 20
4050.5577889263582
 30
0.0
  0
INSERT
  5
81C2
  8
0
  2
YA_N
 10
10018.0
 20
14050.55778892635
 30
0.0
  0
INSERT
  5
81C3
  8
0
  2
YA_N
 10
10018.0
 20
14050.55778892635
 30
0.0
  0
INSERT
  5
81C4
  8
0
  2
YA_N
 10
10018.0
 20
14050.55778892635
 30
0.0
  0
INSERT
  5
81C5
  8
0
  2
YA_N
 10
10018.0
 20
14050.55778892635
 30
0.0
  0
INSERT
  5
81C6
  8
0
  6
BYBLOCK
 62
     2
  2
YA_N
 10
3183.088503818366
 20
1711.274344822353
 30
0.0
 41
24.0
 42
24.0
 43
24.0
 50
270.0
  0
INSERT
  5
81C7
  8
0
  6
BYBLOCK
 62
     2
  2
YA_N
 10
3290.1059722385171
 20
1726.595643880431
 30
0.0
 41
24.0
 42
24.0
 43
24.0
 50
270.0
  0
LINE
  5
81C8
  8
1
 10
2705.08201210987
 20
2219.4085622266111
 30
0.0
 11
2705.0820121098732
 21
1940.0085622266099
 31
0.0
  0
LINE
  5
81C9
  8
1
 10
2745.0820121098709
 20
2098.70856222661
 30
0.0
 11
2775.0820121098709
 21
2098.70856222661
 31
0.0
1001
ACAD
1000
ASC_BOUNDS
1002
{
1070
    19
1002
}
  0
LINE
  5
81CA
  8
1
 10
2745.0820121098709
 20
2060.7085622266109
 30
0.0
 11
2775.0820121098709
 21
2060.7085622266109
 31
0.0
1001
ACAD
1000
ASC_BOUNDS
1002
{
1070
    19
1002
}
  0
LINE
  5
81CB
  8
1
 10
2775.0820121098709
 20
2102.20856222661
 30
0.0
 11
2775.0820121098709
 21
2057.20856222661
 31
0.0
  0
LINE
  5
81CC
  8
1
 10
2775.0820121098709
 20
2102.20856222661
 30
0.0
 11
3315.5820121098709
 21
2102.20856222661
 31
0.0
1001
ACAD
1000
ASC_BOUNDS
1002
{
1070
    19
1002
}
  0
LINE
  5
81CD
  8
1
 10
2775.0820121098709
 20
2057.20856222661
 30
0.0
 11
3342.5820121098709
 21
2057.20856222661
 31
0.0
1001
ACAD
1000
ASC_BOUNDS
1002
{
1070
    19
1002
}
  0
LINE
  5
81CE
  8
1
 10
2745.08201210987
 20
2219.4085622266111
 30
0.0
 11
2745.0820121098718
 21
1940.0085622266099
 31
0.0
  0
LINE
  5
81CF
  8
1
 10
2705.0820121098691
 20
2219.4085622266111
 30
0.0
 11
2745.08201210987
 21
2219.4085622266111
 31
0.0
1001
ACAD
1000
ASC_BOUNDS
1002
{
1070
    19
1002
}
  0
LINE
  5
81D0
  8
1
 10
2796.882012109872
 20
1770.70856222661
 30
0.0
 11
2796.882012109872
 21
1704.7085622266111
 31
0.0
  0
LINE
  5
81D1
  8
1
 10
2705.0820121098732
 20
1940.0085622266099
 30
0.0
 11
2705.0820121098732
 21
1811.7085622266111
 31
0.0
  0
LINE
  5
81D2
  8
1
 10
2745.0820121098718
 20
1940.0085622266099
 30
0.0
 11
2745.0820121098718
 21
1811.7085622266111
 31
0.0
  0
LINE
  5
81D3
  8
1
 10
2780.141773760361
 20
2207.4761927895902
 30
0.0
 11
2780.141773760361
 21
2269.4085622266111
 31
0.0
  0
LINE
  5
81D4
  8
1
 10
2780.141773760361
 20
2269.4085622266111
 30
0.0
 11
2658.1417737603601
 21
2269.4085622266111
 31
0.0
  0
LINE
  5
81D5
  8
1
 10
2658.1417737603601
 20
2269.4085622266111
 30
0.0
 11
2658.1417737603588
 21
1759.20856222661
 31
0.0
  0
CIRCLE
  5
81D6
  8
1
 10
1652.821257024415
 20
2079.7085622266109
 30
0.0
 40
139.69999999999999
  0
LINE
  5
81D7
  8
1
 10
2658.1417737603601
 20
1759.20856222661
 30
0.0
 11
2780.141773760361
 21
1759.20856222661
 31
0.0
  0
LINE
  5
81D8
  8
1
 10
2780.141773760361
 20
1802.772027466227
 30
0.0
 11
2780.141773760361
 21
1759.20856222661
 31
0.0
  0
LINE
  5
81D9
  8
1
 10
2658.1417737603601
 20
2269.4085622266098
 30
0.0
 11
2780.141773760361
 21
2269.4085622266098
 31
0.0
  0
INSERT
  5
81DA
  8
0
  6
BYBLOCK
 62
     2
  2
YA_N
 10
3220.312248982013
 20
845.60638416362042
 30
0.0
 41
24.0
 42
24.0
 43
24.0
 50
209.02222522655319
  0
LINE
  5
81DB
  8
1
 10
1430.8212570244179
 20
1976.5085622266099
 30
0.0
 11
1241.78562053982
 21
1976.5085622266099
 31
0.0
  0
LINE
  5
81DC
  8
1
 10
1874.821257024415
 20
1976.5085622266099
 30
0.0
 11
1945.0392456223919
 21
1976.5085622266099
 31
0.0
  0
LINE
  5
81DD
  8
1
 10
1874.821257024415
 20
1970.5085622266099
 30
0.0
 11
1943.6402560802851
 21
1970.5085622266099
 31
0.0
  0
LINE
  5
81DE
  8
1
 10
1430.821257024417
 20
1970.5085622266099
 30
0.0
 11
1244.089825261595
 21
1970.5085622266099
 31
0.0
  0
LINE
  5
81DF
  8
1
 10
3265.0820121098709
 20
1976.508562226611
 30
0.0
 11
3342.5820121098709
 21
1976.508562226611
 31
0.0
  0
LINE
  5
81E0
  8
1
 10
3265.0820121098709
 20
1976.508562226611
 30
0.0
 11
3265.0820121098709
 21
2016.508562226611
 31
0.0
  0
LINE
  5
81E1
  8
1
 10
3265.0820121098709
 20
2016.508562226611
 30
0.0
 11
3267.0820121098709
 21
2016.508562226611
 31
0.0
  0
LINE
  5
81E2
  8
1
 10
3265.0820121098709
 20
1970.5085622266099
 30
0.0
 11
3342.5820121098709
 21
1970.508562226611
 31
0.0
  0
INSERT
  5
81E3
  8
0
  2
YA_N
 10
1713.0203073866769
 20
330.47048422179881
 30
0.0
  0
INSERT
  5
81E7
  8
0
  6
BYBLOCK
 62
     2
  2
YA_N
 10
362.7872676876068
 20
442.62049533921049
 30
0.0
 41
24.0
 42
24.0
 43
24.0
 50
270.0
  0
POINT
  5
81E8
  8
1
 10
2012.8212570244159
 20
2617.70856222661
 30
0.0
  0
POINT
  5
81E9
  8
1
 10
2012.8212570244159
 20
2105.70856222661
 30
0.0
  0
POINT
  5
81EA
  8
1
 10
2012.8212570244159
 20
2617.70856222661
 30
0.0
  0
LINE
  5
81EB
  8
1
 10
3342.58201210987
 20
2617.7085622266109
 30
0.0
 11
3717.5820121098709
 21
2617.70856222661
 31
0.0
1001
ACAD
1000
ASC_BOUNDS
1002
{
1070
    19
1002
}
  0
LINE
  5
81EC
  8
1
 10
3315.5820121098709
 20
2642.7085622266109
 30
0.0
 11
3744.5820121098709
 21
2642.7085622266109
 31
0.0
1001
ACAD
1000
ASC_BOUNDS
1002
{
1070
    19
1002
}
  0
LINE
  5
81ED
  8
1
 10
3744.5820121098709
 20
2642.70856222661
 30
0.0
 11
3744.5820121098709
 21
2074.108562226611
 31
0.0
  0
LINE
  5
81EE
  8
1
 10
3315.5820121098709
 20
2642.70856222661
 30
0.0
 11
3315.5820121098709
 21
2074.108562226611
 31
0.0
1001
ACAD
1000
ASC_BOUNDS
1002
{
1070
    19
1002
}
  0
LINE
  5
81EF
  8
1
 10
3342.5820121098709
 20
2105.70856222661
 30
0.0
 11
3717.5820121098709
 21
2105.70856222661
 31
0.0
  0
LINE
  5
81F0
  8
1
 10
3315.5820121098709
 20
2074.108562226611
 30
0.0
 11
3744.5820121098709
 21
2074.108562226611
 31
0.0
  0
LINE
  5
81F1
  8
1
 10
3724.8820121098711
 20
2074.108562226611
 30
0.0
 11
3724.8820121098711
 21
2073.70856222661
 31
0.0
  0
LINE
  5
81F2
  8
1
 10
807.82125702441579
 20
1704.7085622266111
 30
0.0
 11
1157.821257024415
 21
1704.7085622266111
 31
0.0
  0
LINE
  5
81F4
  8
1
 10
807.82125702441579
 20
1704.7085622266111
 30
0.0
 11
807.82125702441579
 21
1749.7085622266111
 31
0.0
  0
LINE
  5
81F5
  8
1
 10
1157.821257024415
 20
1704.7085622266111
 30
0.0
 11
1157.821257024415
 21
1749.7085622266111
 31
0.0
  0
LINE
  5
81F6
  8
2
 10
2831.5440451148402
 20
1881.70856222661
 30
0.0
 11
2633.4895243368451
 21
1881.70856222661
 31
0.0
  0
LINE
  5
81F7
  8
1
 10
2705.0820121098718
 20
1951.7085622266111
 30
0.0
 11
2745.0820121098709
 21
1951.7085622266111
 31
0.0
  0
LINE
  5
81F8
  8
1
 10
2705.0820121098732
 20
1811.7085622266111
 30
0.0
 11
2745.0820121098718
 21
1811.7085622266111
 31
0.0
  0
LINE
  5
81F9
  8
1
 10
1752.8212570244159
 20
2019.7085622266111
 30
0.0
 11
1552.821257024415
 21
2019.7085622266111
 31
0.0
  0
LINE
  5
81FA
  8
1
 10
2877.5820121098709
 20
2019.7085622266111
 30
0.0
 11
2812.5820121098709
 21
2019.7085622266111
 31
0.0
  0
LINE
  5
81FB
  8
2
 10
808.76742519081006
 20
1881.70856222661
 30
0.0
 11
1156.4223357196381
 21
1881.70856222661
 31
0.0
  0
CIRCLE
  5
81FC
  8
1
 10
982.82125702441601
 20
1881.70856222661
 30
0.0
 40
72.5
  0
LINE
  5
81FD
  8
1
 10
1604.0322148243431
 20
2210.6120356763231
 30
0.0
 11
957.5012458611709
 21
1949.643435706239
 31
0.0
  0
LINE
  5
81FE
  8
1
 10
1675.434426536259
 20
1941.850901704503
 30
0.0
 11
994.55679596220125
 21
1810.1646797079791
 31
0.0
  0
ARC
  5
81FF
  8
1
 10
1652.821257024415
 20
2079.7085622266109
 30
0.0
 40
189.69999999999999
 50
279.31542552106151
 51
110.4409309258598
  0
LINE
  5
8200
  8
1
 10
1683.527901665766
 20
1892.5102930709641
 30
0.0
 11
1002.650271091708
 21
1760.8240710744401
 31
0.0
  0
ARC
  5
8201
  8
1
 10
982.82125702441601
 20
1881.70856222661
 30
0.0
 40
122.5
 50
110.4409309258598
 51
279.31542552106151
  0
DIMENSION
  5
8202
  8
3
  2
*D2
 10
2165.7568231588102
 20
2105.70856222661
 30
0.0
 11
2125.7568231588102
 21
2361.7085622266109
 31
0.0
 12
395.98753498732913
 22
128.0078830923957
 32
0.0
 70
     0
 13
2012.8212570244159
 23
2617.70856222661
 33
0.0
 14
2012.8212570244159
 24
2105.70856222661
 34
0.0
 50
90.0
1001
ACAD
1000
DSTYLE
1002
{
1070
   284
1070
     0
1070
    47
1040
0.0
1070
   172
1070
     1
1070
    48
1040
0.0
1070
   146
1040
1.0
1070
   272
1070
     4
1070
    40
1040
20.0
1070
   147
1040
0.5
1070
    42
1040
1.0
1070
   178
1070
     2
1070
   177
1070
     2
1070
   176
1070
     2
1070
     5
1000
ARROW
1070
   143
1040
25.399999999999999
1002
}
  0
DIMENSION
  5
8203
  8
3
  2
*D3
 10
1652.821257024415
 20
2791.5864249126212
 30
0.0
 11
1832.8212570244159
 21
2831.5864249126198
 31
0.0
 12
395.98753498732913
 22
128.0078830923957
 32
0.0
 70
     0
 13
2012.8212570244159
 23
2649.3137451899138
 33
0.0
 14
1652.821257024415
 24
2663.8712515687798
 34
0.0
1001
ACAD
1000
DSTYLE
1002
{
1070
   284
1070
     0
1070
    47
1040
0.0
1070
   172
1070
     1
1070
    48
1040
0.0
1070
   146
1040
1.0
1070
   272
1070
     4
1070
    40
1040
20.0
1070
   147
1040
0.5
1070
    42
1040
1.0
1070
   178
1070
     2
1070
   177
1070
     2
1070
   176
1070
     2
1070
     5
1000
ARROW
1070
   143
1040
25.399999999999999
1002
}
  0
DIMENSION
  5
8204
  8
3
  2
*D4
 10
1217.8212570244159
 20
2791.5864249126212
 30
0.0
 11
1435.3212570244159
 21
2831.5864249126198
 31
0.0
 12
395.98753498732913
 22
128.0078830923957
 32
0.0
 70
     0
 13
1652.821257024415
 23
2663.8712515687798
 33
0.0
 14
1217.8212570244159
 24
2153.7085622266081
 34
0.0
1001
ACAD
1000
DSTYLE
1002
{
1070
   284
1070
     0
1070
    47
1040
0.0
1070
   172
1070
     1
1070
    48
1040
0.0
1070
   146
1040
1.0
1070
   272
1070
     4
1070
    40
1040
20.0
1070
   147
1040
0.5
1070
    42
1040
1.0
1070
   178
1070
     2
1070
   177
1070
     2
1070
   176
1070
     2
1070
     5
1000
ARROW
1070
   143
1040
25.399999999999999
1002
}
  0
LINE
  5
8205
  8
2
 10
1652.821257024415
 20
3227.0520363953442
 30
0.0
 11
1652.821257024415
 21
4435.7809195379295
 31
0.0
  0
LINE
  5
8206
  8
2
 10
982.82125702441601
 20
3223.9074978967251
 30
0.0
 11
982.82125702441601
 21
3847.6641921110931
 31
0.0
  0
LINE
  5
8207
  8
2
 10
2082.6550023932168
 20
4120.2050862978631
 30
0.0
 11
1141.8156047784651
 21
4120.2050862978631
 31
0.0
  0
LINE
  5
8208
  8
1
 10
807.82125702441579
 20
1704.7085622266111
 30
0.0
 11
1902.8212570244159
 21
1704.7085622266111
 31
0.0
  0
LINE
  5
820D
  8
1
 10
2760.0820121098709
 20
1629.70856222661
 30
0.0
 11
2760.0820121098709
 21
1704.7085622266111
 31
0.0
  0
LINE
  5
820E
  8
1
 10
2760.0820121098709
 20
1704.7085622266111
 30
0.0
 11
2800.0820121098709
 21
1704.7085622266111
 31
0.0
  0
DIMENSION
  5
8225
  8
3
  2
*D5
 10
3342.5820121098709
 20
2729.1039102861678
 30
0.0
 11
3530.0820121098709
 21
2769.1039102861678
 31
0.0
 12
0.0
 22
128.0078830923957
 32
0.0
 70
     0
 13
3717.5820121098709
 23
2617.70856222661
 33
0.0
 14
3342.5820121098709
 24
2617.7085622266109
 34
0.0
1001
ACAD
1000
DSTYLE
1002
{
1070
   284
1070
     0
1070
    47
1040
0.0
1070
   172
1070
     1
1070
    48
1040
0.0
1070
   146
1040
1.0
1070
   272
1070
     4
1070
    40
1040
20.0
1070
   147
1040
0.5
1070
    42
1040
1.0
1070
   178
1070
     2
1070
   177
1070
     2
1070
   176
1070
     2
1070
     5
1000
ARROW
1070
   143
1040
25.399999999999999
1002
}
  0
DIMENSION
  5
8226
  8
3
  2
*D6
 10
3530.0820121098709
 20
2882.551337211265
 30
0.0
 11
3625.982012109871
 21
2947.551337211265
 31
0.0
 12
0.0
 22
128.0078830923957
 32
0.0
 70
     0
  1
192
 13
3721.8820121098711
 23
2073.8226651461018
 33
0.0
 14
3530.0820121098709
 24
2810.7792032095331
 34
0.0
1001
ACAD
1000
DSTYLE
1002
{
1070
   284
1070
     0
1070
    47
1040
0.0
1070
   172
1070
     1
1070
    48
1040
0.0
1070
   146
1040
1.0
1070
   272
1070
     4
1070
    40
1040
20.0
1070
   147
1040
0.5
1070
    42
1040
1.0
1070
   178
1070
     2
1070
   177
1070
     2
1070
   176
1070
     2
1070
     5
1000
ARROW
1070
   143
1040
25.399999999999999
1002
}
  0
DIMENSION
  5
8227
  8
3
  2
*D7
 10
2658.1417737603601
 20
2882.551337211265
 30
0.0
 11
3094.1118929351151
 21
2972.551337211265
 31
0.0
 70
     0
  1
MAX\P930
 13
3530.0820121098709
 23
2810.7792032095331
 33
0.0
 14
2658.1417737603601
 24
2269.4085622266098
 34
0.0
1001
ACAD
1000
DSTYLE
1002
{
1070
   284
1070
     0
1070
    47
1040
0.0
1070
   172
1070
     1
1070
    48
1040
0.0
1070
   146
1040
1.0
1070
   272
1070
     4
1070
    40
1040
20.0
1070
   147
1040
0.5
1070
    42
1040
1.0
1070
   178
1070
     2
1070
   177
1070
     2
1070
   176
1070
     2
1070
     5
1000
ARROW
1070
   143
1040
25.399999999999999
1002
}
  0
DIMENSION
  5
8228
  8
3
  2
*D8
 10
3936.9552185816392
 20
1829.7085622266111
 30
0.0
 11
3896.9552185816392
 21
2079.7085622266109
 31
0.0
 70
     0
 13
3746.8820121098711
 23
2329.7085622266109
 33
0.0
 14
3746.8820121098711
 24
1829.7085622266111
 34
0.0
 50
90.0
1001
ACAD
1000
DSTYLE
1002
{
1070
   284
1070
     0
1070
    47
1040
0.0
1070
   172
1070
     1
1070
    48
1040
0.0
1070
   146
1040
1.0
1070
   272
1070
     4
1070
    40
1040
20.0
1070
     3
1000
φ<>
1070
   147
1040
0.5
1070
    42
1040
1.0
1070
   178
1070
     2
1070
   177
1070
     2
1070
   176
1070
     2
1070
     5
1000
ARROW
1070
   143
1040
25.399999999999999
1002
}
  0
LINE
  5
8229
  8
1
 10
1586.570138160035
 20
2257.4636725588248
 30
0.0
 11
940.03916919686344
 21
1996.4950725887411
 31
0.0
  0
LINE
  5
822A
  8
1
 10
807.82125702441579
 20
1749.7085622266111
 30
0.0
 11
1157.821257024415
 21
1749.7085622266111
 31
0.0
  0
ARC
  5
822B
  8
1
 10
982.82125702441601
 20
1881.70856222661
 30
0.0
 40
142.5
 50
295.27460000000002
 51
0.0
  0
ARC
  5
822C
  8
1
 10
982.82125702441601
 20
1881.70856222661
 30
0.0
 40
142.5
 50
0.0
 51
244.99879999999999
  0
LINE
  5
822D
  8
2
 10
982.82125702441601
 20
2075.106562226611
 30
0.0
 11
982.82125702441601
 21
1692.3713797101491
 31
0.0
  0
LINE
  5
822E
  8
1
 10
1043.362657024416
 20
1752.7085622266111
 30
0.0
 11
922.27995702441501
 21
1752.7085622266111
 31
0.0
  0
LINE
  5
822F
  8
1
 10
852.8212570244159
 20
1749.7085622266111
 30
0.0
 11
902.8212570244159
 21
1749.7085622266111
 31
0.0
  0
LINE
  5
8230
  8
1
 10
863.33845702441602
 20
1803.9591622266109
 30
0.0
 11
852.8212570244159
 21
1764.70856222661
 31
0.0
  0
LINE
  5
8231
  8
1
 10
852.8212570244159
 20
1764.5111622266111
 30
0.0
 11
852.8212570244159
 21
1749.7085622266111
 31
0.0
  0
ARC
  5
8232
  8
1
 10
907.82125702441601
 20
1757.63756222661
 30
0.0
 40
4.9999000000000002
 50
134.99950000000001
 51
180.0
  0
LINE
  5
8233
  8
1
 10
903.94145702441529
 20
1760.8287622266109
 30
0.0
 11
905.31235702441506
 21
1762.1996622266111
 31
0.0
  0
LINE
  5
8234
  8
1
 10
902.8212570244159
 20
1749.7085622266111
 30
0.0
 11
902.8212570244159
 21
1757.63756222661
 31
0.0
  0
LINE
  5
8235
  8
1
 10
1102.3468570244149
 20
1803.79986222661
 30
0.0
 11
1112.8212570244159
 21
1764.70856222661
 31
0.0
  0
LINE
  5
8236
  8
1
 10
1112.8212570244159
 20
1749.7085622266111
 30
0.0
 11
1062.821257024415
 21
1749.7085622266111
 31
0.0
  0
ARC
  5
8237
  8
1
 10
1057.821357024415
 20
1757.63756222661
 30
0.0
 40
4.9999000000000002
 50
0.0
 51
45.000500000000002
  0
LINE
  5
8238
  8
1
 10
1061.1964570244161
 20
1761.3335622266111
 30
0.0
 11
1060.394457024415
 21
1762.135562226611
 31
0.0
  0
LINE
  5
8239
  8
1
 10
1062.821257024415
 20
1749.7085622266111
 30
0.0
 11
1062.821257024415
 21
1757.63756222661
 31
0.0
  0
LINE
  5
823A
  8
1
 10
1112.8212570244159
 20
1764.5111622266111
 30
0.0
 11
1112.8212570244159
 21
1749.7085622266111
 31
0.0
  0
LINE
  5
823C
  8
1
 10
2822.08201210987
 20
2023.70856222661
 30
0.0
 11
3212.0817121098689
 21
2023.7085622266111
 31
0.0
  0
LINE
  5
823E
  8
1
 10
2796.882012109872
 20
1862.70856222661
 30
0.0
 11
2745.0820121098732
 21
1862.7085622266111
 31
0.0
  0
LINE
  5
823F
  8
1
 10
2796.882012109872
 20
1900.7085622266111
 30
0.0
 11
2745.0820121098732
 21
1900.7085622266111
 31
0.0
  0
LINE
  5
8241
  8
1
 10
1671.821257024415
 20
3335.2050862978631
 30
0.0
 11
1671.821257024415
 21
3365.2050862978631
 31
0.0
1001
ACAD
1000
ASC_BOUNDS
1002
{
1070
    19
1002
}
  0
LINE
  5
8242
  8
1
 10
1633.8212570244159
 20
3335.2050862978631
 30
0.0
 11
1633.8212570244159
 21
3365.2050862978631
 31
0.0
1001
ACAD
1000
ASC_BOUNDS
1002
{
1070
    19
1002
}
  0
LINE
  5
8243
  8
1
 10
1872.8212570244159
 20
3370.2648479483519
 30
0.0
 11
1872.8212570244159
 21
3248.2648479483519
 31
0.0
  0
LINE
  5
8244
  8
1
 10
1872.8212570244159
 20
3248.2648479483519
 30
0.0
 11
1872.8212570244159
 21
3370.2648479483519
 31
0.0
  0
LINE
  5
8246
  8
1
 10
832.82125702441579
 20
3248.2648479483519
 30
0.0
 11
832.82125702441579
 21
3370.2648479483519
 31
0.0
  0
LINE
  5
8247
  8
1
 10
1792.5212570244139
 20
3335.2050862978622
 30
0.0
 11
1513.1212570244149
 21
3335.205086297864
 31
0.0
  0
LINE
  5
8248
  8
1
 10
1792.5212570244139
 20
3295.2050862978622
 30
0.0
 11
1513.1212570244149
 21
3295.2050862978649
 31
0.0
  0
LINE
  5
8249
  8
1
 10
1872.8212570244159
 20
3248.2648479483519
 30
0.0
 11
832.82125702441579
 21
3248.2648479483519
 31
0.0
  0
LINE
  5
824A
  8
1
 10
1513.1212570244149
 20
3335.205086297864
 30
0.0
 11
912.82125702441579
 21
3335.205086297864
 31
0.0
  0
LINE
  5
824B
  8
1
 10
1513.1212570244149
 20
3295.2050862978649
 30
0.0
 11
912.82125702441579
 21
3295.2050862978649
 31
0.0
  0
LINE
  5
824C
  8
1
 10
912.82125702441579
 20
3295.2050862978649
 30
0.0
 11
912.82125702441579
 21
3335.205086297864
 31
0.0
  0
LINE
  5
824D
  8
1
 10
1052.821257024415
 20
3295.205086297864
 30
0.0
 11
1052.821257024415
 21
3335.2050862978631
 31
0.0
  0
LINE
  5
824E
  8
1
 10
1792.5212570244139
 20
3295.2050862978608
 30
0.0
 11
1792.5212570244139
 21
3335.2050862978622
 31
0.0
1001
ACAD
1000
ASC_BOUNDS
1002
{
1070
    19
1002
}
  0
LINE
  5
824F
  8
1
 10
1630.3212570244159
 20
3387.0050862978619
 30
0.0
 11
1433.1554881845709
 21
3387.0050862978642
 31
0.0
  0
LINE
  5
8250
  8
1
 10
1630.3212570244159
 20
3855.2050862978631
 30
0.0
 11
1433.1554881845709
 21
3855.205086297864
 31
0.0
  0
LINE
  5
8251
  8
1
 10
1675.3212570244159
 20
3365.2050862978631
 30
0.0
 11
1675.3212570244159
 21
3932.7050862978631
 31
0.0
1001
ACAD
1000
ASC_BOUNDS
1002
{
1070
    19
1002
}
  0
LINE
  5
8252
  8
1
 10
1630.3212570244159
 20
3365.2050862978631
 30
0.0
 11
1630.3212570244159
 21
3930.7050862978631
 31
0.0
1001
ACAD
1000
ASC_BOUNDS
1002
{
1070
    19
1002
}
  0
LINE
  5
8253
  8
1
 10
1675.3212570244159
 20
3365.2050862978631
 30
0.0
 11
1630.3212570244159
 21
3365.2050862978631
 31
0.0
  0
LINE
  5
8254
  8
1
 10
1630.3212570244159
 20
3370.2648479483519
 30
0.0
 11
832.82125702441488
 21
3370.2648479483519
 31
0.0
  0
LINE
  5
8255
  8
1
 10
1675.3212570244159
 20
3370.2648479483519
 30
0.0
 11
1872.8212570244159
 21
3370.2648479483519
 31
0.0
  0
LINE
  5
8256
  8
1
 10
1589.621257024417
 20
3855.2050862978631
 30
0.0
 11
1549.6212570244161
 21
3855.2050862978631
 31
0.0
  0
LINE
  5
8257
  8
1
 10
1549.6212570244161
 20
3855.2050862978631
 30
0.0
 11
1589.621257024417
 21
3855.2050862978631
 31
0.0
  0
LINE
  5
8258
  8
1
 10
1513.1212570244149
 20
3295.2050862978608
 30
0.0
 11
1513.1212570244149
 21
3335.2050862978622
 31
0.0
1001
ACAD
1000
ASC_BOUNDS
1002
{
1070
    19
1002
}
  0
LINE
  5
8259
  8
2
 10
1170.5668026910751
 20
2079.7085622266109
 30
0.0
 11
2054.1738334913571
 21
2079.7085622266109
 31
0.0
  0
DIMENSION
  5
825A
  8
3
  2
*D9
 10
2289.1496592212202
 20
2617.70856222661
 30
0.0
 11
2249.1496592212202
 21
2348.70856222661
 31
0.0
 12
395.98753498732913
 22
128.0078830923957
 32
0.0
 70
     0
 13
2054.1738334913571
 23
2079.7085622266109
 33
0.0
 14
2012.8212570244159
 24
2617.70856222661
 34
0.0
 50
90.0
1001
ACAD
1000
DSTYLE
1002
{
1070
   284
1070
     0
1070
    47
1040
0.0
1070
   172
1070
     1
1070
    48
1040
0.0
1070
   146
1040
1.0
1070
   272
1070
     4
1070
    40
1040
20.0
1070
   147
1040
0.5
1070
    42
1040
1.0
1070
   178
1070
     2
1070
   177
1070
     2
1070
   176
1070
     2
1070
     5
1000
ARROW
1070
   143
1040
25.399999999999999
1002
}
  0
DIMENSION
  5
825B
  8
3
  2
*D10
 10
2289.1496592212202
 20
1629.70856222661
 30
0.0
 11
2249.1496592212202
 21
1854.70856222661
 31
0.0
 12
395.98753498732913
 22
128.0078830923957
 32
0.0
 70
     0
 13
2054.1738334913571
 23
2079.7085622266109
 33
0.0
 14
1902.8212570244159
 24
1629.70856222661
 34
0.0
 50
90.0
1001
ACAD
1000
DSTYLE
1002
{
1070
   284
1070
     0
1070
    47
1040
0.0
1070
   172
1070
     1
1070
    48
1040
0.0
1070
   146
1040
1.0
1070
   272
1070
     4
1070
    40
1040
20.0
1070
   147
1040
0.5
1070
    42
1040
1.0
1070
   178
1070
     2
1070
   177
1070
     2
1070
   176
1070
     2
1070
     5
1000
ARROW
1070
   143
1040
25.399999999999999
1002
}
  0
LINE
  5
825E
  8
1
 10
1982.821257024415
 20
4307.7050862978631
 30
0.0
 11
1217.8212570244159
 21
4307.7050862978631
 31
0.0
  0
LINE
  5
825F
  8
1
 10
1982.821257024415
 20
3932.7050862978631
 30
0.0
 11
1217.8212570244159
 21
3932.7050862978631
 31
0.0
  0
LINE
  5
8260
  8
1
 10
2012.821257024415
 20
3902.7050862978631
 30
0.0
 11
2012.8212570244159
 21
4337.7050862978631
 31
0.0
  0
LINE
  5
8261
  8
1
 10
1217.8212570244159
 20
3932.7050862978631
 30
0.0
 11
1217.8212570244159
 21
4307.7050862978631
 31
0.0
  0
LINE
  5
8264
  8
1
 10
2012.8212570244159
 20
4337.7050862978631
 30
0.0
 11
1982.821257024415
 21
4337.7050862978631
 31
0.0
  0
LINE
  5
8265
  8
1
 10
2012.8212570244159
 20
3902.7050862978631
 30
0.0
 11
1982.821257024415
 21
3902.7050862978631
 31
0.0
  0
LINE
  5
8266
  8
1
 10
1982.821257024415
 20
3902.7050862978631
 30
0.0
 11
1982.821257024415
 21
4337.7050862978631
 31
0.0
  0
LINE
  5
8267
  8
1
 10
1433.1554881845709
 20
3387.0050862978642
 30
0.0
 11
1433.1554881845709
 21
3855.205086297864
 31
0.0
  0
LINE
  5
8268
  8
1
 10
1675.3212570244159
 20
3855.2050862978631
 30
0.0
 11
1872.4870258642591
 21
3855.205086297864
 31
0.0
  0
LINE
  5
8269
  8
1
 10
1872.4870258642591
 20
3387.0050862978642
 30
0.0
 11
1872.4870258642591
 21
3855.205086297864
 31
0.0
  0
LINE
  5
826A
  8
1
 10
1675.3212570244159
 20
3387.0050862978619
 30
0.0
 11
1872.4870258642591
 21
3387.0050862978642
 31
0.0
  0
LINE
  5
826B
  8
1
 10
1114.821257024415
 20
3802.204786297862
 30
0.0
 11
1114.821257024415
 21
3412.2050862978608
 31
0.0
  0
LINE
  5
826C
  8
1
 10
840.82125702441579
 20
3412.2050862978608
 30
0.0
 11
840.82125702441579
 21
3802.204786297862
 31
0.0
  0
LINE
  5
826D
  8
1
 10
840.82125702441579
 20
3412.2050862978608
 30
0.0
 11
1114.821257024415
 21
3412.2050862978608
 31
0.0
  0
LINE
  5
826E
  8
1
 10
1040.821257024415
 20
3402.2050862978608
 30
0.0
 11
924.8212570244159
 21
3402.2050862978608
 31
0.0
  0
LINE
  5
826F
  8
1
 10
1114.821257024415
 20
3412.2050862978608
 30
0.0
 11
1114.821257024415
 21
3573.2050862978608
 31
0.0
  0
LINE
  5
8270
  8
1
 10
1041.8212570244159
 20
3412.2050862978608
 30
0.0
 11
1041.8212570244159
 21
3403.2050862978608
 31
0.0
  0
ARC
  5
8271
  8
1
 10
1040.821257024415
 20
3403.2050862978608
 30
0.0
 40
0.9999
 50
269.99650000000003
 51
0.0069999999999659
  0
LINE
  5
8272
  8
1
 10
1001.821257024416
 20
3395.2050862978608
 30
0.0
 11
1001.821257024416
 21
3315.2050862978608
 31
0.0
  0
LINE
  5
8273
  8
1
 10
963.82125702441579
 20
3395.2050862978608
 30
0.0
 11
963.82125702441579
 21
3315.2050862978608
 31
0.0
  0
LINE
  5
8274
  8
1
 10
1001.821257024416
 20
3315.2050862978608
 30
0.0
 11
963.82125702441579
 21
3315.2050862978608
 31
0.0
  0
LINE
  5
8275
  8
1
 10
1002.821257024415
 20
3395.2050862978608
 30
0.0
 11
962.82125702441579
 21
3395.2050862978608
 31
0.0
  0
LINE
  5
8276
  8
1
 10
1002.821257024415
 20
3402.2050862978608
 30
0.0
 11
1002.821257024415
 21
3395.2050862978608
 31
0.0
  0
LINE
  5
8277
  8
1
 10
962.82125702441579
 20
3402.2050862978608
 30
0.0
 11
962.82125702441579
 21
3395.2050862978608
 31
0.0
  0
LINE
  5
8278
  8
1
 10
923.82125702441579
 20
3412.2050862978608
 30
0.0
 11
923.82125702441579
 21
3403.2050862978608
 31
0.0
  0
ARC
  5
8279
  8
1
 10
865.82125702441579
 20
3414.2050862978608
 30
0.0
 40
2.0001000000000002
 50
180.00349999999989
 51
270.0
  0
ARC
  5
827A
  8
1
 10
924.8212570244159
 20
3403.2040862978611
 30
0.0
 40
0.9998000000000001
 50
179.98599999999999
 51
270.00700000000001
  0
ARC
  5
827B
  8
1
 10
842.32125702441579
 20
3735.2046862978618
 30
0.0
 40
2.0001000000000002
 50
90.003500000000003
 51
179.9965
  0
LINE
  5
827C
  8
1
 10
840.82125702441579
 20
3802.204786297862
 30
0.0
 11
1114.821257024415
 21
3802.204786297862
 31
0.0
  0
ARC
  5
827D
  8
1
 10
1105.8818570244141
 20
3800.2047862978611
 30
0.0
 40
2.0
 50
1.762800000000037
 51
90.0
  0
LINE
  5
827E
  8
1
 10
3212.0817121098689
 20
2023.7085622266111
 30
0.0
 11
3212.0817121098689
 21
2019.7085622266111
 31
0.0
  0
LINE
  5
827F
  8
1
 10
2822.08201210987
 20
2023.70856222661
 30
0.0
 11
2822.08201210987
 21
2019.7085622266111
 31
0.0
  0
LINE
  5
8283
  8
1
 10
3717.5820121098709
 20
2617.70856222661
 30
0.0
 11
3342.5820121098709
 21
2105.70856222661
 31
0.0
  0
LINE
  5
8284
  8
1
 10
3342.5820121098709
 20
2617.7085622266109
 30
0.0
 11
3717.5820121098709
 21
2105.70856222661
 31
0.0
  0
LINE
  5
8592
  8
4
 10
3700.0
 20
1000.0
 30
0.0
 11
3700.0
 21
600.0
 31
0.0
  0
LINE
  5
8593
  8
4
 10
2300.0
 20
1000.0
 30
0.0
 11
2300.0
 21
600.0
 31
0.0
  0
LINE
  5
8594
  8
4
 10
1300.0
 20
1000.0
 30
0.0
 11
1300.0
 21
600.0
 31
0.0
  0
LINE
  5
8597
  8
4
 10
1300.0
 20
600.0
 30
0.0
 11
3700.0
 21
600.0
 31
0.0
  0
LINE
  5
8598
  8
4
 10
1300.0
 20
800.0
 30
0.0
 11
3700.0
 21
800.0
 31
0.0
  0
TEXT
  5
8599
  8
4
 10
1377.0041616938031
 20
863.08605173322564
 30
0.0
 40
100.0
  1
機器名称
  0
TEXT
  5
859A
  8
4
 10
1372.516212049595
 20
643.29031346402189
 30
0.0
 40
100.0
  1
機器型番
  0
TEXT
  5
859B
  8
4
 10
2355.3574909753288
 20
845.14353791513713
 30
0.0
 40
85.0
  1
ミツヤリミットロ－ﾄﾞファン
  0
TEXT
  5
859C
  8
4
 10
2373.3089911709608
 20
634.31916855988675
 30
0.0
 40
100.0
  1
LL#3-1
  0
TEXT
  5
859E
  8
4
 10
1623.799519097206
 20
4766.8576826650306
 30
0.0
 40
107.9999999999999
  1
床置ベット
  0
TEXT
  5
859F
  8
4
 10
632.33518665889278
 20
5067.7619523985959
 30
0.0
 40
144.0
  1
遠心式片吸込片持リミットロ－ﾄﾞファン
  0
LINE
  5
85A0
  8
4
 10
500.0
 20
4938.8175085296089
 30
0.0
 11
3700.0
 21
4938.8175085296089
 31
0.0
  0
LINE
  5
85A1
  8
4
 10
500.0
 20
5338.8175085296098
 30
0.0
 11
3700.0
 21
5338.8175085296098
 31
0.0
  0
LINE
  5
85A2
  8
4
 10
1300.0
 20
1000.0
 30
0.0
 11
3700.0
 21
1000.0
 31
0.0
  0
LINE
  5
85A3
  8
4
 10
500.0
 20
5338.8175085296098
 30
0.0
 11
500.0
 21
4938.8175085296089
 31
0.0
  0
TEXT
  5
85A4
  8
4
 10
647.26163796105175
 20
4764.638955092687
 30
0.0
 40
107.9999999999999
  1
右回転右横向
  0
TEXT
  5
85A5
  8
4
 10
2937.9391184985789
 20
5412.1221629906177
 30
0.0
 40
112.0
  1
No.
  0
TEXT
  5
85A6
  8
4
 10
2622.5921252000262
 20
4766.8576826650306
 30
0.0
 40
107.9999999999999
  1
縮尺：1/20
  0
LINE
  5
85A7
  8
4
 10
3700.0
 20
5338.8175085296098
 30
0.0
 11
3700.0
 21
4938.8175085296089
 31
0.0
  0
LINE
  5
85A8
  8
4
 10
4200.0
 20
5900.0
 30
0.0
 11
4200.0
 21
5900.0
 31
0.0
  0
LINE
  5
85A9
  8
4
 10
2881.2348447197292
 20
5362.5271662508021
 30
0.0
 11
2881.2348447197292
 21
5573.3045230995049
 31
0.0
  0
LINE
  5
85AA
  8
4
 10
2881.2348447197292
 20
5573.3045230995049
 30
0.0
 11
3700.0
 21
5573.3045230995049
 31
0.0
  0
LINE
  5
85AB
  8
4
 10
3700.0
 20
5573.3045230995049
 30
0.0
 11
3700.0
 21
5362.5271662508021
 31
0.0
  0
LINE
  5
85AC
  8
4
 10
3700.0
 20
5362.5271662508021
 30
0.0
 11
2881.2348447197292
 21
5362.5271662508021
 31
0.0
  0
LINE
  5
85AD
  8
4
 10
0.0
 20
0.0
 30
0.0
 11
0.0
 21
5900.0
 31
0.0
  0
LINE
  5
85AE
  8
4
 10
0.0
 20
5900.0
 30
0.0
 11
4200.0
 21
5900.0
 31
0.0
  0
LINE
  5
85AF
  8
4
 10
4200.0
 20
5900.0
 30
0.0
 11
4200.0
 21
0.0
 31
0.0
  0
LINE
  5
85B0
  8
4
 10
4200.0
 20
0.0
 30
0.0
 11
0.0
 21
0.0
 31
0.0
  0
DIMENSION
  5
874E
  8
3
  2
*D12
 10
822.82125702441601
 20
2908.6160614468281
 30
0.0
 11
1417.821257024415
 21
2948.6160614468281
 31
0.0
 70
     0
 13
2012.8212570244159
 23
2649.3137451899138
 33
0.0
 14
822.82125702441579
 24
1704.7085622266111
 34
0.0
1001
ACAD
1000
DSTYLE
1002
{
1070
   287
1070
     3
1070
    40
1040
20.0
1070
    42
1040
1.0
1070
    47
1040
0.0
1070
    48
1040
0.0
1070
   143
1040
25.399999999999999
1070
   146
1040
1.0
1070
   147
1040
0.5
1070
   172
1070
     1
1070
   176
1070
     2
1070
   177
1070
     2
1070
   178
1070
     2
1070
   272
1070
     4
1070
   279
1070
     0
1070
   284
1070
     0
1002
}
  0
LINE
  5
874F
  8
1
 10
3760.0820121098709
 20
1704.70856222661
 30
0.0
 11
3760.0820121098709
 21
1629.70856222661
 31
0.0
  0
LINE
  5
8780
  8
1
 10
1902.8212570244159
 20
4350.205086297864
 30
0.0
 11
1402.8212570244159
 21
4350.205086297864
 31
0.0
  0
LINE
  5
8781
  8
1
 10
1902.8212570244159
 20
3350.2050862978631
 30
0.0
 11
1872.8212570244159
 21
3350.2050862978631
 31
0.0
  0
LINE
  5
8782
  8
1
 10
1902.8212570244159
 20
3350.2050862978631
 30
0.0
 11
1902.8212570244159
 21
3932.7050862978631
 31
0.0
  0
LINE
  5
8783
  8
1
 10
822.82125702441579
 20
3350.2050862978631
 30
0.0
 11
822.82125702441579
 21
3910.2050862978631
 31
0.0
  0
LINE
  5
8785
  8
1
 10
1402.8212570244159
 20
3910.2050862978631
 30
0.0
 11
1402.8212570244159
 21
3932.7050862978631
 31
0.0
  0
LINE
  5
8786
  8
1
 10
1402.8212570244159
 20
3910.2050862978631
 30
0.0
 11
822.82125702441579
 21
3910.2050862978622
 31
0.0
  0
LINE
  5
8787
  8
1
 10
1902.8212570244159
 20
4307.7050862978631
 30
0.0
 11
1902.8212570244159
 21
4350.205086297864
 31
0.0
  0
LINE
  5
8788
  8
1
 10
1402.8212570244159
 20
4307.7050862978631
 30
0.0
 11
1402.8212570244159
 21
4350.205086297864
 31
0.0
  0
LINE
  5
8789
  8
1
 10
832.82125702441579
 20
3350.2050862978631
 30
0.0
 11
822.82125702441579
 21
3350.2050862978631
 31
0.0
  0
DIMENSION
  5
8796
  8
3
  2
*D13
 10
1402.8212570244159
 20
4476.3512052142578
 30
0.0
 11
1652.821257024415
 21
4516.3512052142578
 31
0.0
 70
     0
 13
1902.8212570244159
 23
4350.205086297864
 33
0.0
 14
1402.8212570244159
 24
4350.205086297864
 34
0.0
1001
ACAD
1000
DSTYLE
1002
{
1070
   287
1070
     3
1070
    40
1040
20.0
1070
    42
1040
1.0
1070
    47
1040
0.0
1070
    48
1040
0.0
1070
   143
1040
25.399999999999999
1070
   146
1040
1.0
1070
   147
1040
0.5
1070
   172
1070
     1
1070
   176
1070
     2
1070
   177
1070
     2
1070
   178
1070
     2
1070
   272
1070
     4
1070
   279
1070
     0
1070
   284
1070
     0
1002
}
  0
DIMENSION
  5
87A2
  8
3
  2
*D14
 10
822.82125702441579
 20
4476.3512052142578
 30
0.0
 11
1112.8212570244159
 21
4516.3512052142578
 31
0.0
 70
     0
 13
1402.8212570244159
 23
4350.205086297864
 33
0.0
 14
822.82125702441579
 24
3910.2050862978622
 34
0.0
1001
ACAD
1000
DSTYLE
1002
{
1070
   287
1070
     4
1070
    40
1040
20.0
1070
    42
1040
1.0
1070
    47
1040
0.0
1070
    48
1040
0.0
1070
    75
1070
     1
1070
   143
1040
25.399999999999999
1070
   146
1040
1.0
1070
   147
1040
0.5
1070
   172
1070
     1
1070
   176
1070
     2
1070
   177
1070
     2
1070
   178
1070
     2
1070
   272
1070
     4
1070
   279
1070
     1
1070
   284
1070
     0
1002
}
  0
DIMENSION
  5
87AF
  8
3
  2
*D15
 10
669.81114168210843
 20
3350.2050862978631
 30
0.0
 11
629.81114168210775
 21
3630.2050862978631
 31
0.0
 70
     0
 13
822.82125702441579
 23
3910.2050862978622
 33
0.0
 14
822.82125702441579
 24
3350.2050862978631
 34
0.0
 50
90.0
1001
ACAD
1000
DSTYLE
1002
{
1070
   287
1070
     3
1070
    40
1040
20.0
1070
    42
1040
1.0
1070
    47
1040
0.0
1070
    48
1040
0.0
1070
   143
1040
25.399999999999999
1070
   146
1040
1.0
1070
   147
1040
0.5
1070
   172
1070
     1
1070
   176
1070
     2
1070
   177
1070
     2
1070
   178
1070
     2
1070
   272
1070
     4
1070
   279
1070
     0
1070
   284
1070
     0
1002
}
  0
DIMENSION
  5
87BC
  8
3
  2
*D16
 10
2190.0375467325748
 20
3350.2050862978631
 30
0.0
 11
2150.0375467325748
 21
3850.205086297864
 31
0.0
 70
     0
 13
1902.8212570244159
 23
4350.205086297864
 33
0.0
 14
1902.8212570244159
 24
3350.2050862978631
 34
0.0
 50
90.0
1001
ACAD
1000
DSTYLE
1002
{
1070
   287
1070
     3
1070
    40
1040
20.0
1070
    42
1040
1.0
1070
    47
1040
0.0
1070
    48
1040
0.0
1070
   143
1040
25.399999999999999
1070
   146
1040
1.0
1070
   147
1040
0.5
1070
   172
1070
     1
1070
   176
1070
     2
1070
   177
1070
     2
1070
   178
1070
     2
1070
   272
1070
     4
1070
   279
1070
     0
1070
   284
1070
     0
1002
}
  0
DIMENSION
  5
8858
  8
3
  2
*D17
 10
1652.8212570244159
 20
1462.5106118037399
 30
0.0
 11
1237.8212570244159
 21
1502.5106118037399
 31
0.0
 70
     0
 13
822.82125702441579
 23
1629.70856222661
 33
0.0
 14
1652.8212570244159
 24
1629.70856222661
 34
0.0
1001
ACAD
1000
DSTYLE
1002
{
1070
   287
1070
     3
1070
    40
1040
20.0
1070
    42
1040
1.0
1070
    47
1040
0.0
1070
    48
1040
0.0
1070
   143
1040
25.399999999999999
1070
   146
1040
1.0
1070
   147
1040
0.5
1070
   172
1070
     1
1070
   176
1070
     2
1070
   177
1070
     2
1070
   178
1070
     2
1070
   272
1070
     4
1070
   279
1070
     0
1070
   284
1070
     0
1002
}
  0
DIMENSION
  5
8867
  8
3
  2
*D18
 10
1902.8212570244159
 20
1462.5106118037399
 30
0.0
 11
1777.8212570244159
 21
1502.5106118037399
 31
0.0
 70
     0
 13
1652.8212570244159
 23
1629.70856222661
 33
0.0
 14
1902.8212570244159
 24
1629.70856222661
 34
0.0
1001
ACAD
1000
DSTYLE
1002
{
1070
   287
1070
     3
1070
    40
1040
20.0
1070
    42
1040
1.0
1070
    47
1040
0.0
1070
    48
1040
0.0
1070
   143
1040
25.399999999999999
1070
   146
1040
1.0
1070
   147
1040
0.5
1070
   172
1070
     1
1070
   176
1070
     2
1070
   177
1070
     2
1070
   178
1070
     2
1070
   272
1070
     4
1070
   279
1070
     0
1070
   284
1070
     0
1002
}
  0
DIMENSION
  5
8874
  8
3
  2
*D19
 10
3530.0820121098709
 20
1462.5106118037399
 30
0.0
 11
3145.0820121098709
 21
1502.5106118037399
 31
0.0
 70
     0
 13
2760.0820121098709
 23
1629.70856222661
 33
0.0
 14
3530.0820121098709
 24
1629.70856222661
 34
0.0
1001
ACAD
1000
DSTYLE
1002
{
1070
   287
1070
     3
1070
    40
1040
20.0
1070
    42
1040
1.0
1070
    47
1040
0.0
1070
    48
1040
0.0
1070
   143
1040
25.399999999999999
1070
   146
1040
1.0
1070
   147
1040
0.5
1070
   172
1070
     1
1070
   176
1070
     2
1070
   177
1070
     2
1070
   178
1070
     2
1070
   272
1070
     4
1070
   279
1070
     0
1070
   284
1070
     0
1002
}
  0
DIMENSION
  5
8883
  8
3
  2
*D20
 10
3760.0820121098709
 20
1462.5106118037399
 30
0.0
 11
3645.0820121098709
 21
1502.5106118037399
 31
0.0
 70
     0
 13
3530.0820121098709
 23
1629.70856222661
 33
0.0
 14
3760.0820121098709
 24
1629.70856222661
 34
0.0
1001
ACAD
1000
DSTYLE
1002
{
1070
   287
1070
     3
1070
    40
1040
20.0
1070
    42
1040
1.0
1070
    47
1040
0.0
1070
    48
1040
0.0
1070
   143
1040
25.399999999999999
1070
   146
1040
1.0
1070
   147
1040
0.5
1070
   172
1070
     1
1070
   176
1070
     2
1070
   177
1070
     2
1070
   178
1070
     2
1070
   272
1070
     4
1070
   279
1070
     0
1070
   284
1070
     0
1002
}
  0
DIMENSION
  5
889D
  8
3
  2
*D21
 10
2433.4662351676161
 20
1629.70856222661
 30
0.0
 11
2393.4662351676152
 21
2139.511153708263
 31
0.0
 70
     0
 13
2012.8212570244159
 23
2649.3137451899138
 33
0.0
 14
1902.8212570244159
 24
1629.70856222661
 34
0.0
 50
90.0
1001
ACAD
1000
DSTYLE
1002
{
1070
   287
1070
     3
1070
    40
1040
20.0
1070
    42
1040
1.0
1070
    47
1040
0.0
1070
    48
1040
0.0
1070
   143
1040
25.399999999999999
1070
   146
1040
1.0
1070
   147
1040
0.5
1070
   172
1070
     1
1070
   176
1070
     2
1070
   177
1070
     2
1070
   178
1070
     2
1070
   271
1070
     0
1070
   272
1070
     4
1070
   279
1070
     0
1070
   284
1070
     0
1002
}
  0
ENDSEC
  0
EOF
