  0
SECTION
  2
HEADER
  9
$ACADVER
  1
AC1009
  9
$INSBASE
 10
0.0
 20
0.0
 30
0.0
  9
$EXTMIN
 10
0.0
 20
0.0
 30
0.0
  9
$EXTMAX
 10
4200.0
 20
5900.0
 30
0.0
  9
$LIMMIN
 10
0.0
 20
0.0
  9
$LIMMAX
 10
297.0
 20
210.0
  9
$ORTHOMODE
 70
     0
  9
$REGENMODE
 70
     1
  9
$FILLMODE
 70
     0
  9
$QTEXTMODE
 70
     0
  9
$MIRRTEXT
 70
     1
  9
$DRAGMODE
 70
     2
  9
$LTSCALE
 40
100.0
  9
$OSMODE
 70
    37
  9
$ATTMODE
 70
     1
  9
$TEXTSIZE
 40
180.0
  9
$TRACEWID
 40
0.05
  9
$TEXTSTYLE
  7
STANDARD
  9
$CLAYER
  8
3
  9
$CELTYPE
  6
BYLAYER
  9
$CECOLOR
 62
   256
  9
$DIMSCALE
 40
20.0
  9
$DIMASZ
 40
2.0
  9
$DIMEXO
 40
0.5
  9
$DIMDLI
 40
10.0
  9
$DIMRND
 40
0.0
  9
$DIMDLE
 40
0.0
  9
$DIMEXE
 40
1.0
  9
$DIMTP
 40
1.0
  9
$DIMTM
 40
1.0
  9
$DIMTXT
 40
3.0
  9
$DIMCEN
 40
0.0
  9
$DIMTSZ
 40
0.0
  9
$DIMTOL
 70
     0
  9
$DIMLIM
 70
     0
  9
$DIMTIH
 70
     0
  9
$DIMTOH
 70
     0
  9
$DIMSE1
 70
     0
  9
$DIMSE2
 70
     0
  9
$DIMTAD
 70
     1
  9
$DIMZIN
 70
     8
  9
$DIMBLK
  1

  9
$DIMASO
 70
     1
  9
$DIMSHO
 70
     1
  9
$DIMPOST
  1

  9
$DIMAPOST
  1

  9
$DIMALT
 70
     0
  9
$DIMALTD
 70
     2
  9
$DIMALTF
 40
0.039
  9
$DIMLFAC
 40
1.0
  9
$DIMTOFL
 70
     1
  9
$DIMTVP
 40
0.0
  9
$DIMTIX
 70
     0
  9
$DIMSOXD
 70
     0
  9
$DIMSAH
 70
     1
  9
$DIMBLK1
  1
OPEN
  9
$DIMBLK2
  1
OPEN
  9
$DIMSTYLE
  2
IGA
  9
$DIMCLRD
 70
     0
  9
$DIMCLRE
 70
     0
  9
$DIMCLRT
 70
     0
  9
$DIMTFAC
 40
10.0
  9
$DIMGAP
 40
1.0
  9
$LUNITS
 70
     2
  9
$LUPREC
 70
     3
  9
$SKETCHINC
 40
0.1
  9
$FILLETRAD
 40
50.0
  9
$AUNITS
 70
     0
  9
$AUPREC
 70
     0
  9
$MENU
  1
acad
  9
$ELEVATION
 40
0.0
  9
$PELEVATION
 40
0.0
  9
$THICKNESS
 40
0.0
  9
$LIMCHECK
 70
     0
  9
$BLIPMODE
 70
     0
  9
$CHAMFERA
 40
0.5
  9
$CHAMFERB
 40
0.5
  9
$SKPOLY
 70
     0
  9
$TDCREATE
 40
2451988.6387179391
  9
$TDUPDATE
 40
2454953.6396614579
  9
$TDINDWG
 40
0.0190344329
  9
$TDUSRTIMER
 40
0.0190344329
  9
$USRTIMER
 70
     1
  9
$ANGBASE
 50
0.0
  9
$ANGDIR
 70
     0
  9
$PDMODE
 70
     0
  9
$PDSIZE
 40
0.0
  9
$PLINEWID
 40
0.0
  9
$COORDS
 70
     1
  9
$SPLFRAME
 70
     0
  9
$SPLINETYPE
 70
     6
  9
$SPLINESEGS
 70
     8
  9
$ATTDIA
 70
     0
  9
$ATTREQ
 70
     1
  9
$HANDLING
 70
 10241
  9
$HANDSEED
  5
82AA
  9
$SURFTAB1
 70
     6
  9
$SURFTAB2
 70
     6
  9
$SURFTYPE
 70
     6
  9
$SURFU
 70
     6
  9
$SURFV
 70
     6
  9
$UCSNAME
  2

  9
$UCSORG
 10
0.0
 20
0.0
 30
0.0
  9
$UCSXDIR
 10
1.0
 20
0.0
 30
0.0
  9
$UCSYDIR
 10
0.0
 20
1.0
 30
0.0
  9
$PUCSNAME
  2

  9
$PUCSORG
 10
0.0
 20
0.0
 30
0.0
  9
$PUCSXDIR
 10
1.0
 20
0.0
 30
0.0
  9
$PUCSYDIR
 10
0.0
 20
1.0
 30
0.0
  9
$USERI1
 70
     0
  9
$USERI2
 70
     0
  9
$USERI3
 70
     0
  9
$USERI4
 70
     0
  9
$USERI5
 70
     0
  9
$USERR1
 40
0.0
  9
$USERR2
 40
0.0
  9
$USERR3
 40
0.0
  9
$USERR4
 40
0.0
  9
$USERR5
 40
0.0
  9
$WORLDVIEW
 70
     1
  9
$SHADEDGE
 70
     3
  9
$SHADEDIF
 70
    70
  9
$TILEMODE
 70
     1
  9
$MAXACTVP
 70
    16
  9
$PLIMCHECK
 70
     0
  9
$PEXTMIN
 10
1.0000000000000000E+020
 20
1.0000000000000000E+020
 30
1.0000000000000000E+020
  9
$PEXTMAX
 10
-1.0000000000000000E+020
 20
-1.0000000000000000E+020
 30
-1.0000000000000000E+020
  9
$PLIMMIN
 10
0.0
 20
0.0
  9
$PLIMMAX
 10
12.0
 20
9.0
  9
$UNITMODE
 70
     0
  9
$VISRETAIN
 70
     0
  9
$PLINEGEN
 70
     0
  9
$PSLTSCALE
 70
     1
  0
ENDSEC
  0
SECTION
  2
TABLES
  0
TABLE
  2
VPORT
 70
     2
  0
VPORT
  2
*ACTIVE
 70
     0
 10
0.0
 20
0.0
 11
1.0
 21
1.0
 12
3909.2141541460092
 22
681.2048406718751
 13
0.0
 23
0.0
 14
10.0
 24
10.0
 15
10.0
 25
10.0
 16
0.0
 26
0.0
 36
1.0
 17
0.0
 27
0.0
 37
0.0
 40
1677.3426176975561
 41
3.1666666666666661
 42
50.0
 43
0.0
 44
0.0
 50
0.0
 51
0.0
 71
     0
 72
   100
 73
     1
 74
     0
 75
     0
 76
     0
 77
     0
 78
     0
  0
ENDTAB
  0
TABLE
  2
LTYPE
 70
     2
  0
LTYPE
  2
CONTINUOUS
 70
     0
  3
Solid line
 72
    65
 73
     0
 40
0.0
  0
LTYPE
  2
CENTER
 70
     0
  3
____ _ ____ _ ____ _ ____ _ ____ _ ____ _ ____ 
 72
    65
 73
     4
 40
2.0
 49
1.25
 49
-0.25
 49
0.25
 49
-0.25
  0
ENDTAB
  0
TABLE
  2
LAYER
 70
     6
  0
LAYER
  2
0
 70
     0
 62
     7
  6
CONTINUOUS
  0
LAYER
  2
3
 70
     0
 62
     2
  6
CONTINUOUS
  0
LAYER
  2
2
 70
     0
 62
     3
  6
CENTER
  0
LAYER
  2
1
 70
     0
 62
     4
  6
CONTINUOUS
  0
LAYER
  2
4
 70
     0
 62
     7
  6
CONTINUOUS
  0
LAYER
  2
DEFPOINTS
 70
     0
 62
     7
  6
CONTINUOUS
  0
ENDTAB
  0
TABLE
  2
STYLE
 70
     1
  0
STYLE
  2
STANDARD
 70
     0
 40
0.0
 41
1.0
 50
0.0
 71
     0
 42
180.0
  3
simplex.shx
  4
extfont.shx
  0
ENDTAB
  0
TABLE
  2
VIEW
 70
     0
  0
ENDTAB
  0
TABLE
  2
UCS
 70
     0
  0
ENDTAB
  0
TABLE
  2
APPID
 70
     1
  0
APPID
  2
ACAD
 70
     0
  0
ENDTAB
  0
TABLE
  2
DIMSTYLE
 70
     2
  0
DIMSTYLE
  2
IGA
 70
     0
  3

  4

  5

  6
OPEN
  7
OPEN
 40
2.0
 41
2.0
 42
0.5
 43
10.0
 44
1.0
 45
0.0
 46
0.0
 47
1.0
 48
1.0
140
3.0
141
0.0
142
0.0
143
0.03937
144
1.0
145
0.0
146
10.0
147
1.0
 71
     0
 72
     0
 73
     0
 74
     0
 75
     0
 76
     0
 77
     1
 78
     8
170
     0
171
     2
172
     0
173
     1
174
     0
175
     0
176
     0
177
     0
178
     0
  0
DIMSTYLE
  2
DIA1
 70
     0
  3

  4

  5

  6

  7

 40
1.0
 41
2.0
 42
1.0
 43
10.0
 44
1.0
 45
0.0
 46
0.0
 47
0.0
 48
0.0
140
2.5
141
0.0
142
0.0
143
25.399999999999999
144
1.0
145
0.0
146
1.0
147
0.09
 71
     0
 72
     0
 73
     0
 74
     0
 75
     0
 76
     0
 77
     1
 78
     8
170
     0
171
     2
172
     1
173
     0
174
     0
175
     0
176
     2
177
     2
178
     2
  0
ENDTAB
  0
ENDSEC
  0
SECTION
  2
BLOCKS
  0
BLOCK
  8
0
  2
$MODEL_SPACE
 70
     0
 10
0.0
 20
0.0
 30
0.0
  3
$MODEL_SPACE
  1

  0
ENDBLK
  5
1B
  8
0
  0
BLOCK
 67
     1
  8
0
  2
$PAPER_SPACE
 70
     0
 10
0.0
 20
0.0
 30
0.0
  3
$PAPER_SPACE
  1

  0
ENDBLK
  5
18
 67
     1
  8
0
  0
BLOCK
  8
0
  2
YA_N
 70
     0
 10
0.0
 20
0.0
 30
0.0
  3
YA_N
  1

  0
ENDBLK
  5
79FE
  8
0
  0
BLOCK
  8
0
  2
_OPEN
 70
     0
 10
0.0
 20
0.0
 30
0.0
  3
_OPEN
  1

  0
LINE
  5
7A04
  8
0
  6
BYBLOCK
 62
     0
 10
-1.0
 20
0.1666666666666666
 30
0.0
 11
0.0
 21
0.0
 31
0.0
  0
LINE
  5
7A05
  8
0
  6
BYBLOCK
 62
     0
 10
0.0
 20
0.0
 30
0.0
 11
-1.0
 21
-0.1666666666666666
 31
0.0
  0
LINE
  5
7A06
  8
0
  6
BYBLOCK
 62
     0
 10
0.0
 20
0.0
 30
0.0
 11
-1.0
 21
0.0
 31
0.0
  0
ENDBLK
  5
7A08
  8
0
  0
BLOCK
  8
0
  2
*D2
 70
     1
 10
0.0
 20
0.0
 30
0.0
  3
*D2
  1

  0
LINE
  5
822B
  8
3
 62
     2
 10
1778.7220809008261
 20
2421.3425089726861
 30
0.0
 11
1778.7220809008261
 21
2574.27807510708
 31
0.0
  0
LINE
  5
822C
  8
3
 62
     2
 10
1266.7220809008261
 20
2421.3425089726861
 30
0.0
 11
1266.7220809008261
 21
2574.27807510708
 31
0.0
  0
LINE
  5
822D
  8
3
 62
     2
 10
1738.722080900827
 20
2554.27807510708
 30
0.0
 11
1306.7220809008261
 21
2554.27807510708
 31
0.0
  0
INSERT
  5
822E
  8
3
 62
     2
  2
_OPEN
 10
1778.7220809008261
 20
2554.27807510708
 30
0.0
 41
40.0
 42
40.0
 43
40.0
  0
INSERT
  5
822F
  8
3
 62
     2
  2
_OPEN
 10
1266.7220809008261
 20
2554.27807510708
 30
0.0
 41
40.0
 42
40.0
 43
40.0
 50
180.0
  0
TEXT
  8
3
  40
60
  5
829E
  62
2
  72
0
  71
0
 10
1402.72
 20
2488.08
 30
0.000000
  1
512
  0
POINT
  5
8231
  8
DEFPOINTS
 62
     0
 10
1778.7220809008261
 20
2401.3425089726861
 30
0.0
  0
POINT
  5
8232
  8
DEFPOINTS
 62
     0
 10
1266.7220809008261
 20
2401.3425089726861
 30
0.0
  0
POINT
  5
8233
  8
DEFPOINTS
 62
     0
 10
1266.7220809008261
 20
2554.27807510708
 30
0.0
  0
ENDBLK
  5
7E8F
  8
0
  0
BLOCK
  8
0
  2
*D3
 70
     1
 10
0.0
 20
0.0
 30
0.0
  3
*D3
  1

  0
LINE
  5
7ED1
  8
0
  6
BYBLOCK
 62
     2
 10
6065.5672897684317
 20
1359.4924547860601
 30
0.0
 11
6065.5672897684317
 21
1494.4650260363539
 31
0.0
  0
LINE
  5
7ED2
  8
0
  6
BYBLOCK
 62
     2
 10
5690.5672897684317
 20
1361.640025502207
 30
0.0
 11
5690.5672897684317
 21
1494.4650260363539
 31
0.0
  0
LINE
  5
7ED3
  8
0
  6
BYBLOCK
 62
     2
 10
6025.5672897684317
 20
1474.4650260363539
 30
0.0
 11
5730.5672897684317
 21
1474.4650260363539
 31
0.0
  0
INSERT
  5
7ED4
  8
0
  6
BYBLOCK
 62
     2
  2
_OPEN
 10
6065.5672897684317
 20
1474.4650260363539
 30
0.0
 41
40.0
 42
40.0
 43
40.0
  0
INSERT
  5
7ED5
  8
0
  6
BYBLOCK
 62
     2
  2
_OPEN
 10
5690.5672897684317
 20
1474.4650260363539
 30
0.0
 41
40.0
 42
40.0
 43
40.0
 50
180.0
  0
TEXT
  5
7ED6
  8
3
 62
     2
 10
5800.9244326255757
 20
1484.4650260363539
 30
0.0
 40
60.0
  1
375
  0
POINT
  5
7ED7
  8
DEFPOINTS
  6
BYBLOCK
 62
     0
 10
6065.5672897684317
 20
1339.4924547860601
 30
0.0
  0
POINT
  5
7ED8
  8
DEFPOINTS
  6
BYBLOCK
 62
     0
 10
5690.5672897684317
 20
1341.640025502207
 30
0.0
  0
POINT
  5
7ED9
  8
DEFPOINTS
  6
BYBLOCK
 62
     0
 10
5690.5672897684317
 20
1474.4650260363539
 30
0.0
  0
ENDBLK
  5
7EDA
  8
0
  0
BLOCK
  8
0
  2
*D4
 70
     1
 10
0.0
 20
0.0
 30
0.0
  3
*D4
  1

  0
LINE
  5
7EDC
  8
0
  6
BYBLOCK
 62
     2
 10
6069.8672897684328
 20
1306.227005790113
 30
0.0
 11
6069.8672897684328
 21
1647.912452961451
 31
0.0
  0
LINE
  5
7EDD
  8
0
  6
BYBLOCK
 62
     2
 10
5878.0672897684317
 20
1576.1403189597179
 30
0.0
 11
5878.0672897684317
 21
1647.912452961451
 31
0.0
  0
LINE
  5
7EDE
  8
0
  6
BYBLOCK
 62
     2
 10
6029.8672897684319
 20
1627.9124529614501
 30
0.0
 11
5918.0672897684317
 21
1627.9124529614501
 31
0.0
  0
TEXT
  5
7EDF
  8
3
 62
     2
 10
5902.5387183398607
 20
1662.912452961451
 30
0.0
 40
60.0
  1
192
  0
INSERT
  5
7EE0
  8
0
  6
BYBLOCK
 62
     2
  2
_OPEN
 10
6069.8672897684328
 20
1627.9124529614501
 30
0.0
 41
40.0
 42
40.0
 43
40.0
  0
INSERT
  5
7EE1
  8
0
  6
BYBLOCK
 62
     2
  2
_OPEN
 10
5878.0672897684317
 20
1627.9124529614501
 30
0.0
 41
40.0
 42
40.0
 43
40.0
 50
180.0
  0
POINT
  5
7EE2
  8
DEFPOINTS
  6
BYBLOCK
 62
     0
 10
6069.8672897684328
 20
1286.2270057901119
 30
0.0
  0
POINT
  5
7EE3
  8
DEFPOINTS
  6
BYBLOCK
 62
     0
 10
5878.0672897684317
 20
1556.1403189597179
 30
0.0
  0
POINT
  5
7EE4
  8
DEFPOINTS
  6
BYBLOCK
 62
     0
 10
5878.0672897684317
 20
1627.9124529614501
 30
0.0
  0
ENDBLK
  5
7EE5
  8
0
  0
BLOCK
  8
0
  2
*D5
 70
     1
 10
0.0
 20
0.0
 30
0.0
  3
*D5
  1

  0
LINE
  5
8143
  8
0
  6
BYBLOCK
 62
     2
 10
2642.0301326241001
 20
2251.042508972685
 30
0.0
 11
2642.0301326241001
 21
2678.0279561440238
 31
0.0
  0
LINE
  5
8144
  8
0
  6
BYBLOCK
 62
     2
 10
3473.9703709736109
 20
2658.0279561440238
 30
0.0
 11
2682.030132624101
 21
2658.0279561440238
 31
0.0
  0
INSERT
  5
8145
  8
0
  6
BYBLOCK
 62
     2
  2
_OPEN
 10
3513.9703709736109
 20
2658.0279561440238
 30
0.0
 41
40.0
 42
40.0
 43
40.0
  0
INSERT
  5
8146
  8
0
  6
BYBLOCK
 62
     2
  2
_OPEN
 10
2642.0301326241001
 20
2658.0279561440238
 30
0.0
 41
40.0
 42
40.0
 43
40.0
 50
180.0
  0
INSERT
  5
8147
  8
3
  2
*U22
 10
0.0
 20
0.0
 30
0.0
  0
POINT
  5
8148
  8
DEFPOINTS
  6
BYBLOCK
 62
     0
 10
3513.9703709736109
 20
2586.255822142291
 30
0.0
  0
POINT
  5
8149
  8
DEFPOINTS
  6
BYBLOCK
 62
     0
 10
2642.0301326241001
 20
2231.042508972685
 30
0.0
  0
POINT
  5
814A
  8
DEFPOINTS
  6
BYBLOCK
 62
     0
 10
2642.0301326241001
 20
2658.0279561440238
 30
0.0
  0
ENDBLK
  5
814B
  8
0
  0
BLOCK
  8
0
  2
*D6
 70
     1
 10
0.0
 20
0.0
 30
0.0
  3
*D6
  1

  0
LINE
  5
8234
  8
3
 62
     0
 10
3740.770370973612
 20
2291.3425089726852
 30
0.0
 11
3940.8435774453792
 21
2291.3425089726852
 31
0.0
  0
LINE
  5
8235
  8
3
 62
     0
 10
3740.770370973612
 20
1791.342508972685
 30
0.0
 11
3940.8435774453792
 21
1791.342508972685
 31
0.0
  0
LINE
  5
8236
  8
3
 62
     0
 10
3920.8435774453792
 20
2251.3425089726852
 30
0.0
 11
3920.8435774453792
 21
1831.342508972685
 31
0.0
  0
INSERT
  5
8237
  8
3
 62
     0
  2
_OPEN
 10
3920.8435774453792
 20
2291.3425089726852
 30
0.0
 41
40.0
 42
40.0
 43
40.0
 50
90.0
  0
INSERT
  5
8238
  8
3
 62
     0
  2
_OPEN
 10
3920.8435774453792
 20
1791.342508972685
 30
0.0
 41
40.0
 42
40.0
 43
40.0
 50
270.0
  0
TEXT
  8
3
  40
60
  5
829F
  62
0
  72
0
  71
0
 10
3750.84
 20
1935.14
 30
0.000000
  1
φ500
  0
POINT
  5
823A
  8
DEFPOINTS
 62
     0
 10
3730.7703709736111
 20
2291.3425089726852
 30
0.0
  0
POINT
  5
823B
  8
DEFPOINTS
 62
     0
 10
3730.7703709736111
 20
1791.342508972685
 30
0.0
  0
POINT
  5
823C
  8
DEFPOINTS
 62
     0
 10
3920.8435774453792
 20
1791.342508972685
 30
0.0
  0
ENDBLK
  5
7FE7
  8
0
  0
BLOCK
  8
0
  2
*D7
 70
     1
 10
0.0
 20
0.0
 30
0.0
  3
*D7
  1

  0
LINE
  5
7EFC
  8
0
  6
BYBLOCK
 62
     2
 10
3604.8189996956471
 20
1432.579582257054
 30
0.0
 11
3604.8189996956471
 21
1667.555407986918
 31
0.0
  0
LINE
  5
7EFD
  8
0
  6
BYBLOCK
 62
     2
 10
4142.818999695648
 20
1391.227005790113
 30
0.0
 11
4142.818999695648
 21
1667.555407986918
 31
0.0
  0
LINE
  5
7EFE
  8
0
  6
BYBLOCK
 62
     2
 10
3644.8189996956471
 20
1647.555407986918
 30
0.0
 11
4102.818999695648
 21
1647.555407986918
 31
0.0
  0
INSERT
  5
7EFF
  8
0
  6
BYBLOCK
 62
     2
  2
_OPEN
 10
3604.8189996956471
 20
1647.555407986918
 30
0.0
 41
40.0
 42
40.0
 43
40.0
 50
180.0
  0
INSERT
  5
7F00
  8
0
  6
BYBLOCK
 62
     2
  2
_OPEN
 10
4142.818999695648
 20
1647.555407986918
 30
0.0
 41
40.0
 42
40.0
 43
40.0
  0
TEXT
  5
7F01
  8
3
 62
     2
 10
3796.6761425527902
 20
1657.555407986918
 30
0.0
 40
60.0
  1
538
  0
POINT
  5
7F02
  8
DEFPOINTS
  6
BYBLOCK
 62
     0
 10
3604.8189996956471
 20
1412.579582257054
 30
0.0
  0
POINT
  5
7F03
  8
DEFPOINTS
  6
BYBLOCK
 62
     0
 10
4142.818999695648
 20
1371.227005790113
 30
0.0
  0
POINT
  5
7F04
  8
DEFPOINTS
  6
BYBLOCK
 62
     0
 10
4142.818999695648
 20
1647.555407986918
 30
0.0
  0
ENDBLK
  5
7F05
  8
0
  0
BLOCK
  8
0
  2
*D8
 70
     1
 10
0.0
 20
0.0
 30
0.0
  3
*D8
  1

  0
LINE
  5
7F1D
  8
0
  6
BYBLOCK
 62
     2
 10
3579.2189996956481
 20
1371.227005790113
 30
0.0
 11
3023.969842979649
 21
1371.227005790113
 31
0.0
  0
LINE
  5
7F1E
  8
0
  6
BYBLOCK
 62
     2
 10
3183.4664232287059
 20
1011.227005790112
 30
0.0
 11
3023.969842979649
 21
1011.227005790112
 31
0.0
  0
LINE
  5
7F1F
  8
0
  6
BYBLOCK
 62
     2
 10
3043.969842979649
 20
1331.227005790113
 30
0.0
 11
3043.969842979649
 21
1051.2270057901119
 31
0.0
  0
INSERT
  5
7F20
  8
0
  6
BYBLOCK
 62
     2
  2
_OPEN
 10
3043.969842979649
 20
1371.227005790113
 30
0.0
 41
40.0
 42
40.0
 43
40.0
 50
90.0
  0
INSERT
  5
7F21
  8
0
  6
BYBLOCK
 62
     2
  2
_OPEN
 10
3043.969842979649
 20
1011.227005790112
 30
0.0
 41
40.0
 42
40.0
 43
40.0
 50
270.0
  0
TEXT
  5
7F22
  8
3
 62
     2
 10
3033.969842979649
 20
1114.0841486472559
 30
0.0
 40
60.0
  1
360
 50
90.0
  0
POINT
  5
7F23
  8
DEFPOINTS
  6
BYBLOCK
 62
     0
 10
3599.2189996956481
 20
1371.227005790113
 30
0.0
  0
POINT
  5
7F24
  8
DEFPOINTS
  6
BYBLOCK
 62
     0
 10
3203.4664232287059
 20
1011.227005790112
 30
0.0
  0
POINT
  5
7F25
  8
DEFPOINTS
  6
BYBLOCK
 62
     0
 10
3043.969842979649
 20
1011.227005790112
 30
0.0
  0
ENDBLK
  5
7F26
  8
0
  0
BLOCK
  8
0
  2
*D9
 70
     1
 10
0.0
 20
0.0
 30
0.0
  3
*D9
  1

  0
LINE
  5
7F28
  8
0
  6
BYBLOCK
 62
     2
 10
3334.8189996956471
 20
501.2270057901128
 30
0.0
 11
3023.969842979649
 21
501.2270057901128
 31
0.0
  0
LINE
  5
7F29
  8
0
  6
BYBLOCK
 62
     2
 10
3043.969842979649
 20
971.22700579011268
 30
0.0
 11
3043.969842979649
 21
541.22700579011268
 31
0.0
  0
INSERT
  5
7F2A
  8
0
  6
BYBLOCK
 62
     2
  2
_OPEN
 10
3043.969842979649
 20
1011.227005790112
 30
0.0
 41
40.0
 42
40.0
 43
40.0
 50
90.0
  0
INSERT
  5
7F2B
  8
0
  6
BYBLOCK
 62
     2
  2
_OPEN
 10
3043.969842979649
 20
501.2270057901128
 30
0.0
 41
40.0
 42
40.0
 43
40.0
 50
270.0
  0
TEXT
  5
7F2C
  8
3
 62
     2
 10
3033.969842979649
 20
684.79843436154135
 30
0.0
 40
60.0
  1
510
 50
90.0
  0
POINT
  5
7F2D
  8
DEFPOINTS
  6
BYBLOCK
 62
     0
 10
3203.4664232287059
 20
1011.227005790112
 30
0.0
  0
POINT
  5
7F2E
  8
DEFPOINTS
  6
BYBLOCK
 62
     0
 10
3354.8189996956471
 20
501.2270057901128
 30
0.0
  0
POINT
  5
7F2F
  8
DEFPOINTS
  6
BYBLOCK
 62
     0
 10
3043.969842979649
 20
501.2270057901128
 30
0.0
  0
ENDBLK
  5
7F30
  8
0
  0
BLOCK
  8
0
  2
*D10
 70
     1
 10
0.0
 20
0.0
 30
0.0
  3
*D10
  1

  0
LINE
  5
7F4B
  8
0
  6
BYBLOCK
 62
     2
 10
3243.715021838289
 20
993.11834527059068
 30
0.0
 11
3243.715021838289
 21
1667.555407986918
 31
0.0
  0
LINE
  5
7F4C
  8
0
  6
BYBLOCK
 62
     2
 10
3564.8189996956471
 20
1647.555407986918
 30
0.0
 11
3283.715021838289
 21
1647.555407986918
 31
0.0
  0
INSERT
  5
7F4D
  8
0
  6
BYBLOCK
 62
     2
  2
_OPEN
 10
3604.8189996956471
 20
1647.555407986918
 30
0.0
 41
40.0
 42
40.0
 43
40.0
  0
INSERT
  5
7F4E
  8
0
  6
BYBLOCK
 62
     2
  2
_OPEN
 10
3243.715021838289
 20
1647.555407986918
 30
0.0
 41
40.0
 42
40.0
 43
40.0
 50
180.0
  0
TEXT
  5
7F4F
  8
3
 62
     2
 10
3359.981296481254
 20
1657.555407986918
 30
0.0
 40
60.0
  1
361
  0
POINT
  5
7F50
  8
DEFPOINTS
  6
BYBLOCK
 62
     0
 10
3604.8189996956471
 20
1412.579582257054
 30
0.0
  0
POINT
  5
7F51
  8
DEFPOINTS
  6
BYBLOCK
 62
     0
 10
3243.715021838289
 20
973.11834527059079
 30
0.0
  0
POINT
  5
7F52
  8
DEFPOINTS
  6
BYBLOCK
 62
     0
 10
3243.715021838289
 20
1647.555407986918
 30
0.0
  0
ENDBLK
  5
7F53
  8
0
  0
BLOCK
  8
0
  2
_DOT
 70
     0
 10
0.0
 20
0.0
 30
0.0
  3
_DOT
  1

  0
LINE
  5
8139
  8
0
  6
BYBLOCK
 62
     0
 10
0.0
 20
0.0
 30
0.0
 11
-1.0
 21
-0.0000000000000284
 31
0.0
  0
POLYLINE
  5
813A
  8
0
  6
BYBLOCK
 62
     0
 66
     1
 10
0.0
 20
0.0
 30
0.0
 70
     1
 40
0.1666666666666666
 41
0.1666666666666666
  0
VERTEX
  5
8269
  8
0
  6
BYBLOCK
 62
     0
 10
-0.0833333333333286
 20
-0.0000000000000284
 30
0.0
 42
1.0
  0
VERTEX
  5
826A
  8
0
  6
BYBLOCK
 62
     0
 10
0.0833333333333286
 20
-0.0000000000000284
 30
0.0
 42
1.0
  0
SEQEND
  5
826B
  8
0
  6
BYBLOCK
 62
     0
  0
ENDBLK
  5
7FA2
  8
0
  0
BLOCK
  8
0
  2
*D12
 70
     1
 10
0.0
 20
0.0
 30
0.0
  3
*D12
  1

  0
LINE
  5
823D
  8
3
 62
     0
 10
879.61810304346807
 20
2013.2338484531631
 30
0.0
 11
879.61810304346807
 21
2819.2458639426559
 31
0.0
  0
LINE
  5
823E
  8
3
 62
     0
 10
2070.7220809008249
 20
1616.342508972685
 30
0.0
 11
2070.7220809008249
 21
2819.2458639426559
 31
0.0
  0
LINE
  5
823F
  8
3
 62
     0
 10
919.61810304346807
 20
2799.2458639426559
 30
0.0
 11
2030.7220809008249
 21
2799.2458639426559
 31
0.0
  0
INSERT
  5
8240
  8
3
 62
     0
  2
_OPEN
 10
879.61810304346807
 20
2799.2458639426559
 30
0.0
 41
40.0
 42
40.0
 43
40.0
 50
180.0
  0
INSERT
  5
8241
  8
3
 62
     0
  2
_OPEN
 10
2070.7220809008249
 20
2799.2458639426559
 30
0.0
 41
40.0
 42
40.0
 43
40.0
  0
TEXT
  8
3
  40
60
  5
82A0
  62
0
  72
0
  71
0
 10
1351.91
 20
2743.05
 30
0.000000
  1
1191
  0
POINT
  5
8243
  8
DEFPOINTS
 62
     0
 10
879.61810304346807
 20
2003.2338484531631
 30
0.0
  0
POINT
  5
8244
  8
DEFPOINTS
 62
     0
 10
2070.7220809008249
 20
1606.342508972685
 30
0.0
  0
POINT
  5
8245
  8
DEFPOINTS
 62
     0
 10
2070.7220809008249
 20
2799.2458639426559
 30
0.0
  0
ENDBLK
  5
80F9
  8
0
  0
BLOCK
  8
0
  2
*D13
 70
     1
 10
0.0
 20
0.0
 30
0.0
  3
*D13
  1

  0
LINE
  5
8246
  8
3
 62
     0
 10
990.72208090082665
 20
4228.1097778497979
 30
0.0
 11
990.72208090082665
 21
4337.7863918643343
 31
0.0
  0
LINE
  5
8247
  8
3
 62
     0
 10
1490.7220809008261
 20
4228.1097778497979
 30
0.0
 11
1490.7220809008261
 21
4337.7863918643343
 31
0.0
  0
LINE
  5
8248
  8
3
 62
     0
 10
1030.7220809008261
 20
4317.7863918643343
 30
0.0
 11
1450.722080900827
 21
4317.7863918643343
 31
0.0
  0
INSERT
  5
8249
  8
3
 62
     0
  2
_OPEN
 10
990.72208090082665
 20
4317.7863918643343
 30
0.0
 41
40.0
 42
40.0
 43
40.0
 50
180.0
  0
INSERT
  5
824A
  8
3
 62
     0
  2
_OPEN
 10
1490.7220809008261
 20
4317.7863918643343
 30
0.0
 41
40.0
 42
40.0
 43
40.0
  0
TEXT
  8
3
  40
60
  5
82A1
  62
0
  72
0
  71
0
 10
1121.45
 20
4261.59
 30
0.000000
  1
500
  0
POINT
  5
824C
  8
DEFPOINTS
 62
     0
 10
990.72208090082665
 20
4218.1097778497979
 30
0.0
  0
POINT
  5
824D
  8
DEFPOINTS
 62
     0
 10
1490.7220809008261
 20
4218.1097778497979
 30
0.0
  0
POINT
  5
824E
  8
DEFPOINTS
 62
     0
 10
1490.7220809008261
 20
4317.7863918643343
 30
0.0
  0
ENDBLK
  5
810F
  8
0
  0
BLOCK
  8
0
  2
*D14
 70
     1
 10
0.0
 20
0.0
 30
0.0
  3
*D14
  1

  0
LINE
  5
824F
  8
3
 62
     0
 10
2070.7220809008259
 20
3788.1097778497988
 30
0.0
 11
2070.7220809008259
 21
4337.7863918643343
 31
0.0
  0
LINE
  5
8250
  8
3
 62
     0
 10
1530.7220809008261
 20
4317.7863918643343
 30
0.0
 11
2030.7220809008261
 21
4317.7863918643343
 31
0.0
  0
INSERT
  5
8251
  8
3
 62
     0
  2
_OPEN
 10
1490.7220809008261
 20
4317.7863918643343
 30
0.0
 41
40.0
 42
40.0
 43
40.0
 50
180.0
  0
INSERT
  5
8252
  8
3
 62
     0
  2
_OPEN
 10
2070.7220809008259
 20
4317.7863918643343
 30
0.0
 41
40.0
 42
40.0
 43
40.0
  0
TEXT
  8
3
  40
60
  5
82A2
  62
0
  72
0
  71
0
 10
1660.72
 20
4261.59
 30
0.000000
  1
580
  0
POINT
  5
8254
  8
DEFPOINTS
 62
     0
 10
1490.7220809008261
 20
4218.1097778497979
 30
0.0
  0
POINT
  5
8255
  8
DEFPOINTS
 62
     0
 10
2070.7220809008259
 20
3778.1097778497979
 30
0.0
  0
POINT
  5
8256
  8
DEFPOINTS
 62
     0
 10
2070.7220809008259
 20
4317.7863918643343
 30
0.0
  0
ENDBLK
  5
811B
  8
0
  0
BLOCK
  8
0
  2
*D15
 70
     1
 10
0.0
 20
0.0
 30
0.0
  3
*D15
  1

  0
LINE
  5
8257
  8
3
 62
     0
 10
2080.7220809008259
 20
3778.1097778497979
 30
0.0
 11
2261.1071370063992
 21
3778.1097778497979
 31
0.0
  0
LINE
  5
8258
  8
3
 62
     0
 10
2080.7220809008259
 20
3218.1097778497979
 30
0.0
 11
2261.1071370063992
 21
3218.1097778497979
 31
0.0
  0
LINE
  5
8259
  8
3
 62
     0
 10
2241.1071370063992
 20
3738.1097778497979
 30
0.0
 11
2241.1071370063992
 21
3258.1097778497988
 31
0.0
  0
INSERT
  5
825A
  8
3
 62
     0
  2
_OPEN
 10
2241.1071370063992
 20
3778.1097778497979
 30
0.0
 41
40.0
 42
40.0
 43
40.0
 50
90.0
  0
INSERT
  5
825B
  8
3
 62
     0
  2
_OPEN
 10
2241.1071370063992
 20
3218.1097778497979
 30
0.0
 41
40.0
 42
40.0
 43
40.0
 50
270.0
  0
TEXT
  8
3
  40
60
  5
82A3
  62
0
  72
0
  71
0
 10
2071.11
 20
3374.24
 30
0.000000
  1
560
  0
POINT
  5
825D
  8
DEFPOINTS
 62
     0
 10
2070.7220809008259
 20
3778.1097778497979
 30
0.0
  0
POINT
  5
825E
  8
DEFPOINTS
 62
     0
 10
2070.7220809008259
 20
3218.1097778497979
 30
0.0
  0
POINT
  5
825F
  8
DEFPOINTS
 62
     0
 10
2241.1071370063992
 20
3218.1097778497979
 30
0.0
  0
ENDBLK
  5
8128
  8
0
  0
BLOCK
  8
0
  2
*D16
 70
     1
 10
0.0
 20
0.0
 30
0.0
  3
*D16
  1

  0
LINE
  5
8260
  8
3
 62
     0
 10
980.72208090082665
 20
4218.1097778497979
 30
0.0
 11
759.52435786828642
 21
4218.1097778497979
 31
0.0
  0
LINE
  5
8261
  8
3
 62
     0
 10
980.72208090082654
 20
3218.1097778497979
 30
0.0
 11
759.52435786828607
 21
3218.1097778497979
 31
0.0
  0
LINE
  5
8262
  8
3
 62
     0
 10
779.52435786828642
 20
4178.1097778497979
 30
0.0
 11
779.52435786828607
 21
3258.1097778497979
 31
0.0
  0
INSERT
  5
8263
  8
3
 62
     0
  2
_OPEN
 10
779.52435786828642
 20
4218.1097778497979
 30
0.0
 41
40.0
 42
40.0
 43
40.0
 50
90.0
  0
INSERT
  5
8264
  8
3
 62
     0
  2
_OPEN
 10
779.52435786828607
 20
3218.1097778497979
 30
0.0
 41
40.0
 42
40.0
 43
40.0
 50
270.0
  0
TEXT
  8
3
  40
60
  5
82A4
  62
0
  72
0
  71
0
 10
609.524
 20
3567.47
 30
0.000000
  1
1000
  0
POINT
  5
8266
  8
DEFPOINTS
 62
     0
 10
990.72208090082665
 20
4218.1097778497979
 30
0.0
  0
POINT
  5
8267
  8
DEFPOINTS
 62
     0
 10
990.72208090082654
 20
3218.1097778497979
 30
0.0
  0
POINT
  5
8268
  8
DEFPOINTS
 62
     0
 10
779.52435786828607
 20
3218.1097778497979
 30
0.0
  0
ENDBLK
  5
8135
  8
0
  0
BLOCK
  8
0
  2
*D17
 70
     1
 10
0.0
 20
0.0
 30
0.0
  3
*D17
  1

  0
LINE
  5
8271
  8
3
 62
     0
 10
990.72208090082631
 20
1521.342508972685
 30
0.0
 11
990.72208090082631
 21
1376.017860966743
 31
0.0
  0
LINE
  5
8272
  8
3
 62
     0
 10
1240.7220809008261
 20
1521.342508972685
 30
0.0
 11
1240.7220809008261
 21
1376.017860966743
 31
0.0
  0
LINE
  5
8273
  8
3
 62
     0
 10
1030.7220809008261
 20
1396.017860966743
 30
0.0
 11
1200.7220809008261
 21
1396.017860966743
 31
0.0
  0
INSERT
  5
8274
  8
3
 62
     0
  2
_OPEN
 10
990.72208090082631
 20
1396.017860966743
 30
0.0
 41
40.0
 42
40.0
 43
40.0
 50
180.0
  0
INSERT
  5
8275
  8
3
 62
     0
  2
_OPEN
 10
1240.7220809008261
 20
1396.017860966743
 30
0.0
 41
40.0
 42
40.0
 43
40.0
  0
TEXT
  8
3
  40
60
  5
82A5
  62
0
  72
0
  71
0
 10
995.722
 20
1339.82
 30
0.000000
  1
250
  0
POINT
  5
8277
  8
DEFPOINTS
 62
     0
 10
990.72208090082631
 20
1531.342508972685
 30
0.0
  0
POINT
  5
8278
  8
DEFPOINTS
 62
     0
 10
1240.7220809008261
 20
1531.342508972685
 30
0.0
  0
POINT
  5
8279
  8
DEFPOINTS
 62
     0
 10
1240.7220809008261
 20
1396.017860966743
 30
0.0
  0
ENDBLK
  5
81BB
  8
0
  0
BLOCK
  8
0
  2
*D18
 70
     1
 10
0.0
 20
0.0
 30
0.0
  3
*D18
  1

  0
LINE
  5
827A
  8
3
 62
     0
 10
1240.7220809008261
 20
1521.342508972685
 30
0.0
 11
1240.7220809008261
 21
1376.017860966743
 31
0.0
  0
LINE
  5
827B
  8
3
 62
     0
 10
2070.7220809008249
 20
1521.342508972685
 30
0.0
 11
2070.7220809008249
 21
1376.017860966743
 31
0.0
  0
LINE
  5
827C
  8
3
 62
     0
 10
1280.7220809008261
 20
1396.017860966743
 30
0.0
 11
2030.7220809008249
 21
1396.017860966743
 31
0.0
  0
INSERT
  5
827D
  8
3
 62
     0
  2
_OPEN
 10
1240.7220809008261
 20
1396.017860966743
 30
0.0
 41
40.0
 42
40.0
 43
40.0
 50
180.0
  0
INSERT
  5
827E
  8
3
 62
     0
  2
_OPEN
 10
2070.7220809008249
 20
1396.017860966743
 30
0.0
 41
40.0
 42
40.0
 43
40.0
  0
TEXT
  8
3
  40
60
  5
82A6
  62
0
  72
0
  71
0
 10
1535.72
 20
1339.82
 30
0.000000
  1
830
  0
POINT
  5
8280
  8
DEFPOINTS
 62
     0
 10
1240.7220809008261
 20
1531.342508972685
 30
0.0
  0
POINT
  5
8281
  8
DEFPOINTS
 62
     0
 10
2070.7220809008249
 20
1531.342508972685
 30
0.0
  0
POINT
  5
8282
  8
DEFPOINTS
 62
     0
 10
2070.7220809008249
 20
1396.017860966743
 30
0.0
  0
ENDBLK
  5
81C8
  8
0
  0
BLOCK
  8
0
  2
*D19
 70
     1
 10
0.0
 20
0.0
 30
0.0
  3
*D19
  1

  0
LINE
  5
8283
  8
3
 62
     0
 10
2743.9703709736109
 20
1521.342508972685
 30
0.0
 11
2743.9703709736109
 21
1376.017860966743
 31
0.0
  0
LINE
  5
8284
  8
3
 62
     0
 10
3513.9703709736109
 20
1521.342508972685
 30
0.0
 11
3513.9703709736109
 21
1376.017860966743
 31
0.0
  0
LINE
  5
8285
  8
3
 62
     0
 10
2783.9703709736109
 20
1396.017860966743
 30
0.0
 11
3473.9703709736118
 21
1396.017860966743
 31
0.0
  0
INSERT
  5
8286
  8
3
 62
     0
  2
_OPEN
 10
2743.9703709736109
 20
1396.017860966743
 30
0.0
 41
40.0
 42
40.0
 43
40.0
 50
180.0
  0
INSERT
  5
8287
  8
3
 62
     0
  2
_OPEN
 10
3513.9703709736109
 20
1396.017860966743
 30
0.0
 41
40.0
 42
40.0
 43
40.0
  0
TEXT
  8
3
  40
60
  5
82A7
  62
0
  72
0
  71
0
 10
3008.97
 20
1339.82
 30
0.000000
  1
770
  0
POINT
  5
8289
  8
DEFPOINTS
 62
     0
 10
2743.9703709736109
 20
1531.342508972685
 30
0.0
  0
POINT
  5
828A
  8
DEFPOINTS
 62
     0
 10
3513.9703709736109
 20
1531.342508972685
 30
0.0
  0
POINT
  5
828B
  8
DEFPOINTS
 62
     0
 10
3513.9703709736109
 20
1396.017860966743
 30
0.0
  0
ENDBLK
  5
81D5
  8
0
  0
BLOCK
  8
0
  2
*D20
 70
     1
 10
0.0
 20
0.0
 30
0.0
  3
*D20
  1

  0
LINE
  5
828C
  8
3
 62
     0
 10
3513.9703709736109
 20
1521.342508972685
 30
0.0
 11
3513.9703709736109
 21
1376.017860966743
 31
0.0
  0
LINE
  5
828D
  8
3
 62
     0
 10
3743.9703709736109
 20
1521.342508972685
 30
0.0
 11
3743.9703709736109
 21
1376.017860966743
 31
0.0
  0
LINE
  5
828E
  8
3
 62
     0
 10
3553.9703709736109
 20
1396.017860966743
 30
0.0
 11
3703.9703709736109
 21
1396.017860966743
 31
0.0
  0
INSERT
  5
828F
  8
3
 62
     0
  2
_OPEN
 10
3513.9703709736109
 20
1396.017860966743
 30
0.0
 41
40.0
 42
40.0
 43
40.0
 50
180.0
  0
INSERT
  5
8290
  8
3
 62
     0
  2
_OPEN
 10
3743.9703709736109
 20
1396.017860966743
 30
0.0
 41
40.0
 42
40.0
 43
40.0
  0
TEXT
  8
3
  40
60
  5
82A8
  62
0
  72
0
  71
0
 10
3508.97
 20
1339.82
 30
0.000000
  1
230
  0
POINT
  5
8292
  8
DEFPOINTS
 62
     0
 10
3513.9703709736109
 20
1531.342508972685
 30
0.0
  0
POINT
  5
8293
  8
DEFPOINTS
 62
     0
 10
3743.9703709736109
 20
1531.342508972685
 30
0.0
  0
POINT
  5
8294
  8
DEFPOINTS
 62
     0
 10
3743.9703709736109
 20
1396.017860966743
 30
0.0
  0
ENDBLK
  5
81E4
  8
0
  0
BLOCK
  8
0
  2
*D21
 70
     1
 10
0.0
 20
0.0
 30
0.0
  3
*D21
  1

  0
LINE
  5
8295
  8
3
 62
     0
 10
1225.1220809008259
 20
2401.3425089726861
 30
0.0
 11
525.72224577649115
 21
2401.3425089726861
 31
0.0
  0
LINE
  5
8296
  8
3
 62
     0
 10
980.72208090082631
 20
1531.342508972685
 30
0.0
 11
525.72224577649104
 21
1531.342508972685
 31
0.0
  0
LINE
  5
8297
  8
3
 62
     0
 10
545.72224577649115
 20
2361.3425089726861
 30
0.0
 11
545.72224577649104
 21
1571.342508972685
 31
0.0
  0
INSERT
  5
8298
  8
3
 62
     0
  2
_OPEN
 10
545.72224577649115
 20
2401.3425089726861
 30
0.0
 41
40.0
 42
40.0
 43
40.0
 50
90.0
  0
INSERT
  5
8299
  8
3
 62
     0
  2
_OPEN
 10
545.72224577649104
 20
1531.342508972685
 30
0.0
 41
40.0
 42
40.0
 43
40.0
 50
270.0
  0
TEXT
  8
3
  40
60
  5
82A9
  62
0
  72
0
  71
0
 10
375.722
 20
1860.14
 30
0.000000
  1
870
  0
POINT
  5
829B
  8
DEFPOINTS
 62
     0
 10
1235.1220809008259
 20
2401.3425089726861
 30
0.0
  0
POINT
  5
829C
  8
DEFPOINTS
 62
     0
 10
990.72208090082631
 20
1531.342508972685
 30
0.0
  0
POINT
  5
829D
  8
DEFPOINTS
 62
     0
 10
545.72224577649104
 20
1531.342508972685
 30
0.0
  0
ENDBLK
  5
81FE
  8
0
  0
BLOCK
  8
0
  2
*U22
 70
     1
 10
0.0
 20
0.0
 30
0.0
  3
*U22
  1

  0
TEXT
  5
826D
  8
3
 62
     2
 10
2992.2859660845702
 20
2768.0279561440238
 30
0.0
 40
60.0
  1
MAX
  0
TEXT
  5
826E
  8
3
 62
     2
 10
3000.8573946559982
 20
2668.0279561440238
 30
0.0
 40
60.0
  1
930
  0
ENDBLK
  5
8270
  8
0
  0
ENDSEC
  0
SECTION
  2
ENTITIES
  0
INSERT
  5
7C4E
  8
0
  2
YA_N
 10
6.0
 20
5.0
 30
0.0
  0
INSERT
  5
7C4F
  8
0
  2
YA_N
 10
6.0
 20
5.0
 30
0.0
  0
INSERT
  5
7C50
  8
0
  2
YA_N
 10
6.0
 20
5.0
 30
0.0
  0
INSERT
  5
7C51
  8
0
  2
YA_N
 10
6.0
 20
5.0
 30
0.0
  0
INSERT
  5
7C52
  8
0
  2
YA_N
 10
6.0
 20
5.0
 30
0.0
  0
LINE
  5
7C53
  8
1
 10
2773.9703709736109
 20
1981.342508972685
 30
0.0
 11
3258.9703709736118
 21
1981.342508972685
 31
0.0
  0
LINE
  5
7C54
  8
1
 10
2780.7703709736111
 20
1978.1425089726861
 30
0.0
 11
2780.7703709736129
 21
1708.7993043268229
 31
0.0
  0
LINE
  5
7C5A
  8
1
 10
1462.7220809008061
 20
1606.342508972685
 30
0.0
 11
1462.7220809008249
 21
1978.1425089726849
 31
0.0
  0
LINE
  5
7C5B
  8
1
 10
1018.722080900826
 20
1606.342508972685
 30
0.0
 11
1018.722080900826
 21
1978.1425089726861
 31
0.0
  0
LINE
  5
7C5C
  8
1
 10
1472.7220809008261
 20
1981.342508972685
 30
0.0
 11
1008.722080900826
 21
1981.342508972685
 31
0.0
  0
LINE
  5
7C5D
  8
1
 10
990.72208090082631
 20
1531.342508972685
 30
0.0
 11
2070.7220809008249
 21
1531.342508972685
 31
0.0
  0
INSERT
  5
7C5E
  8
0
  2
YA_N
 10
6285.3947994874952
 20
6170.1179297020417
 30
0.0
  0
INSERT
  5
7C5F
  8
0
  2
YA_N
 10
9310.6143563453425
 20
8479.3824956818644
 30
0.0
  0
INSERT
  5
7C60
  8
0
  2
YA_N
 10
6566.5323200881021
 20
7938.1589708423153
 30
0.0
  0
INSERT
  5
7C61
  8
0
  2
YA_N
 10
9396.3261307456396
 20
6429.6268749438577
 30
0.0
  0
POLYLINE
  5
7C62
  8
1
 66
     1
 10
0.0
 20
0.0
 30
0.0
 70
     1
  0
VERTEX
  5
8221
  8
1
 10
3705.770370973612
 20
2291.3425089726852
 30
0.0
  0
VERTEX
  5
8222
  8
1
 10
3730.7703709736111
 20
2291.3425089726852
 30
0.0
  0
VERTEX
  5
8223
  8
1
 10
3730.7703709736111
 20
2292.3425089726852
 30
0.0
 42
0.4142135623730951
  0
VERTEX
  5
8224
  8
1
 10
3728.7703709736111
 20
2294.3425089726861
 30
0.0
  0
VERTEX
  5
8225
  8
1
 10
3712.7703709736111
 20
2294.3425089726861
 30
0.0
 42
-0.4142135623730951
  0
VERTEX
  5
8226
  8
1
 10
3708.770370973612
 20
2298.3425089726852
 30
0.0
  0
VERTEX
  5
8227
  8
1
 10
3708.770370973612
 20
2314.3425089726852
 30
0.0
 42
0.4142135623730951
  0
VERTEX
  5
8228
  8
1
 10
3706.7703709736111
 20
2316.3425089726852
 30
0.0
  0
VERTEX
  5
8229
  8
1
 10
3705.770370973612
 20
2316.3425089726852
 30
0.0
  0
SEQEND
  5
822A
  8
1
  0
INSERT
  5
7C6D
  8
0
  2
YA_N
 10
120.0
 20
100.0
 30
0.0
 41
20.0
 42
20.0
 43
20.0
  0
LINE
  5
7C70
  8
1
 10
3705.770370973612
 20
1791.342508972685
 30
0.0
 11
3730.7703709736111
 21
1791.342508972685
 31
0.0
  0
LINE
  5
7C71
  8
1
 10
3730.7703709736111
 20
1791.342508972685
 30
0.0
 11
3730.7703709736111
 21
1790.342508972685
 31
0.0
  0
ARC
  5
7C72
  8
1
 10
3728.7703709736111
 20
1790.342508972685
 30
0.0
 40
2.0
 50
270.0
 51
0.0
  0
LINE
  5
7C73
  8
1
 10
3728.7703709736111
 20
1788.342508972685
 30
0.0
 11
3712.7703709736111
 21
1788.342508972685
 31
0.0
  0
ARC
  5
7C74
  8
1
 10
3712.7703709736111
 20
1784.342508972685
 30
0.0
 40
4.0
 50
90.0
 51
180.0
  0
LINE
  5
7C75
  8
1
 10
3708.770370973612
 20
1784.342508972685
 30
0.0
 11
3708.770370973612
 21
1768.342508972685
 31
0.0
  0
ARC
  5
7C76
  8
1
 10
3706.7703709736111
 20
1768.342508972685
 30
0.0
 40
2.0
 50
270.0
 51
0.0
  0
LINE
  5
7C77
  8
1
 10
3706.7703709736111
 20
1766.342508972685
 30
0.0
 11
3705.770370973612
 21
1766.342508972685
 31
0.0
  0
LINE
  5
7C78
  8
1
 10
3705.770370973612
 20
1766.342508972685
 30
0.0
 11
3705.770370973612
 21
1791.342508972685
 31
0.0
  0
LINE
  5
7C79
  8
1
 10
3708.770370973612
 20
2298.3424699428228
 30
0.0
 11
3708.770370973612
 21
2035.742508972686
 31
0.0
  0
INSERT
  5
7C7A
  8
0
  2
YA_N
 10
120.0
 20
100.0
 30
0.0
 41
20.0
 42
20.0
 43
20.0
  0
INSERT
  5
7C7D
  8
0
  2
YA_N
 10
120.0
 20
100.0
 30
0.0
 41
20.0
 42
20.0
 43
20.0
  0
INSERT
  5
7C7E
  8
0
  2
YA_N
 10
120.0
 20
100.0
 30
0.0
 41
20.0
 42
20.0
 43
20.0
  0
INSERT
  5
7C7F
  8
0
  2
YA_N
 10
120.0
 20
100.0
 30
0.0
 41
20.0
 42
20.0
 43
20.0
  0
LINE
  5
7C82
  8
1
 10
1472.7220809008249
 20
1978.1425089726849
 30
0.0
 11
1472.7220809008261
 21
1981.342508972685
 31
0.0
  0
LINE
  5
7C83
  8
1
 10
1008.722080900826
 20
1978.1425089726861
 30
0.0
 11
1008.722080900826
 21
1981.342508972685
 31
0.0
  0
LINE
  5
7C84
  8
1
 10
2773.9703709736109
 20
1978.1425089726861
 30
0.0
 11
3258.9703709736118
 21
1978.1425089726861
 31
0.0
  0
LINE
  5
7C85
  8
1
 10
3258.9703709736118
 20
1981.3425089726859
 30
0.0
 11
3258.9703709736118
 21
1978.1425089726861
 31
0.0
  0
LINE
  5
7C86
  8
1
 10
2773.9703709736109
 20
1981.342508972685
 30
0.0
 11
2773.9703709736109
 21
1978.1425089726861
 31
0.0
  0
LINE
  5
7C87
  8
1
 10
3248.9703709736109
 20
1978.1425089726861
 30
0.0
 11
3248.9703709736109
 21
1938.1425089726861
 31
0.0
  0
LINE
  5
7C88
  8
2
 10
1240.7220809008261
 20
1531.342508972685
 30
0.0
 11
1240.7220809008261
 21
2625.5051983148551
 31
0.0
  0
LINE
  5
7C89
  8
1
 10
3326.4703709736109
 20
2041.342508972685
 30
0.0
 11
3326.4703709736109
 21
1606.342508972685
 31
0.0
  0
LINE
  5
7C8A
  8
1
 10
3701.4703709736109
 20
2041.342508972685
 30
0.0
 11
3701.4703709736109
 21
1606.342508972685
 31
0.0
  0
LINE
  5
7C8B
  8
1
 10
3326.47037097361
 20
2371.3425089726861
 30
0.0
 11
3326.4703709736109
 21
2041.342508972685
 31
0.0
  0
LINE
  5
7C8C
  8
1
 10
3701.47037097361
 20
2371.3425089726861
 30
0.0
 11
3701.4703709736109
 21
2041.342508972685
 31
0.0
  0
LINE
  5
7C8D
  8
1
 10
1810.3272638641281
 20
2398.3425089726861
 30
0.0
 11
1235.1220809008259
 21
2398.3425089726861
 31
0.0
  0
LINE
  5
7C8E
  8
1
 10
1778.7220809008261
 20
2401.3425089726861
 30
0.0
 11
1266.722080900827
 21
2401.3425089726861
 31
0.0
  0
LINE
  5
7C8F
  8
1
 10
1266.7220809008261
 20
2335.4221873657948
 30
0.0
 11
1266.7220809008261
 21
2401.3425089726861
 31
0.0
  0
LINE
  5
7C90
  8
1
 10
1256.7220809008261
 20
2401.3425089726861
 30
0.0
 11
1788.7544744214711
 21
2401.3425089726861
 31
0.0
  0
LINE
  5
7C91
  8
1
 10
3705.770370973612
 20
1791.342508972685
 30
0.0
 11
3705.770370973612
 21
2035.342508972685
 31
0.0
  0
LINE
  5
7C92
  8
1
 10
3708.770370973612
 20
2035.342508972685
 30
0.0
 11
3708.770370973612
 21
1784.342508972685
 31
0.0
  0
LINE
  5
7C93
  8
1
 10
3705.770370973612
 20
2035.342508972685
 30
0.0
 11
3705.770370973612
 21
2035.742508972686
 31
0.0
  0
LINE
  5
7C94
  8
1
 10
1778.7220809008261
 20
2401.3425089726861
 30
0.0
 11
1749.7220809008261
 21
2041.342508972685
 31
0.0
  0
ARC
  5
7C95
  8
1
 10
1277.7220809008261
 20
2078.3425089726861
 30
0.0
 40
473.44799080786078
 50
270.0
 51
355.5177596295751
  0
ARC
  5
7C96
  8
1
 10
1277.9575029000221
 20
2003.2338484531631
 30
0.0
 40
398.33939985655428
 50
174.78337016104811
 51
269.96613770129539
  0
ARC
  5
7C97
  8
1
 10
1209.9124780674979
 20
2011.713394949347
 30
0.0
 40
329.81296712472692
 50
90.033076184913554
 51
175.1755785567762
  0
ARC
  5
7C98
  8
1
 10
1209.722080900827
 20
2072.3425089726852
 30
0.0
 40
269.18379814435679
 50
57.013309525179601
 51
90.000000000000298
  0
LINE
  5
7C99
  8
2
 10
3513.9703709736109
 20
2508.468116010079
 30
0.0
 11
3513.9703709736109
 21
1531.342508972685
 31
0.0
  0
LINE
  5
7C9A
  8
2
 10
2619.0774691537308
 20
2041.342508972685
 30
0.0
 11
3757.8466308137258
 21
2041.342508972685
 31
0.0
1001
ACAD
1000
ASC_BOUNDS
1002
{
1070
    19
1002
}
  0
LINE
  5
7C9B
  8
1
 10
1810.3272638641299
 20
2371.3425089726861
 30
0.0
 11
1235.1220809008259
 21
2371.3425089726861
 31
0.0
  0
LINE
  5
7C9C
  8
1
 10
1235.1220809008259
 20
2371.3425089726861
 30
0.0
 11
1235.1220809008259
 21
2401.3425089726861
 31
0.0
  0
LINE
  5
7C9D
  8
1
 10
1235.1220809008259
 20
2401.3425089726861
 30
0.0
 11
1810.3272638641299
 21
2401.3425089726861
 31
0.0
  0
LINE
  5
7C9E
  8
1
 10
1810.3272638641299
 20
2401.3425089726861
 30
0.0
 11
1810.3272638641299
 21
2371.3425089726861
 31
0.0
  0
ARC
  5
7C9F
  8
1
 10
1388.7220809008261
 20
2334.3425089726861
 30
0.0
 40
49.0
 50
225.68249193757549
 51
20.76494927673637
  0
LINE
  5
7CA0
  8
1
 10
1415.7220809008261
 20
2401.3425089726861
 30
0.0
 11
1434.5391750789761
 21
2351.71472475164
 31
0.0
  0
LINE
  5
7CA1
  8
1
 10
990.72208090082631
 20
1531.342508972685
 30
0.0
 11
2070.7220809008249
 21
1531.342508972685
 31
0.0
  0
LINE
  5
7CA2
  8
1
 10
2743.9703709736109
 20
1531.342508972685
 30
0.0
 11
3743.9703709736109
 21
1531.342508972685
 31
0.0
  0
LINE
  5
7CA3
  8
1
 10
3705.770370973612
 20
2316.3425089726852
 30
0.0
 11
3701.47037097361
 21
2316.3425089726852
 31
0.0
  0
LINE
  5
7CA4
  8
1
 10
3705.770370973612
 20
1766.342508972685
 30
0.0
 11
3701.4703709736109
 21
1766.342508972685
 31
0.0
  0
LINE
  5
7CA5
  8
1
 10
1008.722080900826
 20
1978.1425089726849
 30
0.0
 11
1472.7220809008249
 21
1978.1425089726849
 31
0.0
  0
POINT
  5
7CA6
  8
1
 10
1780.3272638641299
 20
2401.3425089726861
 30
0.0
  0
POINT
  5
7CA7
  8
1
 10
1778.7220809008261
 20
2401.3425089726861
 30
0.0
  0
POINT
  5
7CA8
  8
1
 10
2743.9703709736109
 20
1606.342508972685
 30
0.0
  0
POINT
  5
7CA9
  8
1
 10
3705.770370973612
 20
2316.3425089726852
 30
0.0
  0
LINE
  5
7CAA
  8
1
 10
3248.9703709736109
 20
1978.1425089726861
 30
0.0
 11
3248.9703709736118
 21
1606.3425089726859
 31
0.0
  0
LINE
  5
7CAB
  8
1
 10
3730.7703709736111
 20
1791.342508972685
 30
0.0
 11
3730.7703709736111
 21
1790.342508972685
 31
0.0
  0
INSERT
  5
7CAC
  8
0
  2
YA_N
 10
578.29819496493474
 20
667.15974685678236
 30
0.0
  0
INSERT
  5
7CAD
  8
0
  2
YA_N
 10
578.29819496493474
 20
667.15974685678236
 30
0.0
  0
INSERT
  5
7CAE
  8
0
  2
YA_N
 10
578.29819496493474
 20
667.15974685678236
 30
0.0
  0
INSERT
  5
7CAF
  8
0
  2
YA_N
 10
578.29819496493474
 20
667.15974685678236
 30
0.0
  0
INSERT
  5
7CB0
  8
0
  2
YA_N
 10
2798.551811518767
 20
1662.02584223804
 30
0.0
  0
INSERT
  5
7CB2
  8
0
  2
YA_N
 10
3145.897131625954
 20
1825.850693409124
 30
0.0
 41
3.191404879447199
 42
3.191404879447199
 43
3.191404879447199
  0
LINE
  5
7CB3
  8
1
 10
3730.7703709736111
 20
1791.342508972685
 30
0.0
 11
3730.7703709736111
 21
2291.3425089726852
 31
0.0
  0
INSERT
  5
7CB4
  8
0
  2
YA_N
 10
18.0
 20
4050.5577889263582
 30
0.0
  0
INSERT
  5
7CB5
  8
0
  2
YA_N
 10
18.0
 20
4050.5577889263582
 30
0.0
  0
INSERT
  5
7CB6
  8
0
  2
YA_N
 10
18.0
 20
4050.5577889263582
 30
0.0
  0
INSERT
  5
7CB7
  8
0
  2
YA_N
 10
10018.0
 20
14050.55778892635
 30
0.0
  0
INSERT
  5
7CB8
  8
0
  2
YA_N
 10
10018.0
 20
14050.55778892635
 30
0.0
  0
INSERT
  5
7CB9
  8
0
  2
YA_N
 10
10018.0
 20
14050.55778892635
 30
0.0
  0
INSERT
  5
7CBA
  8
0
  2
YA_N
 10
10018.0
 20
14050.55778892635
 30
0.0
  0
INSERT
  5
7CBB
  8
0
  6
BYBLOCK
 62
     2
  2
YA_N
 10
3183.088503818366
 20
1711.274344822353
 30
0.0
 41
24.0
 42
24.0
 43
24.0
 50
270.0
  0
INSERT
  5
7CBC
  8
0
  6
BYBLOCK
 62
     2
  2
YA_N
 10
3290.1059722385171
 20
1726.595643880431
 30
0.0
 41
24.0
 42
24.0
 43
24.0
 50
270.0
  0
LINE
  5
7CBD
  8
1
 10
2688.97037097361
 20
2181.042508972685
 30
0.0
 11
2688.9703709736132
 21
1901.6425089726849
 31
0.0
  0
LINE
  5
7CBE
  8
1
 10
2728.9703709736109
 20
2060.3425089726861
 30
0.0
 11
2758.9703709736109
 21
2060.3425089726852
 31
0.0
1001
ACAD
1000
ASC_BOUNDS
1002
{
1070
    19
1002
}
  0
LINE
  5
7CBF
  8
1
 10
2728.9703709736109
 20
2022.342508972685
 30
0.0
 11
2758.9703709736109
 21
2022.342508972685
 31
0.0
1001
ACAD
1000
ASC_BOUNDS
1002
{
1070
    19
1002
}
  0
LINE
  5
7CC0
  8
1
 10
2758.9703709736109
 20
2063.8425089726852
 30
0.0
 11
2758.9703709736109
 21
2018.842508972685
 31
0.0
  0
LINE
  5
7CC1
  8
1
 10
2758.9703709736109
 20
2063.8425089726852
 30
0.0
 11
3326.4703709736109
 21
2063.8425089726852
 31
0.0
1001
ACAD
1000
ASC_BOUNDS
1002
{
1070
    19
1002
}
  0
LINE
  5
7CC2
  8
1
 10
2758.9703709736109
 20
2018.842508972685
 30
0.0
 11
3326.4703709736109
 21
2018.842508972685
 31
0.0
1001
ACAD
1000
ASC_BOUNDS
1002
{
1070
    19
1002
}
  0
LINE
  5
7CC3
  8
1
 10
2728.97037097361
 20
2181.042508972685
 30
0.0
 11
2728.9703709736118
 21
1901.6425089726849
 31
0.0
  0
LINE
  5
7CC4
  8
1
 10
2688.9703709736091
 20
2181.042508972685
 30
0.0
 11
2728.97037097361
 21
2181.042508972685
 31
0.0
1001
ACAD
1000
ASC_BOUNDS
1002
{
1070
    19
1002
}
  0
LINE
  5
7CC5
  8
1
 10
2780.770370973612
 20
1732.342508972685
 30
0.0
 11
2780.770370973612
 21
1606.342508972685
 31
0.0
  0
LINE
  5
7CC6
  8
1
 10
2688.9703709736132
 20
1901.6425089726849
 30
0.0
 11
2688.9703709736132
 21
1713.342508972685
 31
0.0
  0
LINE
  5
7CC7
  8
1
 10
2728.9703709736118
 20
1901.6425089726849
 30
0.0
 11
2728.9703709736118
 21
1713.342508972685
 31
0.0
  0
LINE
  5
7CC8
  8
1
 10
2764.0301326241001
 20
2161.7771372075858
 30
0.0
 11
2764.0301326241001
 21
2231.0425089726859
 31
0.0
  0
LINE
  5
7CC9
  8
1
 10
2764.0301326241001
 20
2231.0425089726859
 30
0.0
 11
2642.0301326241001
 21
2231.0425089726859
 31
0.0
  0
LINE
  5
7CCA
  8
1
 10
2642.0301326241001
 20
2231.0425089726859
 30
0.0
 11
2642.0301326241001
 21
1660.842508972685
 31
0.0
  0
CIRCLE
  5
7CCB
  8
1
 10
1240.7220809008261
 20
2041.342508972685
 30
0.0
 40
139.69999999999999
  0
LINE
  5
7CCC
  8
1
 10
2642.0301326241001
 20
1660.842508972685
 30
0.0
 11
2764.0301326241001
 21
1660.842508972685
 31
0.0
  0
LINE
  5
7CCD
  8
1
 10
2764.0301326241001
 20
1719.705768809373
 30
0.0
 11
2764.0301326241001
 21
1660.842508972685
 31
0.0
  0
LINE
  5
7CCE
  8
1
 10
2642.0301326241001
 20
2231.042508972685
 30
0.0
 11
2764.0301326241001
 21
2231.042508972685
 31
0.0
  0
INSERT
  5
7CCF
  8
0
  6
BYBLOCK
 62
     2
  2
YA_N
 10
3220.312248982013
 20
845.60638416362042
 30
0.0
 41
24.0
 42
24.0
 43
24.0
 50
209.02222522655319
  0
LINE
  5
7CD0
  8
1
 10
1462.7220809008229
 20
1938.1425089726849
 30
0.0
 11
1729.9354818521899
 21
1938.1425089726849
 31
0.0
  0
LINE
  5
7CD1
  8
1
 10
1018.722080900826
 20
1938.1425089726849
 30
0.0
 11
883.79790372908246
 21
1938.1425089726849
 31
0.0
  0
LINE
  5
7CD2
  8
1
 10
1018.722080900826
 20
1932.1425089726849
 30
0.0
 11
884.85332754872343
 21
1932.1425089726849
 31
0.0
  0
LINE
  5
7CD3
  8
1
 10
1462.7220809008229
 20
1932.1425089726849
 30
0.0
 11
1728.031485643831
 21
1932.1425089726849
 31
0.0
  0
LINE
  5
7CD4
  8
1
 10
3248.9703709736109
 20
1938.1425089726861
 30
0.0
 11
3326.4703709736109
 21
1938.1425089726861
 31
0.0
  0
LINE
  5
7CD5
  8
1
 10
3248.9703709736109
 20
1938.1425089726861
 30
0.0
 11
3248.9703709736109
 21
1978.1425089726861
 31
0.0
  0
LINE
  5
7CD6
  8
1
 10
3248.9703709736109
 20
1978.1425089726861
 30
0.0
 11
3250.9703709736109
 21
1978.1425089726861
 31
0.0
  0
LINE
  5
7CD7
  8
1
 10
3248.9703709736109
 20
1932.1425089726849
 30
0.0
 11
3326.4703709736109
 21
1932.1425089726861
 31
0.0
  0
INSERT
  5
7CD8
  8
0
  2
YA_N
 10
1713.0203073866769
 20
330.47048422179881
 30
0.0
  0
INSERT
  5
7CDC
  8
0
  6
BYBLOCK
 62
     2
  2
YA_N
 10
362.7872676876068
 20
442.62049533921049
 30
0.0
 41
24.0
 42
24.0
 43
24.0
 50
270.0
  0
POINT
  5
7CDD
  8
1
 10
1778.7220809008261
 20
2401.3425089726861
 30
0.0
  0
POINT
  5
7CDE
  8
1
 10
1266.7220809008261
 20
2401.3425089726861
 30
0.0
  0
POINT
  5
7CDF
  8
1
 10
1778.7220809008261
 20
2401.3425089726861
 30
0.0
  0
LINE
  5
7CE0
  8
1
 10
3705.770370973612
 20
2035.742508972686
 30
0.0
 11
3705.770370973612
 21
2291.3425089726852
 31
0.0
  0
LINE
  5
7CE1
  8
1
 10
3708.770370973612
 20
2035.742508972686
 30
0.0
 11
3708.770370973612
 21
2035.342508972685
 31
0.0
  0
LINE
  5
7CE2
  8
1
 10
2085.7220809008272
 20
1606.342508972685
 30
0.0
 11
1735.7220809008261
 21
1606.342508972685
 31
0.0
  0
LINE
  5
7CE4
  8
1
 10
2085.7220809008272
 20
1606.342508972685
 30
0.0
 11
2085.7220809008272
 21
1651.342508972685
 31
0.0
  0
LINE
  5
7CE5
  8
1
 10
1735.7220809008261
 20
1606.342508972685
 30
0.0
 11
1735.7220809008261
 21
1651.342508972685
 31
0.0
  0
LINE
  5
7CE6
  8
1
 10
2688.9703709736118
 20
1853.342508972685
 30
0.0
 11
2728.9703709736109
 21
1853.342508972685
 31
0.0
  0
LINE
  5
7CE7
  8
1
 10
2688.9703709736132
 20
1713.342508972685
 30
0.0
 11
2728.9703709736118
 21
1713.342508972685
 31
0.0
  0
LINE
  5
7CE8
  8
1
 10
1140.7220809008261
 20
1981.342508972685
 30
0.0
 11
1340.7220809008261
 21
1981.342508972685
 31
0.0
  0
LINE
  5
7CE9
  8
1
 10
2861.4703709736109
 20
1981.342508972685
 30
0.0
 11
2796.4703709736109
 21
1981.342508972685
 31
0.0
  0
CIRCLE
  5
7CEB
  8
1
 10
1910.722080900827
 20
1783.342508972685
 30
0.0
 40
72.5
  0
LINE
  5
7CEC
  8
1
 10
1289.5111231008991
 20
2172.245982422397
 30
0.0
 11
1936.0420920640699
 21
1851.277382452314
 31
0.0
  0
LINE
  5
7CED
  8
1
 10
1218.1089113889821
 20
1903.4848484505781
 30
0.0
 11
1898.9865419630401
 21
1711.7986264540541
 31
0.0
  0
ARC
  5
7CEE
  8
1
 10
1240.7220809008261
 20
2041.342508972685
 30
0.0
 40
189.69999999999999
 50
69.559069074140154
 51
260.68457447893849
  0
LINE
  5
7CEF
  8
1
 10
1210.0154362594751
 20
1854.1442398170391
 30
0.0
 11
1890.8930668335331
 21
1662.4580178205149
 31
0.0
  0
ARC
  5
7CF0
  8
1
 10
1910.722080900827
 20
1783.342508972685
 30
0.0
 40
122.5
 50
260.68457447893849
 51
69.559069074140112
  0
DIMENSION
  5
7CF1
  8
3
  2
*D2
 10
1266.7220809008261
 20
2554.27807510708
 30
0.0
 11
1522.7220809008261
 21
2594.27807510708
 31
0.0
 70
     0
 13
1778.7220809008261
 23
2401.3425089726861
 33
0.0
 14
1266.7220809008261
 24
2401.3425089726861
 34
0.0
 50
180.0
1001
ACAD
1000
DSTYLE
1002
{
1070
   287
1070
     3
1070
    40
1040
20.0
1070
   140
1040
3.0
1070
   147
1040
0.5
1070
   173
1070
     1
1070
   272
1070
     4
1070
   279
1070
     0
1070
   284
1070
     0
1070
   285
1070
     0
1070
   286
1070
     0
1070
     6
1000
OPEN
1070
     7
1000
OPEN
1002
}
  0
LINE
  5
7CF2
  8
2
 10
1240.7220809008261
 20
3094.4015593381941
 30
0.0
 11
1240.7220809008261
 21
4290.2075717212101
 31
0.0
  0
LINE
  5
7CF3
  8
2
 10
1910.722080900827
 20
3092.1468153289929
 30
0.0
 11
1910.722080900827
 21
3715.5688836630288
 31
0.0
  0
LINE
  5
7CF4
  8
2
 10
810.88833553202414
 20
3988.1097778497979
 30
0.0
 11
1863.0792141826851
 21
3988.1097778497979
 31
0.0
  0
LINE
  5
7CF5
  8
1
 10
2085.7220809008272
 20
1606.342508972685
 30
0.0
 11
990.72208090082631
 21
1606.342508972685
 31
0.0
  0
LINE
  5
7CFB
  8
1
 10
2743.9703709736109
 20
1606.342508972685
 30
0.0
 11
3743.97037097361
 21
1606.342508972685
 31
0.0
  0
DIMENSION
  5
7D12
  8
3
  2
*D3
 10
3326.4703709736109
 20
2504.580529218927
 30
0.0
 11
3513.9703709736109
 21
2544.580529218927
 31
0.0
 12
-2364.0969187948208
 22
1030.1155031825731
 32
0.0
 70
     0
 13
3701.4703709736109
 23
2369.6079579686329
 33
0.0
 14
3326.4703709736109
 24
2371.7555286847801
 34
0.0
1001
ACAD
1000
DSTYLE
1002
{
1070
   284
1070
     0
1070
   140
1040
3.0
1070
   272
1070
     4
1070
    40
1040
20.0
1070
   173
1070
     1
1070
   147
1040
0.5
1070
     7
1000
_OPEN
1070
     6
1000
_OPEN
1070
   285
1070
     0
1070
   286
1070
     0
1002
}
  0
DIMENSION
  5
7D13
  8
3
  2
*D4
 10
3513.9703709736109
 20
2658.0279561440238
 30
0.0
 11
3609.870370973611
 21
2723.0279561440238
 31
0.0
 12
-2364.0969187948208
 22
1030.1155031825731
 32
0.0
 70
     0
  1
192
 13
3705.770370973612
 23
2316.3425089726852
 33
0.0
 14
3513.9703709736109
 24
2586.255822142291
 34
0.0
1001
ACAD
1000
DSTYLE
1002
{
1070
   284
1070
     0
1070
   140
1040
3.0
1070
   272
1070
     4
1070
    40
1040
20.0
1070
   173
1070
     1
1070
   147
1040
0.5
1070
     7
1000
_OPEN
1070
     6
1000
_OPEN
1070
   285
1070
     0
1070
   286
1070
     0
1002
}
  0
DIMENSION
  5
7D14
  8
3
  2
*D5
 10
2642.0301326241001
 20
2658.0279561440238
 30
0.0
 11
3078.000251798856
 21
2748.0279561440229
 31
0.0
 70
     0
  1
MAX\P930
 13
3513.9703709736109
 23
2586.255822142291
 33
0.0
 14
2642.0301326241001
 24
2231.042508972685
 34
0.0
1001
ACAD
1000
DSTYLE
1002
{
1070
   284
1070
     0
1070
   140
1040
3.0
1070
   272
1070
     4
1070
    75
1070
     1
1070
    40
1040
20.0
1070
   173
1070
     1
1070
   147
1040
0.5
1070
     7
1000
_OPEN
1070
     6
1000
_OPEN
1070
   285
1070
     0
1070
   286
1070
     0
1002
}
  0
DIMENSION
  5
7D15
  8
3
  2
*D6
 10
3920.8435774453792
 20
1791.342508972685
 30
0.0
 11
3870.8435774453792
 21
2041.3425089726859
 31
0.0
 70
     0
 13
3730.7703709736111
 23
2291.3425089726852
 33
0.0
 14
3730.7703709736111
 24
1791.342508972685
 34
0.0
 50
90.0
1001
ACAD
1000
DSTYLE
1002
{
1070
   287
1070
     3
1070
     3
1000
φ<>
1070
    40
1040
20.0
1070
   143
1040
0.039
1070
   172
1070
     1
1070
   271
1070
     0
1070
   279
1070
     0
1070
   288
1070
     1
1002
}
  0
LINE
  5
7D16
  8
1
 10
1306.973199765205
 20
2219.0976193049
 30
0.0
 11
1953.504168728377
 21
1898.129019334817
 31
0.0
  0
LINE
  5
7D17
  8
1
 10
2085.7220809008272
 20
1651.342508972685
 30
0.0
 11
1735.7220809008261
 21
1651.342508972685
 31
0.0
  0
ARC
  5
7D18
  8
1
 10
1910.722080900827
 20
1783.342508972685
 30
0.0
 40
142.5
 50
180.0
 51
244.72540000000001
  0
ARC
  5
7D19
  8
1
 10
1910.722080900827
 20
1783.342508972685
 30
0.0
 40
142.5
 50
295.00119999999998
 51
180.0
  0
LINE
  5
7D1A
  8
2
 10
1910.722080900827
 20
1976.7405089726849
 30
0.0
 11
1910.722080900827
 21
1594.0053264562241
 31
0.0
  0
LINE
  5
7D1B
  8
1
 10
1850.1806809008269
 20
1654.342508972685
 30
0.0
 11
1971.263380900825
 21
1654.342508972685
 31
0.0
  0
LINE
  5
7D1C
  8
1
 10
2040.722080900827
 20
1651.342508972685
 30
0.0
 11
1990.722080900827
 21
1651.342508972685
 31
0.0
  0
LINE
  5
7D1D
  8
1
 10
2030.2048809008261
 20
1705.593108972686
 30
0.0
 11
2040.722080900827
 21
1666.342508972685
 31
0.0
  0
LINE
  5
7D1E
  8
1
 10
2040.722080900827
 20
1666.145108972685
 30
0.0
 11
2040.722080900827
 21
1651.342508972685
 31
0.0
  0
ARC
  5
7D1F
  8
1
 10
1985.7220809008261
 20
1659.2715089726851
 30
0.0
 40
4.9999000000000002
 50
0.0
 51
45.000500000000002
  0
LINE
  5
7D20
  8
1
 10
1989.6018809008251
 20
1662.462708972686
 30
0.0
 11
1988.2309809008259
 21
1663.8336089726849
 31
0.0
  0
LINE
  5
7D21
  8
1
 10
1990.722080900827
 20
1651.342508972685
 30
0.0
 11
1990.722080900827
 21
1659.2715089726851
 31
0.0
  0
LINE
  5
7D22
  8
1
 10
1791.1964809008259
 20
1705.433808972685
 30
0.0
 11
1780.7220809008261
 21
1666.342508972685
 31
0.0
  0
LINE
  5
7D23
  8
1
 10
1780.7220809008261
 20
1651.342508972685
 30
0.0
 11
1830.7220809008261
 21
1651.342508972685
 31
0.0
  0
ARC
  5
7D24
  8
1
 10
1835.721980900825
 20
1659.2715089726851
 30
0.0
 40
4.9999000000000002
 50
134.99950000000001
 51
180.0
  0
LINE
  5
7D25
  8
1
 10
1832.3468809008259
 20
1662.967508972685
 30
0.0
 11
1833.1488809008249
 21
1663.7695089726849
 31
0.0
  0
LINE
  5
7D26
  8
1
 10
1830.7220809008261
 20
1651.342508972685
 30
0.0
 11
1830.7220809008261
 21
1659.2715089726851
 31
0.0
  0
LINE
  5
7D27
  8
1
 10
1780.7220809008261
 20
1666.145108972685
 30
0.0
 11
1780.7220809008261
 21
1651.342508972685
 31
0.0
  0
LINE
  5
7D28
  8
2
 10
2052.6783809008261
 20
1783.342508972685
 30
0.0
 11
1761.1769809008249
 21
1783.342508972685
 31
0.0
  0
LINE
  5
7D29
  8
2
 10
3208.8388690940328
 20
1783.342508972685
 30
0.0
 11
2618.2184827811589
 21
1783.342508972685
 31
0.0
  0
LINE
  5
7D2A
  8
1
 10
1221.7220809008261
 20
3203.1097778497979
 30
0.0
 11
1221.7220809008261
 21
3233.1097778497988
 31
0.0
1001
ACAD
1000
ASC_BOUNDS
1002
{
1070
    19
1002
}
  0
LINE
  5
7D2B
  8
1
 10
1259.7220809008261
 20
3203.1097778497979
 30
0.0
 11
1259.7220809008261
 21
3233.1097778497988
 31
0.0
1001
ACAD
1000
ASC_BOUNDS
1002
{
1070
    19
1002
}
  0
LINE
  5
7D2C
  8
1
 10
1020.722080900826
 20
3238.169539500288
 30
0.0
 11
1020.722080900826
 21
3116.169539500288
 31
0.0
  0
LINE
  5
7D2D
  8
1
 10
1020.722080900826
 20
3116.169539500288
 30
0.0
 11
1020.722080900826
 21
3238.169539500288
 31
0.0
  0
LINE
  5
7D2F
  8
1
 10
2060.7220809008272
 20
3116.169539500288
 30
0.0
 11
2060.7220809008272
 21
3238.169539500288
 31
0.0
  0
LINE
  5
7D30
  8
1
 10
1101.0220809008249
 20
3203.1097778497979
 30
0.0
 11
1380.422080900827
 21
3203.1097778497988
 31
0.0
  0
LINE
  5
7D31
  8
1
 10
1101.0220809008249
 20
3163.109777849797
 30
0.0
 11
1380.422080900827
 21
3163.1097778498001
 31
0.0
  0
LINE
  5
7D32
  8
1
 10
1020.722080900826
 20
3116.169539500288
 30
0.0
 11
2060.7220809008272
 21
3116.169539500288
 31
0.0
  0
LINE
  5
7D33
  8
1
 10
1380.422080900827
 20
3203.1097778497988
 30
0.0
 11
1980.7220809008261
 21
3203.1097778497988
 31
0.0
  0
LINE
  5
7D34
  8
1
 10
1380.422080900827
 20
3163.1097778498001
 30
0.0
 11
1980.7220809008261
 21
3163.1097778498001
 31
0.0
  0
LINE
  5
7D35
  8
1
 10
1980.7220809008261
 20
3163.1097778498001
 30
0.0
 11
1980.7220809008261
 21
3203.1097778497988
 31
0.0
  0
LINE
  5
7D36
  8
1
 10
1840.7220809008261
 20
3163.1097778498001
 30
0.0
 11
1840.7220809008261
 21
3203.1097778497979
 31
0.0
  0
LINE
  5
7D37
  8
1
 10
1101.0220809008249
 20
3163.109777849797
 30
0.0
 11
1101.0220809008249
 21
3203.1097778497979
 31
0.0
1001
ACAD
1000
ASC_BOUNDS
1002
{
1070
    19
1002
}
  0
LINE
  5
7D38
  8
1
 10
1263.2220809008261
 20
3254.909777849798
 30
0.0
 11
1460.3878497406699
 21
3254.9097778497999
 31
0.0
  0
LINE
  5
7D39
  8
1
 10
1263.2220809008261
 20
3723.1097778497988
 30
0.0
 11
1460.3878497406699
 21
3723.1097778497988
 31
0.0
  0
LINE
  5
7D3A
  8
1
 10
1218.2220809008261
 20
3233.1097778497988
 30
0.0
 11
1218.2220809008261
 21
3800.6097778497979
 31
0.0
1001
ACAD
1000
ASC_BOUNDS
1002
{
1070
    19
1002
}
  0
LINE
  5
7D3B
  8
1
 10
1263.2220809008261
 20
3233.1097778497988
 30
0.0
 11
1263.2220809008261
 21
3770.6097778497988
 31
0.0
1001
ACAD
1000
ASC_BOUNDS
1002
{
1070
    19
1002
}
  0
LINE
  5
7D3C
  8
1
 10
1218.2220809008261
 20
3233.1097778497988
 30
0.0
 11
1263.2220809008261
 21
3233.1097778497988
 31
0.0
  0
LINE
  5
7D3D
  8
1
 10
1263.2220809008261
 20
3238.169539500288
 30
0.0
 11
2060.7220809008272
 21
3238.169539500288
 31
0.0
  0
LINE
  5
7D3E
  8
1
 10
1218.2220809008261
 20
3238.169539500288
 30
0.0
 11
1020.722080900826
 21
3238.169539500288
 31
0.0
  0
LINE
  5
7D3F
  8
1
 10
1303.922080900825
 20
3723.1097778497988
 30
0.0
 11
1343.922080900825
 21
3723.1097778497988
 31
0.0
  0
LINE
  5
7D40
  8
1
 10
1343.922080900825
 20
3723.1097778497988
 30
0.0
 11
1303.922080900825
 21
3723.1097778497988
 31
0.0
  0
LINE
  5
7D41
  8
1
 10
1380.422080900825
 20
3163.109777849797
 30
0.0
 11
1380.422080900825
 21
3203.1097778497979
 31
0.0
1001
ACAD
1000
ASC_BOUNDS
1002
{
1070
    19
1002
}
  0
LINE
  5
7D42
  8
2
 10
1809.7188552986311
 20
2041.342508972685
 30
0.0
 11
839.36950443388457
 21
2041.342508972685
 31
0.0
  0
DIMENSION
  5
7D43
  8
3
  2
*D7
 10
1778.7220809008261
 20
2677.67091116949
 30
0.0
 11
1509.7220809008261
 21
2717.67091116949
 31
0.0
 12
-2364.0969187948208
 22
1030.1155031825731
 32
0.0
 70
     0
 13
1240.7220809008261
 23
2442.6950854396268
 33
0.0
 14
1778.7220809008261
 24
2401.3425089726861
 34
0.0
 50
180.0
1001
ACAD
1000
DSTYLE
1002
{
1070
   284
1070
     0
1070
   140
1040
3.0
1070
   272
1070
     4
1070
    40
1040
20.0
1070
   173
1070
     1
1070
   147
1040
0.5
1070
     7
1000
_OPEN
1070
     6
1000
_OPEN
1070
   285
1070
     0
1070
   286
1070
     0
1002
}
  0
LINE
  5
7D44
  8
1
 10
879.72208090082665
 20
4175.6097778497988
 30
0.0
 11
1236.7220809008261
 21
4175.6097778497988
 31
0.0
  0
LINE
  5
7D45
  8
1
 10
879.72208090082665
 20
3800.6097778497979
 30
0.0
 11
1236.722080900827
 21
3800.6097778497979
 31
0.0
  0
LINE
  5
7D48
  8
1
 10
1460.3878497406699
 20
3254.9097778497999
 30
0.0
 11
1460.3878497406699
 21
3723.1097778497988
 31
0.0
  0
LINE
  5
7D49
  8
1
 10
1218.2220809008261
 20
3723.1097778497988
 30
0.0
 11
1021.056312060982
 21
3723.1097778497988
 31
0.0
  0
LINE
  5
7D4A
  8
1
 10
1021.056312060982
 20
3254.9097778497999
 30
0.0
 11
1021.056312060982
 21
3723.1097778497988
 31
0.0
  0
LINE
  5
7D4B
  8
1
 10
1218.2220809008261
 20
3254.909777849798
 30
0.0
 11
1021.056312060982
 21
3254.9097778497999
 31
0.0
  0
LINE
  5
7D4C
  8
1
 10
1778.7220809008261
 20
3670.1094778497968
 30
0.0
 11
1778.7220809008261
 21
3280.109777849796
 31
0.0
  0
LINE
  5
7D4D
  8
1
 10
2052.7220809008259
 20
3280.109777849796
 30
0.0
 11
2052.7220809008259
 21
3670.1094778497968
 31
0.0
  0
LINE
  5
7D4E
  8
1
 10
2052.7220809008259
 20
3280.109777849796
 30
0.0
 11
1778.7220809008261
 21
3280.109777849796
 31
0.0
  0
LINE
  5
7D4F
  8
1
 10
1852.7220809008261
 20
3270.109777849796
 30
0.0
 11
1968.7220809008261
 21
3270.109777849796
 31
0.0
  0
LINE
  5
7D50
  8
1
 10
1778.7220809008261
 20
3280.109777849796
 30
0.0
 11
1778.7220809008261
 21
3441.109777849796
 31
0.0
  0
LINE
  5
7D51
  8
1
 10
1851.722080900827
 20
3280.109777849796
 30
0.0
 11
1851.722080900827
 21
3271.109777849797
 31
0.0
  0
ARC
  5
7D52
  8
1
 10
1852.7220809008261
 20
3271.109777849797
 30
0.0
 40
0.9999
 50
179.99299999999999
 51
270.00349999999992
  0
LINE
  5
7D53
  8
1
 10
1891.7220809008261
 20
3263.109777849797
 30
0.0
 11
1891.7220809008261
 21
3183.109777849796
 31
0.0
  0
LINE
  5
7D54
  8
1
 10
1929.722080900827
 20
3263.109777849797
 30
0.0
 11
1929.722080900827
 21
3183.109777849796
 31
0.0
  0
LINE
  5
7D55
  8
1
 10
1891.7220809008261
 20
3183.109777849796
 30
0.0
 11
1929.7220809008249
 21
3183.109777849796
 31
0.0
  0
LINE
  5
7D56
  8
1
 10
1890.7220809008261
 20
3263.109777849797
 30
0.0
 11
1930.7220809008261
 21
3263.109777849797
 31
0.0
  0
LINE
  5
7D57
  8
1
 10
1890.7220809008261
 20
3270.109777849796
 30
0.0
 11
1890.7220809008261
 21
3263.109777849797
 31
0.0
  0
LINE
  5
7D58
  8
1
 10
1930.7220809008261
 20
3270.109777849796
 30
0.0
 11
1930.7220809008261
 21
3263.109777849797
 31
0.0
  0
LINE
  5
7D59
  8
1
 10
1969.7220809008261
 20
3280.109777849796
 30
0.0
 11
1969.7220809008261
 21
3271.109777849797
 31
0.0
  0
ARC
  5
7D5A
  8
1
 10
2027.7220809008261
 20
3282.109777849797
 30
0.0
 40
2.0001000000000002
 50
270.0
 51
359.99650000000003
  0
ARC
  5
7D5B
  8
1
 10
1968.7220809008261
 20
3271.1087778497958
 30
0.0
 40
0.9998000000000001
 50
269.99299999999999
 51
0.013999999999989
  0
ARC
  5
7D5C
  8
1
 10
2051.2220809008272
 20
3603.109377849798
 30
0.0
 40
2.0001000000000002
 50
0.0034999999999972
 51
89.996499999999997
  0
LINE
  5
7D5D
  8
1
 10
2052.7220809008259
 20
3670.1094778497968
 30
0.0
 11
1778.7220809008261
 21
3670.1094778497968
 31
0.0
  0
ARC
  5
7D5E
  8
1
 10
1787.6614809008249
 20
3668.1094778497968
 30
0.0
 40
2.0
 50
90.0
 51
178.23719999999989
  0
DIMENSION
  5
7D61
  8
3
  2
*D8
 10
679.87292418482775
 20
2041.342508972685
 30
0.0
 11
639.87292418482775
 21
2221.3425089726861
 31
0.0
 12
-2364.0969187948208
 22
1030.1155031825731
 32
0.0
 70
     0
 13
1235.1220809008259
 23
2401.3425089726861
 33
0.0
 14
839.36950443388457
 24
2041.342508972685
 34
0.0
 50
270.0
1001
ACAD
1000
DSTYLE
1002
{
1070
   284
1070
     0
1070
   140
1040
3.0
1070
   272
1070
     4
1070
    40
1040
20.0
1070
   173
1070
     1
1070
   147
1040
0.5
1070
     7
1000
_OPEN
1070
     6
1000
_OPEN
1070
   285
1070
     0
1070
   286
1070
     0
1002
}
  0
DIMENSION
  5
7D62
  8
3
  2
*D9
 10
679.87292418482775
 20
1531.342508972685
 30
0.0
 11
639.87292418482775
 21
1786.342508972685
 31
0.0
 12
-2364.0969187948208
 22
1030.1155031825731
 32
0.0
 70
     0
 13
839.36950443388457
 23
2041.342508972685
 33
0.0
 14
990.72208090082631
 24
1531.342508972685
 34
0.0
 50
270.0
1001
ACAD
1000
DSTYLE
1002
{
1070
   284
1070
     0
1070
   140
1040
3.0
1070
   272
1070
     4
1070
    75
1070
     1
1070
    40
1040
20.0
1070
   173
1070
     1
1070
   147
1040
0.5
1070
     7
1000
_OPEN
1070
     6
1000
_OPEN
1070
   285
1070
     0
1070
   286
1070
     0
1002
}
  0
DIMENSION
  5
7D65
  8
3
  2
*D10
 10
879.61810304346807
 20
2677.67091116949
 30
0.0
 11
1060.170091972147
 21
2717.67091116949
 31
0.0
 12
-2364.0969187948208
 22
1030.1155031825731
 32
0.0
 70
     0
  1
361
 13
1240.7220809008261
 23
2442.6950854396268
 33
0.0
 14
879.61810304346807
 24
2003.2338484531631
 34
0.0
1001
ACAD
1000
DSTYLE
1002
{
1070
   284
1070
     0
1070
   140
1040
3.0
1070
   272
1070
     4
1070
    75
1070
     1
1070
    40
1040
20.0
1070
   173
1070
     1
1070
   147
1040
0.5
1070
     7
1000
_OPEN
1070
     6
1000
_OPEN
1070
   285
1070
     0
1070
   286
1070
     0
1002
}
  0
LINE
  5
7D68
  8
1
 10
879.72208090082665
 20
3800.6097778497979
 30
0.0
 11
879.72208090082665
 21
4175.6097778497988
 31
0.0
  0
LINE
  5
7D69
  8
1
 10
1778.7220809008261
 20
3800.6097778497979
 30
0.0
 11
1778.7220809008261
 21
4175.6097778497988
 31
0.0
  0
LINE
  5
7D6A
  8
1
 10
1266.722080900827
 20
3800.609777849796
 30
0.0
 11
1266.722080900827
 21
4175.6097778497979
 31
0.0
  0
LINE
  5
7D6B
  8
1
 10
1236.7220809008261
 20
4205.6097778497997
 30
0.0
 11
1808.7220809008261
 21
4205.6097778497979
 31
0.0
  0
LINE
  5
7D6C
  8
1
 10
1808.7220809008261
 20
3770.609777849797
 30
0.0
 11
1808.7220809008261
 21
4205.6097778497979
 31
0.0
  0
LINE
  5
7D6D
  8
1
 10
1236.722080900827
 20
3770.6097778497988
 30
0.0
 11
1808.7220809008261
 21
3770.609777849797
 31
0.0
  0
LINE
  5
7D6E
  8
1
 10
1236.7220809008261
 20
3770.6097778497988
 30
0.0
 11
1236.7220809008249
 21
4205.6097778497997
 31
0.0
  0
LINE
  5
7D70
  8
1
 10
1266.722080900827
 20
4175.6097778497988
 30
0.0
 11
1778.7220809008261
 21
4175.6097778497988
 31
0.0
  0
LINE
  5
7D71
  8
1
 10
1266.722080900827
 20
3800.6097778497979
 30
0.0
 11
1778.7220809008261
 21
3800.6097778497979
 31
0.0
  0
LINE
  5
7D72
  8
1
 10
1266.722080900827
 20
4175.6097778497988
 30
0.0
 11
1778.7220809008261
 21
3800.6097778497979
 31
0.0
  0
LINE
  5
7D73
  8
1
 10
1778.7220809008261
 20
4175.6097778497988
 30
0.0
 11
1266.722080900827
 21
3800.6097778497979
 31
0.0
  0
LINE
  5
7D74
  8
1
 10
3296.47037097361
 20
2401.3425089726861
 30
0.0
 11
3731.4703709736109
 21
2401.3425089726861
 31
0.0
1001
ACAD
1000
ASC_BOUNDS
1002
{
1070
    19
1002
}
  0
LINE
  5
7D75
  8
1
 10
3296.47037097361
 20
2401.3425089726852
 30
0.0
 11
3296.47037097361
 21
2371.3425089726861
 31
0.0
  0
LINE
  5
7D76
  8
1
 10
3731.4703709736118
 20
2401.3425089726861
 30
0.0
 11
3731.4703709736109
 21
2371.3425089726861
 31
0.0
  0
LINE
  5
7D77
  8
1
 10
3296.47037097361
 20
2371.3425089726861
 30
0.0
 11
3731.4703709736109
 21
2371.3425089726861
 31
0.0
1001
ACAD
1000
ASC_BOUNDS
1002
{
1070
    19
1002
}
  0
LINE
  5
7D79
  8
1
 10
3195.9700709736121
 20
1915.342508972685
 30
0.0
 11
2805.9703709736132
 21
1915.342508972685
 31
0.0
  0
LINE
  5
7D7A
  8
1
 10
2805.9703709736132
 20
1641.342508972685
 30
0.0
 11
3195.970070973613
 21
1641.342508972685
 31
0.0
  0
LINE
  5
7D7B
  8
1
 10
2805.9703709736132
 20
1915.342508972685
 30
0.0
 11
2966.9703709736132
 21
1915.342508972685
 31
0.0
  0
LINE
  5
7D7C
  8
1
 10
2805.9703709736132
 20
1641.342508972685
 30
0.0
 11
2805.9703709736132
 21
1915.342508972685
 31
0.0
  0
LINE
  5
7D7D
  8
1
 10
2788.9703709736132
 20
1803.342508972685
 30
0.0
 11
2788.9703709736132
 21
1763.342508972685
 31
0.0
  0
LINE
  5
7D7E
  8
1
 10
2795.9703709736132
 20
1841.342508972685
 30
0.0
 11
2795.9703709736132
 21
1725.342508972685
 31
0.0
  0
LINE
  5
7D7F
  8
1
 10
2805.9703709736132
 20
1842.342508972685
 30
0.0
 11
2796.9703709736132
 21
1842.342508972685
 31
0.0
  0
ARC
  5
7D80
  8
1
 10
2796.9703709736132
 20
1841.342508972685
 30
0.0
 40
0.9999
 50
89.993000000000023
 51
180.00349999999989
  0
LINE
  5
7D81
  8
1
 10
2795.9703709736132
 20
1803.342508972685
 30
0.0
 11
2788.9703709736132
 21
1803.342508972685
 31
0.0
  0
LINE
  5
7D82
  8
1
 10
2795.9703709736132
 20
1763.342508972685
 30
0.0
 11
2788.9703709736132
 21
1763.342508972685
 31
0.0
  0
LINE
  5
7D83
  8
1
 10
2805.9703709736132
 20
1724.342508972685
 30
0.0
 11
2796.9703709736132
 21
1724.342508972685
 31
0.0
  0
ARC
  5
7D84
  8
1
 10
2796.969370973613
 20
1725.342508972685
 30
0.0
 40
0.9998000000000001
 50
179.99299999999991
 51
270.01400000000001
  0
LINE
  5
7D85
  8
1
 10
3195.970070973613
 20
1641.342508972685
 30
0.0
 11
3195.970070973613
 21
1915.342508972685
 31
0.0
  0
LINE
  5
7D86
  8
1
 10
2788.9703709736132
 20
1802.342508972685
 30
0.0
 11
2708.9703709736132
 21
1802.342508972685
 31
0.0
  0
LINE
  5
7D87
  8
1
 10
2788.9703709736132
 20
1764.342508972685
 30
0.0
 11
2708.9703709736132
 21
1764.342508972685
 31
0.0
  0
LINE
  5
7D88
  8
1
 10
2708.9703709736132
 20
1802.342508972685
 30
0.0
 11
2708.9703709736132
 21
1764.3425089726859
 31
0.0
  0
LINE
  5
7D89
  8
1
 10
3155.9702209736129
 20
1641.342508972685
 30
0.0
 11
3155.9702209736129
 21
1606.342508972685
 31
0.0
  0
LINE
  5
7D8A
  8
1
 10
2845.9702209736129
 20
1641.342508972685
 30
0.0
 11
2845.9702209736129
 21
1606.342508972685
 31
0.0
  0
LINE
  5
7F6A
  8
4
 10
3700.0
 20
1000.0
 30
0.0
 11
3700.0
 21
600.0
 31
0.0
  0
LINE
  5
7F6B
  8
4
 10
2300.0
 20
1000.0
 30
0.0
 11
2300.0
 21
600.0
 31
0.0
  0
LINE
  5
7F6C
  8
4
 10
1300.0
 20
1000.0
 30
0.0
 11
1300.0
 21
600.0
 31
0.0
  0
LINE
  5
7F6F
  8
4
 10
1300.0
 20
600.0
 30
0.0
 11
3700.0
 21
600.0
 31
0.0
  0
LINE
  5
7F70
  8
4
 10
1300.0
 20
800.0
 30
0.0
 11
3700.0
 21
800.0
 31
0.0
  0
TEXT
  5
7F71
  8
4
 10
1377.0041616938031
 20
863.08605173322564
 30
0.0
 40
100.0
  1
機器名称
  0
TEXT
  5
7F72
  8
4
 10
1372.516212049595
 20
643.29031346402189
 30
0.0
 40
100.0
  1
機器型番
  0
TEXT
  5
7F73
  8
4
 10
2355.3574909753288
 20
845.14353791513713
 30
0.0
 40
85.0
  1
ミツヤリミットロ－ﾄﾞファン
  0
TEXT
  5
7F74
  8
4
 10
2373.3089911709608
 20
634.31916855988675
 30
0.0
 40
100.0
  1
LL#3-1
  0
TEXT
  5
7F76
  8
4
 10
1437.61346341886
 20
4766.8576826650306
 30
0.0
 40
107.9999999999999
  1
床置ベット
  0
TEXT
  5
7F77
  8
4
 10
582.33518665889278
 20
5067.7619523985959
 30
0.0
 40
144.0
  1
遠心式片吸込片持リミットロ－ﾄﾞファン
  0
LINE
  5
7F78
  8
4
 10
500.0
 20
4938.8175085296089
 30
0.0
 11
3700.0
 21
4938.8175085296089
 31
0.0
  0
LINE
  5
7F79
  8
4
 10
500.0
 20
5338.8175085296098
 30
0.0
 11
3700.0
 21
5338.8175085296098
 31
0.0
  0
LINE
  5
7F7A
  8
4
 10
1300.0
 20
1000.0
 30
0.0
 11
3700.0
 21
1000.0
 31
0.0
  0
LINE
  5
7F7B
  8
4
 10
500.0
 20
5338.8175085296098
 30
0.0
 11
500.0
 21
4938.8175085296089
 31
0.0
  0
TEXT
  5
7F7C
  8
4
 10
658.88531581174175
 20
4764.638955092687
 30
0.0
 40
107.9999999999999
  1
左回転上向
  0
TEXT
  5
7F7D
  8
4
 10
2937.9391184985789
 20
5412.1221629906177
 30
0.0
 40
112.0
  1
No.
  0
TEXT
  5
7F7E
  8
4
 10
2622.5921252000262
 20
4766.8576826650306
 30
0.0
 40
107.9999999999999
  1
縮尺：1/20
  0
LINE
  5
7F7F
  8
4
 10
3700.0
 20
5338.8175085296098
 30
0.0
 11
3700.0
 21
4938.8175085296089
 31
0.0
  0
LINE
  5
7F80
  8
4
 10
4200.0
 20
5900.0
 30
0.0
 11
4200.0
 21
5900.0
 31
0.0
  0
LINE
  5
7F81
  8
4
 10
2881.2348447197292
 20
5362.5271662508021
 30
0.0
 11
2881.2348447197292
 21
5573.3045230995049
 31
0.0
  0
LINE
  5
7F82
  8
4
 10
2881.2348447197292
 20
5573.3045230995049
 30
0.0
 11
3700.0
 21
5573.3045230995049
 31
0.0
  0
LINE
  5
7F83
  8
4
 10
3700.0
 20
5573.3045230995049
 30
0.0
 11
3700.0
 21
5362.5271662508021
 31
0.0
  0
LINE
  5
7F84
  8
4
 10
3700.0
 20
5362.5271662508021
 30
0.0
 11
2881.2348447197292
 21
5362.5271662508021
 31
0.0
  0
LINE
  5
7F85
  8
4
 10
0.0
 20
0.0
 30
0.0
 11
0.0
 21
5900.0
 31
0.0
  0
LINE
  5
7F86
  8
4
 10
0.0
 20
5900.0
 30
0.0
 11
4200.0
 21
5900.0
 31
0.0
  0
LINE
  5
7F87
  8
4
 10
4200.0
 20
5900.0
 30
0.0
 11
4200.0
 21
0.0
 31
0.0
  0
LINE
  5
7F88
  8
4
 10
4200.0
 20
0.0
 30
0.0
 11
0.0
 21
0.0
 31
0.0
  0
LINE
  5
7FEC
  8
1
 10
2070.7220809008249
 20
1531.342508972685
 30
0.0
 11
2070.7220809008249
 21
1606.342508972685
 31
0.0
  0
LINE
  5
7FED
  8
1
 10
990.72208090082631
 20
1531.342508972685
 30
0.0
 11
990.72208090082631
 21
1606.342508972685
 31
0.0
  0
LINE
  5
7FEF
  8
1
 10
3743.97037097361
 20
1531.342508972685
 30
0.0
 11
3743.97037097361
 21
1606.342508972685
 31
0.0
  0
LINE
  5
7FF0
  8
1
 10
2743.9703709736109
 20
1531.342508972685
 30
0.0
 11
2743.9703709736109
 21
1606.342508972685
 31
0.0
  0
DIMENSION
  5
80FA
  8
3
  2
*D12
 10
2070.7220809008249
 20
2799.2458639426559
 30
0.0
 11
1471.9052381525071
 21
2799.2458639426559
 31
0.0
 70
   128
 13
879.61810304346807
 23
2003.2338484531631
 33
0.0
 14
2070.7220809008249
 24
1606.342508972685
 34
0.0
1001
ACAD
1000
DSTYLE
1002
{
1070
   287
1070
     3
1070
    40
1040
20.0
1070
   143
1040
0.039
1070
   172
1070
     1
1070
   271
1070
     0
1070
   279
1070
     0
1070
   288
1070
     1
1002
}
  0
LINE
  5
80FB
  8
1
 10
990.72208090082654
 20
3218.1097778497979
 30
0.0
 11
990.72208090082665
 21
3800.6097778497988
 31
0.0
  0
LINE
  5
80FC
  8
1
 10
2070.7220809008259
 20
3218.1097778497979
 30
0.0
 11
2070.7220809008259
 21
3778.1097778497979
 31
0.0
  0
LINE
  5
80FD
  8
1
 10
990.72208090082654
 20
4218.1097778497979
 30
0.0
 11
1490.7220809008261
 21
4218.1097778497979
 31
0.0
  0
LINE
  5
80FF
  8
1
 10
990.72208090082654
 20
3218.1097778497979
 30
0.0
 11
1020.722080900826
 21
3218.1097778497979
 31
0.0
  0
LINE
  5
8100
  8
1
 10
1490.7220809008261
 20
4205.6097778497979
 30
0.0
 11
1490.7220809008261
 21
4218.1097778497979
 31
0.0
  0
LINE
  5
8101
  8
1
 10
1808.7220809008261
 20
3778.1097778497988
 30
0.0
 11
2070.7220809008259
 21
3778.1097778497979
 31
0.0
  0
LINE
  5
8102
  8
1
 10
2060.7220809008272
 20
3218.1097778497979
 30
0.0
 11
2070.7220809008259
 21
3218.1097778497979
 31
0.0
  0
LINE
  5
8103
  8
1
 10
990.72208090082677
 20
4175.6097778497988
 30
0.0
 11
990.72208090082665
 21
4218.1097778497979
 31
0.0
  0
DIMENSION
  5
8110
  8
3
  2
*D13
 10
1490.7220809008261
 20
4317.7863918643343
 30
0.0
 11
1241.447874614372
 21
4317.7863918643343
 31
0.0
 70
   128
 13
990.72208090082665
 23
4218.1097778497979
 33
0.0
 14
1490.7220809008261
 24
4218.1097778497979
 34
0.0
1001
ACAD
1000
DSTYLE
1002
{
1070
   287
1070
     3
1070
    40
1040
20.0
1070
   143
1040
0.039
1070
   172
1070
     1
1070
   271
1070
     0
1070
   279
1070
     0
1070
   288
1070
     1
1002
}
  0
DIMENSION
  5
811C
  8
3
  2
*D14
 10
2070.7220809008259
 20
4317.7863918643343
 30
0.0
 11
1780.7220809008261
 21
4367.7863918643343
 31
0.0
 70
     0
 13
1490.7220809008261
 23
4218.1097778497979
 33
0.0
 14
2070.7220809008259
 24
3778.1097778497979
 34
0.0
1001
ACAD
1000
DSTYLE
1002
{
1070
   287
1070
     4
1070
    40
1040
20.0
1070
    75
1070
     1
1070
   143
1040
0.039
1070
   172
1070
     1
1070
   271
1070
     0
1070
   279
1070
     1
1070
   288
1070
     1
1002
}
  0
DIMENSION
  5
8129
  8
3
  2
*D15
 10
2241.1071370063992
 20
3218.1097778497979
 30
0.0
 11
2241.1071370063978
 21
3480.440270114168
 31
0.0
 70
   128
 13
2070.7220809008259
 23
3778.1097778497979
 33
0.0
 14
2070.7220809008259
 24
3218.1097778497979
 34
0.0
 50
90.0
1001
ACAD
1000
DSTYLE
1002
{
1070
   287
1070
     3
1070
    40
1040
20.0
1070
   143
1040
0.039
1070
   172
1070
     1
1070
   271
1070
     0
1070
   279
1070
     0
1070
   288
1070
     1
1002
}
  0
DIMENSION
  5
8136
  8
3
  2
*D16
 10
779.52435786828607
 20
3218.1097778497979
 30
0.0
 11
779.52435786828573
 21
3673.6680603573732
 31
0.0
 70
   128
 13
990.72208090082665
 23
4218.1097778497979
 33
0.0
 14
990.72208090082654
 24
3218.1097778497979
 34
0.0
 50
90.0
1001
ACAD
1000
DSTYLE
1002
{
1070
   287
1070
     3
1070
    40
1040
20.0
1070
   143
1040
0.039
1070
   172
1070
     1
1070
   271
1070
     0
1070
   279
1070
     0
1070
   288
1070
     1
1002
}
  0
DIMENSION
  5
81BC
  8
3
  2
*D17
 10
1240.7220809008261
 20
1396.017860966743
 30
0.0
 11
1115.7220809008261
 21
1446.017860966743
 31
0.0
 70
     0
 13
990.72208090082631
 23
1531.342508972685
 33
0.0
 14
1240.7220809008261
 24
1531.342508972685
 34
0.0
1001
ACAD
1000
DSTYLE
1002
{
1070
   287
1070
     3
1070
    40
1040
20.0
1070
   143
1040
0.039
1070
   172
1070
     1
1070
   271
1070
     0
1070
   279
1070
     0
1002
}
  0
DIMENSION
  5
81C9
  8
3
  2
*D18
 10
2070.7220809008249
 20
1396.017860966743
 30
0.0
 11
1655.7220809008261
 21
1446.017860966743
 31
0.0
 70
     0
 13
1240.7220809008261
 23
1531.342508972685
 33
0.0
 14
2070.7220809008249
 24
1531.342508972685
 34
0.0
1001
ACAD
1000
DSTYLE
1002
{
1070
   287
1070
     3
1070
    40
1040
20.0
1070
   143
1040
0.039
1070
   172
1070
     1
1070
   271
1070
     0
1070
   279
1070
     0
1002
}
  0
DIMENSION
  5
81D6
  8
3
  2
*D19
 10
3513.9703709736109
 20
1396.017860966743
 30
0.0
 11
3128.9703709736109
 21
1446.017860966743
 31
0.0
 70
     0
 13
2743.9703709736109
 23
1531.342508972685
 33
0.0
 14
3513.9703709736109
 24
1531.342508972685
 34
0.0
1001
ACAD
1000
DSTYLE
1002
{
1070
   287
1070
     3
1070
    40
1040
20.0
1070
   143
1040
0.039
1070
   172
1070
     1
1070
   271
1070
     0
1070
   279
1070
     0
1002
}
  0
DIMENSION
  5
81E5
  8
3
  2
*D20
 10
3743.9703709736109
 20
1396.017860966743
 30
0.0
 11
3628.9703709736109
 21
1446.017860966743
 31
0.0
 70
     0
 13
3513.9703709736109
 23
1531.342508972685
 33
0.0
 14
3743.9703709736109
 24
1531.342508972685
 34
0.0
1001
ACAD
1000
DSTYLE
1002
{
1070
   287
1070
     3
1070
    40
1040
20.0
1070
   143
1040
0.039
1070
   172
1070
     1
1070
   271
1070
     0
1070
   279
1070
     0
1002
}
  0
DIMENSION
  5
81FF
  8
3
  2
*D21
 10
545.72224577649104
 20
1531.342508972685
 30
0.0
 11
495.72224577649081
 21
1966.3425089726859
 31
0.0
 70
     0
 13
1235.1220809008259
 23
2401.3425089726861
 33
0.0
 14
990.72208090082631
 24
1531.342508972685
 34
0.0
 50
90.0
1001
ACAD
1000
DSTYLE
1002
{
1070
   287
1070
     3
1070
    40
1040
20.0
1070
   143
1040
0.039
1070
   172
1070
     1
1070
   271
1070
     0
1070
   279
1070
     0
1002
}
  0
ENDSEC
  0
EOF
