  0
SECTION
  2
HEADER
  9
$ACADVER
  1
AC1027
  9
$ACADMAINTVER
 70
   125
  9
$DWGCODEPAGE
  3
ANSI_932
  9
$LASTSAVEDBY
  1
yasukiyo.ogawa
  9
$REQUIREDVERSIONS
160
                 0
  9
$INSBASE
 10
0.0
 20
0.0
 30
0.0
  9
$EXTMIN
 10
0.0
 20
0.0
 30
0.0
  9
$EXTMAX
 10
3150.0
 20
4425.0
 30
0.0
  9
$LIMMIN
 10
0.0
 20
0.0
  9
$LIMMAX
 10
297.0
 20
210.0
  9
$ORTHOMODE
 70
     1
  9
$REGENMODE
 70
     1
  9
$FILLMODE
 70
     0
  9
$QTEXTMODE
 70
     0
  9
$MIRRTEXT
 70
     1
  9
$LTSCALE
 40
100.0
  9
$ATTMODE
 70
     1
  9
$TEXTSIZE
 40
180.0
  9
$TRACEWID
 40
0.05
  9
$TEXTSTYLE
  7
STANDARD
  9
$CLAYER
  8
3
  9
$CELTYPE
  6
BYLAYER
  9
$CECOLOR
 62
   256
  9
$CELTSCALE
 40
1.0
  9
$DISPSILH
 70
     0
  9
$DIMSCALE
 40
15.0
  9
$DIMASZ
 40
2.0
  9
$DIMEXO
 40
0.5
  9
$DIMDLI
 40
10.0
  9
$DIMRND
 40
0.0
  9
$DIMDLE
 40
0.0
  9
$DIMEXE
 40
1.0
  9
$DIMTP
 40
1.0
  9
$DIMTM
 40
1.0
  9
$DIMTXT
 40
3.0
  9
$DIMCEN
 40
0.0
  9
$DIMTSZ
 40
0.0
  9
$DIMTOL
 70
     0
  9
$DIMLIM
 70
     0
  9
$DIMTIH
 70
     0
  9
$DIMTOH
 70
     0
  9
$DIMSE1
 70
     0
  9
$DIMSE2
 70
     0
  9
$DIMTAD
 70
     1
  9
$DIMZIN
 70
     8
  9
$DIMBLK
  1

  9
$DIMASO
 70
     1
  9
$DIMSHO
 70
     1
  9
$DIMPOST
  1
(<>)
  9
$DIMAPOST
  1

  9
$DIMALT
 70
     0
  9
$DIMALTD
 70
     2
  9
$DIMALTF
 40
0.039
  9
$DIMLFAC
 40
1.0
  9
$DIMTOFL
 70
     1
  9
$DIMTVP
 40
0.0
  9
$DIMTIX
 70
     0
  9
$DIMSOXD
 70
     0
  9
$DIMSAH
 70
     1
  9
$DIMBLK1
  1
OPEN
  9
$DIMBLK2
  1
OPEN
  9
$DIMSTYLE
  2
IGA
  9
$DIMCLRD
 70
     0
  9
$DIMCLRE
 70
     0
  9
$DIMCLRT
 70
     0
  9
$DIMTFAC
 40
10.0
  9
$DIMGAP
 40
1.0
  9
$DIMJUST
 70
     0
  9
$DIMSD1
 70
     0
  9
$DIMSD2
 70
     0
  9
$DIMTOLJ
 70
     1
  9
$DIMTZIN
 70
     8
  9
$DIMALTZ
 70
     0
  9
$DIMALTTZ
 70
     0
  9
$DIMUPT
 70
     0
  9
$DIMDEC
 70
     0
  9
$DIMTDEC
 70
     0
  9
$DIMALTU
 70
     2
  9
$DIMALTTD
 70
     2
  9
$DIMTXSTY
  7
STANDARD
  9
$DIMAUNIT
 70
     0
  9
$DIMADEC
 70
     0
  9
$DIMALTRND
 40
0.0
  9
$DIMAZIN
 70
     0
  9
$DIMDSEP
 70
    46
  9
$DIMATFIT
 70
     3
  9
$DIMFRAC
 70
     0
  9
$DIMLDRBLK
  1
OPEN
  9
$DIMLUNIT
 70
     2
  9
$DIMLWD
 70
    -2
  9
$DIMLWE
 70
    -2
  9
$DIMTMOVE
 70
     2
  9
$DIMFXL
 40
1.0
  9
$DIMFXLON
 70
     0
  9
$DIMJOGANG
 40
0.7853981633974483
  9
$DIMTFILL
 70
     0
  9
$DIMTFILLCLR
 70
     0
  9
$DIMARCSYM
 70
     0
  9
$DIMLTYPE
  6

  9
$DIMLTEX1
  6

  9
$DIMLTEX2
  6

  9
$DIMTXTDIRECTION
 70
     0
  9
$LUNITS
 70
     2
  9
$LUPREC
 70
     3
  9
$SKETCHINC
 40
0.1
  9
$FILLETRAD
 40
50.0
  9
$AUNITS
 70
     0
  9
$AUPREC
 70
     0
  9
$MENU
  1
acad
  9
$ELEVATION
 40
0.0
  9
$PELEVATION
 40
0.0
  9
$THICKNESS
 40
0.0
  9
$LIMCHECK
 70
     0
  9
$CHAMFERA
 40
0.5
  9
$CHAMFERB
 40
0.5
  9
$CHAMFERC
 40
20.0
  9
$CHAMFERD
 40
0.0
  9
$SKPOLY
 70
     0
  9
$TDCREATE
 40
2451372.449930556
  9
$TDUCREATE
 40
2451372.074932523
  9
$TDUPDATE
 40
2460216.542280093
  9
$TDUUPDATE
 40
2460216.167282141
  9
$TDINDWG
 40
0.0447095255
  9
$TDUSRTIMER
 40
0.0447095255
  9
$USRTIMER
 70
     1
  9
$ANGBASE
 50
0.0
  9
$ANGDIR
 70
     0
  9
$PDMODE
 70
     0
  9
$PDSIZE
 40
0.0
  9
$PLINEWID
 40
0.0
  9
$SPLFRAME
 70
     0
  9
$SPLINETYPE
 70
     6
  9
$SPLINESEGS
 70
     8
  9
$HANDSEED
  5
8ACE
  9
$SURFTAB1
 70
     6
  9
$SURFTAB2
 70
     6
  9
$SURFTYPE
 70
     6
  9
$SURFU
 70
     6
  9
$SURFV
 70
     6
  9
$UCSBASE
  2

  9
$UCSNAME
  2

  9
$UCSORG
 10
0.0
 20
0.0
 30
0.0
  9
$UCSXDIR
 10
1.0
 20
0.0
 30
0.0
  9
$UCSYDIR
 10
0.0
 20
1.0
 30
0.0
  9
$UCSORTHOREF
  2

  9
$UCSORTHOVIEW
 70
     0
  9
$UCSORGTOP
 10
0.0
 20
0.0
 30
0.0
  9
$UCSORGBOTTOM
 10
0.0
 20
0.0
 30
0.0
  9
$UCSORGLEFT
 10
0.0
 20
0.0
 30
0.0
  9
$UCSORGRIGHT
 10
0.0
 20
0.0
 30
0.0
  9
$UCSORGFRONT
 10
0.0
 20
0.0
 30
0.0
  9
$UCSORGBACK
 10
0.0
 20
0.0
 30
0.0
  9
$PUCSBASE
  2

  9
$PUCSNAME
  2

  9
$PUCSORG
 10
0.0
 20
0.0
 30
0.0
  9
$PUCSXDIR
 10
1.0
 20
0.0
 30
0.0
  9
$PUCSYDIR
 10
0.0
 20
1.0
 30
0.0
  9
$PUCSORTHOREF
  2

  9
$PUCSORTHOVIEW
 70
     0
  9
$PUCSORGTOP
 10
0.0
 20
0.0
 30
0.0
  9
$PUCSORGBOTTOM
 10
0.0
 20
0.0
 30
0.0
  9
$PUCSORGLEFT
 10
0.0
 20
0.0
 30
0.0
  9
$PUCSORGRIGHT
 10
0.0
 20
0.0
 30
0.0
  9
$PUCSORGFRONT
 10
0.0
 20
0.0
 30
0.0
  9
$PUCSORGBACK
 10
0.0
 20
0.0
 30
0.0
  9
$USERI1
 70
     0
  9
$USERI2
 70
     0
  9
$USERI3
 70
     0
  9
$USERI4
 70
     0
  9
$USERI5
 70
     0
  9
$USERR1
 40
0.0
  9
$USERR2
 40
0.0
  9
$USERR3
 40
0.0
  9
$USERR4
 40
0.0
  9
$USERR5
 40
0.0
  9
$WORLDVIEW
 70
     1
  9
$SHADEDGE
 70
     3
  9
$SHADEDIF
 70
    70
  9
$TILEMODE
 70
     1
  9
$MAXACTVP
 70
    16
  9
$PINSBASE
 10
0.0
 20
0.0
 30
0.0
  9
$PLIMCHECK
 70
     0
  9
$PEXTMIN
 10
1.000000000000000E+20
 20
1.000000000000000E+20
 30
1.000000000000000E+20
  9
$PEXTMAX
 10
-1.000000000000000E+20
 20
-1.000000000000000E+20
 30
-1.000000000000000E+20
  9
$PLIMMIN
 10
0.0
 20
0.0
  9
$PLIMMAX
 10
12.0
 20
9.0
  9
$UNITMODE
 70
     0
  9
$VISRETAIN
 70
     0
  9
$PLINEGEN
 70
     0
  9
$PSLTSCALE
 70
     1
  9
$TREEDEPTH
 70
  3020
  9
$CMLSTYLE
  2
STANDARD
  9
$CMLJUST
 70
     0
  9
$CMLSCALE
 40
20.0
  9
$PROXYGRAPHICS
 70
     1
  9
$MEASUREMENT
 70
     1
  9
$CELWEIGHT
370
    -1
  9
$ENDCAPS
280
     0
  9
$JOINSTYLE
280
     0
  9
$LWDISPLAY
290
     0
  9
$INSUNITS
 70
     0
  9
$HYPERLINKBASE
  1

  9
$STYLESHEET
  1

  9
$XEDIT
290
     1
  9
$CEPSNTYPE
380
     0
  9
$PSTYLEMODE
290
     1
  9
$FINGERPRINTGUID
  2
{D2FC29BC-51C6-4A4D-9F28-6E8AC773B9D5}
  9
$VERSIONGUID
  2
{BA25FB1B-B922-45DC-857D-821DAE646A53}
  9
$EXTNAMES
290
     1
  9
$PSVPSCALE
 40
0.0
  9
$OLESTARTUP
290
     0
  9
$SORTENTS
280
   127
  9
$INDEXCTL
280
     0
  9
$HIDETEXT
280
     0
  9
$XCLIPFRAME
280
     2
  9
$HALOGAP
280
     0
  9
$OBSCOLOR
 70
   257
  9
$OBSLTYPE
280
     0
  9
$INTERSECTIONDISPLAY
280
     0
  9
$INTERSECTIONCOLOR
 70
   257
  9
$DIMASSOC
280
     1
  9
$PROJECTNAME
  1

  9
$CAMERADISPLAY
290
     0
  9
$LENSLENGTH
 40
50.0
  9
$CAMERAHEIGHT
 40
0.0
  9
$STEPSPERSEC
 40
2.0
  9
$STEPSIZE
 40
6.0
  9
$3DDWFPREC
 40
2.0
  9
$PSOLWIDTH
 40
0.25
  9
$PSOLHEIGHT
 40
4.0
  9
$LOFTANG1
 40
1.570796326794896
  9
$LOFTANG2
 40
1.570796326794896
  9
$LOFTMAG1
 40
0.0
  9
$LOFTMAG2
 40
0.0
  9
$LOFTPARAM
 70
     7
  9
$LOFTNORMALS
280
     1
  9
$LATITUDE
 40
37.795
  9
$LONGITUDE
 40
-122.394
  9
$NORTHDIRECTION
 40
0.0
  9
$TIMEZONE
 70
 -8000
  9
$LIGHTGLYPHDISPLAY
280
     1
  9
$TILEMODELIGHTSYNCH
280
     1
  9
$CMATERIAL
347
89E9
  9
$SOLIDHIST
280
     0
  9
$SHOWHIST
280
     1
  9
$DWFFRAME
280
     2
  9
$DGNFRAME
280
     0
  9
$REALWORLDSCALE
290
     1
  9
$INTERFERECOLOR
 62
     1
  9
$INTERFEREOBJVS
345
8A0B
  9
$INTERFEREVPVS
346
8A08
  9
$CSHADOW
280
     0
  9
$SHADOWPLANELOCATION
 40
0.0
  0
ENDSEC
  0
SECTION
  2
CLASSES
  0
CLASS
  1
ACDBDICTIONARYWDFLT
  2
AcDbDictionaryWithDefault
  3
ObjectDBX Classes
 90
        0
 91
        1
280
     0
281
     0
  0
CLASS
  1
MATERIAL
  2
AcDbMaterial
  3
ObjectDBX Classes
 90
     1153
 91
        3
280
     0
281
     0
  0
CLASS
  1
VISUALSTYLE
  2
AcDbVisualStyle
  3
ObjectDBX Classes
 90
     4095
 91
       24
280
     0
281
     0
  0
CLASS
  1
TABLESTYLE
  2
AcDbTableStyle
  3
ObjectDBX Classes
 90
     4095
 91
        1
280
     0
281
     0
  0
CLASS
  1
SCALE
  2
AcDbScale
  3
ObjectDBX Classes
 90
     1153
 91
       17
280
     0
281
     0
  0
CLASS
  1
MLEADERSTYLE
  2
AcDbMLeaderStyle
  3
ACDB_MLEADERSTYLE_CLASS
 90
     4095
 91
        1
280
     0
281
     0
  0
CLASS
  1
ACDBSECTIONVIEWSTYLE
  2
AcDbSectionViewStyle
  3
ObjectDBX Classes
 90
     1025
 91
        1
280
     0
281
     0
  0
CLASS
  1
ACDBDETAILVIEWSTYLE
  2
AcDbDetailViewStyle
  3
ObjectDBX Classes
 90
     1025
 91
        1
280
     0
281
     0
  0
CLASS
  1
SORTENTSTABLE
  2
AcDbSortentsTable
  3
ObjectDBX Classes
 90
        0
 91
        1
280
     0
281
     0
  0
CLASS
  1
DICTIONARYVAR
  2
AcDbDictionaryVar
  3
ObjectDBX Classes
 90
        0
 91
       10
280
     0
281
     0
  0
CLASS
  1
CELLSTYLEMAP
  2
AcDbCellStyleMap
  3
ObjectDBX Classes
 90
     1152
 91
        1
280
     0
281
     0
  0
ENDSEC
  0
SECTION
  2
TABLES
  0
TABLE
  2
VPORT
  5
8
330
0
100
AcDbSymbolTable
 70
     1
1001
ACAD
1000
DbSaveVer
1071
      278
  0
VPORT
  5
89E6
330
8
100
AcDbSymbolTableRecord
100
AcDbViewportTableRecord
  2
*Active
 70
     0
 10
0.0
 20
0.0
 11
1.0
 21
1.0
 12
2020.585139495969
 22
2212.500010302757
 13
0.0
 23
0.0
 14
10.0
 24
10.0
 15
10.0
 25
10.0
 16
0.0
 26
0.0
 36
1.0
 17
0.0
 27
0.0
 37
0.0
 40
4453.60692206448
 41
2.250314465408805
 42
50.0
 43
0.0
 44
0.0
 50
0.0
 51
0.0
 71
     0
 72
   100
 73
     1
 74
     0
 75
     0
 76
     0
 77
     0
 78
     0
281
     0
 65
     1
110
0.0
120
0.0
130
0.0
111
1.0
121
0.0
131
0.0
112
0.0
122
1.0
132
0.0
 79
     0
146
0.0
348
8A07
 60
     3
 61
     5
292
     1
282
     1
141
0.0
142
0.0
 63
   250
421
  3355443
1001
ACAD_NAV_VCDISPLAY
1070
     3
  0
ENDTAB
  0
TABLE
  2
LTYPE
  5
5
330
0
100
AcDbSymbolTable
 70
     2
  0
LTYPE
  5
13
330
5
100
AcDbSymbolTableRecord
100
AcDbLinetypeTableRecord
  2
BYBLOCK
 70
     0
  3

 72
    65
 73
     0
 40
0.0
  0
LTYPE
  5
14
330
5
100
AcDbSymbolTableRecord
100
AcDbLinetypeTableRecord
  2
BYLAYER
 70
     0
  3

 72
    65
 73
     0
 40
0.0
  0
LTYPE
  5
15
330
5
100
AcDbSymbolTableRecord
100
AcDbLinetypeTableRecord
  2
CONTINUOUS
 70
     0
  3
Solid line
 72
    65
 73
     0
 40
0.0
  0
LTYPE
  5
1F
330
5
100
AcDbSymbolTableRecord
100
AcDbLinetypeTableRecord
  2
CENTER
 70
     0
  3
____ _ ____ _ ____ _ ____ _ ____ _ ____ _ ____ 
 72
    65
 73
     4
 40
2.0
 49
1.25
 74
     0
 49
-0.25
 74
     0
 49
0.25
 74
     0
 49
-0.25
 74
     0
  0
ENDTAB
  0
TABLE
  2
LAYER
  5
2
102
{ACAD_XDICTIONARY
360
8AA4
102
}
330
0
100
AcDbSymbolTable
 70
     6
  0
LAYER
  5
F
102
{ACAD_XDICTIONARY
360
8A97
102
}
330
2
100
AcDbSymbolTableRecord
100
AcDbLayerTableRecord
  2
0
 70
     0
 62
     7
  6
CONTINUOUS
370
    -3
390
8956
347
89F9
348
0
  0
LAYER
  5
31
102
{ACAD_XDICTIONARY
360
8A99
102
}
330
2
100
AcDbSymbolTableRecord
100
AcDbLayerTableRecord
  2
3
 70
     0
 62
     2
  6
CONTINUOUS
370
    -3
390
8956
347
89F9
348
0
  0
LAYER
  5
76D0
102
{ACAD_XDICTIONARY
360
8A9B
102
}
330
2
100
AcDbSymbolTableRecord
100
AcDbLayerTableRecord
  2
2
 70
     0
 62
     3
  6
CENTER
370
    -3
390
8956
347
89F9
348
0
  0
LAYER
  5
76D1
102
{ACAD_XDICTIONARY
360
8A9D
102
}
330
2
100
AcDbSymbolTableRecord
100
AcDbLayerTableRecord
  2
1
 70
     0
 62
     4
  6
CONTINUOUS
370
    -3
390
8956
347
89F9
348
0
  0
LAYER
  5
76D2
102
{ACAD_XDICTIONARY
360
8A9F
102
}
330
2
100
AcDbSymbolTableRecord
100
AcDbLayerTableRecord
  2
4
 70
     0
 62
     7
  6
CONTINUOUS
370
    -3
390
8956
347
89F9
348
0
  0
LAYER
  5
7FAB
330
2
100
AcDbSymbolTableRecord
100
AcDbLayerTableRecord
  2
DEFPOINTS
 70
     0
 62
     7
  6
CONTINUOUS
290
     0
370
    -3
390
8956
347
89F9
348
0
  0
ENDTAB
  0
TABLE
  2
STYLE
  5
3
330
0
100
AcDbSymbolTable
 70
     1
  0
STYLE
  5
10
330
3
100
AcDbSymbolTableRecord
100
AcDbTextStyleTableRecord
  2
STANDARD
 70
     0
 40
0.0
 41
1.0
 50
0.0
 71
     0
 42
180.0
  3
simplex.shx
  4
extfont.shx
  0
ENDTAB
  0
TABLE
  2
VIEW
  5
6
330
0
100
AcDbSymbolTable
 70
     0
  0
ENDTAB
  0
TABLE
  2
UCS
  5
7
330
0
100
AcDbSymbolTable
 70
     0
  0
ENDTAB
  0
TABLE
  2
APPID
  5
9
330
0
100
AcDbSymbolTable
 70
     4
  0
APPID
  5
11
330
9
100
AcDbSymbolTableRecord
100
AcDbRegAppTableRecord
  2
ACAD
 70
     0
  0
APPID
  5
8A3A
330
9
100
AcDbSymbolTableRecord
100
AcDbRegAppTableRecord
  2
AcadAnnoMonitorAlertIconDisabled
 70
     0
  0
APPID
  5
8A3B
330
9
100
AcDbSymbolTableRecord
100
AcDbRegAppTableRecord
  2
ACAD_EXEMPT_FROM_CAD_STANDARDS
 70
     0
  0
APPID
  5
8AAA
330
9
100
AcDbSymbolTableRecord
100
AcDbRegAppTableRecord
  2
ACAD_NAV_VCDISPLAY
 70
     0
  0
ENDTAB
  0
TABLE
  2
DIMSTYLE
  5
A
330
0
100
AcDbSymbolTable
 70
     2
100
AcDbDimStyleTable
 71
     0
  0
DIMSTYLE
105
1D
102
{ACAD_REACTORS
330
8693
330
88E9
330
88F6
330
8903
330
8910
330
8934
330
8941
102
}
330
A
100
AcDbSymbolTableRecord
100
AcDbDimStyleTableRecord
  2
IGA
 70
     0
 40
2.0
 41
2.0
 42
0.5
 43
10.0
 44
1.0
 47
1.0
 48
1.0
 73
     0
 74
     0
 77
     1
 78
     8
140
3.0
141
0.0
143
0.03937
146
10.0
147
1.0
173
     1
271
     1
272
     0
279
     2
284
     8
340
10
341
7E9D
343
7E9D
344
7E9D
  0
DIMSTYLE
105
7FAD
102
{ACAD_REACTORS
330
8636
330
8637
330
863C
330
8653
330
8670
330
867B
330
867C
330
8681
330
8683
330
8684
330
8686
330
868B
102
}
330
A
100
AcDbSymbolTableRecord
100
AcDbDimStyleTableRecord
  2
MATSU
 70
     0
 41
2.0
 42
1.0
 43
10.0
 44
1.0
 73
     0
 74
     0
 77
     1
 78
     8
140
3.0
141
0.0
143
0.03937
147
0.5
172
     1
173
     1
176
   256
177
   256
178
   256
284
     8
289
     0
340
10
341
7E9D
343
7E9D
344
7E9D
  0
ENDTAB
  0
TABLE
  2
BLOCK_RECORD
  5
1
330
0
100
AcDbSymbolTable
 70
    23
  0
BLOCK_RECORD
  5
19
102
{ACAD_XDICTIONARY
360
8984
102
}
330
1
100
AcDbSymbolTableRecord
100
AcDbBlockTableRecord
  2
*MODEL_SPACE
340
8959
 70
     0
280
     1
281
     0
  0
BLOCK_RECORD
  5
16
102
{ACAD_XDICTIONARY
360
8982
102
}
330
1
100
AcDbSymbolTableRecord
100
AcDbBlockTableRecord
  2
*PAPER_SPACE
340
895A
 70
     0
280
     1
281
     0
  0
BLOCK_RECORD
  5
7E9D
330
1
100
AcDbSymbolTableRecord
100
AcDbBlockTableRecord
  2
_OPEN
340
0
102
{BLKREFS
331
8A50
331
8A5B
331
8A63
331
8A64
331
8A6C
331
8A6D
331
8A75
331
8A76
331
8A7E
331
8A7F
331
8A8C
331
8A8D
331
885B
331
885C
331
8866
331
8867
331
8885
331
8886
331
889B
331
889C
331
88A6
331
88A7
331
8991
331
8992
331
89A1
331
89A2
331
8A4F
331
87E5
331
87E6
331
87F0
331
87F1
331
87FB
331
87FC
331
8850
331
8851
102
}
 70
     0
280
     1
281
     0
  0
BLOCK_RECORD
  5
839F
330
1
100
AcDbSymbolTableRecord
100
AcDbBlockTableRecord
  2
_DOT
340
0
102
{BLKREFS
331
8A5A
102
}
 70
     0
280
     1
281
     0
  0
BLOCK_RECORD
  5
853A
330
1
100
AcDbSymbolTableRecord
100
AcDbBlockTableRecord
  2
YA_N
340
0
102
{BLKREFS
331
8696
331
8697
331
8698
331
8699
331
869A
331
869B
331
869C
102
}
 70
     0
280
     1
281
     0
  0
BLOCK_RECORD
  5
86E7
330
1
100
AcDbSymbolTableRecord
100
AcDbBlockTableRecord
  2
*D3
340
0
 70
     0
280
     1
281
     0
  0
BLOCK_RECORD
  5
86F3
330
1
100
AcDbSymbolTableRecord
100
AcDbBlockTableRecord
  2
*D4
340
0
 70
     0
280
     1
281
     0
  0
BLOCK_RECORD
  5
86FF
330
1
100
AcDbSymbolTableRecord
100
AcDbBlockTableRecord
  2
*D5
340
0
 70
     0
280
     1
281
     0
  0
BLOCK_RECORD
  5
870B
330
1
100
AcDbSymbolTableRecord
100
AcDbBlockTableRecord
  2
*D6
340
0
 70
     0
280
     1
281
     0
  0
BLOCK_RECORD
  5
875C
330
1
100
AcDbSymbolTableRecord
100
AcDbBlockTableRecord
  2
*D7
340
0
 70
     0
280
     1
281
     0
  0
BLOCK_RECORD
  5
8768
330
1
100
AcDbSymbolTableRecord
100
AcDbBlockTableRecord
  2
*D8
340
0
 70
     0
280
     1
281
     0
  0
BLOCK_RECORD
  5
8774
330
1
100
AcDbSymbolTableRecord
100
AcDbBlockTableRecord
  2
*D9
340
0
 70
     0
280
     1
281
     0
  0
BLOCK_RECORD
  5
8780
330
1
100
AcDbSymbolTableRecord
100
AcDbBlockTableRecord
  2
*D10
340
0
 70
     0
280
     1
281
     0
  0
BLOCK_RECORD
  5
878B
330
1
100
AcDbSymbolTableRecord
100
AcDbBlockTableRecord
  2
*D11
340
0
 70
     0
280
     1
281
     0
  0
BLOCK_RECORD
  5
8796
330
1
100
AcDbSymbolTableRecord
100
AcDbBlockTableRecord
  2
*D12
340
0
 70
     0
280
     1
281
     0
  0
BLOCK_RECORD
  5
87AE
330
1
100
AcDbSymbolTableRecord
100
AcDbBlockTableRecord
  2
*D13
340
0
 70
     0
280
     1
281
     0
  0
BLOCK_RECORD
  5
87BA
330
1
100
AcDbSymbolTableRecord
100
AcDbBlockTableRecord
  2
*D14
340
0
 70
     0
280
     1
281
     0
  0
BLOCK_RECORD
  5
87D3
330
1
100
AcDbSymbolTableRecord
100
AcDbBlockTableRecord
  2
*D15
340
0
 70
     0
280
     1
281
     0
  0
BLOCK_RECORD
  5
88DD
330
1
100
AcDbSymbolTableRecord
100
AcDbBlockTableRecord
  2
*D16
340
0
 70
     0
280
     1
281
     0
  0
BLOCK_RECORD
  5
88EA
330
1
100
AcDbSymbolTableRecord
100
AcDbBlockTableRecord
  2
*D17
340
0
 70
     0
280
     1
281
     0
  0
BLOCK_RECORD
  5
88F7
330
1
100
AcDbSymbolTableRecord
100
AcDbBlockTableRecord
  2
*D18
340
0
 70
     0
280
     1
281
     0
  0
BLOCK_RECORD
  5
8904
330
1
100
AcDbSymbolTableRecord
100
AcDbBlockTableRecord
  2
*D19
340
0
 70
     0
280
     1
281
     0
  0
BLOCK_RECORD
  5
8911
330
1
100
AcDbSymbolTableRecord
100
AcDbBlockTableRecord
  2
_NONE
340
0
 70
     0
280
     1
281
     0
  0
BLOCK_RECORD
  5
892C
330
1
100
AcDbSymbolTableRecord
100
AcDbBlockTableRecord
  2
*D21
340
0
 70
     0
280
     1
281
     0
  0
BLOCK_RECORD
  5
8935
330
1
100
AcDbSymbolTableRecord
100
AcDbBlockTableRecord
  2
*D22
340
0
 70
     0
280
     1
281
     0
  0
ENDTAB
  0
ENDSEC
  0
SECTION
  2
BLOCKS
  0
BLOCK
  5
1A
330
19
100
AcDbEntity
  8
0
100
AcDbBlockBegin
  2
*MODEL_SPACE
 70
     0
 10
0.0
 20
0.0
 30
0.0
  3
*MODEL_SPACE
  1

  0
ENDBLK
  5
1B
330
19
100
AcDbEntity
  8
0
100
AcDbBlockEnd
  0
BLOCK
  5
17
330
16
100
AcDbEntity
 67
     1
  8
0
100
AcDbBlockBegin
  2
*PAPER_SPACE
 70
     0
 10
0.0
 20
0.0
 30
0.0
  3
*PAPER_SPACE
  1

  0
ENDBLK
  5
18
330
16
100
AcDbEntity
 67
     1
  8
0
100
AcDbBlockEnd
  0
BLOCK
  5
7EA1
330
7E9D
100
AcDbEntity
  8
0
100
AcDbBlockBegin
  2
_OPEN
 70
     0
 10
0.0
 20
0.0
 30
0.0
  3
_OPEN
  1

  0
LINE
  5
7E9E
330
7E9D
100
AcDbEntity
  8
0
  6
ByBlock
 62
     0
100
AcDbLine
 10
-1.0
 20
0.1666666666666666
 30
0.0
 11
0.0
 21
0.0
 31
0.0
  0
LINE
  5
7E9F
330
7E9D
100
AcDbEntity
  8
0
  6
ByBlock
 62
     0
100
AcDbLine
 10
0.0
 20
0.0
 30
0.0
 11
-1.0
 21
-0.1666666666666666
 31
0.0
  0
LINE
  5
7EA0
330
7E9D
100
AcDbEntity
  8
0
  6
ByBlock
 62
     0
100
AcDbLine
 10
0.0
 20
0.0
 30
0.0
 11
-1.0
 21
0.0
 31
0.0
  0
ENDBLK
  5
7EA2
330
7E9D
100
AcDbEntity
  8
0
100
AcDbBlockEnd
  0
BLOCK
  5
83A5
330
839F
100
AcDbEntity
  8
0
100
AcDbBlockBegin
  2
_DOT
 70
     0
 10
0.0
 20
0.0
 30
0.0
  3
_DOT
  1

  0
LWPOLYLINE
  5
83A0
330
839F
100
AcDbEntity
  8
0
  6
ByBlock
 62
     0
100
AcDbPolyline
 90
        2
 70
     1
 43
0.25
 10
-0.125
 20
0.0
 42
1.0
 10
0.125
 20
0.0
 42
1.0
  0
LINE
  5
83A4
330
839F
100
AcDbEntity
  8
0
  6
ByBlock
 62
     0
100
AcDbLine
 10
-0.25
 20
0.0
 30
0.0
 11
-1.0
 21
0.0
 31
0.0
  0
ENDBLK
  5
83A6
330
839F
100
AcDbEntity
  8
0
100
AcDbBlockEnd
  0
BLOCK
  5
853B
330
853A
100
AcDbEntity
  8
0
100
AcDbBlockBegin
  2
YA_N
 70
     0
 10
0.0
 20
0.0
 30
0.0
  3
YA_N
  1

  0
ENDBLK
  5
853C
330
853A
100
AcDbEntity
  8
0
100
AcDbBlockEnd
  0
BLOCK
  5
87E1
330
86E7
100
AcDbEntity
  8
0
100
AcDbBlockBegin
  2
*D3
 70
     1
 10
0.0
 20
0.0
 30
0.0
  3
*D3
  1

  0
LINE
  5
87E2
330
86E7
100
AcDbEntity
  8
0
  6
ByBlock
440
 16777216
100
AcDbLine
 10
4504.642846935527
 20
1899.177692316725
 30
0.0
 11
4504.642846935527
 21
2065.107021541788
 31
0.0
  0
LINE
  5
87E3
330
86E7
100
AcDbEntity
  8
0
  6
ByBlock
440
 16777216
100
AcDbLine
 10
4928.642846935527
 20
1904.177692316725
 30
0.0
 11
4928.642846935527
 21
2065.107021541788
 31
0.0
  0
LINE
  5
87E4
330
86E7
100
AcDbEntity
  8
0
  6
ByBlock
440
 16777216
100
AcDbLine
 10
4534.642846935526
 20
2050.107021541788
 30
0.0
 11
4898.642846935526
 21
2050.107021541788
 31
0.0
  0
INSERT
  5
87E5
330
86E7
100
AcDbEntity
  8
0
  6
ByBlock
440
 16777216
100
AcDbBlockReference
  2
_OPEN
 10
4504.642846935527
 20
2050.107021541788
 30
0.0
 41
30.0
 42
30.0
 43
30.0
 50
180.0
  0
INSERT
  5
87E6
330
86E7
100
AcDbEntity
  8
0
  6
ByBlock
440
 16777216
100
AcDbBlockReference
  2
_OPEN
 10
4928.642846935527
 20
2050.107021541788
 30
0.0
 41
30.0
 42
30.0
 43
30.0
  0
MTEXT
  5
87E7
330
86E7
100
AcDbEntity
  8
0
  6
ByBlock
440
 16777216
100
AcDbMText
 10
4716.642846935527
 20
2080.107021541788
 30
0.0
 40
45.0
 41
0.0
 46
0.0
 71
     5
 72
     5
  1
\A1;424
 73
     1
 44
1.0
  0
POINT
  5
87E8
330
86E7
100
AcDbEntity
  8
DEFPOINTS
  6
ByBlock
 62
     0
440
 16777216
100
AcDbPoint
 10
4504.642846935527
 20
1884.177692316725
 30
0.0
  0
POINT
  5
87E9
330
86E7
100
AcDbEntity
  8
DEFPOINTS
  6
ByBlock
 62
     0
440
 16777216
100
AcDbPoint
 10
4928.642846935527
 20
1889.177692316725
 30
0.0
  0
POINT
  5
87EA
330
86E7
100
AcDbEntity
  8
DEFPOINTS
  6
ByBlock
 62
     0
440
 16777216
100
AcDbPoint
 10
4928.642846935527
 20
2050.107021541788
 30
0.0
  0
ENDBLK
  5
87EB
330
86E7
100
AcDbEntity
  8
0
100
AcDbBlockEnd
  0
BLOCK
  5
87EC
330
86F3
100
AcDbEntity
  8
0
100
AcDbBlockBegin
  2
*D4
 70
     1
 10
0.0
 20
0.0
 30
0.0
  3
*D4
  1

  0
LINE
  5
87ED
330
86F3
100
AcDbEntity
  8
0
  6
ByBlock
440
 16777216
100
AcDbLine
 10
6596.992786142482
 20
1779.177692316725
 30
0.0
 11
6769.271306560007
 21
1779.177692316725
 31
0.0
  0
LINE
  5
87EE
330
86F3
100
AcDbEntity
  8
0
  6
ByBlock
440
 16777216
100
AcDbLine
 10
6596.992786142482
 20
1379.177692316725
 30
0.0
 11
6769.271306560007
 21
1379.177692316725
 31
0.0
  0
LINE
  5
87EF
330
86F3
100
AcDbEntity
  8
0
  6
ByBlock
440
 16777216
100
AcDbLine
 10
6754.271306560006
 20
1749.177692316725
 30
0.0
 11
6754.271306560006
 21
1409.177692316725
 31
0.0
  0
INSERT
  5
87F0
330
86F3
100
AcDbEntity
  8
0
  6
ByBlock
440
 16777216
100
AcDbBlockReference
  2
_OPEN
 10
6754.271306560006
 20
1779.177692316725
 30
0.0
 41
30.0
 42
30.0
 43
30.0
 50
90.0
  0
INSERT
  5
87F1
330
86F3
100
AcDbEntity
  8
0
  6
ByBlock
440
 16777216
100
AcDbBlockReference
  2
_OPEN
 10
6754.271306560006
 20
1379.177692316725
 30
0.0
 41
30.0
 42
30.0
 43
30.0
 50
270.0
  0
MTEXT
  5
87F2
330
86F3
100
AcDbEntity
  8
0
  6
ByBlock
440
 16777216
100
AcDbMText
 10
6724.271306560007
 20
1579.177692316725
 30
0.0
 40
45.0
 41
0.0
 46
0.0
 71
     5
 72
     5
  1
\A1;φ400
 11
0.0
 21
1.0
 31
0.0
 73
     1
 44
1.0
  0
POINT
  5
87F3
330
86F3
100
AcDbEntity
  8
DEFPOINTS
  6
ByBlock
 62
     0
440
 16777216
100
AcDbPoint
 10
6581.992786142482
 20
1779.177692316725
 30
0.0
  0
POINT
  5
87F4
330
86F3
100
AcDbEntity
  8
DEFPOINTS
  6
ByBlock
 62
     0
440
 16777216
100
AcDbPoint
 10
6581.992786142482
 20
1379.177692316725
 30
0.0
  0
POINT
  5
87F5
330
86F3
100
AcDbEntity
  8
DEFPOINTS
  6
ByBlock
 62
     0
440
 16777216
100
AcDbPoint
 10
6754.271306560006
 20
1379.177692316725
 30
0.0
  0
ENDBLK
  5
87F6
330
86F3
100
AcDbEntity
  8
0
100
AcDbBlockEnd
  0
BLOCK
  5
87F7
330
86FF
100
AcDbEntity
  8
0
100
AcDbBlockBegin
  2
*D5
 70
     1
 10
0.0
 20
0.0
 30
0.0
  3
*D5
  1

  0
LINE
  5
87F8
330
86FF
100
AcDbEntity
  8
0
  6
ByBlock
440
 16777216
100
AcDbLine
 10
4504.642846935527
 20
1899.177692316725
 30
0.0
 11
4504.642846935527
 21
1969.472871515952
 31
0.0
  0
LINE
  5
87F9
330
86FF
100
AcDbEntity
  8
0
  6
ByBlock
440
 16777216
100
AcDbLine
 10
4916.642846935527
 20
1899.177692316725
 30
0.0
 11
4916.642846935527
 21
1969.472871515952
 31
0.0
  0
LINE
  5
87FA
330
86FF
100
AcDbEntity
  8
0
  6
ByBlock
440
 16777216
100
AcDbLine
 10
4534.642846935526
 20
1954.472871515952
 30
0.0
 11
4886.642846935527
 21
1954.472871515952
 31
0.0
  0
INSERT
  5
87FB
330
86FF
100
AcDbEntity
  8
0
  6
ByBlock
440
 16777216
100
AcDbBlockReference
  2
_OPEN
 10
4504.642846935527
 20
1954.472871515952
 30
0.0
 41
30.0
 42
30.0
 43
30.0
 50
180.0
  0
INSERT
  5
87FC
330
86FF
100
AcDbEntity
  8
0
  6
ByBlock
440
 16777216
100
AcDbBlockReference
  2
_OPEN
 10
4916.642846935527
 20
1954.472871515952
 30
0.0
 41
30.0
 42
30.0
 43
30.0
  0
MTEXT
  5
87FD
330
86FF
100
AcDbEntity
  8
0
  6
ByBlock
440
 16777216
100
AcDbMText
 10
4710.642846935527
 20
1984.472871515952
 30
0.0
 40
45.0
 41
0.0
 46
0.0
 71
     5
 72
     5
  1
\A1;412
 73
     1
 44
1.0
  0
POINT
  5
87FE
330
86FF
100
AcDbEntity
  8
DEFPOINTS
  6
ByBlock
 62
     0
440
 16777216
100
AcDbPoint
 10
4504.642846935527
 20
1884.177692316725
 30
0.0
  0
POINT
  5
87FF
330
86FF
100
AcDbEntity
  8
DEFPOINTS
  6
ByBlock
 62
     0
440
 16777216
100
AcDbPoint
 10
4916.642846935527
 20
1884.177692316725
 30
0.0
  0
POINT
  5
8800
330
86FF
100
AcDbEntity
  8
DEFPOINTS
  6
ByBlock
 62
     0
440
 16777216
100
AcDbPoint
 10
4916.642846935527
 20
1954.472871515952
 30
0.0
  0
ENDBLK
  5
8801
330
86FF
100
AcDbEntity
  8
0
100
AcDbBlockEnd
  0
BLOCK
  5
8802
330
870B
100
AcDbEntity
  8
0
100
AcDbBlockBegin
  2
*D6
 70
     1
 10
0.0
 20
0.0
 30
0.0
  3
*D6
  1

  0
LINE
  5
898F
330
870B
100
AcDbEntity
  8
3
440
 16777216
100
AcDbLine
 10
1420.114622367029
 20
1174.177692316725
 30
0.0
 11
1695.836204997755
 21
1174.177692316725
 31
0.0
  0
LINE
  5
8990
330
870B
100
AcDbEntity
  8
3
440
 16777216
100
AcDbLine
 10
1680.836204997755
 20
1549.177692316725
 30
0.0
 11
1680.836204997755
 21
1204.177692316725
 31
0.0
  0
INSERT
  5
8991
330
870B
100
AcDbEntity
  8
3
440
 16777216
100
AcDbBlockReference
  2
_OPEN
 10
1680.836204997755
 20
1579.177692316725
 30
0.0
 41
30.0
 42
30.0
 43
30.0
 50
90.0
  0
INSERT
  5
8992
330
870B
100
AcDbEntity
  8
3
440
 16777216
100
AcDbBlockReference
  2
_OPEN
 10
1680.836204997755
 20
1174.177692316725
 30
0.0
 41
30.0
 42
30.0
 43
30.0
 50
270.0
  0
MTEXT
  5
8993
330
870B
100
AcDbEntity
  8
3
440
 16777216
100
AcDbMText
 10
1650.836204997755
 20
1376.677692316725
 30
0.0
 40
45.0
 41
0.0
 46
0.0
 71
     5
 72
     5
  1
\A1;405
 11
0.0000000000000001
 21
1.0
 31
0.0
 73
     1
 44
1.0
  0
POINT
  5
8994
330
870B
100
AcDbEntity
  8
DEFPOINTS
 62
     0
440
 16777216
100
AcDbPoint
 10
1465.114622367029
 20
1579.177692316725
 30
0.0
  0
POINT
  5
8995
330
870B
100
AcDbEntity
  8
DEFPOINTS
 62
     0
440
 16777216
100
AcDbPoint
 10
1405.114622367029
 20
1174.177692316725
 30
0.0
  0
POINT
  5
8996
330
870B
100
AcDbEntity
  8
DEFPOINTS
 62
     0
440
 16777216
100
AcDbPoint
 10
1680.836204997755
 20
1174.177692316725
 30
0.0
  0
ENDBLK
  5
880B
330
870B
100
AcDbEntity
  8
0
100
AcDbBlockEnd
  0
BLOCK
  5
884C
330
875C
100
AcDbEntity
  8
0
100
AcDbBlockBegin
  2
*D7
 70
     1
 10
0.0
 20
0.0
 30
0.0
  3
*D7
  1

  0
LINE
  5
884D
330
875C
100
AcDbEntity
  8
0
  6
ByBlock
440
 16777216
100
AcDbLine
 10
6656.992786142481
 20
1553.877692316724
 30
0.0
 11
6656.992786142481
 21
2063.861173295055
 31
0.0
  0
LINE
  5
884E
330
875C
100
AcDbEntity
  8
0
  6
ByBlock
440
 16777216
100
AcDbLine
 10
6314.992786142482
 20
2009.358572203237
 30
0.0
 11
6314.992786142482
 21
2063.861173295055
 31
0.0
  0
LINE
  5
884F
330
875C
100
AcDbEntity
  8
0
  6
ByBlock
440
 16777216
100
AcDbLine
 10
6626.992786142482
 20
2048.861173295055
 30
0.0
 11
6344.992786142483
 21
2048.861173295055
 31
0.0
  0
INSERT
  5
8850
330
875C
100
AcDbEntity
  8
0
  6
ByBlock
440
 16777216
100
AcDbBlockReference
  2
_OPEN
 10
6656.992786142481
 20
2048.861173295055
 30
0.0
 41
30.0
 42
30.0
 43
30.0
  0
INSERT
  5
8851
330
875C
100
AcDbEntity
  8
0
  6
ByBlock
440
 16777216
100
AcDbBlockReference
  2
_OPEN
 10
6314.992786142482
 20
2048.861173295055
 30
0.0
 41
30.0
 42
30.0
 43
30.0
 50
180.0
  0
MTEXT
  5
8852
330
875C
100
AcDbEntity
  8
0
  6
ByBlock
440
 16777216
100
AcDbMText
 10
6485.992786142482
 20
2090.646887580769
 30
0.0
 40
45.0
 41
0.0
 46
0.0
 71
     5
 72
     5
  1
\A1;(342)
 73
     1
 44
1.0
  0
POINT
  5
8853
330
875C
100
AcDbEntity
  8
DEFPOINTS
  6
ByBlock
 62
     0
440
 16777216
100
AcDbPoint
 10
6656.992786142481
 20
1538.877692316725
 30
0.0
  0
POINT
  5
8854
330
875C
100
AcDbEntity
  8
DEFPOINTS
  6
ByBlock
 62
     0
440
 16777216
100
AcDbPoint
 10
6314.992786142482
 20
1994.358572203237
 30
0.0
  0
POINT
  5
8855
330
875C
100
AcDbEntity
  8
DEFPOINTS
  6
ByBlock
 62
     0
440
 16777216
100
AcDbPoint
 10
6314.992786142482
 20
2048.861173295055
 30
0.0
  0
ENDBLK
  5
8856
330
875C
100
AcDbEntity
  8
0
100
AcDbBlockEnd
  0
BLOCK
  5
8857
330
8768
100
AcDbEntity
  8
0
100
AcDbBlockBegin
  2
*D8
 70
     1
 10
0.0
 20
0.0
 30
0.0
  3
*D8
  1

  0
LINE
  5
8858
330
8768
100
AcDbEntity
  8
0
  6
ByBlock
440
 16777216
100
AcDbLine
 10
4198.642846935526
 20
3216.556286029656
 30
0.0
 11
4198.642846935526
 21
3406.984167016351
 31
0.0
  0
LINE
  5
8859
330
8768
100
AcDbEntity
  8
0
  6
ByBlock
440
 16777216
100
AcDbLine
 10
5178.642846935527
 20
3216.556286029656
 30
0.0
 11
5178.642846935527
 21
3406.984167016351
 31
0.0
  0
LINE
  5
885A
330
8768
100
AcDbEntity
  8
0
  6
ByBlock
440
 16777216
100
AcDbLine
 10
4228.642846935527
 20
3391.984167016352
 30
0.0
 11
5148.642846935526
 21
3391.984167016352
 31
0.0
  0
INSERT
  5
885B
330
8768
100
AcDbEntity
  8
0
  6
ByBlock
440
 16777216
100
AcDbBlockReference
  2
_OPEN
 10
4198.642846935526
 20
3391.984167016352
 30
0.0
 41
30.0
 42
30.0
 43
30.0
 50
180.0
  0
INSERT
  5
885C
330
8768
100
AcDbEntity
  8
0
  6
ByBlock
440
 16777216
100
AcDbBlockReference
  2
_OPEN
 10
5178.642846935527
 20
3391.984167016352
 30
0.0
 41
30.0
 42
30.0
 43
30.0
  0
MTEXT
  5
885D
330
8768
100
AcDbEntity
  8
0
  6
ByBlock
440
 16777216
100
AcDbMText
 10
4688.642846935527
 20
3421.984167016352
 30
0.0
 40
45.0
 41
0.0
 46
0.0
 71
     5
 72
     5
  1
\A1;980
 73
     1
 44
1.0
  0
POINT
  5
885E
330
8768
100
AcDbEntity
  8
DEFPOINTS
  6
ByBlock
 62
     0
440
 16777216
100
AcDbPoint
 10
4198.642846935526
 20
3201.556286029656
 30
0.0
  0
POINT
  5
885F
330
8768
100
AcDbEntity
  8
DEFPOINTS
  6
ByBlock
 62
     0
440
 16777216
100
AcDbPoint
 10
5178.642846935527
 20
3201.556286029656
 30
0.0
  0
POINT
  5
8860
330
8768
100
AcDbEntity
  8
DEFPOINTS
  6
ByBlock
 62
     0
440
 16777216
100
AcDbPoint
 10
5178.642846935527
 20
3391.984167016352
 30
0.0
  0
ENDBLK
  5
8861
330
8768
100
AcDbEntity
  8
0
100
AcDbBlockEnd
  0
BLOCK
  5
8862
330
8774
100
AcDbEntity
  8
0
100
AcDbBlockBegin
  2
*D9
 70
     1
 10
0.0
 20
0.0
 30
0.0
  3
*D9
  1

  0
LINE
  5
8863
330
8774
100
AcDbEntity
  8
0
  6
ByBlock
440
 16777216
100
AcDbLine
 10
5193.642846935527
 20
3201.556286029656
 30
0.0
 11
5436.922303435733
 21
3201.556286029656
 31
0.0
  0
LINE
  5
8864
330
8774
100
AcDbEntity
  8
0
  6
ByBlock
440
 16777216
100
AcDbLine
 10
5193.642846935527
 20
2521.556286029657
 30
0.0
 11
5436.922303435733
 21
2521.556286029657
 31
0.0
  0
LINE
  5
8865
330
8774
100
AcDbEntity
  8
0
  6
ByBlock
440
 16777216
100
AcDbLine
 10
5421.922303435732
 20
3171.556286029656
 30
0.0
 11
5421.922303435732
 21
2551.556286029657
 31
0.0
  0
INSERT
  5
8866
330
8774
100
AcDbEntity
  8
0
  6
ByBlock
440
 16777216
100
AcDbBlockReference
  2
_OPEN
 10
5421.922303435732
 20
3201.556286029656
 30
0.0
 41
30.0
 42
30.0
 43
30.0
 50
90.0
  0
INSERT
  5
8867
330
8774
100
AcDbEntity
  8
0
  6
ByBlock
440
 16777216
100
AcDbBlockReference
  2
_OPEN
 10
5421.922303435732
 20
2521.556286029657
 30
0.0
 41
30.0
 42
30.0
 43
30.0
 50
270.0
  0
MTEXT
  5
8868
330
8774
100
AcDbEntity
  8
0
  6
ByBlock
440
 16777216
100
AcDbMText
 10
5391.922303435733
 20
2861.556286029656
 30
0.0
 40
45.0
 41
0.0
 46
0.0
 71
     5
 72
     5
  1
\A1;680
 11
0.0
 21
1.0
 31
0.0
 73
     1
 44
1.0
  0
POINT
  5
8869
330
8774
100
AcDbEntity
  8
DEFPOINTS
  6
ByBlock
 62
     0
440
 16777216
100
AcDbPoint
 10
5178.642846935527
 20
3201.556286029656
 30
0.0
  0
POINT
  5
886A
330
8774
100
AcDbEntity
  8
DEFPOINTS
  6
ByBlock
 62
     0
440
 16777216
100
AcDbPoint
 10
5178.642846935527
 20
2521.556286029657
 30
0.0
  0
POINT
  5
886B
330
8774
100
AcDbEntity
  8
DEFPOINTS
  6
ByBlock
 62
     0
440
 16777216
100
AcDbPoint
 10
5421.922303435732
 20
2521.556286029657
 30
0.0
  0
ENDBLK
  5
886C
330
8774
100
AcDbEntity
  8
0
100
AcDbBlockEnd
  0
BLOCK
  5
88CA
330
8780
100
AcDbEntity
  8
0
100
AcDbBlockBegin
  2
*D10
 70
     1
 10
0.0
 20
0.0
 30
0.0
  3
*D10
  1

  0
LINE
  5
8A4D
330
8780
100
AcDbEntity
  8
3
440
 16777216
370
    -2
100
AcDbLine
 10
2011.464561573985
 20
1749.177692316725
 30
0.0
 11
2011.464561573985
 21
2063.861173295055
 31
0.0
  0
LINE
  5
8A4E
330
8780
100
AcDbEntity
  8
3
440
 16777216
370
    -2
100
AcDbLine
 10
2511.464561573985
 20
2048.861173295055
 30
0.0
 11
2041.464561573985
 21
2048.861173295055
 31
0.0
  0
INSERT
  5
8A4F
330
8780
100
AcDbEntity
  8
3
440
 16777216
370
    -2
100
AcDbBlockReference
  2
_OPEN
 10
2541.464561573985
 20
2048.861173295055
 30
0.0
 41
30.0
 42
30.0
 43
30.0
  0
INSERT
  5
8A50
330
8780
100
AcDbEntity
  8
3
440
 16777216
370
    -2
100
AcDbBlockReference
  2
_OPEN
 10
2011.464561573985
 20
2048.861173295055
 30
0.0
 41
30.0
 42
30.0
 43
30.0
 50
180.0
  0
MTEXT
  5
8A51
330
8780
100
AcDbEntity
  8
3
440
 16777216
100
AcDbMText
 10
2276.464561573985
 20
2090.646887580769
 30
0.0
 40
45.0
 41
0.0
 46
0.0
 71
     5
 72
     1
  1
\A1;(530)
 73
     1
 44
1.0
  0
POINT
  5
8A52
330
8780
100
AcDbEntity
  8
DEFPOINTS
 62
     0
440
 16777216
100
AcDbPoint
 10
2541.464561573985
 20
1994.358572203237
 30
0.0
  0
POINT
  5
8A53
330
8780
100
AcDbEntity
  8
DEFPOINTS
 62
     0
440
 16777216
100
AcDbPoint
 10
2011.464561573985
 20
1734.177692316725
 30
0.0
  0
POINT
  5
8A54
330
8780
100
AcDbEntity
  8
DEFPOINTS
 62
     0
440
 16777216
100
AcDbPoint
 10
2011.464561573985
 20
2048.861173295055
 30
0.0
  0
ENDBLK
  5
88D3
330
8780
100
AcDbEntity
  8
0
100
AcDbBlockEnd
  0
BLOCK
  5
8877
330
878B
100
AcDbEntity
  8
0
100
AcDbBlockBegin
  2
*D11
 70
     1
 10
0.0
 20
0.0
 30
0.0
  3
*D11
  1

  0
LINE
  5
899F
330
878B
100
AcDbEntity
  8
3
440
 16777216
100
AcDbLine
 10
1438.322339329045
 20
1564.177692316725
 30
0.0
 11
1438.322339329045
 21
2065.107021541788
 31
0.0
  0
LINE
  5
89A0
330
878B
100
AcDbEntity
  8
3
440
 16777216
100
AcDbLine
 10
1185.114622367029
 20
2050.107021541788
 30
0.0
 11
1408.322339329045
 21
2050.107021541788
 31
0.0
  0
INSERT
  5
89A1
330
878B
100
AcDbEntity
  8
3
440
 16777216
100
AcDbBlockReference
  2
_OPEN
 10
1155.114622367029
 20
2050.107021541788
 30
0.0
 41
30.0
 42
30.0
 43
30.0
 50
180.0
  0
INSERT
  5
89A2
330
878B
100
AcDbEntity
  8
3
440
 16777216
100
AcDbBlockReference
  2
_OPEN
 10
1438.322339329045
 20
2050.107021541788
 30
0.0
 41
30.0
 42
30.0
 43
30.0
  0
MTEXT
  5
89A3
330
878B
100
AcDbEntity
  8
3
440
 16777216
100
AcDbMText
 10
1296.718480848037
 20
2080.107021541788
 30
0.0
 40
45.0
 41
0.0
 46
0.0
 71
     5
 72
     5
  1
\A1;282
 73
     1
 44
1.0
  0
POINT
  5
89A4
330
878B
100
AcDbEntity
  8
DEFPOINTS
 62
     0
440
 16777216
100
AcDbPoint
 10
1155.114622367029
 20
1889.177692316725
 30
0.0
  0
POINT
  5
89A5
330
878B
100
AcDbEntity
  8
DEFPOINTS
 62
     0
440
 16777216
100
AcDbPoint
 10
1438.322339329045
 20
1549.177692316725
 30
0.0
  0
POINT
  5
89A6
330
878B
100
AcDbEntity
  8
DEFPOINTS
 62
     0
440
 16777216
100
AcDbPoint
 10
1438.322339329045
 20
2050.107021541788
 30
0.0
  0
ENDBLK
  5
8880
330
878B
100
AcDbEntity
  8
0
100
AcDbBlockEnd
  0
BLOCK
  5
8881
330
8796
100
AcDbEntity
  8
0
100
AcDbBlockBegin
  2
*D12
 70
     1
 10
0.0
 20
0.0
 30
0.0
  3
*D12
  1

  0
LINE
  5
8882
330
8796
100
AcDbEntity
  8
0
  6
ByBlock
440
 16777216
100
AcDbLine
 10
4958.642846935527
 20
1884.177692316725
 30
0.0
 11
5471.28120672885
 21
1884.177692316725
 31
0.0
  0
LINE
  5
8883
330
8796
100
AcDbEntity
  8
0
  6
ByBlock
440
 16777216
100
AcDbLine
 10
5253.642846935527
 20
1579.177692316725
 30
0.0
 11
5471.28120672885
 21
1579.177692316725
 31
0.0
  0
LINE
  5
8884
330
8796
100
AcDbEntity
  8
0
  6
ByBlock
440
 16777216
100
AcDbLine
 10
5456.28120672885
 20
1854.177692316724
 30
0.0
 11
5456.28120672885
 21
1609.177692316725
 31
0.0
  0
INSERT
  5
8885
330
8796
100
AcDbEntity
  8
0
  6
ByBlock
440
 16777216
100
AcDbBlockReference
  2
_OPEN
 10
5456.28120672885
 20
1884.177692316725
 30
0.0
 41
30.0
 42
30.0
 43
30.0
 50
90.0
  0
INSERT
  5
8886
330
8796
100
AcDbEntity
  8
0
  6
ByBlock
440
 16777216
100
AcDbBlockReference
  2
_OPEN
 10
5456.28120672885
 20
1579.177692316725
 30
0.0
 41
30.0
 42
30.0
 43
30.0
 50
270.0
  0
MTEXT
  5
8887
330
8796
100
AcDbEntity
  8
0
  6
ByBlock
440
 16777216
100
AcDbMText
 10
5426.281206728851
 20
1731.677692316725
 30
0.0
 40
45.0
 41
0.0
 46
0.0
 71
     5
 72
     5
  1
\A1;305
 11
0.0
 21
1.0
 31
0.0
 73
     1
 44
1.0
  0
POINT
  5
8888
330
8796
100
AcDbEntity
  8
DEFPOINTS
  6
ByBlock
 62
     0
440
 16777216
100
AcDbPoint
 10
4943.642846935527
 20
1884.177692316725
 30
0.0
  0
POINT
  5
8889
330
8796
100
AcDbEntity
  8
DEFPOINTS
  6
ByBlock
 62
     0
440
 16777216
100
AcDbPoint
 10
5238.642846935527
 20
1579.177692316725
 30
0.0
  0
POINT
  5
888A
330
8796
100
AcDbEntity
  8
DEFPOINTS
  6
ByBlock
 62
     0
440
 16777216
100
AcDbPoint
 10
5456.28120672885
 20
1579.177692316725
 30
0.0
  0
ENDBLK
  5
888B
330
8796
100
AcDbEntity
  8
0
100
AcDbBlockEnd
  0
BLOCK
  5
8897
330
87AE
100
AcDbEntity
  8
0
100
AcDbBlockBegin
  2
*D13
 70
     1
 10
0.0
 20
0.0
 30
0.0
  3
*D13
  1

  0
LINE
  5
8898
330
87AE
100
AcDbEntity
  8
0
  6
ByBlock
440
 16777216
100
AcDbLine
 10
5211.850563897542
 20
1564.177692316725
 30
0.0
 11
5211.850563897542
 21
2151.700591673486
 31
0.0
  0
LINE
  5
8899
330
87AE
100
AcDbEntity
  8
0
  6
ByBlock
440
 16777216
100
AcDbLine
 10
4198.642846935526
 20
1254.177692316725
 30
0.0
 11
4198.642846935526
 21
2151.700591673486
 31
0.0
  0
LINE
  5
889A
330
87AE
100
AcDbEntity
  8
0
  6
ByBlock
440
 16777216
100
AcDbLine
 10
5181.850563897543
 20
2136.700591673486
 30
0.0
 11
4228.642846935527
 21
2136.700591673486
 31
0.0
  0
INSERT
  5
889B
330
87AE
100
AcDbEntity
  8
0
  6
ByBlock
440
 16777216
100
AcDbBlockReference
  2
_OPEN
 10
5211.850563897542
 20
2136.700591673486
 30
0.0
 41
30.0
 42
30.0
 43
30.0
  0
INSERT
  5
889C
330
87AE
100
AcDbEntity
  8
0
  6
ByBlock
440
 16777216
100
AcDbBlockReference
  2
_OPEN
 10
4198.642846935526
 20
2136.700591673486
 30
0.0
 41
30.0
 42
30.0
 43
30.0
 50
180.0
  0
MTEXT
  5
889D
330
87AE
100
AcDbEntity
  8
0
  6
ByBlock
440
 16777216
100
AcDbMText
 10
4705.246705416535
 20
2166.700591673486
 30
0.0
 40
45.0
 41
0.0
 46
0.0
 71
     5
 72
     5
  1
\A1;1012
 73
     1
 44
1.0
  0
POINT
  5
889E
330
87AE
100
AcDbEntity
  8
DEFPOINTS
  6
ByBlock
 62
     0
440
 16777216
100
AcDbPoint
 10
5211.850563897542
 20
1549.177692316725
 30
0.0
  0
POINT
  5
889F
330
87AE
100
AcDbEntity
  8
DEFPOINTS
  6
ByBlock
 62
     0
440
 16777216
100
AcDbPoint
 10
4198.642846935526
 20
1239.177692316725
 30
0.0
  0
POINT
  5
88A0
330
87AE
100
AcDbEntity
  8
DEFPOINTS
  6
ByBlock
 62
     0
440
 16777216
100
AcDbPoint
 10
4198.642846935526
 20
2136.700591673486
 30
0.0
  0
ENDBLK
  5
88A1
330
87AE
100
AcDbEntity
  8
0
100
AcDbBlockEnd
  0
BLOCK
  5
88A2
330
87BA
100
AcDbEntity
  8
0
100
AcDbBlockBegin
  2
*D14
 70
     1
 10
0.0
 20
0.0
 30
0.0
  3
*D14
  1

  0
LINE
  5
88A3
330
87BA
100
AcDbEntity
  8
0
  6
ByBlock
440
 16777216
100
AcDbLine
 10
6049.992786142482
 20
1899.177692316725
 30
0.0
 11
6049.992786142482
 21
1954.271148908719
 31
0.0
  0
LINE
  5
88A4
330
87BA
100
AcDbEntity
  8
0
  6
ByBlock
440
 16777216
100
AcDbLine
 10
6579.992786142482
 20
1899.177692316725
 30
0.0
 11
6579.992786142482
 21
1954.271148908719
 31
0.0
  0
LINE
  5
88A5
330
87BA
100
AcDbEntity
  8
0
  6
ByBlock
440
 16777216
100
AcDbLine
 10
6079.992786142481
 20
1939.271148908719
 30
0.0
 11
6549.992786142482
 21
1939.271148908719
 31
0.0
  0
INSERT
  5
88A6
330
87BA
100
AcDbEntity
  8
0
  6
ByBlock
440
 16777216
100
AcDbBlockReference
  2
_OPEN
 10
6049.992786142482
 20
1939.271148908719
 30
0.0
 41
30.0
 42
30.0
 43
30.0
 50
180.0
  0
INSERT
  5
88A7
330
87BA
100
AcDbEntity
  8
0
  6
ByBlock
440
 16777216
100
AcDbBlockReference
  2
_OPEN
 10
6579.992786142482
 20
1939.271148908719
 30
0.0
 41
30.0
 42
30.0
 43
30.0
  0
MTEXT
  5
88A8
330
87BA
100
AcDbEntity
  8
0
  6
ByBlock
440
 16777216
100
AcDbMText
 10
6314.992786142482
 20
1969.27114890872
 30
0.0
 40
45.0
 41
0.0
 46
0.0
 71
     5
 72
     5
  1
\A1;530
 73
     1
 44
1.0
  0
POINT
  5
88A9
330
87BA
100
AcDbEntity
  8
DEFPOINTS
  6
ByBlock
 62
     0
440
 16777216
100
AcDbPoint
 10
6049.992786142482
 20
1884.177692316725
 30
0.0
  0
POINT
  5
88AA
330
87BA
100
AcDbEntity
  8
DEFPOINTS
  6
ByBlock
 62
     0
440
 16777216
100
AcDbPoint
 10
6579.992786142482
 20
1884.177692316725
 30
0.0
  0
POINT
  5
88AB
330
87BA
100
AcDbEntity
  8
DEFPOINTS
  6
ByBlock
 62
     0
440
 16777216
100
AcDbPoint
 10
6579.992786142482
 20
1939.271148908719
 30
0.0
  0
ENDBLK
  5
88AC
330
87BA
100
AcDbEntity
  8
0
100
AcDbBlockEnd
  0
BLOCK
  5
88B9
330
87D3
100
AcDbEntity
  8
0
100
AcDbBlockBegin
  2
*D15
 70
     1
 10
0.0
 20
0.0
 30
0.0
  3
*D15
  1

  0
LINE
  5
8A55
330
87D3
100
AcDbEntity
  8
3
 62
     0
440
 16777216
370
    -2
100
AcDbLine
 10
1412.614622367029
 20
1094.177692316725
 30
0.0
 11
1695.836204997755
 21
1094.177692316725
 31
0.0
  0
LINE
  5
8A56
330
87D3
100
AcDbEntity
  8
3
 62
     0
440
 16777216
370
    -2
100
AcDbLine
 10
1412.614622367029
 20
1029.177692316725
 30
0.0
 11
1695.836204997755
 21
1029.177692316725
 31
0.0
  0
LINE
  5
8A57
330
87D3
100
AcDbEntity
  8
3
 62
     0
440
 16777216
370
    -2
100
AcDbLine
 10
1680.836204997755
 20
1124.177692316725
 30
0.0
 11
1680.836204997755
 21
1154.177692316725
 31
0.0
  0
LINE
  5
8A58
330
87D3
100
AcDbEntity
  8
3
 62
     0
440
 16777216
370
    -2
100
AcDbLine
 10
1680.836204997755
 20
999.1776923167252
 30
0.0
 11
1680.836204997755
 21
866.3205494595823
 31
0.0
  0
LINE
  5
8A59
330
87D3
100
AcDbEntity
  8
3
 62
     0
440
 16777216
370
    -2
100
AcDbLine
 10
1680.836204997755
 20
1094.177692316725
 30
0.0
 11
1680.836204997755
 21
1029.177692316725
 31
0.0
  0
INSERT
  5
8A5A
330
87D3
100
AcDbEntity
  8
3
 62
     0
440
 16777216
370
    -2
100
AcDbBlockReference
  2
_DOT
 10
1680.836204997755
 20
1094.177692316725
 30
0.0
 41
30.0
 42
30.0
 43
30.0
 50
270.0
  0
INSERT
  5
8A5B
330
87D3
100
AcDbEntity
  8
3
 62
     0
440
 16777216
370
    -2
100
AcDbBlockReference
  2
_OPEN
 10
1680.836204997755
 20
1029.177692316725
 30
0.0
 41
30.0
 42
30.0
 43
30.0
 50
90.0
  0
MTEXT
  5
8A5C
330
87D3
100
AcDbEntity
  8
3
 62
     0
440
 16777216
100
AcDbMText
 10
1643.336204997754
 20
917.7491208881541
 30
0.0
 40
45.0
 41
0.0
 46
0.0
 71
     5
 72
     1
  1
\A1;65
 11
0.0000000000000001
 21
1.0
 31
0.0
 73
     1
 44
1.0
  0
POINT
  5
8A5D
330
87D3
100
AcDbEntity
  8
DEFPOINTS
 62
     0
440
 16777216
100
AcDbPoint
 10
1405.114622367029
 20
1094.177692316725
 30
0.0
  0
POINT
  5
8A5E
330
87D3
100
AcDbEntity
  8
DEFPOINTS
 62
     0
440
 16777216
100
AcDbPoint
 10
1405.114622367029
 20
1029.177692316725
 30
0.0
  0
POINT
  5
8A5F
330
87D3
100
AcDbEntity
  8
DEFPOINTS
 62
     0
440
 16777216
100
AcDbPoint
 10
1680.836204997755
 20
1029.177692316725
 30
0.0
  0
ENDBLK
  5
88C5
330
87D3
100
AcDbEntity
  8
0
100
AcDbBlockEnd
  0
BLOCK
  5
88DE
330
88DD
100
AcDbEntity
  8
0
100
AcDbBlockBegin
  2
*D16
 70
     1
 10
0.0
 20
0.0
 30
0.0
  3
*D16
  1

  0
LINE
  5
8A60
330
88DD
100
AcDbEntity
  8
3
 62
     0
440
 16777216
370
    -2
100
AcDbLine
 10
425.1146223670294
 20
1021.677692316725
 30
0.0
 11
425.1146223670294
 21
910.2259251332617
 31
0.0
  0
LINE
  5
8A61
330
88DD
100
AcDbEntity
  8
3
 62
     0
440
 16777216
370
    -2
100
AcDbLine
 10
1155.114622367029
 20
1021.677692316725
 30
0.0
 11
1155.114622367029
 21
910.2259251332617
 31
0.0
  0
LINE
  5
8A62
330
88DD
100
AcDbEntity
  8
3
 62
     0
440
 16777216
370
    -2
100
AcDbLine
 10
455.1146223670293
 20
925.2259251332615
 30
0.0
 11
1125.114622367029
 21
925.2259251332615
 31
0.0
  0
INSERT
  5
8A63
330
88DD
100
AcDbEntity
  8
3
 62
     0
440
 16777216
370
    -2
100
AcDbBlockReference
  2
_OPEN
 10
425.1146223670294
 20
925.2259251332615
 30
0.0
 41
30.0
 42
30.0
 43
30.0
 50
180.0
  0
INSERT
  5
8A64
330
88DD
100
AcDbEntity
  8
3
 62
     0
440
 16777216
370
    -2
100
AcDbBlockReference
  2
_OPEN
 10
1155.114622367029
 20
925.2259251332615
 30
0.0
 41
30.0
 42
30.0
 43
30.0
  0
MTEXT
  5
8A65
330
88DD
100
AcDbEntity
  8
3
 62
     0
440
 16777216
100
AcDbMText
 10
790.1146223670293
 20
962.7259251332615
 30
0.0
 40
45.0
 41
0.0
 46
0.0
 71
     5
 72
     1
  1
\A1;730
 73
     1
 44
1.0
  0
POINT
  5
8A66
330
88DD
100
AcDbEntity
  8
DEFPOINTS
 62
     0
440
 16777216
100
AcDbPoint
 10
425.1146223670294
 20
1029.177692316725
 30
0.0
  0
POINT
  5
8A67
330
88DD
100
AcDbEntity
  8
DEFPOINTS
 62
     0
440
 16777216
100
AcDbPoint
 10
1155.114622367029
 20
1029.177692316725
 30
0.0
  0
POINT
  5
8A68
330
88DD
100
AcDbEntity
  8
DEFPOINTS
 62
     0
440
 16777216
100
AcDbPoint
 10
1155.114622367029
 20
925.2259251332615
 30
0.0
  0
ENDBLK
  5
88E8
330
88DD
100
AcDbEntity
  8
0
100
AcDbBlockEnd
  0
BLOCK
  5
88EB
330
88EA
100
AcDbEntity
  8
0
100
AcDbBlockBegin
  2
*D17
 70
     1
 10
0.0
 20
0.0
 30
0.0
  3
*D17
  1

  0
LINE
  5
8A69
330
88EA
100
AcDbEntity
  8
3
 62
     0
440
 16777216
370
    -2
100
AcDbLine
 10
1155.114622367029
 20
1021.677692316725
 30
0.0
 11
1155.114622367029
 21
910.2259251332617
 31
0.0
  0
LINE
  5
8A6A
330
88EA
100
AcDbEntity
  8
3
 62
     0
440
 16777216
370
    -2
100
AcDbLine
 10
1405.114622367029
 20
1021.677692316725
 30
0.0
 11
1405.114622367029
 21
910.2259251332617
 31
0.0
  0
LINE
  5
8A6B
330
88EA
100
AcDbEntity
  8
3
 62
     0
440
 16777216
370
    -2
100
AcDbLine
 10
1185.114622367029
 20
925.2259251332615
 30
0.0
 11
1375.114622367029
 21
925.2259251332615
 31
0.0
  0
INSERT
  5
8A6C
330
88EA
100
AcDbEntity
  8
3
 62
     0
440
 16777216
370
    -2
100
AcDbBlockReference
  2
_OPEN
 10
1155.114622367029
 20
925.2259251332615
 30
0.0
 41
30.0
 42
30.0
 43
30.0
 50
180.0
  0
INSERT
  5
8A6D
330
88EA
100
AcDbEntity
  8
3
 62
     0
440
 16777216
370
    -2
100
AcDbBlockReference
  2
_OPEN
 10
1405.114622367029
 20
925.2259251332615
 30
0.0
 41
30.0
 42
30.0
 43
30.0
  0
MTEXT
  5
8A6E
330
88EA
100
AcDbEntity
  8
3
 62
     0
440
 16777216
100
AcDbMText
 10
1280.114622367029
 20
962.7259251332615
 30
0.0
 40
45.0
 41
0.0
 46
0.0
 71
     5
 72
     1
  1
\A1;250
 73
     1
 44
1.0
  0
POINT
  5
8A6F
330
88EA
100
AcDbEntity
  8
DEFPOINTS
 62
     0
440
 16777216
100
AcDbPoint
 10
1155.114622367029
 20
1029.177692316725
 30
0.0
  0
POINT
  5
8A70
330
88EA
100
AcDbEntity
  8
DEFPOINTS
 62
     0
440
 16777216
100
AcDbPoint
 10
1405.114622367029
 20
1029.177692316725
 30
0.0
  0
POINT
  5
8A71
330
88EA
100
AcDbEntity
  8
DEFPOINTS
 62
     0
440
 16777216
100
AcDbPoint
 10
1405.114622367029
 20
925.2259251332615
 30
0.0
  0
ENDBLK
  5
88F5
330
88EA
100
AcDbEntity
  8
0
100
AcDbBlockEnd
  0
BLOCK
  5
88F8
330
88F7
100
AcDbEntity
  8
0
100
AcDbBlockBegin
  2
*D18
 70
     1
 10
0.0
 20
0.0
 30
0.0
  3
*D18
  1

  0
LINE
  5
8A72
330
88F7
100
AcDbEntity
  8
3
 62
     0
440
 16777216
370
    -2
100
AcDbLine
 10
2168.464561573985
 20
1021.677692316725
 30
0.0
 11
2168.464561573985
 21
910.2259251332617
 31
0.0
  0
LINE
  5
8A73
330
88F7
100
AcDbEntity
  8
3
 62
     0
440
 16777216
370
    -2
100
AcDbLine
 10
2541.464561573985
 20
1021.677692316725
 30
0.0
 11
2541.464561573985
 21
910.2259251332617
 31
0.0
  0
LINE
  5
8A74
330
88F7
100
AcDbEntity
  8
3
 62
     0
440
 16777216
370
    -2
100
AcDbLine
 10
2198.464561573985
 20
925.2259251332615
 30
0.0
 11
2511.464561573985
 21
925.2259251332615
 31
0.0
  0
INSERT
  5
8A75
330
88F7
100
AcDbEntity
  8
3
 62
     0
440
 16777216
370
    -2
100
AcDbBlockReference
  2
_OPEN
 10
2168.464561573985
 20
925.2259251332615
 30
0.0
 41
30.0
 42
30.0
 43
30.0
 50
180.0
  0
INSERT
  5
8A76
330
88F7
100
AcDbEntity
  8
3
 62
     0
440
 16777216
370
    -2
100
AcDbBlockReference
  2
_OPEN
 10
2541.464561573985
 20
925.2259251332615
 30
0.0
 41
30.0
 42
30.0
 43
30.0
  0
MTEXT
  5
8A77
330
88F7
100
AcDbEntity
  8
3
 62
     0
440
 16777216
100
AcDbMText
 10
2354.964561573984
 20
962.7259251332615
 30
0.0
 40
45.0
 41
0.0
 46
0.0
 71
     5
 72
     1
  1
\A1;373
 73
     1
 44
1.0
  0
POINT
  5
8A78
330
88F7
100
AcDbEntity
  8
DEFPOINTS
 62
     0
440
 16777216
100
AcDbPoint
 10
2168.464561573985
 20
1029.177692316725
 30
0.0
  0
POINT
  5
8A79
330
88F7
100
AcDbEntity
  8
DEFPOINTS
 62
     0
440
 16777216
100
AcDbPoint
 10
2541.464561573985
 20
1029.177692316725
 30
0.0
  0
POINT
  5
8A7A
330
88F7
100
AcDbEntity
  8
DEFPOINTS
 62
     0
440
 16777216
100
AcDbPoint
 10
2541.464561573985
 20
925.2259251332615
 30
0.0
  0
ENDBLK
  5
8902
330
88F7
100
AcDbEntity
  8
0
100
AcDbBlockEnd
  0
BLOCK
  5
8905
330
8904
100
AcDbEntity
  8
0
100
AcDbBlockBegin
  2
*D19
 70
     1
 10
0.0
 20
0.0
 30
0.0
  3
*D19
  1

  0
LINE
  5
8A7B
330
8904
100
AcDbEntity
  8
3
 62
     0
440
 16777216
370
    -2
100
AcDbLine
 10
2541.464561573985
 20
1021.677692316725
 30
0.0
 11
2541.464561573985
 21
910.2259251332617
 31
0.0
  0
LINE
  5
8A7C
330
8904
100
AcDbEntity
  8
3
 62
     0
440
 16777216
370
    -2
100
AcDbLine
 10
2848.464561573985
 20
1021.677692316725
 30
0.0
 11
2848.464561573985
 21
910.2259251332617
 31
0.0
  0
LINE
  5
8A7D
330
8904
100
AcDbEntity
  8
3
 62
     0
440
 16777216
370
    -2
100
AcDbLine
 10
2571.464561573985
 20
925.2259251332615
 30
0.0
 11
2818.464561573985
 21
925.2259251332615
 31
0.0
  0
INSERT
  5
8A7E
330
8904
100
AcDbEntity
  8
3
 62
     0
440
 16777216
370
    -2
100
AcDbBlockReference
  2
_OPEN
 10
2541.464561573985
 20
925.2259251332615
 30
0.0
 41
30.0
 42
30.0
 43
30.0
 50
180.0
  0
INSERT
  5
8A7F
330
8904
100
AcDbEntity
  8
3
 62
     0
440
 16777216
370
    -2
100
AcDbBlockReference
  2
_OPEN
 10
2848.464561573985
 20
925.2259251332615
 30
0.0
 41
30.0
 42
30.0
 43
30.0
  0
MTEXT
  5
8A80
330
8904
100
AcDbEntity
  8
3
 62
     0
440
 16777216
100
AcDbMText
 10
2694.964561573985
 20
962.7259251332615
 30
0.0
 40
45.0
 41
0.0
 46
0.0
 71
     5
 72
     1
  1
\A1;307
 73
     1
 44
1.0
  0
POINT
  5
8A81
330
8904
100
AcDbEntity
  8
DEFPOINTS
 62
     0
440
 16777216
100
AcDbPoint
 10
2541.464561573985
 20
1029.177692316725
 30
0.0
  0
POINT
  5
8A82
330
8904
100
AcDbEntity
  8
DEFPOINTS
 62
     0
440
 16777216
100
AcDbPoint
 10
2848.464561573985
 20
1029.177692316725
 30
0.0
  0
POINT
  5
8A83
330
8904
100
AcDbEntity
  8
DEFPOINTS
 62
     0
440
 16777216
100
AcDbPoint
 10
2848.464561573985
 20
925.2259251332615
 30
0.0
  0
ENDBLK
  5
890F
330
8904
100
AcDbEntity
  8
0
100
AcDbBlockEnd
  0
BLOCK
  5
8912
330
8911
100
AcDbEntity
  8
0
100
AcDbBlockBegin
  2
_NONE
 70
     0
 10
0.0
 20
0.0
 30
0.0
  3
_NONE
  1

  0
CIRCLE
  5
8913
330
8911
100
AcDbEntity
  8
0
  6
ByBlock
 62
     0
100
AcDbCircle
 10
0.0
 20
0.0
 30
0.0
 40
0.25
  0
ENDBLK
  5
8914
330
8911
100
AcDbEntity
  8
0
100
AcDbBlockEnd
  0
BLOCK
  5
892D
330
892C
100
AcDbEntity
  8
0
100
AcDbBlockBegin
  2
*D21
 70
     1
 10
0.0
 20
0.0
 30
0.0
  3
*D21
  1

  0
LINE
  5
8A92
330
892C
100
AcDbEntity
  8
3
 62
     0
440
 16777216
370
    -2
100
AcDbLine
 10
1680.291765124801
 20
1094.177692316725
 30
0.0
 11
1680.291765124801
 21
1174.177692316725
 31
0.0
  0
MTEXT
  5
8A93
330
892C
100
AcDbEntity
  8
3
 62
     0
440
 16777216
100
AcDbMText
 10
1748.959112815901
 20
1134.177692316725
 30
0.0
 40
45.0
 41
0.0
 46
0.0
 71
     5
 72
     1
  1
\A1;(80)
 11
0.0000000000000001
 21
1.0
 31
0.0
 73
     1
 44
1.0
  0
POINT
  5
8A94
330
892C
100
AcDbEntity
  8
DEFPOINTS
 62
     0
440
 16777216
100
AcDbPoint
 10
1405.114622367029
 20
1094.177692316725
 30
0.0
  0
POINT
  5
8A95
330
892C
100
AcDbEntity
  8
DEFPOINTS
 62
     0
440
 16777216
100
AcDbPoint
 10
1405.114622367029
 20
1174.177692316725
 30
0.0
  0
POINT
  5
8A96
330
892C
100
AcDbEntity
  8
DEFPOINTS
 62
     0
440
 16777216
100
AcDbPoint
 10
1680.291765124801
 20
1174.177692316725
 30
0.0
  0
ENDBLK
  5
8933
330
892C
100
AcDbEntity
  8
0
100
AcDbBlockEnd
  0
BLOCK
  5
8936
330
8935
100
AcDbEntity
  8
0
100
AcDbBlockBegin
  2
*D22
 70
     1
 10
0.0
 20
0.0
 30
0.0
  3
*D22
  1

  0
LINE
  5
8A89
330
8935
100
AcDbEntity
  8
3
 62
     0
440
 16777216
370
    -2
100
AcDbLine
 10
1177.614622367029
 20
1884.177692316725
 30
0.0
 11
1821.361748372116
 21
1884.177692316725
 31
0.0
  0
LINE
  5
8A8A
330
8935
100
AcDbEntity
  8
3
 62
     0
440
 16777216
370
    -2
100
AcDbLine
 10
1412.614622367029
 20
1029.177692316725
 30
0.0
 11
1821.361748372115
 21
1029.177692316725
 31
0.0
  0
LINE
  5
8A8B
330
8935
100
AcDbEntity
  8
3
 62
     0
440
 16777216
370
    -2
100
AcDbLine
 10
1806.361748372115
 20
1854.177692316724
 30
0.0
 11
1806.361748372115
 21
1059.177692316725
 31
0.0
  0
INSERT
  5
8A8C
330
8935
100
AcDbEntity
  8
3
 62
     0
440
 16777216
370
    -2
100
AcDbBlockReference
  2
_OPEN
 10
1806.361748372115
 20
1884.177692316725
 30
0.0
 41
30.0
 42
30.0
 43
30.0
 50
90.0
  0
INSERT
  5
8A8D
330
8935
100
AcDbEntity
  8
3
 62
     0
440
 16777216
370
    -2
100
AcDbBlockReference
  2
_OPEN
 10
1806.361748372115
 20
1029.177692316725
 30
0.0
 41
30.0
 42
30.0
 43
30.0
 50
270.0
  0
MTEXT
  5
8A8E
330
8935
100
AcDbEntity
  8
3
 62
     0
440
 16777216
100
AcDbMText
 10
1757.076034086401
 20
1456.677692316725
 30
0.0
 40
45.0
 41
0.0
 46
0.0
 71
     5
 72
     1
  1
\A1;(855)
 11
0.0000000000000001
 21
1.0
 31
0.0
 73
     1
 44
1.0
  0
POINT
  5
8A8F
330
8935
100
AcDbEntity
  8
DEFPOINTS
 62
     0
440
 16777216
100
AcDbPoint
 10
1170.114622367029
 20
1884.177692316725
 30
0.0
  0
POINT
  5
8A90
330
8935
100
AcDbEntity
  8
DEFPOINTS
 62
     0
440
 16777216
100
AcDbPoint
 10
1405.114622367029
 20
1029.177692316725
 30
0.0
  0
POINT
  5
8A91
330
8935
100
AcDbEntity
  8
DEFPOINTS
 62
     0
440
 16777216
100
AcDbPoint
 10
1806.361748372115
 20
1029.177692316725
 30
0.0
  0
ENDBLK
  5
8940
330
8935
100
AcDbEntity
  8
0
100
AcDbBlockEnd
  0
ENDSEC
  0
SECTION
  2
ENTITIES
  0
LINE
  5
831D
330
19
100
AcDbEntity
  8
4
100
AcDbLine
 10
2775.0
 20
750.0
 30
0.0
 11
2775.0
 21
450.0
 31
0.0
  0
LINE
  5
831E
330
19
100
AcDbEntity
  8
4
100
AcDbLine
 10
1725.0
 20
750.0
 30
0.0
 11
1725.0
 21
450.0
 31
0.0
  0
LINE
  5
831F
330
19
100
AcDbEntity
  8
4
100
AcDbLine
 10
975.0
 20
750.0
 30
0.0
 11
975.0
 21
450.0
 31
0.0
  0
LINE
  5
8322
330
19
100
AcDbEntity
  8
4
100
AcDbLine
 10
975.0
 20
450.0
 30
0.0
 11
2775.0
 21
450.0
 31
0.0
  0
LINE
  5
8323
330
19
100
AcDbEntity
  8
4
100
AcDbLine
 10
975.0
 20
600.0
 30
0.0
 11
2775.0
 21
600.0
 31
0.0
  0
TEXT
  5
8324
330
19
100
AcDbEntity
  8
4
100
AcDbText
 10
1032.753121270352
 20
647.3145387999193
 30
0.0
 40
75.0
  1
機器名称
100
AcDbText
  0
TEXT
  5
8325
330
19
100
AcDbEntity
  8
4
100
AcDbText
 10
1029.387159037196
 20
482.4677350980164
 30
0.0
 40
75.0
  1
機器型番
100
AcDbText
  0
TEXT
  5
8326
330
19
100
AcDbEntity
  8
4
100
AcDbText
 10
1765.683671544667
 20
634.5324550190777
 30
0.0
 40
60.0
  1
ミツヤリミットロードファン
100
AcDbText
  0
TEXT
  5
8327
330
19
100
AcDbEntity
  8
4
100
AcDbText
 10
1779.981743378221
 20
475.739376419915
 30
0.0
 40
75.0
  1
LL#2 1/2-5
100
AcDbText
  0
TEXT
  5
8329
330
19
100
AcDbEntity
  8
4
100
AcDbText
 10
1206.686190474767
 20
3575.143261998774
 30
0.0
 40
80.99999999999999
  1
床置防振ベット
100
AcDbText
  0
TEXT
  5
832A
330
19
100
AcDbEntity
  8
4
100
AcDbText
 10
442.5687705727723
 20
3800.821464298947
 30
0.0
 40
108.0
  1
遠心式両吸込両持リミットロードファン
100
AcDbText
  0
LINE
  5
832B
330
19
100
AcDbEntity
  8
4
100
AcDbLine
 10
375.0
 20
3704.113131397207
 30
0.0
 11
2775.0
 21
3704.113131397207
 31
0.0
  0
LINE
  5
832C
330
19
100
AcDbEntity
  8
4
100
AcDbLine
 10
375.0
 20
4004.113131397207
 30
0.0
 11
2775.0
 21
4004.113131397207
 31
0.0
  0
LINE
  5
832D
330
19
100
AcDbEntity
  8
4
100
AcDbLine
 10
975.0
 20
750.0
 30
0.0
 11
2775.0
 21
750.0
 31
0.0
  0
LINE
  5
832E
330
19
100
AcDbEntity
  8
4
100
AcDbLine
 10
375.0
 20
4004.113131397207
 30
0.0
 11
375.0
 21
3704.113131397207
 31
0.0
  0
TEXT
  5
832F
330
19
100
AcDbEntity
  8
4
100
AcDbText
 10
552.8979421107142
 20
3573.479216319515
 30
0.0
 40
80.99999999999999
  1
右回転上向
100
AcDbText
  0
TEXT
  5
8330
330
19
100
AcDbEntity
  8
4
100
AcDbText
 10
2203.454338873935
 20
4059.091622242963
 30
0.0
 40
84.00000000000002
  1
No.
100
AcDbText
  0
TEXT
  5
8331
330
19
100
AcDbEntity
  8
4
100
AcDbText
 10
1966.94409390002
 20
3575.143261998774
 30
0.0
 40
80.99999999999999
  1
縮尺：1/15
100
AcDbText
  0
LINE
  5
8332
330
19
100
AcDbEntity
  8
4
100
AcDbLine
 10
2775.0
 20
4004.113131397207
 30
0.0
 11
2775.0
 21
3704.113131397207
 31
0.0
  0
LINE
  5
8333
330
19
100
AcDbEntity
  8
4
100
AcDbLine
 10
3150.0
 20
4425.0
 30
0.0
 11
3150.0
 21
4425.0
 31
0.0
  0
LINE
  5
8334
330
19
100
AcDbEntity
  8
4
100
AcDbLine
 10
2160.926133539797
 20
4021.895374688102
 30
0.0
 11
2160.926133539797
 21
4179.978392324628
 31
0.0
  0
LINE
  5
8335
330
19
100
AcDbEntity
  8
4
100
AcDbLine
 10
2160.926133539797
 20
4179.978392324628
 30
0.0
 11
2775.0
 21
4179.978392324628
 31
0.0
  0
LINE
  5
8336
330
19
100
AcDbEntity
  8
4
100
AcDbLine
 10
2775.0
 20
4179.978392324628
 30
0.0
 11
2775.0
 21
4021.895374688102
 31
0.0
  0
LINE
  5
8337
330
19
100
AcDbEntity
  8
4
100
AcDbLine
 10
2775.0
 20
4021.895374688102
 30
0.0
 11
2160.926133539797
 21
4021.895374688102
 31
0.0
  0
LINE
  5
8338
330
19
100
AcDbEntity
  8
4
100
AcDbLine
 10
0.0
 20
0.0
 30
0.0
 11
0.0
 21
4425.0
 31
0.0
  0
LINE
  5
8339
330
19
100
AcDbEntity
  8
4
100
AcDbLine
 10
0.0
 20
4425.0
 30
0.0
 11
3150.0
 21
4425.0
 31
0.0
  0
LINE
  5
833A
330
19
100
AcDbEntity
  8
4
100
AcDbLine
 10
3150.0
 20
4425.0
 30
0.0
 11
3150.0
 21
0.0
 31
0.0
  0
LINE
  5
833B
330
19
100
AcDbEntity
  8
4
100
AcDbLine
 10
3150.0
 20
0.0
 30
0.0
 11
0.0
 21
0.0
 31
0.0
  0
LINE
  5
8633
330
19
100
AcDbEntity
  8
1
100
AcDbLine
 10
1170.114622367029
 20
1881.177692316725
 30
0.0
 11
704.119805054458
 21
1881.177692316725
 31
0.0
  0
LINE
  5
8634
330
19
100
AcDbEntity
  8
1
100
AcDbLine
 10
1170.114622367029
 20
1884.177692316725
 30
0.0
 11
1170.114622367029
 21
1881.177692316725
 31
0.0
  0
LINE
  5
8635
330
19
100
AcDbEntity
  8
1
100
AcDbLine
 10
704.119805054458
 20
1884.177692316725
 30
0.0
 11
704.119805054458
 21
1881.177692316725
 31
0.0
  0
DIMENSION
  5
8636
330
19
100
AcDbEntity
  8
3
100
AcDbDimension
280
     0
  2
*D3
 10
1155.114622367029
 20
2050.107021541788
 30
0.0
 11
943.1146223670294
 21
2080.107021541788
 31
0.0
 12
-3773.528224568498
 22
0.0
 32
0.0
 70
    32
 71
     5
 42
-1.0
 73
     0
 74
     0
 75
     0
  3
MATSU
100
AcDbAlignedDimension
 13
731.1146223670293
 23
1884.177692316725
 33
0.0
 14
1155.114622367029
 24
1889.177692316725
 34
0.0
100
AcDbRotatedDimension
1001
ACAD
1000
DSTYLE
1002
{
1070
    40
1040
15.0
1002
}
  0
DIMENSION
  5
8637
330
19
100
AcDbEntity
  8
3
100
AcDbDimension
280
     0
  2
*D4
 10
2980.74308199151
 20
1379.177692316725
 30
0.0
 11
2950.74308199151
 21
1579.177692316725
 31
0.0
 12
-3773.528224568498
 22
0.0
 32
0.0
 70
    32
  1
φ400
 71
     5
 42
-1.0
 73
     0
 74
     0
 75
     0
  3
MATSU
100
AcDbAlignedDimension
 13
2808.464561573984
 23
1779.177692316725
 33
0.0
 14
2808.464561573984
 24
1379.177692316725
 34
0.0
 50
90.0
100
AcDbRotatedDimension
1001
ACAD
1000
DSTYLE
1002
{
1070
    40
1040
15.0
1002
}
  0
LINE
  5
8638
330
19
100
AcDbEntity
  8
2
100
AcDbLine
 10
1996.756736569341
 20
1579.177692316725
 30
0.0
 11
2886.464561573985
 21
1579.177692316725
 31
0.0
  0
LINE
  5
8639
330
19
100
AcDbEntity
  8
1
100
AcDbLine
 10
2806.464561573985
 20
1884.177692316725
 30
0.0
 11
2806.464561573985
 21
1249.177692316725
 31
0.0
  0
LINE
  5
863A
330
19
100
AcDbEntity
  8
1
100
AcDbLine
 10
2276.464561573984
 20
1884.177692316725
 30
0.0
 11
2276.464561573985
 21
1249.177692316725
 31
0.0
  0
LINE
  5
863B
330
19
100
AcDbEntity
  8
1
100
AcDbLine
 10
1143.114622367029
 20
1859.177692316725
 30
0.0
 11
732.9179010555544
 21
1859.177692316725
 31
0.0
  0
DIMENSION
  5
863C
330
19
100
AcDbEntity
  8
3
100
AcDbDimension
280
     0
  2
*D5
 10
1143.114622367029
 20
1954.472871515952
 30
0.0
 11
937.1146223670294
 21
1984.472871515952
 31
0.0
 12
-3773.528224568498
 22
0.0
 32
0.0
 70
    32
 71
     5
 42
-1.0
 73
     0
 74
     0
 75
     0
  3
MATSU
100
AcDbAlignedDimension
 13
731.1146223670293
 23
1884.177692316725
 33
0.0
 14
1143.114622367029
 24
1884.177692316725
 34
0.0
100
AcDbRotatedDimension
1001
ACAD
1000
DSTYLE
1002
{
1070
    40
1040
15.0
1002
}
  0
LINE
  5
863D
330
19
100
AcDbEntity
  8
1
100
AcDbLine
 10
1143.114622367029
 20
1813.040142638851
 30
0.0
 11
1143.114622367029
 21
1884.177692316725
 31
0.0
  0
LINE
  5
863E
330
19
100
AcDbEntity
  8
1
100
AcDbLine
 10
1170.114622367029
 20
1884.177692316725
 30
0.0
 11
704.119805054458
 21
1884.177692316725
 31
0.0
  0
LINE
  5
863F
330
19
100
AcDbEntity
  8
2
100
AcDbLine
 10
1465.114622367029
 20
1579.177692316725
 30
0.0
 11
742.7343006525261
 21
1579.177692316725
 31
0.0
  0
LINE
  5
8640
330
19
100
AcDbEntity
  8
2
100
AcDbLine
 10
1155.114622367029
 20
1888.641413610776
 30
0.0
 11
1155.114622367029
 21
1029.177692316725
 31
0.0
  0
LINE
  5
8641
330
19
100
AcDbEntity
  8
2
100
AcDbLine
 10
2541.464561573985
 20
1904.887215533345
 30
0.0
 11
2541.464561573985
 21
1029.177692316725
 31
0.0
  0
CIRCLE
  5
864A
330
19
100
AcDbEntity
  8
1
100
AcDbCircle
 10
1155.114622367029
 20
1579.177692316725
 30
0.0
 40
200.0
  0
CIRCLE
  5
864B
330
19
100
AcDbEntity
  8
1
100
AcDbCircle
 10
1155.114622367029
 20
1579.177692316725
 30
0.0
 40
225.0
  0
LINE
  5
864C
330
19
100
AcDbEntity
  8
1
100
AcDbLine
 10
1405.114622367029
 20
1174.177692316725
 30
0.0
 11
425.1146223670294
 21
1174.177692316725
 31
0.0
  0
LINE
  5
864D
330
19
100
AcDbEntity
  8
1
100
AcDbLine
 10
1405.114622367029
 20
1094.177692316725
 30
0.0
 11
425.1146223670294
 21
1094.177692316725
 31
0.0
  0
LINE
  5
864E
330
19
100
AcDbEntity
  8
1
100
AcDbLine
 10
1405.114622367029
 20
1029.177692316725
 30
0.0
 11
425.1146223670294
 21
1029.177692316725
 31
0.0
  0
LINE
  5
864F
330
19
100
AcDbEntity
  8
1
100
AcDbLine
 10
1405.114622367029
 20
1249.177692316725
 30
0.0
 11
1405.114622367029
 21
1174.177692316725
 31
0.0
  0
LINE
  5
8650
330
19
100
AcDbEntity
  8
1
100
AcDbLine
 10
425.1146223670294
 20
1249.177692316725
 30
0.0
 11
425.1146223670294
 21
1174.177692316725
 31
0.0
  0
LINE
  5
8651
330
19
100
AcDbEntity
  8
1
100
AcDbLine
 10
1405.114622367029
 20
1094.177692316725
 30
0.0
 11
1405.114622367029
 21
1029.177692316725
 31
0.0
  0
LINE
  5
8652
330
19
100
AcDbEntity
  8
1
100
AcDbLine
 10
425.1146223670294
 20
1094.177692316725
 30
0.0
 11
425.1146223670294
 21
1029.177692316725
 31
0.0
  0
DIMENSION
  5
8653
330
19
100
AcDbEntity
  8
3
100
AcDbDimension
280
     0
  2
*D6
 10
1680.836204997755
 20
1174.177692316725
 30
0.0
 11
1650.836204997755
 21
1376.677692316725
 31
0.0
 70
    32
 71
     5
 42
-1.0
 73
     0
 74
     0
 75
     0
  3
MATSU
100
AcDbAlignedDimension
 13
1465.114622367029
 23
1579.177692316725
 33
0.0
 14
1405.114622367029
 24
1174.177692316725
 34
0.0
 50
90.0
100
AcDbRotatedDimension
1001
ACAD
1000
DSTYLE
1002
{
1070
   287
1070
     4
1070
    40
1040
15.0
1070
    75
1070
     1
1070
   279
1070
     1
1070
   289
1070
     3
1002
}
  0
LINE
  5
8657
330
19
100
AcDbEntity
  8
2
100
AcDbLine
 10
635.1146223670293
 20
1668.413692316725
 30
0.0
 11
635.1146223670293
 21
1029.177692316725
 31
0.0
  0
LINE
  5
8658
330
19
100
AcDbEntity
  8
2
100
AcDbLine
 10
452.6020732362867
 20
1456.177692316725
 30
0.0
 11
858.1914507096554
 21
1456.177692316725
 31
0.0
  0
LINE
  5
8659
330
19
100
AcDbEntity
  8
1
100
AcDbLine
 10
745.6760223670299
 20
1581.955692316725
 30
0.0
 11
743.5228223670292
 21
1579.409692316725
 31
0.0
  0
LINE
  5
865A
330
19
100
AcDbEntity
  8
1
100
AcDbLine
 10
2168.464561573985
 20
1174.177692316725
 30
0.0
 11
2848.464561573985
 21
1174.177692316725
 31
0.0
  0
LINE
  5
865B
330
19
100
AcDbEntity
  8
1
100
AcDbLine
 10
2168.464561573985
 20
1094.177692316725
 30
0.0
 11
2848.464561573985
 21
1094.177692316725
 31
0.0
  0
LINE
  5
865C
330
19
100
AcDbEntity
  8
1
100
AcDbLine
 10
2168.464561573985
 20
1029.177692316725
 30
0.0
 11
2848.464561573985
 21
1029.177692316725
 31
0.0
  0
LINE
  5
865D
330
19
100
AcDbEntity
  8
1
100
AcDbLine
 10
2848.464561573985
 20
1249.177692316725
 30
0.0
 11
2848.464561573985
 21
1174.177692316725
 31
0.0
  0
LINE
  5
865E
330
19
100
AcDbEntity
  8
1
100
AcDbLine
 10
2168.464561573985
 20
1249.177692316725
 30
0.0
 11
2168.464561573985
 21
1174.177692316725
 31
0.0
  0
LINE
  5
865F
330
19
100
AcDbEntity
  8
1
100
AcDbLine
 10
2848.464561573985
 20
1094.177692316725
 30
0.0
 11
2848.464561573985
 21
1029.177692316725
 31
0.0
  0
LINE
  5
8660
330
19
100
AcDbEntity
  8
1
100
AcDbLine
 10
2168.464561573985
 20
1094.177692316725
 30
0.0
 11
2168.464561573985
 21
1029.177692316725
 31
0.0
  0
LINE
  5
8664
330
19
100
AcDbEntity
  8
1
100
AcDbLine
 10
2196.464561573985
 20
1526.277692316725
 30
0.0
 11
2196.464561573985
 21
1466.277692316725
 31
0.0
  0
LINE
  5
8665
330
19
100
AcDbEntity
  8
1
100
AcDbLine
 10
2266.464561573985
 20
1536.277692316725
 30
0.0
 11
2266.464561573985
 21
1456.277692316725
 31
0.0
  0
LINE
  5
8666
330
19
100
AcDbEntity
  8
1
100
AcDbLine
 10
2883.464561573985
 20
1535.877692316725
 30
0.0
 11
2883.464561573985
 21
1475.877692316725
 31
0.0
  0
LINE
  5
8667
330
19
100
AcDbEntity
  8
1
100
AcDbLine
 10
2813.464561573985
 20
1545.877692316725
 30
0.0
 11
2813.464561573985
 21
1465.877692316725
 31
0.0
  0
LINE
  5
8668
330
19
100
AcDbEntity
  8
1
100
AcDbLine
 10
2813.464561573985
 20
1545.877692316725
 30
0.0
 11
2873.464561573985
 21
1545.877692316725
 31
0.0
  0
LINE
  5
8669
330
19
100
AcDbEntity
  8
1
100
AcDbLine
 10
2813.464561573985
 20
1465.877692316725
 30
0.0
 11
2873.464561573985
 21
1465.877692316725
 31
0.0
  0
LINE
  5
866A
330
19
100
AcDbEntity
  8
1
100
AcDbLine
 10
2206.464561573985
 20
1536.277692316725
 30
0.0
 11
2266.464561573985
 21
1536.277692316725
 31
0.0
  0
LINE
  5
866B
330
19
100
AcDbEntity
  8
1
100
AcDbLine
 10
2206.464561573985
 20
1456.277692316725
 30
0.0
 11
2266.464561573984
 21
1456.277692316725
 31
0.0
  0
LINE
  5
866C
330
19
100
AcDbEntity
  8
1
100
AcDbLine
 10
2206.464561573985
 20
1536.277692316725
 30
0.0
 11
2196.464561573985
 21
1526.277692316725
 31
0.0
  0
LINE
  5
866D
330
19
100
AcDbEntity
  8
1
100
AcDbLine
 10
2196.464561573985
 20
1466.277692316725
 30
0.0
 11
2206.464561573985
 21
1456.277692316725
 31
0.0
  0
LINE
  5
866E
330
19
100
AcDbEntity
  8
1
100
AcDbLine
 10
2873.464561573985
 20
1545.877692316725
 30
0.0
 11
2883.464561573985
 21
1535.877692316725
 31
0.0
  0
LINE
  5
866F
330
19
100
AcDbEntity
  8
1
100
AcDbLine
 10
2883.464561573985
 20
1475.877692316725
 30
0.0
 11
2873.464561573985
 21
1465.877692316725
 31
0.0
  0
DIMENSION
  5
8670
330
19
100
AcDbEntity
  8
3
100
AcDbDimension
280
     0
  2
*D7
 10
2541.464561573985
 20
2048.861173295055
 30
0.0
 11
2712.464561573985
 21
2090.646887580769
 31
0.0
 12
-3773.528224568498
 22
0.0
 32
0.0
 70
    32
  1
(<>)
 71
     5
 42
-1.0
 73
     0
 74
     0
 75
     0
  3
MATSU
100
AcDbAlignedDimension
 13
2883.464561573985
 23
1538.877692316725
 33
0.0
 14
2541.464561573985
 24
1994.358572203237
 34
0.0
100
AcDbRotatedDimension
1001
ACAD
1000
DSTYLE
1002
{
1070
    40
1040
15.0
1002
}
  0
LINE
  5
8671
330
19
100
AcDbEntity
  8
2
100
AcDbLine
 10
1155.114622367029
 20
2344.1428249329
 30
0.0
 11
1155.114622367029
 21
3231.037518977184
 31
0.0
  0
LINE
  5
8672
330
19
100
AcDbEntity
  8
2
100
AcDbLine
 10
731.1146223670293
 20
2894.556286029656
 30
0.0
 11
1536.547310379523
 21
2894.556286029656
 31
0.0
  0
LINE
  5
8673
330
19
100
AcDbEntity
  8
1
100
AcDbLine
 10
425.1146223670294
 20
3201.556286029656
 30
0.0
 11
1405.114622367029
 21
3201.556286029656
 31
0.0
  0
LINE
  5
8674
330
19
100
AcDbEntity
  8
1
100
AcDbLine
 10
425.1146223670294
 20
2521.556286029657
 30
0.0
 11
1405.114622367029
 21
2521.556286029657
 31
0.0
  0
LINE
  5
8675
330
19
100
AcDbEntity
  8
1
100
AcDbLine
 10
1405.114622367029
 20
2521.556286029656
 30
0.0
 11
1405.114622367029
 21
2629.556286029656
 31
0.0
  0
LINE
  5
8676
330
19
100
AcDbEntity
  8
1
100
AcDbLine
 10
425.1146223670294
 20
2521.556286029657
 30
0.0
 11
425.1146223670294
 21
3201.556286029656
 31
0.0
  0
LINE
  5
8677
330
19
100
AcDbEntity
  8
1
100
AcDbLine
 10
731.1146223670293
 20
3159.556286029657
 30
0.0
 11
1437.114622367029
 21
3159.556286029656
 31
0.0
  0
LINE
  5
8678
330
19
100
AcDbEntity
  8
1
100
AcDbLine
 10
731.1146223670293
 20
2629.556286029656
 30
0.0
 11
1437.114622367029
 21
2629.556286029656
 31
0.0
  0
LINE
  5
8679
330
19
100
AcDbEntity
  8
1
100
AcDbLine
 10
2011.464561573985
 20
1729.177692316725
 30
0.0
 11
2011.464561573985
 21
1306.177692316725
 31
0.0
  0
LINE
  5
867A
330
19
100
AcDbEntity
  8
1
100
AcDbLine
 10
492.6146223670293
 20
2364.556286029655
 30
0.0
 11
1305.114622367029
 21
2364.556286029655
 31
0.0
  0
DIMENSION
  5
867B
330
19
100
AcDbEntity
  8
3
100
AcDbDimension
280
     0
  2
*D8
 10
1405.114622367029
 20
3391.984167016352
 30
0.0
 11
915.1146223670293
 21
3421.984167016352
 31
0.0
 12
-3773.528224568498
 22
0.0
 32
0.0
 70
    32
 71
     5
 42
-1.0
 73
     0
 74
     0
 75
     0
  3
MATSU
100
AcDbAlignedDimension
 13
425.1146223670294
 23
3201.556286029656
 33
0.0
 14
1405.114622367029
 24
3201.556286029656
 34
0.0
100
AcDbRotatedDimension
1001
ACAD
1000
DSTYLE
1002
{
1070
    40
1040
15.0
1002
}
  0
DIMENSION
  5
867C
330
19
100
AcDbEntity
  8
3
100
AcDbDimension
280
     0
  2
*D9
 10
1648.394078867235
 20
2521.556286029657
 30
0.0
 11
1618.394078867235
 21
2861.556286029656
 31
0.0
 12
-3773.528224568498
 22
0.0
 32
0.0
 70
    32
 71
     5
 42
-1.0
 73
     0
 74
     0
 75
     0
  3
MATSU
100
AcDbAlignedDimension
 13
1405.114622367029
 23
3201.556286029656
 33
0.0
 14
1405.114622367029
 24
2521.556286029657
 34
0.0
 50
90.0
100
AcDbRotatedDimension
1001
ACAD
1000
DSTYLE
1002
{
1070
    40
1040
15.0
1002
}
  0
LINE
  5
867D
330
19
100
AcDbEntity
  8
1
100
AcDbLine
 10
2171.464561573985
 20
1599.177692316725
 30
0.0
 11
2276.464561573984
 21
1599.177692316725
 31
0.0
  0
LINE
  5
867E
330
19
100
AcDbEntity
  8
1
100
AcDbLine
 10
2171.464561573985
 20
1559.177692316725
 30
0.0
 11
2276.464561573984
 21
1559.177692316725
 31
0.0
  0
LINE
  5
867F
330
19
100
AcDbEntity
  8
1
100
AcDbLine
 10
1175.114622367029
 20
2524.556286029655
 30
0.0
 11
1175.114622367029
 21
2629.556286029656
 31
0.0
  0
LINE
  5
8680
330
19
100
AcDbEntity
  8
1
100
AcDbLine
 10
1135.114622367029
 20
2524.556286029655
 30
0.0
 11
1135.114622367029
 21
2629.556286029656
 31
0.0
  0
DIMENSION
  5
8681
330
19
100
AcDbEntity
  8
3
100
AcDbDimension
280
     0
  2
*D10
 10
2011.464561573985
 20
2048.861173295055
 30
0.0
 11
2276.464561573985
 21
2090.646887580769
 31
0.0
 70
    32
  1
(<>)
 71
     5
 42
530.0
 73
     0
 74
     0
 75
     0
  3
MATSU
100
AcDbAlignedDimension
 13
2541.464561573985
 23
1994.358572203237
 33
0.0
 14
2011.464561573985
 24
1734.177692316725
 34
0.0
100
AcDbRotatedDimension
1001
ACAD
1000
DSTYLE
1002
{
1070
   287
1070
     4
1070
    40
1040
15.0
1070
    75
1070
     1
1070
   279
1070
     1
1070
   289
1070
     3
1002
}
  0
LINE
  5
8682
330
19
100
AcDbEntity
  8
1
100
AcDbLine
 10
1305.114622367029
 20
2364.556286029657
 30
0.0
 11
1305.114622367029
 21
2556.556286029656
 31
0.0
  0
DIMENSION
  5
8683
330
19
100
AcDbEntity
  8
3
100
AcDbDimension
280
     0
  2
*D11
 10
1438.322339329045
 20
2050.107021541788
 30
0.0
 11
1296.718480848037
 21
2080.107021541788
 31
0.0
 70
    32
  1
282
 71
     5
 42
-1.0
 73
     0
 74
     0
 75
     0
  3
MATSU
100
AcDbAlignedDimension
 13
1155.114622367029
 23
1889.177692316725
 33
0.0
 14
1438.322339329045
 24
1549.177692316725
 34
0.0
100
AcDbRotatedDimension
1001
ACAD
1000
DSTYLE
1002
{
1070
   287
1070
     4
1070
    40
1040
15.0
1070
    75
1070
     1
1070
   279
1070
     1
1070
   289
1070
     3
1002
}
  0
DIMENSION
  5
8684
330
19
100
AcDbEntity
  8
3
100
AcDbDimension
280
     0
  2
*D12
 10
1682.752982160353
 20
1579.177692316725
 30
0.0
 11
1652.752982160353
 21
1731.677692316725
 31
0.0
 12
-3773.528224568498
 22
0.0
 32
0.0
 70
    32
 71
     5
 42
-1.0
 73
     0
 74
     0
 75
     0
  3
MATSU
100
AcDbAlignedDimension
 13
1170.114622367029
 23
1884.177692316725
 33
0.0
 14
1465.114622367029
 24
1579.177692316725
 34
0.0
 50
90.0
100
AcDbRotatedDimension
1001
ACAD
1000
DSTYLE
1002
{
1070
    40
1040
15.0
1002
}
  0
DIMENSION
  5
8686
330
19
100
AcDbEntity
  8
3
100
AcDbDimension
280
     0
  2
*D13
 10
425.1146223670294
 20
2136.700591673486
 30
0.0
 11
931.7184808480378
 21
2166.700591673486
 31
0.0
 12
-3773.528224568498
 22
0.0
 32
0.0
 70
    32
  1
1012
 71
     5
 42
-1.0
 73
     0
 74
     0
 75
     0
  3
MATSU
100
AcDbAlignedDimension
 13
1438.322339329045
 23
1549.177692316725
 33
0.0
 14
425.1146223670294
 24
1239.177692316725
 34
0.0
100
AcDbRotatedDimension
1001
ACAD
1000
DSTYLE
1002
{
1070
    40
1040
15.0
1002
}
  0
LINE
  5
8687
330
19
100
AcDbEntity
  8
1
100
AcDbLine
 10
2251.464561573984
 20
1884.177692316725
 30
0.0
 11
2831.464561573985
 21
1884.177692316725
 31
0.0
  0
LINE
  5
8688
330
19
100
AcDbEntity
  8
1
100
AcDbLine
 10
2251.464561573984
 20
1884.177692316725
 30
0.0
 11
2251.464561573984
 21
1881.177692316725
 31
0.0
  0
LINE
  5
8689
330
19
100
AcDbEntity
  8
1
100
AcDbLine
 10
2831.464561573985
 20
1884.177692316725
 30
0.0
 11
2831.464561573985
 21
1881.177692316725
 31
0.0
  0
LINE
  5
868A
330
19
100
AcDbEntity
  8
1
100
AcDbLine
 10
2251.464561573984
 20
1881.177692316725
 30
0.0
 11
2831.464561573985
 21
1881.177692316725
 31
0.0
  0
DIMENSION
  5
868B
330
19
100
AcDbEntity
  8
3
100
AcDbDimension
280
     0
  2
*D14
 10
2806.464561573985
 20
1939.271148908719
 30
0.0
 11
2541.464561573985
 21
1969.27114890872
 31
0.0
 12
-3773.528224568498
 22
0.0
 32
0.0
 70
    32
 71
     5
 42
-1.0
 73
     0
 74
     0
 75
     0
  3
MATSU
100
AcDbAlignedDimension
 13
2276.464561573984
 23
1884.177692316725
 33
0.0
 14
2806.464561573985
 24
1884.177692316725
 34
0.0
100
AcDbRotatedDimension
1001
ACAD
1000
DSTYLE
1002
{
1070
    40
1040
15.0
1002
}
  0
LINE
  5
868C
330
19
100
AcDbEntity
  8
1
100
AcDbLine
 10
1437.114622367029
 20
2629.556286029656
 30
0.0
 11
1437.114622367029
 21
3159.556286029656
 31
0.0
  0
LINE
  5
868D
330
19
100
AcDbEntity
  8
1
100
AcDbLine
 10
731.1146223670292
 20
2629.556286029656
 30
0.0
 11
731.1146223670293
 21
3159.556286029657
 31
0.0
  0
LINE
  5
868E
330
19
100
AcDbEntity
  8
1
100
AcDbLine
 10
1143.114622367029
 20
2629.556286029656
 30
0.0
 11
1143.114622367029
 21
3159.556286029656
 31
0.0
  0
LINE
  5
8691
330
19
100
AcDbEntity
  8
1
100
AcDbLine
 10
1405.114622367029
 20
3159.556286029656
 30
0.0
 11
1405.114622367029
 21
3201.556286029656
 31
0.0
  0
DIMENSION
  5
8693
330
19
100
AcDbEntity
  8
3
100
AcDbDimension
280
     0
  2
*D15
 10
1680.836204997755
 20
1029.177692316725
 30
0.0
 11
1643.336204997754
 21
917.7491208881541
 31
0.0
 70
    32
 71
     5
 42
64.99999999999977
 73
     0
 74
     0
 75
     0
  3
IGA
100
AcDbAlignedDimension
 13
1405.114622367029
 23
1094.177692316725
 33
0.0
 14
1405.114622367029
 24
1029.177692316725
 34
0.0
 50
90.0
100
AcDbRotatedDimension
1001
ACAD
1000
DSTYLE
1002
{
1070
   287
1070
     3
1070
    40
1040
15.0
1070
   143
1040
0.039
1070
   172
1070
     1
1070
   271
1070
     0
1070
   279
1070
     0
1070
   288
1070
     1
1070
     6
1000
DOT
1002
}
  0
LINE
  5
8694
330
19
100
AcDbEntity
  8
1
100
AcDbLine
 10
1405.114622367029
 20
1249.177692316725
 30
0.0
 11
425.1146223670294
 21
1249.177692316725
 31
0.0
  0
LINE
  5
8695
330
19
100
AcDbEntity
  8
1
100
AcDbLine
 10
2168.464561573985
 20
1249.177692316725
 30
0.0
 11
2848.464561573985
 21
1249.177692316725
 31
0.0
  0
INSERT
  5
8696
330
19
100
AcDbEntity
  8
0
100
AcDbBlockReference
  2
YA_N
 10
11726.0309121532
 20
46.97352167509961
 30
0.0
  0
INSERT
  5
8697
330
19
100
AcDbEntity
  8
0
100
AcDbBlockReference
  2
YA_N
 10
11726.0309121532
 20
46.97352167509961
 30
0.0
  0
INSERT
  5
8698
330
19
100
AcDbEntity
  8
0
100
AcDbBlockReference
  2
YA_N
 10
13372.14134247164
 20
395.8333338643276
 30
0.0
  0
INSERT
  5
8699
330
19
100
AcDbEntity
  8
0
100
AcDbBlockReference
  2
YA_N
 10
11510.62727548383
 20
-1402.510486570387
 30
0.0
 41
10.0
 42
10.0
 43
10.0
  0
INSERT
  5
869A
330
19
100
AcDbEntity
  8
0
100
AcDbBlockReference
  2
YA_N
 10
11510.62727548383
 20
-1402.510486570387
 30
0.0
 41
10.0
 42
10.0
 43
10.0
  0
INSERT
  5
869B
330
19
100
AcDbEntity
  8
0
  6
ByBlock
 62
     2
100
AcDbBlockReference
  2
YA_N
 10
12881.94095417078
 20
-353.1251620733858
 30
0.0
 41
30.0
 42
30.0
 43
30.0
 50
90.0
  0
INSERT
  5
869C
330
19
100
AcDbEntity
  8
0
  6
ByBlock
 62
     2
100
AcDbBlockReference
  2
YA_N
 10
12881.94095417078
 20
-353.1251620733858
 30
0.0
 41
30.0
 42
30.0
 43
30.0
 50
90.0
  0
ARC
  5
869D
330
19
100
AcDbEntity
  8
1
100
AcDbCircle
 10
635.1146223670293
 20
1456.177692316725
 30
0.0
 40
150.0
100
AcDbArc
 50
103.3080567007366
 51
283.3080567007366
  0
CIRCLE
  5
869E
330
19
100
AcDbEntity
  8
1
100
AcDbCircle
 10
635.1146223670293
 20
1456.177692316725
 30
0.0
 40
75.0
  0
LINE
  5
869F
330
19
100
AcDbEntity
  8
1
100
AcDbLine
 10
800.1146223670293
 20
1324.177692316725
 30
0.0
 11
470.1146223670293
 21
1324.177692316724
 31
0.0
  0
ARC
  5
86A0
330
19
100
AcDbEntity
  8
1
100
AcDbCircle
 10
635.1146223670293
 20
1456.177692316725
 30
0.0
 40
142.5
100
AcDbArc
 50
180.0
 51
244.787
  0
ARC
  5
86A1
330
19
100
AcDbEntity
  8
1
100
AcDbCircle
 10
635.1146223670293
 20
1456.177692316725
 30
0.0
 40
142.5
100
AcDbArc
 50
295.1874
 51
180.0
  0
LINE
  5
86A2
330
19
100
AcDbEntity
  8
1
100
AcDbLine
 10
574.5733223670295
 20
1327.177692316725
 30
0.0
 11
695.6559223670292
 21
1327.177692316725
 31
0.0
  0
LINE
  5
86A3
330
19
100
AcDbEntity
  8
1
100
AcDbLine
 10
505.1146223670293
 20
1324.177692316725
 30
0.0
 11
555.1146223670293
 21
1324.177692316725
 31
0.0
  0
LINE
  5
86A4
330
19
100
AcDbEntity
  8
1
100
AcDbLine
 10
515.5890223670294
 20
1378.268992316725
 30
0.0
 11
505.1146223670293
 21
1339.177692316725
 31
0.0
  0
LINE
  5
86A5
330
19
100
AcDbEntity
  8
1
100
AcDbLine
 10
505.1146223670293
 20
1338.980292316725
 30
0.0
 11
505.1146223670293
 21
1324.177692316725
 31
0.0
  0
LINE
  5
86A6
330
19
100
AcDbEntity
  8
1
100
AcDbLine
 10
765.1146223670293
 20
1324.177692316725
 30
0.0
 11
715.1146223670293
 21
1324.177692316725
 31
0.0
  0
LINE
  5
86A7
330
19
100
AcDbEntity
  8
1
100
AcDbLine
 10
754.5974223670291
 20
1378.428292316725
 30
0.0
 11
765.1146223670293
 21
1339.177692316725
 31
0.0
  0
LINE
  5
86A8
330
19
100
AcDbEntity
  8
1
100
AcDbLine
 10
765.1146223670293
 20
1338.980292316725
 30
0.0
 11
765.1146223670293
 21
1324.177692316725
 31
0.0
  0
LINE
  5
86AA
330
19
100
AcDbEntity
  8
1
100
AcDbLine
 10
2276.464561573985
 20
1324.177692316725
 30
0.0
 11
2249.148776325004
 21
1324.177692316726
 31
0.0
  0
LINE
  5
86AB
330
19
100
AcDbEntity
  8
1
100
AcDbLine
 10
2249.148776325004
 20
1559.177692316725
 30
0.0
 11
2249.148776325004
 21
1536.277692316725
 31
0.0
  0
LINE
  5
86AC
330
19
100
AcDbEntity
  8
1
100
AcDbLine
 10
2239.148776325004
 20
1398.177692316725
 30
0.0
 11
2239.148776325004
 21
1456.177692316725
 31
0.0
  0
LINE
  5
86AD
330
19
100
AcDbEntity
  8
1
100
AcDbLine
 10
2249.148776325004
 20
1397.177692316725
 30
0.0
 11
2240.148776325004
 21
1397.177692316725
 31
0.0
  0
ARC
  5
86AE
330
19
100
AcDbEntity
  8
1
100
AcDbCircle
 10
2240.148776325004
 20
1398.177692316725
 30
0.0
 40
0.9999
100
AcDbArc
 50
179.9965
 51
270.007
  0
LINE
  5
86B0
330
19
100
AcDbEntity
  8
1
100
AcDbLine
 10
2232.148776325004
 20
1437.177692316725
 30
0.0
 11
2171.464561573985
 21
1437.177692316725
 31
0.0
  0
LINE
  5
86B1
330
19
100
AcDbEntity
  8
1
100
AcDbLine
 10
2196.464561573985
 20
1475.177692316725
 30
0.0
 11
2171.464561573985
 21
1475.177692316725
 31
0.0
  0
LINE
  5
86B2
330
19
100
AcDbEntity
  8
1
100
AcDbLine
 10
2232.148776325004
 20
1436.177692316725
 30
0.0
 11
2232.148776325004
 21
1456.177692316725
 31
0.0
  0
LINE
  5
86B3
330
19
100
AcDbEntity
  8
1
100
AcDbLine
 10
2239.148776325004
 20
1436.177692316725
 30
0.0
 11
2232.148776325004
 21
1436.177692316725
 31
0.0
  0
LINE
  5
86B4
330
19
100
AcDbEntity
  8
1
100
AcDbLine
 10
835.1146223670294
 20
1289.177692316725
 30
0.0
 11
435.1146223670293
 21
1289.177692316725
 31
0.0
  0
LINE
  5
86B5
330
19
100
AcDbEntity
  8
1
100
AcDbLine
 10
835.1146223670294
 20
1289.177692316725
 30
0.0
 11
835.1146223670294
 21
1249.177692316725
 31
0.0
  0
LINE
  5
86B6
330
19
100
AcDbEntity
  8
1
100
AcDbLine
 10
435.1146223670293
 20
1289.177692316725
 30
0.0
 11
435.1146223670293
 21
1249.177692316724
 31
0.0
  0
LINE
  5
86B7
330
19
100
AcDbEntity
  8
1
100
AcDbLine
 10
800.1146223670293
 20
1324.177692316725
 30
0.0
 11
810.1146223670294
 21
1289.177692316725
 31
0.0
  0
LINE
  5
86B8
330
19
100
AcDbEntity
  8
1
100
AcDbLine
 10
470.1146223670293
 20
1324.177692316725
 30
0.0
 11
460.1146223670293
 21
1289.177692316725
 31
0.0
  0
LINE
  5
86B9
330
19
100
AcDbEntity
  8
1
100
AcDbLine
 10
493.1146223670293
 20
2938.906997489109
 30
0.0
 11
731.1146223670293
 21
2938.906997489109
 31
0.0
  0
LINE
  5
86BA
330
19
100
AcDbEntity
  8
1
100
AcDbLine
 10
493.1146223670293
 20
2586.90729748911
 30
0.0
 11
767.1146223670294
 21
2586.90729748911
 31
0.0
  0
LINE
  5
86BB
330
19
100
AcDbEntity
  8
1
100
AcDbLine
 10
693.1146223670293
 20
2576.90729748911
 30
0.0
 11
577.1146223670293
 21
2576.90729748911
 31
0.0
  0
LINE
  5
86BC
330
19
100
AcDbEntity
  8
1
100
AcDbLine
 10
767.1146223670294
 20
2629.556286029657
 30
0.0
 11
767.1146223670294
 21
2586.907297489109
 31
0.0
  0
LINE
  5
86BD
330
19
100
AcDbEntity
  8
1
100
AcDbLine
 10
694.1146223670293
 20
2586.90729748911
 30
0.0
 11
694.1146223670293
 21
2577.90729748911
 31
0.0
  0
ARC
  5
86BE
330
19
100
AcDbEntity
  8
1
100
AcDbCircle
 10
693.1146223670293
 20
2577.90729748911
 30
0.0
 40
0.9999
100
AcDbArc
 50
269.9965
 51
0.0069999999999659
  0
LINE
  5
86BF
330
19
100
AcDbEntity
  8
1
100
AcDbLine
 10
493.1146223670293
 20
2938.906997489109
 30
0.0
 11
493.1146223670293
 21
2586.907297489109
 31
0.0
  0
LINE
  5
86C0
330
19
100
AcDbEntity
  8
2
100
AcDbLine
 10
635.1146223670293
 20
2980.863512603219
 30
0.0
 11
635.1146223670293
 21
2344.1428249329
 31
0.0
  0
LINE
  5
86C1
330
19
100
AcDbEntity
  8
1
100
AcDbLine
 10
654.1146223670294
 20
2569.907297489109
 30
0.0
 11
654.1146223670294
 21
2524.556286029655
 31
0.0
  0
LINE
  5
86C2
330
19
100
AcDbEntity
  8
1
100
AcDbLine
 10
616.1146223670293
 20
2569.907297489109
 30
0.0
 11
616.1146223670293
 21
2524.556286029655
 31
0.0
  0
LINE
  5
86C3
330
19
100
AcDbEntity
  8
1
100
AcDbLine
 10
616.1146223670293
 20
2552.90729748911
 30
0.0
 11
613.1146223670294
 21
2552.90729748911
 31
0.0
  0
LINE
  5
86C4
330
19
100
AcDbEntity
  8
1
100
AcDbLine
 10
613.1146223670294
 20
2552.90729748911
 30
0.0
 11
613.1146223670294
 21
2524.556286029655
 31
0.0
  0
LINE
  5
86C5
330
19
100
AcDbEntity
  8
1
100
AcDbLine
 10
655.1146223670293
 20
2569.907297489109
 30
0.0
 11
615.1146223670293
 21
2569.907297489109
 31
0.0
  0
LINE
  5
86C6
330
19
100
AcDbEntity
  8
1
100
AcDbLine
 10
655.1146223670293
 20
2576.90729748911
 30
0.0
 11
655.1146223670293
 21
2569.907297489109
 31
0.0
  0
LINE
  5
86C7
330
19
100
AcDbEntity
  8
1
100
AcDbLine
 10
615.1146223670293
 20
2576.90729748911
 30
0.0
 11
615.1146223670293
 21
2569.907297489109
 31
0.0
  0
LINE
  5
86C8
330
19
100
AcDbEntity
  8
1
100
AcDbLine
 10
576.1146223670293
 20
2586.90729748911
 30
0.0
 11
576.1146223670293
 21
2577.90729748911
 31
0.0
  0
ARC
  5
86C9
330
19
100
AcDbEntity
  8
1
100
AcDbCircle
 10
577.1146223670293
 20
2577.906297489109
 30
0.0
 40
0.9998000000000001
100
AcDbArc
 50
179.986
 51
270.007
  0
LINE
  5
86CA
330
19
100
AcDbEntity
  8
1
100
AcDbLine
 10
2203.464561573985
 20
1729.177692316725
 30
0.0
 11
2203.464561573985
 21
1694.523955875889
 31
0.0
  0
ARC
  5
86CB
330
19
100
AcDbEntity
  8
1
100
AcDbCircle
 10
1155.114622367029
 20
1579.177692316725
 30
0.0
 40
150.0
100
AcDbArc
 50
283.3080567007366
 51
103.3080567007366
  0
CIRCLE
  5
86CC
330
19
100
AcDbEntity
  8
1
100
AcDbCircle
 10
1155.114622367029
 20
1579.177692316725
 30
0.0
 40
75.0
  0
LINE
  5
86CD
330
19
100
AcDbEntity
  8
1
100
AcDbLine
 10
1137.850628912811
 20
1652.163680903663
 30
0.0
 11
617.8506289128108
 21
1529.163680903663
 31
0.0
  0
LINE
  5
86CE
330
19
100
AcDbEntity
  8
1
100
AcDbLine
 10
1172.378615821248
 20
1506.191703729786
 30
0.0
 11
652.3786158212478
 21
1383.191703729786
 31
0.0
  0
LINE
  5
86CF
330
19
100
AcDbEntity
  8
1
100
AcDbLine
 10
1120.586635458593
 20
1725.149669490602
 30
0.0
 11
600.5866354585933
 21
1602.149669490602
 31
0.0
  0
LINE
  5
86D0
330
19
100
AcDbEntity
  8
1
100
AcDbLine
 10
1189.642609275465
 20
1433.205715142848
 30
0.0
 11
669.6426092754655
 21
1310.205715142848
 31
0.0
  0
LINE
  5
86D1
330
19
100
AcDbEntity
  8
1
100
AcDbLine
 10
2011.464561573985
 20
1729.177692316725
 30
0.0
 11
2203.464561573985
 21
1729.177692316725
 31
0.0
  0
LINE
  5
86D2
330
19
100
AcDbEntity
  8
1
100
AcDbLine
 10
2011.464561573985
 20
1306.177692316725
 30
0.0
 11
2203.464561573985
 21
1306.177692316725
 31
0.0
  0
LINE
  5
86D3
330
19
100
AcDbEntity
  8
1
100
AcDbLine
 10
2111.464561573985
 20
1654.177692316725
 30
0.0
 11
2111.464561573985
 21
1381.177692316725
 31
0.0
  0
LINE
  5
86D4
330
19
100
AcDbEntity
  8
1
100
AcDbLine
 10
2171.464561573985
 20
1654.177692316725
 30
0.0
 11
2171.464561573985
 21
1381.177692316725
 31
0.0
  0
LINE
  5
86D5
330
19
100
AcDbEntity
  8
1
100
AcDbLine
 10
2111.464561573985
 20
1654.177692316725
 30
0.0
 11
2171.464561573985
 21
1654.177692316725
 31
0.0
  0
LINE
  5
86D6
330
19
100
AcDbEntity
  8
1
100
AcDbLine
 10
2111.464561573985
 20
1504.177692316725
 30
0.0
 11
2171.464561573985
 21
1504.177692316725
 31
0.0
  0
LINE
  5
86D7
330
19
100
AcDbEntity
  8
1
100
AcDbLine
 10
2111.464561573985
 20
1531.177692316725
 30
0.0
 11
2171.464561573985
 21
1531.177692316725
 31
0.0
  0
LINE
  5
86D8
330
19
100
AcDbEntity
  8
1
100
AcDbLine
 10
2111.464561573985
 20
1381.177692316725
 30
0.0
 11
2171.464561573985
 21
1381.177692316725
 31
0.0
  0
LINE
  5
86D9
330
19
100
AcDbEntity
  8
1
100
AcDbLine
 10
2203.464561573985
 20
1340.924298653145
 30
0.0
 11
2203.464561573985
 21
1306.177692316725
 31
0.0
  0
LINE
  5
86DA
330
19
100
AcDbEntity
  8
2
100
AcDbLine
 10
1991.663611938324
 20
1456.177692316725
 30
0.0
 11
2276.464561573984
 21
1456.177692316725
 31
0.0
  0
LINE
  5
86DB
330
19
100
AcDbEntity
  8
1
100
AcDbLine
 10
2249.148776325004
 20
1456.177692316725
 30
0.0
 11
2249.148776325004
 21
1324.177692316725
 31
0.0
  0
LINE
  5
86DC
330
19
100
AcDbEntity
  8
1
100
AcDbLine
 10
492.6146223670293
 20
2364.556286029656
 30
0.0
 11
492.6146223670293
 21
2556.556286029656
 31
0.0
  0
LINE
  5
86DD
330
19
100
AcDbEntity
  8
1
100
AcDbLine
 10
1305.114622367029
 20
2364.556286029655
 30
0.0
 11
1305.114622367029
 21
2556.556286029656
 31
0.0
  0
LINE
  5
86DE
330
19
100
AcDbEntity
  8
1
100
AcDbLine
 10
560.1146223670293
 20
2464.556286029655
 30
0.0
 11
560.1146223670293
 21
2524.556286029655
 31
0.0
  0
LINE
  5
86DF
330
19
100
AcDbEntity
  8
1
100
AcDbLine
 10
1230.114622367029
 20
2464.556286029655
 30
0.0
 11
1230.114622367029
 21
2524.556286029655
 31
0.0
  0
LINE
  5
86E0
330
19
100
AcDbEntity
  8
1
100
AcDbLine
 10
710.1146223670293
 20
2464.556286029655
 30
0.0
 11
710.1146223670293
 21
2524.556286029655
 31
0.0
  0
LINE
  5
86E1
330
19
100
AcDbEntity
  8
1
100
AcDbLine
 10
1080.114622367029
 20
2464.556286029655
 30
0.0
 11
1080.114622367029
 21
2524.556286029655
 31
0.0
  0
LINE
  5
86E2
330
19
100
AcDbEntity
  8
1
100
AcDbLine
 10
492.6146223670293
 20
2556.556286029656
 30
0.0
 11
1305.114622367029
 21
2556.556286029656
 31
0.0
  0
LINE
  5
86E3
330
19
100
AcDbEntity
  8
1
100
AcDbLine
 10
560.1146223670293
 20
2464.556286029656
 30
0.0
 11
710.1146223670293
 21
2464.556286029655
 31
0.0
  0
LINE
  5
86E4
330
19
100
AcDbEntity
  8
1
100
AcDbLine
 10
560.1146223670293
 20
2524.556286029655
 30
0.0
 11
710.1146223670293
 21
2524.556286029655
 31
0.0
  0
LINE
  5
86E5
330
19
100
AcDbEntity
  8
1
100
AcDbLine
 10
1080.114622367029
 20
2464.556286029655
 30
0.0
 11
1230.114622367029
 21
2464.556286029655
 31
0.0
  0
LINE
  5
86E6
330
19
100
AcDbEntity
  8
1
100
AcDbLine
 10
1080.114622367029
 20
2524.556286029655
 30
0.0
 11
1230.114622367029
 21
2524.556286029655
 31
0.0
  0
DIMENSION
  5
88E9
330
19
100
AcDbEntity
  8
3
100
AcDbDimension
280
     0
  2
*D16
 10
1155.114622367029
 20
925.2259251332615
 30
0.0
 11
790.1146223670293
 21
962.7259251332615
 31
0.0
 70
    32
 71
     5
 42
730.0
 73
     0
 74
     0
 75
     0
  3
IGA
100
AcDbAlignedDimension
 13
425.1146223670294
 23
1029.177692316725
 33
0.0
 14
1155.114622367029
 24
1029.177692316725
 34
0.0
100
AcDbRotatedDimension
1001
ACAD
1000
DSTYLE
1002
{
1070
   287
1070
     3
1070
    40
1040
15.0
1070
   143
1040
0.039
1070
   172
1070
     1
1070
   271
1070
     0
1070
   279
1070
     0
1002
}
  0
DIMENSION
  5
88F6
330
19
100
AcDbEntity
  8
3
100
AcDbDimension
280
     0
  2
*D17
 10
1405.114622367029
 20
925.2259251332615
 30
0.0
 11
1280.114622367029
 21
962.7259251332615
 31
0.0
 70
    32
 71
     5
 42
250.0
 73
     0
 74
     0
 75
     0
  3
IGA
100
AcDbAlignedDimension
 13
1155.114622367029
 23
1029.177692316725
 33
0.0
 14
1405.114622367029
 24
1029.177692316725
 34
0.0
100
AcDbRotatedDimension
1001
ACAD
1000
DSTYLE
1002
{
1070
   287
1070
     3
1070
    40
1040
15.0
1070
   143
1040
0.039
1070
   172
1070
     1
1070
   271
1070
     0
1070
   279
1070
     0
1002
}
  0
DIMENSION
  5
8903
330
19
100
AcDbEntity
  8
3
100
AcDbDimension
280
     0
  2
*D18
 10
2541.464561573985
 20
925.2259251332615
 30
0.0
 11
2354.964561573984
 21
962.7259251332615
 31
0.0
 70
    32
 71
     5
 42
373.0000000000004
 73
     0
 74
     0
 75
     0
  3
IGA
100
AcDbAlignedDimension
 13
2168.464561573985
 23
1029.177692316725
 33
0.0
 14
2541.464561573985
 24
1029.177692316725
 34
0.0
100
AcDbRotatedDimension
1001
ACAD
1000
DSTYLE
1002
{
1070
   287
1070
     3
1070
    40
1040
15.0
1070
   143
1040
0.039
1070
   172
1070
     1
1070
   271
1070
     0
1070
   279
1070
     0
1002
}
  0
DIMENSION
  5
8910
330
19
100
AcDbEntity
  8
3
100
AcDbDimension
280
     0
  2
*D19
 10
2848.464561573985
 20
925.2259251332615
 30
0.0
 11
2694.964561573985
 21
962.7259251332615
 31
0.0
 70
    32
 71
     5
 42
306.9999999999995
 73
     0
 74
     0
 75
     0
  3
IGA
100
AcDbAlignedDimension
 13
2541.464561573985
 23
1029.177692316725
 33
0.0
 14
2848.464561573985
 24
1029.177692316725
 34
0.0
100
AcDbRotatedDimension
1001
ACAD
1000
DSTYLE
1002
{
1070
   287
1070
     3
1070
    40
1040
15.0
1070
   143
1040
0.039
1070
   172
1070
     1
1070
   271
1070
     0
1070
   279
1070
     0
1002
}
  0
DIMENSION
  5
8934
330
19
100
AcDbEntity
  8
3
100
AcDbDimension
280
     0
  2
*D21
 10
1680.291765124801
 20
1174.177692316725
 30
0.0
 11
1748.959112815901
 21
1134.177692316725
 31
0.0
 70
   160
 71
     5
 42
80.0
 73
     0
 74
     0
 75
     0
  3
IGA
100
AcDbAlignedDimension
 13
1405.114622367029
 23
1094.177692316725
 33
0.0
 14
1405.114622367029
 24
1174.177692316725
 34
0.0
 50
90.0
100
AcDbRotatedDimension
1001
ACAD
1000
DSTYLE
1002
{
1070
     3
1000
(<>)
1070
    40
1040
15.0
1070
    75
1070
     1
1070
    76
1070
     1
1070
   143
1040
0.039
1070
   172
1070
     1
1070
   271
1070
     0
1070
   343
1005
8911
1070
   344
1005
8911
1002
}
  0
DIMENSION
  5
8941
330
19
100
AcDbEntity
  8
3
100
AcDbDimension
280
     0
  2
*D22
 10
1806.361748372115
 20
1029.177692316725
 30
0.0
 11
1757.076034086401
 21
1456.677692316725
 31
0.0
 70
    32
 71
     5
 42
854.9999999999995
 73
     0
 74
     0
 75
     0
  3
IGA
100
AcDbAlignedDimension
 13
1170.114622367029
 23
1884.177692316725
 33
0.0
 14
1405.114622367029
 24
1029.177692316725
 34
0.0
 50
90.0
100
AcDbRotatedDimension
1001
ACAD
1000
DSTYLE
1002
{
1070
   172
1070
     1
1070
    40
1040
15.0
1070
     3
1000
(<>)
1070
   271
1070
     0
1070
   143
1040
0.039
1002
}
  0
LINE
  5
8946
330
19
100
AcDbEntity
  8
1
100
AcDbLine
 10
731.1146223670293
 20
2629.556286029656
 30
0.0
 11
1143.114622367029
 21
3159.556286029656
 31
0.0
  0
LINE
  5
8947
330
19
100
AcDbEntity
  8
1
100
AcDbLine
 10
731.1146223670293
 20
3159.556286029657
 30
0.0
 11
1143.114622367029
 21
2629.556286029656
 31
0.0
  0
LWPOLYLINE
  5
8948
330
19
100
AcDbEntity
  8
1
100
AcDbPolyline
 90
        3
 70
     0
 43
0.0
 10
731.1146223670293
 20
1884.177692316725
 10
753.1146223670293
 20
1579.177692316725
 42
0.3157825601736449
 10
1026.707305565888
 20
1249.177692316725
 42
0.4532193849935457
  0
LWPOLYLINE
  5
894D
330
19
100
AcDbEntity
  8
1
100
AcDbPolyline
 90
        4
 70
     0
 43
0.0
 10
1215.109477578637
 20
1249.177692316725
 42
0.3680545815635807
 10
1435.62578064388
 20
1590.188600013667
 42
0.3762546939936967
 10
1178.114622367029
 20
1815.925143660246
 42
0.0411445297571046
 10
1143.114622367029
 20
1813.040142638851
 42
0.3936265759256327
  0
ENDSEC
  0
SECTION
  2
OBJECTS
  0
DICTIONARY
  5
C
330
0
100
AcDbDictionary
281
     1
  3
ACAD_CIP_PREVIOUS_PRODUCT_INFO
350
8A37
  3
ACAD_COLOR
350
8A1A
  3
ACAD_DETAILVIEWSTYLE
350
8A33
  3
ACAD_GROUP
350
D
  3
ACAD_LAYOUT
350
8957
  3
ACAD_MATERIAL
350
89E8
  3
ACAD_MLEADERSTYLE
350
8A2F
  3
ACAD_MLINESTYLE
350
E
  3
ACAD_PLOTSETTINGS
350
8958
  3
ACAD_PLOTSTYLENAME
350
8955
  3
ACAD_SCALELIST
350
8A1D
  3
ACAD_SECTIONVIEWSTYLE
350
8A31
  3
ACAD_TABLESTYLE
350
8A1B
  3
ACAD_VISUALSTYLE
350
8A01
  3
ACDB_RECOMPOSE_DATA
350
8AC1
  3
AcDbVariableDictionary
350
8AB0
  3
AcDsDecomposeData
350
8AC7
  0
DICTIONARY
  5
8AA4
330
2
100
AcDbDictionary
280
     1
281
     1
  3
ACAD_LAYERSTATES
360
8AA5
  0
DICTIONARY
  5
8A97
330
F
100
AcDbDictionary
280
     1
281
     1
  3
ADSK_XREC_LAYER_RECONCILED
360
8A98
  0
DICTIONARY
  5
8A99
330
31
100
AcDbDictionary
280
     1
281
     1
  3
ADSK_XREC_LAYER_RECONCILED
360
8A9A
  0
DICTIONARY
  5
8A9B
330
76D0
100
AcDbDictionary
280
     1
281
     1
  3
ADSK_XREC_LAYER_RECONCILED
360
8A9C
  0
DICTIONARY
  5
8A9D
330
76D1
100
AcDbDictionary
280
     1
281
     1
  3
ADSK_XREC_LAYER_RECONCILED
360
8A9E
  0
DICTIONARY
  5
8A9F
330
76D2
100
AcDbDictionary
280
     1
281
     1
  3
ADSK_XREC_LAYER_RECONCILED
360
8AA0
  0
DICTIONARY
  5
8984
330
19
100
AcDbDictionary
280
     1
281
     1
  3
ACAD_LAYOUTSELFREF
360
8985
  3
ACAD_SORTENTS
360
8A39
  0
DICTIONARY
  5
8982
330
16
100
AcDbDictionary
280
     1
281
     1
  3
ACAD_LAYOUTSELFREF
360
8983
  0
XRECORD
  5
8A37
102
{ACAD_REACTORS
330
C
102
}
330
C
100
AcDbXrecord
280
     1
300
ACDLT
300
2023
300

  0
DICTIONARY
  5
8A1A
102
{ACAD_REACTORS
330
C
102
}
330
C
100
AcDbDictionary
281
     1
  0
DICTIONARY
  5
8A33
102
{ACAD_REACTORS
330
C
102
}
330
C
100
AcDbDictionary
281
     1
  3
Metric50
350
8A34
  0
DICTIONARY
  5
D
102
{ACAD_REACTORS
330
C
102
}
330
C
100
AcDbDictionary
281
     1
  0
DICTIONARY
  5
8957
102
{ACAD_REACTORS
330
C
102
}
330
C
100
AcDbDictionary
281
     1
  3
Model
350
8959
  3
ﾚｲｱｳﾄ1
350
895A
  0
DICTIONARY
  5
89E8
102
{ACAD_REACTORS
330
C
102
}
330
C
100
AcDbDictionary
281
     1
  3
ByBlock
350
89F1
  3
ByLayer
350
89E9
  3
Global
350
89F9
  0
DICTIONARY
  5
8A2F
102
{ACAD_REACTORS
330
C
102
}
330
C
100
AcDbDictionary
281
     1
  3
Standard
350
8A30
  0
DICTIONARY
  5
E
102
{ACAD_REACTORS
330
C
102
}
330
C
100
AcDbDictionary
281
     1
  3
STANDARD
350
1C
  0
DICTIONARY
  5
8958
102
{ACAD_REACTORS
330
C
102
}
330
C
100
AcDbDictionary
281
     1
  0
ACDBDICTIONARYWDFLT
  5
8955
102
{ACAD_REACTORS
330
C
102
}
330
C
100
AcDbDictionary
281
     1
  3
Normal
350
8956
100
AcDbDictionaryWithDefault
340
8956
  0
DICTIONARY
  5
8A1D
102
{ACAD_REACTORS
330
C
102
}
330
C
100
AcDbDictionary
281
     1
  3
A0
350
8A1E
  3
A1
350
8A1F
  3
A2
350
8A20
  3
A3
350
8A21
  3
A4
350
8A22
  3
A5
350
8A23
  3
A6
350
8A24
  3
A7
350
8A25
  3
A8
350
8A26
  3
A9
350
8A27
  3
B0
350
8A28
  3
B1
350
8A29
  3
B2
350
8A2A
  3
B3
350
8A2B
  3
B4
350
8A2C
  3
B5
350
8A2D
  3
B6
350
8A2E
  0
DICTIONARY
  5
8A31
102
{ACAD_REACTORS
330
C
102
}
330
C
100
AcDbDictionary
281
     1
  3
Metric50
350
8A32
  0
DICTIONARY
  5
8A1B
102
{ACAD_REACTORS
330
C
102
}
330
C
100
AcDbDictionary
281
     1
  3
Standard
350
8A1C
  0
DICTIONARY
  5
8A01
102
{ACAD_REACTORS
330
C
102
}
330
C
100
AcDbDictionary
281
     1
  3
2dWireframe
350
8A07
  3
Basic
350
8A06
  3
Brighten
350
8A0D
  3
ColorChange
350
8A11
  3
Conceptual
350
8A0A
  3
Dim
350
8A0C
  3
EdgeColorOff
350
8A19
  3
Facepattern
350
8A10
  3
Flat
350
8A02
  3
FlatWithEdges
350
8A03
  3
Gouraud
350
8A04
  3
GouraudWithEdges
350
8A05
  3
Hidden
350
8A09
  3
JitterOff
350
8A17
  3
Linepattern
350
8A0F
  3
OverhangOff
350
8A18
  3
Realistic
350
8A0B
  3
Shaded
350
8A16
  3
Shaded with edges
350
8A15
  3
Shades of Gray
350
8A12
  3
Sketchy
350
8A13
  3
Thicken
350
8A0E
  3
Wireframe
350
8A08
  3
X-Ray
350
8A14
  0
XRECORD
  5
8AC1
102
{ACAD_REACTORS
330
C
102
}
330
C
100
AcDbXrecord
280
     1
 90
        1
330
8653
330
8681
330
8683
330
8A1C
  0
DICTIONARY
  5
8AB0
102
{ACAD_REACTORS
330
C
102
}
330
C
100
AcDbDictionary
281
     1
  3
CANNOSCALE
350
8AB6
  3
CMLEADERSTYLE
350
8AB2
  3
CTABLESTYLE
350
8AB1
  3
CVIEWDETAILSTYLE
350
8AB3
  3
CVIEWSECTIONSTYLE
350
8AB4
  3
LAYEREVAL
350
8AB8
  3
LAYERNOTIFY
350
8AB9
  3
LIGHTINGUNITS
350
8AB7
  3
MARKUPASSISTMODE
350
8ABE
  3
MSLTSCALE
350
8AB5
  0
DICTIONARY
  5
8AC7
102
{ACAD_REACTORS
330
C
102
}
330
C
100
AcDbDictionary
281
     1
  3
AcDsRecords
350
8AC9
  3
AcDsSchemas
350
8AC8
1001
ACAD
1070
     2
  0
DICTIONARY
  5
8AA5
102
{ACAD_REACTORS
330
8AA4
102
}
330
8AA4
100
AcDbDictionary
281
     1
  0
XRECORD
  5
8A98
102
{ACAD_REACTORS
330
8A97
102
}
330
8A97
100
AcDbXrecord
280
     1
290
     1
  0
XRECORD
  5
8A9A
102
{ACAD_REACTORS
330
8A99
102
}
330
8A99
100
AcDbXrecord
280
     1
290
     1
  0
XRECORD
  5
8A9C
102
{ACAD_REACTORS
330
8A9B
102
}
330
8A9B
100
AcDbXrecord
280
     1
290
     1
  0
XRECORD
  5
8A9E
102
{ACAD_REACTORS
330
8A9D
102
}
330
8A9D
100
AcDbXrecord
280
     1
290
     1
  0
XRECORD
  5
8AA0
102
{ACAD_REACTORS
330
8A9F
102
}
330
8A9F
100
AcDbXrecord
280
     1
290
     1
  0
XRECORD
  5
8985
102
{ACAD_REACTORS
330
8984
102
}
330
8984
100
AcDbXrecord
280
     1
340
19
  0
SORTENTSTABLE
  5
8A39
102
{ACAD_REACTORS
330
8984
102
}
330
8984
100
AcDbSortentsTable
330
19
331
864A
  5
864B
331
864B
  5
864C
331
864C
  5
864D
331
864D
  5
864E
331
864E
  5
864F
331
864F
  5
8650
331
8650
  5
8651
331
8651
  5
8652
331
8652
  5
8653
331
8653
  5
8657
331
8657
  5
8658
331
8658
  5
8659
331
8659
  5
865A
331
865A
  5
865B
331
865B
  5
865C
331
865C
  5
865D
331
865D
  5
865E
331
865E
  5
865F
331
865F
  5
8660
331
8660
  5
8664
331
8664
  5
8665
331
8665
  5
8666
331
8666
  5
8667
331
8667
  5
8668
331
8668
  5
8669
331
8669
  5
866A
331
866A
  5
866B
331
866B
  5
866C
331
866C
  5
866D
331
866D
  5
866E
331
866E
  5
866F
331
866F
  5
8670
331
8670
  5
8671
331
8671
  5
8672
331
8672
  5
8673
331
8673
  5
8674
331
8674
  5
8675
331
8675
  5
8676
331
8676
  5
8677
331
8677
  5
8678
331
8678
  5
8679
331
8679
  5
867A
331
867A
  5
867B
331
867B
  5
867C
331
867C
  5
867D
331
867D
  5
867E
331
867E
  5
867F
331
867F
  5
8680
331
8680
  5
8681
331
8681
  5
8682
331
8682
  5
8683
331
8683
  5
8684
331
8684
  5
8686
331
8686
  5
8687
331
8687
  5
8688
331
8688
  5
8689
331
8689
  5
868A
331
868A
  5
868B
331
868B
  5
868C
331
868C
  5
868D
331
868D
  5
868E
331
868E
  5
8691
331
8691
  5
8693
331
8693
  5
8694
331
8694
  5
8695
331
8695
  5
8696
331
8696
  5
8697
331
8697
  5
8698
331
8698
  5
8699
331
8699
  5
869A
331
869A
  5
869B
331
869B
  5
869C
331
869C
  5
869D
331
869D
  5
869E
331
869E
  5
869F
331
869F
  5
86A0
331
86A0
  5
86A1
331
86A1
  5
86A2
331
86A2
  5
86A3
331
86A3
  5
86A4
331
86A4
  5
86A5
331
86A5
  5
86A6
331
86A6
  5
86A7
331
86A7
  5
86A8
331
86A8
  5
86AA
331
86AA
  5
86AB
331
86AB
  5
86AC
331
86AC
  5
86AD
331
86AD
  5
86AE
331
86AE
  5
86B0
331
86B0
  5
86B1
331
86B1
  5
86B2
331
86B2
  5
86B3
331
86B3
  5
86B4
331
86B4
  5
86B5
331
86B5
  5
86B6
331
86B6
  5
86B7
331
86B7
  5
86B8
331
86B8
  5
86B9
331
86B9
  5
86BA
331
86BA
  5
86BB
331
86BB
  5
86BC
331
86BC
  5
86BD
331
86BD
  5
86BE
331
86BE
  5
86BF
331
86BF
  5
86C0
331
86C0
  5
86C1
331
86C1
  5
86C2
331
86C2
  5
86C3
331
86C3
  5
86C4
331
86C4
  5
86C5
331
86C5
  5
86C6
331
86C6
  5
86C7
331
86C7
  5
86C8
331
86C8
  5
86C9
331
86C9
  5
86CA
331
86CA
  5
86CB
331
86CB
  5
86CC
331
86CC
  5
86CD
331
86CD
  5
86CE
331
86CE
  5
86CF
331
86CF
  5
86D0
331
86D0
  5
86D1
331
86D1
  5
86D2
331
86D2
  5
86D3
331
86D3
  5
86D4
331
86D4
  5
86D5
331
86D5
  5
86D6
331
86D6
  5
86D7
331
86D7
  5
86D8
331
86D8
  5
86D9
331
86D9
  5
86DA
331
86DA
  5
86DB
331
86DB
  5
86DC
331
86DC
  5
86DD
331
86DD
  5
86DE
331
86DE
  5
86DF
331
86DF
  5
86E0
331
86E0
  5
86E1
331
86E1
  5
86E2
331
86E2
  5
86E3
331
86E3
  5
86E4
331
86E4
  5
86E5
331
86E5
  5
86E6
331
86E6
  5
88E9
331
88E9
  5
88F6
331
88F6
  5
8903
331
8903
  5
8910
331
8910
  5
8934
331
8934
  5
8941
331
8941
  5
8946
331
8946
  5
8947
331
8947
  5
8948
331
8948
  5
894D
331
894D
  5
8A38
  0
XRECORD
  5
8983
102
{ACAD_REACTORS
330
8982
102
}
330
8982
100
AcDbXrecord
280
     1
340
16
  0
ACDBDETAILVIEWSTYLE
  5
8A34
102
{ACAD_XDICTIONARY
360
8ACC
102
}
102
{ACAD_REACTORS
330
8A33
102
}
330
8A33
100
AcDbModelDocViewStyle
 70
     0
  3
Metric50
290
     0
100
AcDbDetailViewStyle
 70
     0
 71
     0
 90
        3
 71
     1
340
10
 62
   256
 40
5.0
340
0
 62
   256
 40
5.0
300

 40
0.0
280
     1
 71
     2
340
15
 90
       25
 62
   256
 71
     3
340
10
 62
   256
 40
5.0
 90
        0
 40
15.0
 90
        1
300
%<\AcVar ViewDetailId>% (%<\AcVar ViewScale \f "%sn">%)
 71
     4
340
15
 90
       25
 62
   256
340
15
 90
       25
 62
   256
280
     0
  0
LAYOUT
  5
8959
102
{ACAD_REACTORS
330
8957
102
}
330
8957
100
AcDbPlotSettings
  1

  2
EPSON LP-9300
  4

  6

 40
0.0
 41
0.0
 42
0.0
 43
0.0
 44
0.0
 45
0.0
 46
0.0
 47
0.0
 48
0.0
 49
0.0
140
0.0
141
0.0
142
1.0
143
1.0
 70
  1712
 72
     0
 73
     0
 74
     0
  7

 75
     0
147
1.0
 76
     0
 77
     2
 78
   300
148
0.0
149
0.0
100
AcDbLayout
  1
Model
 70
     1
 71
     0
 10
0.0
 20
0.0
 11
12.0
 21
9.0
 12
0.0
 22
0.0
 32
0.0
 14
0.0
 24
0.0
 34
0.0
 15
0.0
 25
0.0
 35
0.0
146
0.0
 13
0.0
 23
0.0
 33
0.0
 16
1.0
 26
0.0
 36
0.0
 17
0.0
 27
1.0
 37
0.0
 76
     0
330
19
331
89E6
  0
LAYOUT
  5
895A
102
{ACAD_REACTORS
330
8957
102
}
330
8957
100
AcDbPlotSettings
  1

  2
EPSON LP-9300
  4

  6

 40
0.0
 41
0.0
 42
0.0
 43
0.0
 44
0.0
 45
0.0
 46
0.0
 47
0.0
 48
0.0
 49
0.0
140
0.0
141
0.0
142
1.0
143
1.0
 70
   688
 72
     0
 73
     0
 74
     5
  7

 75
    16
147
1.0
 76
     0
 77
     2
 78
   300
148
0.0
149
0.0
100
AcDbLayout
  1
ﾚｲｱｳﾄ1
 70
     1
 71
     1
 10
0.0
 20
0.0
 11
12.0
 21
9.0
 12
0.0
 22
0.0
 32
0.0
 14
1.000000000000000E+20
 24
1.000000000000000E+20
 34
1.000000000000000E+20
 15
-1.000000000000000E+20
 25
-1.000000000000000E+20
 35
-1.000000000000000E+20
146
0.0
 13
0.0
 23
0.0
 33
0.0
 16
1.0
 26
0.0
 36
0.0
 17
0.0
 27
1.0
 37
0.0
 76
     0
330
16
  0
MATERIAL
  5
89F1
102
{ACAD_XDICTIONARY
360
89F2
102
}
102
{ACAD_REACTORS
330
89E8
102
}
330
89E8
100
AcDbMaterial
  1
ByBlock
 72
     0
 43
0.0208333333333333
 43
0.0
 43
0.0
 43
0.0
 43
0.0
 43
0.0208333333333333
 43
0.0
 43
0.0
 43
0.0
 43
0.0
 43
1.0
 43
0.0
 43
0.0
 43
0.0
 43
0.0
 43
1.0
 77
     0
 47
0.0208333333333333
 47
0.0
 47
0.0
 47
0.0
 47
0.0
 47
0.0208333333333333
 47
0.0
 47
0.0
 47
0.0
 47
0.0
 47
1.0
 47
0.0
 47
0.0
 47
0.0
 47
0.0
 47
1.0
171
     0
 49
0.0208333333333333
 49
0.0
 49
0.0
 49
0.0
 49
0.0
 49
0.0208333333333333
 49
0.0
 49
0.0
 49
0.0
 49
0.0
 49
1.0
 49
0.0
 49
0.0
 49
0.0
 49
0.0
 49
1.0
175
     0
142
0.0208333333333333
142
0.0
142
0.0
142
0.0
142
0.0
142
0.0208333333333333
142
0.0
142
0.0
142
0.0
142
0.0
142
1.0
142
0.0
142
0.0
142
0.0
142
0.0
142
1.0
179
     0
144
0.0208333333333333
144
0.0
144
0.0
144
0.0
144
0.0
144
0.0208333333333333
144
0.0
144
0.0
144
0.0
144
0.0
144
1.0
144
0.0
144
0.0
144
0.0
144
0.0
144
1.0
147
0.0208333333333333
147
0.0
147
0.0
147
0.0
147
0.0
147
0.0208333333333333
147
0.0
147
0.0
147
0.0
147
0.0
147
1.0
147
0.0
147
0.0
147
0.0
147
0.0
147
1.0
  0
MATERIAL
  5
89E9
102
{ACAD_XDICTIONARY
360
89EA
102
}
102
{ACAD_REACTORS
330
89E8
102
}
330
89E8
100
AcDbMaterial
  1
ByLayer
 72
     0
 43
0.0208333333333333
 43
0.0
 43
0.0
 43
0.0
 43
0.0
 43
0.0208333333333333
 43
0.0
 43
0.0
 43
0.0
 43
0.0
 43
1.0
 43
0.0
 43
0.0
 43
0.0
 43
0.0
 43
1.0
 77
     0
 47
0.0208333333333333
 47
0.0
 47
0.0
 47
0.0
 47
0.0
 47
0.0208333333333333
 47
0.0
 47
0.0
 47
0.0
 47
0.0
 47
1.0
 47
0.0
 47
0.0
 47
0.0
 47
0.0
 47
1.0
171
     0
 49
0.0208333333333333
 49
0.0
 49
0.0
 49
0.0
 49
0.0
 49
0.0208333333333333
 49
0.0
 49
0.0
 49
0.0
 49
0.0
 49
1.0
 49
0.0
 49
0.0
 49
0.0
 49
0.0
 49
1.0
175
     0
142
0.0208333333333333
142
0.0
142
0.0
142
0.0
142
0.0
142
0.0208333333333333
142
0.0
142
0.0
142
0.0
142
0.0
142
1.0
142
0.0
142
0.0
142
0.0
142
0.0
142
1.0
179
     0
144
0.0208333333333333
144
0.0
144
0.0
144
0.0
144
0.0
144
0.0208333333333333
144
0.0
144
0.0
144
0.0
144
0.0
144
1.0
144
0.0
144
0.0
144
0.0
144
0.0
144
1.0
147
0.0208333333333333
147
0.0
147
0.0
147
0.0
147
0.0
147
0.0208333333333333
147
0.0
147
0.0
147
0.0
147
0.0
147
1.0
147
0.0
147
0.0
147
0.0
147
0.0
147
1.0
  0
MATERIAL
  5
89F9
102
{ACAD_XDICTIONARY
360
89FA
102
}
102
{ACAD_REACTORS
330
89E8
102
}
330
89E8
100
AcDbMaterial
  1
Global
 72
     0
 43
0.0208333333333333
 43
0.0
 43
0.0
 43
0.0
 43
0.0
 43
0.0208333333333333
 43
0.0
 43
0.0
 43
0.0
 43
0.0
 43
1.0
 43
0.0
 43
0.0
 43
0.0
 43
0.0
 43
1.0
 77
     0
 47
0.0208333333333333
 47
0.0
 47
0.0
 47
0.0
 47
0.0
 47
0.0208333333333333
 47
0.0
 47
0.0
 47
0.0
 47
0.0
 47
1.0
 47
0.0
 47
0.0
 47
0.0
 47
0.0
 47
1.0
171
     0
 49
0.0208333333333333
 49
0.0
 49
0.0
 49
0.0
 49
0.0
 49
0.0208333333333333
 49
0.0
 49
0.0
 49
0.0
 49
0.0
 49
1.0
 49
0.0
 49
0.0
 49
0.0
 49
0.0
 49
1.0
175
     0
142
0.0208333333333333
142
0.0
142
0.0
142
0.0
142
0.0
142
0.0208333333333333
142
0.0
142
0.0
142
0.0
142
0.0
142
1.0
142
0.0
142
0.0
142
0.0
142
0.0
142
1.0
179
     0
144
0.0208333333333333
144
0.0
144
0.0
144
0.0
144
0.0
144
0.0208333333333333
144
0.0
144
0.0
144
0.0
144
0.0
144
1.0
144
0.0
144
0.0
144
0.0
144
0.0
144
1.0
147
0.0208333333333333
147
0.0
147
0.0
147
0.0
147
0.0
147
0.0208333333333333
147
0.0
147
0.0
147
0.0
147
0.0
147
1.0
147
0.0
147
0.0
147
0.0
147
0.0
147
1.0
  0
MLEADERSTYLE
  5
8A30
102
{ACAD_REACTORS
330
8A2F
102
}
330
8A2F
100
AcDbMLeaderStyle
179
     2
170
     2
171
     1
172
     0
 90
        2
 40
0.0
 41
0.0
173
     1
 91
-1056964608
340
13
 92
       -2
290
     1
 42
2.0
291
     1
 43
0.36
  3
Standard
 44
4.0
300

342
10
174
     1
178
     6
175
     1
176
     0
 93
-1056964608
 45
4.0
292
     0
297
     0
 46
4.0
 94
-1056964608
 47
1.0
 49
1.0
140
1.0
293
     1
141
0.0
294
     1
177
     0
142
1.0
295
     0
296
     0
143
0.125
271
     0
272
     9
273
     9
298
     1
  0
MLINESTYLE
  5
1C
102
{ACAD_REACTORS
330
E
102
}
330
E
100
AcDbMlineStyle
  2
STANDARD
 70
     0
  3

 62
     0
 51
90.0
 52
90.0
 71
     2
 49
0.5
 62
   256
  6
BYLAYER
 49
-0.5
 62
   256
  6
BYLAYER
  0
ACDBPLACEHOLDER
  5
8956
102
{ACAD_REACTORS
330
8955
102
}
330
8955
  0
SCALE
  5
8A1E
102
{ACAD_REACTORS
330
8A1D
102
}
330
8A1D
100
AcDbScale
 70
     0
300
1:1
140
1.0
141
1.0
290
     1
  0
SCALE
  5
8A1F
102
{ACAD_REACTORS
330
8A1D
102
}
330
8A1D
100
AcDbScale
 70
     0
300
1:2
140
1.0
141
2.0
290
     0
  0
SCALE
  5
8A20
102
{ACAD_REACTORS
330
8A1D
102
}
330
8A1D
100
AcDbScale
 70
     0
300
1:4
140
1.0
141
4.0
290
     0
  0
SCALE
  5
8A21
102
{ACAD_REACTORS
330
8A1D
102
}
330
8A1D
100
AcDbScale
 70
     0
300
1:5
140
1.0
141
5.0
290
     0
  0
SCALE
  5
8A22
102
{ACAD_REACTORS
330
8A1D
102
}
330
8A1D
100
AcDbScale
 70
     0
300
1:8
140
1.0
141
8.0
290
     0
  0
SCALE
  5
8A23
102
{ACAD_REACTORS
330
8A1D
102
}
330
8A1D
100
AcDbScale
 70
     0
300
1:10
140
1.0
141
10.0
290
     0
  0
SCALE
  5
8A24
102
{ACAD_REACTORS
330
8A1D
102
}
330
8A1D
100
AcDbScale
 70
     0
300
1:16
140
1.0
141
16.0
290
     0
  0
SCALE
  5
8A25
102
{ACAD_REACTORS
330
8A1D
102
}
330
8A1D
100
AcDbScale
 70
     0
300
1:20
140
1.0
141
20.0
290
     0
  0
SCALE
  5
8A26
102
{ACAD_REACTORS
330
8A1D
102
}
330
8A1D
100
AcDbScale
 70
     0
300
1:30
140
1.0
141
30.0
290
     0
  0
SCALE
  5
8A27
102
{ACAD_REACTORS
330
8A1D
102
}
330
8A1D
100
AcDbScale
 70
     0
300
1:40
140
1.0
141
40.0
290
     0
  0
SCALE
  5
8A28
102
{ACAD_REACTORS
330
8A1D
102
}
330
8A1D
100
AcDbScale
 70
     0
300
1:50
140
1.0
141
50.0
290
     0
  0
SCALE
  5
8A29
102
{ACAD_REACTORS
330
8A1D
102
}
330
8A1D
100
AcDbScale
 70
     0
300
1:100
140
1.0
141
100.0
290
     0
  0
SCALE
  5
8A2A
102
{ACAD_REACTORS
330
8A1D
102
}
330
8A1D
100
AcDbScale
 70
     0
300
2:1
140
2.0
141
1.0
290
     0
  0
SCALE
  5
8A2B
102
{ACAD_REACTORS
330
8A1D
102
}
330
8A1D
100
AcDbScale
 70
     0
300
4:1
140
4.0
141
1.0
290
     0
  0
SCALE
  5
8A2C
102
{ACAD_REACTORS
330
8A1D
102
}
330
8A1D
100
AcDbScale
 70
     0
300
8:1
140
8.0
141
1.0
290
     0
  0
SCALE
  5
8A2D
102
{ACAD_REACTORS
330
8A1D
102
}
330
8A1D
100
AcDbScale
 70
     0
300
10:1
140
10.0
141
1.0
290
     0
  0
SCALE
  5
8A2E
102
{ACAD_REACTORS
330
8A1D
102
}
330
8A1D
100
AcDbScale
 70
     0
300
100:1
140
100.0
141
1.0
290
     0
  0
ACDBSECTIONVIEWSTYLE
  5
8A32
102
{ACAD_XDICTIONARY
360
8ACA
102
}
102
{ACAD_REACTORS
330
8A31
102
}
330
8A31
100
AcDbModelDocViewStyle
 70
     0
  3
Metric50
290
     0
100
AcDbSectionViewStyle
 70
     0
 71
     0
 90
      102
 71
     1
340
10
 62
   256
 40
5.0
340
0
340
0
 62
   256
 40
5.0
300
I, O, Q, S, X, Z
 40
10.0
 90
        0
 40
2.5
 90
        0
 71
     2
340
15
 90
       25
 62
   256
340
15
 90
       50
 62
   256
 40
5.0
 40
2.5
 40
5.0
 71
     3
340
10
 62
   256
 40
5.0
 90
        0
 40
15.0
 90
        1
300
%<\AcVar ViewSectionStartId>%-%<\AcVar ViewSectionEndId>% (%<\AcVar ViewScale \f "%sn">%)
 71
     4
 62
   256
 62
   257
300
ANSI31
 40
1.0
 90
        0
290
     0
290
     0
 90
        6
 40
0.0
 40
1.570796326794896
 40
0.2617993877991494
 40
1.308996938995747
 40
-0.2617993877991494
 40
1.832595714594046
  0
TABLESTYLE
  5
8A1C
102
{ACAD_XDICTIONARY
360
8ABF
102
}
102
{ACAD_REACTORS
330
8A1B
102
}
330
8A1B
100
AcDbTableStyle
280
     0
  3
Standard
 70
     0
 71
     0
 40
1.5
 41
1.5
280
     0
281
     0
  7
STANDARD
140
4.5
170
     2
 62
     0
 63
     7
283
     0
 90
      512
 91
        0
  1

274
    -2
284
     1
 64
     0
275
    -2
285
     1
 65
     0
276
    -2
286
     1
 66
     0
277
    -2
287
     1
 67
     0
278
    -2
288
     1
 68
     0
279
    -2
289
     1
 69
     0
  7
STANDARD
140
6.0
170
     5
 62
     0
 63
     7
283
     0
 90
      512
 91
        0
  1

274
    -2
284
     1
 64
     0
275
    -2
285
     1
 65
     0
276
    -2
286
     1
 66
     0
277
    -2
287
     1
 67
     0
278
    -2
288
     1
 68
     0
279
    -2
289
     1
 69
     0
  7
STANDARD
140
4.5
170
     5
 62
     0
 63
     7
283
     0
 90
      512
 91
        0
  1

274
    -2
284
     1
 64
     0
275
    -2
285
     1
 65
     0
276
    -2
286
     1
 66
     0
277
    -2
287
     1
 67
     0
278
    -2
288
     1
 68
     0
279
    -2
289
     1
 69
     0
  0
VISUALSTYLE
  5
8A07
102
{ACAD_REACTORS
330
8A01
102
}
330
8A01
100
AcDbVisualStyle
  2
2dWireframe
 70
     4
177
     3
291
     0
 70
    58
 90
        0
176
     1
 90
        2
176
     1
 90
        0
176
     1
 90
        0
176
     1
 40
0.6
176
     1
 40
30.0
176
     1
 62
     7
420
 16777215
176
     1
 90
        1
176
     1
 90
        4
176
     1
 62
     7
176
     1
 62
   257
176
     1
 90
        1
176
     1
 90
        1
176
     1
 40
1.0
176
     1
 90
        0
176
     1
 62
   257
176
     1
 40
1.0
176
     1
 90
        1
176
     1
 90
        6
176
     1
 90
        2
176
     1
 62
     7
176
     1
 90
        5
176
     1
 90
        0
176
     1
 90
        0
176
     1
290
     0
176
     1
 90
        1
176
     1
 40
0.0
176
     1
 90
        0
176
     1
290
     1
176
     1
290
     1
176
     1
290
     0
176
     1
290
     0
176
     1
290
     0
176
     1
290
     0
176
     1
290
     0
176
     1
290
     0
176
     1
290
     0
176
     1
 90
       50
176
     1
 40
0.0
176
     1
 40
1.0
176
     1
 90
        0
176
     1
 62
    18
420
        0
176
     1
 90
       50
176
     1
 90
        3
176
     1
 62
     5
420
      255
176
     1
290
     0
176
     1
 90
       50
176
     1
 90
       50
176
     1
 90
       50
176
     1
290
     0
176
     1
 90
       50
176
     1
 62
   256
176
     0
 40
1.0
176
     0
 90
        2
176
     1
  1
strokes_ogs.tif
176
     1
290
     0
176
     1
 40
1.0
176
     1
 40
1.0
176
     1
1001
ACAD
1000
AcDbSavedByObjectVersion
1070
     0
  0
VISUALSTYLE
  5
8A06
102
{ACAD_REACTORS
330
8A01
102
}
330
8A01
100
AcDbVisualStyle
  2
Basic
 70
     7
177
     3
291
     1
 70
    58
 90
        1
176
     1
 90
        0
176
     1
 90
        1
176
     1
 90
        0
176
     1
 40
0.6
176
     1
 40
30.0
176
     1
 62
     7
420
 16777215
176
     1
 90
        0
176
     1
 90
        4
176
     1
 62
     7
176
     1
 62
   257
176
     1
 90
        1
176
     1
 90
        1
176
     1
 40
1.0
176
     1
 90
        8
176
     1
 62
     7
176
     1
 40
1.0
176
     1
 90
        1
176
     1
 90
        6
176
     1
 90
        2
176
     1
 62
     7
176
     1
 90
        5
176
     1
 90
        0
176
     1
 90
        0
176
     1
290
     0
176
     1
 90
        1
176
     1
 40
0.0
176
     1
 90
        0
176
     1
290
     0
176
     1
290
     1
176
     1
290
     1
176
     1
290
     0
176
     1
290
     0
176
     1
290
     0
176
     1
290
     0
176
     1
290
     0
176
     1
290
     0
176
     1
 90
       50
176
     1
 40
0.0
176
     1
 40
1.0
176
     1
 90
        0
176
     1
 62
    18
420
        0
176
     1
 90
       50
176
     1
 90
        3
176
     1
 62
     5
420
      255
176
     1
290
     0
176
     1
 90
       50
176
     1
 90
       50
176
     1
 90
       50
176
     1
290
     0
176
     1
 90
       50
176
     1
 62
   256
176
     0
 40
1.0
176
     0
 90
        2
176
     1
  1
strokes_ogs.tif
176
     1
290
     0
176
     1
 40
1.0
176
     1
 40
1.0
176
     1
1001
ACAD
1000
AcDbSavedByObjectVersion
1070
     0
  0
VISUALSTYLE
  5
8A0D
102
{ACAD_REACTORS
330
8A01
102
}
330
8A01
100
AcDbVisualStyle
  2
Brighten
 70
    12
177
     3
291
     1
 70
    58
 90
        2
176
     1
 90
        2
176
     1
 90
        0
176
     1
 90
        0
176
     1
 40
0.6
176
     1
 40
30.0
176
     1
 62
     7
420
 16777215
176
     1
 90
        1
176
     1
 90
        4
176
     1
 62
     7
176
     1
 62
   257
176
     1
 90
        1
176
     1
 90
        1
176
     1
 40
1.0
176
     1
 90
        8
176
     1
 62
     7
176
     1
 40
1.0
176
     1
 90
        1
176
     1
 90
        6
176
     1
 90
        2
176
     1
 62
     7
176
     1
 90
        5
176
     1
 90
        0
176
     1
 90
        0
176
     1
290
     0
176
     1
 90
        1
176
     1
 40
50.0
176
     1
 90
        0
176
     1
290
     0
176
     1
290
     1
176
     1
290
     1
176
     1
290
     0
176
     1
290
     0
176
     1
290
     0
176
     1
290
     0
176
     1
290
     0
176
     1
290
     0
176
     1
 90
       50
176
     1
 40
0.0
176
     1
 40
1.0
176
     1
 90
        0
176
     1
 62
    18
420
        0
176
     1
 90
       50
176
     1
 90
        3
176
     1
 62
     5
420
      255
176
     1
290
     0
176
     1
 90
       50
176
     1
 90
       50
176
     1
 90
       50
176
     1
290
     0
176
     1
 90
       50
176
     1
 62
   256
176
     0
 40
1.0
176
     0
 90
        2
176
     1
  1
strokes_ogs.tif
176
     1
290
     0
176
     1
 40
1.0
176
     1
 40
1.0
176
     1
1001
ACAD
1000
AcDbSavedByObjectVersion
1070
     0
  0
VISUALSTYLE
  5
8A11
102
{ACAD_REACTORS
330
8A01
102
}
330
8A01
100
AcDbVisualStyle
  2
ColorChange
 70
    16
177
     3
291
     1
 70
    58
 90
        2
176
     1
 90
        2
176
     1
 90
        3
176
     1
 90
        0
176
     1
 40
0.6
176
     1
 40
30.0
176
     1
 62
     8
420
  8421504
176
     1
 90
        1
176
     1
 90
        4
176
     1
 62
     7
176
     1
 62
   257
176
     1
 90
        1
176
     1
 90
        1
176
     1
 40
1.0
176
     1
 90
        8
176
     1
 62
     8
420
  8421504
176
     1
 40
1.0
176
     1
 90
        1
176
     1
 90
        6
176
     1
 90
        2
176
     1
 62
     7
176
     1
 90
        5
176
     1
 90
        0
176
     1
 90
        0
176
     1
290
     0
176
     1
 90
        1
176
     1
 40
0.0
176
     1
 90
        0
176
     1
290
     0
176
     1
290
     1
176
     1
290
     1
176
     1
290
     0
176
     1
290
     0
176
     1
290
     0
176
     1
290
     0
176
     1
290
     0
176
     1
290
     0
176
     1
 90
       50
176
     1
 40
0.0
176
     1
 40
1.0
176
     1
 90
        0
176
     1
 62
    18
420
        0
176
     1
 90
       50
176
     1
 90
        3
176
     1
 62
     5
420
      255
176
     1
290
     0
176
     1
 90
       50
176
     1
 90
       50
176
     1
 90
       50
176
     1
290
     0
176
     1
 90
       50
176
     1
 62
   256
176
     0
 40
1.0
176
     0
 90
        2
176
     1
  1
strokes_ogs.tif
176
     1
290
     0
176
     1
 40
1.0
176
     1
 40
1.0
176
     1
1001
ACAD
1000
AcDbSavedByObjectVersion
1070
     0
  0
VISUALSTYLE
  5
8A0A
102
{ACAD_REACTORS
330
8A01
102
}
330
8A01
100
AcDbVisualStyle
  2
Conceptual
 70
     9
177
     3
291
     0
 70
    58
 90
        3
176
     1
 90
        2
176
     1
 90
        0
176
     1
 90
        0
176
     1
 40
0.6
176
     1
 40
30.0
176
     1
 62
     7
420
 16777215
176
     1
 90
        2
176
     1
 90
        2
176
     1
 62
     7
176
     1
 62
   257
176
     1
 90
        1
176
     1
 90
        1
176
     1
 40
179.0
176
     1
 90
        8
176
     1
 62
     7
176
     1
 40
1.0
176
     1
 90
        1
176
     1
 90
        6
176
     1
 90
        2
176
     1
 62
     7
176
     1
 90
        3
176
     1
 90
        0
176
     1
 90
        0
176
     1
290
     0
176
     1
 90
        1
176
     1
 40
0.0
176
     1
 90
        0
176
     1
290
     0
176
     1
290
     1
176
     1
290
     1
176
     1
290
     0
176
     1
290
     0
176
     1
290
     0
176
     1
290
     0
176
     1
290
     0
176
     1
290
     0
176
     1
 90
       50
176
     1
 40
0.0
176
     1
 40
1.0
176
     1
 90
        0
176
     1
 62
    18
420
        0
176
     1
 90
       50
176
     1
 90
        3
176
     1
 62
     5
420
      255
176
     1
290
     0
176
     1
 90
       50
176
     1
 90
       50
176
     1
 90
       50
176
     1
290
     0
176
     1
 90
       50
176
     1
 62
   256
176
     0
 40
1.0
176
     0
 90
        2
176
     1
  1
strokes_ogs.tif
176
     1
290
     0
176
     1
 40
1.0
176
     1
 40
1.0
176
     1
1001
ACAD
1000
AcDbSavedByObjectVersion
1070
     0
  0
VISUALSTYLE
  5
8A0C
102
{ACAD_REACTORS
330
8A01
102
}
330
8A01
100
AcDbVisualStyle
  2
Dim
 70
    11
177
     3
291
     1
 70
    58
 90
        2
176
     1
 90
        2
176
     1
 90
        0
176
     1
 90
        0
176
     1
 40
0.6
176
     1
 40
30.0
176
     1
 62
     7
420
 16777215
176
     1
 90
        1
176
     1
 90
        4
176
     1
 62
     7
176
     1
 62
   257
176
     1
 90
        1
176
     1
 90
        1
176
     1
 40
1.0
176
     1
 90
        8
176
     1
 62
     7
176
     1
 40
1.0
176
     1
 90
        1
176
     1
 90
        6
176
     1
 90
        2
176
     1
 62
     7
176
     1
 90
        5
176
     1
 90
        0
176
     1
 90
        0
176
     1
290
     0
176
     1
 90
        1
176
     1
 40
-50.0
176
     1
 90
        0
176
     1
290
     0
176
     1
290
     1
176
     1
290
     1
176
     1
290
     0
176
     1
290
     0
176
     1
290
     0
176
     1
290
     0
176
     1
290
     0
176
     1
290
     0
176
     1
 90
       50
176
     1
 40
0.0
176
     1
 40
1.0
176
     1
 90
        0
176
     1
 62
    18
420
        0
176
     1
 90
       50
176
     1
 90
        3
176
     1
 62
     5
420
      255
176
     1
290
     0
176
     1
 90
       50
176
     1
 90
       50
176
     1
 90
       50
176
     1
290
     0
176
     1
 90
       50
176
     1
 62
   256
176
     0
 40
1.0
176
     0
 90
        2
176
     1
  1
strokes_ogs.tif
176
     1
290
     0
176
     1
 40
1.0
176
     1
 40
1.0
176
     1
1001
ACAD
1000
AcDbSavedByObjectVersion
1070
     0
  0
VISUALSTYLE
  5
8A19
102
{ACAD_REACTORS
330
8A01
102
}
330
8A01
100
AcDbVisualStyle
  2
EdgeColorOff
 70
    22
177
     3
291
     1
 70
    58
 90
        2
176
     0
 90
        2
176
     0
 90
        0
176
     0
 90
        0
176
     0
 40
0.6
176
     0
 40
30.0
176
     0
 62
     7
420
 16777215
176
     0
 90
        1
176
     0
 90
        4
176
     0
 62
     7
176
     0
 62
   257
176
     0
 90
        1
176
     0
 90
        1
176
     0
 40
1.0
176
     0
 90
        8
176
     2
 62
     7
176
     0
 40
1.0
176
     0
 90
        1
176
     0
 90
        6
176
     0
 90
        2
176
     0
 62
     7
176
     0
 90
        5
176
     0
 90
        0
176
     0
 90
        0
176
     0
290
     0
176
     0
 90
        1
176
     0
 40
0.0
176
     0
 90
        0
176
     0
290
     0
176
     0
290
     1
176
     0
290
     1
176
     0
290
     0
176
     0
290
     0
176
     0
290
     0
176
     0
290
     0
176
     0
290
     0
176
     0
290
     0
176
     0
 90
       50
176
     0
 40
0.0
176
     0
 40
1.0
176
     0
 90
        0
176
     0
 62
    18
420
        0
176
     0
 90
       50
176
     0
 90
        3
176
     0
 62
     5
420
      255
176
     0
290
     0
176
     0
 90
       50
176
     0
 90
       50
176
     0
 90
       50
176
     0
290
     0
176
     0
 90
       50
176
     0
 62
   256
176
     0
 40
1.0
176
     0
 90
        2
176
     0
  1
strokes_ogs.tif
176
     0
290
     0
176
     0
 40
1.0
176
     0
 40
1.0
176
     0
1001
ACAD
1000
AcDbSavedByObjectVersion
1070
     0
  0
VISUALSTYLE
  5
8A10
102
{ACAD_REACTORS
330
8A01
102
}
330
8A01
100
AcDbVisualStyle
  2
Facepattern
 70
    15
177
     3
291
     1
 70
    58
 90
        2
176
     1
 90
        2
176
     1
 90
        0
176
     1
 90
        0
176
     1
 40
0.6
176
     1
 40
30.0
176
     1
 62
     7
420
 16777215
176
     1
 90
        1
176
     1
 90
        4
176
     1
 62
     7
176
     1
 62
   257
176
     1
 90
        1
176
     1
 90
        1
176
     1
 40
1.0
176
     1
 90
        8
176
     1
 62
     7
176
     1
 40
1.0
176
     1
 90
        1
176
     1
 90
        6
176
     1
 90
        2
176
     1
 62
     7
176
     1
 90
        5
176
     1
 90
        0
176
     1
 90
        0
176
     1
290
     0
176
     1
 90
        1
176
     1
 40
0.0
176
     1
 90
        0
176
     1
290
     0
176
     1
290
     1
176
     1
290
     1
176
     1
290
     0
176
     1
290
     0
176
     1
290
     0
176
     1
290
     0
176
     1
290
     0
176
     1
290
     0
176
     1
 90
       50
176
     1
 40
0.0
176
     1
 40
1.0
176
     1
 90
        0
176
     1
 62
    18
420
        0
176
     1
 90
       50
176
     1
 90
        3
176
     1
 62
     5
420
      255
176
     1
290
     0
176
     1
 90
       50
176
     1
 90
       50
176
     1
 90
       50
176
     1
290
     0
176
     1
 90
       50
176
     1
 62
   256
176
     0
 40
1.0
176
     0
 90
        2
176
     1
  1
strokes_ogs.tif
176
     1
290
     0
176
     1
 40
1.0
176
     1
 40
1.0
176
     1
1001
ACAD
1000
AcDbSavedByObjectVersion
1070
     0
  0
VISUALSTYLE
  5
8A02
102
{ACAD_REACTORS
330
8A01
102
}
330
8A01
100
AcDbVisualStyle
  2
Flat
 70
     0
177
     3
291
     1
 70
    58
 90
        2
176
     1
 90
        1
176
     1
 90
        1
176
     1
 90
        2
176
     1
 40
0.6
176
     1
 40
30.0
176
     1
 62
     7
420
 16777215
176
     1
 90
        0
176
     1
 90
        0
176
     1
 62
     7
176
     1
 62
   257
176
     1
 90
        1
176
     1
 90
        1
176
     1
 40
1.0
176
     1
 90
        8
176
     1
 62
     7
176
     1
 40
1.0
176
     1
 90
        1
176
     1
 90
        6
176
     1
 90
        2
176
     1
 62
     7
176
     1
 90
        5
176
     1
 90
        0
176
     1
 90
        0
176
     1
290
     0
176
     1
 90
       13
176
     1
 40
0.0
176
     1
 90
        0
176
     1
290
     0
176
     1
290
     1
176
     1
290
     1
176
     1
290
     0
176
     1
290
     0
176
     1
290
     0
176
     1
290
     0
176
     1
290
     0
176
     1
290
     0
176
     1
 90
       50
176
     1
 40
0.0
176
     1
 40
1.0
176
     1
 90
        0
176
     1
 62
    18
420
        0
176
     1
 90
       50
176
     1
 90
        3
176
     1
 62
     5
420
      255
176
     1
290
     0
176
     1
 90
       50
176
     1
 90
       50
176
     1
 90
       50
176
     1
290
     0
176
     1
 90
       50
176
     1
 62
   256
176
     0
 40
1.0
176
     0
 90
        2
176
     1
  1
strokes_ogs.tif
176
     1
290
     0
176
     1
 40
1.0
176
     1
 40
1.0
176
     1
1001
ACAD
1000
AcDbSavedByObjectVersion
1070
     0
  0
VISUALSTYLE
  5
8A03
102
{ACAD_REACTORS
330
8A01
102
}
330
8A01
100
AcDbVisualStyle
  2
FlatWithEdges
 70
     1
177
     3
291
     1
 70
    58
 90
        2
176
     1
 90
        1
176
     1
 90
        1
176
     1
 90
        2
176
     1
 40
0.6
176
     1
 40
30.0
176
     1
 62
     7
420
 16777215
176
     1
 90
        1
176
     1
 90
        0
176
     1
 62
     7
176
     1
 62
   257
176
     1
 90
        1
176
     1
 90
        1
176
     1
 40
1.0
176
     1
 90
        0
176
     1
 62
   257
176
     1
 40
1.0
176
     1
 90
        1
176
     1
 90
        6
176
     1
 90
        2
176
     1
 62
     7
176
     1
 90
        5
176
     1
 90
        0
176
     1
 90
        0
176
     1
290
     0
176
     1
 90
       13
176
     1
 40
0.0
176
     1
 90
        0
176
     1
290
     0
176
     1
290
     1
176
     1
290
     1
176
     1
290
     0
176
     1
290
     0
176
     1
290
     0
176
     1
290
     0
176
     1
290
     0
176
     1
290
     0
176
     1
 90
       50
176
     1
 40
0.0
176
     1
 40
1.0
176
     1
 90
        0
176
     1
 62
    18
420
        0
176
     1
 90
       50
176
     1
 90
        3
176
     1
 62
     5
420
      255
176
     1
290
     0
176
     1
 90
       50
176
     1
 90
       50
176
     1
 90
       50
176
     1
290
     0
176
     1
 90
       50
176
     1
 62
   256
176
     0
 40
1.0
176
     0
 90
        2
176
     1
  1
strokes_ogs.tif
176
     1
290
     0
176
     1
 40
1.0
176
     1
 40
1.0
176
     1
1001
ACAD
1000
AcDbSavedByObjectVersion
1070
     0
  0
VISUALSTYLE
  5
8A04
102
{ACAD_REACTORS
330
8A01
102
}
330
8A01
100
AcDbVisualStyle
  2
Gouraud
 70
     2
177
     3
291
     1
 70
    58
 90
        2
176
     1
 90
        2
176
     1
 90
        1
176
     1
 90
        2
176
     1
 40
0.6
176
     1
 40
30.0
176
     1
 62
     7
420
 16777215
176
     1
 90
        0
176
     1
 90
        0
176
     1
 62
     7
176
     1
 62
   257
176
     1
 90
        1
176
     1
 90
        1
176
     1
 40
1.0
176
     1
 90
        0
176
     1
 62
     7
176
     1
 40
1.0
176
     1
 90
        1
176
     1
 90
        6
176
     1
 90
        2
176
     1
 62
     7
176
     1
 90
        5
176
     1
 90
        0
176
     1
 90
        0
176
     1
290
     0
176
     1
 90
       13
176
     1
 40
0.0
176
     1
 90
        0
176
     1
290
     0
176
     1
290
     1
176
     1
290
     1
176
     1
290
     0
176
     1
290
     0
176
     1
290
     0
176
     1
290
     0
176
     1
290
     0
176
     1
290
     0
176
     1
 90
       50
176
     1
 40
0.0
176
     1
 40
1.0
176
     1
 90
        0
176
     1
 62
    18
420
        0
176
     1
 90
       50
176
     1
 90
        3
176
     1
 62
     5
420
      255
176
     1
290
     0
176
     1
 90
       50
176
     1
 90
       50
176
     1
 90
       50
176
     1
290
     0
176
     1
 90
       50
176
     1
 62
   256
176
     0
 40
1.0
176
     0
 90
        2
176
     1
  1
strokes_ogs.tif
176
     1
290
     0
176
     1
 40
1.0
176
     1
 40
1.0
176
     1
1001
ACAD
1000
AcDbSavedByObjectVersion
1070
     0
  0
VISUALSTYLE
  5
8A05
102
{ACAD_REACTORS
330
8A01
102
}
330
8A01
100
AcDbVisualStyle
  2
GouraudWithEdges
 70
     3
177
     3
291
     1
 70
    58
 90
        2
176
     1
 90
        2
176
     1
 90
        1
176
     1
 90
        2
176
     1
 40
0.6
176
     1
 40
30.0
176
     1
 62
     7
420
 16777215
176
     1
 90
        1
176
     1
 90
        0
176
     1
 62
     7
176
     1
 62
   257
176
     1
 90
        1
176
     1
 90
        1
176
     1
 40
1.0
176
     1
 90
        0
176
     1
 62
   257
176
     1
 40
1.0
176
     1
 90
        1
176
     1
 90
        6
176
     1
 90
        2
176
     1
 62
     7
176
     1
 90
        5
176
     1
 90
        0
176
     1
 90
        0
176
     1
290
     0
176
     1
 90
       13
176
     1
 40
0.0
176
     1
 90
        0
176
     1
290
     0
176
     1
290
     1
176
     1
290
     1
176
     1
290
     0
176
     1
290
     0
176
     1
290
     0
176
     1
290
     0
176
     1
290
     0
176
     1
290
     0
176
     1
 90
       50
176
     1
 40
0.0
176
     1
 40
1.0
176
     1
 90
        0
176
     1
 62
    18
420
        0
176
     1
 90
       50
176
     1
 90
        3
176
     1
 62
     5
420
      255
176
     1
290
     0
176
     1
 90
       50
176
     1
 90
       50
176
     1
 90
       50
176
     1
290
     0
176
     1
 90
       50
176
     1
 62
   256
176
     0
 40
1.0
176
     0
 90
        2
176
     1
  1
strokes_ogs.tif
176
     1
290
     0
176
     1
 40
1.0
176
     1
 40
1.0
176
     1
1001
ACAD
1000
AcDbSavedByObjectVersion
1070
     0
  0
VISUALSTYLE
  5
8A09
102
{ACAD_REACTORS
330
8A01
102
}
330
8A01
100
AcDbVisualStyle
  2
Hidden
 70
     6
177
     3
291
     0
 70
    58
 90
        1
176
     1
 90
        2
176
     1
 90
        2
176
     1
 90
        0
176
     1
 40
0.6
176
     1
 40
30.0
176
     1
 62
     7
420
 16777215
176
     1
 90
        2
176
     1
 90
        2
176
     1
 62
     7
176
     1
 62
   257
176
     1
 90
        2
176
     1
 90
        1
176
     1
 40
40.0
176
     1
 90
        0
176
     1
 62
   257
176
     1
 40
1.0
176
     1
 90
        1
176
     1
 90
        6
176
     1
 90
        2
176
     1
 62
     7
176
     1
 90
        3
176
     1
 90
        0
176
     1
 90
        0
176
     1
290
     0
176
     1
 90
        1
176
     1
 40
0.0
176
     1
 90
        0
176
     1
290
     0
176
     1
290
     1
176
     1
290
     1
176
     1
290
     0
176
     1
290
     0
176
     1
290
     0
176
     1
290
     0
176
     1
290
     0
176
     1
290
     0
176
     1
 90
       50
176
     1
 40
0.0
176
     1
 40
1.0
176
     1
 90
        0
176
     1
 62
    18
420
        0
176
     1
 90
       50
176
     1
 90
        3
176
     1
 62
     5
420
      255
176
     1
290
     0
176
     1
 90
       50
176
     1
 90
       50
176
     1
 90
       50
176
     1
290
     0
176
     1
 90
       50
176
     1
 62
   256
176
     0
 40
1.0
176
     0
 90
        2
176
     1
  1
strokes_ogs.tif
176
     1
290
     0
176
     1
 40
1.0
176
     1
 40
1.0
176
     1
1001
ACAD
1000
AcDbSavedByObjectVersion
1070
     0
  0
VISUALSTYLE
  5
8A17
102
{ACAD_REACTORS
330
8A01
102
}
330
8A01
100
AcDbVisualStyle
  2
JitterOff
 70
    20
177
     3
291
     1
 70
    58
 90
        2
176
     0
 90
        2
176
     0
 90
        0
176
     0
 90
        0
176
     0
 40
0.6
176
     0
 40
30.0
176
     0
 62
     7
420
 16777215
176
     0
 90
        1
176
     0
 90
        4
176
     0
 62
     7
176
     0
 62
   257
176
     0
 90
        1
176
     0
 90
        1
176
     0
 40
1.0
176
     0
 90
       10
176
     2
 62
     7
176
     0
 40
1.0
176
     0
 90
        1
176
     0
 90
        6
176
     0
 90
        2
176
     0
 62
     7
176
     0
 90
        5
176
     0
 90
        0
176
     0
 90
        0
176
     0
290
     0
176
     0
 90
        1
176
     0
 40
0.0
176
     0
 90
        0
176
     0
290
     0
176
     0
290
     1
176
     0
290
     1
176
     0
290
     0
176
     0
290
     0
176
     0
290
     0
176
     0
290
     0
176
     0
290
     0
176
     0
290
     0
176
     0
 90
       50
176
     0
 40
0.0
176
     0
 40
1.0
176
     0
 90
        0
176
     0
 62
    18
420
        0
176
     0
 90
       50
176
     0
 90
        3
176
     0
 62
     5
420
      255
176
     0
290
     0
176
     0
 90
       50
176
     0
 90
       50
176
     0
 90
       50
176
     0
290
     0
176
     0
 90
       50
176
     0
 62
   256
176
     0
 40
1.0
176
     0
 90
        2
176
     0
  1
strokes_ogs.tif
176
     0
290
     0
176
     0
 40
1.0
176
     0
 40
1.0
176
     0
1001
ACAD
1000
AcDbSavedByObjectVersion
1070
     0
  0
VISUALSTYLE
  5
8A0F
102
{ACAD_REACTORS
330
8A01
102
}
330
8A01
100
AcDbVisualStyle
  2
Linepattern
 70
    14
177
     3
291
     1
 70
    58
 90
        2
176
     1
 90
        2
176
     1
 90
        0
176
     1
 90
        0
176
     1
 40
0.6
176
     1
 40
30.0
176
     1
 62
     7
420
 16777215
176
     1
 90
        1
176
     1
 90
        4
176
     1
 62
     7
176
     1
 62
   257
176
     1
 90
        7
176
     1
 90
        7
176
     1
 40
1.0
176
     1
 90
        8
176
     1
 62
     7
176
     1
 40
1.0
176
     1
 90
        1
176
     1
 90
        6
176
     1
 90
        2
176
     1
 62
     7
176
     1
 90
        5
176
     1
 90
        0
176
     1
 90
        0
176
     1
290
     0
176
     1
 90
        1
176
     1
 40
0.0
176
     1
 90
        0
176
     1
290
     0
176
     1
290
     1
176
     1
290
     1
176
     1
290
     0
176
     1
290
     0
176
     1
290
     0
176
     1
290
     0
176
     1
290
     0
176
     1
290
     0
176
     1
 90
       50
176
     1
 40
0.0
176
     1
 40
1.0
176
     1
 90
        0
176
     1
 62
    18
420
        0
176
     1
 90
       50
176
     1
 90
        3
176
     1
 62
     5
420
      255
176
     1
290
     0
176
     1
 90
       50
176
     1
 90
       50
176
     1
 90
       50
176
     1
290
     0
176
     1
 90
       50
176
     1
 62
   256
176
     0
 40
1.0
176
     0
 90
        2
176
     1
  1
strokes_ogs.tif
176
     1
290
     0
176
     1
 40
1.0
176
     1
 40
1.0
176
     1
1001
ACAD
1000
AcDbSavedByObjectVersion
1070
     0
  0
VISUALSTYLE
  5
8A18
102
{ACAD_REACTORS
330
8A01
102
}
330
8A01
100
AcDbVisualStyle
  2
OverhangOff
 70
    21
177
     3
291
     1
 70
    58
 90
        2
176
     0
 90
        2
176
     0
 90
        0
176
     0
 90
        0
176
     0
 40
0.6
176
     0
 40
30.0
176
     0
 62
     7
420
 16777215
176
     0
 90
        1
176
     0
 90
        4
176
     0
 62
     7
176
     0
 62
   257
176
     0
 90
        1
176
     0
 90
        1
176
     0
 40
1.0
176
     0
 90
        9
176
     2
 62
     7
176
     0
 40
1.0
176
     0
 90
        1
176
     0
 90
        6
176
     0
 90
        2
176
     0
 62
     7
176
     0
 90
        5
176
     0
 90
        0
176
     0
 90
        0
176
     0
290
     0
176
     0
 90
        1
176
     0
 40
0.0
176
     0
 90
        0
176
     0
290
     0
176
     0
290
     1
176
     0
290
     1
176
     0
290
     0
176
     0
290
     0
176
     0
290
     0
176
     0
290
     0
176
     0
290
     0
176
     0
290
     0
176
     0
 90
       50
176
     0
 40
0.0
176
     0
 40
1.0
176
     0
 90
        0
176
     0
 62
    18
420
        0
176
     0
 90
       50
176
     0
 90
        3
176
     0
 62
     5
420
      255
176
     0
290
     0
176
     0
 90
       50
176
     0
 90
       50
176
     0
 90
       50
176
     0
290
     0
176
     0
 90
       50
176
     0
 62
   256
176
     0
 40
1.0
176
     0
 90
        2
176
     0
  1
strokes_ogs.tif
176
     0
290
     0
176
     0
 40
1.0
176
     0
 40
1.0
176
     0
1001
ACAD
1000
AcDbSavedByObjectVersion
1070
     0
  0
VISUALSTYLE
  5
8A0B
102
{ACAD_REACTORS
330
8A01
102
}
330
8A01
100
AcDbVisualStyle
  2
Realistic
 70
     8
177
     3
291
     0
 70
    58
 90
        2
176
     1
 90
        3
176
     1
 90
        0
176
     1
 90
        2
176
     1
 40
0.6
176
     1
 40
30.0
176
     1
 62
     7
420
 16777215
176
     1
 90
        0
176
     1
 90
        0
176
     1
 62
     7
176
     1
 62
   257
176
     1
 90
        1
176
     1
 90
        1
176
     1
 40
1.0
176
     1
 90
        8
176
     1
 62
   257
176
     1
 40
1.0
176
     1
 90
        1
176
     1
 90
        6
176
     1
 90
        2
176
     1
 62
     7
176
     1
 90
        3
176
     1
 90
        0
176
     1
 90
        0
176
     1
290
     0
176
     1
 90
       13
176
     1
 40
0.0
176
     1
 90
        0
176
     1
290
     0
176
     1
290
     1
176
     1
290
     1
176
     1
290
     0
176
     1
290
     0
176
     1
290
     0
176
     1
290
     0
176
     1
290
     0
176
     1
290
     0
176
     1
 90
       50
176
     1
 40
0.0
176
     1
 40
1.0
176
     1
 90
        0
176
     1
 62
    18
420
        0
176
     1
 90
       50
176
     1
 90
        3
176
     1
 62
     5
420
      255
176
     1
290
     0
176
     1
 90
       50
176
     1
 90
       50
176
     1
 90
       50
176
     1
290
     0
176
     1
 90
       50
176
     1
 62
   256
176
     0
 40
1.0
176
     0
 90
        2
176
     1
  1
strokes_ogs.tif
176
     1
290
     0
176
     1
 40
1.0
176
     1
 40
1.0
176
     1
1001
ACAD
1000
AcDbSavedByObjectVersion
1070
     0
  0
VISUALSTYLE
  5
8A16
102
{ACAD_REACTORS
330
8A01
102
}
330
8A01
100
AcDbVisualStyle
  2
Shaded
 70
    27
177
     3
291
     0
 70
    58
 90
        2
176
     1
 90
        2
176
     1
 90
        1
176
     1
 90
        2
176
     1
 40
0.6
176
     1
 40
30.0
176
     1
 62
     7
420
 16777215
176
     1
 90
        0
176
     1
 90
        4
176
     1
 62
     7
176
     1
 62
   257
176
     1
 90
        1
176
     1
 90
        1
176
     1
 40
1.0
176
     1
 90
        8
176
     1
 62
   257
176
     1
 40
1.0
176
     1
 90
        1
176
     1
 90
        6
176
     1
 90
        2
176
     1
 62
     8
420
  7895160
176
     1
 90
        3
176
     1
 90
        0
176
     1
 90
        0
176
     1
290
     0
176
     1
 90
        5
176
     1
 40
0.0
176
     1
 90
        0
176
     1
290
     0
176
     1
290
     1
176
     1
290
     1
176
     1
290
     0
176
     1
290
     0
176
     1
290
     0
176
     1
290
     0
176
     1
290
     0
176
     1
290
     0
176
     1
 90
       50
176
     1
 40
0.0
176
     1
 40
1.0
176
     1
 90
        0
176
     1
 62
    18
420
        0
176
     1
 90
       50
176
     1
 90
        3
176
     1
 62
     5
420
      255
176
     1
290
     0
176
     1
 90
       50
176
     1
 90
       50
176
     1
 90
       50
176
     1
290
     0
176
     1
 90
       50
176
     1
 62
   256
176
     0
 40
1.0
176
     0
 90
        2
176
     1
  1
strokes_ogs.tif
176
     1
290
     0
176
     1
 40
1.0
176
     1
 40
1.0
176
     1
1001
ACAD
1000
AcDbSavedByObjectVersion
1070
     0
  0
VISUALSTYLE
  5
8A15
102
{ACAD_REACTORS
330
8A01
102
}
330
8A01
100
AcDbVisualStyle
  2
Shaded with edges
 70
    26
177
     3
291
     0
 70
    58
 90
        2
176
     1
 90
        2
176
     1
 90
        1
176
     1
 90
        2
176
     1
 40
0.6
176
     1
 40
30.0
176
     1
 62
     7
420
 16777215
176
     1
 90
        1
176
     1
 90
        2
176
     1
 62
     7
176
     1
 62
   257
176
     1
 90
        2
176
     1
 90
        1
176
     1
 40
1.0
176
     1
 90
        8
176
     1
 62
   257
176
     1
 40
1.0
176
     1
 90
        1
176
     1
 90
        6
176
     1
 90
        2
176
     1
 62
     7
176
     1
 90
        3
176
     1
 90
        0
176
     1
 90
        0
176
     1
290
     0
176
     1
 90
        5
176
     1
 40
0.0
176
     1
 90
        0
176
     1
290
     0
176
     1
290
     1
176
     1
290
     1
176
     1
290
     0
176
     1
290
     0
176
     1
290
     0
176
     1
290
     0
176
     1
290
     0
176
     1
290
     0
176
     1
 90
       50
176
     1
 40
0.0
176
     1
 40
1.0
176
     1
 90
        0
176
     1
 62
    18
420
        0
176
     1
 90
       50
176
     1
 90
        3
176
     1
 62
     5
420
      255
176
     1
290
     0
176
     1
 90
       50
176
     1
 90
       50
176
     1
 90
       50
176
     1
290
     0
176
     1
 90
       50
176
     1
 62
   256
176
     0
 40
1.0
176
     0
 90
        2
176
     1
  1
strokes_ogs.tif
176
     1
290
     0
176
     1
 40
1.0
176
     1
 40
1.0
176
     1
1001
ACAD
1000
AcDbSavedByObjectVersion
1070
     0
  0
VISUALSTYLE
  5
8A12
102
{ACAD_REACTORS
330
8A01
102
}
330
8A01
100
AcDbVisualStyle
  2
Shades of Gray
 70
    23
177
     3
291
     0
 70
    58
 90
        2
176
     1
 90
        2
176
     1
 90
        3
176
     1
 90
        0
176
     1
 40
0.6
176
     1
 40
30.0
176
     1
 62
     7
420
 16777215
176
     1
 90
        2
176
     1
 90
        2
176
     1
 62
     7
176
     1
 62
     7
176
     1
 90
        1
176
     1
 90
        1
176
     1
 40
40.0
176
     1
 90
        8
176
     1
 62
     7
176
     1
 40
1.0
176
     1
 90
        1
176
     1
 90
        6
176
     1
 90
        2
176
     1
 62
     7
176
     1
 90
        3
176
     1
 90
        0
176
     1
 90
        0
176
     1
290
     0
176
     1
 90
        1
176
     1
 40
0.0
176
     1
 90
        0
176
     1
290
     0
176
     1
290
     1
176
     1
290
     1
176
     1
290
     0
176
     1
290
     0
176
     1
290
     0
176
     1
290
     0
176
     1
290
     0
176
     1
290
     0
176
     1
 90
       50
176
     1
 40
0.0
176
     1
 40
1.0
176
     1
 90
        0
176
     1
 62
    18
420
        0
176
     1
 90
       50
176
     1
 90
        3
176
     1
 62
     5
420
      255
176
     1
290
     0
176
     1
 90
       50
176
     1
 90
       50
176
     1
 90
       50
176
     1
290
     0
176
     1
 90
       50
176
     1
 62
   256
176
     0
 40
1.0
176
     0
 90
        2
176
     1
  1
strokes_ogs.tif
176
     1
290
     0
176
     1
 40
1.0
176
     1
 40
1.0
176
     1
1001
ACAD
1000
AcDbSavedByObjectVersion
1070
     0
  0
VISUALSTYLE
  5
8A13
102
{ACAD_REACTORS
330
8A01
102
}
330
8A01
100
AcDbVisualStyle
  2
Sketchy
 70
    24
177
     3
291
     0
 70
    58
 90
        1
176
     1
 90
        2
176
     1
 90
        2
176
     1
 90
        0
176
     1
 40
0.6
176
     1
 40
30.0
176
     1
 62
     7
420
 16777215
176
     1
 90
        2
176
     1
 90
        2
176
     1
 62
     7
176
     1
 62
     7
176
     1
 90
        1
176
     1
 90
        1
176
     1
 40
40.0
176
     1
 90
       11
176
     1
 62
     7
176
     1
 40
1.0
176
     1
 90
        1
176
     1
 90
        6
176
     1
 90
        2
176
     1
 62
     7
176
     1
 90
        6
176
     1
 90
        0
176
     1
 90
        0
176
     1
290
     0
176
     1
 90
        1
176
     1
 40
0.0
176
     1
 90
        0
176
     1
290
     0
176
     1
290
     1
176
     1
290
     1
176
     1
290
     0
176
     1
290
     0
176
     1
290
     0
176
     1
290
     0
176
     1
290
     0
176
     1
290
     0
176
     1
 90
       50
176
     1
 40
0.0
176
     1
 40
1.0
176
     1
 90
        0
176
     1
 62
    18
420
        0
176
     1
 90
       50
176
     1
 90
        3
176
     1
 62
     5
420
      255
176
     1
290
     0
176
     1
 90
       50
176
     1
 90
       50
176
     1
 90
       50
176
     1
290
     0
176
     1
 90
       50
176
     1
 62
   256
176
     0
 40
1.0
176
     0
 90
        2
176
     1
  1
strokes_ogs.tif
176
     1
290
     0
176
     1
 40
1.0
176
     1
 40
1.0
176
     1
1001
ACAD
1000
AcDbSavedByObjectVersion
1070
     0
  0
VISUALSTYLE
  5
8A0E
102
{ACAD_REACTORS
330
8A01
102
}
330
8A01
100
AcDbVisualStyle
  2
Thicken
 70
    13
177
     3
291
     1
 70
    58
 90
        2
176
     1
 90
        2
176
     1
 90
        0
176
     1
 90
        0
176
     1
 40
0.6
176
     1
 40
30.0
176
     1
 62
     7
420
 16777215
176
     1
 90
        1
176
     1
 90
        4
176
     1
 62
     7
176
     1
 62
   257
176
     1
 90
        1
176
     1
 90
        1
176
     1
 40
1.0
176
     1
 90
       12
176
     1
 62
     7
176
     1
 40
1.0
176
     1
 90
        1
176
     1
 90
        6
176
     1
 90
        2
176
     1
 62
     7
176
     1
 90
        5
176
     1
 90
        0
176
     1
 90
        0
176
     1
290
     0
176
     1
 90
        1
176
     1
 40
0.0
176
     1
 90
        0
176
     1
290
     0
176
     1
290
     1
176
     1
290
     1
176
     1
290
     0
176
     1
290
     0
176
     1
290
     0
176
     1
290
     0
176
     1
290
     0
176
     1
290
     0
176
     1
 90
       50
176
     1
 40
0.0
176
     1
 40
1.0
176
     1
 90
        0
176
     1
 62
    18
420
        0
176
     1
 90
       50
176
     1
 90
        3
176
     1
 62
     5
420
      255
176
     1
290
     0
176
     1
 90
       50
176
     1
 90
       50
176
     1
 90
       50
176
     1
290
     0
176
     1
 90
       50
176
     1
 62
   256
176
     0
 40
1.0
176
     0
 90
        2
176
     1
  1
strokes_ogs.tif
176
     1
290
     0
176
     1
 40
1.0
176
     1
 40
1.0
176
     1
1001
ACAD
1000
AcDbSavedByObjectVersion
1070
     0
  0
VISUALSTYLE
  5
8A08
102
{ACAD_REACTORS
330
8A01
102
}
330
8A01
100
AcDbVisualStyle
  2
Wireframe
 70
     5
177
     3
291
     0
 70
    58
 90
        0
176
     1
 90
        2
176
     1
 90
        0
176
     1
 90
        0
176
     1
 40
0.6
176
     1
 40
30.0
176
     1
 62
     7
420
 16777215
176
     1
 90
        1
176
     1
 90
        4
176
     1
 62
     7
176
     1
 62
   257
176
     1
 90
        1
176
     1
 90
        1
176
     1
 40
1.0
176
     1
 90
        0
176
     1
 62
   257
176
     1
 40
1.0
176
     1
 90
        1
176
     1
 90
        6
176
     1
 90
        2
176
     1
 62
     7
176
     1
 90
        3
176
     1
 90
        0
176
     1
 90
        0
176
     1
290
     0
176
     1
 90
        1
176
     1
 40
0.0
176
     1
 90
        0
176
     1
290
     0
176
     1
290
     1
176
     1
290
     1
176
     1
290
     0
176
     1
290
     0
176
     1
290
     0
176
     1
290
     0
176
     1
290
     0
176
     1
290
     0
176
     1
 90
       50
176
     1
 40
0.0
176
     1
 40
1.0
176
     1
 90
        0
176
     1
 62
    18
420
        0
176
     1
 90
       50
176
     1
 90
        3
176
     1
 62
     5
420
      255
176
     1
290
     0
176
     1
 90
       50
176
     1
 90
       50
176
     1
 90
       50
176
     1
290
     0
176
     1
 90
       50
176
     1
 62
   256
176
     0
 40
1.0
176
     0
 90
        2
176
     1
  1
strokes_ogs.tif
176
     1
290
     0
176
     1
 40
1.0
176
     1
 40
1.0
176
     1
1001
ACAD
1000
AcDbSavedByObjectVersion
1070
     0
  0
VISUALSTYLE
  5
8A14
102
{ACAD_REACTORS
330
8A01
102
}
330
8A01
100
AcDbVisualStyle
  2
X-Ray
 70
    25
177
     3
291
     0
 70
    58
 90
        2
176
     1
 90
        2
176
     1
 90
        1
176
     1
 90
        1
176
     1
 40
0.5
176
     1
 40
30.0
176
     1
 62
     7
420
 16777215
176
     1
 90
        1
176
     1
 90
        0
176
     1
 62
     7
176
     1
 62
   257
176
     1
 90
        1
176
     1
 90
        1
176
     1
 40
1.0
176
     1
 90
        8
176
     1
 62
     7
176
     1
 40
1.0
176
     1
 90
        1
176
     1
 90
        6
176
     1
 90
        2
176
     1
 62
     7
176
     1
 90
        3
176
     1
 90
        0
176
     1
 90
        0
176
     1
290
     0
176
     1
 90
       13
176
     1
 40
0.0
176
     1
 90
        0
176
     1
290
     0
176
     1
290
     1
176
     1
290
     1
176
     1
290
     0
176
     1
290
     0
176
     1
290
     0
176
     1
290
     0
176
     1
290
     0
176
     1
290
     0
176
     1
 90
       50
176
     1
 40
0.0
176
     1
 40
1.0
176
     1
 90
        0
176
     1
 62
    18
420
        0
176
     1
 90
       50
176
     1
 90
        3
176
     1
 62
     5
420
      255
176
     1
290
     0
176
     1
 90
       50
176
     1
 90
       50
176
     1
 90
       50
176
     1
290
     0
176
     1
 90
       50
176
     1
 62
   256
176
     0
 40
1.0
176
     0
 90
        2
176
     1
  1
strokes_ogs.tif
176
     1
290
     0
176
     1
 40
1.0
176
     1
 40
1.0
176
     1
1001
ACAD
1000
AcDbSavedByObjectVersion
1070
     0
  0
DICTIONARYVAR
  5
8AB6
102
{ACAD_REACTORS
330
8AB0
102
}
330
8AB0
100
DictionaryVariables
280
     0
  1
1:1
  0
DICTIONARYVAR
  5
8AB2
102
{ACAD_REACTORS
330
8AB0
102
}
330
8AB0
100
DictionaryVariables
280
     0
  1
STANDARD
  0
DICTIONARYVAR
  5
8AB1
102
{ACAD_REACTORS
330
8AB0
102
}
330
8AB0
100
DictionaryVariables
280
     0
  1
STANDARD
  0
DICTIONARYVAR
  5
8AB3
102
{ACAD_REACTORS
330
8AB0
102
}
330
8AB0
100
DictionaryVariables
280
     0
  1
Metric50
  0
DICTIONARYVAR
  5
8AB4
102
{ACAD_REACTORS
330
8AB0
102
}
330
8AB0
100
DictionaryVariables
280
     0
  1
Metric50
  0
DICTIONARYVAR
  5
8AB8
102
{ACAD_REACTORS
330
8AB0
102
}
330
8AB0
100
DictionaryVariables
280
     0
  1
1
  0
DICTIONARYVAR
  5
8AB9
102
{ACAD_REACTORS
330
8AB0
102
}
330
8AB0
100
DictionaryVariables
280
     0
  1
15
  0
DICTIONARYVAR
  5
8AB7
102
{ACAD_REACTORS
330
8AB0
102
}
330
8AB0
100
DictionaryVariables
280
     0
  1
0
  0
DICTIONARYVAR
  5
8ABE
102
{ACAD_REACTORS
330
8AB0
102
}
330
8AB0
100
DictionaryVariables
280
     0
  1
0
  0
DICTIONARYVAR
  5
8AB5
102
{ACAD_REACTORS
330
8AB0
102
}
330
8AB0
100
DictionaryVariables
280
     0
  1
0
  0
DICTIONARY
  5
8AC9
102
{ACAD_REACTORS
330
8AC7
102
}
330
8AC7
100
AcDbDictionary
281
     1
  0
DICTIONARY
  5
8AC8
102
{ACAD_REACTORS
330
8AC7
102
}
330
8AC7
100
AcDbDictionary
281
     1
  3
2039369621280
350
8AC2
  3
2039369621296
350
8AC3
  3
2039369621312
350
8AC4
  3
2039369621328
350
8AC5
  3
2039369621344
350
8AC6
  0
DICTIONARY
  5
8ACC
330
8A34
100
AcDbDictionary
280
     1
281
     1
  3
ACAD_XREC_ROUNDTRIP
360
8ACD
  0
DICTIONARY
  5
89F2
330
89F1
100
AcDbDictionary
280
     1
281
     1
  3
BUMPTILE
360
89F4
  3
DIFFUSETILE
360
89F3
  3
OPACITYTILE
360
89F7
  3
REFLECTIONTILE
360
89F6
  3
REFRACTIONTILE
360
89F8
  3
SPECULARTILE
360
89F5
  0
DICTIONARY
  5
89EA
330
89E9
100
AcDbDictionary
280
     1
281
     1
  3
BUMPTILE
360
89EC
  3
DIFFUSETILE
360
89EB
  3
OPACITYTILE
360
89EF
  3
REFLECTIONTILE
360
89EE
  3
REFRACTIONTILE
360
89F0
  3
SPECULARTILE
360
89ED
  0
DICTIONARY
  5
89FA
330
89F9
100
AcDbDictionary
280
     1
281
     1
  3
BUMPTILE
360
89FC
  3
DIFFUSETILE
360
89FB
  3
OPACITYTILE
360
89FF
  3
REFLECTIONTILE
360
89FE
  3
REFRACTIONTILE
360
8A00
  3
SPECULARTILE
360
89FD
  0
DICTIONARY
  5
8ACA
330
8A32
100
AcDbDictionary
280
     1
281
     1
  3
ACAD_XREC_ROUNDTRIP
360
8ACB
  0
DICTIONARY
  5
8ABF
330
8A1C
100
AcDbDictionary
280
     1
281
     1
  3
ACAD_ROUNDTRIP_2008_TABLESTYLE_CELLSTYLEMAP
360
8AC0
  0
XRECORD
  5
8AC2
102
{ACAD_REACTORS
330
8AC8
102
}
330
8AC8
100
AcDbXrecord
280
     1
  1
AcDb_Thumbnail_Schema
102
{ATTRRECORD
341
8AC3
  2
AcDbDs::TreatedAsObjectData
280
     1
291
     1
102
ATTRRECORD}
102
{ATTRRECORD
341
8AC4
  2
AcDbDs::Legacy
280
     1
291
     1
102
ATTRRECORD}
  2
AcDbDs::ID
280
    10
 91
        8
102
{ATTRRECORD
341
8AC5
  2
AcDs:Indexable
280
     1
291
     1
102
ATTRRECORD}
102
{ATTRRECORD
341
8AC6
  2
AcDbDs::HandleAttribute
280
     7
282
     1
102
ATTRRECORD}
  2
Thumbnail_Data
280
    15
 91
        0
  0
XRECORD
  5
8AC3
102
{ACAD_REACTORS
330
8AC8
102
}
330
8AC8
100
AcDbXrecord
280
     1
  1
AcDbDs::TreatedAsObjectDataSchema
  2
AcDbDs::TreatedAsObjectData
280
     1
 91
        0
  0
XRECORD
  5
8AC4
102
{ACAD_REACTORS
330
8AC8
102
}
330
8AC8
100
AcDbXrecord
280
     1
  1
AcDbDs::LegacySchema
  2
AcDbDs::Legacy
280
     1
 91
        0
  0
XRECORD
  5
8AC5
102
{ACAD_REACTORS
330
8AC8
102
}
330
8AC8
100
AcDbXrecord
280
     1
  1
AcDbDs::IndexedPropertySchema
  2
AcDs:Indexable
280
     1
 91
        0
  0
XRECORD
  5
8AC6
102
{ACAD_REACTORS
330
8AC8
102
}
330
8AC8
100
AcDbXrecord
280
     1
  1
AcDbDs::HandleAttributeSchema
  2
AcDbDs::HandleAttribute
280
     7
 91
        1
284
     1
  0
XRECORD
  5
8ACD
102
{ACAD_REACTORS
330
8ACC
102
}
330
8ACC
100
AcDbXrecord
280
     1
102
DISPLAYNAME
  1
Metric50
102
FLAGS
 90
        0
  0
XRECORD
  5
89F4
102
{ACAD_REACTORS
330
89F2
102
}
330
89F2
100
AcDbXrecord
280
     1
270
     1
271
     1
  0
XRECORD
  5
89F3
102
{ACAD_REACTORS
330
89F2
102
}
330
89F2
100
AcDbXrecord
280
     1
270
     1
271
     1
  0
XRECORD
  5
89F7
102
{ACAD_REACTORS
330
89F2
102
}
330
89F2
100
AcDbXrecord
280
     1
270
     1
271
     1
  0
XRECORD
  5
89F6
102
{ACAD_REACTORS
330
89F2
102
}
330
89F2
100
AcDbXrecord
280
     1
270
     1
271
     1
  0
XRECORD
  5
89F8
102
{ACAD_REACTORS
330
89F2
102
}
330
89F2
100
AcDbXrecord
280
     1
270
     1
271
     1
  0
XRECORD
  5
89F5
102
{ACAD_REACTORS
330
89F2
102
}
330
89F2
100
AcDbXrecord
280
     1
270
     1
271
     1
  0
XRECORD
  5
89EC
102
{ACAD_REACTORS
330
89EA
102
}
330
89EA
100
AcDbXrecord
280
     1
270
     1
271
     1
  0
XRECORD
  5
89EB
102
{ACAD_REACTORS
330
89EA
102
}
330
89EA
100
AcDbXrecord
280
     1
270
     1
271
     1
  0
XRECORD
  5
89EF
102
{ACAD_REACTORS
330
89EA
102
}
330
89EA
100
AcDbXrecord
280
     1
270
     1
271
     1
  0
XRECORD
  5
89EE
102
{ACAD_REACTORS
330
89EA
102
}
330
89EA
100
AcDbXrecord
280
     1
270
     1
271
     1
  0
XRECORD
  5
89F0
102
{ACAD_REACTORS
330
89EA
102
}
330
89EA
100
AcDbXrecord
280
     1
270
     1
271
     1
  0
XRECORD
  5
89ED
102
{ACAD_REACTORS
330
89EA
102
}
330
89EA
100
AcDbXrecord
280
     1
270
     1
271
     1
  0
XRECORD
  5
89FC
102
{ACAD_REACTORS
330
89FA
102
}
330
89FA
100
AcDbXrecord
280
     1
270
     1
271
     1
  0
XRECORD
  5
89FB
102
{ACAD_REACTORS
330
89FA
102
}
330
89FA
100
AcDbXrecord
280
     1
270
     1
271
     1
  0
XRECORD
  5
89FF
102
{ACAD_REACTORS
330
89FA
102
}
330
89FA
100
AcDbXrecord
280
     1
270
     1
271
     1
  0
XRECORD
  5
89FE
102
{ACAD_REACTORS
330
89FA
102
}
330
89FA
100
AcDbXrecord
280
     1
270
     1
271
     1
  0
XRECORD
  5
8A00
102
{ACAD_REACTORS
330
89FA
102
}
330
89FA
100
AcDbXrecord
280
     1
270
     1
271
     1
  0
XRECORD
  5
89FD
102
{ACAD_REACTORS
330
89FA
102
}
330
89FA
100
AcDbXrecord
280
     1
270
     1
271
     1
  0
XRECORD
  5
8ACB
102
{ACAD_REACTORS
330
8ACA
102
}
330
8ACA
100
AcDbXrecord
280
     1
102
DISPLAYNAME
  1
Metric50
102
FLAGS
 90
        0
  0
CELLSTYLEMAP
  5
8AC0
102
{ACAD_REACTORS
330
8ABF
102
}
330
8ABF
100
AcDbCellStyleMap
 90
        3
300
CELLSTYLE
  1
TABLEFORMAT_BEGIN
 90
        5
170
     1
 91
        0
 92
    32768
 62
   257
 93
        1
300
CONTENTFORMAT
  1
CONTENTFORMAT_BEGIN
 90
        0
 91
        0
 92
      512
 93
        0
300

 40
0.0
140
1.0
 94
        5
 62
     0
340
10
144
6.0
309
CONTENTFORMAT_END
171
     1
301
MARGIN
  1
CELLMARGIN_BEGIN
 40
1.5
 40
1.5
 40
1.5
 40
1.5
 40
4.5
 40
4.5
309
CELLMARGIN_END
 94
        6
 95
        1
302
GRIDFORMAT
  1
GRIDFORMAT_BEGIN
 90
        0
 91
        1
 62
     0
 92
       -2
340
0
 93
        0
 40
1.125
309
GRIDFORMAT_END
 95
        2
302
GRIDFORMAT
  1
GRIDFORMAT_BEGIN
 90
        0
 91
        1
 62
     0
 92
       -2
340
0
 93
        0
 40
1.125
309
GRIDFORMAT_END
 95
        4
302
GRIDFORMAT
  1
GRIDFORMAT_BEGIN
 90
        0
 91
        1
 62
     0
 92
       -2
340
0
 93
        0
 40
1.125
309
GRIDFORMAT_END
 95
        8
302
GRIDFORMAT
  1
GRIDFORMAT_BEGIN
 90
        0
 91
        1
 62
     0
 92
       -2
340
0
 93
        0
 40
1.125
309
GRIDFORMAT_END
 95
       16
302
GRIDFORMAT
  1
GRIDFORMAT_BEGIN
 90
        0
 91
        1
 62
     0
 92
       -2
340
0
 93
        0
 40
1.125
309
GRIDFORMAT_END
 95
       32
302
GRIDFORMAT
  1
GRIDFORMAT_BEGIN
 90
        0
 91
        1
 62
     0
 92
       -2
340
0
 93
        0
 40
1.125
309
GRIDFORMAT_END
309
TABLEFORMAT_END
  1
CELLSTYLE_BEGIN
 90
        1
 91
        1
300
_TITLE
309
CELLSTYLE_END
300
CELLSTYLE
  1
TABLEFORMAT_BEGIN
 90
        5
170
     1
 91
        0
 92
        0
 62
   257
 93
        1
300
CONTENTFORMAT
  1
CONTENTFORMAT_BEGIN
 90
        0
 91
        0
 92
      512
 93
        0
300

 40
0.0
140
1.0
 94
        5
 62
     0
340
10
144
4.5
309
CONTENTFORMAT_END
171
     1
301
MARGIN
  1
CELLMARGIN_BEGIN
 40
1.5
 40
1.5
 40
1.5
 40
1.5
 40
4.5
 40
4.5
309
CELLMARGIN_END
 94
        6
 95
        1
302
GRIDFORMAT
  1
GRIDFORMAT_BEGIN
 90
        0
 91
        1
 62
     0
 92
       -2
340
0
 93
        0
 40
1.125
309
GRIDFORMAT_END
 95
        2
302
GRIDFORMAT
  1
GRIDFORMAT_BEGIN
 90
        0
 91
        1
 62
     0
 92
       -2
340
0
 93
        0
 40
1.125
309
GRIDFORMAT_END
 95
        4
302
GRIDFORMAT
  1
GRIDFORMAT_BEGIN
 90
        0
 91
        1
 62
     0
 92
       -2
340
0
 93
        0
 40
1.125
309
GRIDFORMAT_END
 95
        8
302
GRIDFORMAT
  1
GRIDFORMAT_BEGIN
 90
        0
 91
        1
 62
     0
 92
       -2
340
0
 93
        0
 40
1.125
309
GRIDFORMAT_END
 95
       16
302
GRIDFORMAT
  1
GRIDFORMAT_BEGIN
 90
        0
 91
        1
 62
     0
 92
       -2
340
0
 93
        0
 40
1.125
309
GRIDFORMAT_END
 95
       32
302
GRIDFORMAT
  1
GRIDFORMAT_BEGIN
 90
        0
 91
        1
 62
     0
 92
       -2
340
0
 93
        0
 40
1.125
309
GRIDFORMAT_END
309
TABLEFORMAT_END
  1
CELLSTYLE_BEGIN
 90
        2
 91
        1
300
_HEADER
309
CELLSTYLE_END
300
CELLSTYLE
  1
TABLEFORMAT_BEGIN
 90
        5
170
     1
 91
        0
 92
        0
 62
   257
 93
        1
300
CONTENTFORMAT
  1
CONTENTFORMAT_BEGIN
 90
        0
 91
        0
 92
      512
 93
        0
300

 40
0.0
140
1.0
 94
        2
 62
     0
340
10
144
4.5
309
CONTENTFORMAT_END
171
     1
301
MARGIN
  1
CELLMARGIN_BEGIN
 40
1.5
 40
1.5
 40
1.5
 40
1.5
 40
4.5
 40
4.5
309
CELLMARGIN_END
 94
        6
 95
        1
302
GRIDFORMAT
  1
GRIDFORMAT_BEGIN
 90
        0
 91
        1
 62
     0
 92
       -2
340
0
 93
        0
 40
1.125
309
GRIDFORMAT_END
 95
        2
302
GRIDFORMAT
  1
GRIDFORMAT_BEGIN
 90
        0
 91
        1
 62
     0
 92
       -2
340
0
 93
        0
 40
1.125
309
GRIDFORMAT_END
 95
        4
302
GRIDFORMAT
  1
GRIDFORMAT_BEGIN
 90
        0
 91
        1
 62
     0
 92
       -2
340
0
 93
        0
 40
1.125
309
GRIDFORMAT_END
 95
        8
302
GRIDFORMAT
  1
GRIDFORMAT_BEGIN
 90
        0
 91
        1
 62
     0
 92
       -2
340
0
 93
        0
 40
1.125
309
GRIDFORMAT_END
 95
       16
302
GRIDFORMAT
  1
GRIDFORMAT_BEGIN
 90
        0
 91
        1
 62
     0
 92
       -2
340
0
 93
        0
 40
1.125
309
GRIDFORMAT_END
 95
       32
302
GRIDFORMAT
  1
GRIDFORMAT_BEGIN
 90
        0
 91
        1
 62
     0
 92
       -2
340
0
 93
        0
 40
1.125
309
GRIDFORMAT_END
309
TABLEFORMAT_END
  1
CELLSTYLE_BEGIN
 90
        3
 91
        2
300
_DATA
309
CELLSTYLE_END
  0
ENDSEC
  0
SECTION
  2
ACDSDATA
 70
     2
 71
     8
  0
ACDSSCHEMA
 90
        0
  1
AcDb_Thumbnail_Schema
  2
AcDbDs::ID
280
    10
 91
        8
  2
Thumbnail_Data
280
    15
 91
        0
101
ACDSRECORD
 95
        0
 90
        1
  2
AcDbDs::TreatedAsObjectData
280
     1
291
     1
101
ACDSRECORD
 95
        0
 90
        2
  2
AcDbDs::Legacy
280
     1
291
     1
101
ACDSRECORD
  1
AcDbDs::ID
 90
        3
  2
AcDs:Indexable
280
     1
291
     1
101
ACDSRECORD
  1
AcDbDs::ID
 90
        4
  2
AcDbDs::HandleAttribute
280
     7
282
     1
  0
ACDSSCHEMA
 90
        1
  1
AcDbDs::TreatedAsObjectDataSchema
  2
AcDbDs::TreatedAsObjectData
280
     1
 91
        0
  0
ACDSSCHEMA
 90
        2
  1
AcDbDs::LegacySchema
  2
AcDbDs::Legacy
280
     1
 91
        0
  0
ACDSSCHEMA
 90
        3
  1
AcDbDs::IndexedPropertySchema
  2
AcDs:Indexable
280
     1
 91
        0
  0
ACDSSCHEMA
 90
        4
  1
AcDbDs::HandleAttributeSchema
  2
AcDbDs::HandleAttribute
280
     7
 91
        1
284
     1
  0
ACDSRECORD
 90
        0
  2
AcDbDs::ID
280
    10
320
8959
  2
Thumbnail_Data
280
    15
 94
     1783
310
89504E470D0A1A0A0000000D49484452000001000000007C0803000000B13B9E5A00000300504C5445000000000000C8C8C80000000000000000000000000000000000000000000000000000330000660000990000CC0000FF0033000033330033660033990033CC0033FF0066000066330066660066990066CC0066FF0099
310
000099330099660099990099CC0099FF00CC0000CC3300CC6600CC9900CCCC00CCFF00FF0000FF3300FF6600FF9900FFCC00FFFF3300003300333300663300993300CC3300FF3333003333333333663333993333CC3333FF3366003366333366663366993366CC3366FF3399003399333399663399993399CC3399FF33CC00
310
33CC3333CC6633CC9933CCCC33CCFF33FF0033FF3333FF6633FF9933FFCC33FFFF6600006600336600666600996600CC6600FF6633006633336633666633996633CC6633FF6666006666336666666666996666CC6666FF6699006699336699666699996699CC6699FF66CC0066CC3366CC6666CC9966CCCC66CCFF66FF0066
310
FF3366FF6666FF9966FFCC66FFFF9900009900339900669900999900CC9900FF9933009933339933669933999933CC9933FF9966009966339966669966999966CC9966FF9999009999339999669999999999CC9999FF99CC0099CC3399CC6699CC9999CCCC99CCFF99FF0099FF3399FF6699FF9999FFCC99FFFFCC0000CC00
310
33CC0066CC0099CC00CCCC00FFCC3300CC3333CC3366CC3399CC33CCCC33FFCC6600CC6633CC6666CC6699CC66CCCC66FFCC9900CC9933CC9966CC9999CC99CCCC99FFCCCC00CCCC33CCCC66CCCC99CCCCCCCCCCFFCCFF00CCFF33CCFF66CCFF99CCFFCCCCFFFFFF0000FF0033FF0066FF0099FF00CCFF00FFFF3300FF3333
310
FF3366FF3399FF33CCFF33FFFF6600FF6633FF6666FF6699FF66CCFF66FFFF9900FF9933FF9966FF9999FF99CCFF99FFFFCC00FFCC33FFCC66FFCC99FFCCCCFFCCFFFFFF00FFFF33FFFF66FFFF99FFFFCCFFFFFF0000000D0D0D1A1A1A2828283535354343435050505D5D5D6B6B6B787878868686939393A1A1A1AEAEAEBB
310
BBBBC9C9C9D6D6D6E4E4E4F1F1F1FFFFFF00000000000000000000000000000000000000000000000000000000000008F1915C000003B24944415478DAED9D6D6EC3200C867D1CFEF8FE97E11AFC5F136C3024D056DDA6FA03692D4D9AA83C7931065B0CE00F4AF9A3025A4A5175DB0010000240000800DFF34B37839F1700
310
D3E5C5A502DC03289E014CBD4037805F9D01A804F065370B00FF0F80643CA9BABF036BBC9C1D46D801BE5E3F00C200BDF9401FD9E495420E40E1AAB8D2820256C6909F756D7157803862A40B14F6F17A9F0061E0CBE62E6104C30FF0381D2EA6A6C393F51F954166BEF0C1D34EC8E1D11480720540C70A08EBD8C6432B0B22
310
C3C0371F9083606B3E9852C06F5D1F6B82EA01E49C5D03C8F933022A01E45D710160F3B5001000BC02489E00E0A6BC690B5502C056B92B759CF002A0D7D27032003801C0D547C529805A3FDEFD0148B542109C0138AC7DAA16DF2980AE00B2840300FB7E0003488F82F5355179541C0158748100E00880D361B001F0EA0831
310
00B7AE700060008BE9B00B4FB0B7564E0C117C01B83C7D12807100CF57C46C03A85620F56931D047FCF0B6AA000C16803E7A02D0D6C1B924B952621F00AD07DC0E811E00C0BD02C01580AFBE6D000800FFF64B7D66884C00F2E29C5D00EFE6C8C813E3B7F4E707F4D6D4DA1A40B607E015053C518A7200D44279F00260F1C9
310
0680DCBA407E09803405E6BAC01EC0A503D8E902D3F0B70230CE186C00B85D0A9A35515F714AACCA684201E38AC8FCC42500FE6A5F3CB705402688B591610B80256203C0D1F644085E04C01251EE09E2680B8EE8C00C0087E542830058FB3552867801505F0C0248D06321FC9411713682082260220168B701AD59D4F6444D
310
EDA1A10600FA7AA91D00473898BB3EA5089DEBC4A9674B9F008EA3C7D99643C49944CA0188CE4F8932B302D811E240E2A4804757D10DE08C0B4007C036A0E5078C00AE3600352BA0AABABE52E329367801D0243F2B00558F02A7E7D32284F487830D140AB83582A07B1844E1FD922544CE9ABB00A81E923100D853649ABFD7
310
3DDE01403D6F6B2E8083F7DB9B867275407A82B70AD03B1B9CB26210604A1A0301603117D00C609722833380D505AA010C0F138667DB8C40BE4C1A878B50BF02D236496A88105853006C14D06CC07D902C3DBD6D28C08C0DC8766D40BE5340DE2820CFDF6AEB2606224343AFCF3D10345A04113B1E83C8CAD7045700F23524
310
6A0AC0D3FC8819C03A8A6E3449CA7CB2F47302DE014000F004C0FD8E92EFB7CC0580EBA6CB20B75A3405006EFE6D92D87093B759B60BC0BD0DB85740DB7D1BDA3EDBBE6C4007D0F7DA360FE0E6A0D87BBB385040EC2C1DAE7000080001200004800010000240000800C60028FAD7DB3FA93A17B5A9D7F3D10000000049454E
310
44AE426082
  0
ENDSEC
  0
EOF
