  0
SECTION
  2
HEADER
  9
$ACADVER
  1
AC1027
  9
$ACADMAINTVER
 70
   125
  9
$DWGCODEPAGE
  3
ANSI_932
  9
$LASTSAVEDBY
  1
yasukiyo.ogawa
  9
$REQUIREDVERSIONS
160
                 0
  9
$INSBASE
 10
0.0
 20
0.0
 30
0.0
  9
$EXTMIN
 10
0.0
 20
0.0
 30
0.0
  9
$EXTMAX
 10
3150.0
 20
4425.0
 30
0.0
  9
$LIMMIN
 10
0.0
 20
0.0
  9
$LIMMAX
 10
297.0
 20
210.0
  9
$ORTHOMODE
 70
     1
  9
$REGENMODE
 70
     1
  9
$FILLMODE
 70
     0
  9
$QTEXTMODE
 70
     0
  9
$MIRRTEXT
 70
     1
  9
$LTSCALE
 40
100.0
  9
$ATTMODE
 70
     1
  9
$TEXTSIZE
 40
180.0
  9
$TRACEWID
 40
0.05
  9
$TEXTSTYLE
  7
STANDARD
  9
$CLAYER
  8
3
  9
$CELTYPE
  6
BYLAYER
  9
$CECOLOR
 62
   256
  9
$CELTSCALE
 40
1.0
  9
$DISPSILH
 70
     0
  9
$DIMSCALE
 40
15.0
  9
$DIMASZ
 40
2.0
  9
$DIMEXO
 40
0.5
  9
$DIMDLI
 40
10.0
  9
$DIMRND
 40
0.0
  9
$DIMDLE
 40
0.0
  9
$DIMEXE
 40
1.0
  9
$DIMTP
 40
1.0
  9
$DIMTM
 40
1.0
  9
$DIMTXT
 40
3.0
  9
$DIMCEN
 40
0.0
  9
$DIMTSZ
 40
0.0
  9
$DIMTOL
 70
     0
  9
$DIMLIM
 70
     0
  9
$DIMTIH
 70
     0
  9
$DIMTOH
 70
     0
  9
$DIMSE1
 70
     0
  9
$DIMSE2
 70
     0
  9
$DIMTAD
 70
     1
  9
$DIMZIN
 70
     8
  9
$DIMBLK
  1

  9
$DIMASO
 70
     1
  9
$DIMSHO
 70
     1
  9
$DIMPOST
  1
(<>)
  9
$DIMAPOST
  1

  9
$DIMALT
 70
     0
  9
$DIMALTD
 70
     2
  9
$DIMALTF
 40
0.039
  9
$DIMLFAC
 40
1.0
  9
$DIMTOFL
 70
     1
  9
$DIMTVP
 40
0.0
  9
$DIMTIX
 70
     0
  9
$DIMSOXD
 70
     0
  9
$DIMSAH
 70
     1
  9
$DIMBLK1
  1
OPEN
  9
$DIMBLK2
  1
OPEN
  9
$DIMSTYLE
  2
IGA
  9
$DIMCLRD
 70
     0
  9
$DIMCLRE
 70
     0
  9
$DIMCLRT
 70
     0
  9
$DIMTFAC
 40
10.0
  9
$DIMGAP
 40
1.0
  9
$DIMJUST
 70
     0
  9
$DIMSD1
 70
     0
  9
$DIMSD2
 70
     0
  9
$DIMTOLJ
 70
     1
  9
$DIMTZIN
 70
     8
  9
$DIMALTZ
 70
     0
  9
$DIMALTTZ
 70
     0
  9
$DIMUPT
 70
     0
  9
$DIMDEC
 70
     0
  9
$DIMTDEC
 70
     0
  9
$DIMALTU
 70
     2
  9
$DIMALTTD
 70
     2
  9
$DIMTXSTY
  7
STANDARD
  9
$DIMAUNIT
 70
     0
  9
$DIMADEC
 70
     0
  9
$DIMALTRND
 40
0.0
  9
$DIMAZIN
 70
     0
  9
$DIMDSEP
 70
    46
  9
$DIMATFIT
 70
     3
  9
$DIMFRAC
 70
     0
  9
$DIMLDRBLK
  1
OPEN
  9
$DIMLUNIT
 70
     2
  9
$DIMLWD
 70
    -2
  9
$DIMLWE
 70
    -2
  9
$DIMTMOVE
 70
     2
  9
$DIMFXL
 40
1.0
  9
$DIMFXLON
 70
     0
  9
$DIMJOGANG
 40
0.7853981633974483
  9
$DIMTFILL
 70
     0
  9
$DIMTFILLCLR
 70
     0
  9
$DIMARCSYM
 70
     0
  9
$DIMLTYPE
  6

  9
$DIMLTEX1
  6

  9
$DIMLTEX2
  6

  9
$DIMTXTDIRECTION
 70
     0
  9
$LUNITS
 70
     2
  9
$LUPREC
 70
     3
  9
$SKETCHINC
 40
0.1
  9
$FILLETRAD
 40
50.0
  9
$AUNITS
 70
     0
  9
$AUPREC
 70
     0
  9
$MENU
  1
acad
  9
$ELEVATION
 40
0.0
  9
$PELEVATION
 40
0.0
  9
$THICKNESS
 40
0.0
  9
$LIMCHECK
 70
     0
  9
$CHAMFERA
 40
0.5
  9
$CHAMFERB
 40
0.5
  9
$CHAMFERC
 40
20.0
  9
$CHAMFERD
 40
0.0
  9
$SKPOLY
 70
     0
  9
$TDCREATE
 40
2451372.478321759
  9
$TDUCREATE
 40
2451372.103327199
  9
$TDUPDATE
 40
2460216.537754630
  9
$TDUUPDATE
 40
2460216.162763727
  9
$TDINDWG
 40
0.0279804282
  9
$TDUSRTIMER
 40
0.0279804282
  9
$USRTIMER
 70
     1
  9
$ANGBASE
 50
0.0
  9
$ANGDIR
 70
     0
  9
$PDMODE
 70
     0
  9
$PDSIZE
 40
0.0
  9
$PLINEWID
 40
0.0
  9
$SPLFRAME
 70
     0
  9
$SPLINETYPE
 70
     6
  9
$SPLINESEGS
 70
     8
  9
$HANDSEED
  5
86C9
  9
$SURFTAB1
 70
     6
  9
$SURFTAB2
 70
     6
  9
$SURFTYPE
 70
     6
  9
$SURFU
 70
     6
  9
$SURFV
 70
     6
  9
$UCSBASE
  2

  9
$UCSNAME
  2

  9
$UCSORG
 10
0.0
 20
0.0
 30
0.0
  9
$UCSXDIR
 10
1.0
 20
0.0
 30
0.0
  9
$UCSYDIR
 10
0.0
 20
1.0
 30
0.0
  9
$UCSORTHOREF
  2

  9
$UCSORTHOVIEW
 70
     0
  9
$UCSORGTOP
 10
0.0
 20
0.0
 30
0.0
  9
$UCSORGBOTTOM
 10
0.0
 20
0.0
 30
0.0
  9
$UCSORGLEFT
 10
0.0
 20
0.0
 30
0.0
  9
$UCSORGRIGHT
 10
0.0
 20
0.0
 30
0.0
  9
$UCSORGFRONT
 10
0.0
 20
0.0
 30
0.0
  9
$UCSORGBACK
 10
0.0
 20
0.0
 30
0.0
  9
$PUCSBASE
  2

  9
$PUCSNAME
  2

  9
$PUCSORG
 10
0.0
 20
0.0
 30
0.0
  9
$PUCSXDIR
 10
1.0
 20
0.0
 30
0.0
  9
$PUCSYDIR
 10
0.0
 20
1.0
 30
0.0
  9
$PUCSORTHOREF
  2

  9
$PUCSORTHOVIEW
 70
     0
  9
$PUCSORGTOP
 10
0.0
 20
0.0
 30
0.0
  9
$PUCSORGBOTTOM
 10
0.0
 20
0.0
 30
0.0
  9
$PUCSORGLEFT
 10
0.0
 20
0.0
 30
0.0
  9
$PUCSORGRIGHT
 10
0.0
 20
0.0
 30
0.0
  9
$PUCSORGFRONT
 10
0.0
 20
0.0
 30
0.0
  9
$PUCSORGBACK
 10
0.0
 20
0.0
 30
0.0
  9
$USERI1
 70
     0
  9
$USERI2
 70
     0
  9
$USERI3
 70
     0
  9
$USERI4
 70
     0
  9
$USERI5
 70
     0
  9
$USERR1
 40
0.0
  9
$USERR2
 40
0.0
  9
$USERR3
 40
0.0
  9
$USERR4
 40
0.0
  9
$USERR5
 40
0.0
  9
$WORLDVIEW
 70
     1
  9
$SHADEDGE
 70
     3
  9
$SHADEDIF
 70
    70
  9
$TILEMODE
 70
     1
  9
$MAXACTVP
 70
    16
  9
$PINSBASE
 10
0.0
 20
0.0
 30
0.0
  9
$PLIMCHECK
 70
     0
  9
$PEXTMIN
 10
1.000000000000000E+20
 20
1.000000000000000E+20
 30
1.000000000000000E+20
  9
$PEXTMAX
 10
-1.000000000000000E+20
 20
-1.000000000000000E+20
 30
-1.000000000000000E+20
  9
$PLIMMIN
 10
0.0
 20
0.0
  9
$PLIMMAX
 10
12.0
 20
9.0
  9
$UNITMODE
 70
     0
  9
$VISRETAIN
 70
     0
  9
$PLINEGEN
 70
     0
  9
$PSLTSCALE
 70
     1
  9
$TREEDEPTH
 70
  3020
  9
$CMLSTYLE
  2
STANDARD
  9
$CMLJUST
 70
     0
  9
$CMLSCALE
 40
20.0
  9
$PROXYGRAPHICS
 70
     1
  9
$MEASUREMENT
 70
     1
  9
$CELWEIGHT
370
    -1
  9
$ENDCAPS
280
     0
  9
$JOINSTYLE
280
     0
  9
$LWDISPLAY
290
     0
  9
$INSUNITS
 70
     0
  9
$HYPERLINKBASE
  1

  9
$STYLESHEET
  1

  9
$XEDIT
290
     1
  9
$CEPSNTYPE
380
     0
  9
$PSTYLEMODE
290
     1
  9
$FINGERPRINTGUID
  2
{8C0C9C43-CF2E-49DE-83C7-D7696DDBE6D7}
  9
$VERSIONGUID
  2
{6AC65718-8A19-406D-8982-22E469EF799A}
  9
$EXTNAMES
290
     1
  9
$PSVPSCALE
 40
0.0
  9
$OLESTARTUP
290
     0
  9
$SORTENTS
280
   127
  9
$INDEXCTL
280
     0
  9
$HIDETEXT
280
     0
  9
$XCLIPFRAME
280
     2
  9
$HALOGAP
280
     0
  9
$OBSCOLOR
 70
   257
  9
$OBSLTYPE
280
     0
  9
$INTERSECTIONDISPLAY
280
     0
  9
$INTERSECTIONCOLOR
 70
   257
  9
$DIMASSOC
280
     1
  9
$PROJECTNAME
  1

  9
$CAMERADISPLAY
290
     0
  9
$LENSLENGTH
 40
50.0
  9
$CAMERAHEIGHT
 40
0.0
  9
$STEPSPERSEC
 40
2.0
  9
$STEPSIZE
 40
6.0
  9
$3DDWFPREC
 40
2.0
  9
$PSOLWIDTH
 40
0.25
  9
$PSOLHEIGHT
 40
4.0
  9
$LOFTANG1
 40
1.570796326794896
  9
$LOFTANG2
 40
1.570796326794896
  9
$LOFTMAG1
 40
0.0
  9
$LOFTMAG2
 40
0.0
  9
$LOFTPARAM
 70
     7
  9
$LOFTNORMALS
280
     1
  9
$LATITUDE
 40
37.795
  9
$LONGITUDE
 40
-122.394
  9
$NORTHDIRECTION
 40
0.0
  9
$TIMEZONE
 70
 -8000
  9
$LIGHTGLYPHDISPLAY
280
     1
  9
$TILEMODELIGHTSYNCH
280
     1
  9
$CMATERIAL
347
85D3
  9
$SOLIDHIST
280
     0
  9
$SHOWHIST
280
     1
  9
$DWFFRAME
280
     2
  9
$DGNFRAME
280
     0
  9
$REALWORLDSCALE
290
     1
  9
$INTERFERECOLOR
 62
     1
  9
$INTERFEREOBJVS
345
85F5
  9
$INTERFEREVPVS
346
85F2
  9
$CSHADOW
280
     0
  9
$SHADOWPLANELOCATION
 40
0.0
  0
ENDSEC
  0
SECTION
  2
CLASSES
  0
CLASS
  1
ACDBDICTIONARYWDFLT
  2
AcDbDictionaryWithDefault
  3
ObjectDBX Classes
 90
        0
 91
        1
280
     0
281
     0
  0
CLASS
  1
MATERIAL
  2
AcDbMaterial
  3
ObjectDBX Classes
 90
     1153
 91
        3
280
     0
281
     0
  0
CLASS
  1
VISUALSTYLE
  2
AcDbVisualStyle
  3
ObjectDBX Classes
 90
     4095
 91
       24
280
     0
281
     0
  0
CLASS
  1
TABLESTYLE
  2
AcDbTableStyle
  3
ObjectDBX Classes
 90
     4095
 91
        1
280
     0
281
     0
  0
CLASS
  1
SCALE
  2
AcDbScale
  3
ObjectDBX Classes
 90
     1153
 91
       17
280
     0
281
     0
  0
CLASS
  1
MLEADERSTYLE
  2
AcDbMLeaderStyle
  3
ACDB_MLEADERSTYLE_CLASS
 90
     4095
 91
        1
280
     0
281
     0
  0
CLASS
  1
ACDBSECTIONVIEWSTYLE
  2
AcDbSectionViewStyle
  3
ObjectDBX Classes
 90
     1025
 91
        1
280
     0
281
     0
  0
CLASS
  1
ACDBDETAILVIEWSTYLE
  2
AcDbDetailViewStyle
  3
ObjectDBX Classes
 90
     1025
 91
        1
280
     0
281
     0
  0
CLASS
  1
SORTENTSTABLE
  2
AcDbSortentsTable
  3
ObjectDBX Classes
 90
        0
 91
        1
280
     0
281
     0
  0
CLASS
  1
DICTIONARYVAR
  2
AcDbDictionaryVar
  3
ObjectDBX Classes
 90
        0
 91
       10
280
     0
281
     0
  0
CLASS
  1
CELLSTYLEMAP
  2
AcDbCellStyleMap
  3
ObjectDBX Classes
 90
     1152
 91
        1
280
     0
281
     0
  0
ENDSEC
  0
SECTION
  2
TABLES
  0
TABLE
  2
VPORT
  5
8
330
0
100
AcDbSymbolTable
 70
     1
1001
ACAD
1000
DbSaveVer
1071
      278
  0
VPORT
  5
85D0
330
8
100
AcDbSymbolTableRecord
100
AcDbViewportTableRecord
  2
*Active
 70
     0
 10
0.0
 20
0.0
 11
1.0
 21
1.0
 12
2020.585139495969
 22
2212.500010302757
 13
0.0
 23
0.0
 14
10.0
 24
10.0
 15
10.0
 25
10.0
 16
0.0
 26
0.0
 36
1.0
 17
0.0
 27
0.0
 37
0.0
 40
4453.60692206448
 41
2.250314465408805
 42
50.0
 43
0.0
 44
0.0
 50
0.0
 51
0.0
 71
     0
 72
   100
 73
     1
 74
     0
 75
     0
 76
     0
 77
     0
 78
     0
281
     0
 65
     1
110
0.0
120
0.0
130
0.0
111
1.0
121
0.0
131
0.0
112
0.0
122
1.0
132
0.0
 79
     0
146
0.0
348
85F1
 60
     3
 61
     5
292
     1
282
     1
141
0.0
142
0.0
 63
   250
421
  3355443
1001
ACAD_NAV_VCDISPLAY
1070
     3
  0
ENDTAB
  0
TABLE
  2
LTYPE
  5
5
330
0
100
AcDbSymbolTable
 70
     2
  0
LTYPE
  5
13
330
5
100
AcDbSymbolTableRecord
100
AcDbLinetypeTableRecord
  2
BYBLOCK
 70
     0
  3

 72
    65
 73
     0
 40
0.0
  0
LTYPE
  5
14
330
5
100
AcDbSymbolTableRecord
100
AcDbLinetypeTableRecord
  2
BYLAYER
 70
     0
  3

 72
    65
 73
     0
 40
0.0
  0
LTYPE
  5
15
330
5
100
AcDbSymbolTableRecord
100
AcDbLinetypeTableRecord
  2
CONTINUOUS
 70
     0
  3
Solid line
 72
    65
 73
     0
 40
0.0
  0
LTYPE
  5
1F
330
5
100
AcDbSymbolTableRecord
100
AcDbLinetypeTableRecord
  2
CENTER
 70
     0
  3
____ _ ____ _ ____ _ ____ _ ____ _ ____ _ ____ 
 72
    65
 73
     4
 40
2.0
 49
1.25
 74
     0
 49
-0.25
 74
     0
 49
0.25
 74
     0
 49
-0.25
 74
     0
  0
ENDTAB
  0
TABLE
  2
LAYER
  5
2
102
{ACAD_XDICTIONARY
360
864C
102
}
330
0
100
AcDbSymbolTable
 70
     6
  0
LAYER
  5
F
102
{ACAD_XDICTIONARY
360
863F
102
}
330
2
100
AcDbSymbolTableRecord
100
AcDbLayerTableRecord
  2
0
 70
     0
 62
     7
  6
CONTINUOUS
370
    -3
390
8564
347
85E3
348
0
  0
LAYER
  5
31
102
{ACAD_XDICTIONARY
360
8641
102
}
330
2
100
AcDbSymbolTableRecord
100
AcDbLayerTableRecord
  2
3
 70
     0
 62
     2
  6
CONTINUOUS
370
    -3
390
8564
347
85E3
348
0
  0
LAYER
  5
76D0
102
{ACAD_XDICTIONARY
360
8643
102
}
330
2
100
AcDbSymbolTableRecord
100
AcDbLayerTableRecord
  2
2
 70
     0
 62
     3
  6
CENTER
370
    -3
390
8564
347
85E3
348
0
  0
LAYER
  5
76D1
102
{ACAD_XDICTIONARY
360
8645
102
}
330
2
100
AcDbSymbolTableRecord
100
AcDbLayerTableRecord
  2
1
 70
     0
 62
     4
  6
CONTINUOUS
370
    -3
390
8564
347
85E3
348
0
  0
LAYER
  5
76D2
102
{ACAD_XDICTIONARY
360
8647
102
}
330
2
100
AcDbSymbolTableRecord
100
AcDbLayerTableRecord
  2
4
 70
     0
 62
     7
  6
CONTINUOUS
370
    -3
390
8564
347
85E3
348
0
  0
LAYER
  5
7B0A
330
2
100
AcDbSymbolTableRecord
100
AcDbLayerTableRecord
  2
DEFPOINTS
 70
     0
 62
     7
  6
CONTINUOUS
290
     0
370
    -3
390
8564
347
85E3
348
0
  0
ENDTAB
  0
TABLE
  2
STYLE
  5
3
330
0
100
AcDbSymbolTable
 70
     1
  0
STYLE
  5
10
330
3
100
AcDbSymbolTableRecord
100
AcDbTextStyleTableRecord
  2
STANDARD
 70
     0
 40
0.0
 41
1.0
 50
0.0
 71
     0
 42
180.0
  3
simplex.shx
  4
extfont.shx
  0
ENDTAB
  0
TABLE
  2
VIEW
  5
6
330
0
100
AcDbSymbolTable
 70
     0
  0
ENDTAB
  0
TABLE
  2
UCS
  5
7
330
0
100
AcDbSymbolTable
 70
     0
  0
ENDTAB
  0
TABLE
  2
APPID
  5
9
330
0
100
AcDbSymbolTable
 70
     4
  0
APPID
  5
11
330
9
100
AcDbSymbolTableRecord
100
AcDbRegAppTableRecord
  2
ACAD
 70
     0
  0
APPID
  5
8624
330
9
100
AcDbSymbolTableRecord
100
AcDbRegAppTableRecord
  2
AcadAnnoMonitorAlertIconDisabled
 70
     0
  0
APPID
  5
8625
330
9
100
AcDbSymbolTableRecord
100
AcDbRegAppTableRecord
  2
ACAD_EXEMPT_FROM_CAD_STANDARDS
 70
     0
  0
APPID
  5
8652
330
9
100
AcDbSymbolTableRecord
100
AcDbRegAppTableRecord
  2
ACAD_NAV_VCDISPLAY
 70
     0
  0
ENDTAB
  0
TABLE
  2
DIMSTYLE
  5
A
330
0
100
AcDbSymbolTable
 70
     2
100
AcDbDimStyleTable
 71
     1
340
1D
  0
DIMSTYLE
105
1D
102
{ACAD_REACTORS
330
8297
330
84F4
330
8501
330
850E
330
851B
330
8540
330
854D
102
}
330
A
100
AcDbSymbolTableRecord
100
AcDbDimStyleTableRecord
  2
IGA
 70
     0
 40
2.0
 41
2.0
 42
0.5
 43
10.0
 44
1.0
 47
1.0
 48
1.0
 73
     0
 74
     0
 77
     1
 78
     8
140
3.0
141
0.0
143
0.03937
146
10.0
147
1.0
173
     1
271
     1
272
     0
279
     2
284
     8
340
10
341
79FC
343
79FC
344
79FC
  0
DIMSTYLE
105
7B0C
102
{ACAD_REACTORS
330
8243
330
8244
330
8249
330
824A
330
8266
330
8268
330
8275
330
827F
330
828F
330
8290
330
8293
330
8294
102
}
330
A
100
AcDbSymbolTableRecord
100
AcDbDimStyleTableRecord
  2
MATSU
 70
     0
 41
2.0
 42
1.0
 43
10.0
 44
1.0
 73
     0
 74
     0
 77
     1
 78
     8
140
3.0
141
0.0
143
0.03937
147
0.5
172
     1
173
     1
176
   256
177
   256
178
   256
284
     8
289
     0
340
10
341
79FC
343
79FC
344
79FC
  0
ENDTAB
  0
TABLE
  2
BLOCK_RECORD
  5
1
330
0
100
AcDbSymbolTable
 70
    23
  0
BLOCK_RECORD
  5
19
102
{ACAD_XDICTIONARY
360
8592
102
}
330
1
100
AcDbSymbolTableRecord
100
AcDbBlockTableRecord
  2
*MODEL_SPACE
340
8567
 70
     0
280
     1
281
     0
  0
BLOCK_RECORD
  5
16
102
{ACAD_XDICTIONARY
360
8590
102
}
330
1
100
AcDbSymbolTableRecord
100
AcDbBlockTableRecord
  2
*PAPER_SPACE
340
8568
 70
     0
280
     1
281
     0
  0
BLOCK_RECORD
  5
79FC
330
1
100
AcDbSymbolTableRecord
100
AcDbBlockTableRecord
  2
_OPEN
340
0
102
{BLKREFS
331
85A8
331
8639
331
863A
331
83F1
331
83F2
331
83FC
331
83FD
331
8407
331
8408
331
8412
331
8413
331
859F
331
85A0
331
85A7
331
845C
331
845D
331
8487
331
8488
331
8492
331
8493
331
849D
331
849E
331
84B2
331
84B3
331
8668
331
8670
331
8671
331
8679
331
867A
331
8682
331
8683
331
868B
331
868C
331
8699
331
869A
102
}
 70
     0
280
     1
281
     0
  0
BLOCK_RECORD
  5
7FB0
330
1
100
AcDbSymbolTableRecord
100
AcDbBlockTableRecord
  2
_DOT
340
0
102
{BLKREFS
331
8667
102
}
 70
     0
280
     1
281
     0
  0
BLOCK_RECORD
  5
8148
330
1
100
AcDbSymbolTableRecord
100
AcDbBlockTableRecord
  2
YA_N
340
0
102
{BLKREFS
331
829A
331
829B
331
829C
331
829D
331
829E
331
829F
331
82A0
102
}
 70
     0
280
     1
281
     0
  0
BLOCK_RECORD
  5
82F3
330
1
100
AcDbSymbolTableRecord
100
AcDbBlockTableRecord
  2
*D3
340
0
 70
     0
280
     1
281
     0
  0
BLOCK_RECORD
  5
82FF
330
1
100
AcDbSymbolTableRecord
100
AcDbBlockTableRecord
  2
*D4
340
0
 70
     0
280
     1
281
     0
  0
BLOCK_RECORD
  5
830B
330
1
100
AcDbSymbolTableRecord
100
AcDbBlockTableRecord
  2
*D5
340
0
 70
     0
280
     1
281
     0
  0
BLOCK_RECORD
  5
8317
330
1
100
AcDbSymbolTableRecord
100
AcDbBlockTableRecord
  2
*D6
340
0
 70
     0
280
     1
281
     0
  0
BLOCK_RECORD
  5
8323
330
1
100
AcDbSymbolTableRecord
100
AcDbBlockTableRecord
  2
*D7
340
0
 70
     0
280
     1
281
     0
  0
BLOCK_RECORD
  5
833A
330
1
100
AcDbSymbolTableRecord
100
AcDbBlockTableRecord
  2
*D8
340
0
 70
     0
280
     1
281
     0
  0
BLOCK_RECORD
  5
8368
330
1
100
AcDbSymbolTableRecord
100
AcDbBlockTableRecord
  2
*D9
340
0
 70
     0
280
     1
281
     0
  0
BLOCK_RECORD
  5
8397
330
1
100
AcDbSymbolTableRecord
100
AcDbBlockTableRecord
  2
*D10
340
0
 70
     0
280
     1
281
     0
  0
BLOCK_RECORD
  5
83A3
330
1
100
AcDbSymbolTableRecord
100
AcDbBlockTableRecord
  2
*D11
340
0
 70
     0
280
     1
281
     0
  0
BLOCK_RECORD
  5
83AF
330
1
100
AcDbSymbolTableRecord
100
AcDbBlockTableRecord
  2
*D12
340
0
 70
     0
280
     1
281
     0
  0
BLOCK_RECORD
  5
83BB
330
1
100
AcDbSymbolTableRecord
100
AcDbBlockTableRecord
  2
*D13
340
0
 70
     0
280
     1
281
     0
  0
BLOCK_RECORD
  5
83C6
330
1
100
AcDbSymbolTableRecord
100
AcDbBlockTableRecord
  2
*D14
340
0
 70
     0
280
     1
281
     0
  0
BLOCK_RECORD
  5
83DF
330
1
100
AcDbSymbolTableRecord
100
AcDbBlockTableRecord
  2
*D15
340
0
 70
     0
280
     1
281
     0
  0
BLOCK_RECORD
  5
84E8
330
1
100
AcDbSymbolTableRecord
100
AcDbBlockTableRecord
  2
*D16
340
0
 70
     0
280
     1
281
     0
  0
BLOCK_RECORD
  5
84F5
330
1
100
AcDbSymbolTableRecord
100
AcDbBlockTableRecord
  2
*D17
340
0
 70
     0
280
     1
281
     0
  0
BLOCK_RECORD
  5
8502
330
1
100
AcDbSymbolTableRecord
100
AcDbBlockTableRecord
  2
*D18
340
0
 70
     0
280
     1
281
     0
  0
BLOCK_RECORD
  5
850F
330
1
100
AcDbSymbolTableRecord
100
AcDbBlockTableRecord
  2
*D19
340
0
 70
     0
280
     1
281
     0
  0
BLOCK_RECORD
  5
851C
330
1
100
AcDbSymbolTableRecord
100
AcDbBlockTableRecord
  2
_NONE
340
0
 70
     0
280
     1
281
     0
  0
BLOCK_RECORD
  5
8538
330
1
100
AcDbSymbolTableRecord
100
AcDbBlockTableRecord
  2
*D21
340
0
 70
     0
280
     1
281
     0
  0
BLOCK_RECORD
  5
8541
330
1
100
AcDbSymbolTableRecord
100
AcDbBlockTableRecord
  2
*D22
340
0
 70
     0
280
     1
281
     0
  0
ENDTAB
  0
ENDSEC
  0
SECTION
  2
BLOCKS
  0
BLOCK
  5
1A
330
19
100
AcDbEntity
  8
0
100
AcDbBlockBegin
  2
*MODEL_SPACE
 70
     0
 10
0.0
 20
0.0
 30
0.0
  3
*MODEL_SPACE
  1

  0
ENDBLK
  5
1B
330
19
100
AcDbEntity
  8
0
100
AcDbBlockEnd
  0
BLOCK
  5
17
330
16
100
AcDbEntity
 67
     1
  8
0
100
AcDbBlockBegin
  2
*PAPER_SPACE
 70
     0
 10
0.0
 20
0.0
 30
0.0
  3
*PAPER_SPACE
  1

  0
ENDBLK
  5
18
330
16
100
AcDbEntity
 67
     1
  8
0
100
AcDbBlockEnd
  0
BLOCK
  5
7A00
330
79FC
100
AcDbEntity
  8
0
100
AcDbBlockBegin
  2
_OPEN
 70
     0
 10
0.0
 20
0.0
 30
0.0
  3
_OPEN
  1

  0
LINE
  5
79FD
330
79FC
100
AcDbEntity
  8
0
  6
ByBlock
 62
     0
100
AcDbLine
 10
-1.0
 20
0.1666666666666666
 30
0.0
 11
0.0
 21
0.0
 31
0.0
  0
LINE
  5
79FE
330
79FC
100
AcDbEntity
  8
0
  6
ByBlock
 62
     0
100
AcDbLine
 10
0.0
 20
0.0
 30
0.0
 11
-1.0
 21
-0.1666666666666666
 31
0.0
  0
LINE
  5
79FF
330
79FC
100
AcDbEntity
  8
0
  6
ByBlock
 62
     0
100
AcDbLine
 10
0.0
 20
0.0
 30
0.0
 11
-1.0
 21
0.0
 31
0.0
  0
ENDBLK
  5
7A01
330
79FC
100
AcDbEntity
  8
0
100
AcDbBlockEnd
  0
BLOCK
  5
7FB6
330
7FB0
100
AcDbEntity
  8
0
100
AcDbBlockBegin
  2
_DOT
 70
     0
 10
0.0
 20
0.0
 30
0.0
  3
_DOT
  1

  0
LWPOLYLINE
  5
7FB1
330
7FB0
100
AcDbEntity
  8
0
  6
ByBlock
 62
     0
100
AcDbPolyline
 90
        2
 70
     1
 43
0.25
 10
-0.125
 20
0.0
 42
1.0
 10
0.125
 20
0.0
 42
1.0
  0
LINE
  5
7FB5
330
7FB0
100
AcDbEntity
  8
0
  6
ByBlock
 62
     0
100
AcDbLine
 10
-0.25
 20
0.0
 30
0.0
 11
-1.0
 21
0.0
 31
0.0
  0
ENDBLK
  5
7FB7
330
7FB0
100
AcDbEntity
  8
0
100
AcDbBlockEnd
  0
BLOCK
  5
8149
330
8148
100
AcDbEntity
  8
0
100
AcDbBlockBegin
  2
YA_N
 70
     0
 10
0.0
 20
0.0
 30
0.0
  3
YA_N
  1

  0
ENDBLK
  5
814A
330
8148
100
AcDbEntity
  8
0
100
AcDbBlockEnd
  0
BLOCK
  5
83ED
330
82F3
100
AcDbEntity
  8
0
100
AcDbBlockBegin
  2
*D3
 70
     1
 10
0.0
 20
0.0
 30
0.0
  3
*D3
  1

  0
LINE
  5
83EE
330
82F3
100
AcDbEntity
  8
0
  6
ByBlock
440
 16777216
100
AcDbLine
 10
4537.023871626108
 20
1914.733391174182
 30
0.0
 11
4316.302288995383
 21
1914.733391174182
 31
0.0
  0
LINE
  5
83EF
330
82F3
100
AcDbEntity
  8
0
  6
ByBlock
440
 16777216
100
AcDbLine
 10
4532.023871626107
 20
1490.733391174182
 30
0.0
 11
4316.302288995383
 21
1490.733391174182
 31
0.0
  0
LINE
  5
83F0
330
82F3
100
AcDbEntity
  8
0
  6
ByBlock
440
 16777216
100
AcDbLine
 10
4331.302288995383
 20
1884.733391174182
 30
0.0
 11
4331.302288995383
 21
1520.733391174182
 31
0.0
  0
INSERT
  5
83F1
330
82F3
100
AcDbEntity
  8
0
  6
ByBlock
440
 16777216
100
AcDbBlockReference
  2
_OPEN
 10
4331.302288995383
 20
1914.733391174182
 30
0.0
 41
30.0
 42
30.0
 43
30.0
 50
90.0
  0
INSERT
  5
83F2
330
82F3
100
AcDbEntity
  8
0
  6
ByBlock
440
 16777216
100
AcDbBlockReference
  2
_OPEN
 10
4331.302288995383
 20
1490.733391174182
 30
0.0
 41
30.0
 42
30.0
 43
30.0
 50
270.0
  0
MTEXT
  5
83F3
330
82F3
100
AcDbEntity
  8
0
  6
ByBlock
440
 16777216
100
AcDbMText
 10
4301.302288995382
 20
1702.733391174183
 30
0.0
 40
45.0
 41
0.0
 46
0.0
 71
     5
 72
     5
  1
\A1;424
 11
0.0
 21
1.0
 31
0.0
 73
     1
 44
1.0
  0
POINT
  5
83F4
330
82F3
100
AcDbEntity
  8
DEFPOINTS
  6
ByBlock
 62
     0
440
 16777216
100
AcDbPoint
 10
4552.023871626108
 20
1914.733391174182
 30
0.0
  0
POINT
  5
83F5
330
82F3
100
AcDbEntity
  8
DEFPOINTS
  6
ByBlock
 62
     0
440
 16777216
100
AcDbPoint
 10
4547.023871626108
 20
1490.733391174182
 30
0.0
  0
POINT
  5
83F6
330
82F3
100
AcDbEntity
  8
DEFPOINTS
  6
ByBlock
 62
     0
440
 16777216
100
AcDbPoint
 10
4331.302288995383
 20
1490.733391174182
 30
0.0
  0
ENDBLK
  5
83F7
330
82F3
100
AcDbEntity
  8
0
100
AcDbBlockEnd
  0
BLOCK
  5
83F8
330
82FF
100
AcDbEntity
  8
0
100
AcDbBlockBegin
  2
*D4
 70
     1
 10
0.0
 20
0.0
 30
0.0
  3
*D4
  1

  0
LINE
  5
83F9
330
82FF
100
AcDbEntity
  8
0
  6
ByBlock
440
 16777216
100
AcDbLine
 10
6482.846169308569
 20
1690.733391174182
 30
0.0
 11
6655.124689726093
 21
1690.733391174182
 31
0.0
  0
LINE
  5
83FA
330
82FF
100
AcDbEntity
  8
0
  6
ByBlock
440
 16777216
100
AcDbLine
 10
6482.846169308569
 20
1290.733391174182
 30
0.0
 11
6655.124689726093
 21
1290.733391174182
 31
0.0
  0
LINE
  5
83FB
330
82FF
100
AcDbEntity
  8
0
  6
ByBlock
440
 16777216
100
AcDbLine
 10
6640.124689726093
 20
1660.733391174182
 30
0.0
 11
6640.124689726093
 21
1320.733391174182
 31
0.0
  0
INSERT
  5
83FC
330
82FF
100
AcDbEntity
  8
0
  6
ByBlock
440
 16777216
100
AcDbBlockReference
  2
_OPEN
 10
6640.124689726093
 20
1690.733391174182
 30
0.0
 41
30.0
 42
30.0
 43
30.0
 50
90.0
  0
INSERT
  5
83FD
330
82FF
100
AcDbEntity
  8
0
  6
ByBlock
440
 16777216
100
AcDbBlockReference
  2
_OPEN
 10
6640.124689726093
 20
1290.733391174182
 30
0.0
 41
30.0
 42
30.0
 43
30.0
 50
270.0
  0
MTEXT
  5
83FE
330
82FF
100
AcDbEntity
  8
0
  6
ByBlock
440
 16777216
100
AcDbMText
 10
6610.124689726093
 20
1490.733391174182
 30
0.0
 40
45.0
 41
0.0
 46
0.0
 71
     5
 72
     5
  1
\A1;φ400
 11
0.0
 21
1.0
 31
0.0
 73
     1
 44
1.0
  0
POINT
  5
83FF
330
82FF
100
AcDbEntity
  8
DEFPOINTS
  6
ByBlock
 62
     0
440
 16777216
100
AcDbPoint
 10
6467.846169308568
 20
1690.733391174182
 30
0.0
  0
POINT
  5
8400
330
82FF
100
AcDbEntity
  8
DEFPOINTS
  6
ByBlock
 62
     0
440
 16777216
100
AcDbPoint
 10
6467.846169308568
 20
1290.733391174182
 30
0.0
  0
POINT
  5
8401
330
82FF
100
AcDbEntity
  8
DEFPOINTS
  6
ByBlock
 62
     0
440
 16777216
100
AcDbPoint
 10
6640.124689726093
 20
1290.733391174182
 30
0.0
  0
ENDBLK
  5
8402
330
82FF
100
AcDbEntity
  8
0
100
AcDbBlockEnd
  0
BLOCK
  5
8403
330
830B
100
AcDbEntity
  8
0
100
AcDbBlockBegin
  2
*D5
 70
     1
 10
0.0
 20
0.0
 30
0.0
  3
*D5
  1

  0
LINE
  5
8404
330
830B
100
AcDbEntity
  8
0
  6
ByBlock
440
 16777216
100
AcDbLine
 10
4857.023871626108
 20
1940.076918000794
 30
0.0
 11
4857.023871626108
 21
2089.98535967815
 31
0.0
  0
LINE
  5
8405
330
830B
100
AcDbEntity
  8
0
  6
ByBlock
440
 16777216
100
AcDbLine
 10
4552.023871626108
 20
1939.75937193641
 30
0.0
 11
4552.023871626108
 21
2089.98535967815
 31
0.0
  0
LINE
  5
8406
330
830B
100
AcDbEntity
  8
0
  6
ByBlock
440
 16777216
100
AcDbLine
 10
4827.023871626108
 20
2074.985359678151
 30
0.0
 11
4582.023871626108
 21
2074.985359678151
 31
0.0
  0
INSERT
  5
8407
330
830B
100
AcDbEntity
  8
0
  6
ByBlock
440
 16777216
100
AcDbBlockReference
  2
_OPEN
 10
4857.023871626108
 20
2074.985359678151
 30
0.0
 41
30.0
 42
30.0
 43
30.0
  0
INSERT
  5
8408
330
830B
100
AcDbEntity
  8
0
  6
ByBlock
440
 16777216
100
AcDbBlockReference
  2
_OPEN
 10
4552.023871626108
 20
2074.985359678151
 30
0.0
 41
30.0
 42
30.0
 43
30.0
 50
180.0
  0
MTEXT
  5
8409
330
830B
100
AcDbEntity
  8
0
  6
ByBlock
440
 16777216
100
AcDbMText
 10
4704.523871626108
 20
2104.98535967815
 30
0.0
 40
45.0
 41
0.0
 46
0.0
 71
     5
 72
     5
  1
\A1;305
 73
     1
 44
1.0
  0
POINT
  5
840A
330
830B
100
AcDbEntity
  8
DEFPOINTS
  6
ByBlock
 62
     0
440
 16777216
100
AcDbPoint
 10
4857.023871626108
 20
1925.076918000794
 30
0.0
  0
POINT
  5
840B
330
830B
100
AcDbEntity
  8
DEFPOINTS
  6
ByBlock
 62
     0
440
 16777216
100
AcDbPoint
 10
4552.023871626108
 20
1924.75937193641
 30
0.0
  0
POINT
  5
840C
330
830B
100
AcDbEntity
  8
DEFPOINTS
  6
ByBlock
 62
     0
440
 16777216
100
AcDbPoint
 10
4552.023871626108
 20
2074.985359678151
 30
0.0
  0
ENDBLK
  5
840D
330
830B
100
AcDbEntity
  8
0
100
AcDbBlockEnd
  0
BLOCK
  5
840E
330
8317
100
AcDbEntity
  8
0
100
AcDbBlockBegin
  2
*D6
 70
     1
 10
0.0
 20
0.0
 30
0.0
  3
*D6
  1

  0
LINE
  5
840F
330
8317
100
AcDbEntity
  8
0
  6
ByBlock
440
 16777216
100
AcDbLine
 10
4537.023871626108
 20
1914.733391174182
 30
0.0
 11
4411.936439021217
 21
1914.733391174182
 31
0.0
  0
LINE
  5
8410
330
8317
100
AcDbEntity
  8
0
  6
ByBlock
440
 16777216
100
AcDbLine
 10
4537.023871626108
 20
1502.733391174182
 30
0.0
 11
4411.936439021217
 21
1502.733391174182
 31
0.0
  0
LINE
  5
8411
330
8317
100
AcDbEntity
  8
0
  6
ByBlock
440
 16777216
100
AcDbLine
 10
4426.936439021218
 20
1884.733391174182
 30
0.0
 11
4426.936439021218
 21
1532.733391174182
 31
0.0
  0
INSERT
  5
8412
330
8317
100
AcDbEntity
  8
0
  6
ByBlock
440
 16777216
100
AcDbBlockReference
  2
_OPEN
 10
4426.936439021218
 20
1914.733391174182
 30
0.0
 41
30.0
 42
30.0
 43
30.0
 50
90.0
  0
INSERT
  5
8413
330
8317
100
AcDbEntity
  8
0
  6
ByBlock
440
 16777216
100
AcDbBlockReference
  2
_OPEN
 10
4426.936439021218
 20
1502.733391174182
 30
0.0
 41
30.0
 42
30.0
 43
30.0
 50
270.0
  0
MTEXT
  5
8414
330
8317
100
AcDbEntity
  8
0
  6
ByBlock
440
 16777216
100
AcDbMText
 10
4396.936439021217
 20
1708.733391174182
 30
0.0
 40
45.0
 41
0.0
 46
0.0
 71
     5
 72
     5
  1
\A1;412
 11
0.0
 21
1.0
 31
0.0
 73
     1
 44
1.0
  0
POINT
  5
8415
330
8317
100
AcDbEntity
  8
DEFPOINTS
  6
ByBlock
 62
     0
440
 16777216
100
AcDbPoint
 10
4552.023871626108
 20
1914.733391174182
 30
0.0
  0
POINT
  5
8416
330
8317
100
AcDbEntity
  8
DEFPOINTS
  6
ByBlock
 62
     0
440
 16777216
100
AcDbPoint
 10
4552.023871626108
 20
1502.733391174182
 30
0.0
  0
POINT
  5
8417
330
8317
100
AcDbEntity
  8
DEFPOINTS
  6
ByBlock
 62
     0
440
 16777216
100
AcDbPoint
 10
4426.936439021218
 20
1502.733391174182
 30
0.0
  0
ENDBLK
  5
8418
330
8317
100
AcDbEntity
  8
0
100
AcDbBlockEnd
  0
BLOCK
  5
8419
330
8323
100
AcDbEntity
  8
0
100
AcDbBlockBegin
  2
*D7
 70
     1
 10
0.0
 20
0.0
 30
0.0
  3
*D7
  1

  0
LINE
  5
859D
330
8323
100
AcDbEntity
  8
3
440
 16777216
100
AcDbLine
 10
731.1454586423242
 20
1150.733391174182
 30
0.0
 11
455.4238760115985
 21
1150.733391174183
 31
0.0
  0
LINE
  5
859E
330
8323
100
AcDbEntity
  8
3
440
 16777216
100
AcDbLine
 10
470.4238760115987
 20
1460.733391174183
 30
0.0
 11
470.4238760115987
 21
1180.733391174183
 31
0.0
  0
INSERT
  5
859F
330
8323
100
AcDbEntity
  8
3
440
 16777216
100
AcDbBlockReference
  2
_OPEN
 10
470.4238760115987
 20
1490.733391174183
 30
0.0
 41
30.0
 42
30.0
 43
30.0
 50
90.0
  0
INSERT
  5
85A0
330
8323
100
AcDbEntity
  8
3
440
 16777216
100
AcDbBlockReference
  2
_OPEN
 10
470.4238760115986
 20
1150.733391174183
 30
0.0
 41
30.0
 42
30.0
 43
30.0
 50
270.0
  0
MTEXT
  5
85A1
330
8323
100
AcDbEntity
  8
3
440
 16777216
100
AcDbMText
 10
440.4238760115984
 20
1320.733391174182
 30
0.0
 40
45.0
 41
0.0
 46
0.0
 71
     5
 72
     5
  1
\A1;340
 11
0.0000000000000001
 21
1.0
 31
0.0
 73
     1
 44
1.0
  0
POINT
  5
85A2
330
8323
100
AcDbEntity
  8
DEFPOINTS
 62
     0
440
 16777216
100
AcDbPoint
 10
686.1454586423242
 20
1490.733391174182
 30
0.0
  0
POINT
  5
85A3
330
8323
100
AcDbEntity
  8
DEFPOINTS
 62
     0
440
 16777216
100
AcDbPoint
 10
746.1454586423242
 20
1150.733391174182
 30
0.0
  0
POINT
  5
85A4
330
8323
100
AcDbEntity
  8
DEFPOINTS
 62
     0
440
 16777216
100
AcDbPoint
 10
470.4238760115986
 20
1150.733391174183
 30
0.0
  0
ENDBLK
  5
8422
330
8323
100
AcDbEntity
  8
0
100
AcDbBlockEnd
  0
BLOCK
  5
842E
330
833A
100
AcDbEntity
  8
0
100
AcDbBlockBegin
  2
*D8
 70
     1
 10
0.0
 20
0.0
 30
0.0
  3
*D8
  1

  0
LINE
  5
85A5
330
833A
100
AcDbEntity
  8
3
440
 16777216
100
AcDbLine
 10
1339.35317560434
 20
1535.733391174182
 30
0.0
 11
1339.35317560434
 21
2089.98535967815
 31
0.0
  0
LINE
  5
85A6
330
833A
100
AcDbEntity
  8
3
440
 16777216
100
AcDbLine
 10
1026.145458642324
 20
2074.985359678151
 30
0.0
 11
1309.35317560434
 21
2074.985359678151
 31
0.0
  0
INSERT
  5
85A7
330
833A
100
AcDbEntity
  8
3
440
 16777216
100
AcDbBlockReference
  2
_OPEN
 10
996.1454586423242
 20
2074.985359678151
 30
0.0
 41
30.0
 42
30.0
 43
30.0
 50
180.0
  0
INSERT
  5
85A8
330
833A
100
AcDbEntity
  8
3
440
 16777216
100
AcDbBlockReference
  2
_OPEN
 10
1339.35317560434
 20
2074.985359678151
 30
0.0
 41
30.0
 42
30.0
 43
30.0
  0
MTEXT
  5
85A9
330
833A
100
AcDbEntity
  8
3
440
 16777216
100
AcDbMText
 10
1167.749317123332
 20
2104.98535967815
 30
0.0
 40
45.0
 41
0.0
 46
0.0
 71
     5
 72
     5
  1
\A1;342
 73
     1
 44
1.0
  0
POINT
  5
85AA
330
833A
100
AcDbEntity
  8
DEFPOINTS
 62
     0
440
 16777216
100
AcDbPoint
 10
996.1454586423242
 20
1925.076918000794
 30
0.0
  0
POINT
  5
85AB
330
833A
100
AcDbEntity
  8
DEFPOINTS
 62
     0
440
 16777216
100
AcDbPoint
 10
1339.35317560434
 20
1520.733391174182
 30
0.0
  0
POINT
  5
85AC
330
833A
100
AcDbEntity
  8
DEFPOINTS
 62
     0
440
 16777216
100
AcDbPoint
 10
1339.35317560434
 20
2074.985359678151
 30
0.0
  0
ENDBLK
  5
8437
330
833A
100
AcDbEntity
  8
0
100
AcDbBlockEnd
  0
BLOCK
  5
8458
330
8368
100
AcDbEntity
  8
0
100
AcDbBlockBegin
  2
*D9
 70
     1
 10
0.0
 20
0.0
 30
0.0
  3
*D9
  1

  0
LINE
  5
8459
330
8368
100
AcDbEntity
  8
0
  6
ByBlock
440
 16777216
100
AcDbLine
 10
4552.023871626108
 20
1956.728208486754
 30
0.0
 11
4552.023871626108
 21
2203.716419980526
 31
0.0
  0
LINE
  5
845A
330
8368
100
AcDbEntity
  8
0
  6
ByBlock
440
 16777216
100
AcDbLine
 10
5587.023871626108
 20
1230.733391174182
 30
0.0
 11
5587.023871626108
 21
2203.716419980526
 31
0.0
  0
LINE
  5
845B
330
8368
100
AcDbEntity
  8
0
  6
ByBlock
440
 16777216
100
AcDbLine
 10
4582.023871626108
 20
2188.716419980527
 30
0.0
 11
5557.023871626109
 21
2188.716419980527
 31
0.0
  0
INSERT
  5
845C
330
8368
100
AcDbEntity
  8
0
  6
ByBlock
440
 16777216
100
AcDbBlockReference
  2
_OPEN
 10
4552.023871626108
 20
2188.716419980527
 30
0.0
 41
30.0
 42
30.0
 43
30.0
 50
180.0
  0
INSERT
  5
845D
330
8368
100
AcDbEntity
  8
0
  6
ByBlock
440
 16777216
100
AcDbBlockReference
  2
_OPEN
 10
5587.023871626108
 20
2188.716419980527
 30
0.0
 41
30.0
 42
30.0
 43
30.0
  0
MTEXT
  5
845E
330
8368
100
AcDbEntity
  8
0
  6
ByBlock
440
 16777216
100
AcDbMText
 10
5069.523871626109
 20
2218.716419980527
 30
0.0
 40
45.0
 41
0.0
 46
0.0
 71
     5
 72
     5
  1
\A1;1035
 73
     1
 44
1.0
  0
POINT
  5
845F
330
8368
100
AcDbEntity
  8
DEFPOINTS
  6
ByBlock
 62
     0
440
 16777216
100
AcDbPoint
 10
4552.023871626108
 20
1941.728208486754
 30
0.0
  0
POINT
  5
8460
330
8368
100
AcDbEntity
  8
DEFPOINTS
  6
ByBlock
 62
     0
440
 16777216
100
AcDbPoint
 10
5587.023871626108
 20
1215.733391174182
 30
0.0
  0
POINT
  5
8461
330
8368
100
AcDbEntity
  8
DEFPOINTS
  6
ByBlock
 62
     0
440
 16777216
100
AcDbPoint
 10
5587.023871626108
 20
2188.716419980527
 30
0.0
  0
ENDBLK
  5
8462
330
8368
100
AcDbEntity
  8
0
100
AcDbBlockEnd
  0
BLOCK
  5
8483
330
8397
100
AcDbEntity
  8
0
100
AcDbBlockBegin
  2
*D10
 70
     1
 10
0.0
 20
0.0
 30
0.0
  3
*D10
  1

  0
LINE
  5
8484
330
8397
100
AcDbEntity
  8
0
  6
ByBlock
440
 16777216
100
AcDbLine
 10
6542.846169308567
 20
1465.433391174182
 30
0.0
 11
6542.846169308567
 21
2106.075321015809
 31
0.0
  0
LINE
  5
8485
330
8397
100
AcDbEntity
  8
0
  6
ByBlock
440
 16777216
100
AcDbLine
 10
6200.846169308569
 20
2051.572719923992
 30
0.0
 11
6200.846169308569
 21
2106.075321015809
 31
0.0
  0
LINE
  5
8486
330
8397
100
AcDbEntity
  8
0
  6
ByBlock
440
 16777216
100
AcDbLine
 10
6512.846169308568
 20
2091.075321015809
 30
0.0
 11
6230.846169308568
 21
2091.075321015809
 31
0.0
  0
INSERT
  5
8487
330
8397
100
AcDbEntity
  8
0
  6
ByBlock
440
 16777216
100
AcDbBlockReference
  2
_OPEN
 10
6542.846169308567
 20
2091.075321015809
 30
0.0
 41
30.0
 42
30.0
 43
30.0
  0
INSERT
  5
8488
330
8397
100
AcDbEntity
  8
0
  6
ByBlock
440
 16777216
100
AcDbBlockReference
  2
_OPEN
 10
6200.846169308569
 20
2091.075321015809
 30
0.0
 41
30.0
 42
30.0
 43
30.0
 50
180.0
  0
MTEXT
  5
8489
330
8397
100
AcDbEntity
  8
0
  6
ByBlock
440
 16777216
100
AcDbMText
 10
6371.846169308568
 20
2132.861035301523
 30
0.0
 40
45.0
 41
0.0
 46
0.0
 71
     5
 72
     5
  1
\A1;(342)
 73
     1
 44
1.0
  0
POINT
  5
848A
330
8397
100
AcDbEntity
  8
DEFPOINTS
  6
ByBlock
 62
     0
440
 16777216
100
AcDbPoint
 10
6542.846169308567
 20
1450.433391174182
 30
0.0
  0
POINT
  5
848B
330
8397
100
AcDbEntity
  8
DEFPOINTS
  6
ByBlock
 62
     0
440
 16777216
100
AcDbPoint
 10
6200.846169308569
 20
2036.572719923992
 30
0.0
  0
POINT
  5
848C
330
8397
100
AcDbEntity
  8
DEFPOINTS
  6
ByBlock
 62
     0
440
 16777216
100
AcDbPoint
 10
6200.846169308569
 20
2091.075321015809
 30
0.0
  0
ENDBLK
  5
848D
330
8397
100
AcDbEntity
  8
0
100
AcDbBlockEnd
  0
BLOCK
  5
848E
330
83A3
100
AcDbEntity
  8
0
100
AcDbBlockBegin
  2
*D11
 70
     1
 10
0.0
 20
0.0
 30
0.0
  3
*D11
  1

  0
LINE
  5
848F
330
83A3
100
AcDbEntity
  8
0
  6
ByBlock
440
 16777216
100
AcDbLine
 10
5587.023871626108
 20
3226.095989003954
 30
0.0
 11
5587.023871626108
 21
3416.52386999065
 31
0.0
  0
LINE
  5
8490
330
83A3
100
AcDbEntity
  8
0
  6
ByBlock
440
 16777216
100
AcDbLine
 10
4607.023871626108
 20
3226.095989003954
 30
0.0
 11
4607.023871626108
 21
3416.52386999065
 31
0.0
  0
LINE
  5
8491
330
83A3
100
AcDbEntity
  8
0
  6
ByBlock
440
 16777216
100
AcDbLine
 10
5557.023871626109
 20
3401.52386999065
 30
0.0
 11
4637.023871626108
 21
3401.52386999065
 31
0.0
  0
INSERT
  5
8492
330
83A3
100
AcDbEntity
  8
0
  6
ByBlock
440
 16777216
100
AcDbBlockReference
  2
_OPEN
 10
5587.023871626108
 20
3401.52386999065
 30
0.0
 41
30.0
 42
30.0
 43
30.0
  0
INSERT
  5
8493
330
83A3
100
AcDbEntity
  8
0
  6
ByBlock
440
 16777216
100
AcDbBlockReference
  2
_OPEN
 10
4607.023871626108
 20
3401.52386999065
 30
0.0
 41
30.0
 42
30.0
 43
30.0
 50
180.0
  0
MTEXT
  5
8494
330
83A3
100
AcDbEntity
  8
0
  6
ByBlock
440
 16777216
100
AcDbMText
 10
5097.023871626109
 20
3431.52386999065
 30
0.0
 40
45.0
 41
0.0
 46
0.0
 71
     5
 72
     5
  1
\A1;980
 73
     1
 44
1.0
  0
POINT
  5
8495
330
83A3
100
AcDbEntity
  8
DEFPOINTS
  6
ByBlock
 62
     0
440
 16777216
100
AcDbPoint
 10
5587.023871626108
 20
3211.095989003954
 30
0.0
  0
POINT
  5
8496
330
83A3
100
AcDbEntity
  8
DEFPOINTS
  6
ByBlock
 62
     0
440
 16777216
100
AcDbPoint
 10
4607.023871626108
 20
3211.095989003954
 30
0.0
  0
POINT
  5
8497
330
83A3
100
AcDbEntity
  8
DEFPOINTS
  6
ByBlock
 62
     0
440
 16777216
100
AcDbPoint
 10
4607.023871626108
 20
3401.52386999065
 30
0.0
  0
ENDBLK
  5
8498
330
83A3
100
AcDbEntity
  8
0
100
AcDbBlockEnd
  0
BLOCK
  5
8499
330
83AF
100
AcDbEntity
  8
0
100
AcDbBlockBegin
  2
*D12
 70
     1
 10
0.0
 20
0.0
 30
0.0
  3
*D12
  1

  0
LINE
  5
849A
330
83AF
100
AcDbEntity
  8
0
  6
ByBlock
440
 16777216
100
AcDbLine
 10
4592.023871626108
 20
3211.095989003954
 30
0.0
 11
4348.744415125902
 21
3211.095989003954
 31
0.0
  0
LINE
  5
849B
330
83AF
100
AcDbEntity
  8
0
  6
ByBlock
440
 16777216
100
AcDbLine
 10
4592.023871626108
 20
2531.095989003955
 30
0.0
 11
4348.744415125902
 21
2531.095989003955
 31
0.0
  0
LINE
  5
849C
330
83AF
100
AcDbEntity
  8
0
  6
ByBlock
440
 16777216
100
AcDbLine
 10
4363.744415125903
 20
3181.095989003954
 30
0.0
 11
4363.744415125903
 21
2561.095989003955
 31
0.0
  0
INSERT
  5
849D
330
83AF
100
AcDbEntity
  8
0
  6
ByBlock
440
 16777216
100
AcDbBlockReference
  2
_OPEN
 10
4363.744415125903
 20
3211.095989003954
 30
0.0
 41
30.0
 42
30.0
 43
30.0
 50
90.0
  0
INSERT
  5
849E
330
83AF
100
AcDbEntity
  8
0
  6
ByBlock
440
 16777216
100
AcDbBlockReference
  2
_OPEN
 10
4363.744415125903
 20
2531.095989003955
 30
0.0
 41
30.0
 42
30.0
 43
30.0
 50
270.0
  0
MTEXT
  5
849F
330
83AF
100
AcDbEntity
  8
0
  6
ByBlock
440
 16777216
100
AcDbMText
 10
4333.744415125902
 20
2871.095989003954
 30
0.0
 40
45.0
 41
0.0
 46
0.0
 71
     5
 72
     5
  1
\A1;680
 11
0.0
 21
1.0
 31
0.0
 73
     1
 44
1.0
  0
POINT
  5
84A0
330
83AF
100
AcDbEntity
  8
DEFPOINTS
  6
ByBlock
 62
     0
440
 16777216
100
AcDbPoint
 10
4607.023871626108
 20
3211.095989003954
 30
0.0
  0
POINT
  5
84A1
330
83AF
100
AcDbEntity
  8
DEFPOINTS
  6
ByBlock
 62
     0
440
 16777216
100
AcDbPoint
 10
4607.023871626108
 20
2531.095989003955
 30
0.0
  0
POINT
  5
84A2
330
83AF
100
AcDbEntity
  8
DEFPOINTS
  6
ByBlock
 62
     0
440
 16777216
100
AcDbPoint
 10
4363.744415125903
 20
2531.095989003955
 30
0.0
  0
ENDBLK
  5
84A3
330
83AF
100
AcDbEntity
  8
0
100
AcDbBlockEnd
  0
BLOCK
  5
84D6
330
83BB
100
AcDbEntity
  8
0
100
AcDbBlockBegin
  2
*D13
 70
     1
 10
0.0
 20
0.0
 30
0.0
  3
*D13
  1

  0
LINE
  5
8637
330
83BB
100
AcDbEntity
  8
3
440
 16777216
370
    -2
100
AcDbLine
 10
1809.967756324784
 20
1660.733391174182
 30
0.0
 11
1809.967756324784
 21
2106.075321015809
 31
0.0
  0
LINE
  5
8638
330
83BB
100
AcDbEntity
  8
3
440
 16777216
370
    -2
100
AcDbLine
 10
2309.967756324784
 20
2091.075321015809
 30
0.0
 11
1839.967756324784
 21
2091.075321015809
 31
0.0
  0
INSERT
  5
8639
330
83BB
100
AcDbEntity
  8
3
440
 16777216
370
    -2
100
AcDbBlockReference
  2
_OPEN
 10
2339.967756324784
 20
2091.075321015809
 30
0.0
 41
30.0
 42
30.0
 43
30.0
  0
INSERT
  5
863A
330
83BB
100
AcDbEntity
  8
3
440
 16777216
370
    -2
100
AcDbBlockReference
  2
_OPEN
 10
1809.967756324784
 20
2091.075321015809
 30
0.0
 41
30.0
 42
30.0
 43
30.0
 50
180.0
  0
MTEXT
  5
863B
330
83BB
100
AcDbEntity
  8
3
440
 16777216
100
AcDbMText
 10
2074.967756324785
 20
2132.861035301523
 30
0.0
 40
45.0
 41
0.0
 46
0.0
 71
     5
 72
     1
  1
\A1;(530)
 73
     1
 44
1.0
  0
POINT
  5
863C
330
83BB
100
AcDbEntity
  8
DEFPOINTS
 62
     0
440
 16777216
100
AcDbPoint
 10
2339.967756324784
 20
2036.572719923992
 30
0.0
  0
POINT
  5
863D
330
83BB
100
AcDbEntity
  8
DEFPOINTS
 62
     0
440
 16777216
100
AcDbPoint
 10
1809.967756324784
 20
1645.733391174182
 30
0.0
  0
POINT
  5
863E
330
83BB
100
AcDbEntity
  8
DEFPOINTS
 62
     0
440
 16777216
100
AcDbPoint
 10
1809.967756324784
 20
2091.075321015809
 30
0.0
  0
ENDBLK
  5
84DF
330
83BB
100
AcDbEntity
  8
0
100
AcDbBlockEnd
  0
BLOCK
  5
84AE
330
83C6
100
AcDbEntity
  8
0
100
AcDbBlockBegin
  2
*D14
 70
     1
 10
0.0
 20
0.0
 30
0.0
  3
*D14
  1

  0
LINE
  5
84AF
330
83C6
100
AcDbEntity
  8
0
  6
ByBlock
440
 16777216
100
AcDbLine
 10
6465.846169308568
 20
1929.733391174182
 30
0.0
 11
6465.846169308568
 21
1988.706719082051
 31
0.0
  0
LINE
  5
84B0
330
83C6
100
AcDbEntity
  8
0
  6
ByBlock
440
 16777216
100
AcDbLine
 10
5935.846169308568
 20
1929.733391174182
 30
0.0
 11
5935.846169308568
 21
1988.706719082051
 31
0.0
  0
LINE
  5
84B1
330
83C6
100
AcDbEntity
  8
0
  6
ByBlock
440
 16777216
100
AcDbLine
 10
6435.846169308568
 20
1973.70671908205
 30
0.0
 11
5965.846169308568
 21
1973.70671908205
 31
0.0
  0
INSERT
  5
84B2
330
83C6
100
AcDbEntity
  8
0
  6
ByBlock
440
 16777216
100
AcDbBlockReference
  2
_OPEN
 10
6465.846169308568
 20
1973.70671908205
 30
0.0
 41
30.0
 42
30.0
 43
30.0
  0
INSERT
  5
84B3
330
83C6
100
AcDbEntity
  8
0
  6
ByBlock
440
 16777216
100
AcDbBlockReference
  2
_OPEN
 10
5935.846169308568
 20
1973.70671908205
 30
0.0
 41
30.0
 42
30.0
 43
30.0
 50
180.0
  0
MTEXT
  5
84B4
330
83C6
100
AcDbEntity
  8
0
  6
ByBlock
440
 16777216
100
AcDbMText
 10
6200.846169308569
 20
2003.706719082051
 30
0.0
 40
45.0
 41
0.0
 46
0.0
 71
     5
 72
     5
  1
\A1;530
 73
     1
 44
1.0
  0
POINT
  5
84B5
330
83C6
100
AcDbEntity
  8
DEFPOINTS
  6
ByBlock
 62
     0
440
 16777216
100
AcDbPoint
 10
6465.846169308568
 20
1914.733391174182
 30
0.0
  0
POINT
  5
84B6
330
83C6
100
AcDbEntity
  8
DEFPOINTS
  6
ByBlock
 62
     0
440
 16777216
100
AcDbPoint
 10
5935.846169308568
 20
1914.733391174182
 30
0.0
  0
POINT
  5
84B7
330
83C6
100
AcDbEntity
  8
DEFPOINTS
  6
ByBlock
 62
     0
440
 16777216
100
AcDbPoint
 10
5935.846169308568
 20
1973.70671908205
 30
0.0
  0
ENDBLK
  5
84B8
330
83C6
100
AcDbEntity
  8
0
100
AcDbBlockEnd
  0
BLOCK
  5
84C5
330
83DF
100
AcDbEntity
  8
0
100
AcDbBlockBegin
  2
*D15
 70
     1
 10
0.0
 20
0.0
 30
0.0
  3
*D15
  1

  0
LINE
  5
8662
330
83DF
100
AcDbEntity
  8
3
 62
     0
440
 16777216
370
    -2
100
AcDbLine
 10
738.6454586423242
 20
1070.733391174182
 30
0.0
 11
455.4238760115985
 21
1070.733391174182
 31
0.0
  0
LINE
  5
8663
330
83DF
100
AcDbEntity
  8
3
 62
     0
440
 16777216
370
    -2
100
AcDbLine
 10
738.6454586423242
 20
1005.733391174182
 30
0.0
 11
455.4238760115985
 21
1005.733391174182
 31
0.0
  0
LINE
  5
8664
330
83DF
100
AcDbEntity
  8
3
 62
     0
440
 16777216
370
    -2
100
AcDbLine
 10
470.4238760115986
 20
1100.733391174183
 30
0.0
 11
470.4238760115986
 21
1130.733391174183
 31
0.0
  0
LINE
  5
8665
330
83DF
100
AcDbEntity
  8
3
 62
     0
440
 16777216
370
    -2
100
AcDbLine
 10
470.4238760115986
 20
975.7333911741826
 30
0.0
 11
470.4238760115985
 21
842.8762483170396
 31
0.0
  0
LINE
  5
8666
330
83DF
100
AcDbEntity
  8
3
 62
     0
440
 16777216
370
    -2
100
AcDbLine
 10
470.4238760115986
 20
1070.733391174182
 30
0.0
 11
470.4238760115986
 21
1005.733391174182
 31
0.0
  0
INSERT
  5
8667
330
83DF
100
AcDbEntity
  8
3
 62
     0
440
 16777216
370
    -2
100
AcDbBlockReference
  2
_DOT
 10
470.4238760115986
 20
1070.733391174182
 30
0.0
 41
30.0
 42
30.0
 43
30.0
 50
270.0
  0
INSERT
  5
8668
330
83DF
100
AcDbEntity
  8
3
 62
     0
440
 16777216
370
    -2
100
AcDbBlockReference
  2
_OPEN
 10
470.4238760115986
 20
1005.733391174182
 30
0.0
 41
30.0
 42
30.0
 43
30.0
 50
90.0
  0
MTEXT
  5
8669
330
83DF
100
AcDbEntity
  8
3
 62
     0
440
 16777216
100
AcDbMText
 10
432.9238760115984
 20
894.3048197456112
 30
0.0
 40
45.0
 41
0.0
 46
0.0
 71
     5
 72
     1
  1
\A1;65
 11
0.0000000000000001
 21
1.0
 31
0.0
 73
     1
 44
1.0
  0
POINT
  5
866A
330
83DF
100
AcDbEntity
  8
DEFPOINTS
 62
     0
440
 16777216
100
AcDbPoint
 10
746.1454586423242
 20
1070.733391174182
 30
0.0
  0
POINT
  5
866B
330
83DF
100
AcDbEntity
  8
DEFPOINTS
 62
     0
440
 16777216
100
AcDbPoint
 10
746.1454586423242
 20
1005.733391174182
 30
0.0
  0
POINT
  5
866C
330
83DF
100
AcDbEntity
  8
DEFPOINTS
 62
     0
440
 16777216
100
AcDbPoint
 10
470.4238760115986
 20
1005.733391174182
 30
0.0
  0
ENDBLK
  5
84D1
330
83DF
100
AcDbEntity
  8
0
100
AcDbBlockEnd
  0
BLOCK
  5
84E9
330
84E8
100
AcDbEntity
  8
0
100
AcDbBlockBegin
  2
*D16
 70
     1
 10
0.0
 20
0.0
 30
0.0
  3
*D16
  1

  0
LINE
  5
866D
330
84E8
100
AcDbEntity
  8
3
 62
     0
440
 16777216
370
    -2
100
AcDbLine
 10
746.1454586423242
 20
998.2333911741825
 30
0.0
 11
746.1454586423242
 21
888.1511618382264
 31
0.0
  0
LINE
  5
866E
330
84E8
100
AcDbEntity
  8
3
 62
     0
440
 16777216
370
    -2
100
AcDbLine
 10
996.1454586423242
 20
998.2333911741825
 30
0.0
 11
996.1454586423242
 21
888.1511618382264
 31
0.0
  0
LINE
  5
866F
330
84E8
100
AcDbEntity
  8
3
 62
     0
440
 16777216
370
    -2
100
AcDbLine
 10
776.1454586423242
 20
903.1511618382264
 30
0.0
 11
966.1454586423243
 21
903.1511618382264
 31
0.0
  0
INSERT
  5
8670
330
84E8
100
AcDbEntity
  8
3
 62
     0
440
 16777216
370
    -2
100
AcDbBlockReference
  2
_OPEN
 10
746.1454586423242
 20
903.1511618382264
 30
0.0
 41
30.0
 42
30.0
 43
30.0
 50
180.0
  0
INSERT
  5
8671
330
84E8
100
AcDbEntity
  8
3
 62
     0
440
 16777216
370
    -2
100
AcDbBlockReference
  2
_OPEN
 10
996.1454586423242
 20
903.1511618382264
 30
0.0
 41
30.0
 42
30.0
 43
30.0
  0
MTEXT
  5
8672
330
84E8
100
AcDbEntity
  8
3
 62
     0
440
 16777216
100
AcDbMText
 10
871.1454586423242
 20
940.6511618382264
 30
0.0
 40
45.0
 41
0.0
 46
0.0
 71
     5
 72
     1
  1
\A1;250
 73
     1
 44
1.0
  0
POINT
  5
8673
330
84E8
100
AcDbEntity
  8
DEFPOINTS
 62
     0
440
 16777216
100
AcDbPoint
 10
746.1454586423242
 20
1005.733391174182
 30
0.0
  0
POINT
  5
8674
330
84E8
100
AcDbEntity
  8
DEFPOINTS
 62
     0
440
 16777216
100
AcDbPoint
 10
996.1454586423242
 20
1005.733391174182
 30
0.0
  0
POINT
  5
8675
330
84E8
100
AcDbEntity
  8
DEFPOINTS
 62
     0
440
 16777216
100
AcDbPoint
 10
996.1454586423242
 20
903.1511618382264
 30
0.0
  0
ENDBLK
  5
84F3
330
84E8
100
AcDbEntity
  8
0
100
AcDbBlockEnd
  0
BLOCK
  5
84F6
330
84F5
100
AcDbEntity
  8
0
100
AcDbBlockBegin
  2
*D17
 70
     1
 10
0.0
 20
0.0
 30
0.0
  3
*D17
  1

  0
LINE
  5
8676
330
84F5
100
AcDbEntity
  8
3
 62
     0
440
 16777216
370
    -2
100
AcDbLine
 10
996.1454586423242
 20
998.2333911741825
 30
0.0
 11
996.1454586423242
 21
888.1511618382264
 31
0.0
  0
LINE
  5
8677
330
84F5
100
AcDbEntity
  8
3
 62
     0
440
 16777216
370
    -2
100
AcDbLine
 10
1726.145458642324
 20
998.2333911741825
 30
0.0
 11
1726.145458642324
 21
888.1511618382264
 31
0.0
  0
LINE
  5
8678
330
84F5
100
AcDbEntity
  8
3
 62
     0
440
 16777216
370
    -2
100
AcDbLine
 10
1026.145458642324
 20
903.1511618382264
 30
0.0
 11
1696.145458642324
 21
903.1511618382264
 31
0.0
  0
INSERT
  5
8679
330
84F5
100
AcDbEntity
  8
3
 62
     0
440
 16777216
370
    -2
100
AcDbBlockReference
  2
_OPEN
 10
996.1454586423242
 20
903.1511618382264
 30
0.0
 41
30.0
 42
30.0
 43
30.0
 50
180.0
  0
INSERT
  5
867A
330
84F5
100
AcDbEntity
  8
3
 62
     0
440
 16777216
370
    -2
100
AcDbBlockReference
  2
_OPEN
 10
1726.145458642324
 20
903.1511618382264
 30
0.0
 41
30.0
 42
30.0
 43
30.0
  0
MTEXT
  5
867B
330
84F5
100
AcDbEntity
  8
3
 62
     0
440
 16777216
100
AcDbMText
 10
1361.145458642324
 20
940.6511618382264
 30
0.0
 40
45.0
 41
0.0
 46
0.0
 71
     5
 72
     1
  1
\A1;730
 73
     1
 44
1.0
  0
POINT
  5
867C
330
84F5
100
AcDbEntity
  8
DEFPOINTS
 62
     0
440
 16777216
100
AcDbPoint
 10
996.1454586423242
 20
1005.733391174182
 30
0.0
  0
POINT
  5
867D
330
84F5
100
AcDbEntity
  8
DEFPOINTS
 62
     0
440
 16777216
100
AcDbPoint
 10
1726.145458642324
 20
1005.733391174182
 30
0.0
  0
POINT
  5
867E
330
84F5
100
AcDbEntity
  8
DEFPOINTS
 62
     0
440
 16777216
100
AcDbPoint
 10
1726.145458642324
 20
903.1511618382264
 30
0.0
  0
ENDBLK
  5
8500
330
84F5
100
AcDbEntity
  8
0
100
AcDbBlockEnd
  0
BLOCK
  5
8503
330
8502
100
AcDbEntity
  8
0
100
AcDbBlockBegin
  2
*D18
 70
     1
 10
0.0
 20
0.0
 30
0.0
  3
*D18
  1

  0
LINE
  5
867F
330
8502
100
AcDbEntity
  8
3
 62
     0
440
 16777216
370
    -2
100
AcDbLine
 10
1966.967756324784
 20
998.2333911741825
 30
0.0
 11
1966.967756324784
 21
888.1511618382264
 31
0.0
  0
LINE
  5
8680
330
8502
100
AcDbEntity
  8
3
 62
     0
440
 16777216
370
    -2
100
AcDbLine
 10
2339.967756324784
 20
998.2333911741823
 30
0.0
 11
2339.967756324784
 21
888.1511618382264
 31
0.0
  0
LINE
  5
8681
330
8502
100
AcDbEntity
  8
3
 62
     0
440
 16777216
370
    -2
100
AcDbLine
 10
1996.967756324784
 20
903.1511618382264
 30
0.0
 11
2309.967756324784
 21
903.1511618382264
 31
0.0
  0
INSERT
  5
8682
330
8502
100
AcDbEntity
  8
3
 62
     0
440
 16777216
370
    -2
100
AcDbBlockReference
  2
_OPEN
 10
1966.967756324784
 20
903.1511618382264
 30
0.0
 41
30.0
 42
30.0
 43
30.0
 50
180.0
  0
INSERT
  5
8683
330
8502
100
AcDbEntity
  8
3
 62
     0
440
 16777216
370
    -2
100
AcDbBlockReference
  2
_OPEN
 10
2339.967756324784
 20
903.1511618382264
 30
0.0
 41
30.0
 42
30.0
 43
30.0
  0
MTEXT
  5
8684
330
8502
100
AcDbEntity
  8
3
 62
     0
440
 16777216
100
AcDbMText
 10
2153.467756324785
 20
940.6511618382264
 30
0.0
 40
45.0
 41
0.0
 46
0.0
 71
     5
 72
     1
  1
\A1;373
 73
     1
 44
1.0
  0
POINT
  5
8685
330
8502
100
AcDbEntity
  8
DEFPOINTS
 62
     0
440
 16777216
100
AcDbPoint
 10
1966.967756324784
 20
1005.733391174182
 30
0.0
  0
POINT
  5
8686
330
8502
100
AcDbEntity
  8
DEFPOINTS
 62
     0
440
 16777216
100
AcDbPoint
 10
2339.967756324784
 20
1005.733391174182
 30
0.0
  0
POINT
  5
8687
330
8502
100
AcDbEntity
  8
DEFPOINTS
 62
     0
440
 16777216
100
AcDbPoint
 10
2339.967756324784
 20
903.1511618382264
 30
0.0
  0
ENDBLK
  5
850D
330
8502
100
AcDbEntity
  8
0
100
AcDbBlockEnd
  0
BLOCK
  5
8510
330
850F
100
AcDbEntity
  8
0
100
AcDbBlockBegin
  2
*D19
 70
     1
 10
0.0
 20
0.0
 30
0.0
  3
*D19
  1

  0
LINE
  5
8688
330
850F
100
AcDbEntity
  8
3
 62
     0
440
 16777216
370
    -2
100
AcDbLine
 10
2339.967756324784
 20
998.2333911741823
 30
0.0
 11
2339.967756324784
 21
888.1511618382264
 31
0.0
  0
LINE
  5
8689
330
850F
100
AcDbEntity
  8
3
 62
     0
440
 16777216
370
    -2
100
AcDbLine
 10
2646.967756324784
 20
998.2333911741823
 30
0.0
 11
2646.967756324784
 21
888.1511618382264
 31
0.0
  0
LINE
  5
868A
330
850F
100
AcDbEntity
  8
3
 62
     0
440
 16777216
370
    -2
100
AcDbLine
 10
2369.967756324784
 20
903.1511618382264
 30
0.0
 11
2616.967756324784
 21
903.1511618382264
 31
0.0
  0
INSERT
  5
868B
330
850F
100
AcDbEntity
  8
3
 62
     0
440
 16777216
370
    -2
100
AcDbBlockReference
  2
_OPEN
 10
2339.967756324784
 20
903.1511618382264
 30
0.0
 41
30.0
 42
30.0
 43
30.0
 50
180.0
  0
INSERT
  5
868C
330
850F
100
AcDbEntity
  8
3
 62
     0
440
 16777216
370
    -2
100
AcDbBlockReference
  2
_OPEN
 10
2646.967756324784
 20
903.1511618382264
 30
0.0
 41
30.0
 42
30.0
 43
30.0
  0
MTEXT
  5
868D
330
850F
100
AcDbEntity
  8
3
 62
     0
440
 16777216
100
AcDbMText
 10
2493.467756324784
 20
940.6511618382264
 30
0.0
 40
45.0
 41
0.0
 46
0.0
 71
     5
 72
     1
  1
\A1;307
 73
     1
 44
1.0
  0
POINT
  5
868E
330
850F
100
AcDbEntity
  8
DEFPOINTS
 62
     0
440
 16777216
100
AcDbPoint
 10
2339.967756324784
 20
1005.733391174182
 30
0.0
  0
POINT
  5
868F
330
850F
100
AcDbEntity
  8
DEFPOINTS
 62
     0
440
 16777216
100
AcDbPoint
 10
2646.967756324784
 20
1005.733391174182
 30
0.0
  0
POINT
  5
8690
330
850F
100
AcDbEntity
  8
DEFPOINTS
 62
     0
440
 16777216
100
AcDbPoint
 10
2646.967756324784
 20
903.1511618382264
 30
0.0
  0
ENDBLK
  5
851A
330
850F
100
AcDbEntity
  8
0
100
AcDbBlockEnd
  0
BLOCK
  5
851D
330
851C
100
AcDbEntity
  8
0
100
AcDbBlockBegin
  2
_NONE
 70
     0
 10
0.0
 20
0.0
 30
0.0
  3
_NONE
  1

  0
CIRCLE
  5
851E
330
851C
100
AcDbEntity
  8
0
  6
ByBlock
 62
     0
100
AcDbCircle
 10
0.0
 20
0.0
 30
0.0
 40
0.25
  0
ENDBLK
  5
851F
330
851C
100
AcDbEntity
  8
0
100
AcDbBlockEnd
  0
BLOCK
  5
8539
330
8538
100
AcDbEntity
  8
0
100
AcDbBlockBegin
  2
*D21
 70
     1
 10
0.0
 20
0.0
 30
0.0
  3
*D21
  1

  0
LINE
  5
8691
330
8538
100
AcDbEntity
  8
3
 62
     0
440
 16777216
370
    -2
100
AcDbLine
 10
469.2111156574682
 20
1070.733391174182
 30
0.0
 11
469.2111156574682
 21
1150.733391174183
 31
0.0
  0
MTEXT
  5
8692
330
8538
100
AcDbEntity
  8
3
 62
     0
440
 16777216
100
AcDbMText
 10
397.4254013717538
 20
1110.733391174183
 30
0.0
 40
45.0
 41
0.0
 46
0.0
 71
     5
 72
     1
  1
\A1;(80)
 11
0.0000000000000001
 21
1.0
 31
0.0
 73
     1
 44
1.0
  0
POINT
  5
8693
330
8538
100
AcDbEntity
  8
DEFPOINTS
 62
     0
440
 16777216
100
AcDbPoint
 10
746.1454586423242
 20
1070.733391174182
 30
0.0
  0
POINT
  5
8694
330
8538
100
AcDbEntity
  8
DEFPOINTS
 62
     0
440
 16777216
100
AcDbPoint
 10
746.1454586423242
 20
1150.733391174182
 30
0.0
  0
POINT
  5
8695
330
8538
100
AcDbEntity
  8
DEFPOINTS
 62
     0
440
 16777216
100
AcDbPoint
 10
469.2111156574682
 20
1150.733391174183
 30
0.0
  0
ENDBLK
  5
853F
330
8538
100
AcDbEntity
  8
0
100
AcDbBlockEnd
  0
BLOCK
  5
8542
330
8541
100
AcDbEntity
  8
0
100
AcDbBlockBegin
  2
*D22
 70
     1
 10
0.0
 20
0.0
 30
0.0
  3
*D22
  1

  0
LINE
  5
8696
330
8541
100
AcDbEntity
  8
3
 62
     0
440
 16777216
370
    -2
100
AcDbLine
 10
683.6454586423242
 20
1914.733391174182
 30
0.0
 11
325.0830961425547
 21
1914.733391174183
 31
0.0
  0
LINE
  5
8697
330
8541
100
AcDbEntity
  8
3
 62
     0
440
 16777216
370
    -2
100
AcDbLine
 10
738.6454586423242
 20
1005.733391174182
 30
0.0
 11
325.0830961425545
 21
1005.733391174182
 31
0.0
  0
LINE
  5
8698
330
8541
100
AcDbEntity
  8
3
 62
     0
440
 16777216
370
    -2
100
AcDbLine
 10
340.0830961425547
 20
1884.733391174183
 30
0.0
 11
340.0830961425545
 21
1035.733391174182
 31
0.0
  0
INSERT
  5
8699
330
8541
100
AcDbEntity
  8
3
 62
     0
440
 16777216
370
    -2
100
AcDbBlockReference
  2
_OPEN
 10
340.0830961425547
 20
1914.733391174183
 30
0.0
 41
30.0
 42
30.0
 43
30.0
 50
90.0
  0
INSERT
  5
869A
330
8541
100
AcDbEntity
  8
3
 62
     0
440
 16777216
370
    -2
100
AcDbBlockReference
  2
_OPEN
 10
340.0830961425545
 20
1005.733391174182
 30
0.0
 41
30.0
 42
30.0
 43
30.0
 50
270.0
  0
MTEXT
  5
869B
330
8541
100
AcDbEntity
  8
3
 62
     0
440
 16777216
100
AcDbMText
 10
290.7973818568401
 20
1460.233391174182
 30
0.0
 40
45.0
 41
0.0
 46
0.0
 71
     5
 72
     1
  1
\A1;(909)
 11
0.0000000000000001
 21
1.0
 31
0.0
 73
     1
 44
1.0
  0
POINT
  5
869C
330
8541
100
AcDbEntity
  8
DEFPOINTS
 62
     0
440
 16777216
100
AcDbPoint
 10
691.1454586423242
 20
1914.733391174182
 30
0.0
  0
POINT
  5
869D
330
8541
100
AcDbEntity
  8
DEFPOINTS
 62
     0
440
 16777216
100
AcDbPoint
 10
746.1454586423242
 20
1005.733391174182
 30
0.0
  0
POINT
  5
869E
330
8541
100
AcDbEntity
  8
DEFPOINTS
 62
     0
440
 16777216
100
AcDbPoint
 10
340.0830961425545
 20
1005.733391174182
 30
0.0
  0
ENDBLK
  5
854C
330
8541
100
AcDbEntity
  8
0
100
AcDbBlockEnd
  0
ENDSEC
  0
SECTION
  2
ENTITIES
  0
LINE
  5
7E8A
330
19
100
AcDbEntity
  8
4
100
AcDbLine
 10
2775.0
 20
750.0
 30
0.0
 11
2775.0
 21
450.0
 31
0.0
  0
LINE
  5
7E8B
330
19
100
AcDbEntity
  8
4
100
AcDbLine
 10
1725.0
 20
750.0
 30
0.0
 11
1725.0
 21
450.0
 31
0.0
  0
LINE
  5
7E8C
330
19
100
AcDbEntity
  8
4
100
AcDbLine
 10
975.0
 20
750.0
 30
0.0
 11
975.0
 21
450.0
 31
0.0
  0
LINE
  5
7E8F
330
19
100
AcDbEntity
  8
4
100
AcDbLine
 10
975.0
 20
450.0
 30
0.0
 11
2775.0
 21
450.0
 31
0.0
  0
LINE
  5
7E90
330
19
100
AcDbEntity
  8
4
100
AcDbLine
 10
975.0
 20
600.0
 30
0.0
 11
2775.0
 21
600.0
 31
0.0
  0
TEXT
  5
7E91
330
19
100
AcDbEntity
  8
4
100
AcDbText
 10
1032.753121270352
 20
647.3145387999193
 30
0.0
 40
75.0
  1
機器名称
100
AcDbText
  0
TEXT
  5
7E92
330
19
100
AcDbEntity
  8
4
100
AcDbText
 10
1029.387159037196
 20
482.4677350980164
 30
0.0
 40
75.0
  1
機器型番
100
AcDbText
  0
TEXT
  5
7E93
330
19
100
AcDbEntity
  8
4
100
AcDbText
 10
1765.683671544667
 20
634.5324550190777
 30
0.0
 40
60.0
  1
ミツヤリミットロードファン
100
AcDbText
  0
TEXT
  5
7E94
330
19
100
AcDbEntity
  8
4
100
AcDbText
 10
1779.981743378221
 20
475.739376419915
 30
0.0
 40
75.0
  1
LL#2 1/2-5
100
AcDbText
  0
TEXT
  5
7E96
330
19
100
AcDbEntity
  8
4
100
AcDbText
 10
1206.686190474771
 20
3575.143261998774
 30
0.0
 40
80.99999999999999
  1
床置防振ベット
100
AcDbText
  0
TEXT
  5
7E97
330
19
100
AcDbEntity
  8
4
100
AcDbText
 10
474.2513899941696
 20
3800.821464298947
 30
0.0
 40
108.0
  1
遠心式両吸込両持リミットロードファン
100
AcDbText
  0
LINE
  5
7E98
330
19
100
AcDbEntity
  8
4
100
AcDbLine
 10
375.0
 20
3704.113131397207
 30
0.0
 11
2775.0
 21
3704.113131397207
 31
0.0
  0
LINE
  5
7E99
330
19
100
AcDbEntity
  8
4
100
AcDbLine
 10
375.0
 20
4004.113131397207
 30
0.0
 11
2775.0
 21
4004.113131397207
 31
0.0
  0
LINE
  5
7E9A
330
19
100
AcDbEntity
  8
4
100
AcDbLine
 10
975.0
 20
750.0
 30
0.0
 11
2775.0
 21
750.0
 31
0.0
  0
LINE
  5
7E9B
330
19
100
AcDbEntity
  8
4
100
AcDbLine
 10
375.0
 20
4004.113131397207
 30
0.0
 11
375.0
 21
3704.113131397207
 31
0.0
  0
TEXT
  5
7E9C
330
19
100
AcDbEntity
  8
4
100
AcDbText
 10
521.2153072167239
 20
3573.479216319515
 30
0.0
 40
80.99999999999999
  1
左回転左横向
100
AcDbText
  0
TEXT
  5
7E9D
330
19
100
AcDbEntity
  8
4
100
AcDbText
 10
2203.454338873935
 20
4059.091622242963
 30
0.0
 40
84.00000000000002
  1
No.
100
AcDbText
  0
TEXT
  5
7E9E
330
19
100
AcDbEntity
  8
4
100
AcDbText
 10
1966.94409390002
 20
3575.143261998774
 30
0.0
 40
80.99999999999999
  1
縮尺：1/15
100
AcDbText
  0
LINE
  5
7E9F
330
19
100
AcDbEntity
  8
4
100
AcDbLine
 10
2775.0
 20
4004.113131397207
 30
0.0
 11
2775.0
 21
3704.113131397207
 31
0.0
  0
LINE
  5
7EA0
330
19
100
AcDbEntity
  8
4
100
AcDbLine
 10
3150.0
 20
4425.0
 30
0.0
 11
3150.0
 21
4425.0
 31
0.0
  0
LINE
  5
7EA1
330
19
100
AcDbEntity
  8
4
100
AcDbLine
 10
2160.926133539797
 20
4021.895374688102
 30
0.0
 11
2160.926133539797
 21
4179.978392324628
 31
0.0
  0
LINE
  5
7EA2
330
19
100
AcDbEntity
  8
4
100
AcDbLine
 10
2160.926133539797
 20
4179.978392324628
 30
0.0
 11
2775.0
 21
4179.978392324628
 31
0.0
  0
LINE
  5
7EA3
330
19
100
AcDbEntity
  8
4
100
AcDbLine
 10
2775.0
 20
4179.978392324628
 30
0.0
 11
2775.0
 21
4021.895374688102
 31
0.0
  0
LINE
  5
7EA4
330
19
100
AcDbEntity
  8
4
100
AcDbLine
 10
2775.0
 20
4021.895374688102
 30
0.0
 11
2160.926133539797
 21
4021.895374688102
 31
0.0
  0
LINE
  5
7EA5
330
19
100
AcDbEntity
  8
4
100
AcDbLine
 10
0.0
 20
0.0
 30
0.0
 11
0.0
 21
4425.0
 31
0.0
  0
LINE
  5
7EA6
330
19
100
AcDbEntity
  8
4
100
AcDbLine
 10
0.0
 20
4425.0
 30
0.0
 11
3150.0
 21
4425.0
 31
0.0
  0
LINE
  5
7EA7
330
19
100
AcDbEntity
  8
4
100
AcDbLine
 10
3150.0
 20
4425.0
 30
0.0
 11
3150.0
 21
0.0
 31
0.0
  0
LINE
  5
7EA8
330
19
100
AcDbEntity
  8
4
100
AcDbLine
 10
3150.0
 20
0.0
 30
0.0
 11
0.0
 21
0.0
 31
0.0
  0
LINE
  5
8240
330
19
100
AcDbEntity
  8
1
100
AcDbLine
 10
694.1454586423242
 20
1475.733391174182
 30
0.0
 11
694.1454586423242
 21
1941.728208486754
 31
0.0
  0
LINE
  5
8241
330
19
100
AcDbEntity
  8
1
100
AcDbLine
 10
691.1454586423242
 20
1475.733391174182
 30
0.0
 11
694.1454586423242
 21
1475.733391174182
 31
0.0
  0
LINE
  5
8242
330
19
100
AcDbEntity
  8
1
100
AcDbLine
 10
691.1454586423242
 20
1941.728208486754
 30
0.0
 11
694.1454586423242
 21
1941.728208486754
 31
0.0
  0
DIMENSION
  5
8243
330
19
100
AcDbEntity
  8
3
100
AcDbDimension
280
     0
  2
*D3
 10
470.4238760115986
 20
1490.733391174182
 30
0.0
 11
440.4238760115986
 21
1702.733391174183
 31
0.0
 12
-3860.878412983785
 22
0.0
 32
0.0
 70
    32
 71
     5
 42
-1.0
 73
     0
 74
     0
 75
     0
  3
MATSU
100
AcDbAlignedDimension
 13
691.1454586423242
 23
1914.733391174182
 33
0.0
 14
686.1454586423242
 24
1490.733391174182
 34
0.0
 50
90.0
100
AcDbRotatedDimension
1001
ACAD
1000
DSTYLE
1002
{
1070
    40
1040
15.0
1002
}
  0
DIMENSION
  5
8244
330
19
100
AcDbEntity
  8
3
100
AcDbDimension
280
     0
  2
*D4
 10
2779.24627674231
 20
1290.733391174182
 30
0.0
 11
2749.24627674231
 21
1490.733391174182
 31
0.0
 12
-3860.878412983785
 22
0.0
 32
0.0
 70
    32
  1
φ400
 71
     5
 42
-1.0
 73
     0
 74
     0
 75
     0
  3
MATSU
100
AcDbAlignedDimension
 13
2606.967756324785
 23
1690.733391174182
 33
0.0
 14
2606.967756324785
 24
1290.733391174182
 34
0.0
 50
90.0
100
AcDbRotatedDimension
1001
ACAD
1000
DSTYLE
1002
{
1070
    40
1040
15.0
1002
}
  0
LINE
  5
8245
330
19
100
AcDbEntity
  8
2
100
AcDbLine
 10
1795.25993132014
 20
1490.733391174182
 30
0.0
 11
2684.967756324784
 21
1490.733391174182
 31
0.0
  0
LINE
  5
8246
330
19
100
AcDbEntity
  8
1
100
AcDbLine
 10
2604.967756324784
 20
1914.733391174182
 30
0.0
 11
2604.967756324784
 21
1225.733391174182
 31
0.0
  0
LINE
  5
8247
330
19
100
AcDbEntity
  8
1
100
AcDbLine
 10
2074.967756324785
 20
1914.733391174182
 30
0.0
 11
2074.967756324785
 21
1574.686473655705
 31
0.0
  0
LINE
  5
8248
330
19
100
AcDbEntity
  8
1
100
AcDbLine
 10
716.1454586423242
 20
1502.733391174182
 30
0.0
 11
716.1454586423242
 21
1912.930112485658
 31
0.0
  0
DIMENSION
  5
8249
330
19
100
AcDbEntity
  8
3
100
AcDbDimension
280
     0
  2
*D5
 10
691.1454586423242
 20
2074.985359678151
 30
0.0
 11
843.6454586423241
 21
2104.98535967815
 31
0.0
 12
-3860.878412983785
 22
0.0
 32
0.0
 70
    32
 71
     5
 42
-1.0
 73
     0
 74
     0
 75
     0
  3
MATSU
100
AcDbAlignedDimension
 13
996.1454586423242
 23
1925.076918000794
 33
0.0
 14
691.1454586423242
 24
1924.75937193641
 34
0.0
100
AcDbRotatedDimension
1001
ACAD
1000
DSTYLE
1002
{
1070
    40
1040
15.0
1002
}
  0
DIMENSION
  5
824A
330
19
100
AcDbEntity
  8
3
100
AcDbDimension
280
     0
  2
*D6
 10
566.0580260374335
 20
1502.733391174182
 30
0.0
 11
536.0580260374335
 21
1708.733391174182
 31
0.0
 12
-3860.878412983785
 22
0.0
 32
0.0
 70
    32
 71
     5
 42
-1.0
 73
     0
 74
     0
 75
     0
  3
MATSU
100
AcDbAlignedDimension
 13
691.1454586423242
 23
1914.733391174182
 33
0.0
 14
691.1454586423242
 24
1502.733391174182
 34
0.0
 50
90.0
100
AcDbRotatedDimension
1001
ACAD
1000
DSTYLE
1002
{
1070
    40
1040
15.0
1002
}
  0
LINE
  5
824B
330
19
100
AcDbEntity
  8
1
100
AcDbLine
 10
762.2830083201979
 20
1502.733391174182
 30
0.0
 11
691.1454586423242
 21
1502.733391174182
 31
0.0
  0
LINE
  5
824C
330
19
100
AcDbEntity
  8
1
100
AcDbLine
 10
691.1454586423242
 20
1475.733391174182
 30
0.0
 11
691.1454586423242
 21
1941.728208486754
 31
0.0
  0
LINE
  5
824D
330
19
100
AcDbEntity
  8
2
100
AcDbLine
 10
686.1454586423242
 20
1490.733391174182
 30
0.0
 11
1361.493827413717
 21
1490.733391174182
 31
0.0
  0
LINE
  5
824E
330
19
100
AcDbEntity
  8
2
100
AcDbLine
 10
996.1454586423242
 20
1925.076918000794
 30
0.0
 11
996.145458642324
 21
1005.733391174183
 31
0.0
  0
LINE
  5
824F
330
19
100
AcDbEntity
  8
1
100
AcDbLine
 10
750.799057765851
 20
1492.733391174182
 30
0.0
 11
716.1454586423242
 21
1492.733391174182
 31
0.0
  0
LINE
  5
8250
330
19
100
AcDbEntity
  8
2
100
AcDbLine
 10
2339.967756324784
 20
1956.826549225511
 30
0.0
 11
2339.967756324784
 21
1005.733391174182
 31
0.0
  0
LINE
  5
8259
330
19
100
AcDbEntity
  8
1
100
AcDbLine
 10
2074.967756324785
 20
1914.733391174182
 30
0.0
 11
2604.967756324784
 21
1914.733391174182
 31
0.0
  0
CIRCLE
  5
825D
330
19
100
AcDbEntity
  8
1
100
AcDbCircle
 10
996.1454586423242
 20
1490.733391174182
 30
0.0
 40
200.0
  0
CIRCLE
  5
825E
330
19
100
AcDbEntity
  8
1
100
AcDbCircle
 10
996.1454586423242
 20
1490.733391174182
 30
0.0
 40
225.0
  0
LINE
  5
825F
330
19
100
AcDbEntity
  8
1
100
AcDbLine
 10
746.1454586423242
 20
1150.733391174182
 30
0.0
 11
1726.145458642324
 21
1150.733391174182
 31
0.0
  0
LINE
  5
8260
330
19
100
AcDbEntity
  8
1
100
AcDbLine
 10
746.1454586423242
 20
1070.733391174182
 30
0.0
 11
1726.145458642324
 21
1070.733391174182
 31
0.0
  0
LINE
  5
8261
330
19
100
AcDbEntity
  8
1
100
AcDbLine
 10
746.1454586423242
 20
1005.733391174182
 30
0.0
 11
1726.145458642324
 21
1005.733391174182
 31
0.0
  0
LINE
  5
8262
330
19
100
AcDbEntity
  8
1
100
AcDbLine
 10
746.1454586423242
 20
1225.733391174183
 30
0.0
 11
746.1454586423242
 21
1150.733391174182
 31
0.0
  0
LINE
  5
8263
330
19
100
AcDbEntity
  8
1
100
AcDbLine
 10
1726.145458642324
 20
1225.733391174183
 30
0.0
 11
1726.145458642324
 21
1150.733391174182
 31
0.0
  0
LINE
  5
8264
330
19
100
AcDbEntity
  8
1
100
AcDbLine
 10
746.1454586423242
 20
1070.733391174182
 30
0.0
 11
746.1454586423242
 21
1005.733391174182
 31
0.0
  0
LINE
  5
8265
330
19
100
AcDbEntity
  8
1
100
AcDbLine
 10
1726.145458642324
 20
1070.733391174182
 30
0.0
 11
1726.145458642324
 21
1005.733391174182
 31
0.0
  0
DIMENSION
  5
8266
330
19
100
AcDbEntity
  8
3
100
AcDbDimension
280
     0
  2
*D7
 10
470.4238760115986
 20
1150.733391174183
 30
0.0
 11
440.4238760115984
 21
1320.733391174182
 31
0.0
 70
    32
 71
     5
 42
-1.0
 73
     0
 74
     0
 75
     0
  3
MATSU
100
AcDbAlignedDimension
 13
686.1454586423242
 23
1490.733391174182
 33
0.0
 14
746.1454586423242
 24
1150.733391174182
 34
0.0
 50
270.0
100
AcDbRotatedDimension
1001
ACAD
1000
DSTYLE
1002
{
1070
   287
1070
     4
1070
    40
1040
15.0
1070
    75
1070
     1
1070
   279
1070
     1
1070
   289
1070
     3
1002
}
  0
DIMENSION
  5
8268
330
19
100
AcDbEntity
  8
3
100
AcDbDimension
280
     0
  2
*D8
 10
1339.35317560434
 20
2074.985359678151
 30
0.0
 11
1167.749317123332
 21
2104.98535967815
 31
0.0
 70
    32
  1
342
 71
     5
 42
-1.0
 73
     0
 74
     0
 75
     0
  3
MATSU
100
AcDbAlignedDimension
 13
996.1454586423242
 23
1925.076918000794
 33
0.0
 14
1339.35317560434
 24
1520.733391174182
 34
0.0
100
AcDbRotatedDimension
1001
ACAD
1000
DSTYLE
1002
{
1070
   287
1070
     4
1070
    40
1040
15.0
1070
    75
1070
     1
1070
   279
1070
     1
1070
   289
1070
     3
1002
}
  0
LINE
  5
826C
330
19
100
AcDbEntity
  8
2
100
AcDbLine
 10
1516.145458642324
 20
1644.969391174182
 30
0.0
 11
1516.145458642324
 21
1005.733391174182
 31
0.0
  0
LINE
  5
826D
330
19
100
AcDbEntity
  8
2
100
AcDbLine
 10
1748.634648541515
 20
1432.733391174182
 30
0.0
 11
1293.068630299698
 21
1432.733391174182
 31
0.0
  0
LINE
  5
826E
330
19
100
AcDbEntity
  8
1
100
AcDbLine
 10
1966.967756324784
 20
1150.733391174182
 30
0.0
 11
2646.967756324784
 21
1150.733391174182
 31
0.0
  0
LINE
  5
826F
330
19
100
AcDbEntity
  8
1
100
AcDbLine
 10
1966.967756324784
 20
1070.733391174182
 30
0.0
 11
2646.967756324784
 21
1070.733391174182
 31
0.0
  0
LINE
  5
8270
330
19
100
AcDbEntity
  8
1
100
AcDbLine
 10
1966.967756324784
 20
1005.733391174182
 30
0.0
 11
2646.967756324784
 21
1005.733391174182
 31
0.0
  0
LINE
  5
8271
330
19
100
AcDbEntity
  8
1
100
AcDbLine
 10
2646.967756324784
 20
1225.733391174182
 30
0.0
 11
2646.967756324784
 21
1150.733391174182
 31
0.0
  0
LINE
  5
8272
330
19
100
AcDbEntity
  8
1
100
AcDbLine
 10
1966.967756324784
 20
1225.733391174182
 30
0.0
 11
1966.967756324784
 21
1150.733391174182
 31
0.0
  0
LINE
  5
8273
330
19
100
AcDbEntity
  8
1
100
AcDbLine
 10
2646.967756324784
 20
1070.733391174182
 30
0.0
 11
2646.967756324784
 21
1005.733391174182
 31
0.0
  0
LINE
  5
8274
330
19
100
AcDbEntity
  8
1
100
AcDbLine
 10
1966.967756324784
 20
1070.733391174182
 30
0.0
 11
1966.967756324784
 21
1005.733391174182
 31
0.0
  0
DIMENSION
  5
8275
330
19
100
AcDbEntity
  8
3
100
AcDbDimension
280
     0
  2
*D9
 10
1726.145458642324
 20
2188.716419980527
 30
0.0
 11
1208.645458642324
 21
2218.716419980527
 31
0.0
 12
-3860.878412983785
 22
0.0
 32
0.0
 70
    32
 71
     5
 42
-1.0
 73
     0
 74
     0
 75
     0
  3
MATSU
100
AcDbAlignedDimension
 13
691.1454586423242
 23
1941.728208486754
 33
0.0
 14
1726.145458642324
 24
1215.733391174182
 34
0.0
100
AcDbRotatedDimension
1001
ACAD
1000
DSTYLE
1002
{
1070
    40
1040
15.0
1002
}
  0
LINE
  5
8279
330
19
100
AcDbEntity
  8
1
100
AcDbLine
 10
2681.967756324784
 20
1447.433391174182
 30
0.0
 11
2681.967756324784
 21
1387.433391174182
 31
0.0
  0
LINE
  5
827A
330
19
100
AcDbEntity
  8
1
100
AcDbLine
 10
2611.967756324784
 20
1457.433391174182
 30
0.0
 11
2611.967756324784
 21
1377.433391174182
 31
0.0
  0
LINE
  5
827B
330
19
100
AcDbEntity
  8
1
100
AcDbLine
 10
2611.967756324784
 20
1457.433391174182
 30
0.0
 11
2671.967756324785
 21
1457.433391174182
 31
0.0
  0
LINE
  5
827C
330
19
100
AcDbEntity
  8
1
100
AcDbLine
 10
2611.967756324784
 20
1377.433391174182
 30
0.0
 11
2671.967756324785
 21
1377.433391174182
 31
0.0
  0
LINE
  5
827D
330
19
100
AcDbEntity
  8
1
100
AcDbLine
 10
2671.967756324785
 20
1457.433391174182
 30
0.0
 11
2681.967756324784
 21
1447.433391174182
 31
0.0
  0
LINE
  5
827E
330
19
100
AcDbEntity
  8
1
100
AcDbLine
 10
2681.967756324784
 20
1387.433391174182
 30
0.0
 11
2671.967756324785
 21
1377.433391174182
 31
0.0
  0
DIMENSION
  5
827F
330
19
100
AcDbEntity
  8
3
100
AcDbDimension
280
     0
  2
*D10
 10
2339.967756324784
 20
2091.075321015809
 30
0.0
 11
2510.967756324784
 21
2132.861035301523
 31
0.0
 12
-3860.878412983785
 22
0.0
 32
0.0
 70
    32
  1
(<>)
 71
     5
 42
-1.0
 73
     0
 74
     0
 75
     0
  3
MATSU
100
AcDbAlignedDimension
 13
2681.967756324784
 23
1450.433391174182
 33
0.0
 14
2339.967756324784
 24
2036.572719923992
 34
0.0
100
AcDbRotatedDimension
1001
ACAD
1000
DSTYLE
1002
{
1070
    40
1040
15.0
1002
}
  0
LINE
  5
8280
330
19
100
AcDbEntity
  8
2
100
AcDbLine
 10
996.1454586423242
 20
2460.235540145672
 30
0.0
 11
996.1454586423242
 21
3264.201177943578
 31
0.0
  0
LINE
  5
8281
330
19
100
AcDbEntity
  8
2
100
AcDbLine
 10
1338.145458642324
 20
2904.095989003954
 30
0.0
 11
614.7127706298306
 21
2904.095989003954
 31
0.0
  0
LINE
  5
8282
330
19
100
AcDbEntity
  8
1
100
AcDbLine
 10
1726.145458642324
 20
3211.095989003954
 30
0.0
 11
746.1454586423242
 21
3211.095989003954
 31
0.0
  0
LINE
  5
8283
330
19
100
AcDbEntity
  8
1
100
AcDbLine
 10
1726.145458642324
 20
2531.095989003955
 30
0.0
 11
746.1454586423242
 21
2531.095989003955
 31
0.0
  0
LINE
  5
8284
330
19
100
AcDbEntity
  8
1
100
AcDbLine
 10
746.1454586423242
 20
2531.095989003954
 30
0.0
 11
746.1454586423242
 21
2639.095989003954
 31
0.0
  0
LINE
  5
8285
330
19
100
AcDbEntity
  8
1
100
AcDbLine
 10
1726.145458642324
 20
2531.095989003955
 30
0.0
 11
1726.145458642324
 21
3211.095989003954
 31
0.0
  0
LINE
  5
8286
330
19
100
AcDbEntity
  8
1
100
AcDbLine
 10
1338.145458642324
 20
3169.095989003954
 30
0.0
 11
691.1454586423242
 21
3169.095989003955
 31
0.0
  0
LINE
  5
8287
330
19
100
AcDbEntity
  8
1
100
AcDbLine
 10
1338.145458642324
 20
2639.095989003954
 30
0.0
 11
691.1454586423242
 21
2639.095989003954
 31
0.0
  0
LINE
  5
8288
330
19
100
AcDbEntity
  8
1
100
AcDbLine
 10
691.1454586423243
 20
2612.095989003954
 30
0.0
 11
691.1454586423242
 21
3196.095989003954
 31
0.0
  0
LINE
  5
8289
330
19
100
AcDbEntity
  8
1
100
AcDbLine
 10
1338.145458642324
 20
2639.095989003954
 30
0.0
 11
1338.145458642324
 21
3169.095989003954
 31
0.0
  0
LINE
  5
828D
330
19
100
AcDbEntity
  8
1
100
AcDbLine
 10
1809.967756324784
 20
1640.733391174182
 30
0.0
 11
1809.967756324784
 21
1282.733391174182
 31
0.0
  0
LINE
  5
828E
330
19
100
AcDbEntity
  8
1
100
AcDbLine
 10
1658.645458642324
 20
2374.095989003953
 30
0.0
 11
846.1454586423242
 21
2374.095989003953
 31
0.0
  0
DIMENSION
  5
828F
330
19
100
AcDbEntity
  8
3
100
AcDbDimension
280
     0
  2
*D11
 10
746.1454586423242
 20
3401.52386999065
 30
0.0
 11
1236.145458642324
 21
3431.52386999065
 31
0.0
 12
-3860.878412983785
 22
0.0
 32
0.0
 70
    32
 71
     5
 42
-1.0
 73
     0
 74
     0
 75
     0
  3
MATSU
100
AcDbAlignedDimension
 13
1726.145458642324
 23
3211.095989003954
 33
0.0
 14
746.1454586423242
 24
3211.095989003954
 34
0.0
100
AcDbRotatedDimension
1001
ACAD
1000
DSTYLE
1002
{
1070
    40
1040
15.0
1002
}
  0
DIMENSION
  5
8290
330
19
100
AcDbEntity
  8
3
100
AcDbDimension
280
     0
  2
*D12
 10
502.8660021421183
 20
2531.095989003955
 30
0.0
 11
472.8660021421183
 21
2871.095989003954
 31
0.0
 12
-3860.878412983785
 22
0.0
 32
0.0
 70
    32
 71
     5
 42
-1.0
 73
     0
 74
     0
 75
     0
  3
MATSU
100
AcDbAlignedDimension
 13
746.1454586423242
 23
3211.095989003954
 33
0.0
 14
746.1454586423242
 24
2531.095989003955
 34
0.0
 50
270.0
100
AcDbRotatedDimension
1001
ACAD
1000
DSTYLE
1002
{
1070
    40
1040
15.0
1002
}
  0
LINE
  5
8291
330
19
100
AcDbEntity
  8
1
100
AcDbLine
 10
976.1454586423241
 20
2534.095989003953
 30
0.0
 11
976.1454586423242
 21
2639.095989003954
 31
0.0
  0
LINE
  5
8292
330
19
100
AcDbEntity
  8
1
100
AcDbLine
 10
1016.145458642324
 20
2534.095989003953
 30
0.0
 11
1016.145458642324
 21
2639.095989003954
 31
0.0
  0
DIMENSION
  5
8293
330
19
100
AcDbEntity
  8
3
100
AcDbDimension
280
     0
  2
*D13
 10
1809.967756324784
 20
2091.075321015809
 30
0.0
 11
2074.967756324785
 21
2132.861035301523
 31
0.0
 70
    32
  1
(<>)
 71
     5
 42
530.0
 73
     0
 74
     0
 75
     0
  3
MATSU
100
AcDbAlignedDimension
 13
2339.967756324784
 23
2036.572719923992
 33
0.0
 14
1809.967756324784
 24
1645.733391174182
 34
0.0
100
AcDbRotatedDimension
1001
ACAD
1000
DSTYLE
1002
{
1070
   287
1070
     4
1070
    40
1040
15.0
1070
    75
1070
     1
1070
   279
1070
     1
1070
   289
1070
     3
1002
}
  0
DIMENSION
  5
8294
330
19
100
AcDbEntity
  8
3
100
AcDbDimension
280
     0
  2
*D14
 10
2074.967756324785
 20
1973.70671908205
 30
0.0
 11
2339.967756324784
 21
2003.706719082051
 31
0.0
 12
-3860.878412983785
 22
0.0
 32
0.0
 70
    32
 71
     5
 42
-1.0
 73
     0
 74
     0
 75
     0
  3
MATSU
100
AcDbAlignedDimension
 13
2604.967756324784
 23
1914.733391174182
 33
0.0
 14
2074.967756324785
 24
1914.733391174182
 34
0.0
100
AcDbRotatedDimension
1001
ACAD
1000
DSTYLE
1002
{
1070
    40
1040
15.0
1002
}
  0
LINE
  5
8295
330
19
100
AcDbEntity
  8
1
100
AcDbLine
 10
746.1454586423242
 20
3169.095989003955
 30
0.0
 11
746.1454586423242
 21
3211.095989003954
 31
0.0
  0
DIMENSION
  5
8297
330
19
100
AcDbEntity
  8
3
100
AcDbDimension
280
     0
  2
*D15
 10
470.4238760115986
 20
1005.733391174182
 30
0.0
 11
432.9238760115984
 21
894.3048197456112
 31
0.0
 70
    32
 71
     5
 42
65.00000000000011
 73
     0
 74
     0
 75
     0
  3
IGA
100
AcDbAlignedDimension
 13
746.1454586423242
 23
1070.733391174182
 33
0.0
 14
746.1454586423242
 24
1005.733391174182
 34
0.0
 50
90.0
100
AcDbRotatedDimension
1001
ACAD
1000
DSTYLE
1002
{
1070
   287
1070
     3
1070
    40
1040
15.0
1070
   143
1040
0.039
1070
   172
1070
     1
1070
   271
1070
     0
1070
   279
1070
     0
1070
   288
1070
     1
1070
     6
1000
DOT
1002
}
  0
LINE
  5
8298
330
19
100
AcDbEntity
  8
1
100
AcDbLine
 10
746.1454586423242
 20
1225.733391174183
 30
0.0
 11
1726.145458642324
 21
1225.733391174183
 31
0.0
  0
LINE
  5
8299
330
19
100
AcDbEntity
  8
1
100
AcDbLine
 10
1966.967756324784
 20
1225.733391174182
 30
0.0
 11
2646.967756324784
 21
1225.733391174182
 31
0.0
  0
INSERT
  5
829A
330
19
100
AcDbEntity
  8
0
100
AcDbBlockReference
  2
YA_N
 10
12740.30962405197
 20
64.44635577935878
 30
0.0
  0
INSERT
  5
829B
330
19
100
AcDbEntity
  8
0
100
AcDbBlockReference
  2
YA_N
 10
12740.30962405197
 20
64.44635577935878
 30
0.0
  0
INSERT
  5
829C
330
19
100
AcDbEntity
  8
0
100
AcDbBlockReference
  2
YA_N
 10
14386.4200543704
 20
413.3061679685867
 30
0.0
  0
INSERT
  5
829D
330
19
100
AcDbEntity
  8
0
100
AcDbBlockReference
  2
YA_N
 10
12524.90598738259
 20
-1385.037652466128
 30
0.0
 41
10.0
 42
10.0
 43
10.0
  0
INSERT
  5
829E
330
19
100
AcDbEntity
  8
0
100
AcDbBlockReference
  2
YA_N
 10
12524.90598738259
 20
-1385.037652466128
 30
0.0
 41
10.0
 42
10.0
 43
10.0
  0
INSERT
  5
829F
330
19
100
AcDbEntity
  8
0
  6
ByBlock
 62
     2
100
AcDbBlockReference
  2
YA_N
 10
13896.21966606955
 20
-335.6523279691267
 30
0.0
 41
30.0
 42
30.0
 43
30.0
 50
90.0
  0
INSERT
  5
82A0
330
19
100
AcDbEntity
  8
0
  6
ByBlock
 62
     2
100
AcDbBlockReference
  2
YA_N
 10
13896.21966606955
 20
-335.6523279691267
 30
0.0
 41
30.0
 42
30.0
 43
30.0
 50
90.0
  0
ARC
  5
82A1
330
19
100
AcDbEntity
  8
1
100
AcDbCircle
 10
1516.145458642324
 20
1432.733391174182
 30
0.0
 40
150.0
100
AcDbArc
 50
263.6356226162218
 51
83.63562261622179
  0
CIRCLE
  5
82A2
330
19
100
AcDbEntity
  8
1
100
AcDbCircle
 10
1516.145458642324
 20
1432.733391174182
 30
0.0
 40
75.0
  0
LINE
  5
82A3
330
19
100
AcDbEntity
  8
1
100
AcDbLine
 10
1681.145458642324
 20
1300.733391174182
 30
0.0
 11
1351.145458642324
 21
1300.733391174182
 31
0.0
  0
ARC
  5
82A4
330
19
100
AcDbEntity
  8
1
100
AcDbCircle
 10
1516.145458642324
 20
1432.733391174182
 30
0.0
 40
142.5
100
AcDbArc
 50
180.0
 51
244.787
  0
ARC
  5
82A5
330
19
100
AcDbEntity
  8
1
100
AcDbCircle
 10
1516.145458642324
 20
1432.733391174182
 30
0.0
 40
142.5
100
AcDbArc
 50
295.1874
 51
180.0
  0
LINE
  5
82A6
330
19
100
AcDbEntity
  8
1
100
AcDbLine
 10
1455.604158642324
 20
1303.733391174182
 30
0.0
 11
1576.686758642324
 21
1303.733391174182
 31
0.0
  0
LINE
  5
82A7
330
19
100
AcDbEntity
  8
1
100
AcDbLine
 10
1386.145458642324
 20
1300.733391174182
 30
0.0
 11
1436.145458642324
 21
1300.733391174182
 31
0.0
  0
LINE
  5
82A8
330
19
100
AcDbEntity
  8
1
100
AcDbLine
 10
1396.619858642324
 20
1354.824691174182
 30
0.0
 11
1386.145458642324
 21
1315.733391174182
 31
0.0
  0
LINE
  5
82A9
330
19
100
AcDbEntity
  8
1
100
AcDbLine
 10
1386.145458642324
 20
1315.535991174182
 30
0.0
 11
1386.145458642324
 21
1300.733391174182
 31
0.0
  0
LINE
  5
82AA
330
19
100
AcDbEntity
  8
1
100
AcDbLine
 10
1646.145458642324
 20
1300.733391174182
 30
0.0
 11
1596.145458642324
 21
1300.733391174182
 31
0.0
  0
LINE
  5
82AB
330
19
100
AcDbEntity
  8
1
100
AcDbLine
 10
1635.628258642324
 20
1354.983991174183
 30
0.0
 11
1646.145458642324
 21
1315.733391174182
 31
0.0
  0
LINE
  5
82AC
330
19
100
AcDbEntity
  8
1
100
AcDbLine
 10
1646.145458642324
 20
1315.535991174182
 30
0.0
 11
1646.145458642324
 21
1300.733391174182
 31
0.0
  0
LINE
  5
82AD
330
19
100
AcDbEntity
  8
1
100
AcDbLine
 10
2389.052591635057
 20
1574.686473655705
 30
0.0
 11
2037.052891635057
 21
1574.686473655705
 31
0.0
  0
LINE
  5
82AE
330
19
100
AcDbEntity
  8
1
100
AcDbLine
 10
2389.052591635057
 20
1300.686473655705
 30
0.0
 11
2037.052891635057
 21
1300.686473655706
 31
0.0
  0
LINE
  5
82AF
330
19
100
AcDbEntity
  8
1
100
AcDbLine
 10
2389.052591635057
 20
1574.686473655706
 30
0.0
 11
2389.052591635057
 21
1300.686473655705
 31
0.0
  0
LINE
  5
82B0
330
19
100
AcDbEntity
  8
1
100
AcDbLine
 10
2037.052891635058
 20
1574.686473655706
 30
0.0
 11
2037.052891635058
 21
1300.686473655705
 31
0.0
  0
LINE
  5
82B1
330
19
100
AcDbEntity
  8
1
100
AcDbLine
 10
2027.052891635058
 20
1374.686473655705
 30
0.0
 11
2027.052891635058
 21
1490.686473655705
 31
0.0
  0
LINE
  5
82B2
330
19
100
AcDbEntity
  8
2
100
AcDbLine
 10
2179.052891635058
 20
1625.236473655705
 30
0.0
 11
2179.052891635058
 21
1294.040973655706
 31
0.0
  0
LINE
  5
82B3
330
19
100
AcDbEntity
  8
1
100
AcDbLine
 10
2037.052891635058
 20
1373.686473655705
 30
0.0
 11
2028.052891635057
 21
1373.686473655705
 31
0.0
  0
ARC
  5
82B4
330
19
100
AcDbEntity
  8
1
100
AcDbCircle
 10
2028.052891635057
 20
1374.686473655705
 30
0.0
 40
0.9999
100
AcDbArc
 50
179.9965
 51
270.007
  0
LINE
  5
82B6
330
19
100
AcDbEntity
  8
1
100
AcDbLine
 10
2020.052891635058
 20
1413.686473655705
 30
0.0
 11
1969.967756324784
 21
1413.686473655705
 31
0.0
  0
LINE
  5
82B7
330
19
100
AcDbEntity
  8
1
100
AcDbLine
 10
2020.052891635058
 20
1451.686473655705
 30
0.0
 11
1969.967756324784
 21
1451.686473655705
 31
0.0
  0
LINE
  5
82B8
330
19
100
AcDbEntity
  8
1
100
AcDbLine
 10
2037.052891635058
 20
1491.686473655705
 30
0.0
 11
2028.052891635057
 21
1491.686473655705
 31
0.0
  0
LINE
  5
82B9
330
19
100
AcDbEntity
  8
1
100
AcDbLine
 10
2020.052891635058
 20
1412.686473655705
 30
0.0
 11
2020.052891635058
 21
1452.686473655705
 31
0.0
  0
LINE
  5
82BA
330
19
100
AcDbEntity
  8
1
100
AcDbLine
 10
2027.052891635058
 20
1412.686473655705
 30
0.0
 11
2020.052891635058
 21
1412.686473655705
 31
0.0
  0
LINE
  5
82BB
330
19
100
AcDbEntity
  8
1
100
AcDbLine
 10
2027.052891635058
 20
1452.686473655705
 30
0.0
 11
2020.052891635058
 21
1452.686473655705
 31
0.0
  0
ARC
  5
82BD
330
19
100
AcDbEntity
  8
1
100
AcDbCircle
 10
2028.051891635058
 20
1490.686473655705
 30
0.0
 40
0.9998000000000001
100
AcDbArc
 50
89.98600000000001
 51
180.007
  0
LINE
  5
82BE
330
19
100
AcDbEntity
  8
1
100
AcDbLine
 10
1716.145458642324
 20
1265.733391174183
 30
0.0
 11
1316.145458642324
 21
1265.733391174182
 31
0.0
  0
LINE
  5
82BF
330
19
100
AcDbEntity
  8
1
100
AcDbLine
 10
1716.145458642324
 20
1265.733391174183
 30
0.0
 11
1716.145458642324
 21
1225.733391174183
 31
0.0
  0
LINE
  5
82C0
330
19
100
AcDbEntity
  8
1
100
AcDbLine
 10
1316.145458642324
 20
1265.733391174182
 30
0.0
 11
1316.145458642324
 21
1225.733391174182
 31
0.0
  0
LINE
  5
82C1
330
19
100
AcDbEntity
  8
1
100
AcDbLine
 10
1681.145458642324
 20
1300.733391174182
 30
0.0
 11
1691.145458642324
 21
1265.733391174183
 31
0.0
  0
LINE
  5
82C2
330
19
100
AcDbEntity
  8
1
100
AcDbLine
 10
1351.145458642324
 20
1300.733391174182
 30
0.0
 11
1341.145458642324
 21
1265.733391174182
 31
0.0
  0
LINE
  5
82C3
330
19
100
AcDbEntity
  8
1
100
AcDbLine
 10
1374.145458642324
 20
2947.503330954073
 30
0.0
 11
1648.145458642324
 21
2947.503330954073
 31
0.0
  0
LINE
  5
82C4
330
19
100
AcDbEntity
  8
1
100
AcDbLine
 10
1374.145458642324
 20
2595.503630954074
 30
0.0
 11
1648.145458642324
 21
2595.503630954074
 31
0.0
  0
LINE
  5
82C5
330
19
100
AcDbEntity
  8
1
100
AcDbLine
 10
1574.145458642324
 20
2585.503630954074
 30
0.0
 11
1458.145458642324
 21
2585.503630954074
 31
0.0
  0
LINE
  5
82C6
330
19
100
AcDbEntity
  8
1
100
AcDbLine
 10
1648.145458642324
 20
2947.503330954073
 30
0.0
 11
1648.145458642324
 21
2595.503630954073
 31
0.0
  0
LINE
  5
82C7
330
19
100
AcDbEntity
  8
1
100
AcDbLine
 10
1575.145458642324
 20
2595.503630954074
 30
0.0
 11
1575.145458642324
 21
2586.503630954074
 31
0.0
  0
ARC
  5
82C8
330
19
100
AcDbEntity
  8
1
100
AcDbCircle
 10
1574.145458642324
 20
2586.503630954074
 30
0.0
 40
0.9999
100
AcDbArc
 50
269.9965
 51
0.0069999999999659
  0
LINE
  5
82C9
330
19
100
AcDbEntity
  8
1
100
AcDbLine
 10
1374.145458642324
 20
2947.503330954073
 30
0.0
 11
1374.145458642324
 21
2595.503630954073
 31
0.0
  0
LINE
  5
82CA
330
19
100
AcDbEntity
  8
2
100
AcDbLine
 10
1516.145458642324
 20
2995.988843636842
 30
0.0
 11
1516.145458642324
 21
2460.235540145672
 31
0.0
  0
LINE
  5
82CB
330
19
100
AcDbEntity
  8
1
100
AcDbLine
 10
1535.145458642324
 20
2578.503630954074
 30
0.0
 11
1535.145458642324
 21
2534.095989003953
 31
0.0
  0
LINE
  5
82CC
330
19
100
AcDbEntity
  8
1
100
AcDbLine
 10
1497.145458642324
 20
2578.503630954074
 30
0.0
 11
1497.145458642324
 21
2534.095989003953
 31
0.0
  0
LINE
  5
82CF
330
19
100
AcDbEntity
  8
1
100
AcDbLine
 10
1536.145458642324
 20
2578.503630954074
 30
0.0
 11
1496.145458642324
 21
2578.503630954074
 31
0.0
  0
LINE
  5
82D0
330
19
100
AcDbEntity
  8
1
100
AcDbLine
 10
1536.145458642324
 20
2585.503630954074
 30
0.0
 11
1536.145458642324
 21
2578.503630954074
 31
0.0
  0
LINE
  5
82D1
330
19
100
AcDbEntity
  8
1
100
AcDbLine
 10
1496.145458642324
 20
2585.503630954074
 30
0.0
 11
1496.145458642324
 21
2578.503630954074
 31
0.0
  0
LINE
  5
82D2
330
19
100
AcDbEntity
  8
1
100
AcDbLine
 10
1457.145458642324
 20
2595.503630954074
 30
0.0
 11
1457.145458642324
 21
2586.503630954074
 31
0.0
  0
ARC
  5
82D3
330
19
100
AcDbEntity
  8
1
100
AcDbCircle
 10
1458.145458642324
 20
2586.502630954074
 30
0.0
 40
0.9998000000000001
100
AcDbArc
 50
179.986
 51
270.007
  0
ARC
  5
82D4
330
19
100
AcDbEntity
  8
1
100
AcDbCircle
 10
996.1454586423242
 20
1490.733391174182
 30
0.0
 40
150.0
100
AcDbArc
 50
83.63562261622179
 51
263.6356226162218
  0
CIRCLE
  5
82D5
330
19
100
AcDbEntity
  8
1
100
AcDbCircle
 10
996.1454586423242
 20
1490.733391174182
 30
0.0
 40
75.0
  0
LINE
  5
82D6
330
19
100
AcDbEntity
  8
1
100
AcDbLine
 10
1524.459287650656
 20
1507.271168490254
 30
0.0
 11
1004.459287650655
 21
1565.271168490254
 31
0.0
  0
LINE
  5
82D7
330
19
100
AcDbEntity
  8
1
100
AcDbLine
 10
1507.831629633992
 20
1358.195613858111
 30
0.0
 11
987.8316296339935
 21
1416.195613858111
 31
0.0
  0
LINE
  5
82D8
330
19
100
AcDbEntity
  8
1
100
AcDbLine
 10
1532.773116658986
 20
1581.808945806325
 30
0.0
 11
1012.773116658986
 21
1639.808945806325
 31
0.0
  0
LINE
  5
82D9
330
19
100
AcDbEntity
  8
1
100
AcDbLine
 10
1499.517800625662
 20
1283.65783654204
 30
0.0
 11
979.517800625662
 21
1341.65783654204
 31
0.0
  0
LINE
  5
82DA
330
19
100
AcDbEntity
  8
1
100
AcDbLine
 10
846.1454586423242
 20
2374.095989003953
 30
0.0
 11
846.1454586423242
 21
2566.095989003953
 31
0.0
  0
LINE
  5
82DB
330
19
100
AcDbEntity
  8
1
100
AcDbLine
 10
1658.645458642324
 20
2374.095989003953
 30
0.0
 11
1658.645458642324
 21
2566.095989003954
 31
0.0
  0
LINE
  5
82DC
330
19
100
AcDbEntity
  8
1
100
AcDbLine
 10
921.1454586423242
 20
2474.095989003953
 30
0.0
 11
921.1454586423242
 21
2534.095989003953
 31
0.0
  0
LINE
  5
82DD
330
19
100
AcDbEntity
  8
1
100
AcDbLine
 10
1591.145458642324
 20
2474.095989003953
 30
0.0
 11
1591.145458642324
 21
2534.095989003953
 31
0.0
  0
LINE
  5
82DE
330
19
100
AcDbEntity
  8
1
100
AcDbLine
 10
1071.145458642324
 20
2474.095989003953
 30
0.0
 11
1071.145458642324
 21
2534.095989003953
 31
0.0
  0
LINE
  5
82DF
330
19
100
AcDbEntity
  8
1
100
AcDbLine
 10
1441.145458642324
 20
2474.095989003953
 30
0.0
 11
1441.145458642324
 21
2534.095989003953
 31
0.0
  0
LINE
  5
82E0
330
19
100
AcDbEntity
  8
1
100
AcDbLine
 10
1658.645458642324
 20
2566.095989003954
 30
0.0
 11
846.1454586423242
 21
2566.095989003953
 31
0.0
  0
LINE
  5
82E1
330
19
100
AcDbEntity
  8
1
100
AcDbLine
 10
1591.145458642324
 20
2474.095989003953
 30
0.0
 11
1441.145458642324
 21
2474.095989003954
 31
0.0
  0
LINE
  5
82E2
330
19
100
AcDbEntity
  8
1
100
AcDbLine
 10
1591.145458642324
 20
2534.095989003953
 30
0.0
 11
1441.145458642324
 21
2534.095989003953
 31
0.0
  0
LINE
  5
82E3
330
19
100
AcDbEntity
  8
1
100
AcDbLine
 10
1071.145458642324
 20
2534.095989003953
 30
0.0
 11
921.1454586423242
 21
2534.095989003953
 31
0.0
  0
LINE
  5
82E4
330
19
100
AcDbEntity
  8
1
100
AcDbLine
 10
1071.145458642324
 20
2474.095989003953
 30
0.0
 11
921.1454586423242
 21
2474.095989003953
 31
0.0
  0
LINE
  5
82E5
330
19
100
AcDbEntity
  8
1
100
AcDbLine
 10
2001.967756324784
 20
1640.733391174182
 30
0.0
 11
2001.967756324784
 21
1608.628463706576
 31
0.0
  0
LINE
  5
82E6
330
19
100
AcDbEntity
  8
1
100
AcDbLine
 10
1809.967756324784
 20
1640.733391174182
 30
0.0
 11
2001.967756324784
 21
1640.733391174182
 31
0.0
  0
LINE
  5
82E7
330
19
100
AcDbEntity
  8
1
100
AcDbLine
 10
1809.967756324784
 20
1282.733391174182
 30
0.0
 11
2001.967756324784
 21
1282.733391174182
 31
0.0
  0
LINE
  5
82E8
330
19
100
AcDbEntity
  8
1
100
AcDbLine
 10
1909.967756324784
 20
1565.733391174182
 30
0.0
 11
1969.967756324784
 21
1565.733391174182
 31
0.0
  0
LINE
  5
82E9
330
19
100
AcDbEntity
  8
1
100
AcDbLine
 10
1909.967756324784
 20
1507.733391174182
 30
0.0
 11
1969.967756324784
 21
1507.733391174182
 31
0.0
  0
LINE
  5
82EA
330
19
100
AcDbEntity
  8
1
100
AcDbLine
 10
1909.967756324784
 20
1415.733391174182
 30
0.0
 11
1969.967756324784
 21
1415.733391174182
 31
0.0
  0
LINE
  5
82EB
330
19
100
AcDbEntity
  8
1
100
AcDbLine
 10
1909.967756324784
 20
1357.733391174182
 30
0.0
 11
1969.967756324784
 21
1357.733391174182
 31
0.0
  0
LINE
  5
82EC
330
19
100
AcDbEntity
  8
1
100
AcDbLine
 10
1909.967756324784
 20
1565.733391174182
 30
0.0
 11
1909.967756324784
 21
1357.733391174182
 31
0.0
  0
LINE
  5
82ED
330
19
100
AcDbEntity
  8
1
100
AcDbLine
 10
1969.967756324784
 20
1565.733391174182
 30
0.0
 11
1969.967756324784
 21
1357.733391174182
 31
0.0
  0
LINE
  5
82EE
330
19
100
AcDbEntity
  8
2
100
AcDbLine
 10
2389.052591635057
 20
1432.733391174182
 30
0.0
 11
1789.070300485724
 21
1432.733391174182
 31
0.0
  0
LINE
  5
82EF
330
19
100
AcDbEntity
  8
1
100
AcDbLine
 10
2314.052891635058
 20
1300.686473655705
 30
0.0
 11
2314.052891635058
 21
1225.733391174182
 31
0.0
  0
LINE
  5
82F0
330
19
100
AcDbEntity
  8
1
100
AcDbLine
 10
2044.052891635057
 20
1300.686473655706
 30
0.0
 11
2044.052891635057
 21
1225.733391174182
 31
0.0
  0
LINE
  5
82F1
330
19
100
AcDbEntity
  8
1
100
AcDbLine
 10
2044.052891635057
 20
1265.733391174182
 30
0.0
 11
2314.052891635058
 21
1265.733391174182
 31
0.0
  0
LINE
  5
82F2
330
19
100
AcDbEntity
  8
1
100
AcDbLine
 10
2001.967756324784
 20
1324.174130660632
 30
0.0
 11
2001.967756324784
 21
1282.733391174182
 31
0.0
  0
DIMENSION
  5
84F4
330
19
100
AcDbEntity
  8
3
100
AcDbDimension
280
     0
  2
*D16
 10
996.1454586423242
 20
903.1511618382264
 30
0.0
 11
871.1454586423242
 21
940.6511618382264
 31
0.0
 70
    32
 71
     5
 42
250.0
 73
     0
 74
     0
 75
     0
  3
IGA
100
AcDbAlignedDimension
 13
746.1454586423242
 23
1005.733391174182
 33
0.0
 14
996.1454586423242
 24
1005.733391174182
 34
0.0
100
AcDbRotatedDimension
1001
ACAD
1000
DSTYLE
1002
{
1070
   172
1070
     1
1070
    40
1040
15.0
1070
   271
1070
     0
1070
   143
1040
0.039
1002
}
  0
DIMENSION
  5
8501
330
19
100
AcDbEntity
  8
3
100
AcDbDimension
280
     0
  2
*D17
 10
1726.145458642324
 20
903.1511618382264
 30
0.0
 11
1361.145458642324
 21
940.6511618382264
 31
0.0
 70
    32
 71
     5
 42
730.0
 73
     0
 74
     0
 75
     0
  3
IGA
100
AcDbAlignedDimension
 13
996.1454586423242
 23
1005.733391174182
 33
0.0
 14
1726.145458642324
 24
1005.733391174182
 34
0.0
100
AcDbRotatedDimension
1001
ACAD
1000
DSTYLE
1002
{
1070
   172
1070
     1
1070
    40
1040
15.0
1070
   271
1070
     0
1070
   143
1040
0.039
1002
}
  0
DIMENSION
  5
850E
330
19
100
AcDbEntity
  8
3
100
AcDbDimension
280
     0
  2
*D18
 10
2339.967756324784
 20
903.1511618382264
 30
0.0
 11
2153.467756324785
 21
940.6511618382264
 31
0.0
 70
    32
 71
     5
 42
373.0
 73
     0
 74
     0
 75
     0
  3
IGA
100
AcDbAlignedDimension
 13
1966.967756324784
 23
1005.733391174182
 33
0.0
 14
2339.967756324784
 24
1005.733391174182
 34
0.0
100
AcDbRotatedDimension
1001
ACAD
1000
DSTYLE
1002
{
1070
   172
1070
     1
1070
    40
1040
15.0
1070
   271
1070
     0
1070
   143
1040
0.039
1002
}
  0
DIMENSION
  5
851B
330
19
100
AcDbEntity
  8
3
100
AcDbDimension
280
     0
  2
*D19
 10
2646.967756324784
 20
903.1511618382264
 30
0.0
 11
2493.467756324784
 21
940.6511618382264
 31
0.0
 70
    32
 71
     5
 42
307.0
 73
     0
 74
     0
 75
     0
  3
IGA
100
AcDbAlignedDimension
 13
2339.967756324784
 23
1005.733391174182
 33
0.0
 14
2646.967756324784
 24
1005.733391174182
 34
0.0
100
AcDbRotatedDimension
1001
ACAD
1000
DSTYLE
1002
{
1070
   172
1070
     1
1070
    40
1040
15.0
1070
   271
1070
     0
1070
   143
1040
0.039
1002
}
  0
DIMENSION
  5
8540
330
19
100
AcDbEntity
  8
3
100
AcDbDimension
280
     0
  2
*D21
 10
469.2111156574682
 20
1150.733391174183
 30
0.0
 11
397.4254013717538
 21
1110.733391174183
 31
0.0
 70
    32
 71
     5
 42
80.0
 73
     0
 74
     0
 75
     0
  3
IGA
100
AcDbAlignedDimension
 13
746.1454586423242
 23
1070.733391174182
 33
0.0
 14
746.1454586423242
 24
1150.733391174182
 34
0.0
 50
90.0
100
AcDbRotatedDimension
1001
ACAD
1000
DSTYLE
1002
{
1070
   172
1070
     1
1070
    76
1070
     1
1070
    75
1070
     1
1070
    40
1040
15.0
1070
     3
1000
(<>)
1070
   271
1070
     0
1070
     7
1000
_NONE
1070
     6
1000
_NONE
1070
   143
1040
0.039
1002
}
  0
DIMENSION
  5
854D
330
19
100
AcDbEntity
  8
3
100
AcDbDimension
280
     0
  2
*D22
 10
340.0830961425545
 20
1005.733391174182
 30
0.0
 11
290.7973818568401
 21
1460.233391174182
 31
0.0
 70
    32
 71
     5
 42
909.0000000000001
 73
     0
 74
     0
 75
     0
  3
IGA
100
AcDbAlignedDimension
 13
691.1454586423242
 23
1914.733391174182
 33
0.0
 14
746.1454586423242
 24
1005.733391174182
 34
0.0
 50
90.0
100
AcDbRotatedDimension
1001
ACAD
1000
DSTYLE
1002
{
1070
   172
1070
     1
1070
    40
1040
15.0
1070
     3
1000
(<>)
1070
   271
1070
     0
1070
   143
1040
0.039
1002
}
  0
LWPOLYLINE
  5
8554
330
19
100
AcDbEntity
  8
1
100
AcDbPolyline
 90
        4
 70
     0
 43
0.0
 10
691.1454586423242
 20
1914.733391174182
 10
996.1454586423242
 20
1892.733391174182
 42
-0.3908358028773531
 10
1339.353175604339
 20
1520.733391174182
 42
-0.3170625631291752
 10
1131.378884722436
 20
1225.733391174183
 42
-0.3762546939936967
  0
LWPOLYLINE
  5
855A
330
19
100
AcDbEntity
  8
1
100
AcDbPolyline
 90
        3
 70
     0
 43
0.0
 10
924.7805367727277
 20
1225.733391174183
 42
-0.3090607969577456
 10
759.3980072988024
 20
1467.733391174182
 42
-0.0411445297571046
 10
762.2830083201979
 20
1502.733391174182
 42
-0.3936265759256327
  0
LINE
  5
855F
330
19
100
AcDbEntity
  8
1
100
AcDbLine
 10
1969.967756324784
 20
1510.733391174182
 30
0.0
 11
2037.052891635058
 21
1510.733391174182
 31
0.0
  0
LINE
  5
8560
330
19
100
AcDbEntity
  8
1
100
AcDbLine
 10
1969.967756324784
 20
1470.733391174182
 30
0.0
 11
2027.052891635058
 21
1470.733391174182
 31
0.0
  0
ENDSEC
  0
SECTION
  2
OBJECTS
  0
DICTIONARY
  5
C
330
0
100
AcDbDictionary
281
     1
  3
ACAD_CIP_PREVIOUS_PRODUCT_INFO
350
8621
  3
ACAD_COLOR
350
8604
  3
ACAD_DETAILVIEWSTYLE
350
861D
  3
ACAD_GROUP
350
D
  3
ACAD_LAYOUT
350
8565
  3
ACAD_MATERIAL
350
85D2
  3
ACAD_MLEADERSTYLE
350
8619
  3
ACAD_MLINESTYLE
350
E
  3
ACAD_PLOTSETTINGS
350
8566
  3
ACAD_PLOTSTYLENAME
350
8563
  3
ACAD_SCALELIST
350
8607
  3
ACAD_SECTIONVIEWSTYLE
350
861B
  3
ACAD_TABLESTYLE
350
8605
  3
ACAD_VISUALSTYLE
350
85EB
  3
ACDB_RECOMPOSE_DATA
350
86BC
  3
AcDbVariableDictionary
350
86AB
  3
AcDsDecomposeData
350
86C2
  0
DICTIONARY
  5
864C
330
2
100
AcDbDictionary
280
     1
281
     1
  3
ACAD_LAYERSTATES
360
864D
  0
DICTIONARY
  5
863F
330
F
100
AcDbDictionary
280
     1
281
     1
  3
ADSK_XREC_LAYER_RECONCILED
360
8640
  0
DICTIONARY
  5
8641
330
31
100
AcDbDictionary
280
     1
281
     1
  3
ADSK_XREC_LAYER_RECONCILED
360
8642
  0
DICTIONARY
  5
8643
330
76D0
100
AcDbDictionary
280
     1
281
     1
  3
ADSK_XREC_LAYER_RECONCILED
360
8644
  0
DICTIONARY
  5
8645
330
76D1
100
AcDbDictionary
280
     1
281
     1
  3
ADSK_XREC_LAYER_RECONCILED
360
8646
  0
DICTIONARY
  5
8647
330
76D2
100
AcDbDictionary
280
     1
281
     1
  3
ADSK_XREC_LAYER_RECONCILED
360
8648
  0
DICTIONARY
  5
8592
330
19
100
AcDbDictionary
280
     1
281
     1
  3
ACAD_LAYOUTSELFREF
360
8593
  3
ACAD_SORTENTS
360
8623
  0
DICTIONARY
  5
8590
330
16
100
AcDbDictionary
280
     1
281
     1
  3
ACAD_LAYOUTSELFREF
360
8591
  0
XRECORD
  5
8621
102
{ACAD_REACTORS
330
C
102
}
330
C
100
AcDbXrecord
280
     1
300
ACDLT
300
2023
300

  0
DICTIONARY
  5
8604
102
{ACAD_REACTORS
330
C
102
}
330
C
100
AcDbDictionary
281
     1
  0
DICTIONARY
  5
861D
102
{ACAD_REACTORS
330
C
102
}
330
C
100
AcDbDictionary
281
     1
  3
Metric50
350
861E
  0
DICTIONARY
  5
D
102
{ACAD_REACTORS
330
C
102
}
330
C
100
AcDbDictionary
281
     1
  0
DICTIONARY
  5
8565
102
{ACAD_REACTORS
330
C
102
}
330
C
100
AcDbDictionary
281
     1
  3
Model
350
8567
  3
ﾚｲｱｳﾄ1
350
8568
  0
DICTIONARY
  5
85D2
102
{ACAD_REACTORS
330
C
102
}
330
C
100
AcDbDictionary
281
     1
  3
ByBlock
350
85DB
  3
ByLayer
350
85D3
  3
Global
350
85E3
  0
DICTIONARY
  5
8619
102
{ACAD_REACTORS
330
C
102
}
330
C
100
AcDbDictionary
281
     1
  3
Standard
350
861A
  0
DICTIONARY
  5
E
102
{ACAD_REACTORS
330
C
102
}
330
C
100
AcDbDictionary
281
     1
  3
STANDARD
350
1C
  0
DICTIONARY
  5
8566
102
{ACAD_REACTORS
330
C
102
}
330
C
100
AcDbDictionary
281
     1
  0
ACDBDICTIONARYWDFLT
  5
8563
102
{ACAD_REACTORS
330
C
102
}
330
C
100
AcDbDictionary
281
     1
  3
Normal
350
8564
100
AcDbDictionaryWithDefault
340
8564
  0
DICTIONARY
  5
8607
102
{ACAD_REACTORS
330
C
102
}
330
C
100
AcDbDictionary
281
     1
  3
A0
350
8608
  3
A1
350
8609
  3
A2
350
860A
  3
A3
350
860B
  3
A4
350
860C
  3
A5
350
860D
  3
A6
350
860E
  3
A7
350
860F
  3
A8
350
8610
  3
A9
350
8611
  3
B0
350
8612
  3
B1
350
8613
  3
B2
350
8614
  3
B3
350
8615
  3
B4
350
8616
  3
B5
350
8617
  3
B6
350
8618
  0
DICTIONARY
  5
861B
102
{ACAD_REACTORS
330
C
102
}
330
C
100
AcDbDictionary
281
     1
  3
Metric50
350
861C
  0
DICTIONARY
  5
8605
102
{ACAD_REACTORS
330
C
102
}
330
C
100
AcDbDictionary
281
     1
  3
Standard
350
8606
  0
DICTIONARY
  5
85EB
102
{ACAD_REACTORS
330
C
102
}
330
C
100
AcDbDictionary
281
     1
  3
2dWireframe
350
85F1
  3
Basic
350
85F0
  3
Brighten
350
85F7
  3
ColorChange
350
85FB
  3
Conceptual
350
85F4
  3
Dim
350
85F6
  3
EdgeColorOff
350
8603
  3
Facepattern
350
85FA
  3
Flat
350
85EC
  3
FlatWithEdges
350
85ED
  3
Gouraud
350
85EE
  3
GouraudWithEdges
350
85EF
  3
Hidden
350
85F3
  3
JitterOff
350
8601
  3
Linepattern
350
85F9
  3
OverhangOff
350
8602
  3
Realistic
350
85F5
  3
Shaded
350
8600
  3
Shaded with edges
350
85FF
  3
Shades of Gray
350
85FC
  3
Sketchy
350
85FD
  3
Thicken
350
85F8
  3
Wireframe
350
85F2
  3
X-Ray
350
85FE
  0
XRECORD
  5
86BC
102
{ACAD_REACTORS
330
C
102
}
330
C
100
AcDbXrecord
280
     1
 90
        1
330
8266
330
8268
330
8293
330
8606
  0
DICTIONARY
  5
86AB
102
{ACAD_REACTORS
330
C
102
}
330
C
100
AcDbDictionary
281
     1
  3
CANNOSCALE
350
86B1
  3
CMLEADERSTYLE
350
86AD
  3
CTABLESTYLE
350
86AC
  3
CVIEWDETAILSTYLE
350
86AE
  3
CVIEWSECTIONSTYLE
350
86AF
  3
LAYEREVAL
350
86B3
  3
LAYERNOTIFY
350
86B4
  3
LIGHTINGUNITS
350
86B2
  3
MARKUPASSISTMODE
350
86B9
  3
MSLTSCALE
350
86B0
  0
DICTIONARY
  5
86C2
102
{ACAD_REACTORS
330
C
102
}
330
C
100
AcDbDictionary
281
     1
  3
AcDsRecords
350
86C4
  3
AcDsSchemas
350
86C3
1001
ACAD
1070
     2
  0
DICTIONARY
  5
864D
102
{ACAD_REACTORS
330
864C
102
}
330
864C
100
AcDbDictionary
281
     1
  0
XRECORD
  5
8640
102
{ACAD_REACTORS
330
863F
102
}
330
863F
100
AcDbXrecord
280
     1
290
     1
  0
XRECORD
  5
8642
102
{ACAD_REACTORS
330
8641
102
}
330
8641
100
AcDbXrecord
280
     1
290
     1
  0
XRECORD
  5
8644
102
{ACAD_REACTORS
330
8643
102
}
330
8643
100
AcDbXrecord
280
     1
290
     1
  0
XRECORD
  5
8646
102
{ACAD_REACTORS
330
8645
102
}
330
8645
100
AcDbXrecord
280
     1
290
     1
  0
XRECORD
  5
8648
102
{ACAD_REACTORS
330
8647
102
}
330
8647
100
AcDbXrecord
280
     1
290
     1
  0
XRECORD
  5
8593
102
{ACAD_REACTORS
330
8592
102
}
330
8592
100
AcDbXrecord
280
     1
340
19
  0
SORTENTSTABLE
  5
8623
102
{ACAD_REACTORS
330
8592
102
}
330
8592
100
AcDbSortentsTable
330
19
331
8259
  5
825D
331
825D
  5
825E
331
825E
  5
825F
331
825F
  5
8260
331
8260
  5
8261
331
8261
  5
8262
331
8262
  5
8263
331
8263
  5
8264
331
8264
  5
8265
331
8265
  5
8266
331
8266
  5
8268
331
8268
  5
826C
331
826C
  5
826D
331
826D
  5
826E
331
826E
  5
826F
331
826F
  5
8270
331
8270
  5
8271
331
8271
  5
8272
331
8272
  5
8273
331
8273
  5
8274
331
8274
  5
8275
331
8275
  5
8279
331
8279
  5
827A
331
827A
  5
827B
331
827B
  5
827C
331
827C
  5
827D
331
827D
  5
827E
331
827E
  5
827F
331
827F
  5
8280
331
8280
  5
8281
331
8281
  5
8282
331
8282
  5
8283
331
8283
  5
8284
331
8284
  5
8285
331
8285
  5
8286
331
8286
  5
8287
331
8287
  5
8288
331
8288
  5
8289
331
8289
  5
828D
331
828D
  5
828E
331
828E
  5
828F
331
828F
  5
8290
331
8290
  5
8291
331
8291
  5
8292
331
8292
  5
8293
331
8293
  5
8294
331
8294
  5
8295
331
8295
  5
8297
331
8297
  5
8298
331
8298
  5
8299
331
8299
  5
829A
331
829A
  5
829B
331
829B
  5
829C
331
829C
  5
829D
331
829D
  5
829E
331
829E
  5
829F
331
829F
  5
82A0
331
82A0
  5
82A1
331
82A1
  5
82A2
331
82A2
  5
82A3
331
82A3
  5
82A4
331
82A4
  5
82A5
331
82A5
  5
82A6
331
82A6
  5
82A7
331
82A7
  5
82A8
331
82A8
  5
82A9
331
82A9
  5
82AA
331
82AA
  5
82AB
331
82AB
  5
82AC
331
82AC
  5
82AD
331
82AD
  5
82AE
331
82AE
  5
82AF
331
82AF
  5
82B0
331
82B0
  5
82B1
331
82B1
  5
82B2
331
82B2
  5
82B3
331
82B3
  5
82B4
331
82B4
  5
82B6
331
82B6
  5
82B7
331
82B7
  5
82B8
331
82B8
  5
82B9
331
82B9
  5
82BA
331
82BA
  5
82BB
331
82BB
  5
82BD
331
82BD
  5
82BE
331
82BE
  5
82BF
331
82BF
  5
82C0
331
82C0
  5
82C1
331
82C1
  5
82C2
331
82C2
  5
82C3
331
82C3
  5
82C4
331
82C4
  5
82C5
331
82C5
  5
82C6
331
82C6
  5
82C7
331
82C7
  5
82C8
331
82C8
  5
82C9
331
82C9
  5
82CA
331
82CA
  5
82CB
331
82CB
  5
82CC
331
82CC
  5
82CF
331
82CF
  5
82D0
331
82D0
  5
82D1
331
82D1
  5
82D2
331
82D2
  5
82D3
331
82D3
  5
82D4
331
82D4
  5
82D5
331
82D5
  5
82D6
331
82D6
  5
82D7
331
82D7
  5
82D8
331
82D8
  5
82D9
331
82D9
  5
82DA
331
82DA
  5
82DB
331
82DB
  5
82DC
331
82DC
  5
82DD
331
82DD
  5
82DE
331
82DE
  5
82DF
331
82DF
  5
82E0
331
82E0
  5
82E1
331
82E1
  5
82E2
331
82E2
  5
82E3
331
82E3
  5
82E4
331
82E4
  5
82E5
331
82E5
  5
82E6
331
82E6
  5
82E7
331
82E7
  5
82E8
331
82E8
  5
82E9
331
82E9
  5
82EA
331
82EA
  5
82EB
331
82EB
  5
82EC
331
82EC
  5
82ED
331
82ED
  5
82EE
331
82EE
  5
82EF
331
82EF
  5
82F0
331
82F0
  5
82F1
331
82F1
  5
82F2
331
82F2
  5
84F4
331
84F4
  5
8501
331
8501
  5
850E
331
850E
  5
851B
331
851B
  5
8540
331
8540
  5
854D
331
854D
  5
8554
331
8554
  5
855A
331
855A
  5
855F
331
855F
  5
8560
331
8560
  5
8622
  0
XRECORD
  5
8591
102
{ACAD_REACTORS
330
8590
102
}
330
8590
100
AcDbXrecord
280
     1
340
16
  0
ACDBDETAILVIEWSTYLE
  5
861E
102
{ACAD_XDICTIONARY
360
86C7
102
}
102
{ACAD_REACTORS
330
861D
102
}
330
861D
100
AcDbModelDocViewStyle
 70
     0
  3
Metric50
290
     0
100
AcDbDetailViewStyle
 70
     0
 71
     0
 90
        3
 71
     1
340
10
 62
   256
 40
5.0
340
0
 62
   256
 40
5.0
300

 40
0.0
280
     1
 71
     2
340
15
 90
       25
 62
   256
 71
     3
340
10
 62
   256
 40
5.0
 90
        0
 40
15.0
 90
        1
300
%<\AcVar ViewDetailId>% (%<\AcVar ViewScale \f "%sn">%)
 71
     4
340
15
 90
       25
 62
   256
340
15
 90
       25
 62
   256
280
     0
  0
LAYOUT
  5
8567
102
{ACAD_REACTORS
330
8565
102
}
330
8565
100
AcDbPlotSettings
  1

  2
EPSON LP-9300
  4

  6

 40
0.0
 41
0.0
 42
0.0
 43
0.0
 44
0.0
 45
0.0
 46
0.0
 47
0.0
 48
0.0
 49
0.0
140
0.0
141
0.0
142
1.0
143
1.0
 70
  1712
 72
     0
 73
     0
 74
     0
  7

 75
     0
147
1.0
 76
     0
 77
     2
 78
   300
148
0.0
149
0.0
100
AcDbLayout
  1
Model
 70
     1
 71
     0
 10
0.0
 20
0.0
 11
12.0
 21
9.0
 12
0.0
 22
0.0
 32
0.0
 14
0.0
 24
0.0
 34
0.0
 15
0.0
 25
0.0
 35
0.0
146
0.0
 13
0.0
 23
0.0
 33
0.0
 16
1.0
 26
0.0
 36
0.0
 17
0.0
 27
1.0
 37
0.0
 76
     0
330
19
331
85D0
  0
LAYOUT
  5
8568
102
{ACAD_REACTORS
330
8565
102
}
330
8565
100
AcDbPlotSettings
  1

  2
EPSON LP-9300
  4

  6

 40
0.0
 41
0.0
 42
0.0
 43
0.0
 44
0.0
 45
0.0
 46
0.0
 47
0.0
 48
0.0
 49
0.0
140
0.0
141
0.0
142
1.0
143
1.0
 70
   688
 72
     0
 73
     0
 74
     5
  7

 75
    16
147
1.0
 76
     0
 77
     2
 78
   300
148
0.0
149
0.0
100
AcDbLayout
  1
ﾚｲｱｳﾄ1
 70
     1
 71
     1
 10
0.0
 20
0.0
 11
12.0
 21
9.0
 12
0.0
 22
0.0
 32
0.0
 14
1.000000000000000E+20
 24
1.000000000000000E+20
 34
1.000000000000000E+20
 15
-1.000000000000000E+20
 25
-1.000000000000000E+20
 35
-1.000000000000000E+20
146
0.0
 13
0.0
 23
0.0
 33
0.0
 16
1.0
 26
0.0
 36
0.0
 17
0.0
 27
1.0
 37
0.0
 76
     0
330
16
  0
MATERIAL
  5
85DB
102
{ACAD_XDICTIONARY
360
85DC
102
}
102
{ACAD_REACTORS
330
85D2
102
}
330
85D2
100
AcDbMaterial
  1
ByBlock
 72
     0
 43
0.0208333333333333
 43
0.0
 43
0.0
 43
0.0
 43
0.0
 43
0.0208333333333333
 43
0.0
 43
0.0
 43
0.0
 43
0.0
 43
1.0
 43
0.0
 43
0.0
 43
0.0
 43
0.0
 43
1.0
 77
     0
 47
0.0208333333333333
 47
0.0
 47
0.0
 47
0.0
 47
0.0
 47
0.0208333333333333
 47
0.0
 47
0.0
 47
0.0
 47
0.0
 47
1.0
 47
0.0
 47
0.0
 47
0.0
 47
0.0
 47
1.0
171
     0
 49
0.0208333333333333
 49
0.0
 49
0.0
 49
0.0
 49
0.0
 49
0.0208333333333333
 49
0.0
 49
0.0
 49
0.0
 49
0.0
 49
1.0
 49
0.0
 49
0.0
 49
0.0
 49
0.0
 49
1.0
175
     0
142
0.0208333333333333
142
0.0
142
0.0
142
0.0
142
0.0
142
0.0208333333333333
142
0.0
142
0.0
142
0.0
142
0.0
142
1.0
142
0.0
142
0.0
142
0.0
142
0.0
142
1.0
179
     0
144
0.0208333333333333
144
0.0
144
0.0
144
0.0
144
0.0
144
0.0208333333333333
144
0.0
144
0.0
144
0.0
144
0.0
144
1.0
144
0.0
144
0.0
144
0.0
144
0.0
144
1.0
147
0.0208333333333333
147
0.0
147
0.0
147
0.0
147
0.0
147
0.0208333333333333
147
0.0
147
0.0
147
0.0
147
0.0
147
1.0
147
0.0
147
0.0
147
0.0
147
0.0
147
1.0
  0
MATERIAL
  5
85D3
102
{ACAD_XDICTIONARY
360
85D4
102
}
102
{ACAD_REACTORS
330
85D2
102
}
330
85D2
100
AcDbMaterial
  1
ByLayer
 72
     0
 43
0.0208333333333333
 43
0.0
 43
0.0
 43
0.0
 43
0.0
 43
0.0208333333333333
 43
0.0
 43
0.0
 43
0.0
 43
0.0
 43
1.0
 43
0.0
 43
0.0
 43
0.0
 43
0.0
 43
1.0
 77
     0
 47
0.0208333333333333
 47
0.0
 47
0.0
 47
0.0
 47
0.0
 47
0.0208333333333333
 47
0.0
 47
0.0
 47
0.0
 47
0.0
 47
1.0
 47
0.0
 47
0.0
 47
0.0
 47
0.0
 47
1.0
171
     0
 49
0.0208333333333333
 49
0.0
 49
0.0
 49
0.0
 49
0.0
 49
0.0208333333333333
 49
0.0
 49
0.0
 49
0.0
 49
0.0
 49
1.0
 49
0.0
 49
0.0
 49
0.0
 49
0.0
 49
1.0
175
     0
142
0.0208333333333333
142
0.0
142
0.0
142
0.0
142
0.0
142
0.0208333333333333
142
0.0
142
0.0
142
0.0
142
0.0
142
1.0
142
0.0
142
0.0
142
0.0
142
0.0
142
1.0
179
     0
144
0.0208333333333333
144
0.0
144
0.0
144
0.0
144
0.0
144
0.0208333333333333
144
0.0
144
0.0
144
0.0
144
0.0
144
1.0
144
0.0
144
0.0
144
0.0
144
0.0
144
1.0
147
0.0208333333333333
147
0.0
147
0.0
147
0.0
147
0.0
147
0.0208333333333333
147
0.0
147
0.0
147
0.0
147
0.0
147
1.0
147
0.0
147
0.0
147
0.0
147
0.0
147
1.0
  0
MATERIAL
  5
85E3
102
{ACAD_XDICTIONARY
360
85E4
102
}
102
{ACAD_REACTORS
330
85D2
102
}
330
85D2
100
AcDbMaterial
  1
Global
 72
     0
 43
0.0208333333333333
 43
0.0
 43
0.0
 43
0.0
 43
0.0
 43
0.0208333333333333
 43
0.0
 43
0.0
 43
0.0
 43
0.0
 43
1.0
 43
0.0
 43
0.0
 43
0.0
 43
0.0
 43
1.0
 77
     0
 47
0.0208333333333333
 47
0.0
 47
0.0
 47
0.0
 47
0.0
 47
0.0208333333333333
 47
0.0
 47
0.0
 47
0.0
 47
0.0
 47
1.0
 47
0.0
 47
0.0
 47
0.0
 47
0.0
 47
1.0
171
     0
 49
0.0208333333333333
 49
0.0
 49
0.0
 49
0.0
 49
0.0
 49
0.0208333333333333
 49
0.0
 49
0.0
 49
0.0
 49
0.0
 49
1.0
 49
0.0
 49
0.0
 49
0.0
 49
0.0
 49
1.0
175
     0
142
0.0208333333333333
142
0.0
142
0.0
142
0.0
142
0.0
142
0.0208333333333333
142
0.0
142
0.0
142
0.0
142
0.0
142
1.0
142
0.0
142
0.0
142
0.0
142
0.0
142
1.0
179
     0
144
0.0208333333333333
144
0.0
144
0.0
144
0.0
144
0.0
144
0.0208333333333333
144
0.0
144
0.0
144
0.0
144
0.0
144
1.0
144
0.0
144
0.0
144
0.0
144
0.0
144
1.0
147
0.0208333333333333
147
0.0
147
0.0
147
0.0
147
0.0
147
0.0208333333333333
147
0.0
147
0.0
147
0.0
147
0.0
147
1.0
147
0.0
147
0.0
147
0.0
147
0.0
147
1.0
  0
MLEADERSTYLE
  5
861A
102
{ACAD_REACTORS
330
8619
102
}
330
8619
100
AcDbMLeaderStyle
179
     2
170
     2
171
     1
172
     0
 90
        2
 40
0.0
 41
0.0
173
     1
 91
-1056964608
340
13
 92
       -2
290
     1
 42
2.0
291
     1
 43
0.36
  3
Standard
 44
4.0
300

342
10
174
     1
178
     6
175
     1
176
     0
 93
-1056964608
 45
4.0
292
     0
297
     0
 46
4.0
 94
-1056964608
 47
1.0
 49
1.0
140
1.0
293
     1
141
0.0
294
     1
177
     0
142
1.0
295
     0
296
     0
143
0.125
271
     0
272
     9
273
     9
298
     1
  0
MLINESTYLE
  5
1C
102
{ACAD_REACTORS
330
E
102
}
330
E
100
AcDbMlineStyle
  2
STANDARD
 70
     0
  3

 62
     0
 51
90.0
 52
90.0
 71
     2
 49
0.5
 62
   256
  6
BYLAYER
 49
-0.5
 62
   256
  6
BYLAYER
  0
ACDBPLACEHOLDER
  5
8564
102
{ACAD_REACTORS
330
8563
102
}
330
8563
  0
SCALE
  5
8608
102
{ACAD_REACTORS
330
8607
102
}
330
8607
100
AcDbScale
 70
     0
300
1:1
140
1.0
141
1.0
290
     1
  0
SCALE
  5
8609
102
{ACAD_REACTORS
330
8607
102
}
330
8607
100
AcDbScale
 70
     0
300
1:2
140
1.0
141
2.0
290
     0
  0
SCALE
  5
860A
102
{ACAD_REACTORS
330
8607
102
}
330
8607
100
AcDbScale
 70
     0
300
1:4
140
1.0
141
4.0
290
     0
  0
SCALE
  5
860B
102
{ACAD_REACTORS
330
8607
102
}
330
8607
100
AcDbScale
 70
     0
300
1:5
140
1.0
141
5.0
290
     0
  0
SCALE
  5
860C
102
{ACAD_REACTORS
330
8607
102
}
330
8607
100
AcDbScale
 70
     0
300
1:8
140
1.0
141
8.0
290
     0
  0
SCALE
  5
860D
102
{ACAD_REACTORS
330
8607
102
}
330
8607
100
AcDbScale
 70
     0
300
1:10
140
1.0
141
10.0
290
     0
  0
SCALE
  5
860E
102
{ACAD_REACTORS
330
8607
102
}
330
8607
100
AcDbScale
 70
     0
300
1:16
140
1.0
141
16.0
290
     0
  0
SCALE
  5
860F
102
{ACAD_REACTORS
330
8607
102
}
330
8607
100
AcDbScale
 70
     0
300
1:20
140
1.0
141
20.0
290
     0
  0
SCALE
  5
8610
102
{ACAD_REACTORS
330
8607
102
}
330
8607
100
AcDbScale
 70
     0
300
1:30
140
1.0
141
30.0
290
     0
  0
SCALE
  5
8611
102
{ACAD_REACTORS
330
8607
102
}
330
8607
100
AcDbScale
 70
     0
300
1:40
140
1.0
141
40.0
290
     0
  0
SCALE
  5
8612
102
{ACAD_REACTORS
330
8607
102
}
330
8607
100
AcDbScale
 70
     0
300
1:50
140
1.0
141
50.0
290
     0
  0
SCALE
  5
8613
102
{ACAD_REACTORS
330
8607
102
}
330
8607
100
AcDbScale
 70
     0
300
1:100
140
1.0
141
100.0
290
     0
  0
SCALE
  5
8614
102
{ACAD_REACTORS
330
8607
102
}
330
8607
100
AcDbScale
 70
     0
300
2:1
140
2.0
141
1.0
290
     0
  0
SCALE
  5
8615
102
{ACAD_REACTORS
330
8607
102
}
330
8607
100
AcDbScale
 70
     0
300
4:1
140
4.0
141
1.0
290
     0
  0
SCALE
  5
8616
102
{ACAD_REACTORS
330
8607
102
}
330
8607
100
AcDbScale
 70
     0
300
8:1
140
8.0
141
1.0
290
     0
  0
SCALE
  5
8617
102
{ACAD_REACTORS
330
8607
102
}
330
8607
100
AcDbScale
 70
     0
300
10:1
140
10.0
141
1.0
290
     0
  0
SCALE
  5
8618
102
{ACAD_REACTORS
330
8607
102
}
330
8607
100
AcDbScale
 70
     0
300
100:1
140
100.0
141
1.0
290
     0
  0
ACDBSECTIONVIEWSTYLE
  5
861C
102
{ACAD_XDICTIONARY
360
86C5
102
}
102
{ACAD_REACTORS
330
861B
102
}
330
861B
100
AcDbModelDocViewStyle
 70
     0
  3
Metric50
290
     0
100
AcDbSectionViewStyle
 70
     0
 71
     0
 90
      102
 71
     1
340
10
 62
   256
 40
5.0
340
0
340
0
 62
   256
 40
5.0
300
I, O, Q, S, X, Z
 40
10.0
 90
        0
 40
2.5
 90
        0
 71
     2
340
15
 90
       25
 62
   256
340
15
 90
       50
 62
   256
 40
5.0
 40
2.5
 40
5.0
 71
     3
340
10
 62
   256
 40
5.0
 90
        0
 40
15.0
 90
        1
300
%<\AcVar ViewSectionStartId>%-%<\AcVar ViewSectionEndId>% (%<\AcVar ViewScale \f "%sn">%)
 71
     4
 62
   256
 62
   257
300
ANSI31
 40
1.0
 90
        0
290
     0
290
     0
 90
        6
 40
0.0
 40
1.570796326794896
 40
0.2617993877991494
 40
1.308996938995747
 40
-0.2617993877991494
 40
1.832595714594046
  0
TABLESTYLE
  5
8606
102
{ACAD_XDICTIONARY
360
86BA
102
}
102
{ACAD_REACTORS
330
8605
102
}
330
8605
100
AcDbTableStyle
280
     0
  3
Standard
 70
     0
 71
     0
 40
1.5
 41
1.5
280
     0
281
     0
  7
STANDARD
140
4.5
170
     2
 62
     0
 63
     7
283
     0
 90
      512
 91
        0
  1

274
    -2
284
     1
 64
     0
275
    -2
285
     1
 65
     0
276
    -2
286
     1
 66
     0
277
    -2
287
     1
 67
     0
278
    -2
288
     1
 68
     0
279
    -2
289
     1
 69
     0
  7
STANDARD
140
6.0
170
     5
 62
     0
 63
     7
283
     0
 90
      512
 91
        0
  1

274
    -2
284
     1
 64
     0
275
    -2
285
     1
 65
     0
276
    -2
286
     1
 66
     0
277
    -2
287
     1
 67
     0
278
    -2
288
     1
 68
     0
279
    -2
289
     1
 69
     0
  7
STANDARD
140
4.5
170
     5
 62
     0
 63
     7
283
     0
 90
      512
 91
        0
  1

274
    -2
284
     1
 64
     0
275
    -2
285
     1
 65
     0
276
    -2
286
     1
 66
     0
277
    -2
287
     1
 67
     0
278
    -2
288
     1
 68
     0
279
    -2
289
     1
 69
     0
  0
VISUALSTYLE
  5
85F1
102
{ACAD_REACTORS
330
85EB
102
}
330
85EB
100
AcDbVisualStyle
  2
2dWireframe
 70
     4
177
     3
291
     0
 70
    58
 90
        0
176
     1
 90
        2
176
     1
 90
        0
176
     1
 90
        0
176
     1
 40
0.6
176
     1
 40
30.0
176
     1
 62
     7
420
 16777215
176
     1
 90
        1
176
     1
 90
        4
176
     1
 62
     7
176
     1
 62
   257
176
     1
 90
        1
176
     1
 90
        1
176
     1
 40
1.0
176
     1
 90
        0
176
     1
 62
   257
176
     1
 40
1.0
176
     1
 90
        1
176
     1
 90
        6
176
     1
 90
        2
176
     1
 62
     7
176
     1
 90
        5
176
     1
 90
        0
176
     1
 90
        0
176
     1
290
     0
176
     1
 90
        1
176
     1
 40
0.0
176
     1
 90
        0
176
     1
290
     1
176
     1
290
     1
176
     1
290
     0
176
     1
290
     0
176
     1
290
     0
176
     1
290
     0
176
     1
290
     0
176
     1
290
     0
176
     1
290
     0
176
     1
 90
       50
176
     1
 40
0.0
176
     1
 40
1.0
176
     1
 90
        0
176
     1
 62
    18
420
        0
176
     1
 90
       50
176
     1
 90
        3
176
     1
 62
     5
420
      255
176
     1
290
     0
176
     1
 90
       50
176
     1
 90
       50
176
     1
 90
       50
176
     1
290
     0
176
     1
 90
       50
176
     1
 62
   256
176
     0
 40
1.0
176
     0
 90
        2
176
     1
  1
strokes_ogs.tif
176
     1
290
     0
176
     1
 40
1.0
176
     1
 40
1.0
176
     1
1001
ACAD
1000
AcDbSavedByObjectVersion
1070
     0
  0
VISUALSTYLE
  5
85F0
102
{ACAD_REACTORS
330
85EB
102
}
330
85EB
100
AcDbVisualStyle
  2
Basic
 70
     7
177
     3
291
     1
 70
    58
 90
        1
176
     1
 90
        0
176
     1
 90
        1
176
     1
 90
        0
176
     1
 40
0.6
176
     1
 40
30.0
176
     1
 62
     7
420
 16777215
176
     1
 90
        0
176
     1
 90
        4
176
     1
 62
     7
176
     1
 62
   257
176
     1
 90
        1
176
     1
 90
        1
176
     1
 40
1.0
176
     1
 90
        8
176
     1
 62
     7
176
     1
 40
1.0
176
     1
 90
        1
176
     1
 90
        6
176
     1
 90
        2
176
     1
 62
     7
176
     1
 90
        5
176
     1
 90
        0
176
     1
 90
        0
176
     1
290
     0
176
     1
 90
        1
176
     1
 40
0.0
176
     1
 90
        0
176
     1
290
     0
176
     1
290
     1
176
     1
290
     1
176
     1
290
     0
176
     1
290
     0
176
     1
290
     0
176
     1
290
     0
176
     1
290
     0
176
     1
290
     0
176
     1
 90
       50
176
     1
 40
0.0
176
     1
 40
1.0
176
     1
 90
        0
176
     1
 62
    18
420
        0
176
     1
 90
       50
176
     1
 90
        3
176
     1
 62
     5
420
      255
176
     1
290
     0
176
     1
 90
       50
176
     1
 90
       50
176
     1
 90
       50
176
     1
290
     0
176
     1
 90
       50
176
     1
 62
   256
176
     0
 40
1.0
176
     0
 90
        2
176
     1
  1
strokes_ogs.tif
176
     1
290
     0
176
     1
 40
1.0
176
     1
 40
1.0
176
     1
1001
ACAD
1000
AcDbSavedByObjectVersion
1070
     0
  0
VISUALSTYLE
  5
85F7
102
{ACAD_REACTORS
330
85EB
102
}
330
85EB
100
AcDbVisualStyle
  2
Brighten
 70
    12
177
     3
291
     1
 70
    58
 90
        2
176
     1
 90
        2
176
     1
 90
        0
176
     1
 90
        0
176
     1
 40
0.6
176
     1
 40
30.0
176
     1
 62
     7
420
 16777215
176
     1
 90
        1
176
     1
 90
        4
176
     1
 62
     7
176
     1
 62
   257
176
     1
 90
        1
176
     1
 90
        1
176
     1
 40
1.0
176
     1
 90
        8
176
     1
 62
     7
176
     1
 40
1.0
176
     1
 90
        1
176
     1
 90
        6
176
     1
 90
        2
176
     1
 62
     7
176
     1
 90
        5
176
     1
 90
        0
176
     1
 90
        0
176
     1
290
     0
176
     1
 90
        1
176
     1
 40
50.0
176
     1
 90
        0
176
     1
290
     0
176
     1
290
     1
176
     1
290
     1
176
     1
290
     0
176
     1
290
     0
176
     1
290
     0
176
     1
290
     0
176
     1
290
     0
176
     1
290
     0
176
     1
 90
       50
176
     1
 40
0.0
176
     1
 40
1.0
176
     1
 90
        0
176
     1
 62
    18
420
        0
176
     1
 90
       50
176
     1
 90
        3
176
     1
 62
     5
420
      255
176
     1
290
     0
176
     1
 90
       50
176
     1
 90
       50
176
     1
 90
       50
176
     1
290
     0
176
     1
 90
       50
176
     1
 62
   256
176
     0
 40
1.0
176
     0
 90
        2
176
     1
  1
strokes_ogs.tif
176
     1
290
     0
176
     1
 40
1.0
176
     1
 40
1.0
176
     1
1001
ACAD
1000
AcDbSavedByObjectVersion
1070
     0
  0
VISUALSTYLE
  5
85FB
102
{ACAD_REACTORS
330
85EB
102
}
330
85EB
100
AcDbVisualStyle
  2
ColorChange
 70
    16
177
     3
291
     1
 70
    58
 90
        2
176
     1
 90
        2
176
     1
 90
        3
176
     1
 90
        0
176
     1
 40
0.6
176
     1
 40
30.0
176
     1
 62
     8
420
  8421504
176
     1
 90
        1
176
     1
 90
        4
176
     1
 62
     7
176
     1
 62
   257
176
     1
 90
        1
176
     1
 90
        1
176
     1
 40
1.0
176
     1
 90
        8
176
     1
 62
     8
420
  8421504
176
     1
 40
1.0
176
     1
 90
        1
176
     1
 90
        6
176
     1
 90
        2
176
     1
 62
     7
176
     1
 90
        5
176
     1
 90
        0
176
     1
 90
        0
176
     1
290
     0
176
     1
 90
        1
176
     1
 40
0.0
176
     1
 90
        0
176
     1
290
     0
176
     1
290
     1
176
     1
290
     1
176
     1
290
     0
176
     1
290
     0
176
     1
290
     0
176
     1
290
     0
176
     1
290
     0
176
     1
290
     0
176
     1
 90
       50
176
     1
 40
0.0
176
     1
 40
1.0
176
     1
 90
        0
176
     1
 62
    18
420
        0
176
     1
 90
       50
176
     1
 90
        3
176
     1
 62
     5
420
      255
176
     1
290
     0
176
     1
 90
       50
176
     1
 90
       50
176
     1
 90
       50
176
     1
290
     0
176
     1
 90
       50
176
     1
 62
   256
176
     0
 40
1.0
176
     0
 90
        2
176
     1
  1
strokes_ogs.tif
176
     1
290
     0
176
     1
 40
1.0
176
     1
 40
1.0
176
     1
1001
ACAD
1000
AcDbSavedByObjectVersion
1070
     0
  0
VISUALSTYLE
  5
85F4
102
{ACAD_REACTORS
330
85EB
102
}
330
85EB
100
AcDbVisualStyle
  2
Conceptual
 70
     9
177
     3
291
     0
 70
    58
 90
        3
176
     1
 90
        2
176
     1
 90
        0
176
     1
 90
        0
176
     1
 40
0.6
176
     1
 40
30.0
176
     1
 62
     7
420
 16777215
176
     1
 90
        2
176
     1
 90
        2
176
     1
 62
     7
176
     1
 62
   257
176
     1
 90
        1
176
     1
 90
        1
176
     1
 40
179.0
176
     1
 90
        8
176
     1
 62
     7
176
     1
 40
1.0
176
     1
 90
        1
176
     1
 90
        6
176
     1
 90
        2
176
     1
 62
     7
176
     1
 90
        3
176
     1
 90
        0
176
     1
 90
        0
176
     1
290
     0
176
     1
 90
        1
176
     1
 40
0.0
176
     1
 90
        0
176
     1
290
     0
176
     1
290
     1
176
     1
290
     1
176
     1
290
     0
176
     1
290
     0
176
     1
290
     0
176
     1
290
     0
176
     1
290
     0
176
     1
290
     0
176
     1
 90
       50
176
     1
 40
0.0
176
     1
 40
1.0
176
     1
 90
        0
176
     1
 62
    18
420
        0
176
     1
 90
       50
176
     1
 90
        3
176
     1
 62
     5
420
      255
176
     1
290
     0
176
     1
 90
       50
176
     1
 90
       50
176
     1
 90
       50
176
     1
290
     0
176
     1
 90
       50
176
     1
 62
   256
176
     0
 40
1.0
176
     0
 90
        2
176
     1
  1
strokes_ogs.tif
176
     1
290
     0
176
     1
 40
1.0
176
     1
 40
1.0
176
     1
1001
ACAD
1000
AcDbSavedByObjectVersion
1070
     0
  0
VISUALSTYLE
  5
85F6
102
{ACAD_REACTORS
330
85EB
102
}
330
85EB
100
AcDbVisualStyle
  2
Dim
 70
    11
177
     3
291
     1
 70
    58
 90
        2
176
     1
 90
        2
176
     1
 90
        0
176
     1
 90
        0
176
     1
 40
0.6
176
     1
 40
30.0
176
     1
 62
     7
420
 16777215
176
     1
 90
        1
176
     1
 90
        4
176
     1
 62
     7
176
     1
 62
   257
176
     1
 90
        1
176
     1
 90
        1
176
     1
 40
1.0
176
     1
 90
        8
176
     1
 62
     7
176
     1
 40
1.0
176
     1
 90
        1
176
     1
 90
        6
176
     1
 90
        2
176
     1
 62
     7
176
     1
 90
        5
176
     1
 90
        0
176
     1
 90
        0
176
     1
290
     0
176
     1
 90
        1
176
     1
 40
-50.0
176
     1
 90
        0
176
     1
290
     0
176
     1
290
     1
176
     1
290
     1
176
     1
290
     0
176
     1
290
     0
176
     1
290
     0
176
     1
290
     0
176
     1
290
     0
176
     1
290
     0
176
     1
 90
       50
176
     1
 40
0.0
176
     1
 40
1.0
176
     1
 90
        0
176
     1
 62
    18
420
        0
176
     1
 90
       50
176
     1
 90
        3
176
     1
 62
     5
420
      255
176
     1
290
     0
176
     1
 90
       50
176
     1
 90
       50
176
     1
 90
       50
176
     1
290
     0
176
     1
 90
       50
176
     1
 62
   256
176
     0
 40
1.0
176
     0
 90
        2
176
     1
  1
strokes_ogs.tif
176
     1
290
     0
176
     1
 40
1.0
176
     1
 40
1.0
176
     1
1001
ACAD
1000
AcDbSavedByObjectVersion
1070
     0
  0
VISUALSTYLE
  5
8603
102
{ACAD_REACTORS
330
85EB
102
}
330
85EB
100
AcDbVisualStyle
  2
EdgeColorOff
 70
    22
177
     3
291
     1
 70
    58
 90
        2
176
     0
 90
        2
176
     0
 90
        0
176
     0
 90
        0
176
     0
 40
0.6
176
     0
 40
30.0
176
     0
 62
     7
420
 16777215
176
     0
 90
        1
176
     0
 90
        4
176
     0
 62
     7
176
     0
 62
   257
176
     0
 90
        1
176
     0
 90
        1
176
     0
 40
1.0
176
     0
 90
        8
176
     2
 62
     7
176
     0
 40
1.0
176
     0
 90
        1
176
     0
 90
        6
176
     0
 90
        2
176
     0
 62
     7
176
     0
 90
        5
176
     0
 90
        0
176
     0
 90
        0
176
     0
290
     0
176
     0
 90
        1
176
     0
 40
0.0
176
     0
 90
        0
176
     0
290
     0
176
     0
290
     1
176
     0
290
     1
176
     0
290
     0
176
     0
290
     0
176
     0
290
     0
176
     0
290
     0
176
     0
290
     0
176
     0
290
     0
176
     0
 90
       50
176
     0
 40
0.0
176
     0
 40
1.0
176
     0
 90
        0
176
     0
 62
    18
420
        0
176
     0
 90
       50
176
     0
 90
        3
176
     0
 62
     5
420
      255
176
     0
290
     0
176
     0
 90
       50
176
     0
 90
       50
176
     0
 90
       50
176
     0
290
     0
176
     0
 90
       50
176
     0
 62
   256
176
     0
 40
1.0
176
     0
 90
        2
176
     0
  1
strokes_ogs.tif
176
     0
290
     0
176
     0
 40
1.0
176
     0
 40
1.0
176
     0
1001
ACAD
1000
AcDbSavedByObjectVersion
1070
     0
  0
VISUALSTYLE
  5
85FA
102
{ACAD_REACTORS
330
85EB
102
}
330
85EB
100
AcDbVisualStyle
  2
Facepattern
 70
    15
177
     3
291
     1
 70
    58
 90
        2
176
     1
 90
        2
176
     1
 90
        0
176
     1
 90
        0
176
     1
 40
0.6
176
     1
 40
30.0
176
     1
 62
     7
420
 16777215
176
     1
 90
        1
176
     1
 90
        4
176
     1
 62
     7
176
     1
 62
   257
176
     1
 90
        1
176
     1
 90
        1
176
     1
 40
1.0
176
     1
 90
        8
176
     1
 62
     7
176
     1
 40
1.0
176
     1
 90
        1
176
     1
 90
        6
176
     1
 90
        2
176
     1
 62
     7
176
     1
 90
        5
176
     1
 90
        0
176
     1
 90
        0
176
     1
290
     0
176
     1
 90
        1
176
     1
 40
0.0
176
     1
 90
        0
176
     1
290
     0
176
     1
290
     1
176
     1
290
     1
176
     1
290
     0
176
     1
290
     0
176
     1
290
     0
176
     1
290
     0
176
     1
290
     0
176
     1
290
     0
176
     1
 90
       50
176
     1
 40
0.0
176
     1
 40
1.0
176
     1
 90
        0
176
     1
 62
    18
420
        0
176
     1
 90
       50
176
     1
 90
        3
176
     1
 62
     5
420
      255
176
     1
290
     0
176
     1
 90
       50
176
     1
 90
       50
176
     1
 90
       50
176
     1
290
     0
176
     1
 90
       50
176
     1
 62
   256
176
     0
 40
1.0
176
     0
 90
        2
176
     1
  1
strokes_ogs.tif
176
     1
290
     0
176
     1
 40
1.0
176
     1
 40
1.0
176
     1
1001
ACAD
1000
AcDbSavedByObjectVersion
1070
     0
  0
VISUALSTYLE
  5
85EC
102
{ACAD_REACTORS
330
85EB
102
}
330
85EB
100
AcDbVisualStyle
  2
Flat
 70
     0
177
     3
291
     1
 70
    58
 90
        2
176
     1
 90
        1
176
     1
 90
        1
176
     1
 90
        2
176
     1
 40
0.6
176
     1
 40
30.0
176
     1
 62
     7
420
 16777215
176
     1
 90
        0
176
     1
 90
        0
176
     1
 62
     7
176
     1
 62
   257
176
     1
 90
        1
176
     1
 90
        1
176
     1
 40
1.0
176
     1
 90
        8
176
     1
 62
     7
176
     1
 40
1.0
176
     1
 90
        1
176
     1
 90
        6
176
     1
 90
        2
176
     1
 62
     7
176
     1
 90
        5
176
     1
 90
        0
176
     1
 90
        0
176
     1
290
     0
176
     1
 90
       13
176
     1
 40
0.0
176
     1
 90
        0
176
     1
290
     0
176
     1
290
     1
176
     1
290
     1
176
     1
290
     0
176
     1
290
     0
176
     1
290
     0
176
     1
290
     0
176
     1
290
     0
176
     1
290
     0
176
     1
 90
       50
176
     1
 40
0.0
176
     1
 40
1.0
176
     1
 90
        0
176
     1
 62
    18
420
        0
176
     1
 90
       50
176
     1
 90
        3
176
     1
 62
     5
420
      255
176
     1
290
     0
176
     1
 90
       50
176
     1
 90
       50
176
     1
 90
       50
176
     1
290
     0
176
     1
 90
       50
176
     1
 62
   256
176
     0
 40
1.0
176
     0
 90
        2
176
     1
  1
strokes_ogs.tif
176
     1
290
     0
176
     1
 40
1.0
176
     1
 40
1.0
176
     1
1001
ACAD
1000
AcDbSavedByObjectVersion
1070
     0
  0
VISUALSTYLE
  5
85ED
102
{ACAD_REACTORS
330
85EB
102
}
330
85EB
100
AcDbVisualStyle
  2
FlatWithEdges
 70
     1
177
     3
291
     1
 70
    58
 90
        2
176
     1
 90
        1
176
     1
 90
        1
176
     1
 90
        2
176
     1
 40
0.6
176
     1
 40
30.0
176
     1
 62
     7
420
 16777215
176
     1
 90
        1
176
     1
 90
        0
176
     1
 62
     7
176
     1
 62
   257
176
     1
 90
        1
176
     1
 90
        1
176
     1
 40
1.0
176
     1
 90
        0
176
     1
 62
   257
176
     1
 40
1.0
176
     1
 90
        1
176
     1
 90
        6
176
     1
 90
        2
176
     1
 62
     7
176
     1
 90
        5
176
     1
 90
        0
176
     1
 90
        0
176
     1
290
     0
176
     1
 90
       13
176
     1
 40
0.0
176
     1
 90
        0
176
     1
290
     0
176
     1
290
     1
176
     1
290
     1
176
     1
290
     0
176
     1
290
     0
176
     1
290
     0
176
     1
290
     0
176
     1
290
     0
176
     1
290
     0
176
     1
 90
       50
176
     1
 40
0.0
176
     1
 40
1.0
176
     1
 90
        0
176
     1
 62
    18
420
        0
176
     1
 90
       50
176
     1
 90
        3
176
     1
 62
     5
420
      255
176
     1
290
     0
176
     1
 90
       50
176
     1
 90
       50
176
     1
 90
       50
176
     1
290
     0
176
     1
 90
       50
176
     1
 62
   256
176
     0
 40
1.0
176
     0
 90
        2
176
     1
  1
strokes_ogs.tif
176
     1
290
     0
176
     1
 40
1.0
176
     1
 40
1.0
176
     1
1001
ACAD
1000
AcDbSavedByObjectVersion
1070
     0
  0
VISUALSTYLE
  5
85EE
102
{ACAD_REACTORS
330
85EB
102
}
330
85EB
100
AcDbVisualStyle
  2
Gouraud
 70
     2
177
     3
291
     1
 70
    58
 90
        2
176
     1
 90
        2
176
     1
 90
        1
176
     1
 90
        2
176
     1
 40
0.6
176
     1
 40
30.0
176
     1
 62
     7
420
 16777215
176
     1
 90
        0
176
     1
 90
        0
176
     1
 62
     7
176
     1
 62
   257
176
     1
 90
        1
176
     1
 90
        1
176
     1
 40
1.0
176
     1
 90
        0
176
     1
 62
     7
176
     1
 40
1.0
176
     1
 90
        1
176
     1
 90
        6
176
     1
 90
        2
176
     1
 62
     7
176
     1
 90
        5
176
     1
 90
        0
176
     1
 90
        0
176
     1
290
     0
176
     1
 90
       13
176
     1
 40
0.0
176
     1
 90
        0
176
     1
290
     0
176
     1
290
     1
176
     1
290
     1
176
     1
290
     0
176
     1
290
     0
176
     1
290
     0
176
     1
290
     0
176
     1
290
     0
176
     1
290
     0
176
     1
 90
       50
176
     1
 40
0.0
176
     1
 40
1.0
176
     1
 90
        0
176
     1
 62
    18
420
        0
176
     1
 90
       50
176
     1
 90
        3
176
     1
 62
     5
420
      255
176
     1
290
     0
176
     1
 90
       50
176
     1
 90
       50
176
     1
 90
       50
176
     1
290
     0
176
     1
 90
       50
176
     1
 62
   256
176
     0
 40
1.0
176
     0
 90
        2
176
     1
  1
strokes_ogs.tif
176
     1
290
     0
176
     1
 40
1.0
176
     1
 40
1.0
176
     1
1001
ACAD
1000
AcDbSavedByObjectVersion
1070
     0
  0
VISUALSTYLE
  5
85EF
102
{ACAD_REACTORS
330
85EB
102
}
330
85EB
100
AcDbVisualStyle
  2
GouraudWithEdges
 70
     3
177
     3
291
     1
 70
    58
 90
        2
176
     1
 90
        2
176
     1
 90
        1
176
     1
 90
        2
176
     1
 40
0.6
176
     1
 40
30.0
176
     1
 62
     7
420
 16777215
176
     1
 90
        1
176
     1
 90
        0
176
     1
 62
     7
176
     1
 62
   257
176
     1
 90
        1
176
     1
 90
        1
176
     1
 40
1.0
176
     1
 90
        0
176
     1
 62
   257
176
     1
 40
1.0
176
     1
 90
        1
176
     1
 90
        6
176
     1
 90
        2
176
     1
 62
     7
176
     1
 90
        5
176
     1
 90
        0
176
     1
 90
        0
176
     1
290
     0
176
     1
 90
       13
176
     1
 40
0.0
176
     1
 90
        0
176
     1
290
     0
176
     1
290
     1
176
     1
290
     1
176
     1
290
     0
176
     1
290
     0
176
     1
290
     0
176
     1
290
     0
176
     1
290
     0
176
     1
290
     0
176
     1
 90
       50
176
     1
 40
0.0
176
     1
 40
1.0
176
     1
 90
        0
176
     1
 62
    18
420
        0
176
     1
 90
       50
176
     1
 90
        3
176
     1
 62
     5
420
      255
176
     1
290
     0
176
     1
 90
       50
176
     1
 90
       50
176
     1
 90
       50
176
     1
290
     0
176
     1
 90
       50
176
     1
 62
   256
176
     0
 40
1.0
176
     0
 90
        2
176
     1
  1
strokes_ogs.tif
176
     1
290
     0
176
     1
 40
1.0
176
     1
 40
1.0
176
     1
1001
ACAD
1000
AcDbSavedByObjectVersion
1070
     0
  0
VISUALSTYLE
  5
85F3
102
{ACAD_REACTORS
330
85EB
102
}
330
85EB
100
AcDbVisualStyle
  2
Hidden
 70
     6
177
     3
291
     0
 70
    58
 90
        1
176
     1
 90
        2
176
     1
 90
        2
176
     1
 90
        0
176
     1
 40
0.6
176
     1
 40
30.0
176
     1
 62
     7
420
 16777215
176
     1
 90
        2
176
     1
 90
        2
176
     1
 62
     7
176
     1
 62
   257
176
     1
 90
        2
176
     1
 90
        1
176
     1
 40
40.0
176
     1
 90
        0
176
     1
 62
   257
176
     1
 40
1.0
176
     1
 90
        1
176
     1
 90
        6
176
     1
 90
        2
176
     1
 62
     7
176
     1
 90
        3
176
     1
 90
        0
176
     1
 90
        0
176
     1
290
     0
176
     1
 90
        1
176
     1
 40
0.0
176
     1
 90
        0
176
     1
290
     0
176
     1
290
     1
176
     1
290
     1
176
     1
290
     0
176
     1
290
     0
176
     1
290
     0
176
     1
290
     0
176
     1
290
     0
176
     1
290
     0
176
     1
 90
       50
176
     1
 40
0.0
176
     1
 40
1.0
176
     1
 90
        0
176
     1
 62
    18
420
        0
176
     1
 90
       50
176
     1
 90
        3
176
     1
 62
     5
420
      255
176
     1
290
     0
176
     1
 90
       50
176
     1
 90
       50
176
     1
 90
       50
176
     1
290
     0
176
     1
 90
       50
176
     1
 62
   256
176
     0
 40
1.0
176
     0
 90
        2
176
     1
  1
strokes_ogs.tif
176
     1
290
     0
176
     1
 40
1.0
176
     1
 40
1.0
176
     1
1001
ACAD
1000
AcDbSavedByObjectVersion
1070
     0
  0
VISUALSTYLE
  5
8601
102
{ACAD_REACTORS
330
85EB
102
}
330
85EB
100
AcDbVisualStyle
  2
JitterOff
 70
    20
177
     3
291
     1
 70
    58
 90
        2
176
     0
 90
        2
176
     0
 90
        0
176
     0
 90
        0
176
     0
 40
0.6
176
     0
 40
30.0
176
     0
 62
     7
420
 16777215
176
     0
 90
        1
176
     0
 90
        4
176
     0
 62
     7
176
     0
 62
   257
176
     0
 90
        1
176
     0
 90
        1
176
     0
 40
1.0
176
     0
 90
       10
176
     2
 62
     7
176
     0
 40
1.0
176
     0
 90
        1
176
     0
 90
        6
176
     0
 90
        2
176
     0
 62
     7
176
     0
 90
        5
176
     0
 90
        0
176
     0
 90
        0
176
     0
290
     0
176
     0
 90
        1
176
     0
 40
0.0
176
     0
 90
        0
176
     0
290
     0
176
     0
290
     1
176
     0
290
     1
176
     0
290
     0
176
     0
290
     0
176
     0
290
     0
176
     0
290
     0
176
     0
290
     0
176
     0
290
     0
176
     0
 90
       50
176
     0
 40
0.0
176
     0
 40
1.0
176
     0
 90
        0
176
     0
 62
    18
420
        0
176
     0
 90
       50
176
     0
 90
        3
176
     0
 62
     5
420
      255
176
     0
290
     0
176
     0
 90
       50
176
     0
 90
       50
176
     0
 90
       50
176
     0
290
     0
176
     0
 90
       50
176
     0
 62
   256
176
     0
 40
1.0
176
     0
 90
        2
176
     0
  1
strokes_ogs.tif
176
     0
290
     0
176
     0
 40
1.0
176
     0
 40
1.0
176
     0
1001
ACAD
1000
AcDbSavedByObjectVersion
1070
     0
  0
VISUALSTYLE
  5
85F9
102
{ACAD_REACTORS
330
85EB
102
}
330
85EB
100
AcDbVisualStyle
  2
Linepattern
 70
    14
177
     3
291
     1
 70
    58
 90
        2
176
     1
 90
        2
176
     1
 90
        0
176
     1
 90
        0
176
     1
 40
0.6
176
     1
 40
30.0
176
     1
 62
     7
420
 16777215
176
     1
 90
        1
176
     1
 90
        4
176
     1
 62
     7
176
     1
 62
   257
176
     1
 90
        7
176
     1
 90
        7
176
     1
 40
1.0
176
     1
 90
        8
176
     1
 62
     7
176
     1
 40
1.0
176
     1
 90
        1
176
     1
 90
        6
176
     1
 90
        2
176
     1
 62
     7
176
     1
 90
        5
176
     1
 90
        0
176
     1
 90
        0
176
     1
290
     0
176
     1
 90
        1
176
     1
 40
0.0
176
     1
 90
        0
176
     1
290
     0
176
     1
290
     1
176
     1
290
     1
176
     1
290
     0
176
     1
290
     0
176
     1
290
     0
176
     1
290
     0
176
     1
290
     0
176
     1
290
     0
176
     1
 90
       50
176
     1
 40
0.0
176
     1
 40
1.0
176
     1
 90
        0
176
     1
 62
    18
420
        0
176
     1
 90
       50
176
     1
 90
        3
176
     1
 62
     5
420
      255
176
     1
290
     0
176
     1
 90
       50
176
     1
 90
       50
176
     1
 90
       50
176
     1
290
     0
176
     1
 90
       50
176
     1
 62
   256
176
     0
 40
1.0
176
     0
 90
        2
176
     1
  1
strokes_ogs.tif
176
     1
290
     0
176
     1
 40
1.0
176
     1
 40
1.0
176
     1
1001
ACAD
1000
AcDbSavedByObjectVersion
1070
     0
  0
VISUALSTYLE
  5
8602
102
{ACAD_REACTORS
330
85EB
102
}
330
85EB
100
AcDbVisualStyle
  2
OverhangOff
 70
    21
177
     3
291
     1
 70
    58
 90
        2
176
     0
 90
        2
176
     0
 90
        0
176
     0
 90
        0
176
     0
 40
0.6
176
     0
 40
30.0
176
     0
 62
     7
420
 16777215
176
     0
 90
        1
176
     0
 90
        4
176
     0
 62
     7
176
     0
 62
   257
176
     0
 90
        1
176
     0
 90
        1
176
     0
 40
1.0
176
     0
 90
        9
176
     2
 62
     7
176
     0
 40
1.0
176
     0
 90
        1
176
     0
 90
        6
176
     0
 90
        2
176
     0
 62
     7
176
     0
 90
        5
176
     0
 90
        0
176
     0
 90
        0
176
     0
290
     0
176
     0
 90
        1
176
     0
 40
0.0
176
     0
 90
        0
176
     0
290
     0
176
     0
290
     1
176
     0
290
     1
176
     0
290
     0
176
     0
290
     0
176
     0
290
     0
176
     0
290
     0
176
     0
290
     0
176
     0
290
     0
176
     0
 90
       50
176
     0
 40
0.0
176
     0
 40
1.0
176
     0
 90
        0
176
     0
 62
    18
420
        0
176
     0
 90
       50
176
     0
 90
        3
176
     0
 62
     5
420
      255
176
     0
290
     0
176
     0
 90
       50
176
     0
 90
       50
176
     0
 90
       50
176
     0
290
     0
176
     0
 90
       50
176
     0
 62
   256
176
     0
 40
1.0
176
     0
 90
        2
176
     0
  1
strokes_ogs.tif
176
     0
290
     0
176
     0
 40
1.0
176
     0
 40
1.0
176
     0
1001
ACAD
1000
AcDbSavedByObjectVersion
1070
     0
  0
VISUALSTYLE
  5
85F5
102
{ACAD_REACTORS
330
85EB
102
}
330
85EB
100
AcDbVisualStyle
  2
Realistic
 70
     8
177
     3
291
     0
 70
    58
 90
        2
176
     1
 90
        3
176
     1
 90
        0
176
     1
 90
        2
176
     1
 40
0.6
176
     1
 40
30.0
176
     1
 62
     7
420
 16777215
176
     1
 90
        0
176
     1
 90
        0
176
     1
 62
     7
176
     1
 62
   257
176
     1
 90
        1
176
     1
 90
        1
176
     1
 40
1.0
176
     1
 90
        8
176
     1
 62
   257
176
     1
 40
1.0
176
     1
 90
        1
176
     1
 90
        6
176
     1
 90
        2
176
     1
 62
     7
176
     1
 90
        3
176
     1
 90
        0
176
     1
 90
        0
176
     1
290
     0
176
     1
 90
       13
176
     1
 40
0.0
176
     1
 90
        0
176
     1
290
     0
176
     1
290
     1
176
     1
290
     1
176
     1
290
     0
176
     1
290
     0
176
     1
290
     0
176
     1
290
     0
176
     1
290
     0
176
     1
290
     0
176
     1
 90
       50
176
     1
 40
0.0
176
     1
 40
1.0
176
     1
 90
        0
176
     1
 62
    18
420
        0
176
     1
 90
       50
176
     1
 90
        3
176
     1
 62
     5
420
      255
176
     1
290
     0
176
     1
 90
       50
176
     1
 90
       50
176
     1
 90
       50
176
     1
290
     0
176
     1
 90
       50
176
     1
 62
   256
176
     0
 40
1.0
176
     0
 90
        2
176
     1
  1
strokes_ogs.tif
176
     1
290
     0
176
     1
 40
1.0
176
     1
 40
1.0
176
     1
1001
ACAD
1000
AcDbSavedByObjectVersion
1070
     0
  0
VISUALSTYLE
  5
8600
102
{ACAD_REACTORS
330
85EB
102
}
330
85EB
100
AcDbVisualStyle
  2
Shaded
 70
    27
177
     3
291
     0
 70
    58
 90
        2
176
     1
 90
        2
176
     1
 90
        1
176
     1
 90
        2
176
     1
 40
0.6
176
     1
 40
30.0
176
     1
 62
     7
420
 16777215
176
     1
 90
        0
176
     1
 90
        4
176
     1
 62
     7
176
     1
 62
   257
176
     1
 90
        1
176
     1
 90
        1
176
     1
 40
1.0
176
     1
 90
        8
176
     1
 62
   257
176
     1
 40
1.0
176
     1
 90
        1
176
     1
 90
        6
176
     1
 90
        2
176
     1
 62
     8
420
  7895160
176
     1
 90
        3
176
     1
 90
        0
176
     1
 90
        0
176
     1
290
     0
176
     1
 90
        5
176
     1
 40
0.0
176
     1
 90
        0
176
     1
290
     0
176
     1
290
     1
176
     1
290
     1
176
     1
290
     0
176
     1
290
     0
176
     1
290
     0
176
     1
290
     0
176
     1
290
     0
176
     1
290
     0
176
     1
 90
       50
176
     1
 40
0.0
176
     1
 40
1.0
176
     1
 90
        0
176
     1
 62
    18
420
        0
176
     1
 90
       50
176
     1
 90
        3
176
     1
 62
     5
420
      255
176
     1
290
     0
176
     1
 90
       50
176
     1
 90
       50
176
     1
 90
       50
176
     1
290
     0
176
     1
 90
       50
176
     1
 62
   256
176
     0
 40
1.0
176
     0
 90
        2
176
     1
  1
strokes_ogs.tif
176
     1
290
     0
176
     1
 40
1.0
176
     1
 40
1.0
176
     1
1001
ACAD
1000
AcDbSavedByObjectVersion
1070
     0
  0
VISUALSTYLE
  5
85FF
102
{ACAD_REACTORS
330
85EB
102
}
330
85EB
100
AcDbVisualStyle
  2
Shaded with edges
 70
    26
177
     3
291
     0
 70
    58
 90
        2
176
     1
 90
        2
176
     1
 90
        1
176
     1
 90
        2
176
     1
 40
0.6
176
     1
 40
30.0
176
     1
 62
     7
420
 16777215
176
     1
 90
        1
176
     1
 90
        2
176
     1
 62
     7
176
     1
 62
   257
176
     1
 90
        2
176
     1
 90
        1
176
     1
 40
1.0
176
     1
 90
        8
176
     1
 62
   257
176
     1
 40
1.0
176
     1
 90
        1
176
     1
 90
        6
176
     1
 90
        2
176
     1
 62
     7
176
     1
 90
        3
176
     1
 90
        0
176
     1
 90
        0
176
     1
290
     0
176
     1
 90
        5
176
     1
 40
0.0
176
     1
 90
        0
176
     1
290
     0
176
     1
290
     1
176
     1
290
     1
176
     1
290
     0
176
     1
290
     0
176
     1
290
     0
176
     1
290
     0
176
     1
290
     0
176
     1
290
     0
176
     1
 90
       50
176
     1
 40
0.0
176
     1
 40
1.0
176
     1
 90
        0
176
     1
 62
    18
420
        0
176
     1
 90
       50
176
     1
 90
        3
176
     1
 62
     5
420
      255
176
     1
290
     0
176
     1
 90
       50
176
     1
 90
       50
176
     1
 90
       50
176
     1
290
     0
176
     1
 90
       50
176
     1
 62
   256
176
     0
 40
1.0
176
     0
 90
        2
176
     1
  1
strokes_ogs.tif
176
     1
290
     0
176
     1
 40
1.0
176
     1
 40
1.0
176
     1
1001
ACAD
1000
AcDbSavedByObjectVersion
1070
     0
  0
VISUALSTYLE
  5
85FC
102
{ACAD_REACTORS
330
85EB
102
}
330
85EB
100
AcDbVisualStyle
  2
Shades of Gray
 70
    23
177
     3
291
     0
 70
    58
 90
        2
176
     1
 90
        2
176
     1
 90
        3
176
     1
 90
        0
176
     1
 40
0.6
176
     1
 40
30.0
176
     1
 62
     7
420
 16777215
176
     1
 90
        2
176
     1
 90
        2
176
     1
 62
     7
176
     1
 62
     7
176
     1
 90
        1
176
     1
 90
        1
176
     1
 40
40.0
176
     1
 90
        8
176
     1
 62
     7
176
     1
 40
1.0
176
     1
 90
        1
176
     1
 90
        6
176
     1
 90
        2
176
     1
 62
     7
176
     1
 90
        3
176
     1
 90
        0
176
     1
 90
        0
176
     1
290
     0
176
     1
 90
        1
176
     1
 40
0.0
176
     1
 90
        0
176
     1
290
     0
176
     1
290
     1
176
     1
290
     1
176
     1
290
     0
176
     1
290
     0
176
     1
290
     0
176
     1
290
     0
176
     1
290
     0
176
     1
290
     0
176
     1
 90
       50
176
     1
 40
0.0
176
     1
 40
1.0
176
     1
 90
        0
176
     1
 62
    18
420
        0
176
     1
 90
       50
176
     1
 90
        3
176
     1
 62
     5
420
      255
176
     1
290
     0
176
     1
 90
       50
176
     1
 90
       50
176
     1
 90
       50
176
     1
290
     0
176
     1
 90
       50
176
     1
 62
   256
176
     0
 40
1.0
176
     0
 90
        2
176
     1
  1
strokes_ogs.tif
176
     1
290
     0
176
     1
 40
1.0
176
     1
 40
1.0
176
     1
1001
ACAD
1000
AcDbSavedByObjectVersion
1070
     0
  0
VISUALSTYLE
  5
85FD
102
{ACAD_REACTORS
330
85EB
102
}
330
85EB
100
AcDbVisualStyle
  2
Sketchy
 70
    24
177
     3
291
     0
 70
    58
 90
        1
176
     1
 90
        2
176
     1
 90
        2
176
     1
 90
        0
176
     1
 40
0.6
176
     1
 40
30.0
176
     1
 62
     7
420
 16777215
176
     1
 90
        2
176
     1
 90
        2
176
     1
 62
     7
176
     1
 62
     7
176
     1
 90
        1
176
     1
 90
        1
176
     1
 40
40.0
176
     1
 90
       11
176
     1
 62
     7
176
     1
 40
1.0
176
     1
 90
        1
176
     1
 90
        6
176
     1
 90
        2
176
     1
 62
     7
176
     1
 90
        6
176
     1
 90
        0
176
     1
 90
        0
176
     1
290
     0
176
     1
 90
        1
176
     1
 40
0.0
176
     1
 90
        0
176
     1
290
     0
176
     1
290
     1
176
     1
290
     1
176
     1
290
     0
176
     1
290
     0
176
     1
290
     0
176
     1
290
     0
176
     1
290
     0
176
     1
290
     0
176
     1
 90
       50
176
     1
 40
0.0
176
     1
 40
1.0
176
     1
 90
        0
176
     1
 62
    18
420
        0
176
     1
 90
       50
176
     1
 90
        3
176
     1
 62
     5
420
      255
176
     1
290
     0
176
     1
 90
       50
176
     1
 90
       50
176
     1
 90
       50
176
     1
290
     0
176
     1
 90
       50
176
     1
 62
   256
176
     0
 40
1.0
176
     0
 90
        2
176
     1
  1
strokes_ogs.tif
176
     1
290
     0
176
     1
 40
1.0
176
     1
 40
1.0
176
     1
1001
ACAD
1000
AcDbSavedByObjectVersion
1070
     0
  0
VISUALSTYLE
  5
85F8
102
{ACAD_REACTORS
330
85EB
102
}
330
85EB
100
AcDbVisualStyle
  2
Thicken
 70
    13
177
     3
291
     1
 70
    58
 90
        2
176
     1
 90
        2
176
     1
 90
        0
176
     1
 90
        0
176
     1
 40
0.6
176
     1
 40
30.0
176
     1
 62
     7
420
 16777215
176
     1
 90
        1
176
     1
 90
        4
176
     1
 62
     7
176
     1
 62
   257
176
     1
 90
        1
176
     1
 90
        1
176
     1
 40
1.0
176
     1
 90
       12
176
     1
 62
     7
176
     1
 40
1.0
176
     1
 90
        1
176
     1
 90
        6
176
     1
 90
        2
176
     1
 62
     7
176
     1
 90
        5
176
     1
 90
        0
176
     1
 90
        0
176
     1
290
     0
176
     1
 90
        1
176
     1
 40
0.0
176
     1
 90
        0
176
     1
290
     0
176
     1
290
     1
176
     1
290
     1
176
     1
290
     0
176
     1
290
     0
176
     1
290
     0
176
     1
290
     0
176
     1
290
     0
176
     1
290
     0
176
     1
 90
       50
176
     1
 40
0.0
176
     1
 40
1.0
176
     1
 90
        0
176
     1
 62
    18
420
        0
176
     1
 90
       50
176
     1
 90
        3
176
     1
 62
     5
420
      255
176
     1
290
     0
176
     1
 90
       50
176
     1
 90
       50
176
     1
 90
       50
176
     1
290
     0
176
     1
 90
       50
176
     1
 62
   256
176
     0
 40
1.0
176
     0
 90
        2
176
     1
  1
strokes_ogs.tif
176
     1
290
     0
176
     1
 40
1.0
176
     1
 40
1.0
176
     1
1001
ACAD
1000
AcDbSavedByObjectVersion
1070
     0
  0
VISUALSTYLE
  5
85F2
102
{ACAD_REACTORS
330
85EB
102
}
330
85EB
100
AcDbVisualStyle
  2
Wireframe
 70
     5
177
     3
291
     0
 70
    58
 90
        0
176
     1
 90
        2
176
     1
 90
        0
176
     1
 90
        0
176
     1
 40
0.6
176
     1
 40
30.0
176
     1
 62
     7
420
 16777215
176
     1
 90
        1
176
     1
 90
        4
176
     1
 62
     7
176
     1
 62
   257
176
     1
 90
        1
176
     1
 90
        1
176
     1
 40
1.0
176
     1
 90
        0
176
     1
 62
   257
176
     1
 40
1.0
176
     1
 90
        1
176
     1
 90
        6
176
     1
 90
        2
176
     1
 62
     7
176
     1
 90
        3
176
     1
 90
        0
176
     1
 90
        0
176
     1
290
     0
176
     1
 90
        1
176
     1
 40
0.0
176
     1
 90
        0
176
     1
290
     0
176
     1
290
     1
176
     1
290
     1
176
     1
290
     0
176
     1
290
     0
176
     1
290
     0
176
     1
290
     0
176
     1
290
     0
176
     1
290
     0
176
     1
 90
       50
176
     1
 40
0.0
176
     1
 40
1.0
176
     1
 90
        0
176
     1
 62
    18
420
        0
176
     1
 90
       50
176
     1
 90
        3
176
     1
 62
     5
420
      255
176
     1
290
     0
176
     1
 90
       50
176
     1
 90
       50
176
     1
 90
       50
176
     1
290
     0
176
     1
 90
       50
176
     1
 62
   256
176
     0
 40
1.0
176
     0
 90
        2
176
     1
  1
strokes_ogs.tif
176
     1
290
     0
176
     1
 40
1.0
176
     1
 40
1.0
176
     1
1001
ACAD
1000
AcDbSavedByObjectVersion
1070
     0
  0
VISUALSTYLE
  5
85FE
102
{ACAD_REACTORS
330
85EB
102
}
330
85EB
100
AcDbVisualStyle
  2
X-Ray
 70
    25
177
     3
291
     0
 70
    58
 90
        2
176
     1
 90
        2
176
     1
 90
        1
176
     1
 90
        1
176
     1
 40
0.5
176
     1
 40
30.0
176
     1
 62
     7
420
 16777215
176
     1
 90
        1
176
     1
 90
        0
176
     1
 62
     7
176
     1
 62
   257
176
     1
 90
        1
176
     1
 90
        1
176
     1
 40
1.0
176
     1
 90
        8
176
     1
 62
     7
176
     1
 40
1.0
176
     1
 90
        1
176
     1
 90
        6
176
     1
 90
        2
176
     1
 62
     7
176
     1
 90
        3
176
     1
 90
        0
176
     1
 90
        0
176
     1
290
     0
176
     1
 90
       13
176
     1
 40
0.0
176
     1
 90
        0
176
     1
290
     0
176
     1
290
     1
176
     1
290
     1
176
     1
290
     0
176
     1
290
     0
176
     1
290
     0
176
     1
290
     0
176
     1
290
     0
176
     1
290
     0
176
     1
 90
       50
176
     1
 40
0.0
176
     1
 40
1.0
176
     1
 90
        0
176
     1
 62
    18
420
        0
176
     1
 90
       50
176
     1
 90
        3
176
     1
 62
     5
420
      255
176
     1
290
     0
176
     1
 90
       50
176
     1
 90
       50
176
     1
 90
       50
176
     1
290
     0
176
     1
 90
       50
176
     1
 62
   256
176
     0
 40
1.0
176
     0
 90
        2
176
     1
  1
strokes_ogs.tif
176
     1
290
     0
176
     1
 40
1.0
176
     1
 40
1.0
176
     1
1001
ACAD
1000
AcDbSavedByObjectVersion
1070
     0
  0
DICTIONARYVAR
  5
86B1
102
{ACAD_REACTORS
330
86AB
102
}
330
86AB
100
DictionaryVariables
280
     0
  1
1:1
  0
DICTIONARYVAR
  5
86AD
102
{ACAD_REACTORS
330
86AB
102
}
330
86AB
100
DictionaryVariables
280
     0
  1
STANDARD
  0
DICTIONARYVAR
  5
86AC
102
{ACAD_REACTORS
330
86AB
102
}
330
86AB
100
DictionaryVariables
280
     0
  1
STANDARD
  0
DICTIONARYVAR
  5
86AE
102
{ACAD_REACTORS
330
86AB
102
}
330
86AB
100
DictionaryVariables
280
     0
  1
Metric50
  0
DICTIONARYVAR
  5
86AF
102
{ACAD_REACTORS
330
86AB
102
}
330
86AB
100
DictionaryVariables
280
     0
  1
Metric50
  0
DICTIONARYVAR
  5
86B3
102
{ACAD_REACTORS
330
86AB
102
}
330
86AB
100
DictionaryVariables
280
     0
  1
1
  0
DICTIONARYVAR
  5
86B4
102
{ACAD_REACTORS
330
86AB
102
}
330
86AB
100
DictionaryVariables
280
     0
  1
15
  0
DICTIONARYVAR
  5
86B2
102
{ACAD_REACTORS
330
86AB
102
}
330
86AB
100
DictionaryVariables
280
     0
  1
0
  0
DICTIONARYVAR
  5
86B9
102
{ACAD_REACTORS
330
86AB
102
}
330
86AB
100
DictionaryVariables
280
     0
  1
0
  0
DICTIONARYVAR
  5
86B0
102
{ACAD_REACTORS
330
86AB
102
}
330
86AB
100
DictionaryVariables
280
     0
  1
0
  0
DICTIONARY
  5
86C4
102
{ACAD_REACTORS
330
86C2
102
}
330
86C2
100
AcDbDictionary
281
     1
  0
DICTIONARY
  5
86C3
102
{ACAD_REACTORS
330
86C2
102
}
330
86C2
100
AcDbDictionary
281
     1
  3
2039242690256
350
86BD
  3
2039242690272
350
86BE
  3
2039242690288
350
86BF
  3
2039242690304
350
86C0
  3
2039242690320
350
86C1
  0
DICTIONARY
  5
86C7
330
861E
100
AcDbDictionary
280
     1
281
     1
  3
ACAD_XREC_ROUNDTRIP
360
86C8
  0
DICTIONARY
  5
85DC
330
85DB
100
AcDbDictionary
280
     1
281
     1
  3
BUMPTILE
360
85DE
  3
DIFFUSETILE
360
85DD
  3
OPACITYTILE
360
85E1
  3
REFLECTIONTILE
360
85E0
  3
REFRACTIONTILE
360
85E2
  3
SPECULARTILE
360
85DF
  0
DICTIONARY
  5
85D4
330
85D3
100
AcDbDictionary
280
     1
281
     1
  3
BUMPTILE
360
85D6
  3
DIFFUSETILE
360
85D5
  3
OPACITYTILE
360
85D9
  3
REFLECTIONTILE
360
85D8
  3
REFRACTIONTILE
360
85DA
  3
SPECULARTILE
360
85D7
  0
DICTIONARY
  5
85E4
330
85E3
100
AcDbDictionary
280
     1
281
     1
  3
BUMPTILE
360
85E6
  3
DIFFUSETILE
360
85E5
  3
OPACITYTILE
360
85E9
  3
REFLECTIONTILE
360
85E8
  3
REFRACTIONTILE
360
85EA
  3
SPECULARTILE
360
85E7
  0
DICTIONARY
  5
86C5
330
861C
100
AcDbDictionary
280
     1
281
     1
  3
ACAD_XREC_ROUNDTRIP
360
86C6
  0
DICTIONARY
  5
86BA
330
8606
100
AcDbDictionary
280
     1
281
     1
  3
ACAD_ROUNDTRIP_2008_TABLESTYLE_CELLSTYLEMAP
360
86BB
  0
XRECORD
  5
86BD
102
{ACAD_REACTORS
330
86C3
102
}
330
86C3
100
AcDbXrecord
280
     1
  1
AcDb_Thumbnail_Schema
102
{ATTRRECORD
341
86BE
  2
AcDbDs::TreatedAsObjectData
280
     1
291
     1
102
ATTRRECORD}
102
{ATTRRECORD
341
86BF
  2
AcDbDs::Legacy
280
     1
291
     1
102
ATTRRECORD}
  2
AcDbDs::ID
280
    10
 91
        8
102
{ATTRRECORD
341
86C0
  2
AcDs:Indexable
280
     1
291
     1
102
ATTRRECORD}
102
{ATTRRECORD
341
86C1
  2
AcDbDs::HandleAttribute
280
     7
282
     1
102
ATTRRECORD}
  2
Thumbnail_Data
280
    15
 91
        0
  0
XRECORD
  5
86BE
102
{ACAD_REACTORS
330
86C3
102
}
330
86C3
100
AcDbXrecord
280
     1
  1
AcDbDs::TreatedAsObjectDataSchema
  2
AcDbDs::TreatedAsObjectData
280
     1
 91
        0
  0
XRECORD
  5
86BF
102
{ACAD_REACTORS
330
86C3
102
}
330
86C3
100
AcDbXrecord
280
     1
  1
AcDbDs::LegacySchema
  2
AcDbDs::Legacy
280
     1
 91
        0
  0
XRECORD
  5
86C0
102
{ACAD_REACTORS
330
86C3
102
}
330
86C3
100
AcDbXrecord
280
     1
  1
AcDbDs::IndexedPropertySchema
  2
AcDs:Indexable
280
     1
 91
        0
  0
XRECORD
  5
86C1
102
{ACAD_REACTORS
330
86C3
102
}
330
86C3
100
AcDbXrecord
280
     1
  1
AcDbDs::HandleAttributeSchema
  2
AcDbDs::HandleAttribute
280
     7
 91
        1
284
     1
  0
XRECORD
  5
86C8
102
{ACAD_REACTORS
330
86C7
102
}
330
86C7
100
AcDbXrecord
280
     1
102
DISPLAYNAME
  1
Metric50
102
FLAGS
 90
        0
  0
XRECORD
  5
85DE
102
{ACAD_REACTORS
330
85DC
102
}
330
85DC
100
AcDbXrecord
280
     1
270
     1
271
     1
  0
XRECORD
  5
85DD
102
{ACAD_REACTORS
330
85DC
102
}
330
85DC
100
AcDbXrecord
280
     1
270
     1
271
     1
  0
XRECORD
  5
85E1
102
{ACAD_REACTORS
330
85DC
102
}
330
85DC
100
AcDbXrecord
280
     1
270
     1
271
     1
  0
XRECORD
  5
85E0
102
{ACAD_REACTORS
330
85DC
102
}
330
85DC
100
AcDbXrecord
280
     1
270
     1
271
     1
  0
XRECORD
  5
85E2
102
{ACAD_REACTORS
330
85DC
102
}
330
85DC
100
AcDbXrecord
280
     1
270
     1
271
     1
  0
XRECORD
  5
85DF
102
{ACAD_REACTORS
330
85DC
102
}
330
85DC
100
AcDbXrecord
280
     1
270
     1
271
     1
  0
XRECORD
  5
85D6
102
{ACAD_REACTORS
330
85D4
102
}
330
85D4
100
AcDbXrecord
280
     1
270
     1
271
     1
  0
XRECORD
  5
85D5
102
{ACAD_REACTORS
330
85D4
102
}
330
85D4
100
AcDbXrecord
280
     1
270
     1
271
     1
  0
XRECORD
  5
85D9
102
{ACAD_REACTORS
330
85D4
102
}
330
85D4
100
AcDbXrecord
280
     1
270
     1
271
     1
  0
XRECORD
  5
85D8
102
{ACAD_REACTORS
330
85D4
102
}
330
85D4
100
AcDbXrecord
280
     1
270
     1
271
     1
  0
XRECORD
  5
85DA
102
{ACAD_REACTORS
330
85D4
102
}
330
85D4
100
AcDbXrecord
280
     1
270
     1
271
     1
  0
XRECORD
  5
85D7
102
{ACAD_REACTORS
330
85D4
102
}
330
85D4
100
AcDbXrecord
280
     1
270
     1
271
     1
  0
XRECORD
  5
85E6
102
{ACAD_REACTORS
330
85E4
102
}
330
85E4
100
AcDbXrecord
280
     1
270
     1
271
     1
  0
XRECORD
  5
85E5
102
{ACAD_REACTORS
330
85E4
102
}
330
85E4
100
AcDbXrecord
280
     1
270
     1
271
     1
  0
XRECORD
  5
85E9
102
{ACAD_REACTORS
330
85E4
102
}
330
85E4
100
AcDbXrecord
280
     1
270
     1
271
     1
  0
XRECORD
  5
85E8
102
{ACAD_REACTORS
330
85E4
102
}
330
85E4
100
AcDbXrecord
280
     1
270
     1
271
     1
  0
XRECORD
  5
85EA
102
{ACAD_REACTORS
330
85E4
102
}
330
85E4
100
AcDbXrecord
280
     1
270
     1
271
     1
  0
XRECORD
  5
85E7
102
{ACAD_REACTORS
330
85E4
102
}
330
85E4
100
AcDbXrecord
280
     1
270
     1
271
     1
  0
XRECORD
  5
86C6
102
{ACAD_REACTORS
330
86C5
102
}
330
86C5
100
AcDbXrecord
280
     1
102
DISPLAYNAME
  1
Metric50
102
FLAGS
 90
        0
  0
CELLSTYLEMAP
  5
86BB
102
{ACAD_REACTORS
330
86BA
102
}
330
86BA
100
AcDbCellStyleMap
 90
        3
300
CELLSTYLE
  1
TABLEFORMAT_BEGIN
 90
        5
170
     1
 91
        0
 92
    32768
 62
   257
 93
        1
300
CONTENTFORMAT
  1
CONTENTFORMAT_BEGIN
 90
        0
 91
        0
 92
      512
 93
        0
300

 40
0.0
140
1.0
 94
        5
 62
     0
340
10
144
6.0
309
CONTENTFORMAT_END
171
     1
301
MARGIN
  1
CELLMARGIN_BEGIN
 40
1.5
 40
1.5
 40
1.5
 40
1.5
 40
4.5
 40
4.5
309
CELLMARGIN_END
 94
        6
 95
        1
302
GRIDFORMAT
  1
GRIDFORMAT_BEGIN
 90
        0
 91
        1
 62
     0
 92
       -2
340
0
 93
        0
 40
1.125
309
GRIDFORMAT_END
 95
        2
302
GRIDFORMAT
  1
GRIDFORMAT_BEGIN
 90
        0
 91
        1
 62
     0
 92
       -2
340
0
 93
        0
 40
1.125
309
GRIDFORMAT_END
 95
        4
302
GRIDFORMAT
  1
GRIDFORMAT_BEGIN
 90
        0
 91
        1
 62
     0
 92
       -2
340
0
 93
        0
 40
1.125
309
GRIDFORMAT_END
 95
        8
302
GRIDFORMAT
  1
GRIDFORMAT_BEGIN
 90
        0
 91
        1
 62
     0
 92
       -2
340
0
 93
        0
 40
1.125
309
GRIDFORMAT_END
 95
       16
302
GRIDFORMAT
  1
GRIDFORMAT_BEGIN
 90
        0
 91
        1
 62
     0
 92
       -2
340
0
 93
        0
 40
1.125
309
GRIDFORMAT_END
 95
       32
302
GRIDFORMAT
  1
GRIDFORMAT_BEGIN
 90
        0
 91
        1
 62
     0
 92
       -2
340
0
 93
        0
 40
1.125
309
GRIDFORMAT_END
309
TABLEFORMAT_END
  1
CELLSTYLE_BEGIN
 90
        1
 91
        1
300
_TITLE
309
CELLSTYLE_END
300
CELLSTYLE
  1
TABLEFORMAT_BEGIN
 90
        5
170
     1
 91
        0
 92
        0
 62
   257
 93
        1
300
CONTENTFORMAT
  1
CONTENTFORMAT_BEGIN
 90
        0
 91
        0
 92
      512
 93
        0
300

 40
0.0
140
1.0
 94
        5
 62
     0
340
10
144
4.5
309
CONTENTFORMAT_END
171
     1
301
MARGIN
  1
CELLMARGIN_BEGIN
 40
1.5
 40
1.5
 40
1.5
 40
1.5
 40
4.5
 40
4.5
309
CELLMARGIN_END
 94
        6
 95
        1
302
GRIDFORMAT
  1
GRIDFORMAT_BEGIN
 90
        0
 91
        1
 62
     0
 92
       -2
340
0
 93
        0
 40
1.125
309
GRIDFORMAT_END
 95
        2
302
GRIDFORMAT
  1
GRIDFORMAT_BEGIN
 90
        0
 91
        1
 62
     0
 92
       -2
340
0
 93
        0
 40
1.125
309
GRIDFORMAT_END
 95
        4
302
GRIDFORMAT
  1
GRIDFORMAT_BEGIN
 90
        0
 91
        1
 62
     0
 92
       -2
340
0
 93
        0
 40
1.125
309
GRIDFORMAT_END
 95
        8
302
GRIDFORMAT
  1
GRIDFORMAT_BEGIN
 90
        0
 91
        1
 62
     0
 92
       -2
340
0
 93
        0
 40
1.125
309
GRIDFORMAT_END
 95
       16
302
GRIDFORMAT
  1
GRIDFORMAT_BEGIN
 90
        0
 91
        1
 62
     0
 92
       -2
340
0
 93
        0
 40
1.125
309
GRIDFORMAT_END
 95
       32
302
GRIDFORMAT
  1
GRIDFORMAT_BEGIN
 90
        0
 91
        1
 62
     0
 92
       -2
340
0
 93
        0
 40
1.125
309
GRIDFORMAT_END
309
TABLEFORMAT_END
  1
CELLSTYLE_BEGIN
 90
        2
 91
        1
300
_HEADER
309
CELLSTYLE_END
300
CELLSTYLE
  1
TABLEFORMAT_BEGIN
 90
        5
170
     1
 91
        0
 92
        0
 62
   257
 93
        1
300
CONTENTFORMAT
  1
CONTENTFORMAT_BEGIN
 90
        0
 91
        0
 92
      512
 93
        0
300

 40
0.0
140
1.0
 94
        2
 62
     0
340
10
144
4.5
309
CONTENTFORMAT_END
171
     1
301
MARGIN
  1
CELLMARGIN_BEGIN
 40
1.5
 40
1.5
 40
1.5
 40
1.5
 40
4.5
 40
4.5
309
CELLMARGIN_END
 94
        6
 95
        1
302
GRIDFORMAT
  1
GRIDFORMAT_BEGIN
 90
        0
 91
        1
 62
     0
 92
       -2
340
0
 93
        0
 40
1.125
309
GRIDFORMAT_END
 95
        2
302
GRIDFORMAT
  1
GRIDFORMAT_BEGIN
 90
        0
 91
        1
 62
     0
 92
       -2
340
0
 93
        0
 40
1.125
309
GRIDFORMAT_END
 95
        4
302
GRIDFORMAT
  1
GRIDFORMAT_BEGIN
 90
        0
 91
        1
 62
     0
 92
       -2
340
0
 93
        0
 40
1.125
309
GRIDFORMAT_END
 95
        8
302
GRIDFORMAT
  1
GRIDFORMAT_BEGIN
 90
        0
 91
        1
 62
     0
 92
       -2
340
0
 93
        0
 40
1.125
309
GRIDFORMAT_END
 95
       16
302
GRIDFORMAT
  1
GRIDFORMAT_BEGIN
 90
        0
 91
        1
 62
     0
 92
       -2
340
0
 93
        0
 40
1.125
309
GRIDFORMAT_END
 95
       32
302
GRIDFORMAT
  1
GRIDFORMAT_BEGIN
 90
        0
 91
        1
 62
     0
 92
       -2
340
0
 93
        0
 40
1.125
309
GRIDFORMAT_END
309
TABLEFORMAT_END
  1
CELLSTYLE_BEGIN
 90
        3
 91
        2
300
_DATA
309
CELLSTYLE_END
  0
ENDSEC
  0
SECTION
  2
ACDSDATA
 70
     2
 71
     8
  0
ACDSSCHEMA
 90
        0
  1
AcDb_Thumbnail_Schema
  2
AcDbDs::ID
280
    10
 91
        8
  2
Thumbnail_Data
280
    15
 91
        0
101
ACDSRECORD
 95
        0
 90
        1
  2
AcDbDs::TreatedAsObjectData
280
     1
291
     1
101
ACDSRECORD
 95
        0
 90
        2
  2
AcDbDs::Legacy
280
     1
291
     1
101
ACDSRECORD
  1
AcDbDs::ID
 90
        3
  2
AcDs:Indexable
280
     1
291
     1
101
ACDSRECORD
  1
AcDbDs::ID
 90
        4
  2
AcDbDs::HandleAttribute
280
     7
282
     1
  0
ACDSSCHEMA
 90
        1
  1
AcDbDs::TreatedAsObjectDataSchema
  2
AcDbDs::TreatedAsObjectData
280
     1
 91
        0
  0
ACDSSCHEMA
 90
        2
  1
AcDbDs::LegacySchema
  2
AcDbDs::Legacy
280
     1
 91
        0
  0
ACDSSCHEMA
 90
        3
  1
AcDbDs::IndexedPropertySchema
  2
AcDs:Indexable
280
     1
 91
        0
  0
ACDSSCHEMA
 90
        4
  1
AcDbDs::HandleAttributeSchema
  2
AcDbDs::HandleAttribute
280
     7
 91
        1
284
     1
  0
ACDSRECORD
 90
        0
  2
AcDbDs::ID
280
    10
320
8567
  2
Thumbnail_Data
280
    15
 94
     1717
310
89504E470D0A1A0A0000000D49484452000001000000007C0803000000B13B9E5A00000300504C5445000000000000C8C8C80000000000000000000000000000000000000000000000000000330000660000990000CC0000FF0033000033330033660033990033CC0033FF0066000066330066660066990066CC0066FF0099
310
000099330099660099990099CC0099FF00CC0000CC3300CC6600CC9900CCCC00CCFF00FF0000FF3300FF6600FF9900FFCC00FFFF3300003300333300663300993300CC3300FF3333003333333333663333993333CC3333FF3366003366333366663366993366CC3366FF3399003399333399663399993399CC3399FF33CC00
310
33CC3333CC6633CC9933CCCC33CCFF33FF0033FF3333FF6633FF9933FFCC33FFFF6600006600336600666600996600CC6600FF6633006633336633666633996633CC6633FF6666006666336666666666996666CC6666FF6699006699336699666699996699CC6699FF66CC0066CC3366CC6666CC9966CCCC66CCFF66FF0066
310
FF3366FF6666FF9966FFCC66FFFF9900009900339900669900999900CC9900FF9933009933339933669933999933CC9933FF9966009966339966669966999966CC9966FF9999009999339999669999999999CC9999FF99CC0099CC3399CC6699CC9999CCCC99CCFF99FF0099FF3399FF6699FF9999FFCC99FFFFCC0000CC00
310
33CC0066CC0099CC00CCCC00FFCC3300CC3333CC3366CC3399CC33CCCC33FFCC6600CC6633CC6666CC6699CC66CCCC66FFCC9900CC9933CC9966CC9999CC99CCCC99FFCCCC00CCCC33CCCC66CCCC99CCCCCCCCCCFFCCFF00CCFF33CCFF66CCFF99CCFFCCCCFFFFFF0000FF0033FF0066FF0099FF00CCFF00FFFF3300FF3333
310
FF3366FF3399FF33CCFF33FFFF6600FF6633FF6666FF6699FF66CCFF66FFFF9900FF9933FF9966FF9999FF99CCFF99FFFFCC00FFCC33FFCC66FFCC99FFCCCCFFCCFFFFFF00FFFF33FFFF66FFFF99FFFFCCFFFFFF0000000D0D0D1A1A1A2828283535354343435050505D5D5D6B6B6B787878868686939393A1A1A1AEAEAEBB
310
BBBBC9C9C9D6D6D6E4E4E4F1F1F1FFFFFF00000000000000000000000000000000000000000000000000000000000008F1915C000003704944415478DAED9D59722B210C45B51CFD68FF9B611BFC27CD2435606CBFE754A28154EC1E6C5774FA4A085A26003FD0F20F35D0D2B2AA8F0D00012000048000F077FED243E7E705
310
C0F4F6EC5201EE0164CF00262FD00DE0A323009500FED88705805F00D0742C249D6FDBD0455E5FCB9ED30E5A0000D56860B3A1EDF6989773CB0072DF84DC1F4D28001EC5B7A6806A2B2B409CB0E2023DC9CBD227CEB6E508829107381C0C3D75097D007697F4DE11B6B78C1E0264EF681D40EF0D386100EE0ECD0298690C00
310
207ECC00F8D8FB634ED00C8074356F00D201407201E0D4BC29E09D7301C018000C00EE00B4384787661DC0F5B8319B5F42B65D20491B71677500080001C02B00F40CE06A58BA03D300CA500791706EA51FC4C2C63E80BD02024000F000E0100403400008008E00ECC7C37E007423C5340083B00D200D008F2684CC03783E27
310
66DB05C4F86F9E0A7BE7FA9B00B0CC0AE3EB836123005E3F6C11C07F4580A80F080001C00A807F2C10D10D20792F9038DA9824A475DB0A8061D1625AAA08D8E8D4B7936517B80178C5394CB840DA39459A3D246D3DC70D0071E5BD01581CC01D0031485C95A110005FCB75E8B30530D70EA90730ACEB862374063B00D3DC31
310
9904D0EDF40CA0EC3901D0B3993B80C93647003808924700B2237809C03D1DD60A60C400229004D8D204D31D12A98064260816031158091240B597DA11AB0048DE0BE972E8001A1514E9121509E90550DDB70328761312C95880C5152A00BE610E680880CC854BB15CF9A5EBB9A9E132F3DABF5E306AE8DAA30D054017FCF7
310
1356F9B7907865C6E53A3F5000D90100320494603704F17D9D972A4A34150306806A3A88BA00A900DAC400520F40E431C5DFC760887B840380FB98416D2204C209C4B440ED0588380F581500B6007081C4FDEE7012FBB73CC0482A2C08F0A5DE7E6B6C50B80F0DB46782B05CF36D85C0D3D2019D7382D3406F5322D3CFD17C
310
789680EA49D1075562E847017050C0D2F0FCB1A18088017A1590760A6877CD45BFB8FD56B5D65259393D28EEFB8A0C21719F39C60FEBAD419D00B8E4E37D00600BC0D31AA1A7C543BA017CDAB3F4C400080001409EF2BEA2E4FB96B90090F3BCEE32C8A5164D0180CDBF4D12AB2DF75596ED02701F03F60A188B6FC35866DB
310
570C6000BCD4B679009B8362E9EDEC4001B1B274A4C2012000048000100002400008000120001803A0E85F6F7F01E9AE1F8F72488CEB0000000049454E44AE426082
  0
ENDSEC
  0
EOF
