  0
SECTION
  2
HEADER
  9
$ACADVER
  1
AC1027
  9
$ACADMAINTVER
 70
   125
  9
$DWGCODEPAGE
  3
ANSI_932
  9
$LASTSAVEDBY
  1
yasukiyo.ogawa
  9
$REQUIREDVERSIONS
160
                 0
  9
$INSBASE
 10
0.0
 20
0.0
 30
0.0
  9
$EXTMIN
 10
0.0
 20
0.0
 30
0.0
  9
$EXTMAX
 10
3150.0
 20
4425.0
 30
0.0
  9
$LIMMIN
 10
0.0
 20
0.0
  9
$LIMMAX
 10
297.0
 20
210.0
  9
$ORTHOMODE
 70
     1
  9
$REGENMODE
 70
     1
  9
$FILLMODE
 70
     0
  9
$QTEXTMODE
 70
     0
  9
$MIRRTEXT
 70
     1
  9
$LTSCALE
 40
100.0
  9
$ATTMODE
 70
     1
  9
$TEXTSIZE
 40
180.0
  9
$TRACEWID
 40
0.05
  9
$TEXTSTYLE
  7
STANDARD
  9
$CLAYER
  8
3
  9
$CELTYPE
  6
BYLAYER
  9
$CECOLOR
 62
   256
  9
$CELTSCALE
 40
1.0
  9
$DISPSILH
 70
     0
  9
$DIMSCALE
 40
15.0
  9
$DIMASZ
 40
2.0
  9
$DIMEXO
 40
0.5
  9
$DIMDLI
 40
10.0
  9
$DIMRND
 40
0.0
  9
$DIMDLE
 40
0.0
  9
$DIMEXE
 40
1.0
  9
$DIMTP
 40
1.0
  9
$DIMTM
 40
1.0
  9
$DIMTXT
 40
3.0
  9
$DIMCEN
 40
0.0
  9
$DIMTSZ
 40
0.0
  9
$DIMTOL
 70
     0
  9
$DIMLIM
 70
     0
  9
$DIMTIH
 70
     0
  9
$DIMTOH
 70
     0
  9
$DIMSE1
 70
     0
  9
$DIMSE2
 70
     0
  9
$DIMTAD
 70
     1
  9
$DIMZIN
 70
     8
  9
$DIMBLK
  1

  9
$DIMASO
 70
     1
  9
$DIMSHO
 70
     1
  9
$DIMPOST
  1
(<>)
  9
$DIMAPOST
  1

  9
$DIMALT
 70
     0
  9
$DIMALTD
 70
     2
  9
$DIMALTF
 40
0.039
  9
$DIMLFAC
 40
1.0
  9
$DIMTOFL
 70
     1
  9
$DIMTVP
 40
0.0
  9
$DIMTIX
 70
     0
  9
$DIMSOXD
 70
     0
  9
$DIMSAH
 70
     1
  9
$DIMBLK1
  1
OPEN
  9
$DIMBLK2
  1
OPEN
  9
$DIMSTYLE
  2
IGA
  9
$DIMCLRD
 70
     0
  9
$DIMCLRE
 70
     0
  9
$DIMCLRT
 70
     0
  9
$DIMTFAC
 40
10.0
  9
$DIMGAP
 40
1.0
  9
$DIMJUST
 70
     0
  9
$DIMSD1
 70
     0
  9
$DIMSD2
 70
     0
  9
$DIMTOLJ
 70
     1
  9
$DIMTZIN
 70
     8
  9
$DIMALTZ
 70
     0
  9
$DIMALTTZ
 70
     0
  9
$DIMUPT
 70
     0
  9
$DIMDEC
 70
     0
  9
$DIMTDEC
 70
     0
  9
$DIMALTU
 70
     2
  9
$DIMALTTD
 70
     2
  9
$DIMTXSTY
  7
STANDARD
  9
$DIMAUNIT
 70
     0
  9
$DIMADEC
 70
     0
  9
$DIMALTRND
 40
0.0
  9
$DIMAZIN
 70
     0
  9
$DIMDSEP
 70
    46
  9
$DIMATFIT
 70
     3
  9
$DIMFRAC
 70
     0
  9
$DIMLDRBLK
  1
OPEN
  9
$DIMLUNIT
 70
     2
  9
$DIMLWD
 70
    -2
  9
$DIMLWE
 70
    -2
  9
$DIMTMOVE
 70
     2
  9
$DIMFXL
 40
1.0
  9
$DIMFXLON
 70
     0
  9
$DIMJOGANG
 40
0.7853981633974483
  9
$DIMTFILL
 70
     0
  9
$DIMTFILLCLR
 70
     0
  9
$DIMARCSYM
 70
     0
  9
$DIMLTYPE
  6

  9
$DIMLTEX1
  6

  9
$DIMLTEX2
  6

  9
$DIMTXTDIRECTION
 70
     0
  9
$LUNITS
 70
     2
  9
$LUPREC
 70
     3
  9
$SKETCHINC
 40
0.1
  9
$FILLETRAD
 40
50.0
  9
$AUNITS
 70
     0
  9
$AUPREC
 70
     0
  9
$MENU
  1
acad
  9
$ELEVATION
 40
0.0
  9
$PELEVATION
 40
0.0
  9
$THICKNESS
 40
0.0
  9
$LIMCHECK
 70
     0
  9
$CHAMFERA
 40
0.5
  9
$CHAMFERB
 40
0.5
  9
$CHAMFERC
 40
20.0
  9
$CHAMFERD
 40
0.0
  9
$SKPOLY
 70
     0
  9
$TDCREATE
 40
2451372.443854167
  9
$TDUCREATE
 40
2451372.068860880
  9
$TDUPDATE
 40
2460216.534189815
  9
$TDUUPDATE
 40
2460216.159198403
  9
$TDINDWG
 40
0.0765311343
  9
$TDUSRTIMER
 40
0.0765311343
  9
$USRTIMER
 70
     1
  9
$ANGBASE
 50
0.0
  9
$ANGDIR
 70
     0
  9
$PDMODE
 70
     0
  9
$PDSIZE
 40
0.0
  9
$PLINEWID
 40
0.0
  9
$SPLFRAME
 70
     0
  9
$SPLINETYPE
 70
     6
  9
$SPLINESEGS
 70
     8
  9
$HANDSEED
  5
8570
  9
$SURFTAB1
 70
     6
  9
$SURFTAB2
 70
     6
  9
$SURFTYPE
 70
     6
  9
$SURFU
 70
     6
  9
$SURFV
 70
     6
  9
$UCSBASE
  2

  9
$UCSNAME
  2

  9
$UCSORG
 10
0.0
 20
0.0
 30
0.0
  9
$UCSXDIR
 10
1.0
 20
0.0
 30
0.0
  9
$UCSYDIR
 10
0.0
 20
1.0
 30
0.0
  9
$UCSORTHOREF
  2

  9
$UCSORTHOVIEW
 70
     0
  9
$UCSORGTOP
 10
0.0
 20
0.0
 30
0.0
  9
$UCSORGBOTTOM
 10
0.0
 20
0.0
 30
0.0
  9
$UCSORGLEFT
 10
0.0
 20
0.0
 30
0.0
  9
$UCSORGRIGHT
 10
0.0
 20
0.0
 30
0.0
  9
$UCSORGFRONT
 10
0.0
 20
0.0
 30
0.0
  9
$UCSORGBACK
 10
0.0
 20
0.0
 30
0.0
  9
$PUCSBASE
  2

  9
$PUCSNAME
  2

  9
$PUCSORG
 10
0.0
 20
0.0
 30
0.0
  9
$PUCSXDIR
 10
1.0
 20
0.0
 30
0.0
  9
$PUCSYDIR
 10
0.0
 20
1.0
 30
0.0
  9
$PUCSORTHOREF
  2

  9
$PUCSORTHOVIEW
 70
     0
  9
$PUCSORGTOP
 10
0.0
 20
0.0
 30
0.0
  9
$PUCSORGBOTTOM
 10
0.0
 20
0.0
 30
0.0
  9
$PUCSORGLEFT
 10
0.0
 20
0.0
 30
0.0
  9
$PUCSORGRIGHT
 10
0.0
 20
0.0
 30
0.0
  9
$PUCSORGFRONT
 10
0.0
 20
0.0
 30
0.0
  9
$PUCSORGBACK
 10
0.0
 20
0.0
 30
0.0
  9
$USERI1
 70
     0
  9
$USERI2
 70
     0
  9
$USERI3
 70
     0
  9
$USERI4
 70
     0
  9
$USERI5
 70
     0
  9
$USERR1
 40
0.0
  9
$USERR2
 40
0.0
  9
$USERR3
 40
0.0
  9
$USERR4
 40
0.0
  9
$USERR5
 40
0.0
  9
$WORLDVIEW
 70
     1
  9
$SHADEDGE
 70
     3
  9
$SHADEDIF
 70
    70
  9
$TILEMODE
 70
     1
  9
$MAXACTVP
 70
    16
  9
$PINSBASE
 10
0.0
 20
0.0
 30
0.0
  9
$PLIMCHECK
 70
     0
  9
$PEXTMIN
 10
1.000000000000000E+20
 20
1.000000000000000E+20
 30
1.000000000000000E+20
  9
$PEXTMAX
 10
-1.000000000000000E+20
 20
-1.000000000000000E+20
 30
-1.000000000000000E+20
  9
$PLIMMIN
 10
0.0
 20
0.0
  9
$PLIMMAX
 10
12.0
 20
9.0
  9
$UNITMODE
 70
     0
  9
$VISRETAIN
 70
     0
  9
$PLINEGEN
 70
     0
  9
$PSLTSCALE
 70
     1
  9
$TREEDEPTH
 70
  3020
  9
$CMLSTYLE
  2
STANDARD
  9
$CMLJUST
 70
     0
  9
$CMLSCALE
 40
20.0
  9
$PROXYGRAPHICS
 70
     1
  9
$MEASUREMENT
 70
     1
  9
$CELWEIGHT
370
    -1
  9
$ENDCAPS
280
     0
  9
$JOINSTYLE
280
     0
  9
$LWDISPLAY
290
     0
  9
$INSUNITS
 70
     0
  9
$HYPERLINKBASE
  1

  9
$STYLESHEET
  1

  9
$XEDIT
290
     1
  9
$CEPSNTYPE
380
     0
  9
$PSTYLEMODE
290
     1
  9
$FINGERPRINTGUID
  2
{913D3624-F418-4F54-89E1-37ECF6A58E95}
  9
$VERSIONGUID
  2
{87ECE890-ACE8-4502-95FF-E1A1C85FDE6F}
  9
$EXTNAMES
290
     1
  9
$PSVPSCALE
 40
0.0
  9
$OLESTARTUP
290
     0
  9
$SORTENTS
280
   127
  9
$INDEXCTL
280
     0
  9
$HIDETEXT
280
     0
  9
$XCLIPFRAME
280
     2
  9
$HALOGAP
280
     0
  9
$OBSCOLOR
 70
   257
  9
$OBSLTYPE
280
     0
  9
$INTERSECTIONDISPLAY
280
     0
  9
$INTERSECTIONCOLOR
 70
   257
  9
$DIMASSOC
280
     1
  9
$PROJECTNAME
  1

  9
$CAMERADISPLAY
290
     0
  9
$LENSLENGTH
 40
50.0
  9
$CAMERAHEIGHT
 40
0.0
  9
$STEPSPERSEC
 40
2.0
  9
$STEPSIZE
 40
6.0
  9
$3DDWFPREC
 40
2.0
  9
$PSOLWIDTH
 40
0.25
  9
$PSOLHEIGHT
 40
4.0
  9
$LOFTANG1
 40
1.570796326794896
  9
$LOFTANG2
 40
1.570796326794896
  9
$LOFTMAG1
 40
0.0
  9
$LOFTMAG2
 40
0.0
  9
$LOFTPARAM
 70
     7
  9
$LOFTNORMALS
280
     1
  9
$LATITUDE
 40
37.795
  9
$LONGITUDE
 40
-122.394
  9
$NORTHDIRECTION
 40
0.0
  9
$TIMEZONE
 70
 -8000
  9
$LIGHTGLYPHDISPLAY
280
     1
  9
$TILEMODELIGHTSYNCH
280
     1
  9
$CMATERIAL
347
84CD
  9
$SOLIDHIST
280
     0
  9
$SHOWHIST
280
     1
  9
$DWFFRAME
280
     2
  9
$DGNFRAME
280
     0
  9
$REALWORLDSCALE
290
     1
  9
$INTERFERECOLOR
 62
     1
  9
$INTERFEREOBJVS
345
84EF
  9
$INTERFEREVPVS
346
84EC
  9
$CSHADOW
280
     0
  9
$SHADOWPLANELOCATION
 40
0.0
  0
ENDSEC
  0
SECTION
  2
CLASSES
  0
CLASS
  1
ACDBDICTIONARYWDFLT
  2
AcDbDictionaryWithDefault
  3
ObjectDBX Classes
 90
        0
 91
        1
280
     0
281
     0
  0
CLASS
  1
MATERIAL
  2
AcDbMaterial
  3
ObjectDBX Classes
 90
     1153
 91
        3
280
     0
281
     0
  0
CLASS
  1
VISUALSTYLE
  2
AcDbVisualStyle
  3
ObjectDBX Classes
 90
     4095
 91
       24
280
     0
281
     0
  0
CLASS
  1
TABLESTYLE
  2
AcDbTableStyle
  3
ObjectDBX Classes
 90
     4095
 91
        1
280
     0
281
     0
  0
CLASS
  1
SCALE
  2
AcDbScale
  3
ObjectDBX Classes
 90
     1153
 91
       17
280
     0
281
     0
  0
CLASS
  1
MLEADERSTYLE
  2
AcDbMLeaderStyle
  3
ACDB_MLEADERSTYLE_CLASS
 90
     4095
 91
        1
280
     0
281
     0
  0
CLASS
  1
ACDBSECTIONVIEWSTYLE
  2
AcDbSectionViewStyle
  3
ObjectDBX Classes
 90
     1025
 91
        1
280
     0
281
     0
  0
CLASS
  1
ACDBDETAILVIEWSTYLE
  2
AcDbDetailViewStyle
  3
ObjectDBX Classes
 90
     1025
 91
        1
280
     0
281
     0
  0
CLASS
  1
SORTENTSTABLE
  2
AcDbSortentsTable
  3
ObjectDBX Classes
 90
        0
 91
        1
280
     0
281
     0
  0
CLASS
  1
DICTIONARYVAR
  2
AcDbDictionaryVar
  3
ObjectDBX Classes
 90
        0
 91
       10
280
     0
281
     0
  0
CLASS
  1
CELLSTYLEMAP
  2
AcDbCellStyleMap
  3
ObjectDBX Classes
 90
     1152
 91
        1
280
     0
281
     0
  0
ENDSEC
  0
SECTION
  2
TABLES
  0
TABLE
  2
VPORT
  5
8
330
0
100
AcDbSymbolTable
 70
     1
1001
ACAD
1000
DbSaveVer
1071
      278
  0
VPORT
  5
84CA
330
8
100
AcDbSymbolTableRecord
100
AcDbViewportTableRecord
  2
*Active
 70
     0
 10
0.0
 20
0.0
 11
1.0
 21
1.0
 12
3757.872397317334
 22
1657.981096393681
 13
0.0
 23
0.0
 14
10.0
 24
10.0
 15
10.0
 25
10.0
 16
0.0
 26
0.0
 36
1.0
 17
0.0
 27
0.0
 37
0.0
 40
7122.521949497219
 41
2.250314465408805
 42
50.0
 43
0.0
 44
0.0
 50
0.0
 51
0.0
 71
     0
 72
   100
 73
     1
 74
     0
 75
     0
 76
     0
 77
     0
 78
     0
281
     0
 65
     1
110
0.0
120
0.0
130
0.0
111
1.0
121
0.0
131
0.0
112
0.0
122
1.0
132
0.0
 79
     0
146
0.0
348
84EB
 60
     3
 61
     5
292
     1
282
     1
141
0.0
142
0.0
 63
   250
421
  3355443
1001
ACAD_NAV_VCDISPLAY
1070
     3
  0
ENDTAB
  0
TABLE
  2
LTYPE
  5
5
330
0
100
AcDbSymbolTable
 70
     2
  0
LTYPE
  5
13
330
5
100
AcDbSymbolTableRecord
100
AcDbLinetypeTableRecord
  2
BYBLOCK
 70
     0
  3

 72
    65
 73
     0
 40
0.0
  0
LTYPE
  5
14
330
5
100
AcDbSymbolTableRecord
100
AcDbLinetypeTableRecord
  2
BYLAYER
 70
     0
  3

 72
    65
 73
     0
 40
0.0
  0
LTYPE
  5
15
330
5
100
AcDbSymbolTableRecord
100
AcDbLinetypeTableRecord
  2
CONTINUOUS
 70
     0
  3
Solid line
 72
    65
 73
     0
 40
0.0
  0
LTYPE
  5
1F
330
5
100
AcDbSymbolTableRecord
100
AcDbLinetypeTableRecord
  2
CENTER
 70
     0
  3
____ _ ____ _ ____ _ ____ _ ____ _ ____ _ ____ 
 72
    65
 73
     4
 40
2.0
 49
1.25
 74
     0
 49
-0.25
 74
     0
 49
0.25
 74
     0
 49
-0.25
 74
     0
  0
ENDTAB
  0
TABLE
  2
LAYER
  5
2
102
{ACAD_XDICTIONARY
360
8546
102
}
330
0
100
AcDbSymbolTable
 70
     6
  0
LAYER
  5
F
102
{ACAD_XDICTIONARY
360
8539
102
}
330
2
100
AcDbSymbolTableRecord
100
AcDbLayerTableRecord
  2
0
 70
     0
 62
     7
  6
CONTINUOUS
370
    -3
390
8439
347
84DD
348
0
  0
LAYER
  5
31
102
{ACAD_XDICTIONARY
360
853B
102
}
330
2
100
AcDbSymbolTableRecord
100
AcDbLayerTableRecord
  2
3
 70
     0
 62
     2
  6
CONTINUOUS
370
    -3
390
8439
347
84DD
348
0
  0
LAYER
  5
76D0
102
{ACAD_XDICTIONARY
360
853D
102
}
330
2
100
AcDbSymbolTableRecord
100
AcDbLayerTableRecord
  2
2
 70
     0
 62
     3
  6
CENTER
370
    -3
390
8439
347
84DD
348
0
  0
LAYER
  5
76D1
102
{ACAD_XDICTIONARY
360
853F
102
}
330
2
100
AcDbSymbolTableRecord
100
AcDbLayerTableRecord
  2
1
 70
     0
 62
     4
  6
CONTINUOUS
370
    -3
390
8439
347
84DD
348
0
  0
LAYER
  5
76D2
102
{ACAD_XDICTIONARY
360
8541
102
}
330
2
100
AcDbSymbolTableRecord
100
AcDbLayerTableRecord
  2
4
 70
     0
 62
     7
  6
CONTINUOUS
370
    -3
390
8439
347
84DD
348
0
  0
LAYER
  5
7B0A
330
2
100
AcDbSymbolTableRecord
100
AcDbLayerTableRecord
  2
DEFPOINTS
 70
     0
 62
     7
  6
CONTINUOUS
290
     0
370
    -3
390
8439
347
84DD
348
0
  0
ENDTAB
  0
TABLE
  2
STYLE
  5
3
330
0
100
AcDbSymbolTable
 70
     1
  0
STYLE
  5
10
330
3
100
AcDbSymbolTableRecord
100
AcDbTextStyleTableRecord
  2
STANDARD
 70
     0
 40
0.0
 41
1.0
 50
0.0
 71
     0
 42
180.0
  3
simplex.shx
  4
extfont.shx
  0
ENDTAB
  0
TABLE
  2
VIEW
  5
6
330
0
100
AcDbSymbolTable
 70
     0
  0
ENDTAB
  0
TABLE
  2
UCS
  5
7
330
0
100
AcDbSymbolTable
 70
     0
  0
ENDTAB
  0
TABLE
  2
APPID
  5
9
330
0
100
AcDbSymbolTable
 70
     4
  0
APPID
  5
11
330
9
100
AcDbSymbolTableRecord
100
AcDbRegAppTableRecord
  2
ACAD
 70
     0
  0
APPID
  5
851E
330
9
100
AcDbSymbolTableRecord
100
AcDbRegAppTableRecord
  2
AcadAnnoMonitorAlertIconDisabled
 70
     0
  0
APPID
  5
851F
330
9
100
AcDbSymbolTableRecord
100
AcDbRegAppTableRecord
  2
ACAD_EXEMPT_FROM_CAD_STANDARDS
 70
     0
  0
APPID
  5
854C
330
9
100
AcDbSymbolTableRecord
100
AcDbRegAppTableRecord
  2
ACAD_NAV_VCDISPLAY
 70
     0
  0
ENDTAB
  0
TABLE
  2
DIMSTYLE
  5
A
330
0
100
AcDbSymbolTable
 70
     2
100
AcDbDimStyleTable
 71
     0
  0
DIMSTYLE
105
1D
102
{ACAD_REACTORS
330
8186
330
83DC
330
83E9
330
83F6
330
8403
330
8410
330
841D
102
}
330
A
100
AcDbSymbolTableRecord
100
AcDbDimStyleTableRecord
  2
IGA
 70
     0
 40
2.0
 41
2.0
 42
0.5
 43
10.0
 44
1.0
 47
1.0
 48
1.0
 73
     0
 74
     0
 77
     1
 78
     8
140
3.0
141
0.0
143
0.03937
146
10.0
147
1.0
173
     1
271
     1
272
     0
279
     2
284
     8
340
10
341
79FC
343
79FC
344
79FC
  0
DIMSTYLE
105
7B0C
102
{ACAD_REACTORS
330
812C
330
812D
330
8132
330
8133
330
814F
330
8151
330
815E
330
816E
330
817E
330
817F
330
8182
330
8183
102
}
330
A
100
AcDbSymbolTableRecord
100
AcDbDimStyleTableRecord
  2
MATSU
 70
     0
 41
2.0
 42
1.0
 43
10.0
 44
1.0
 73
     0
 74
     0
 77
     1
 78
     8
140
3.0
141
0.0
143
0.03937
147
0.5
172
     1
173
     1
176
   256
177
   256
178
   256
284
     8
289
     0
340
10
341
79FC
343
79FC
344
79FC
  0
ENDTAB
  0
TABLE
  2
BLOCK_RECORD
  5
1
330
0
100
AcDbSymbolTable
 70
    23
  0
BLOCK_RECORD
  5
19
102
{ACAD_XDICTIONARY
360
8467
102
}
330
1
100
AcDbSymbolTableRecord
100
AcDbBlockTableRecord
  2
*MODEL_SPACE
340
843C
 70
     0
280
     1
281
     0
  0
BLOCK_RECORD
  5
16
102
{ACAD_XDICTIONARY
360
8465
102
}
330
1
100
AcDbSymbolTableRecord
100
AcDbBlockTableRecord
  2
*PAPER_SPACE
340
843D
 70
     0
280
     1
281
     0
  0
BLOCK_RECORD
  5
79FC
330
1
100
AcDbSymbolTableRecord
100
AcDbBlockTableRecord
  2
_OPEN
340
0
102
{BLKREFS
331
82D9
331
82DA
331
82E4
331
82E5
331
82EF
331
82F0
331
82FA
331
82FB
331
8416
331
8417
331
8474
331
8475
331
847C
331
847D
331
8490
331
8498
331
8499
331
84A1
331
84A2
331
84AA
331
84AB
331
84B3
331
84B4
331
8344
331
8345
331
836F
331
8370
331
837A
331
837B
331
8385
331
8386
331
839A
331
839B
331
8533
331
8534
102
}
 70
     0
280
     1
281
     0
  0
BLOCK_RECORD
  5
7EFE
330
1
100
AcDbSymbolTableRecord
100
AcDbBlockTableRecord
  2
_DOT
340
0
102
{BLKREFS
331
848F
102
}
 70
     0
280
     1
281
     0
  0
BLOCK_RECORD
  5
8032
330
1
100
AcDbSymbolTableRecord
100
AcDbBlockTableRecord
  2
YA_N
340
0
102
{BLKREFS
331
8189
331
818A
331
818B
331
818C
331
818D
331
818E
331
818F
102
}
 70
     0
280
     1
281
     0
  0
BLOCK_RECORD
  5
81DB
330
1
100
AcDbSymbolTableRecord
100
AcDbBlockTableRecord
  2
*D3
340
0
 70
     0
280
     1
281
     0
  0
BLOCK_RECORD
  5
81E7
330
1
100
AcDbSymbolTableRecord
100
AcDbBlockTableRecord
  2
*D4
340
0
 70
     0
280
     1
281
     0
  0
BLOCK_RECORD
  5
81F3
330
1
100
AcDbSymbolTableRecord
100
AcDbBlockTableRecord
  2
*D5
340
0
 70
     0
280
     1
281
     0
  0
BLOCK_RECORD
  5
81FF
330
1
100
AcDbSymbolTableRecord
100
AcDbBlockTableRecord
  2
*D6
340
0
 70
     0
280
     1
281
     0
  0
BLOCK_RECORD
  5
820B
330
1
100
AcDbSymbolTableRecord
100
AcDbBlockTableRecord
  2
*D7
340
0
 70
     0
280
     1
281
     0
  0
BLOCK_RECORD
  5
8222
330
1
100
AcDbSymbolTableRecord
100
AcDbBlockTableRecord
  2
*D8
340
0
 70
     0
280
     1
281
     0
  0
BLOCK_RECORD
  5
8250
330
1
100
AcDbSymbolTableRecord
100
AcDbBlockTableRecord
  2
*D9
340
0
 70
     0
280
     1
281
     0
  0
BLOCK_RECORD
  5
827F
330
1
100
AcDbSymbolTableRecord
100
AcDbBlockTableRecord
  2
*D10
340
0
 70
     0
280
     1
281
     0
  0
BLOCK_RECORD
  5
828B
330
1
100
AcDbSymbolTableRecord
100
AcDbBlockTableRecord
  2
*D11
340
0
 70
     0
280
     1
281
     0
  0
BLOCK_RECORD
  5
8297
330
1
100
AcDbSymbolTableRecord
100
AcDbBlockTableRecord
  2
*D12
340
0
 70
     0
280
     1
281
     0
  0
BLOCK_RECORD
  5
82A3
330
1
100
AcDbSymbolTableRecord
100
AcDbBlockTableRecord
  2
*D13
340
0
 70
     0
280
     1
281
     0
  0
BLOCK_RECORD
  5
82AE
330
1
100
AcDbSymbolTableRecord
100
AcDbBlockTableRecord
  2
*D14
340
0
 70
     0
280
     1
281
     0
  0
BLOCK_RECORD
  5
82C7
330
1
100
AcDbSymbolTableRecord
100
AcDbBlockTableRecord
  2
*D15
340
0
 70
     0
280
     1
281
     0
  0
BLOCK_RECORD
  5
83D0
330
1
100
AcDbSymbolTableRecord
100
AcDbBlockTableRecord
  2
*D16
340
0
 70
     0
280
     1
281
     0
  0
BLOCK_RECORD
  5
83DD
330
1
100
AcDbSymbolTableRecord
100
AcDbBlockTableRecord
  2
*D17
340
0
 70
     0
280
     1
281
     0
  0
BLOCK_RECORD
  5
83EA
330
1
100
AcDbSymbolTableRecord
100
AcDbBlockTableRecord
  2
*D18
340
0
 70
     0
280
     1
281
     0
  0
BLOCK_RECORD
  5
83F7
330
1
100
AcDbSymbolTableRecord
100
AcDbBlockTableRecord
  2
*D19
340
0
 70
     0
280
     1
281
     0
  0
BLOCK_RECORD
  5
8404
330
1
100
AcDbSymbolTableRecord
100
AcDbBlockTableRecord
  2
_NONE
340
0
 70
     0
280
     1
281
     0
  0
BLOCK_RECORD
  5
8408
330
1
100
AcDbSymbolTableRecord
100
AcDbBlockTableRecord
  2
*D21
340
0
 70
     0
280
     1
281
     0
  0
BLOCK_RECORD
  5
8411
330
1
100
AcDbSymbolTableRecord
100
AcDbBlockTableRecord
  2
*D22
340
0
 70
     0
280
     1
281
     0
  0
ENDTAB
  0
ENDSEC
  0
SECTION
  2
BLOCKS
  0
BLOCK
  5
1A
330
19
100
AcDbEntity
  8
0
100
AcDbBlockBegin
  2
*MODEL_SPACE
 70
     0
 10
0.0
 20
0.0
 30
0.0
  3
*MODEL_SPACE
  1

  0
ENDBLK
  5
1B
330
19
100
AcDbEntity
  8
0
100
AcDbBlockEnd
  0
BLOCK
  5
17
330
16
100
AcDbEntity
 67
     1
  8
0
100
AcDbBlockBegin
  2
*PAPER_SPACE
 70
     0
 10
0.0
 20
0.0
 30
0.0
  3
*PAPER_SPACE
  1

  0
ENDBLK
  5
18
330
16
100
AcDbEntity
 67
     1
  8
0
100
AcDbBlockEnd
  0
BLOCK
  5
7A00
330
79FC
100
AcDbEntity
  8
0
100
AcDbBlockBegin
  2
_OPEN
 70
     0
 10
0.0
 20
0.0
 30
0.0
  3
_OPEN
  1

  0
LINE
  5
79FD
330
79FC
100
AcDbEntity
  8
0
  6
ByBlock
 62
     0
100
AcDbLine
 10
-1.0
 20
0.1666666666666666
 30
0.0
 11
0.0
 21
0.0
 31
0.0
  0
LINE
  5
79FE
330
79FC
100
AcDbEntity
  8
0
  6
ByBlock
 62
     0
100
AcDbLine
 10
0.0
 20
0.0
 30
0.0
 11
-1.0
 21
-0.1666666666666666
 31
0.0
  0
LINE
  5
79FF
330
79FC
100
AcDbEntity
  8
0
  6
ByBlock
 62
     0
100
AcDbLine
 10
0.0
 20
0.0
 30
0.0
 11
-1.0
 21
0.0
 31
0.0
  0
ENDBLK
  5
7A01
330
79FC
100
AcDbEntity
  8
0
100
AcDbBlockEnd
  0
BLOCK
  5
7F04
330
7EFE
100
AcDbEntity
  8
0
100
AcDbBlockBegin
  2
_DOT
 70
     0
 10
0.0
 20
0.0
 30
0.0
  3
_DOT
  1

  0
LWPOLYLINE
  5
7EFF
330
7EFE
100
AcDbEntity
  8
0
  6
ByBlock
 62
     0
100
AcDbPolyline
 90
        2
 70
     1
 43
0.25
 10
-0.125
 20
0.0
 42
1.0
 10
0.125
 20
0.0
 42
1.0
  0
LINE
  5
7F03
330
7EFE
100
AcDbEntity
  8
0
  6
ByBlock
 62
     0
100
AcDbLine
 10
-0.25
 20
0.0
 30
0.0
 11
-1.0
 21
0.0
 31
0.0
  0
ENDBLK
  5
7F05
330
7EFE
100
AcDbEntity
  8
0
100
AcDbBlockEnd
  0
BLOCK
  5
8033
330
8032
100
AcDbEntity
  8
0
100
AcDbBlockBegin
  2
YA_N
 70
     0
 10
0.0
 20
0.0
 30
0.0
  3
YA_N
  1

  0
ENDBLK
  5
8034
330
8032
100
AcDbEntity
  8
0
100
AcDbBlockEnd
  0
BLOCK
  5
82D5
330
81DB
100
AcDbEntity
  8
0
100
AcDbBlockBegin
  2
*D3
 70
     1
 10
0.0
 20
0.0
 30
0.0
  3
*D3
  1

  0
LINE
  5
82D6
330
81DB
100
AcDbEntity
  8
0
  6
ByBlock
440
 16777216
100
AcDbLine
 10
5199.688067995342
 20
1950.226832308628
 30
0.0
 11
5420.409650626068
 21
1950.226832308628
 31
0.0
  0
LINE
  5
82D7
330
81DB
100
AcDbEntity
  8
0
  6
ByBlock
440
 16777216
100
AcDbLine
 10
5204.688067995343
 20
1526.226832308628
 30
0.0
 11
5420.409650626068
 21
1526.226832308628
 31
0.0
  0
LINE
  5
82D8
330
81DB
100
AcDbEntity
  8
0
  6
ByBlock
440
 16777216
100
AcDbLine
 10
5405.409650626069
 20
1920.226832308628
 30
0.0
 11
5405.409650626069
 21
1556.226832308628
 31
0.0
  0
INSERT
  5
82D9
330
81DB
100
AcDbEntity
  8
0
  6
ByBlock
440
 16777216
100
AcDbBlockReference
  2
_OPEN
 10
5405.409650626069
 20
1950.226832308628
 30
0.0
 41
30.0
 42
30.0
 43
30.0
 50
90.0
  0
INSERT
  5
82DA
330
81DB
100
AcDbEntity
  8
0
  6
ByBlock
440
 16777216
100
AcDbBlockReference
  2
_OPEN
 10
5405.409650626069
 20
1526.226832308628
 30
0.0
 41
30.0
 42
30.0
 43
30.0
 50
270.0
  0
MTEXT
  5
82DB
330
81DB
100
AcDbEntity
  8
0
  6
ByBlock
440
 16777216
100
AcDbMText
 10
5375.409650626068
 20
1738.226832308628
 30
0.0
 40
45.0
 41
0.0
 46
0.0
 71
     5
 72
     5
  1
\A1;424
 11
0.0
 21
1.0
 31
0.0
 73
     1
 44
1.0
  0
POINT
  5
82DC
330
81DB
100
AcDbEntity
  8
DEFPOINTS
  6
ByBlock
 62
     0
440
 16777216
100
AcDbPoint
 10
5184.688067995343
 20
1950.226832308628
 30
0.0
  0
POINT
  5
82DD
330
81DB
100
AcDbEntity
  8
DEFPOINTS
  6
ByBlock
 62
     0
440
 16777216
100
AcDbPoint
 10
5189.688067995342
 20
1526.226832308628
 30
0.0
  0
POINT
  5
82DE
330
81DB
100
AcDbEntity
  8
DEFPOINTS
  6
ByBlock
 62
     0
440
 16777216
100
AcDbPoint
 10
5405.409650626069
 20
1526.226832308628
 30
0.0
  0
ENDBLK
  5
82DF
330
81DB
100
AcDbEntity
  8
0
100
AcDbBlockEnd
  0
BLOCK
  5
82E0
330
81E7
100
AcDbEntity
  8
0
100
AcDbBlockBegin
  2
*D4
 70
     1
 10
0.0
 20
0.0
 30
0.0
  3
*D4
  1

  0
LINE
  5
82E1
330
81E7
100
AcDbEntity
  8
0
  6
ByBlock
440
 16777216
100
AcDbLine
 10
6548.038007202298
 20
1726.226832308628
 30
0.0
 11
6720.316527619823
 21
1726.226832308628
 31
0.0
  0
LINE
  5
82E2
330
81E7
100
AcDbEntity
  8
0
  6
ByBlock
440
 16777216
100
AcDbLine
 10
6548.038007202298
 20
1326.226832308628
 30
0.0
 11
6720.316527619823
 21
1326.226832308628
 31
0.0
  0
LINE
  5
82E3
330
81E7
100
AcDbEntity
  8
0
  6
ByBlock
440
 16777216
100
AcDbLine
 10
6705.316527619823
 20
1696.226832308628
 30
0.0
 11
6705.316527619823
 21
1356.226832308628
 31
0.0
  0
INSERT
  5
82E4
330
81E7
100
AcDbEntity
  8
0
  6
ByBlock
440
 16777216
100
AcDbBlockReference
  2
_OPEN
 10
6705.316527619823
 20
1726.226832308628
 30
0.0
 41
30.0
 42
30.0
 43
30.0
 50
90.0
  0
INSERT
  5
82E5
330
81E7
100
AcDbEntity
  8
0
  6
ByBlock
440
 16777216
100
AcDbBlockReference
  2
_OPEN
 10
6705.316527619823
 20
1326.226832308628
 30
0.0
 41
30.0
 42
30.0
 43
30.0
 50
270.0
  0
MTEXT
  5
82E6
330
81E7
100
AcDbEntity
  8
0
  6
ByBlock
440
 16777216
100
AcDbMText
 10
6675.316527619823
 20
1526.226832308628
 30
0.0
 40
45.0
 41
0.0
 46
0.0
 71
     5
 72
     5
  1
\A1;φ400
 11
0.0
 21
1.0
 31
0.0
 73
     1
 44
1.0
  0
POINT
  5
82E7
330
81E7
100
AcDbEntity
  8
DEFPOINTS
  6
ByBlock
 62
     0
440
 16777216
100
AcDbPoint
 10
6533.038007202297
 20
1726.226832308628
 30
0.0
  0
POINT
  5
82E8
330
81E7
100
AcDbEntity
  8
DEFPOINTS
  6
ByBlock
 62
     0
440
 16777216
100
AcDbPoint
 10
6533.038007202297
 20
1326.226832308628
 30
0.0
  0
POINT
  5
82E9
330
81E7
100
AcDbEntity
  8
DEFPOINTS
  6
ByBlock
 62
     0
440
 16777216
100
AcDbPoint
 10
6705.316527619823
 20
1326.226832308628
 30
0.0
  0
ENDBLK
  5
82EA
330
81E7
100
AcDbEntity
  8
0
100
AcDbBlockEnd
  0
BLOCK
  5
82EB
330
81F3
100
AcDbEntity
  8
0
100
AcDbBlockBegin
  2
*D5
 70
     1
 10
0.0
 20
0.0
 30
0.0
  3
*D5
  1

  0
LINE
  5
82EC
330
81F3
100
AcDbEntity
  8
0
  6
ByBlock
440
 16777216
100
AcDbLine
 10
4879.688067995343
 20
1975.570359135239
 30
0.0
 11
4879.688067995343
 21
2125.478800812596
 31
0.0
  0
LINE
  5
82ED
330
81F3
100
AcDbEntity
  8
0
  6
ByBlock
440
 16777216
100
AcDbLine
 10
5184.688067995343
 20
1975.252813070855
 30
0.0
 11
5184.688067995343
 21
2125.478800812596
 31
0.0
  0
LINE
  5
82EE
330
81F3
100
AcDbEntity
  8
0
  6
ByBlock
440
 16777216
100
AcDbLine
 10
4909.688067995343
 20
2110.478800812596
 30
0.0
 11
5154.688067995343
 21
2110.478800812596
 31
0.0
  0
INSERT
  5
82EF
330
81F3
100
AcDbEntity
  8
0
  6
ByBlock
440
 16777216
100
AcDbBlockReference
  2
_OPEN
 10
4879.688067995343
 20
2110.478800812596
 30
0.0
 41
30.0
 42
30.0
 43
30.0
 50
180.0
  0
INSERT
  5
82F0
330
81F3
100
AcDbEntity
  8
0
  6
ByBlock
440
 16777216
100
AcDbBlockReference
  2
_OPEN
 10
5184.688067995343
 20
2110.478800812596
 30
0.0
 41
30.0
 42
30.0
 43
30.0
  0
MTEXT
  5
82F1
330
81F3
100
AcDbEntity
  8
0
  6
ByBlock
440
 16777216
100
AcDbMText
 10
5032.188067995343
 20
2140.478800812596
 30
0.0
 40
45.0
 41
0.0
 46
0.0
 71
     5
 72
     5
  1
\A1;305
 73
     1
 44
1.0
  0
POINT
  5
82F2
330
81F3
100
AcDbEntity
  8
DEFPOINTS
  6
ByBlock
 62
     0
440
 16777216
100
AcDbPoint
 10
4879.688067995343
 20
1960.570359135239
 30
0.0
  0
POINT
  5
82F3
330
81F3
100
AcDbEntity
  8
DEFPOINTS
  6
ByBlock
 62
     0
440
 16777216
100
AcDbPoint
 10
5184.688067995343
 20
1960.252813070855
 30
0.0
  0
POINT
  5
82F4
330
81F3
100
AcDbEntity
  8
DEFPOINTS
  6
ByBlock
 62
     0
440
 16777216
100
AcDbPoint
 10
5184.688067995343
 20
2110.478800812596
 30
0.0
  0
ENDBLK
  5
82F5
330
81F3
100
AcDbEntity
  8
0
100
AcDbBlockEnd
  0
BLOCK
  5
82F6
330
81FF
100
AcDbEntity
  8
0
100
AcDbBlockBegin
  2
*D6
 70
     1
 10
0.0
 20
0.0
 30
0.0
  3
*D6
  1

  0
LINE
  5
82F7
330
81FF
100
AcDbEntity
  8
0
  6
ByBlock
440
 16777216
100
AcDbLine
 10
5199.688067995342
 20
1950.226832308628
 30
0.0
 11
5324.775500600233
 21
1950.226832308628
 31
0.0
  0
LINE
  5
82F8
330
81FF
100
AcDbEntity
  8
0
  6
ByBlock
440
 16777216
100
AcDbLine
 10
5199.688067995342
 20
1538.226832308628
 30
0.0
 11
5324.775500600233
 21
1538.226832308628
 31
0.0
  0
LINE
  5
82F9
330
81FF
100
AcDbEntity
  8
0
  6
ByBlock
440
 16777216
100
AcDbLine
 10
5309.775500600234
 20
1920.226832308628
 30
0.0
 11
5309.775500600234
 21
1568.226832308628
 31
0.0
  0
INSERT
  5
82FA
330
81FF
100
AcDbEntity
  8
0
  6
ByBlock
440
 16777216
100
AcDbBlockReference
  2
_OPEN
 10
5309.775500600234
 20
1950.226832308628
 30
0.0
 41
30.0
 42
30.0
 43
30.0
 50
90.0
  0
INSERT
  5
82FB
330
81FF
100
AcDbEntity
  8
0
  6
ByBlock
440
 16777216
100
AcDbBlockReference
  2
_OPEN
 10
5309.775500600234
 20
1538.226832308628
 30
0.0
 41
30.0
 42
30.0
 43
30.0
 50
270.0
  0
MTEXT
  5
82FC
330
81FF
100
AcDbEntity
  8
0
  6
ByBlock
440
 16777216
100
AcDbMText
 10
5279.775500600234
 20
1744.226832308628
 30
0.0
 40
45.0
 41
0.0
 46
0.0
 71
     5
 72
     5
  1
\A1;412
 11
0.0
 21
1.0
 31
0.0
 73
     1
 44
1.0
  0
POINT
  5
82FD
330
81FF
100
AcDbEntity
  8
DEFPOINTS
  6
ByBlock
 62
     0
440
 16777216
100
AcDbPoint
 10
5184.688067995343
 20
1950.226832308628
 30
0.0
  0
POINT
  5
82FE
330
81FF
100
AcDbEntity
  8
DEFPOINTS
  6
ByBlock
 62
     0
440
 16777216
100
AcDbPoint
 10
5184.688067995343
 20
1538.226832308628
 30
0.0
  0
POINT
  5
82FF
330
81FF
100
AcDbEntity
  8
DEFPOINTS
  6
ByBlock
 62
     0
440
 16777216
100
AcDbPoint
 10
5309.775500600234
 20
1538.226832308628
 30
0.0
  0
ENDBLK
  5
8300
330
81FF
100
AcDbEntity
  8
0
100
AcDbBlockEnd
  0
BLOCK
  5
8301
330
820B
100
AcDbEntity
  8
0
100
AcDbBlockBegin
  2
*D7
 70
     1
 10
0.0
 20
0.0
 30
0.0
  3
*D7
  1

  0
LINE
  5
8472
330
820B
100
AcDbEntity
  8
3
440
 16777216
100
AcDbLine
 10
1406.099911707264
 20
1186.226832308628
 30
0.0
 11
1681.82149433799
 21
1186.226832308628
 31
0.0
  0
LINE
  5
8473
330
820B
100
AcDbEntity
  8
3
440
 16777216
100
AcDbLine
 10
1666.821494337989
 20
1496.226832308628
 30
0.0
 11
1666.821494337989
 21
1216.226832308628
 31
0.0
  0
INSERT
  5
8474
330
820B
100
AcDbEntity
  8
3
440
 16777216
100
AcDbBlockReference
  2
_OPEN
 10
1666.821494337989
 20
1526.226832308628
 30
0.0
 41
30.0
 42
30.0
 43
30.0
 50
90.0
  0
INSERT
  5
8475
330
820B
100
AcDbEntity
  8
3
440
 16777216
100
AcDbBlockReference
  2
_OPEN
 10
1666.821494337989
 20
1186.226832308628
 30
0.0
 41
30.0
 42
30.0
 43
30.0
 50
270.0
  0
MTEXT
  5
8476
330
820B
100
AcDbEntity
  8
3
440
 16777216
100
AcDbMText
 10
1636.821494337989
 20
1356.226832308628
 30
0.0
 40
45.0
 41
0.0
 46
0.0
 71
     5
 72
     5
  1
\A1;340
 11
0.0000000000000001
 21
1.0
 31
0.0
 73
     1
 44
1.0
  0
POINT
  5
8477
330
820B
100
AcDbEntity
  8
DEFPOINTS
 62
     0
440
 16777216
100
AcDbPoint
 10
1451.099911707264
 20
1526.226832308628
 30
0.0
  0
POINT
  5
8478
330
820B
100
AcDbEntity
  8
DEFPOINTS
 62
     0
440
 16777216
100
AcDbPoint
 10
1391.099911707264
 20
1186.226832308628
 30
0.0
  0
POINT
  5
8479
330
820B
100
AcDbEntity
  8
DEFPOINTS
 62
     0
440
 16777216
100
AcDbPoint
 10
1666.821494337989
 20
1186.226832308628
 30
0.0
  0
ENDBLK
  5
830A
330
820B
100
AcDbEntity
  8
0
100
AcDbBlockEnd
  0
BLOCK
  5
8316
330
8222
100
AcDbEntity
  8
0
100
AcDbBlockBegin
  2
*D8
 70
     1
 10
0.0
 20
0.0
 30
0.0
  3
*D8
  1

  0
LINE
  5
847A
330
8222
100
AcDbEntity
  8
3
440
 16777216
100
AcDbLine
 10
797.8921947452481
 20
1571.226832308628
 30
0.0
 11
797.8921947452481
 21
2125.478800812596
 31
0.0
  0
LINE
  5
847B
330
8222
100
AcDbEntity
  8
3
440
 16777216
100
AcDbLine
 10
1111.099911707264
 20
2110.478800812596
 30
0.0
 11
827.8921947452481
 21
2110.478800812596
 31
0.0
  0
INSERT
  5
847C
330
8222
100
AcDbEntity
  8
3
440
 16777216
100
AcDbBlockReference
  2
_OPEN
 10
1141.099911707264
 20
2110.478800812596
 30
0.0
 41
30.0
 42
30.0
 43
30.0
  0
INSERT
  5
847D
330
8222
100
AcDbEntity
  8
3
440
 16777216
100
AcDbBlockReference
  2
_OPEN
 10
797.8921947452481
 20
2110.478800812596
 30
0.0
 41
30.0
 42
30.0
 43
30.0
 50
180.0
  0
MTEXT
  5
847E
330
8222
100
AcDbEntity
  8
3
440
 16777216
100
AcDbMText
 10
969.4960532262562
 20
2140.478800812596
 30
0.0
 40
45.0
 41
0.0
 46
0.0
 71
     5
 72
     5
  1
\A1;342
 73
     1
 44
1.0
  0
POINT
  5
847F
330
8222
100
AcDbEntity
  8
DEFPOINTS
 62
     0
440
 16777216
100
AcDbPoint
 10
1141.099911707264
 20
1960.570359135239
 30
0.0
  0
POINT
  5
8480
330
8222
100
AcDbEntity
  8
DEFPOINTS
 62
     0
440
 16777216
100
AcDbPoint
 10
797.8921947452481
 20
1556.226832308628
 30
0.0
  0
POINT
  5
8481
330
8222
100
AcDbEntity
  8
DEFPOINTS
 62
     0
440
 16777216
100
AcDbPoint
 10
797.8921947452481
 20
2110.478800812596
 30
0.0
  0
ENDBLK
  5
831F
330
8222
100
AcDbEntity
  8
0
100
AcDbBlockEnd
  0
BLOCK
  5
8340
330
8250
100
AcDbEntity
  8
0
100
AcDbBlockBegin
  2
*D9
 70
     1
 10
0.0
 20
0.0
 30
0.0
  3
*D9
  1

  0
LINE
  5
8341
330
8250
100
AcDbEntity
  8
0
  6
ByBlock
440
 16777216
100
AcDbLine
 10
5184.688067995343
 20
1992.221649621199
 30
0.0
 11
5184.688067995343
 21
2239.209861114972
 31
0.0
  0
LINE
  5
8342
330
8250
100
AcDbEntity
  8
0
  6
ByBlock
440
 16777216
100
AcDbLine
 10
4149.688067995342
 20
1266.226832308628
 30
0.0
 11
4149.688067995342
 21
2239.209861114972
 31
0.0
  0
LINE
  5
8343
330
8250
100
AcDbEntity
  8
0
  6
ByBlock
440
 16777216
100
AcDbLine
 10
5154.688067995343
 20
2224.209861114972
 30
0.0
 11
4179.688067995343
 21
2224.209861114972
 31
0.0
  0
INSERT
  5
8344
330
8250
100
AcDbEntity
  8
0
  6
ByBlock
440
 16777216
100
AcDbBlockReference
  2
_OPEN
 10
5184.688067995343
 20
2224.209861114972
 30
0.0
 41
30.0
 42
30.0
 43
30.0
  0
INSERT
  5
8345
330
8250
100
AcDbEntity
  8
0
  6
ByBlock
440
 16777216
100
AcDbBlockReference
  2
_OPEN
 10
4149.688067995342
 20
2224.209861114972
 30
0.0
 41
30.0
 42
30.0
 43
30.0
 50
180.0
  0
MTEXT
  5
8346
330
8250
100
AcDbEntity
  8
0
  6
ByBlock
440
 16777216
100
AcDbMText
 10
4667.188067995343
 20
2254.209861114972
 30
0.0
 40
45.0
 41
0.0
 46
0.0
 71
     5
 72
     5
  1
\A1;1035
 73
     1
 44
1.0
  0
POINT
  5
8347
330
8250
100
AcDbEntity
  8
DEFPOINTS
  6
ByBlock
 62
     0
440
 16777216
100
AcDbPoint
 10
5184.688067995343
 20
1977.221649621199
 30
0.0
  0
POINT
  5
8348
330
8250
100
AcDbEntity
  8
DEFPOINTS
  6
ByBlock
 62
     0
440
 16777216
100
AcDbPoint
 10
4149.688067995342
 20
1251.226832308628
 30
0.0
  0
POINT
  5
8349
330
8250
100
AcDbEntity
  8
DEFPOINTS
  6
ByBlock
 62
     0
440
 16777216
100
AcDbPoint
 10
4149.688067995342
 20
2224.209861114972
 30
0.0
  0
ENDBLK
  5
834A
330
8250
100
AcDbEntity
  8
0
100
AcDbBlockEnd
  0
BLOCK
  5
836B
330
827F
100
AcDbEntity
  8
0
100
AcDbBlockBegin
  2
*D10
 70
     1
 10
0.0
 20
0.0
 30
0.0
  3
*D10
  1

  0
LINE
  5
836C
330
827F
100
AcDbEntity
  8
0
  6
ByBlock
440
 16777216
100
AcDbLine
 10
6608.038007202297
 20
1500.926832308628
 30
0.0
 11
6608.038007202297
 21
2141.568762150255
 31
0.0
  0
LINE
  5
836D
330
827F
100
AcDbEntity
  8
0
  6
ByBlock
440
 16777216
100
AcDbLine
 10
6266.038007202298
 20
2087.066161058437
 30
0.0
 11
6266.038007202298
 21
2141.568762150255
 31
0.0
  0
LINE
  5
836E
330
827F
100
AcDbEntity
  8
0
  6
ByBlock
440
 16777216
100
AcDbLine
 10
6578.038007202298
 20
2126.568762150255
 30
0.0
 11
6296.038007202298
 21
2126.568762150255
 31
0.0
  0
INSERT
  5
836F
330
827F
100
AcDbEntity
  8
0
  6
ByBlock
440
 16777216
100
AcDbBlockReference
  2
_OPEN
 10
6608.038007202297
 20
2126.568762150255
 30
0.0
 41
30.0
 42
30.0
 43
30.0
  0
INSERT
  5
8370
330
827F
100
AcDbEntity
  8
0
  6
ByBlock
440
 16777216
100
AcDbBlockReference
  2
_OPEN
 10
6266.038007202298
 20
2126.568762150255
 30
0.0
 41
30.0
 42
30.0
 43
30.0
 50
180.0
  0
MTEXT
  5
8371
330
827F
100
AcDbEntity
  8
0
  6
ByBlock
440
 16777216
100
AcDbMText
 10
6437.038007202298
 20
2168.354476435969
 30
0.0
 40
45.0
 41
0.0
 46
0.0
 71
     5
 72
     5
  1
\A1;(342)
 73
     1
 44
1.0
  0
POINT
  5
8372
330
827F
100
AcDbEntity
  8
DEFPOINTS
  6
ByBlock
 62
     0
440
 16777216
100
AcDbPoint
 10
6608.038007202297
 20
1485.926832308627
 30
0.0
  0
POINT
  5
8373
330
827F
100
AcDbEntity
  8
DEFPOINTS
  6
ByBlock
 62
     0
440
 16777216
100
AcDbPoint
 10
6266.038007202298
 20
2072.066161058438
 30
0.0
  0
POINT
  5
8374
330
827F
100
AcDbEntity
  8
DEFPOINTS
  6
ByBlock
 62
     0
440
 16777216
100
AcDbPoint
 10
6266.038007202298
 20
2126.568762150255
 30
0.0
  0
ENDBLK
  5
8375
330
827F
100
AcDbEntity
  8
0
100
AcDbBlockEnd
  0
BLOCK
  5
8376
330
828B
100
AcDbEntity
  8
0
100
AcDbBlockBegin
  2
*D11
 70
     1
 10
0.0
 20
0.0
 30
0.0
  3
*D11
  1

  0
LINE
  5
8377
330
828B
100
AcDbEntity
  8
0
  6
ByBlock
440
 16777216
100
AcDbLine
 10
4149.688067995342
 20
3235.877843134336
 30
0.0
 11
4149.688067995342
 21
3426.305724121032
 31
0.0
  0
LINE
  5
8378
330
828B
100
AcDbEntity
  8
0
  6
ByBlock
440
 16777216
100
AcDbLine
 10
5129.688067995343
 20
3235.877843134336
 30
0.0
 11
5129.688067995343
 21
3426.305724121032
 31
0.0
  0
LINE
  5
8379
330
828B
100
AcDbEntity
  8
0
  6
ByBlock
440
 16777216
100
AcDbLine
 10
4179.688067995343
 20
3411.305724121032
 30
0.0
 11
5099.688067995343
 21
3411.305724121032
 31
0.0
  0
INSERT
  5
837A
330
828B
100
AcDbEntity
  8
0
  6
ByBlock
440
 16777216
100
AcDbBlockReference
  2
_OPEN
 10
4149.688067995342
 20
3411.305724121032
 30
0.0
 41
30.0
 42
30.0
 43
30.0
 50
180.0
  0
INSERT
  5
837B
330
828B
100
AcDbEntity
  8
0
  6
ByBlock
440
 16777216
100
AcDbBlockReference
  2
_OPEN
 10
5129.688067995343
 20
3411.305724121032
 30
0.0
 41
30.0
 42
30.0
 43
30.0
  0
MTEXT
  5
837C
330
828B
100
AcDbEntity
  8
0
  6
ByBlock
440
 16777216
100
AcDbMText
 10
4639.688067995343
 20
3441.305724121032
 30
0.0
 40
45.0
 41
0.0
 46
0.0
 71
     5
 72
     5
  1
\A1;980
 73
     1
 44
1.0
  0
POINT
  5
837D
330
828B
100
AcDbEntity
  8
DEFPOINTS
  6
ByBlock
 62
     0
440
 16777216
100
AcDbPoint
 10
4149.688067995342
 20
3220.877843134336
 30
0.0
  0
POINT
  5
837E
330
828B
100
AcDbEntity
  8
DEFPOINTS
  6
ByBlock
 62
     0
440
 16777216
100
AcDbPoint
 10
5129.688067995343
 20
3220.877843134336
 30
0.0
  0
POINT
  5
837F
330
828B
100
AcDbEntity
  8
DEFPOINTS
  6
ByBlock
 62
     0
440
 16777216
100
AcDbPoint
 10
5129.688067995343
 20
3411.305724121032
 30
0.0
  0
ENDBLK
  5
8380
330
828B
100
AcDbEntity
  8
0
100
AcDbBlockEnd
  0
BLOCK
  5
8381
330
8297
100
AcDbEntity
  8
0
100
AcDbBlockBegin
  2
*D12
 70
     1
 10
0.0
 20
0.0
 30
0.0
  3
*D12
  1

  0
LINE
  5
8382
330
8297
100
AcDbEntity
  8
0
  6
ByBlock
440
 16777216
100
AcDbLine
 10
5144.688067995343
 20
3220.877843134336
 30
0.0
 11
5387.967524495548
 21
3220.877843134336
 31
0.0
  0
LINE
  5
8383
330
8297
100
AcDbEntity
  8
0
  6
ByBlock
440
 16777216
100
AcDbLine
 10
5144.688067995343
 20
2540.877843134337
 30
0.0
 11
5387.967524495548
 21
2540.877843134337
 31
0.0
  0
LINE
  5
8384
330
8297
100
AcDbEntity
  8
0
  6
ByBlock
440
 16777216
100
AcDbLine
 10
5372.967524495549
 20
3190.877843134336
 30
0.0
 11
5372.967524495549
 21
2570.877843134337
 31
0.0
  0
INSERT
  5
8385
330
8297
100
AcDbEntity
  8
0
  6
ByBlock
440
 16777216
100
AcDbBlockReference
  2
_OPEN
 10
5372.967524495549
 20
3220.877843134336
 30
0.0
 41
30.0
 42
30.0
 43
30.0
 50
90.0
  0
INSERT
  5
8386
330
8297
100
AcDbEntity
  8
0
  6
ByBlock
440
 16777216
100
AcDbBlockReference
  2
_OPEN
 10
5372.967524495549
 20
2540.877843134337
 30
0.0
 41
30.0
 42
30.0
 43
30.0
 50
270.0
  0
MTEXT
  5
8387
330
8297
100
AcDbEntity
  8
0
  6
ByBlock
440
 16777216
100
AcDbMText
 10
5342.967524495549
 20
2880.877843134337
 30
0.0
 40
45.0
 41
0.0
 46
0.0
 71
     5
 72
     5
  1
\A1;680
 11
0.0
 21
1.0
 31
0.0
 73
     1
 44
1.0
  0
POINT
  5
8388
330
8297
100
AcDbEntity
  8
DEFPOINTS
  6
ByBlock
 62
     0
440
 16777216
100
AcDbPoint
 10
5129.688067995343
 20
3220.877843134336
 30
0.0
  0
POINT
  5
8389
330
8297
100
AcDbEntity
  8
DEFPOINTS
  6
ByBlock
 62
     0
440
 16777216
100
AcDbPoint
 10
5129.688067995343
 20
2540.877843134337
 30
0.0
  0
POINT
  5
838A
330
8297
100
AcDbEntity
  8
DEFPOINTS
  6
ByBlock
 62
     0
440
 16777216
100
AcDbPoint
 10
5372.967524495549
 20
2540.877843134337
 30
0.0
  0
ENDBLK
  5
838B
330
8297
100
AcDbEntity
  8
0
100
AcDbBlockEnd
  0
BLOCK
  5
83BE
330
82A3
100
AcDbEntity
  8
0
100
AcDbBlockBegin
  2
*D13
 70
     1
 10
0.0
 20
0.0
 30
0.0
  3
*D13
  1

  0
LINE
  5
8531
330
82A3
100
AcDbEntity
  8
3
440
 16777216
370
    -2
100
AcDbLine
 10
1997.449850914219
 20
1696.226832308627
 30
0.0
 11
1997.449850914219
 21
2141.568762150255
 31
0.0
  0
LINE
  5
8532
330
82A3
100
AcDbEntity
  8
3
440
 16777216
370
    -2
100
AcDbLine
 10
2497.44985091422
 20
2126.568762150255
 30
0.0
 11
2027.449850914219
 21
2126.568762150255
 31
0.0
  0
INSERT
  5
8533
330
82A3
100
AcDbEntity
  8
3
440
 16777216
370
    -2
100
AcDbBlockReference
  2
_OPEN
 10
2527.44985091422
 20
2126.568762150255
 30
0.0
 41
30.0
 42
30.0
 43
30.0
  0
INSERT
  5
8534
330
82A3
100
AcDbEntity
  8
3
440
 16777216
370
    -2
100
AcDbBlockReference
  2
_OPEN
 10
1997.449850914219
 20
2126.568762150255
 30
0.0
 41
30.0
 42
30.0
 43
30.0
 50
180.0
  0
MTEXT
  5
8535
330
82A3
100
AcDbEntity
  8
3
440
 16777216
100
AcDbMText
 10
2262.44985091422
 20
2168.354476435969
 30
0.0
 40
45.0
 41
0.0
 46
0.0
 71
     5
 72
     1
  1
\A1;(530)
 73
     1
 44
1.0
  0
POINT
  5
8536
330
82A3
100
AcDbEntity
  8
DEFPOINTS
 62
     0
440
 16777216
100
AcDbPoint
 10
2527.44985091422
 20
2072.066161058438
 30
0.0
  0
POINT
  5
8537
330
82A3
100
AcDbEntity
  8
DEFPOINTS
 62
     0
440
 16777216
100
AcDbPoint
 10
1997.449850914219
 20
1681.226832308627
 30
0.0
  0
POINT
  5
8538
330
82A3
100
AcDbEntity
  8
DEFPOINTS
 62
     0
440
 16777216
100
AcDbPoint
 10
1997.449850914219
 20
2126.568762150255
 30
0.0
  0
ENDBLK
  5
83C7
330
82A3
100
AcDbEntity
  8
0
100
AcDbBlockEnd
  0
BLOCK
  5
8396
330
82AE
100
AcDbEntity
  8
0
100
AcDbBlockBegin
  2
*D14
 70
     1
 10
0.0
 20
0.0
 30
0.0
  3
*D14
  1

  0
LINE
  5
8397
330
82AE
100
AcDbEntity
  8
0
  6
ByBlock
440
 16777216
100
AcDbLine
 10
6531.038007202297
 20
1965.226832308628
 30
0.0
 11
6531.038007202297
 21
2024.200160216496
 31
0.0
  0
LINE
  5
8398
330
82AE
100
AcDbEntity
  8
0
  6
ByBlock
440
 16777216
100
AcDbLine
 10
6001.038007202298
 20
1965.226832308628
 30
0.0
 11
6001.038007202298
 21
2024.200160216496
 31
0.0
  0
LINE
  5
8399
330
82AE
100
AcDbEntity
  8
0
  6
ByBlock
440
 16777216
100
AcDbLine
 10
6501.038007202298
 20
2009.200160216497
 30
0.0
 11
6031.038007202297
 21
2009.200160216497
 31
0.0
  0
INSERT
  5
839A
330
82AE
100
AcDbEntity
  8
0
  6
ByBlock
440
 16777216
100
AcDbBlockReference
  2
_OPEN
 10
6531.038007202297
 20
2009.200160216497
 30
0.0
 41
30.0
 42
30.0
 43
30.0
  0
INSERT
  5
839B
330
82AE
100
AcDbEntity
  8
0
  6
ByBlock
440
 16777216
100
AcDbBlockReference
  2
_OPEN
 10
6001.038007202298
 20
2009.200160216497
 30
0.0
 41
30.0
 42
30.0
 43
30.0
 50
180.0
  0
MTEXT
  5
839C
330
82AE
100
AcDbEntity
  8
0
  6
ByBlock
440
 16777216
100
AcDbMText
 10
6266.038007202298
 20
2039.200160216497
 30
0.0
 40
45.0
 41
0.0
 46
0.0
 71
     5
 72
     5
  1
\A1;530
 73
     1
 44
1.0
  0
POINT
  5
839D
330
82AE
100
AcDbEntity
  8
DEFPOINTS
  6
ByBlock
 62
     0
440
 16777216
100
AcDbPoint
 10
6531.038007202297
 20
1950.226832308628
 30
0.0
  0
POINT
  5
839E
330
82AE
100
AcDbEntity
  8
DEFPOINTS
  6
ByBlock
 62
     0
440
 16777216
100
AcDbPoint
 10
6001.038007202298
 20
1950.226832308628
 30
0.0
  0
POINT
  5
839F
330
82AE
100
AcDbEntity
  8
DEFPOINTS
  6
ByBlock
 62
     0
440
 16777216
100
AcDbPoint
 10
6001.038007202298
 20
2009.200160216497
 30
0.0
  0
ENDBLK
  5
83A0
330
82AE
100
AcDbEntity
  8
0
100
AcDbBlockEnd
  0
BLOCK
  5
83AD
330
82C7
100
AcDbEntity
  8
0
100
AcDbBlockBegin
  2
*D15
 70
     1
 10
0.0
 20
0.0
 30
0.0
  3
*D15
  1

  0
LINE
  5
848A
330
82C7
100
AcDbEntity
  8
3
 62
     0
440
 16777216
100
AcDbLine
 10
1398.599911707264
 20
1150.226832308628
 30
0.0
 11
1681.82149433799
 21
1150.226832308628
 31
0.0
  0
LINE
  5
848B
330
82C7
100
AcDbEntity
  8
3
 62
     0
440
 16777216
100
AcDbLine
 10
1398.599911707264
 20
1085.226832308628
 30
0.0
 11
1681.82149433799
 21
1085.226832308628
 31
0.0
  0
LINE
  5
848C
330
82C7
100
AcDbEntity
  8
3
 62
     0
440
 16777216
100
AcDbLine
 10
1666.821494337989
 20
1180.226832308628
 30
0.0
 11
1666.821494337989
 21
1210.226832308628
 31
0.0
  0
LINE
  5
848D
330
82C7
100
AcDbEntity
  8
3
 62
     0
440
 16777216
100
AcDbLine
 10
1666.821494337989
 20
1055.226832308628
 30
0.0
 11
1666.821494337989
 21
922.3696894514851
 31
0.0
  0
LINE
  5
848E
330
82C7
100
AcDbEntity
  8
3
 62
     0
440
 16777216
100
AcDbLine
 10
1666.821494337989
 20
1150.226832308628
 30
0.0
 11
1666.821494337989
 21
1085.226832308628
 31
0.0
  0
INSERT
  5
848F
330
82C7
100
AcDbEntity
  8
3
 62
     0
440
 16777216
100
AcDbBlockReference
  2
_DOT
 10
1666.821494337989
 20
1150.226832308628
 30
0.0
 41
30.0
 42
30.0
 43
30.0
 50
270.0
  0
INSERT
  5
8490
330
82C7
100
AcDbEntity
  8
3
 62
     0
440
 16777216
100
AcDbBlockReference
  2
_OPEN
 10
1666.821494337989
 20
1085.226832308628
 30
0.0
 41
30.0
 42
30.0
 43
30.0
 50
90.0
  0
MTEXT
  5
8491
330
82C7
100
AcDbEntity
  8
3
 62
     0
440
 16777216
100
AcDbMText
 10
1629.32149433799
 20
973.7982608800569
 30
0.0
 40
45.0
 41
0.0
 46
0.0
 71
     5
 72
     5
  1
\A1;65
 11
0.0000000000000001
 21
1.0
 31
0.0
 73
     1
 44
1.0
  0
POINT
  5
8492
330
82C7
100
AcDbEntity
  8
DEFPOINTS
 62
     0
440
 16777216
100
AcDbPoint
 10
1391.099911707264
 20
1150.226832308628
 30
0.0
  0
POINT
  5
8493
330
82C7
100
AcDbEntity
  8
DEFPOINTS
 62
     0
440
 16777216
100
AcDbPoint
 10
1391.099911707264
 20
1085.226832308628
 30
0.0
  0
POINT
  5
8494
330
82C7
100
AcDbEntity
  8
DEFPOINTS
 62
     0
440
 16777216
100
AcDbPoint
 10
1666.821494337989
 20
1085.226832308628
 30
0.0
  0
ENDBLK
  5
83B9
330
82C7
100
AcDbEntity
  8
0
100
AcDbBlockEnd
  0
BLOCK
  5
83D1
330
83D0
100
AcDbEntity
  8
0
100
AcDbBlockBegin
  2
*D16
 70
     1
 10
0.0
 20
0.0
 30
0.0
  3
*D16
  1

  0
LINE
  5
8495
330
83D0
100
AcDbEntity
  8
3
 62
     0
440
 16777216
100
AcDbLine
 10
411.0999117072642
 20
1077.726832308628
 30
0.0
 11
411.0999117072642
 21
965.2720796863723
 31
0.0
  0
LINE
  5
8496
330
83D0
100
AcDbEntity
  8
3
 62
     0
440
 16777216
100
AcDbLine
 10
1141.099911707264
 20
1077.726832308628
 30
0.0
 11
1141.099911707264
 21
965.2720796863723
 31
0.0
  0
LINE
  5
8497
330
83D0
100
AcDbEntity
  8
3
 62
     0
440
 16777216
100
AcDbLine
 10
441.0999117072642
 20
980.2720796863722
 30
0.0
 11
1111.099911707264
 21
980.2720796863722
 31
0.0
  0
INSERT
  5
8498
330
83D0
100
AcDbEntity
  8
3
 62
     0
440
 16777216
100
AcDbBlockReference
  2
_OPEN
 10
411.0999117072642
 20
980.2720796863722
 30
0.0
 41
30.0
 42
30.0
 43
30.0
 50
180.0
  0
INSERT
  5
8499
330
83D0
100
AcDbEntity
  8
3
 62
     0
440
 16777216
100
AcDbBlockReference
  2
_OPEN
 10
1141.099911707264
 20
980.2720796863722
 30
0.0
 41
30.0
 42
30.0
 43
30.0
  0
MTEXT
  5
849A
330
83D0
100
AcDbEntity
  8
3
 62
     0
440
 16777216
100
AcDbMText
 10
776.0999117072643
 20
1017.772079686372
 30
0.0
 40
45.0
 41
0.0
 46
0.0
 71
     5
 72
     5
  1
\A1;730
 73
     1
 44
1.0
  0
POINT
  5
849B
330
83D0
100
AcDbEntity
  8
DEFPOINTS
 62
     0
440
 16777216
100
AcDbPoint
 10
411.0999117072642
 20
1085.226832308628
 30
0.0
  0
POINT
  5
849C
330
83D0
100
AcDbEntity
  8
DEFPOINTS
 62
     0
440
 16777216
100
AcDbPoint
 10
1141.099911707264
 20
1085.226832308628
 30
0.0
  0
POINT
  5
849D
330
83D0
100
AcDbEntity
  8
DEFPOINTS
 62
     0
440
 16777216
100
AcDbPoint
 10
1141.099911707264
 20
980.2720796863722
 30
0.0
  0
ENDBLK
  5
83DB
330
83D0
100
AcDbEntity
  8
0
100
AcDbBlockEnd
  0
BLOCK
  5
83DE
330
83DD
100
AcDbEntity
  8
0
100
AcDbBlockBegin
  2
*D17
 70
     1
 10
0.0
 20
0.0
 30
0.0
  3
*D17
  1

  0
LINE
  5
849E
330
83DD
100
AcDbEntity
  8
3
 62
     0
440
 16777216
100
AcDbLine
 10
1141.099911707264
 20
1077.726832308628
 30
0.0
 11
1141.099911707264
 21
965.2720796863723
 31
0.0
  0
LINE
  5
849F
330
83DD
100
AcDbEntity
  8
3
 62
     0
440
 16777216
100
AcDbLine
 10
1391.099911707264
 20
1077.726832308628
 30
0.0
 11
1391.099911707264
 21
965.2720796863723
 31
0.0
  0
LINE
  5
84A0
330
83DD
100
AcDbEntity
  8
3
 62
     0
440
 16777216
100
AcDbLine
 10
1171.099911707264
 20
980.2720796863722
 30
0.0
 11
1361.099911707264
 21
980.2720796863722
 31
0.0
  0
INSERT
  5
84A1
330
83DD
100
AcDbEntity
  8
3
 62
     0
440
 16777216
100
AcDbBlockReference
  2
_OPEN
 10
1141.099911707264
 20
980.2720796863722
 30
0.0
 41
30.0
 42
30.0
 43
30.0
 50
180.0
  0
INSERT
  5
84A2
330
83DD
100
AcDbEntity
  8
3
 62
     0
440
 16777216
100
AcDbBlockReference
  2
_OPEN
 10
1391.099911707264
 20
980.2720796863722
 30
0.0
 41
30.0
 42
30.0
 43
30.0
  0
MTEXT
  5
84A3
330
83DD
100
AcDbEntity
  8
3
 62
     0
440
 16777216
100
AcDbMText
 10
1266.099911707264
 20
1017.772079686372
 30
0.0
 40
45.0
 41
0.0
 46
0.0
 71
     5
 72
     5
  1
\A1;250
 73
     1
 44
1.0
  0
POINT
  5
84A4
330
83DD
100
AcDbEntity
  8
DEFPOINTS
 62
     0
440
 16777216
100
AcDbPoint
 10
1141.099911707264
 20
1085.226832308628
 30
0.0
  0
POINT
  5
84A5
330
83DD
100
AcDbEntity
  8
DEFPOINTS
 62
     0
440
 16777216
100
AcDbPoint
 10
1391.099911707264
 20
1085.226832308628
 30
0.0
  0
POINT
  5
84A6
330
83DD
100
AcDbEntity
  8
DEFPOINTS
 62
     0
440
 16777216
100
AcDbPoint
 10
1391.099911707264
 20
980.2720796863722
 30
0.0
  0
ENDBLK
  5
83E8
330
83DD
100
AcDbEntity
  8
0
100
AcDbBlockEnd
  0
BLOCK
  5
83EB
330
83EA
100
AcDbEntity
  8
0
100
AcDbBlockBegin
  2
*D18
 70
     1
 10
0.0
 20
0.0
 30
0.0
  3
*D18
  1

  0
LINE
  5
84A7
330
83EA
100
AcDbEntity
  8
3
 62
     0
440
 16777216
100
AcDbLine
 10
2154.44985091422
 20
1077.726832308628
 30
0.0
 11
2154.44985091422
 21
965.2720796863723
 31
0.0
  0
LINE
  5
84A8
330
83EA
100
AcDbEntity
  8
3
 62
     0
440
 16777216
100
AcDbLine
 10
2527.44985091422
 20
1077.726832308628
 30
0.0
 11
2527.44985091422
 21
965.2720796863723
 31
0.0
  0
LINE
  5
84A9
330
83EA
100
AcDbEntity
  8
3
 62
     0
440
 16777216
100
AcDbLine
 10
2184.449850914219
 20
980.2720796863722
 30
0.0
 11
2497.44985091422
 21
980.2720796863722
 31
0.0
  0
INSERT
  5
84AA
330
83EA
100
AcDbEntity
  8
3
 62
     0
440
 16777216
100
AcDbBlockReference
  2
_OPEN
 10
2154.44985091422
 20
980.2720796863722
 30
0.0
 41
30.0
 42
30.0
 43
30.0
 50
180.0
  0
INSERT
  5
84AB
330
83EA
100
AcDbEntity
  8
3
 62
     0
440
 16777216
100
AcDbBlockReference
  2
_OPEN
 10
2527.44985091422
 20
980.2720796863722
 30
0.0
 41
30.0
 42
30.0
 43
30.0
  0
MTEXT
  5
84AC
330
83EA
100
AcDbEntity
  8
3
 62
     0
440
 16777216
100
AcDbMText
 10
2340.94985091422
 20
1017.772079686372
 30
0.0
 40
45.0
 41
0.0
 46
0.0
 71
     5
 72
     5
  1
\A1;373
 73
     1
 44
1.0
  0
POINT
  5
84AD
330
83EA
100
AcDbEntity
  8
DEFPOINTS
 62
     0
440
 16777216
100
AcDbPoint
 10
2154.44985091422
 20
1085.226832308628
 30
0.0
  0
POINT
  5
84AE
330
83EA
100
AcDbEntity
  8
DEFPOINTS
 62
     0
440
 16777216
100
AcDbPoint
 10
2527.44985091422
 20
1085.226832308628
 30
0.0
  0
POINT
  5
84AF
330
83EA
100
AcDbEntity
  8
DEFPOINTS
 62
     0
440
 16777216
100
AcDbPoint
 10
2527.44985091422
 20
980.2720796863722
 30
0.0
  0
ENDBLK
  5
83F5
330
83EA
100
AcDbEntity
  8
0
100
AcDbBlockEnd
  0
BLOCK
  5
83F8
330
83F7
100
AcDbEntity
  8
0
100
AcDbBlockBegin
  2
*D19
 70
     1
 10
0.0
 20
0.0
 30
0.0
  3
*D19
  1

  0
LINE
  5
84B0
330
83F7
100
AcDbEntity
  8
3
 62
     0
440
 16777216
100
AcDbLine
 10
2527.44985091422
 20
1077.726832308628
 30
0.0
 11
2527.44985091422
 21
965.2720796863723
 31
0.0
  0
LINE
  5
84B1
330
83F7
100
AcDbEntity
  8
3
 62
     0
440
 16777216
100
AcDbLine
 10
2834.44985091422
 20
1077.726832308628
 30
0.0
 11
2834.44985091422
 21
965.2720796863723
 31
0.0
  0
LINE
  5
84B2
330
83F7
100
AcDbEntity
  8
3
 62
     0
440
 16777216
100
AcDbLine
 10
2557.44985091422
 20
980.2720796863722
 30
0.0
 11
2804.449850914219
 21
980.2720796863722
 31
0.0
  0
INSERT
  5
84B3
330
83F7
100
AcDbEntity
  8
3
 62
     0
440
 16777216
100
AcDbBlockReference
  2
_OPEN
 10
2527.44985091422
 20
980.2720796863722
 30
0.0
 41
30.0
 42
30.0
 43
30.0
 50
180.0
  0
INSERT
  5
84B4
330
83F7
100
AcDbEntity
  8
3
 62
     0
440
 16777216
100
AcDbBlockReference
  2
_OPEN
 10
2834.44985091422
 20
980.2720796863722
 30
0.0
 41
30.0
 42
30.0
 43
30.0
  0
MTEXT
  5
84B5
330
83F7
100
AcDbEntity
  8
3
 62
     0
440
 16777216
100
AcDbMText
 10
2680.94985091422
 20
1017.772079686372
 30
0.0
 40
45.0
 41
0.0
 46
0.0
 71
     5
 72
     5
  1
\A1;307
 73
     1
 44
1.0
  0
POINT
  5
84B6
330
83F7
100
AcDbEntity
  8
DEFPOINTS
 62
     0
440
 16777216
100
AcDbPoint
 10
2527.44985091422
 20
1085.226832308628
 30
0.0
  0
POINT
  5
84B7
330
83F7
100
AcDbEntity
  8
DEFPOINTS
 62
     0
440
 16777216
100
AcDbPoint
 10
2834.44985091422
 20
1085.226832308628
 30
0.0
  0
POINT
  5
84B8
330
83F7
100
AcDbEntity
  8
DEFPOINTS
 62
     0
440
 16777216
100
AcDbPoint
 10
2834.44985091422
 20
980.2720796863722
 30
0.0
  0
ENDBLK
  5
8402
330
83F7
100
AcDbEntity
  8
0
100
AcDbBlockEnd
  0
BLOCK
  5
8405
330
8404
100
AcDbEntity
  8
0
100
AcDbBlockBegin
  2
_NONE
 70
     0
 10
0.0
 20
0.0
 30
0.0
  3
_NONE
  1

  0
CIRCLE
  5
8406
330
8404
100
AcDbEntity
  8
0
  6
ByBlock
 62
     0
100
AcDbCircle
 10
0.0
 20
0.0
 30
0.0
 40
0.25
  0
ENDBLK
  5
8407
330
8404
100
AcDbEntity
  8
0
100
AcDbBlockEnd
  0
BLOCK
  5
8409
330
8408
100
AcDbEntity
  8
0
100
AcDbBlockBegin
  2
*D21
 70
     1
 10
0.0
 20
0.0
 30
0.0
  3
*D21
  1

  0
LINE
  5
840A
330
8408
100
AcDbEntity
  8
0
  6
ByBlock
 62
     0
440
 16777216
100
AcDbLine
 10
1668.192512998819
 20
1150.226832308628
 30
0.0
 11
1668.192512998819
 21
1186.226832308628
 31
0.0
  0
MTEXT
  5
840B
330
8408
100
AcDbEntity
  8
0
  6
ByBlock
 62
     0
440
 16777216
100
AcDbMText
 10
1739.978227284533
 20
1168.226832308628
 30
0.0
 40
45.0
 41
0.0
 46
0.0
 71
     5
 72
     5
  1
\A1;(36)
 11
0.0
 21
1.0
 31
0.0
 73
     1
 44
1.0
  0
POINT
  5
840C
330
8408
100
AcDbEntity
  8
DEFPOINTS
  6
ByBlock
 62
     0
440
 16777216
100
AcDbPoint
 10
1391.099911707264
 20
1150.226832308628
 30
0.0
  0
POINT
  5
840D
330
8408
100
AcDbEntity
  8
DEFPOINTS
  6
ByBlock
 62
     0
440
 16777216
100
AcDbPoint
 10
1391.099911707264
 20
1186.226832308628
 30
0.0
  0
POINT
  5
840E
330
8408
100
AcDbEntity
  8
DEFPOINTS
  6
ByBlock
 62
     0
440
 16777216
100
AcDbPoint
 10
1668.192512998819
 20
1186.226832308628
 30
0.0
  0
ENDBLK
  5
840F
330
8408
100
AcDbEntity
  8
0
100
AcDbBlockEnd
  0
BLOCK
  5
8412
330
8411
100
AcDbEntity
  8
0
100
AcDbBlockBegin
  2
*D22
 70
     1
 10
0.0
 20
0.0
 30
0.0
  3
*D22
  1

  0
LINE
  5
8413
330
8411
100
AcDbEntity
  8
0
  6
ByBlock
 62
     0
440
 16777216
100
AcDbLine
 10
1453.599911707264
 20
1950.226832308628
 30
0.0
 11
1808.222888152024
 21
1950.226832308628
 31
0.0
  0
LINE
  5
8414
330
8411
100
AcDbEntity
  8
0
  6
ByBlock
 62
     0
440
 16777216
100
AcDbLine
 10
1398.599911707264
 20
1085.226832308628
 30
0.0
 11
1808.222888152024
 21
1085.226832308628
 31
0.0
  0
LINE
  5
8415
330
8411
100
AcDbEntity
  8
0
  6
ByBlock
 62
     0
440
 16777216
100
AcDbLine
 10
1793.222888152024
 20
1920.226832308628
 30
0.0
 11
1793.222888152024
 21
1115.226832308628
 31
0.0
  0
INSERT
  5
8416
330
8411
100
AcDbEntity
  8
0
  6
ByBlock
 62
     0
440
 16777216
100
AcDbBlockReference
  2
_OPEN
 10
1793.222888152024
 20
1950.226832308628
 30
0.0
 41
30.0
 42
30.0
 43
30.0
 50
90.0
  0
INSERT
  5
8417
330
8411
100
AcDbEntity
  8
0
  6
ByBlock
 62
     0
440
 16777216
100
AcDbBlockReference
  2
_OPEN
 10
1793.222888152024
 20
1085.226832308628
 30
0.0
 41
30.0
 42
30.0
 43
30.0
 50
270.0
  0
MTEXT
  5
8418
330
8411
100
AcDbEntity
  8
0
  6
ByBlock
 62
     0
440
 16777216
100
AcDbMText
 10
1743.93717386631
 20
1517.726832308628
 30
0.0
 40
45.0
 41
0.0
 46
0.0
 71
     5
 72
     5
  1
\A1;(865)
 11
0.0
 21
1.0
 31
0.0
 73
     1
 44
1.0
  0
POINT
  5
8419
330
8411
100
AcDbEntity
  8
DEFPOINTS
  6
ByBlock
 62
     0
440
 16777216
100
AcDbPoint
 10
1446.099911707264
 20
1950.226832308628
 30
0.0
  0
POINT
  5
841A
330
8411
100
AcDbEntity
  8
DEFPOINTS
  6
ByBlock
 62
     0
440
 16777216
100
AcDbPoint
 10
1391.099911707264
 20
1085.226832308628
 30
0.0
  0
POINT
  5
841B
330
8411
100
AcDbEntity
  8
DEFPOINTS
  6
ByBlock
 62
     0
440
 16777216
100
AcDbPoint
 10
1793.222888152024
 20
1085.226832308628
 30
0.0
  0
ENDBLK
  5
841C
330
8411
100
AcDbEntity
  8
0
100
AcDbBlockEnd
  0
ENDSEC
  0
SECTION
  2
ENTITIES
  0
LINE
  5
7E7E
330
19
100
AcDbEntity
  8
4
100
AcDbLine
 10
2775.0
 20
750.0
 30
0.0
 11
2775.0
 21
450.0
 31
0.0
  0
LINE
  5
7E7F
330
19
100
AcDbEntity
  8
4
100
AcDbLine
 10
1725.0
 20
750.0
 30
0.0
 11
1725.0
 21
450.0
 31
0.0
  0
LINE
  5
7E80
330
19
100
AcDbEntity
  8
4
100
AcDbLine
 10
975.0
 20
750.0
 30
0.0
 11
975.0
 21
450.0
 31
0.0
  0
LINE
  5
7E83
330
19
100
AcDbEntity
  8
4
100
AcDbLine
 10
975.0
 20
450.0
 30
0.0
 11
2775.0
 21
450.0
 31
0.0
  0
LINE
  5
7E84
330
19
100
AcDbEntity
  8
4
100
AcDbLine
 10
975.0
 20
600.0
 30
0.0
 11
2775.0
 21
600.0
 31
0.0
  0
TEXT
  5
7E85
330
19
100
AcDbEntity
  8
4
100
AcDbText
 10
1032.753121270352
 20
647.3145387999193
 30
0.0
 40
75.0
  1
機器名称
100
AcDbText
  0
TEXT
  5
7E86
330
19
100
AcDbEntity
  8
4
100
AcDbText
 10
1029.387159037196
 20
482.4677350980164
 30
0.0
 40
75.0
  1
機器型番
100
AcDbText
  0
TEXT
  5
7E87
330
19
100
AcDbEntity
  8
4
100
AcDbText
 10
1768.851933486806
 20
634.5324550190777
 30
0.0
 40
60.0
  1
ミツヤリミットロードファン
100
AcDbText
  0
TEXT
  5
7E88
330
19
100
AcDbEntity
  8
4
100
AcDbText
 10
1779.981743378221
 20
475.739376419915
 30
0.0
 40
75.0
  1
LL#2 1/2-5
100
AcDbText
  0
TEXT
  5
7E8A
330
19
100
AcDbEntity
  8
4
100
AcDbText
 10
1190.844880764071
 20
3575.143261998775
 30
0.0
 40
80.99999999999999
  1
床置防振ベット
100
AcDbText
  0
TEXT
  5
7E8B
330
19
100
AcDbEntity
  8
4
100
AcDbText
 10
474.2513899941696
 20
3800.821464298947
 30
0.0
 40
108.0
  1
遠心式両吸込両持リミットロードファン
100
AcDbText
  0
LINE
  5
7E8C
330
19
100
AcDbEntity
  8
4
100
AcDbLine
 10
375.0
 20
3704.113131397207
 30
0.0
 11
2775.0
 21
3704.113131397207
 31
0.0
  0
LINE
  5
7E8D
330
19
100
AcDbEntity
  8
4
100
AcDbLine
 10
375.0
 20
4004.113131397207
 30
0.0
 11
2775.0
 21
4004.113131397207
 31
0.0
  0
LINE
  5
7E8E
330
19
100
AcDbEntity
  8
4
100
AcDbLine
 10
975.0
 20
750.0
 30
0.0
 11
2775.0
 21
750.0
 31
0.0
  0
LINE
  5
7E8F
330
19
100
AcDbEntity
  8
4
100
AcDbLine
 10
375.0
 20
4004.113131397207
 30
0.0
 11
375.0
 21
3704.113131397207
 31
0.0
  0
TEXT
  5
7E90
330
19
100
AcDbEntity
  8
4
100
AcDbText
 10
537.0566324000174
 20
3573.479216319518
 30
0.0
 40
80.99999999999999
  1
右回転右横向
100
AcDbText
  0
TEXT
  5
7E91
330
19
100
AcDbEntity
  8
4
100
AcDbText
 10
2203.454338873935
 20
4059.091622242963
 30
0.0
 40
84.00000000000002
  1
No.
100
AcDbText
  0
TEXT
  5
7E92
330
19
100
AcDbEntity
  8
4
100
AcDbText
 10
1966.94409390002
 20
3575.143261998774
 30
0.0
 40
80.99999999999999
  1
縮尺：1/15
100
AcDbText
  0
LINE
  5
7E93
330
19
100
AcDbEntity
  8
4
100
AcDbLine
 10
2775.0
 20
4004.113131397207
 30
0.0
 11
2775.0
 21
3704.113131397207
 31
0.0
  0
LINE
  5
7E94
330
19
100
AcDbEntity
  8
4
100
AcDbLine
 10
3150.0
 20
4425.0
 30
0.0
 11
3150.0
 21
4425.0
 31
0.0
  0
LINE
  5
7E95
330
19
100
AcDbEntity
  8
4
100
AcDbLine
 10
2160.926133539797
 20
4021.895374688102
 30
0.0
 11
2160.926133539797
 21
4179.978392324628
 31
0.0
  0
LINE
  5
7E96
330
19
100
AcDbEntity
  8
4
100
AcDbLine
 10
2160.926133539797
 20
4179.978392324628
 30
0.0
 11
2775.0
 21
4179.978392324628
 31
0.0
  0
LINE
  5
7E97
330
19
100
AcDbEntity
  8
4
100
AcDbLine
 10
2775.0
 20
4179.978392324628
 30
0.0
 11
2775.0
 21
4021.895374688102
 31
0.0
  0
LINE
  5
7E98
330
19
100
AcDbEntity
  8
4
100
AcDbLine
 10
2775.0
 20
4021.895374688102
 30
0.0
 11
2160.926133539797
 21
4021.895374688102
 31
0.0
  0
LINE
  5
7E99
330
19
100
AcDbEntity
  8
4
100
AcDbLine
 10
0.0
 20
0.0
 30
0.0
 11
0.0
 21
4425.0
 31
0.0
  0
LINE
  5
7E9A
330
19
100
AcDbEntity
  8
4
100
AcDbLine
 10
0.0
 20
4425.0
 30
0.0
 11
3150.0
 21
4425.0
 31
0.0
  0
LINE
  5
7E9B
330
19
100
AcDbEntity
  8
4
100
AcDbLine
 10
3150.0
 20
4425.0
 30
0.0
 11
3150.0
 21
0.0
 31
0.0
  0
LINE
  5
7E9C
330
19
100
AcDbEntity
  8
4
100
AcDbLine
 10
3150.0
 20
0.0
 30
0.0
 11
0.0
 21
0.0
 31
0.0
  0
LINE
  5
8129
330
19
100
AcDbEntity
  8
1
100
AcDbLine
 10
1443.099911707264
 20
1511.226832308628
 30
0.0
 11
1443.099911707264
 21
1977.221649621199
 31
0.0
  0
LINE
  5
812A
330
19
100
AcDbEntity
  8
1
100
AcDbLine
 10
1446.099911707264
 20
1511.226832308628
 30
0.0
 11
1443.099911707264
 21
1511.226832308628
 31
0.0
  0
LINE
  5
812B
330
19
100
AcDbEntity
  8
1
100
AcDbLine
 10
1446.099911707264
 20
1977.221649621199
 30
0.0
 11
1443.099911707264
 21
1977.221649621199
 31
0.0
  0
DIMENSION
  5
812C
330
19
100
AcDbEntity
  8
3
100
AcDbDimension
280
     0
  2
*D3
 10
1666.821494337989
 20
1526.226832308628
 30
0.0
 11
1636.82149433799
 21
1738.226832308628
 31
0.0
 12
-3738.588156288079
 22
0.0
 32
0.0
 70
    32
 71
     5
 42
-1.0
 73
     0
 74
     0
 75
     0
  3
MATSU
100
AcDbAlignedDimension
 13
1446.099911707264
 23
1950.226832308628
 33
0.0
 14
1451.099911707264
 24
1526.226832308628
 34
0.0
 50
270.0
100
AcDbRotatedDimension
1001
ACAD
1000
DSTYLE
1002
{
1070
    40
1040
15.0
1002
}
  0
DIMENSION
  5
812D
330
19
100
AcDbEntity
  8
3
100
AcDbDimension
280
     0
  2
*D4
 10
2966.728371331745
 20
1326.226832308628
 30
0.0
 11
2936.728371331745
 21
1526.226832308628
 31
0.0
 12
-3738.588156288079
 22
0.0
 32
0.0
 70
    32
  1
φ400
 71
     5
 42
-1.0
 73
     0
 74
     0
 75
     0
  3
MATSU
100
AcDbAlignedDimension
 13
2794.44985091422
 23
1726.226832308628
 33
0.0
 14
2794.44985091422
 24
1326.226832308628
 34
0.0
 50
90.0
100
AcDbRotatedDimension
1001
ACAD
1000
DSTYLE
1002
{
1070
    40
1040
15.0
1002
}
  0
LINE
  5
812E
330
19
100
AcDbEntity
  8
2
100
AcDbLine
 10
1982.742025909576
 20
1526.226832308628
 30
0.0
 11
2872.44985091422
 21
1526.226832308628
 31
0.0
  0
LINE
  5
812F
330
19
100
AcDbEntity
  8
1
100
AcDbLine
 10
2792.44985091422
 20
1950.226832308628
 30
0.0
 11
2792.44985091422
 21
1261.226832308628
 31
0.0
  0
LINE
  5
8130
330
19
100
AcDbEntity
  8
1
100
AcDbLine
 10
2262.44985091422
 20
1950.226832308628
 30
0.0
 11
2262.44985091422
 21
1261.226832308628
 31
0.0
  0
LINE
  5
8131
330
19
100
AcDbEntity
  8
1
100
AcDbLine
 10
1421.099911707264
 20
1538.226832308628
 30
0.0
 11
1421.099911707264
 21
1948.423553620104
 31
0.0
  0
DIMENSION
  5
8132
330
19
100
AcDbEntity
  8
3
100
AcDbDimension
280
     0
  2
*D5
 10
1446.099911707264
 20
2110.478800812596
 30
0.0
 11
1293.599911707264
 21
2140.478800812596
 31
0.0
 12
-3738.588156288079
 22
0.0
 32
0.0
 70
    32
 71
     5
 42
-1.0
 73
     0
 74
     0
 75
     0
  3
MATSU
100
AcDbAlignedDimension
 13
1141.099911707264
 23
1960.570359135239
 33
0.0
 14
1446.099911707264
 24
1960.252813070855
 34
0.0
100
AcDbRotatedDimension
1001
ACAD
1000
DSTYLE
1002
{
1070
    40
1040
15.0
1002
}
  0
DIMENSION
  5
8133
330
19
100
AcDbEntity
  8
3
100
AcDbDimension
280
     0
  2
*D6
 10
1571.187344312155
 20
1538.226832308628
 30
0.0
 11
1541.187344312155
 21
1744.226832308628
 31
0.0
 12
-3738.588156288079
 22
0.0
 32
0.0
 70
    32
 71
     5
 42
-1.0
 73
     0
 74
     0
 75
     0
  3
MATSU
100
AcDbAlignedDimension
 13
1446.099911707264
 23
1950.226832308628
 33
0.0
 14
1446.099911707264
 24
1538.226832308628
 34
0.0
 50
270.0
100
AcDbRotatedDimension
1001
ACAD
1000
DSTYLE
1002
{
1070
    40
1040
15.0
1002
}
  0
LINE
  5
8134
330
19
100
AcDbEntity
  8
1
100
AcDbLine
 10
1374.96236202939
 20
1538.226832308628
 30
0.0
 11
1446.099911707264
 21
1538.226832308628
 31
0.0
  0
LINE
  5
8135
330
19
100
AcDbEntity
  8
1
100
AcDbLine
 10
1446.099911707264
 20
1511.226832308628
 30
0.0
 11
1446.099911707264
 21
1977.221649621199
 31
0.0
  0
LINE
  5
8136
330
19
100
AcDbEntity
  8
2
100
AcDbLine
 10
1451.099911707264
 20
1526.226832308628
 30
0.0
 11
775.7515429358709
 21
1526.226832308628
 31
0.0
  0
LINE
  5
8137
330
19
100
AcDbEntity
  8
2
100
AcDbLine
 10
1141.099911707264
 20
1960.570359135239
 30
0.0
 11
1141.099911707264
 21
1085.226832308628
 31
0.0
  0
LINE
  5
8138
330
19
100
AcDbEntity
  8
1
100
AcDbLine
 10
1386.446312583737
 20
1528.226832308628
 30
0.0
 11
1421.099911707264
 21
1528.226832308628
 31
0.0
  0
LINE
  5
8139
330
19
100
AcDbEntity
  8
2
100
AcDbLine
 10
2527.44985091422
 20
1992.319990359957
 30
0.0
 11
2527.44985091422
 21
1085.226832308628
 31
0.0
  0
LINE
  5
8142
330
19
100
AcDbEntity
  8
1
100
AcDbLine
 10
2262.44985091422
 20
1950.226832308628
 30
0.0
 11
2792.44985091422
 21
1950.226832308628
 31
0.0
  0
LINE
  5
8143
330
19
100
AcDbEntity
  8
1
100
AcDbLine
 10
2262.44985091422
 20
1538.226832308628
 30
0.0
 11
2792.44985091422
 21
1538.226832308628
 31
0.0
  0
LINE
  5
8144
330
19
100
AcDbEntity
  8
1
100
AcDbLine
 10
2792.44985091422
 20
1950.226832308628
 30
0.0
 11
2262.44985091422
 21
1538.226832308628
 31
0.0
  0
LINE
  5
8145
330
19
100
AcDbEntity
  8
1
100
AcDbLine
 10
2262.44985091422
 20
1950.226832308628
 30
0.0
 11
2792.44985091422
 21
1538.226832308628
 31
0.0
  0
CIRCLE
  5
8146
330
19
100
AcDbEntity
  8
1
100
AcDbCircle
 10
1141.099911707264
 20
1526.226832308628
 30
0.0
 40
200.0
  0
CIRCLE
  5
8147
330
19
100
AcDbEntity
  8
1
100
AcDbCircle
 10
1141.099911707264
 20
1526.226832308628
 30
0.0
 40
225.0
  0
LINE
  5
8148
330
19
100
AcDbEntity
  8
1
100
AcDbLine
 10
1391.099911707264
 20
1186.226832308628
 30
0.0
 11
411.0999117072642
 21
1186.226832308628
 31
0.0
  0
LINE
  5
8149
330
19
100
AcDbEntity
  8
1
100
AcDbLine
 10
1391.099911707264
 20
1150.226832308628
 30
0.0
 11
411.0999117072642
 21
1150.226832308628
 31
0.0
  0
LINE
  5
814A
330
19
100
AcDbEntity
  8
1
100
AcDbLine
 10
1391.099911707264
 20
1085.226832308628
 30
0.0
 11
411.0999117072642
 21
1085.226832308628
 31
0.0
  0
LINE
  5
814B
330
19
100
AcDbEntity
  8
1
100
AcDbLine
 10
1391.099911707264
 20
1261.226832308628
 30
0.0
 11
1391.099911707264
 21
1186.226832308628
 31
0.0
  0
LINE
  5
814C
330
19
100
AcDbEntity
  8
1
100
AcDbLine
 10
411.0999117072642
 20
1261.226832308628
 30
0.0
 11
411.0999117072642
 21
1186.226832308628
 31
0.0
  0
LINE
  5
814D
330
19
100
AcDbEntity
  8
1
100
AcDbLine
 10
1391.099911707264
 20
1150.226832308628
 30
0.0
 11
1391.099911707264
 21
1085.226832308628
 31
0.0
  0
LINE
  5
814E
330
19
100
AcDbEntity
  8
1
100
AcDbLine
 10
411.0999117072642
 20
1150.226832308628
 30
0.0
 11
411.0999117072642
 21
1085.226832308628
 31
0.0
  0
DIMENSION
  5
814F
330
19
100
AcDbEntity
  8
3
100
AcDbDimension
280
     0
  2
*D7
 10
1666.821494337989
 20
1186.226832308628
 30
0.0
 11
1636.821494337989
 21
1356.226832308628
 31
0.0
 70
    32
 71
     5
 42
-1.0
 73
     0
 74
     0
 75
     0
  3
MATSU
100
AcDbAlignedDimension
 13
1451.099911707264
 23
1526.226832308628
 33
0.0
 14
1391.099911707264
 24
1186.226832308628
 34
0.0
 50
90.0
100
AcDbRotatedDimension
1001
ACAD
1000
DSTYLE
1002
{
1070
   287
1070
     4
1070
    40
1040
15.0
1070
    75
1070
     1
1070
   279
1070
     1
1070
   289
1070
     3
1002
}
  0
DIMENSION
  5
8151
330
19
100
AcDbEntity
  8
3
100
AcDbDimension
280
     0
  2
*D8
 10
797.8921947452481
 20
2110.478800812596
 30
0.0
 11
969.4960532262562
 21
2140.478800812596
 31
0.0
 70
    32
  1
342
 71
     5
 42
-1.0
 73
     0
 74
     0
 75
     0
  3
MATSU
100
AcDbAlignedDimension
 13
1141.099911707264
 23
1960.570359135239
 33
0.0
 14
797.8921947452481
 24
1556.226832308628
 34
0.0
100
AcDbRotatedDimension
1001
ACAD
1000
DSTYLE
1002
{
1070
   287
1070
     4
1070
    40
1040
15.0
1070
    75
1070
     1
1070
   279
1070
     1
1070
   289
1070
     3
1002
}
  0
LINE
  5
8155
330
19
100
AcDbEntity
  8
2
100
AcDbLine
 10
621.0999117072642
 20
1680.462832308628
 30
0.0
 11
621.0999117072642
 21
1085.226832308628
 31
0.0
  0
LINE
  5
8156
330
19
100
AcDbEntity
  8
2
100
AcDbLine
 10
388.6107218080733
 20
1468.226832308628
 30
0.0
 11
844.1767400498902
 21
1468.226832308628
 31
0.0
  0
LINE
  5
8157
330
19
100
AcDbEntity
  8
1
100
AcDbLine
 10
2154.44985091422
 20
1186.226832308628
 30
0.0
 11
2834.44985091422
 21
1186.226832308628
 31
0.0
  0
LINE
  5
8158
330
19
100
AcDbEntity
  8
1
100
AcDbLine
 10
2154.44985091422
 20
1150.226832308628
 30
0.0
 11
2834.44985091422
 21
1150.226832308628
 31
0.0
  0
LINE
  5
8159
330
19
100
AcDbEntity
  8
1
100
AcDbLine
 10
2154.44985091422
 20
1085.226832308628
 30
0.0
 11
2834.44985091422
 21
1085.226832308628
 31
0.0
  0
LINE
  5
815A
330
19
100
AcDbEntity
  8
1
100
AcDbLine
 10
2834.44985091422
 20
1261.226832308628
 30
0.0
 11
2834.44985091422
 21
1186.226832308628
 31
0.0
  0
LINE
  5
815B
330
19
100
AcDbEntity
  8
1
100
AcDbLine
 10
2154.44985091422
 20
1261.226832308628
 30
0.0
 11
2154.44985091422
 21
1186.226832308628
 31
0.0
  0
LINE
  5
815C
330
19
100
AcDbEntity
  8
1
100
AcDbLine
 10
2834.44985091422
 20
1150.226832308628
 30
0.0
 11
2834.44985091422
 21
1085.226832308628
 31
0.0
  0
LINE
  5
815D
330
19
100
AcDbEntity
  8
1
100
AcDbLine
 10
2154.44985091422
 20
1150.226832308628
 30
0.0
 11
2154.44985091422
 21
1085.226832308628
 31
0.0
  0
DIMENSION
  5
815E
330
19
100
AcDbEntity
  8
3
100
AcDbDimension
280
     0
  2
*D9
 10
411.0999117072642
 20
2224.209861114972
 30
0.0
 11
928.5999117072643
 21
2254.209861114972
 31
0.0
 12
-3738.588156288079
 22
0.0
 32
0.0
 70
    32
 71
     5
 42
-1.0
 73
     0
 74
     0
 75
     0
  3
MATSU
100
AcDbAlignedDimension
 13
1446.099911707264
 23
1977.221649621199
 33
0.0
 14
411.0999117072642
 24
1251.226832308628
 34
0.0
100
AcDbRotatedDimension
1001
ACAD
1000
DSTYLE
1002
{
1070
    40
1040
15.0
1002
}
  0
LINE
  5
8162
330
19
100
AcDbEntity
  8
1
100
AcDbLine
 10
2182.44985091422
 20
1473.326832308628
 30
0.0
 11
2182.44985091422
 21
1413.326832308628
 31
0.0
  0
LINE
  5
8163
330
19
100
AcDbEntity
  8
1
100
AcDbLine
 10
2252.449850914219
 20
1483.326832308627
 30
0.0
 11
2252.449850914219
 21
1403.326832308628
 31
0.0
  0
LINE
  5
8164
330
19
100
AcDbEntity
  8
1
100
AcDbLine
 10
2869.44985091422
 20
1482.926832308628
 30
0.0
 11
2869.44985091422
 21
1422.926832308627
 31
0.0
  0
LINE
  5
8165
330
19
100
AcDbEntity
  8
1
100
AcDbLine
 10
2799.44985091422
 20
1492.926832308628
 30
0.0
 11
2799.44985091422
 21
1412.926832308628
 31
0.0
  0
LINE
  5
8166
330
19
100
AcDbEntity
  8
1
100
AcDbLine
 10
2799.44985091422
 20
1492.926832308628
 30
0.0
 11
2859.44985091422
 21
1492.926832308627
 31
0.0
  0
LINE
  5
8167
330
19
100
AcDbEntity
  8
1
100
AcDbLine
 10
2799.44985091422
 20
1412.926832308628
 30
0.0
 11
2859.44985091422
 21
1412.926832308627
 31
0.0
  0
LINE
  5
8168
330
19
100
AcDbEntity
  8
1
100
AcDbLine
 10
2192.44985091422
 20
1483.326832308628
 30
0.0
 11
2252.449850914219
 21
1483.326832308627
 31
0.0
  0
LINE
  5
8169
330
19
100
AcDbEntity
  8
1
100
AcDbLine
 10
2192.44985091422
 20
1403.326832308628
 30
0.0
 11
2252.449850914219
 21
1403.326832308628
 31
0.0
  0
LINE
  5
816A
330
19
100
AcDbEntity
  8
1
100
AcDbLine
 10
2192.44985091422
 20
1483.326832308628
 30
0.0
 11
2182.44985091422
 21
1473.326832308628
 31
0.0
  0
LINE
  5
816B
330
19
100
AcDbEntity
  8
1
100
AcDbLine
 10
2182.44985091422
 20
1413.326832308628
 30
0.0
 11
2192.44985091422
 21
1403.326832308628
 31
0.0
  0
LINE
  5
816C
330
19
100
AcDbEntity
  8
1
100
AcDbLine
 10
2859.44985091422
 20
1492.926832308627
 30
0.0
 11
2869.44985091422
 21
1482.926832308628
 31
0.0
  0
LINE
  5
816D
330
19
100
AcDbEntity
  8
1
100
AcDbLine
 10
2869.44985091422
 20
1422.926832308627
 30
0.0
 11
2859.44985091422
 21
1412.926832308627
 31
0.0
  0
DIMENSION
  5
816E
330
19
100
AcDbEntity
  8
3
100
AcDbDimension
280
     0
  2
*D10
 10
2527.44985091422
 20
2126.568762150255
 30
0.0
 11
2698.44985091422
 21
2168.354476435969
 31
0.0
 12
-3738.588156288079
 22
0.0
 32
0.0
 70
    32
  1
(<>)
 71
     5
 42
-1.0
 73
     0
 74
     0
 75
     0
  3
MATSU
100
AcDbAlignedDimension
 13
2869.44985091422
 23
1485.926832308627
 33
0.0
 14
2527.44985091422
 24
2072.066161058438
 34
0.0
100
AcDbRotatedDimension
1001
ACAD
1000
DSTYLE
1002
{
1070
    40
1040
15.0
1002
}
  0
LINE
  5
816F
330
19
100
AcDbEntity
  8
2
100
AcDbLine
 10
1141.099911707264
 20
2367.570933605073
 30
0.0
 11
1141.099911707264
 21
3248.172962404639
 31
0.0
  0
LINE
  5
8170
330
19
100
AcDbEntity
  8
2
100
AcDbLine
 10
799.0999117072641
 20
2913.877843134336
 30
0.0
 11
1522.532599719758
 21
2913.877843134336
 31
0.0
  0
LINE
  5
8171
330
19
100
AcDbEntity
  8
1
100
AcDbLine
 10
411.0999117072642
 20
3220.877843134336
 30
0.0
 11
1391.099911707264
 21
3220.877843134336
 31
0.0
  0
LINE
  5
8172
330
19
100
AcDbEntity
  8
1
100
AcDbLine
 10
411.0999117072642
 20
2540.877843134337
 30
0.0
 11
1391.099911707264
 21
2540.877843134337
 31
0.0
  0
LINE
  5
8173
330
19
100
AcDbEntity
  8
1
100
AcDbLine
 10
1391.099911707264
 20
2540.877843134337
 30
0.0
 11
1391.099911707264
 21
2648.877843134336
 31
0.0
  0
LINE
  5
8174
330
19
100
AcDbEntity
  8
1
100
AcDbLine
 10
411.0999117072642
 20
2540.877843134337
 30
0.0
 11
411.0999117072642
 21
3220.877843134336
 31
0.0
  0
LINE
  5
8175
330
19
100
AcDbEntity
  8
1
100
AcDbLine
 10
799.0999117072642
 20
3178.877843134336
 30
0.0
 11
1446.099911707264
 21
3178.877843134337
 31
0.0
  0
LINE
  5
8176
330
19
100
AcDbEntity
  8
1
100
AcDbLine
 10
799.0999117072642
 20
2648.877843134336
 30
0.0
 11
1446.099911707264
 21
2648.877843134336
 31
0.0
  0
LINE
  5
8177
330
19
100
AcDbEntity
  8
1
100
AcDbLine
 10
1446.099911707264
 20
2621.877843134337
 30
0.0
 11
1446.099911707264
 21
3205.877843134337
 31
0.0
  0
LINE
  5
8178
330
19
100
AcDbEntity
  8
1
100
AcDbLine
 10
799.0999117072642
 20
2648.877843134336
 30
0.0
 11
799.0999117072642
 21
3178.877843134336
 31
0.0
  0
LINE
  5
817C
330
19
100
AcDbEntity
  8
1
100
AcDbLine
 10
1997.449850914219
 20
1676.226832308628
 30
0.0
 11
1997.449850914219
 21
1318.226832308628
 31
0.0
  0
LINE
  5
817D
330
19
100
AcDbEntity
  8
1
100
AcDbLine
 10
478.5999117072642
 20
2383.877843134336
 30
0.0
 11
1291.099911707264
 21
2383.877843134335
 31
0.0
  0
DIMENSION
  5
817E
330
19
100
AcDbEntity
  8
3
100
AcDbDimension
280
     0
  2
*D11
 10
1391.099911707264
 20
3411.305724121032
 30
0.0
 11
901.0999117072643
 21
3441.305724121032
 31
0.0
 12
-3738.588156288079
 22
0.0
 32
0.0
 70
    32
 71
     5
 42
-1.0
 73
     0
 74
     0
 75
     0
  3
MATSU
100
AcDbAlignedDimension
 13
411.0999117072642
 23
3220.877843134336
 33
0.0
 14
1391.099911707264
 24
3220.877843134336
 34
0.0
100
AcDbRotatedDimension
1001
ACAD
1000
DSTYLE
1002
{
1070
    40
1040
15.0
1002
}
  0
DIMENSION
  5
817F
330
19
100
AcDbEntity
  8
3
100
AcDbDimension
280
     0
  2
*D12
 10
1634.37936820747
 20
2540.877843134337
 30
0.0
 11
1604.37936820747
 21
2880.877843134337
 31
0.0
 12
-3738.588156288079
 22
0.0
 32
0.0
 70
    32
 71
     5
 42
-1.0
 73
     0
 74
     0
 75
     0
  3
MATSU
100
AcDbAlignedDimension
 13
1391.099911707264
 23
3220.877843134336
 33
0.0
 14
1391.099911707264
 24
2540.877843134337
 34
0.0
 50
90.0
100
AcDbRotatedDimension
1001
ACAD
1000
DSTYLE
1002
{
1070
    40
1040
15.0
1002
}
  0
LINE
  5
8180
330
19
100
AcDbEntity
  8
1
100
AcDbLine
 10
1161.099911707264
 20
2543.877843134335
 30
0.0
 11
1161.099911707264
 21
2648.877843134336
 31
0.0
  0
LINE
  5
8181
330
19
100
AcDbEntity
  8
1
100
AcDbLine
 10
1121.099911707264
 20
2543.877843134335
 30
0.0
 11
1121.099911707264
 21
2648.877843134336
 31
0.0
  0
DIMENSION
  5
8182
330
19
100
AcDbEntity
  8
3
100
AcDbDimension
280
     0
  2
*D13
 10
1997.449850914219
 20
2126.568762150255
 30
0.0
 11
2262.44985091422
 21
2168.354476435969
 31
0.0
 70
    32
  1
(<>)
 71
     5
 42
530.0
 73
     0
 74
     0
 75
     0
  3
MATSU
100
AcDbAlignedDimension
 13
2527.44985091422
 23
2072.066161058438
 33
0.0
 14
1997.449850914219
 24
1681.226832308627
 34
0.0
100
AcDbRotatedDimension
1001
ACAD
1000
DSTYLE
1002
{
1070
   287
1070
     4
1070
    40
1040
15.0
1070
    75
1070
     1
1070
   279
1070
     1
1070
   289
1070
     3
1002
}
  0
DIMENSION
  5
8183
330
19
100
AcDbEntity
  8
3
100
AcDbDimension
280
     0
  2
*D14
 10
2262.44985091422
 20
2009.200160216497
 30
0.0
 11
2527.44985091422
 21
2039.200160216497
 31
0.0
 12
-3738.588156288079
 22
0.0
 32
0.0
 70
    32
 71
     5
 42
-1.0
 73
     0
 74
     0
 75
     0
  3
MATSU
100
AcDbAlignedDimension
 13
2792.44985091422
 23
1950.226832308628
 33
0.0
 14
2262.44985091422
 24
1950.226832308628
 34
0.0
100
AcDbRotatedDimension
1001
ACAD
1000
DSTYLE
1002
{
1070
    40
1040
15.0
1002
}
  0
LINE
  5
8184
330
19
100
AcDbEntity
  8
1
100
AcDbLine
 10
1391.099911707264
 20
3178.877843134336
 30
0.0
 11
1391.099911707264
 21
3220.877843134336
 31
0.0
  0
DIMENSION
  5
8186
330
19
100
AcDbEntity
  8
3
100
AcDbDimension
280
     0
  2
*D15
 10
1666.821494337989
 20
1085.226832308628
 30
0.0
 11
1629.32149433799
 21
973.7982608800569
 31
0.0
 70
    32
 71
     5
 42
-1.0
 73
     0
 74
     0
 75
     0
  3
IGA
100
AcDbAlignedDimension
 13
1391.099911707264
 23
1150.226832308628
 33
0.0
 14
1391.099911707264
 24
1085.226832308628
 34
0.0
 50
90.0
100
AcDbRotatedDimension
1001
ACAD
1000
DSTYLE
1002
{
1070
   287
1070
     3
1070
    40
1040
15.0
1070
   143
1040
0.039
1070
   172
1070
     1
1070
   271
1070
     0
1070
   279
1070
     0
1070
   288
1070
     1
1070
     6
1000
DOT
1002
}
  0
LINE
  5
8187
330
19
100
AcDbEntity
  8
1
100
AcDbLine
 10
1391.099911707264
 20
1261.226832308628
 30
0.0
 11
411.0999117072642
 21
1261.226832308628
 31
0.0
  0
LINE
  5
8188
330
19
100
AcDbEntity
  8
1
100
AcDbLine
 10
2154.44985091422
 20
1261.226832308628
 30
0.0
 11
2834.44985091422
 21
1261.226832308628
 31
0.0
  0
INSERT
  5
8189
330
19
100
AcDbEntity
  8
0
100
AcDbBlockReference
  2
YA_N
 10
11916.75410339056
 20
29.56954602318547
 30
0.0
  0
INSERT
  5
818A
330
19
100
AcDbEntity
  8
0
100
AcDbBlockReference
  2
YA_N
 10
11916.75410339056
 20
29.56954602318547
 30
0.0
  0
INSERT
  5
818B
330
19
100
AcDbEntity
  8
0
100
AcDbBlockReference
  2
YA_N
 10
13562.864533709
 20
378.4293582124135
 30
0.0
  0
INSERT
  5
818C
330
19
100
AcDbEntity
  8
0
100
AcDbBlockReference
  2
YA_N
 10
11701.35046672119
 20
-1419.914462222301
 30
0.0
 41
10.0
 42
10.0
 43
10.0
  0
INSERT
  5
818D
330
19
100
AcDbEntity
  8
0
100
AcDbBlockReference
  2
YA_N
 10
11701.35046672119
 20
-1419.914462222301
 30
0.0
 41
10.0
 42
10.0
 43
10.0
  0
INSERT
  5
818E
330
19
100
AcDbEntity
  8
0
  6
ByBlock
 62
     2
100
AcDbBlockReference
  2
YA_N
 10
13072.66414540814
 20
-370.5291377253
 30
0.0
 41
30.0
 42
30.0
 43
30.0
 50
90.0
  0
INSERT
  5
818F
330
19
100
AcDbEntity
  8
0
  6
ByBlock
 62
     2
100
AcDbBlockReference
  2
YA_N
 10
13072.66414540814
 20
-370.5291377253
 30
0.0
 41
30.0
 42
30.0
 43
30.0
 50
90.0
  0
ARC
  5
8190
330
19
100
AcDbEntity
  8
1
100
AcDbCircle
 10
621.0999117072642
 20
1468.226832308628
 30
0.0
 40
150.0
100
AcDbArc
 50
96.36437738377821
 51
276.3643773837782
  0
CIRCLE
  5
8191
330
19
100
AcDbEntity
  8
1
100
AcDbCircle
 10
621.0999117072642
 20
1468.226832308628
 30
0.0
 40
75.0
  0
LINE
  5
8192
330
19
100
AcDbEntity
  8
1
100
AcDbLine
 10
786.0999117072642
 20
1336.226832308628
 30
0.0
 11
456.0999117072642
 21
1336.226832308628
 31
0.0
  0
ARC
  5
8193
330
19
100
AcDbEntity
  8
1
100
AcDbCircle
 10
621.0999117072642
 20
1468.226832308628
 30
0.0
 40
142.5
100
AcDbArc
 50
180.0
 51
244.787
  0
ARC
  5
8194
330
19
100
AcDbEntity
  8
1
100
AcDbCircle
 10
621.0999117072642
 20
1468.226832308628
 30
0.0
 40
142.5
100
AcDbArc
 50
295.1874
 51
180.0
  0
LINE
  5
8195
330
19
100
AcDbEntity
  8
1
100
AcDbLine
 10
560.5586117072643
 20
1339.226832308628
 30
0.0
 11
681.6412117072641
 21
1339.226832308628
 31
0.0
  0
LINE
  5
8196
330
19
100
AcDbEntity
  8
1
100
AcDbLine
 10
491.0999117072642
 20
1336.226832308628
 30
0.0
 11
541.0999117072642
 21
1336.226832308628
 31
0.0
  0
LINE
  5
8197
330
19
100
AcDbEntity
  8
1
100
AcDbLine
 10
501.5743117072643
 20
1390.318132308628
 30
0.0
 11
491.0999117072642
 21
1351.226832308628
 31
0.0
  0
LINE
  5
8198
330
19
100
AcDbEntity
  8
1
100
AcDbLine
 10
491.0999117072642
 20
1351.029432308628
 30
0.0
 11
491.0999117072642
 21
1336.226832308628
 31
0.0
  0
LINE
  5
8199
330
19
100
AcDbEntity
  8
1
100
AcDbLine
 10
751.0999117072643
 20
1336.226832308628
 30
0.0
 11
701.0999117072643
 21
1336.226832308628
 31
0.0
  0
LINE
  5
819A
330
19
100
AcDbEntity
  8
1
100
AcDbLine
 10
740.5827117072639
 20
1390.477432308628
 30
0.0
 11
751.0999117072643
 21
1351.226832308628
 31
0.0
  0
LINE
  5
819B
330
19
100
AcDbEntity
  8
1
100
AcDbLine
 10
751.0999117072643
 20
1351.029432308628
 30
0.0
 11
751.0999117072643
 21
1336.226832308628
 31
0.0
  0
LINE
  5
819C
330
19
100
AcDbEntity
  8
1
100
AcDbLine
 10
2262.44985091422
 20
1610.226832308628
 30
0.0
 11
2228.806478847394
 21
1610.226832308628
 31
0.0
  0
LINE
  5
819D
330
19
100
AcDbEntity
  8
1
100
AcDbLine
 10
2262.44985091422
 20
1336.226832308629
 30
0.0
 11
2228.806478847394
 21
1336.226832308629
 31
0.0
  0
LINE
  5
819E
330
19
100
AcDbEntity
  8
1
100
AcDbLine
 10
2228.806478847395
 20
1610.226832308628
 30
0.0
 11
2228.806478847395
 21
1546.226832308628
 31
0.0
  0
LINE
  5
819F
330
19
100
AcDbEntity
  8
1
100
AcDbLine
 10
2218.806478847395
 20
1483.326832308628
 30
0.0
 11
2218.806478847395
 21
1506.226832308628
 31
0.0
  0
LINE
  5
81A1
330
19
100
AcDbEntity
  8
1
100
AcDbLine
 10
2182.44985091422
 20
1449.226832308628
 30
0.0
 11
2157.44985091422
 21
1449.226832308628
 31
0.0
  0
LINE
  5
81A2
330
19
100
AcDbEntity
  8
1
100
AcDbLine
 10
2211.806478847395
 20
1487.226832308628
 30
0.0
 11
2157.44985091422
 21
1487.226832308628
 31
0.0
  0
LINE
  5
81A4
330
19
100
AcDbEntity
  8
1
100
AcDbLine
 10
2211.806478847395
 20
1483.326832308628
 30
0.0
 11
2211.806478847395
 21
1488.226832308628
 31
0.0
  0
LINE
  5
81A5
330
19
100
AcDbEntity
  8
1
100
AcDbLine
 10
2218.806478847395
 20
1488.226832308628
 30
0.0
 11
2211.806478847395
 21
1488.226832308628
 31
0.0
  0
LINE
  5
81A8
330
19
100
AcDbEntity
  8
1
100
AcDbLine
 10
821.0999117072642
 20
1301.226832308628
 30
0.0
 11
421.0999117072642
 21
1301.226832308628
 31
0.0
  0
LINE
  5
81A9
330
19
100
AcDbEntity
  8
1
100
AcDbLine
 10
821.0999117072642
 20
1301.226832308628
 30
0.0
 11
821.0999117072642
 21
1261.226832308628
 31
0.0
  0
LINE
  5
81AA
330
19
100
AcDbEntity
  8
1
100
AcDbLine
 10
421.0999117072642
 20
1301.226832308628
 30
0.0
 11
421.0999117072642
 21
1261.226832308627
 31
0.0
  0
LINE
  5
81AB
330
19
100
AcDbEntity
  8
1
100
AcDbLine
 10
786.0999117072642
 20
1336.226832308628
 30
0.0
 11
796.0999117072642
 21
1301.226832308628
 31
0.0
  0
LINE
  5
81AC
330
19
100
AcDbEntity
  8
1
100
AcDbLine
 10
456.0999117072642
 20
1336.226832308628
 30
0.0
 11
446.0999117072642
 21
1301.226832308628
 31
0.0
  0
LINE
  5
81AD
330
19
100
AcDbEntity
  8
1
100
AcDbLine
 10
479.0999117072642
 20
2955.547304687277
 30
0.0
 11
753.0999117072642
 21
2955.547304687277
 31
0.0
  0
LINE
  5
81AE
330
19
100
AcDbEntity
  8
1
100
AcDbLine
 10
479.0999117072642
 20
2603.547604687277
 30
0.0
 11
753.0999117072642
 21
2603.547604687277
 31
0.0
  0
LINE
  5
81AF
330
19
100
AcDbEntity
  8
1
100
AcDbLine
 10
679.0999117072642
 20
2593.547604687277
 30
0.0
 11
563.0999117072642
 21
2593.547604687277
 31
0.0
  0
LINE
  5
81B0
330
19
100
AcDbEntity
  8
1
100
AcDbLine
 10
753.0999117072642
 20
2955.547304687277
 30
0.0
 11
753.0999117072642
 21
2603.547604687276
 31
0.0
  0
LINE
  5
81B1
330
19
100
AcDbEntity
  8
1
100
AcDbLine
 10
680.0999117072642
 20
2603.547604687277
 30
0.0
 11
680.0999117072642
 21
2594.547604687277
 31
0.0
  0
ARC
  5
81B2
330
19
100
AcDbEntity
  8
1
100
AcDbCircle
 10
679.0999117072642
 20
2594.547604687277
 30
0.0
 40
0.9999
100
AcDbArc
 50
269.9965
 51
0.0069999999999659
  0
LINE
  5
81B3
330
19
100
AcDbEntity
  8
1
100
AcDbLine
 10
479.0999117072642
 20
2955.547304687277
 30
0.0
 11
479.0999117072642
 21
2603.547604687276
 31
0.0
  0
LINE
  5
81B4
330
19
100
AcDbEntity
  8
2
100
AcDbLine
 10
621.0999117072642
 20
2985.101588366506
 30
0.0
 11
621.0999117072642
 21
2369.709730467346
 31
0.0
  0
LINE
  5
81B5
330
19
100
AcDbEntity
  8
1
100
AcDbLine
 10
640.0999117072642
 20
2586.547604687277
 30
0.0
 11
640.0999117072642
 21
2543.877843134336
 31
0.0
  0
LINE
  5
81B6
330
19
100
AcDbEntity
  8
1
100
AcDbLine
 10
602.0999117072642
 20
2586.547604687277
 30
0.0
 11
602.0999117072642
 21
2543.877843134336
 31
0.0
  0
LINE
  5
81B9
330
19
100
AcDbEntity
  8
1
100
AcDbLine
 10
641.0999117072642
 20
2586.547604687277
 30
0.0
 11
601.0999117072643
 21
2586.547604687277
 31
0.0
  0
LINE
  5
81BA
330
19
100
AcDbEntity
  8
1
100
AcDbLine
 10
641.0999117072642
 20
2593.547604687277
 30
0.0
 11
641.0999117072642
 21
2586.547604687277
 31
0.0
  0
LINE
  5
81BB
330
19
100
AcDbEntity
  8
1
100
AcDbLine
 10
601.0999117072643
 20
2593.547604687277
 30
0.0
 11
601.0999117072643
 21
2586.547604687277
 31
0.0
  0
LINE
  5
81BC
330
19
100
AcDbEntity
  8
1
100
AcDbLine
 10
562.0999117072642
 20
2603.547604687277
 30
0.0
 11
562.0999117072642
 21
2594.547604687277
 31
0.0
  0
ARC
  5
81BD
330
19
100
AcDbEntity
  8
1
100
AcDbCircle
 10
563.0999117072642
 20
2594.546604687277
 30
0.0
 40
0.9998000000000001
100
AcDbArc
 50
179.986
 51
270.007
  0
ARC
  5
81BE
330
19
100
AcDbEntity
  8
1
100
AcDbCircle
 10
1141.099911707264
 20
1526.226832308628
 30
0.0
 40
150.0
100
AcDbArc
 50
276.3643773837782
 51
96.36437738377821
  0
CIRCLE
  5
81BF
330
19
100
AcDbEntity
  8
1
100
AcDbCircle
 10
1141.099911707264
 20
1526.226832308628
 30
0.0
 40
75.0
  0
LINE
  5
81C0
330
19
100
AcDbEntity
  8
1
100
AcDbLine
 10
1132.786082698932
 20
1600.764609624699
 30
0.0
 11
612.7860826989335
 21
1542.764609624699
 31
0.0
  0
LINE
  5
81C1
330
19
100
AcDbEntity
  8
1
100
AcDbLine
 10
1149.413740715596
 20
1451.689054992557
 30
0.0
 11
629.4137407155949
 21
1393.689054992557
 31
0.0
  0
LINE
  5
81C2
330
19
100
AcDbEntity
  8
1
100
AcDbLine
 10
1124.472253690602
 20
1675.30238694077
 30
0.0
 11
604.472253690602
 21
1617.30238694077
 31
0.0
  0
LINE
  5
81C3
330
19
100
AcDbEntity
  8
1
100
AcDbLine
 10
1157.727569723926
 20
1377.151277676486
 30
0.0
 11
637.7275697239265
 21
1319.151277676486
 31
0.0
  0
LINE
  5
81C4
330
19
100
AcDbEntity
  8
1
100
AcDbLine
 10
2189.44985091422
 20
1676.226832308628
 30
0.0
 11
2189.44985091422
 21
1639.344586784394
 31
0.0
  0
LINE
  5
81C5
330
19
100
AcDbEntity
  8
1
100
AcDbLine
 10
1997.449850914219
 20
1676.226832308628
 30
0.0
 11
2189.44985091422
 21
1676.226832308628
 31
0.0
  0
LINE
  5
81C6
330
19
100
AcDbEntity
  8
1
100
AcDbLine
 10
1997.449850914219
 20
1318.226832308628
 30
0.0
 11
2189.44985091422
 21
1318.226832308628
 31
0.0
  0
LINE
  5
81C7
330
19
100
AcDbEntity
  8
1
100
AcDbLine
 10
2097.44985091422
 20
1601.226832308628
 30
0.0
 11
2097.44985091422
 21
1393.226832308628
 31
0.0
  0
LINE
  5
81C8
330
19
100
AcDbEntity
  8
1
100
AcDbLine
 10
2157.44985091422
 20
1601.226832308628
 30
0.0
 11
2157.44985091422
 21
1393.226832308628
 31
0.0
  0
LINE
  5
81C9
330
19
100
AcDbEntity
  8
1
100
AcDbLine
 10
2097.44985091422
 20
1601.226832308628
 30
0.0
 11
2157.44985091422
 21
1601.226832308628
 31
0.0
  0
LINE
  5
81CA
330
19
100
AcDbEntity
  8
1
100
AcDbLine
 10
2097.44985091422
 20
1451.226832308628
 30
0.0
 11
2157.44985091422
 21
1451.226832308628
 31
0.0
  0
LINE
  5
81CB
330
19
100
AcDbEntity
  8
1
100
AcDbLine
 10
2097.44985091422
 20
1543.226832308628
 30
0.0
 11
2157.44985091422
 21
1543.226832308628
 31
0.0
  0
LINE
  5
81CC
330
19
100
AcDbEntity
  8
1
100
AcDbLine
 10
2097.44985091422
 20
1393.226832308628
 30
0.0
 11
2157.44985091422
 21
1393.226832308628
 31
0.0
  0
LINE
  5
81CD
330
19
100
AcDbEntity
  8
2
100
AcDbLine
 10
1970.297629747418
 20
1468.226832308628
 30
0.0
 11
2262.449850914219
 21
1468.226832308628
 31
0.0
  0
LINE
  5
81CE
330
19
100
AcDbEntity
  8
1
100
AcDbLine
 10
2189.44985091422
 20
1365.906981357964
 30
0.0
 11
2189.44985091422
 21
1318.226832308628
 31
0.0
  0
LINE
  5
81CF
330
19
100
AcDbEntity
  8
1
100
AcDbLine
 10
2228.806478847395
 20
1403.326832308628
 30
0.0
 11
2228.806478847395
 21
1336.226832308628
 31
0.0
  0
LINE
  5
81D0
330
19
100
AcDbEntity
  8
1
100
AcDbLine
 10
478.5999117072642
 20
2383.877843134336
 30
0.0
 11
478.5999117072642
 21
2575.877843134336
 31
0.0
  0
LINE
  5
81D1
330
19
100
AcDbEntity
  8
1
100
AcDbLine
 10
1291.099911707264
 20
2383.877843134336
 30
0.0
 11
1291.099911707264
 21
2575.877843134336
 31
0.0
  0
LINE
  5
81D2
330
19
100
AcDbEntity
  8
1
100
AcDbLine
 10
478.5999117072642
 20
2575.877843134336
 30
0.0
 11
1291.099911707264
 21
2575.877843134336
 31
0.0
  0
LINE
  5
81D3
330
19
100
AcDbEntity
  8
1
100
AcDbLine
 10
546.0999117072642
 20
2483.877843134336
 30
0.0
 11
696.0999117072642
 21
2483.877843134336
 31
0.0
  0
LINE
  5
81D4
330
19
100
AcDbEntity
  8
1
100
AcDbLine
 10
546.0999117072642
 20
2483.877843134336
 30
0.0
 11
546.0999117072642
 21
2543.877843134336
 31
0.0
  0
LINE
  5
81D5
330
19
100
AcDbEntity
  8
1
100
AcDbLine
 10
696.0999117072642
 20
2483.877843134336
 30
0.0
 11
696.0999117072642
 21
2543.877843134336
 31
0.0
  0
LINE
  5
81D6
330
19
100
AcDbEntity
  8
1
100
AcDbLine
 10
1066.099911707264
 20
2483.877843134335
 30
0.0
 11
1066.099911707264
 21
2543.877843134336
 31
0.0
  0
LINE
  5
81D7
330
19
100
AcDbEntity
  8
1
100
AcDbLine
 10
1216.099911707264
 20
2483.877843134335
 30
0.0
 11
1216.099911707264
 21
2543.877843134334
 31
0.0
  0
LINE
  5
81D8
330
19
100
AcDbEntity
  8
1
100
AcDbLine
 10
1066.099911707264
 20
2483.877843134335
 30
0.0
 11
1216.099911707264
 21
2483.877843134335
 31
0.0
  0
LINE
  5
81D9
330
19
100
AcDbEntity
  8
1
100
AcDbLine
 10
546.0999117072642
 20
2543.877843134336
 30
0.0
 11
696.0999117072642
 21
2543.877843134336
 31
0.0
  0
LINE
  5
81DA
330
19
100
AcDbEntity
  8
1
100
AcDbLine
 10
1066.099911707264
 20
2543.877843134336
 30
0.0
 11
1216.099911707264
 21
2543.877843134335
 31
0.0
  0
DIMENSION
  5
83DC
330
19
100
AcDbEntity
  8
3
100
AcDbDimension
280
     0
  2
*D16
 10
1141.099911707264
 20
980.2720796863722
 30
0.0
 11
776.0999117072643
 21
1017.772079686372
 31
0.0
 70
    32
 71
     5
 42
-1.0
 73
     0
 74
     0
 75
     0
  3
IGA
100
AcDbAlignedDimension
 13
411.0999117072642
 23
1085.226832308628
 33
0.0
 14
1141.099911707264
 24
1085.226832308628
 34
0.0
100
AcDbRotatedDimension
1001
ACAD
1000
DSTYLE
1002
{
1070
   287
1070
     3
1070
    40
1040
15.0
1070
   143
1040
0.039
1070
   172
1070
     1
1070
   271
1070
     0
1070
   279
1070
     0
1002
}
  0
DIMENSION
  5
83E9
330
19
100
AcDbEntity
  8
3
100
AcDbDimension
280
     0
  2
*D17
 10
1391.099911707264
 20
980.2720796863722
 30
0.0
 11
1266.099911707264
 21
1017.772079686372
 31
0.0
 70
    32
 71
     5
 42
-1.0
 73
     0
 74
     0
 75
     0
  3
IGA
100
AcDbAlignedDimension
 13
1141.099911707264
 23
1085.226832308628
 33
0.0
 14
1391.099911707264
 24
1085.226832308628
 34
0.0
100
AcDbRotatedDimension
1001
ACAD
1000
DSTYLE
1002
{
1070
   287
1070
     3
1070
    40
1040
15.0
1070
   143
1040
0.039
1070
   172
1070
     1
1070
   271
1070
     0
1070
   279
1070
     0
1002
}
  0
DIMENSION
  5
83F6
330
19
100
AcDbEntity
  8
3
100
AcDbDimension
280
     0
  2
*D18
 10
2527.44985091422
 20
980.2720796863722
 30
0.0
 11
2340.94985091422
 21
1017.772079686372
 31
0.0
 70
    32
 71
     5
 42
-1.0
 73
     0
 74
     0
 75
     0
  3
IGA
100
AcDbAlignedDimension
 13
2154.44985091422
 23
1085.226832308628
 33
0.0
 14
2527.44985091422
 24
1085.226832308628
 34
0.0
100
AcDbRotatedDimension
1001
ACAD
1000
DSTYLE
1002
{
1070
   287
1070
     3
1070
    40
1040
15.0
1070
   143
1040
0.039
1070
   172
1070
     1
1070
   271
1070
     0
1070
   279
1070
     0
1002
}
  0
DIMENSION
  5
8403
330
19
100
AcDbEntity
  8
3
100
AcDbDimension
280
     0
  2
*D19
 10
2834.44985091422
 20
980.2720796863722
 30
0.0
 11
2680.94985091422
 21
1017.772079686372
 31
0.0
 70
    32
 71
     5
 42
-1.0
 73
     0
 74
     0
 75
     0
  3
IGA
100
AcDbAlignedDimension
 13
2527.44985091422
 23
1085.226832308628
 33
0.0
 14
2834.44985091422
 24
1085.226832308628
 34
0.0
100
AcDbRotatedDimension
1001
ACAD
1000
DSTYLE
1002
{
1070
   287
1070
     3
1070
    40
1040
15.0
1070
   143
1040
0.039
1070
   172
1070
     1
1070
   271
1070
     0
1070
   279
1070
     0
1002
}
  0
DIMENSION
  5
8410
330
19
100
AcDbEntity
  8
3
100
AcDbDimension
280
     0
  2
*D21
 10
1668.192512998819
 20
1186.226832308628
 30
0.0
 11
1739.978227284533
 21
1168.226832308628
 31
0.0
 70
    32
 71
     5
 42
-1.0
 73
     0
 74
     0
 75
     0
  3
IGA
100
AcDbAlignedDimension
 13
1391.099911707264
 23
1150.226832308628
 33
0.0
 14
1391.099911707264
 24
1186.226832308628
 34
0.0
 50
90.0
100
AcDbRotatedDimension
1001
ACAD
1000
DSTYLE
1002
{
1070
   172
1070
     1
1070
    76
1070
     1
1070
    75
1070
     1
1070
    40
1040
15.0
1070
     3
1000
(<>)
1070
   271
1070
     0
1070
     7
1000
_NONE
1070
     6
1000
_NONE
1070
   143
1040
0.039
1002
}
  0
DIMENSION
  5
841D
330
19
100
AcDbEntity
  8
3
100
AcDbDimension
280
     0
  2
*D22
 10
1793.222888152024
 20
1085.226832308628
 30
0.0
 11
1743.93717386631
 21
1517.726832308628
 31
0.0
 70
    32
 71
     5
 42
-1.0
 73
     0
 74
     0
 75
     0
  3
IGA
100
AcDbAlignedDimension
 13
1446.099911707264
 23
1950.226832308628
 33
0.0
 14
1391.099911707264
 24
1085.226832308628
 34
0.0
 50
90.0
100
AcDbRotatedDimension
1001
ACAD
1000
DSTYLE
1002
{
1070
   172
1070
     1
1070
    40
1040
15.0
1070
     3
1000
(<>)
1070
   271
1070
     0
1070
   143
1040
0.039
1002
}
  0
LWPOLYLINE
  5
8424
330
19
100
AcDbEntity
  8
1
100
AcDbPolyline
 90
        4
 70
     0
 43
0.0
 10
1446.099911707264
 20
1950.226832308628
 10
1141.099911707264
 20
1928.226832308628
 42
0.3908358028773531
 10
797.8921947452491
 20
1556.226832308628
 42
0.3170625631291753
 10
1005.866485627152
 20
1261.226832308628
 42
0.3762546939936967
  0
LWPOLYLINE
  5
842A
330
19
100
AcDbEntity
  8
1
100
AcDbPolyline
 90
        3
 70
     0
 43
0.0
 10
1212.46483357686
 20
1261.226832308628
 42
0.3090607969577456
 10
1377.847363050786
 20
1503.226832308628
 42
0.0411445297571046
 10
1374.96236202939
 20
1538.226832308628
 42
0.3936265759256327
  0
LINE
  5
842F
330
19
100
AcDbEntity
  8
1
100
AcDbLine
 10
2157.44985091422
 20
1546.226832308628
 30
0.0
 11
2262.449850914219
 21
1546.226832308628
 31
0.0
  0
LINE
  5
8430
330
19
100
AcDbEntity
  8
1
100
AcDbLine
 10
2157.44985091422
 20
1506.226832308628
 30
0.0
 11
2262.449850914219
 21
1506.226832308628
 31
0.0
  0
LINE
  5
8431
330
19
100
AcDbEntity
  8
1
100
AcDbLine
 10
2228.806478847395
 20
1506.226832308628
 30
0.0
 11
2228.806478847395
 21
1483.326832308627
 31
0.0
  0
ENDSEC
  0
SECTION
  2
OBJECTS
  0
DICTIONARY
  5
C
330
0
100
AcDbDictionary
281
     1
  3
ACAD_CIP_PREVIOUS_PRODUCT_INFO
350
851B
  3
ACAD_COLOR
350
84FE
  3
ACAD_DETAILVIEWSTYLE
350
8517
  3
ACAD_GROUP
350
D
  3
ACAD_LAYOUT
350
843A
  3
ACAD_MATERIAL
350
84CC
  3
ACAD_MLEADERSTYLE
350
8513
  3
ACAD_MLINESTYLE
350
E
  3
ACAD_PLOTSETTINGS
350
843B
  3
ACAD_PLOTSTYLENAME
350
8438
  3
ACAD_SCALELIST
350
8501
  3
ACAD_SECTIONVIEWSTYLE
350
8515
  3
ACAD_TABLESTYLE
350
84FF
  3
ACAD_VISUALSTYLE
350
84E5
  3
ACDB_RECOMPOSE_DATA
350
8563
  3
AcDbVariableDictionary
350
8552
  3
AcDsDecomposeData
350
8569
  0
DICTIONARY
  5
8546
330
2
100
AcDbDictionary
280
     1
281
     1
  3
ACAD_LAYERSTATES
360
8547
  0
DICTIONARY
  5
8539
330
F
100
AcDbDictionary
280
     1
281
     1
  3
ADSK_XREC_LAYER_RECONCILED
360
853A
  0
DICTIONARY
  5
853B
330
31
100
AcDbDictionary
280
     1
281
     1
  3
ADSK_XREC_LAYER_RECONCILED
360
853C
  0
DICTIONARY
  5
853D
330
76D0
100
AcDbDictionary
280
     1
281
     1
  3
ADSK_XREC_LAYER_RECONCILED
360
853E
  0
DICTIONARY
  5
853F
330
76D1
100
AcDbDictionary
280
     1
281
     1
  3
ADSK_XREC_LAYER_RECONCILED
360
8540
  0
DICTIONARY
  5
8541
330
76D2
100
AcDbDictionary
280
     1
281
     1
  3
ADSK_XREC_LAYER_RECONCILED
360
8542
  0
DICTIONARY
  5
8467
330
19
100
AcDbDictionary
280
     1
281
     1
  3
ACAD_LAYOUTSELFREF
360
8468
  3
ACAD_SORTENTS
360
851D
  0
DICTIONARY
  5
8465
330
16
100
AcDbDictionary
280
     1
281
     1
  3
ACAD_LAYOUTSELFREF
360
8466
  0
XRECORD
  5
851B
102
{ACAD_REACTORS
330
C
102
}
330
C
100
AcDbXrecord
280
     1
300
ACDLT
300
2023
300

  0
DICTIONARY
  5
84FE
102
{ACAD_REACTORS
330
C
102
}
330
C
100
AcDbDictionary
281
     1
  0
DICTIONARY
  5
8517
102
{ACAD_REACTORS
330
C
102
}
330
C
100
AcDbDictionary
281
     1
  3
Metric50
350
8518
  0
DICTIONARY
  5
D
102
{ACAD_REACTORS
330
C
102
}
330
C
100
AcDbDictionary
281
     1
  0
DICTIONARY
  5
843A
102
{ACAD_REACTORS
330
C
102
}
330
C
100
AcDbDictionary
281
     1
  3
Model
350
843C
  3
ﾚｲｱｳﾄ1
350
843D
  0
DICTIONARY
  5
84CC
102
{ACAD_REACTORS
330
C
102
}
330
C
100
AcDbDictionary
281
     1
  3
ByBlock
350
84D5
  3
ByLayer
350
84CD
  3
Global
350
84DD
  0
DICTIONARY
  5
8513
102
{ACAD_REACTORS
330
C
102
}
330
C
100
AcDbDictionary
281
     1
  3
Standard
350
8514
  0
DICTIONARY
  5
E
102
{ACAD_REACTORS
330
C
102
}
330
C
100
AcDbDictionary
281
     1
  3
STANDARD
350
1C
  0
DICTIONARY
  5
843B
102
{ACAD_REACTORS
330
C
102
}
330
C
100
AcDbDictionary
281
     1
  0
ACDBDICTIONARYWDFLT
  5
8438
102
{ACAD_REACTORS
330
C
102
}
330
C
100
AcDbDictionary
281
     1
  3
Normal
350
8439
100
AcDbDictionaryWithDefault
340
8439
  0
DICTIONARY
  5
8501
102
{ACAD_REACTORS
330
C
102
}
330
C
100
AcDbDictionary
281
     1
  3
A0
350
8502
  3
A1
350
8503
  3
A2
350
8504
  3
A3
350
8505
  3
A4
350
8506
  3
A5
350
8507
  3
A6
350
8508
  3
A7
350
8509
  3
A8
350
850A
  3
A9
350
850B
  3
B0
350
850C
  3
B1
350
850D
  3
B2
350
850E
  3
B3
350
850F
  3
B4
350
8510
  3
B5
350
8511
  3
B6
350
8512
  0
DICTIONARY
  5
8515
102
{ACAD_REACTORS
330
C
102
}
330
C
100
AcDbDictionary
281
     1
  3
Metric50
350
8516
  0
DICTIONARY
  5
84FF
102
{ACAD_REACTORS
330
C
102
}
330
C
100
AcDbDictionary
281
     1
  3
Standard
350
8500
  0
DICTIONARY
  5
84E5
102
{ACAD_REACTORS
330
C
102
}
330
C
100
AcDbDictionary
281
     1
  3
2dWireframe
350
84EB
  3
Basic
350
84EA
  3
Brighten
350
84F1
  3
ColorChange
350
84F5
  3
Conceptual
350
84EE
  3
Dim
350
84F0
  3
EdgeColorOff
350
84FD
  3
Facepattern
350
84F4
  3
Flat
350
84E6
  3
FlatWithEdges
350
84E7
  3
Gouraud
350
84E8
  3
GouraudWithEdges
350
84E9
  3
Hidden
350
84ED
  3
JitterOff
350
84FB
  3
Linepattern
350
84F3
  3
OverhangOff
350
84FC
  3
Realistic
350
84EF
  3
Shaded
350
84FA
  3
Shaded with edges
350
84F9
  3
Shades of Gray
350
84F6
  3
Sketchy
350
84F7
  3
Thicken
350
84F2
  3
Wireframe
350
84EC
  3
X-Ray
350
84F8
  0
XRECORD
  5
8563
102
{ACAD_REACTORS
330
C
102
}
330
C
100
AcDbXrecord
280
     1
 90
        1
330
814F
330
8151
330
8182
330
8500
  0
DICTIONARY
  5
8552
102
{ACAD_REACTORS
330
C
102
}
330
C
100
AcDbDictionary
281
     1
  3
CANNOSCALE
350
8558
  3
CMLEADERSTYLE
350
8554
  3
CTABLESTYLE
350
8553
  3
CVIEWDETAILSTYLE
350
8555
  3
CVIEWSECTIONSTYLE
350
8556
  3
LAYEREVAL
350
855A
  3
LAYERNOTIFY
350
855B
  3
LIGHTINGUNITS
350
8559
  3
MARKUPASSISTMODE
350
8560
  3
MSLTSCALE
350
8557
  0
DICTIONARY
  5
8569
102
{ACAD_REACTORS
330
C
102
}
330
C
100
AcDbDictionary
281
     1
  3
AcDsRecords
350
856B
  3
AcDsSchemas
350
856A
1001
ACAD
1070
     2
  0
DICTIONARY
  5
8547
102
{ACAD_REACTORS
330
8546
102
}
330
8546
100
AcDbDictionary
281
     1
  0
XRECORD
  5
853A
102
{ACAD_REACTORS
330
8539
102
}
330
8539
100
AcDbXrecord
280
     1
290
     1
  0
XRECORD
  5
853C
102
{ACAD_REACTORS
330
853B
102
}
330
853B
100
AcDbXrecord
280
     1
290
     1
  0
XRECORD
  5
853E
102
{ACAD_REACTORS
330
853D
102
}
330
853D
100
AcDbXrecord
280
     1
290
     1
  0
XRECORD
  5
8540
102
{ACAD_REACTORS
330
853F
102
}
330
853F
100
AcDbXrecord
280
     1
290
     1
  0
XRECORD
  5
8542
102
{ACAD_REACTORS
330
8541
102
}
330
8541
100
AcDbXrecord
280
     1
290
     1
  0
XRECORD
  5
8468
102
{ACAD_REACTORS
330
8467
102
}
330
8467
100
AcDbXrecord
280
     1
340
19
  0
SORTENTSTABLE
  5
851D
102
{ACAD_REACTORS
330
8467
102
}
330
8467
100
AcDbSortentsTable
330
19
331
8142
  5
8143
331
8143
  5
8144
331
8144
  5
8145
331
8145
  5
8146
331
8146
  5
8147
331
8147
  5
8148
331
8148
  5
8149
331
8149
  5
814A
331
814A
  5
814B
331
814B
  5
814C
331
814C
  5
814D
331
814D
  5
814E
331
814E
  5
814F
331
814F
  5
8151
331
8151
  5
8155
331
8155
  5
8156
331
8156
  5
8157
331
8157
  5
8158
331
8158
  5
8159
331
8159
  5
815A
331
815A
  5
815B
331
815B
  5
815C
331
815C
  5
815D
331
815D
  5
815E
331
815E
  5
8162
331
8162
  5
8163
331
8163
  5
8164
331
8164
  5
8165
331
8165
  5
8166
331
8166
  5
8167
331
8167
  5
8168
331
8168
  5
8169
331
8169
  5
816A
331
816A
  5
816B
331
816B
  5
816C
331
816C
  5
816D
331
816D
  5
816E
331
816E
  5
816F
331
816F
  5
8170
331
8170
  5
8171
331
8171
  5
8172
331
8172
  5
8173
331
8173
  5
8174
331
8174
  5
8175
331
8175
  5
8176
331
8176
  5
8177
331
8177
  5
8178
331
8178
  5
817C
331
817C
  5
817D
331
817D
  5
817E
331
817E
  5
817F
331
817F
  5
8180
331
8180
  5
8181
331
8181
  5
8182
331
8182
  5
8183
331
8183
  5
8184
331
8184
  5
8186
331
8186
  5
8187
331
8187
  5
8188
331
8188
  5
8189
331
8189
  5
818A
331
818A
  5
818B
331
818B
  5
818C
331
818C
  5
818D
331
818D
  5
818E
331
818E
  5
818F
331
818F
  5
8190
331
8190
  5
8191
331
8191
  5
8192
331
8192
  5
8193
331
8193
  5
8194
331
8194
  5
8195
331
8195
  5
8196
331
8196
  5
8197
331
8197
  5
8198
331
8198
  5
8199
331
8199
  5
819A
331
819A
  5
819B
331
819B
  5
819C
331
819C
  5
819D
331
819D
  5
819E
331
819E
  5
819F
331
819F
  5
81A1
331
81A1
  5
81A2
331
81A2
  5
81A4
331
81A4
  5
81A5
331
81A5
  5
81A8
331
81A8
  5
81A9
331
81A9
  5
81AA
331
81AA
  5
81AB
331
81AB
  5
81AC
331
81AC
  5
81AD
331
81AD
  5
81AE
331
81AE
  5
81AF
331
81AF
  5
81B0
331
81B0
  5
81B1
331
81B1
  5
81B2
331
81B2
  5
81B3
331
81B3
  5
81B4
331
81B4
  5
81B5
331
81B5
  5
81B6
331
81B6
  5
81B9
331
81B9
  5
81BA
331
81BA
  5
81BB
331
81BB
  5
81BC
331
81BC
  5
81BD
331
81BD
  5
81BE
331
81BE
  5
81BF
331
81BF
  5
81C0
331
81C0
  5
81C1
331
81C1
  5
81C2
331
81C2
  5
81C3
331
81C3
  5
81C4
331
81C4
  5
81C5
331
81C5
  5
81C6
331
81C6
  5
81C7
331
81C7
  5
81C8
331
81C8
  5
81C9
331
81C9
  5
81CA
331
81CA
  5
81CB
331
81CB
  5
81CC
331
81CC
  5
81CD
331
81CD
  5
81CE
331
81CE
  5
81CF
331
81CF
  5
81D0
331
81D0
  5
81D1
331
81D1
  5
81D2
331
81D2
  5
81D3
331
81D3
  5
81D4
331
81D4
  5
81D5
331
81D5
  5
81D6
331
81D6
  5
81D7
331
81D7
  5
81D8
331
81D8
  5
81D9
331
81D9
  5
81DA
331
81DA
  5
83DC
331
83DC
  5
83E9
331
83E9
  5
83F6
331
83F6
  5
8403
331
8403
  5
8410
331
8410
  5
841D
331
841D
  5
8424
331
8424
  5
842A
331
842A
  5
842F
331
842F
  5
8430
331
8430
  5
8431
331
8431
  5
851C
  0
XRECORD
  5
8466
102
{ACAD_REACTORS
330
8465
102
}
330
8465
100
AcDbXrecord
280
     1
340
16
  0
ACDBDETAILVIEWSTYLE
  5
8518
102
{ACAD_XDICTIONARY
360
856E
102
}
102
{ACAD_REACTORS
330
8517
102
}
330
8517
100
AcDbModelDocViewStyle
 70
     0
  3
Metric50
290
     0
100
AcDbDetailViewStyle
 70
     0
 71
     0
 90
        3
 71
     1
340
10
 62
   256
 40
5.0
340
0
 62
   256
 40
5.0
300

 40
0.0
280
     1
 71
     2
340
15
 90
       25
 62
   256
 71
     3
340
10
 62
   256
 40
5.0
 90
        0
 40
15.0
 90
        1
300
%<\AcVar ViewDetailId>% (%<\AcVar ViewScale \f "%sn">%)
 71
     4
340
15
 90
       25
 62
   256
340
15
 90
       25
 62
   256
280
     0
  0
LAYOUT
  5
843C
102
{ACAD_REACTORS
330
843A
102
}
330
843A
100
AcDbPlotSettings
  1

  2
EPSON LP-9300
  4

  6

 40
0.0
 41
0.0
 42
0.0
 43
0.0
 44
0.0
 45
0.0
 46
0.0
 47
0.0
 48
0.0
 49
0.0
140
0.0
141
0.0
142
1.0
143
1.0
 70
  1712
 72
     0
 73
     0
 74
     0
  7

 75
     0
147
1.0
 76
     0
 77
     2
 78
   300
148
0.0
149
0.0
100
AcDbLayout
  1
Model
 70
     1
 71
     0
 10
0.0
 20
0.0
 11
12.0
 21
9.0
 12
0.0
 22
0.0
 32
0.0
 14
0.0
 24
0.0
 34
0.0
 15
0.0
 25
0.0
 35
0.0
146
0.0
 13
0.0
 23
0.0
 33
0.0
 16
1.0
 26
0.0
 36
0.0
 17
0.0
 27
1.0
 37
0.0
 76
     0
330
19
331
84CA
  0
LAYOUT
  5
843D
102
{ACAD_REACTORS
330
843A
102
}
330
843A
100
AcDbPlotSettings
  1

  2
EPSON LP-9300
  4

  6

 40
0.0
 41
0.0
 42
0.0
 43
0.0
 44
0.0
 45
0.0
 46
0.0
 47
0.0
 48
0.0
 49
0.0
140
0.0
141
0.0
142
1.0
143
1.0
 70
   688
 72
     0
 73
     0
 74
     5
  7

 75
    16
147
1.0
 76
     0
 77
     2
 78
   300
148
0.0
149
0.0
100
AcDbLayout
  1
ﾚｲｱｳﾄ1
 70
     1
 71
     1
 10
0.0
 20
0.0
 11
12.0
 21
9.0
 12
0.0
 22
0.0
 32
0.0
 14
1.000000000000000E+20
 24
1.000000000000000E+20
 34
1.000000000000000E+20
 15
-1.000000000000000E+20
 25
-1.000000000000000E+20
 35
-1.000000000000000E+20
146
0.0
 13
0.0
 23
0.0
 33
0.0
 16
1.0
 26
0.0
 36
0.0
 17
0.0
 27
1.0
 37
0.0
 76
     0
330
16
  0
MATERIAL
  5
84D5
102
{ACAD_XDICTIONARY
360
84D6
102
}
102
{ACAD_REACTORS
330
84CC
102
}
330
84CC
100
AcDbMaterial
  1
ByBlock
 72
     0
 43
0.0208333333333333
 43
0.0
 43
0.0
 43
0.0
 43
0.0
 43
0.0208333333333333
 43
0.0
 43
0.0
 43
0.0
 43
0.0
 43
1.0
 43
0.0
 43
0.0
 43
0.0
 43
0.0
 43
1.0
 77
     0
 47
0.0208333333333333
 47
0.0
 47
0.0
 47
0.0
 47
0.0
 47
0.0208333333333333
 47
0.0
 47
0.0
 47
0.0
 47
0.0
 47
1.0
 47
0.0
 47
0.0
 47
0.0
 47
0.0
 47
1.0
171
     0
 49
0.0208333333333333
 49
0.0
 49
0.0
 49
0.0
 49
0.0
 49
0.0208333333333333
 49
0.0
 49
0.0
 49
0.0
 49
0.0
 49
1.0
 49
0.0
 49
0.0
 49
0.0
 49
0.0
 49
1.0
175
     0
142
0.0208333333333333
142
0.0
142
0.0
142
0.0
142
0.0
142
0.0208333333333333
142
0.0
142
0.0
142
0.0
142
0.0
142
1.0
142
0.0
142
0.0
142
0.0
142
0.0
142
1.0
179
     0
144
0.0208333333333333
144
0.0
144
0.0
144
0.0
144
0.0
144
0.0208333333333333
144
0.0
144
0.0
144
0.0
144
0.0
144
1.0
144
0.0
144
0.0
144
0.0
144
0.0
144
1.0
147
0.0208333333333333
147
0.0
147
0.0
147
0.0
147
0.0
147
0.0208333333333333
147
0.0
147
0.0
147
0.0
147
0.0
147
1.0
147
0.0
147
0.0
147
0.0
147
0.0
147
1.0
  0
MATERIAL
  5
84CD
102
{ACAD_XDICTIONARY
360
84CE
102
}
102
{ACAD_REACTORS
330
84CC
102
}
330
84CC
100
AcDbMaterial
  1
ByLayer
 72
     0
 43
0.0208333333333333
 43
0.0
 43
0.0
 43
0.0
 43
0.0
 43
0.0208333333333333
 43
0.0
 43
0.0
 43
0.0
 43
0.0
 43
1.0
 43
0.0
 43
0.0
 43
0.0
 43
0.0
 43
1.0
 77
     0
 47
0.0208333333333333
 47
0.0
 47
0.0
 47
0.0
 47
0.0
 47
0.0208333333333333
 47
0.0
 47
0.0
 47
0.0
 47
0.0
 47
1.0
 47
0.0
 47
0.0
 47
0.0
 47
0.0
 47
1.0
171
     0
 49
0.0208333333333333
 49
0.0
 49
0.0
 49
0.0
 49
0.0
 49
0.0208333333333333
 49
0.0
 49
0.0
 49
0.0
 49
0.0
 49
1.0
 49
0.0
 49
0.0
 49
0.0
 49
0.0
 49
1.0
175
     0
142
0.0208333333333333
142
0.0
142
0.0
142
0.0
142
0.0
142
0.0208333333333333
142
0.0
142
0.0
142
0.0
142
0.0
142
1.0
142
0.0
142
0.0
142
0.0
142
0.0
142
1.0
179
     0
144
0.0208333333333333
144
0.0
144
0.0
144
0.0
144
0.0
144
0.0208333333333333
144
0.0
144
0.0
144
0.0
144
0.0
144
1.0
144
0.0
144
0.0
144
0.0
144
0.0
144
1.0
147
0.0208333333333333
147
0.0
147
0.0
147
0.0
147
0.0
147
0.0208333333333333
147
0.0
147
0.0
147
0.0
147
0.0
147
1.0
147
0.0
147
0.0
147
0.0
147
0.0
147
1.0
  0
MATERIAL
  5
84DD
102
{ACAD_XDICTIONARY
360
84DE
102
}
102
{ACAD_REACTORS
330
84CC
102
}
330
84CC
100
AcDbMaterial
  1
Global
 72
     0
 43
0.0208333333333333
 43
0.0
 43
0.0
 43
0.0
 43
0.0
 43
0.0208333333333333
 43
0.0
 43
0.0
 43
0.0
 43
0.0
 43
1.0
 43
0.0
 43
0.0
 43
0.0
 43
0.0
 43
1.0
 77
     0
 47
0.0208333333333333
 47
0.0
 47
0.0
 47
0.0
 47
0.0
 47
0.0208333333333333
 47
0.0
 47
0.0
 47
0.0
 47
0.0
 47
1.0
 47
0.0
 47
0.0
 47
0.0
 47
0.0
 47
1.0
171
     0
 49
0.0208333333333333
 49
0.0
 49
0.0
 49
0.0
 49
0.0
 49
0.0208333333333333
 49
0.0
 49
0.0
 49
0.0
 49
0.0
 49
1.0
 49
0.0
 49
0.0
 49
0.0
 49
0.0
 49
1.0
175
     0
142
0.0208333333333333
142
0.0
142
0.0
142
0.0
142
0.0
142
0.0208333333333333
142
0.0
142
0.0
142
0.0
142
0.0
142
1.0
142
0.0
142
0.0
142
0.0
142
0.0
142
1.0
179
     0
144
0.0208333333333333
144
0.0
144
0.0
144
0.0
144
0.0
144
0.0208333333333333
144
0.0
144
0.0
144
0.0
144
0.0
144
1.0
144
0.0
144
0.0
144
0.0
144
0.0
144
1.0
147
0.0208333333333333
147
0.0
147
0.0
147
0.0
147
0.0
147
0.0208333333333333
147
0.0
147
0.0
147
0.0
147
0.0
147
1.0
147
0.0
147
0.0
147
0.0
147
0.0
147
1.0
  0
MLEADERSTYLE
  5
8514
102
{ACAD_REACTORS
330
8513
102
}
330
8513
100
AcDbMLeaderStyle
179
     2
170
     2
171
     1
172
     0
 90
        2
 40
0.0
 41
0.0
173
     1
 91
-1056964608
340
13
 92
       -2
290
     1
 42
2.0
291
     1
 43
0.36
  3
Standard
 44
4.0
300

342
10
174
     1
178
     6
175
     1
176
     0
 93
-1056964608
 45
4.0
292
     0
297
     0
 46
4.0
 94
-1056964608
 47
1.0
 49
1.0
140
1.0
293
     1
141
0.0
294
     1
177
     0
142
1.0
295
     0
296
     0
143
0.125
271
     0
272
     9
273
     9
298
     1
  0
MLINESTYLE
  5
1C
102
{ACAD_REACTORS
330
E
102
}
330
E
100
AcDbMlineStyle
  2
STANDARD
 70
     0
  3

 62
     0
 51
90.0
 52
90.0
 71
     2
 49
0.5
 62
   256
  6
BYLAYER
 49
-0.5
 62
   256
  6
BYLAYER
  0
ACDBPLACEHOLDER
  5
8439
102
{ACAD_REACTORS
330
8438
102
}
330
8438
  0
SCALE
  5
8502
102
{ACAD_REACTORS
330
8501
102
}
330
8501
100
AcDbScale
 70
     0
300
1:1
140
1.0
141
1.0
290
     1
  0
SCALE
  5
8503
102
{ACAD_REACTORS
330
8501
102
}
330
8501
100
AcDbScale
 70
     0
300
1:2
140
1.0
141
2.0
290
     0
  0
SCALE
  5
8504
102
{ACAD_REACTORS
330
8501
102
}
330
8501
100
AcDbScale
 70
     0
300
1:4
140
1.0
141
4.0
290
     0
  0
SCALE
  5
8505
102
{ACAD_REACTORS
330
8501
102
}
330
8501
100
AcDbScale
 70
     0
300
1:5
140
1.0
141
5.0
290
     0
  0
SCALE
  5
8506
102
{ACAD_REACTORS
330
8501
102
}
330
8501
100
AcDbScale
 70
     0
300
1:8
140
1.0
141
8.0
290
     0
  0
SCALE
  5
8507
102
{ACAD_REACTORS
330
8501
102
}
330
8501
100
AcDbScale
 70
     0
300
1:10
140
1.0
141
10.0
290
     0
  0
SCALE
  5
8508
102
{ACAD_REACTORS
330
8501
102
}
330
8501
100
AcDbScale
 70
     0
300
1:16
140
1.0
141
16.0
290
     0
  0
SCALE
  5
8509
102
{ACAD_REACTORS
330
8501
102
}
330
8501
100
AcDbScale
 70
     0
300
1:20
140
1.0
141
20.0
290
     0
  0
SCALE
  5
850A
102
{ACAD_REACTORS
330
8501
102
}
330
8501
100
AcDbScale
 70
     0
300
1:30
140
1.0
141
30.0
290
     0
  0
SCALE
  5
850B
102
{ACAD_REACTORS
330
8501
102
}
330
8501
100
AcDbScale
 70
     0
300
1:40
140
1.0
141
40.0
290
     0
  0
SCALE
  5
850C
102
{ACAD_REACTORS
330
8501
102
}
330
8501
100
AcDbScale
 70
     0
300
1:50
140
1.0
141
50.0
290
     0
  0
SCALE
  5
850D
102
{ACAD_REACTORS
330
8501
102
}
330
8501
100
AcDbScale
 70
     0
300
1:100
140
1.0
141
100.0
290
     0
  0
SCALE
  5
850E
102
{ACAD_REACTORS
330
8501
102
}
330
8501
100
AcDbScale
 70
     0
300
2:1
140
2.0
141
1.0
290
     0
  0
SCALE
  5
850F
102
{ACAD_REACTORS
330
8501
102
}
330
8501
100
AcDbScale
 70
     0
300
4:1
140
4.0
141
1.0
290
     0
  0
SCALE
  5
8510
102
{ACAD_REACTORS
330
8501
102
}
330
8501
100
AcDbScale
 70
     0
300
8:1
140
8.0
141
1.0
290
     0
  0
SCALE
  5
8511
102
{ACAD_REACTORS
330
8501
102
}
330
8501
100
AcDbScale
 70
     0
300
10:1
140
10.0
141
1.0
290
     0
  0
SCALE
  5
8512
102
{ACAD_REACTORS
330
8501
102
}
330
8501
100
AcDbScale
 70
     0
300
100:1
140
100.0
141
1.0
290
     0
  0
ACDBSECTIONVIEWSTYLE
  5
8516
102
{ACAD_XDICTIONARY
360
856C
102
}
102
{ACAD_REACTORS
330
8515
102
}
330
8515
100
AcDbModelDocViewStyle
 70
     0
  3
Metric50
290
     0
100
AcDbSectionViewStyle
 70
     0
 71
     0
 90
      102
 71
     1
340
10
 62
   256
 40
5.0
340
0
340
0
 62
   256
 40
5.0
300
I, O, Q, S, X, Z
 40
10.0
 90
        0
 40
2.5
 90
        0
 71
     2
340
15
 90
       25
 62
   256
340
15
 90
       50
 62
   256
 40
5.0
 40
2.5
 40
5.0
 71
     3
340
10
 62
   256
 40
5.0
 90
        0
 40
15.0
 90
        1
300
%<\AcVar ViewSectionStartId>%-%<\AcVar ViewSectionEndId>% (%<\AcVar ViewScale \f "%sn">%)
 71
     4
 62
   256
 62
   257
300
ANSI31
 40
1.0
 90
        0
290
     0
290
     0
 90
        6
 40
0.0
 40
1.570796326794896
 40
0.2617993877991494
 40
1.308996938995747
 40
-0.2617993877991494
 40
1.832595714594046
  0
TABLESTYLE
  5
8500
102
{ACAD_XDICTIONARY
360
8561
102
}
102
{ACAD_REACTORS
330
84FF
102
}
330
84FF
100
AcDbTableStyle
280
     0
  3
Standard
 70
     0
 71
     0
 40
1.5
 41
1.5
280
     0
281
     0
  7
STANDARD
140
4.5
170
     2
 62
     0
 63
     7
283
     0
 90
      512
 91
        0
  1

274
    -2
284
     1
 64
     0
275
    -2
285
     1
 65
     0
276
    -2
286
     1
 66
     0
277
    -2
287
     1
 67
     0
278
    -2
288
     1
 68
     0
279
    -2
289
     1
 69
     0
  7
STANDARD
140
6.0
170
     5
 62
     0
 63
     7
283
     0
 90
      512
 91
        0
  1

274
    -2
284
     1
 64
     0
275
    -2
285
     1
 65
     0
276
    -2
286
     1
 66
     0
277
    -2
287
     1
 67
     0
278
    -2
288
     1
 68
     0
279
    -2
289
     1
 69
     0
  7
STANDARD
140
4.5
170
     5
 62
     0
 63
     7
283
     0
 90
      512
 91
        0
  1

274
    -2
284
     1
 64
     0
275
    -2
285
     1
 65
     0
276
    -2
286
     1
 66
     0
277
    -2
287
     1
 67
     0
278
    -2
288
     1
 68
     0
279
    -2
289
     1
 69
     0
  0
VISUALSTYLE
  5
84EB
102
{ACAD_REACTORS
330
84E5
102
}
330
84E5
100
AcDbVisualStyle
  2
2dWireframe
 70
     4
177
     3
291
     0
 70
    58
 90
        0
176
     1
 90
        2
176
     1
 90
        0
176
     1
 90
        0
176
     1
 40
0.6
176
     1
 40
30.0
176
     1
 62
     7
420
 16777215
176
     1
 90
        1
176
     1
 90
        4
176
     1
 62
     7
176
     1
 62
   257
176
     1
 90
        1
176
     1
 90
        1
176
     1
 40
1.0
176
     1
 90
        0
176
     1
 62
   257
176
     1
 40
1.0
176
     1
 90
        1
176
     1
 90
        6
176
     1
 90
        2
176
     1
 62
     7
176
     1
 90
        5
176
     1
 90
        0
176
     1
 90
        0
176
     1
290
     0
176
     1
 90
        1
176
     1
 40
0.0
176
     1
 90
        0
176
     1
290
     1
176
     1
290
     1
176
     1
290
     0
176
     1
290
     0
176
     1
290
     0
176
     1
290
     0
176
     1
290
     0
176
     1
290
     0
176
     1
290
     0
176
     1
 90
       50
176
     1
 40
0.0
176
     1
 40
1.0
176
     1
 90
        0
176
     1
 62
    18
420
        0
176
     1
 90
       50
176
     1
 90
        3
176
     1
 62
     5
420
      255
176
     1
290
     0
176
     1
 90
       50
176
     1
 90
       50
176
     1
 90
       50
176
     1
290
     0
176
     1
 90
       50
176
     1
 62
   256
176
     0
 40
1.0
176
     0
 90
        2
176
     1
  1
strokes_ogs.tif
176
     1
290
     0
176
     1
 40
1.0
176
     1
 40
1.0
176
     1
1001
ACAD
1000
AcDbSavedByObjectVersion
1070
     0
  0
VISUALSTYLE
  5
84EA
102
{ACAD_REACTORS
330
84E5
102
}
330
84E5
100
AcDbVisualStyle
  2
Basic
 70
     7
177
     3
291
     1
 70
    58
 90
        1
176
     1
 90
        0
176
     1
 90
        1
176
     1
 90
        0
176
     1
 40
0.6
176
     1
 40
30.0
176
     1
 62
     7
420
 16777215
176
     1
 90
        0
176
     1
 90
        4
176
     1
 62
     7
176
     1
 62
   257
176
     1
 90
        1
176
     1
 90
        1
176
     1
 40
1.0
176
     1
 90
        8
176
     1
 62
     7
176
     1
 40
1.0
176
     1
 90
        1
176
     1
 90
        6
176
     1
 90
        2
176
     1
 62
     7
176
     1
 90
        5
176
     1
 90
        0
176
     1
 90
        0
176
     1
290
     0
176
     1
 90
        1
176
     1
 40
0.0
176
     1
 90
        0
176
     1
290
     0
176
     1
290
     1
176
     1
290
     1
176
     1
290
     0
176
     1
290
     0
176
     1
290
     0
176
     1
290
     0
176
     1
290
     0
176
     1
290
     0
176
     1
 90
       50
176
     1
 40
0.0
176
     1
 40
1.0
176
     1
 90
        0
176
     1
 62
    18
420
        0
176
     1
 90
       50
176
     1
 90
        3
176
     1
 62
     5
420
      255
176
     1
290
     0
176
     1
 90
       50
176
     1
 90
       50
176
     1
 90
       50
176
     1
290
     0
176
     1
 90
       50
176
     1
 62
   256
176
     0
 40
1.0
176
     0
 90
        2
176
     1
  1
strokes_ogs.tif
176
     1
290
     0
176
     1
 40
1.0
176
     1
 40
1.0
176
     1
1001
ACAD
1000
AcDbSavedByObjectVersion
1070
     0
  0
VISUALSTYLE
  5
84F1
102
{ACAD_REACTORS
330
84E5
102
}
330
84E5
100
AcDbVisualStyle
  2
Brighten
 70
    12
177
     3
291
     1
 70
    58
 90
        2
176
     1
 90
        2
176
     1
 90
        0
176
     1
 90
        0
176
     1
 40
0.6
176
     1
 40
30.0
176
     1
 62
     7
420
 16777215
176
     1
 90
        1
176
     1
 90
        4
176
     1
 62
     7
176
     1
 62
   257
176
     1
 90
        1
176
     1
 90
        1
176
     1
 40
1.0
176
     1
 90
        8
176
     1
 62
     7
176
     1
 40
1.0
176
     1
 90
        1
176
     1
 90
        6
176
     1
 90
        2
176
     1
 62
     7
176
     1
 90
        5
176
     1
 90
        0
176
     1
 90
        0
176
     1
290
     0
176
     1
 90
        1
176
     1
 40
50.0
176
     1
 90
        0
176
     1
290
     0
176
     1
290
     1
176
     1
290
     1
176
     1
290
     0
176
     1
290
     0
176
     1
290
     0
176
     1
290
     0
176
     1
290
     0
176
     1
290
     0
176
     1
 90
       50
176
     1
 40
0.0
176
     1
 40
1.0
176
     1
 90
        0
176
     1
 62
    18
420
        0
176
     1
 90
       50
176
     1
 90
        3
176
     1
 62
     5
420
      255
176
     1
290
     0
176
     1
 90
       50
176
     1
 90
       50
176
     1
 90
       50
176
     1
290
     0
176
     1
 90
       50
176
     1
 62
   256
176
     0
 40
1.0
176
     0
 90
        2
176
     1
  1
strokes_ogs.tif
176
     1
290
     0
176
     1
 40
1.0
176
     1
 40
1.0
176
     1
1001
ACAD
1000
AcDbSavedByObjectVersion
1070
     0
  0
VISUALSTYLE
  5
84F5
102
{ACAD_REACTORS
330
84E5
102
}
330
84E5
100
AcDbVisualStyle
  2
ColorChange
 70
    16
177
     3
291
     1
 70
    58
 90
        2
176
     1
 90
        2
176
     1
 90
        3
176
     1
 90
        0
176
     1
 40
0.6
176
     1
 40
30.0
176
     1
 62
     8
420
  8421504
176
     1
 90
        1
176
     1
 90
        4
176
     1
 62
     7
176
     1
 62
   257
176
     1
 90
        1
176
     1
 90
        1
176
     1
 40
1.0
176
     1
 90
        8
176
     1
 62
     8
420
  8421504
176
     1
 40
1.0
176
     1
 90
        1
176
     1
 90
        6
176
     1
 90
        2
176
     1
 62
     7
176
     1
 90
        5
176
     1
 90
        0
176
     1
 90
        0
176
     1
290
     0
176
     1
 90
        1
176
     1
 40
0.0
176
     1
 90
        0
176
     1
290
     0
176
     1
290
     1
176
     1
290
     1
176
     1
290
     0
176
     1
290
     0
176
     1
290
     0
176
     1
290
     0
176
     1
290
     0
176
     1
290
     0
176
     1
 90
       50
176
     1
 40
0.0
176
     1
 40
1.0
176
     1
 90
        0
176
     1
 62
    18
420
        0
176
     1
 90
       50
176
     1
 90
        3
176
     1
 62
     5
420
      255
176
     1
290
     0
176
     1
 90
       50
176
     1
 90
       50
176
     1
 90
       50
176
     1
290
     0
176
     1
 90
       50
176
     1
 62
   256
176
     0
 40
1.0
176
     0
 90
        2
176
     1
  1
strokes_ogs.tif
176
     1
290
     0
176
     1
 40
1.0
176
     1
 40
1.0
176
     1
1001
ACAD
1000
AcDbSavedByObjectVersion
1070
     0
  0
VISUALSTYLE
  5
84EE
102
{ACAD_REACTORS
330
84E5
102
}
330
84E5
100
AcDbVisualStyle
  2
Conceptual
 70
     9
177
     3
291
     0
 70
    58
 90
        3
176
     1
 90
        2
176
     1
 90
        0
176
     1
 90
        0
176
     1
 40
0.6
176
     1
 40
30.0
176
     1
 62
     7
420
 16777215
176
     1
 90
        2
176
     1
 90
        2
176
     1
 62
     7
176
     1
 62
   257
176
     1
 90
        1
176
     1
 90
        1
176
     1
 40
179.0
176
     1
 90
        8
176
     1
 62
     7
176
     1
 40
1.0
176
     1
 90
        1
176
     1
 90
        6
176
     1
 90
        2
176
     1
 62
     7
176
     1
 90
        3
176
     1
 90
        0
176
     1
 90
        0
176
     1
290
     0
176
     1
 90
        1
176
     1
 40
0.0
176
     1
 90
        0
176
     1
290
     0
176
     1
290
     1
176
     1
290
     1
176
     1
290
     0
176
     1
290
     0
176
     1
290
     0
176
     1
290
     0
176
     1
290
     0
176
     1
290
     0
176
     1
 90
       50
176
     1
 40
0.0
176
     1
 40
1.0
176
     1
 90
        0
176
     1
 62
    18
420
        0
176
     1
 90
       50
176
     1
 90
        3
176
     1
 62
     5
420
      255
176
     1
290
     0
176
     1
 90
       50
176
     1
 90
       50
176
     1
 90
       50
176
     1
290
     0
176
     1
 90
       50
176
     1
 62
   256
176
     0
 40
1.0
176
     0
 90
        2
176
     1
  1
strokes_ogs.tif
176
     1
290
     0
176
     1
 40
1.0
176
     1
 40
1.0
176
     1
1001
ACAD
1000
AcDbSavedByObjectVersion
1070
     0
  0
VISUALSTYLE
  5
84F0
102
{ACAD_REACTORS
330
84E5
102
}
330
84E5
100
AcDbVisualStyle
  2
Dim
 70
    11
177
     3
291
     1
 70
    58
 90
        2
176
     1
 90
        2
176
     1
 90
        0
176
     1
 90
        0
176
     1
 40
0.6
176
     1
 40
30.0
176
     1
 62
     7
420
 16777215
176
     1
 90
        1
176
     1
 90
        4
176
     1
 62
     7
176
     1
 62
   257
176
     1
 90
        1
176
     1
 90
        1
176
     1
 40
1.0
176
     1
 90
        8
176
     1
 62
     7
176
     1
 40
1.0
176
     1
 90
        1
176
     1
 90
        6
176
     1
 90
        2
176
     1
 62
     7
176
     1
 90
        5
176
     1
 90
        0
176
     1
 90
        0
176
     1
290
     0
176
     1
 90
        1
176
     1
 40
-50.0
176
     1
 90
        0
176
     1
290
     0
176
     1
290
     1
176
     1
290
     1
176
     1
290
     0
176
     1
290
     0
176
     1
290
     0
176
     1
290
     0
176
     1
290
     0
176
     1
290
     0
176
     1
 90
       50
176
     1
 40
0.0
176
     1
 40
1.0
176
     1
 90
        0
176
     1
 62
    18
420
        0
176
     1
 90
       50
176
     1
 90
        3
176
     1
 62
     5
420
      255
176
     1
290
     0
176
     1
 90
       50
176
     1
 90
       50
176
     1
 90
       50
176
     1
290
     0
176
     1
 90
       50
176
     1
 62
   256
176
     0
 40
1.0
176
     0
 90
        2
176
     1
  1
strokes_ogs.tif
176
     1
290
     0
176
     1
 40
1.0
176
     1
 40
1.0
176
     1
1001
ACAD
1000
AcDbSavedByObjectVersion
1070
     0
  0
VISUALSTYLE
  5
84FD
102
{ACAD_REACTORS
330
84E5
102
}
330
84E5
100
AcDbVisualStyle
  2
EdgeColorOff
 70
    22
177
     3
291
     1
 70
    58
 90
        2
176
     0
 90
        2
176
     0
 90
        0
176
     0
 90
        0
176
     0
 40
0.6
176
     0
 40
30.0
176
     0
 62
     7
420
 16777215
176
     0
 90
        1
176
     0
 90
        4
176
     0
 62
     7
176
     0
 62
   257
176
     0
 90
        1
176
     0
 90
        1
176
     0
 40
1.0
176
     0
 90
        8
176
     2
 62
     7
176
     0
 40
1.0
176
     0
 90
        1
176
     0
 90
        6
176
     0
 90
        2
176
     0
 62
     7
176
     0
 90
        5
176
     0
 90
        0
176
     0
 90
        0
176
     0
290
     0
176
     0
 90
        1
176
     0
 40
0.0
176
     0
 90
        0
176
     0
290
     0
176
     0
290
     1
176
     0
290
     1
176
     0
290
     0
176
     0
290
     0
176
     0
290
     0
176
     0
290
     0
176
     0
290
     0
176
     0
290
     0
176
     0
 90
       50
176
     0
 40
0.0
176
     0
 40
1.0
176
     0
 90
        0
176
     0
 62
    18
420
        0
176
     0
 90
       50
176
     0
 90
        3
176
     0
 62
     5
420
      255
176
     0
290
     0
176
     0
 90
       50
176
     0
 90
       50
176
     0
 90
       50
176
     0
290
     0
176
     0
 90
       50
176
     0
 62
   256
176
     0
 40
1.0
176
     0
 90
        2
176
     0
  1
strokes_ogs.tif
176
     0
290
     0
176
     0
 40
1.0
176
     0
 40
1.0
176
     0
1001
ACAD
1000
AcDbSavedByObjectVersion
1070
     0
  0
VISUALSTYLE
  5
84F4
102
{ACAD_REACTORS
330
84E5
102
}
330
84E5
100
AcDbVisualStyle
  2
Facepattern
 70
    15
177
     3
291
     1
 70
    58
 90
        2
176
     1
 90
        2
176
     1
 90
        0
176
     1
 90
        0
176
     1
 40
0.6
176
     1
 40
30.0
176
     1
 62
     7
420
 16777215
176
     1
 90
        1
176
     1
 90
        4
176
     1
 62
     7
176
     1
 62
   257
176
     1
 90
        1
176
     1
 90
        1
176
     1
 40
1.0
176
     1
 90
        8
176
     1
 62
     7
176
     1
 40
1.0
176
     1
 90
        1
176
     1
 90
        6
176
     1
 90
        2
176
     1
 62
     7
176
     1
 90
        5
176
     1
 90
        0
176
     1
 90
        0
176
     1
290
     0
176
     1
 90
        1
176
     1
 40
0.0
176
     1
 90
        0
176
     1
290
     0
176
     1
290
     1
176
     1
290
     1
176
     1
290
     0
176
     1
290
     0
176
     1
290
     0
176
     1
290
     0
176
     1
290
     0
176
     1
290
     0
176
     1
 90
       50
176
     1
 40
0.0
176
     1
 40
1.0
176
     1
 90
        0
176
     1
 62
    18
420
        0
176
     1
 90
       50
176
     1
 90
        3
176
     1
 62
     5
420
      255
176
     1
290
     0
176
     1
 90
       50
176
     1
 90
       50
176
     1
 90
       50
176
     1
290
     0
176
     1
 90
       50
176
     1
 62
   256
176
     0
 40
1.0
176
     0
 90
        2
176
     1
  1
strokes_ogs.tif
176
     1
290
     0
176
     1
 40
1.0
176
     1
 40
1.0
176
     1
1001
ACAD
1000
AcDbSavedByObjectVersion
1070
     0
  0
VISUALSTYLE
  5
84E6
102
{ACAD_REACTORS
330
84E5
102
}
330
84E5
100
AcDbVisualStyle
  2
Flat
 70
     0
177
     3
291
     1
 70
    58
 90
        2
176
     1
 90
        1
176
     1
 90
        1
176
     1
 90
        2
176
     1
 40
0.6
176
     1
 40
30.0
176
     1
 62
     7
420
 16777215
176
     1
 90
        0
176
     1
 90
        0
176
     1
 62
     7
176
     1
 62
   257
176
     1
 90
        1
176
     1
 90
        1
176
     1
 40
1.0
176
     1
 90
        8
176
     1
 62
     7
176
     1
 40
1.0
176
     1
 90
        1
176
     1
 90
        6
176
     1
 90
        2
176
     1
 62
     7
176
     1
 90
        5
176
     1
 90
        0
176
     1
 90
        0
176
     1
290
     0
176
     1
 90
       13
176
     1
 40
0.0
176
     1
 90
        0
176
     1
290
     0
176
     1
290
     1
176
     1
290
     1
176
     1
290
     0
176
     1
290
     0
176
     1
290
     0
176
     1
290
     0
176
     1
290
     0
176
     1
290
     0
176
     1
 90
       50
176
     1
 40
0.0
176
     1
 40
1.0
176
     1
 90
        0
176
     1
 62
    18
420
        0
176
     1
 90
       50
176
     1
 90
        3
176
     1
 62
     5
420
      255
176
     1
290
     0
176
     1
 90
       50
176
     1
 90
       50
176
     1
 90
       50
176
     1
290
     0
176
     1
 90
       50
176
     1
 62
   256
176
     0
 40
1.0
176
     0
 90
        2
176
     1
  1
strokes_ogs.tif
176
     1
290
     0
176
     1
 40
1.0
176
     1
 40
1.0
176
     1
1001
ACAD
1000
AcDbSavedByObjectVersion
1070
     0
  0
VISUALSTYLE
  5
84E7
102
{ACAD_REACTORS
330
84E5
102
}
330
84E5
100
AcDbVisualStyle
  2
FlatWithEdges
 70
     1
177
     3
291
     1
 70
    58
 90
        2
176
     1
 90
        1
176
     1
 90
        1
176
     1
 90
        2
176
     1
 40
0.6
176
     1
 40
30.0
176
     1
 62
     7
420
 16777215
176
     1
 90
        1
176
     1
 90
        0
176
     1
 62
     7
176
     1
 62
   257
176
     1
 90
        1
176
     1
 90
        1
176
     1
 40
1.0
176
     1
 90
        0
176
     1
 62
   257
176
     1
 40
1.0
176
     1
 90
        1
176
     1
 90
        6
176
     1
 90
        2
176
     1
 62
     7
176
     1
 90
        5
176
     1
 90
        0
176
     1
 90
        0
176
     1
290
     0
176
     1
 90
       13
176
     1
 40
0.0
176
     1
 90
        0
176
     1
290
     0
176
     1
290
     1
176
     1
290
     1
176
     1
290
     0
176
     1
290
     0
176
     1
290
     0
176
     1
290
     0
176
     1
290
     0
176
     1
290
     0
176
     1
 90
       50
176
     1
 40
0.0
176
     1
 40
1.0
176
     1
 90
        0
176
     1
 62
    18
420
        0
176
     1
 90
       50
176
     1
 90
        3
176
     1
 62
     5
420
      255
176
     1
290
     0
176
     1
 90
       50
176
     1
 90
       50
176
     1
 90
       50
176
     1
290
     0
176
     1
 90
       50
176
     1
 62
   256
176
     0
 40
1.0
176
     0
 90
        2
176
     1
  1
strokes_ogs.tif
176
     1
290
     0
176
     1
 40
1.0
176
     1
 40
1.0
176
     1
1001
ACAD
1000
AcDbSavedByObjectVersion
1070
     0
  0
VISUALSTYLE
  5
84E8
102
{ACAD_REACTORS
330
84E5
102
}
330
84E5
100
AcDbVisualStyle
  2
Gouraud
 70
     2
177
     3
291
     1
 70
    58
 90
        2
176
     1
 90
        2
176
     1
 90
        1
176
     1
 90
        2
176
     1
 40
0.6
176
     1
 40
30.0
176
     1
 62
     7
420
 16777215
176
     1
 90
        0
176
     1
 90
        0
176
     1
 62
     7
176
     1
 62
   257
176
     1
 90
        1
176
     1
 90
        1
176
     1
 40
1.0
176
     1
 90
        0
176
     1
 62
     7
176
     1
 40
1.0
176
     1
 90
        1
176
     1
 90
        6
176
     1
 90
        2
176
     1
 62
     7
176
     1
 90
        5
176
     1
 90
        0
176
     1
 90
        0
176
     1
290
     0
176
     1
 90
       13
176
     1
 40
0.0
176
     1
 90
        0
176
     1
290
     0
176
     1
290
     1
176
     1
290
     1
176
     1
290
     0
176
     1
290
     0
176
     1
290
     0
176
     1
290
     0
176
     1
290
     0
176
     1
290
     0
176
     1
 90
       50
176
     1
 40
0.0
176
     1
 40
1.0
176
     1
 90
        0
176
     1
 62
    18
420
        0
176
     1
 90
       50
176
     1
 90
        3
176
     1
 62
     5
420
      255
176
     1
290
     0
176
     1
 90
       50
176
     1
 90
       50
176
     1
 90
       50
176
     1
290
     0
176
     1
 90
       50
176
     1
 62
   256
176
     0
 40
1.0
176
     0
 90
        2
176
     1
  1
strokes_ogs.tif
176
     1
290
     0
176
     1
 40
1.0
176
     1
 40
1.0
176
     1
1001
ACAD
1000
AcDbSavedByObjectVersion
1070
     0
  0
VISUALSTYLE
  5
84E9
102
{ACAD_REACTORS
330
84E5
102
}
330
84E5
100
AcDbVisualStyle
  2
GouraudWithEdges
 70
     3
177
     3
291
     1
 70
    58
 90
        2
176
     1
 90
        2
176
     1
 90
        1
176
     1
 90
        2
176
     1
 40
0.6
176
     1
 40
30.0
176
     1
 62
     7
420
 16777215
176
     1
 90
        1
176
     1
 90
        0
176
     1
 62
     7
176
     1
 62
   257
176
     1
 90
        1
176
     1
 90
        1
176
     1
 40
1.0
176
     1
 90
        0
176
     1
 62
   257
176
     1
 40
1.0
176
     1
 90
        1
176
     1
 90
        6
176
     1
 90
        2
176
     1
 62
     7
176
     1
 90
        5
176
     1
 90
        0
176
     1
 90
        0
176
     1
290
     0
176
     1
 90
       13
176
     1
 40
0.0
176
     1
 90
        0
176
     1
290
     0
176
     1
290
     1
176
     1
290
     1
176
     1
290
     0
176
     1
290
     0
176
     1
290
     0
176
     1
290
     0
176
     1
290
     0
176
     1
290
     0
176
     1
 90
       50
176
     1
 40
0.0
176
     1
 40
1.0
176
     1
 90
        0
176
     1
 62
    18
420
        0
176
     1
 90
       50
176
     1
 90
        3
176
     1
 62
     5
420
      255
176
     1
290
     0
176
     1
 90
       50
176
     1
 90
       50
176
     1
 90
       50
176
     1
290
     0
176
     1
 90
       50
176
     1
 62
   256
176
     0
 40
1.0
176
     0
 90
        2
176
     1
  1
strokes_ogs.tif
176
     1
290
     0
176
     1
 40
1.0
176
     1
 40
1.0
176
     1
1001
ACAD
1000
AcDbSavedByObjectVersion
1070
     0
  0
VISUALSTYLE
  5
84ED
102
{ACAD_REACTORS
330
84E5
102
}
330
84E5
100
AcDbVisualStyle
  2
Hidden
 70
     6
177
     3
291
     0
 70
    58
 90
        1
176
     1
 90
        2
176
     1
 90
        2
176
     1
 90
        0
176
     1
 40
0.6
176
     1
 40
30.0
176
     1
 62
     7
420
 16777215
176
     1
 90
        2
176
     1
 90
        2
176
     1
 62
     7
176
     1
 62
   257
176
     1
 90
        2
176
     1
 90
        1
176
     1
 40
40.0
176
     1
 90
        0
176
     1
 62
   257
176
     1
 40
1.0
176
     1
 90
        1
176
     1
 90
        6
176
     1
 90
        2
176
     1
 62
     7
176
     1
 90
        3
176
     1
 90
        0
176
     1
 90
        0
176
     1
290
     0
176
     1
 90
        1
176
     1
 40
0.0
176
     1
 90
        0
176
     1
290
     0
176
     1
290
     1
176
     1
290
     1
176
     1
290
     0
176
     1
290
     0
176
     1
290
     0
176
     1
290
     0
176
     1
290
     0
176
     1
290
     0
176
     1
 90
       50
176
     1
 40
0.0
176
     1
 40
1.0
176
     1
 90
        0
176
     1
 62
    18
420
        0
176
     1
 90
       50
176
     1
 90
        3
176
     1
 62
     5
420
      255
176
     1
290
     0
176
     1
 90
       50
176
     1
 90
       50
176
     1
 90
       50
176
     1
290
     0
176
     1
 90
       50
176
     1
 62
   256
176
     0
 40
1.0
176
     0
 90
        2
176
     1
  1
strokes_ogs.tif
176
     1
290
     0
176
     1
 40
1.0
176
     1
 40
1.0
176
     1
1001
ACAD
1000
AcDbSavedByObjectVersion
1070
     0
  0
VISUALSTYLE
  5
84FB
102
{ACAD_REACTORS
330
84E5
102
}
330
84E5
100
AcDbVisualStyle
  2
JitterOff
 70
    20
177
     3
291
     1
 70
    58
 90
        2
176
     0
 90
        2
176
     0
 90
        0
176
     0
 90
        0
176
     0
 40
0.6
176
     0
 40
30.0
176
     0
 62
     7
420
 16777215
176
     0
 90
        1
176
     0
 90
        4
176
     0
 62
     7
176
     0
 62
   257
176
     0
 90
        1
176
     0
 90
        1
176
     0
 40
1.0
176
     0
 90
       10
176
     2
 62
     7
176
     0
 40
1.0
176
     0
 90
        1
176
     0
 90
        6
176
     0
 90
        2
176
     0
 62
     7
176
     0
 90
        5
176
     0
 90
        0
176
     0
 90
        0
176
     0
290
     0
176
     0
 90
        1
176
     0
 40
0.0
176
     0
 90
        0
176
     0
290
     0
176
     0
290
     1
176
     0
290
     1
176
     0
290
     0
176
     0
290
     0
176
     0
290
     0
176
     0
290
     0
176
     0
290
     0
176
     0
290
     0
176
     0
 90
       50
176
     0
 40
0.0
176
     0
 40
1.0
176
     0
 90
        0
176
     0
 62
    18
420
        0
176
     0
 90
       50
176
     0
 90
        3
176
     0
 62
     5
420
      255
176
     0
290
     0
176
     0
 90
       50
176
     0
 90
       50
176
     0
 90
       50
176
     0
290
     0
176
     0
 90
       50
176
     0
 62
   256
176
     0
 40
1.0
176
     0
 90
        2
176
     0
  1
strokes_ogs.tif
176
     0
290
     0
176
     0
 40
1.0
176
     0
 40
1.0
176
     0
1001
ACAD
1000
AcDbSavedByObjectVersion
1070
     0
  0
VISUALSTYLE
  5
84F3
102
{ACAD_REACTORS
330
84E5
102
}
330
84E5
100
AcDbVisualStyle
  2
Linepattern
 70
    14
177
     3
291
     1
 70
    58
 90
        2
176
     1
 90
        2
176
     1
 90
        0
176
     1
 90
        0
176
     1
 40
0.6
176
     1
 40
30.0
176
     1
 62
     7
420
 16777215
176
     1
 90
        1
176
     1
 90
        4
176
     1
 62
     7
176
     1
 62
   257
176
     1
 90
        7
176
     1
 90
        7
176
     1
 40
1.0
176
     1
 90
        8
176
     1
 62
     7
176
     1
 40
1.0
176
     1
 90
        1
176
     1
 90
        6
176
     1
 90
        2
176
     1
 62
     7
176
     1
 90
        5
176
     1
 90
        0
176
     1
 90
        0
176
     1
290
     0
176
     1
 90
        1
176
     1
 40
0.0
176
     1
 90
        0
176
     1
290
     0
176
     1
290
     1
176
     1
290
     1
176
     1
290
     0
176
     1
290
     0
176
     1
290
     0
176
     1
290
     0
176
     1
290
     0
176
     1
290
     0
176
     1
 90
       50
176
     1
 40
0.0
176
     1
 40
1.0
176
     1
 90
        0
176
     1
 62
    18
420
        0
176
     1
 90
       50
176
     1
 90
        3
176
     1
 62
     5
420
      255
176
     1
290
     0
176
     1
 90
       50
176
     1
 90
       50
176
     1
 90
       50
176
     1
290
     0
176
     1
 90
       50
176
     1
 62
   256
176
     0
 40
1.0
176
     0
 90
        2
176
     1
  1
strokes_ogs.tif
176
     1
290
     0
176
     1
 40
1.0
176
     1
 40
1.0
176
     1
1001
ACAD
1000
AcDbSavedByObjectVersion
1070
     0
  0
VISUALSTYLE
  5
84FC
102
{ACAD_REACTORS
330
84E5
102
}
330
84E5
100
AcDbVisualStyle
  2
OverhangOff
 70
    21
177
     3
291
     1
 70
    58
 90
        2
176
     0
 90
        2
176
     0
 90
        0
176
     0
 90
        0
176
     0
 40
0.6
176
     0
 40
30.0
176
     0
 62
     7
420
 16777215
176
     0
 90
        1
176
     0
 90
        4
176
     0
 62
     7
176
     0
 62
   257
176
     0
 90
        1
176
     0
 90
        1
176
     0
 40
1.0
176
     0
 90
        9
176
     2
 62
     7
176
     0
 40
1.0
176
     0
 90
        1
176
     0
 90
        6
176
     0
 90
        2
176
     0
 62
     7
176
     0
 90
        5
176
     0
 90
        0
176
     0
 90
        0
176
     0
290
     0
176
     0
 90
        1
176
     0
 40
0.0
176
     0
 90
        0
176
     0
290
     0
176
     0
290
     1
176
     0
290
     1
176
     0
290
     0
176
     0
290
     0
176
     0
290
     0
176
     0
290
     0
176
     0
290
     0
176
     0
290
     0
176
     0
 90
       50
176
     0
 40
0.0
176
     0
 40
1.0
176
     0
 90
        0
176
     0
 62
    18
420
        0
176
     0
 90
       50
176
     0
 90
        3
176
     0
 62
     5
420
      255
176
     0
290
     0
176
     0
 90
       50
176
     0
 90
       50
176
     0
 90
       50
176
     0
290
     0
176
     0
 90
       50
176
     0
 62
   256
176
     0
 40
1.0
176
     0
 90
        2
176
     0
  1
strokes_ogs.tif
176
     0
290
     0
176
     0
 40
1.0
176
     0
 40
1.0
176
     0
1001
ACAD
1000
AcDbSavedByObjectVersion
1070
     0
  0
VISUALSTYLE
  5
84EF
102
{ACAD_REACTORS
330
84E5
102
}
330
84E5
100
AcDbVisualStyle
  2
Realistic
 70
     8
177
     3
291
     0
 70
    58
 90
        2
176
     1
 90
        3
176
     1
 90
        0
176
     1
 90
        2
176
     1
 40
0.6
176
     1
 40
30.0
176
     1
 62
     7
420
 16777215
176
     1
 90
        0
176
     1
 90
        0
176
     1
 62
     7
176
     1
 62
   257
176
     1
 90
        1
176
     1
 90
        1
176
     1
 40
1.0
176
     1
 90
        8
176
     1
 62
   257
176
     1
 40
1.0
176
     1
 90
        1
176
     1
 90
        6
176
     1
 90
        2
176
     1
 62
     7
176
     1
 90
        3
176
     1
 90
        0
176
     1
 90
        0
176
     1
290
     0
176
     1
 90
       13
176
     1
 40
0.0
176
     1
 90
        0
176
     1
290
     0
176
     1
290
     1
176
     1
290
     1
176
     1
290
     0
176
     1
290
     0
176
     1
290
     0
176
     1
290
     0
176
     1
290
     0
176
     1
290
     0
176
     1
 90
       50
176
     1
 40
0.0
176
     1
 40
1.0
176
     1
 90
        0
176
     1
 62
    18
420
        0
176
     1
 90
       50
176
     1
 90
        3
176
     1
 62
     5
420
      255
176
     1
290
     0
176
     1
 90
       50
176
     1
 90
       50
176
     1
 90
       50
176
     1
290
     0
176
     1
 90
       50
176
     1
 62
   256
176
     0
 40
1.0
176
     0
 90
        2
176
     1
  1
strokes_ogs.tif
176
     1
290
     0
176
     1
 40
1.0
176
     1
 40
1.0
176
     1
1001
ACAD
1000
AcDbSavedByObjectVersion
1070
     0
  0
VISUALSTYLE
  5
84FA
102
{ACAD_REACTORS
330
84E5
102
}
330
84E5
100
AcDbVisualStyle
  2
Shaded
 70
    27
177
     3
291
     0
 70
    58
 90
        2
176
     1
 90
        2
176
     1
 90
        1
176
     1
 90
        2
176
     1
 40
0.6
176
     1
 40
30.0
176
     1
 62
     7
420
 16777215
176
     1
 90
        0
176
     1
 90
        4
176
     1
 62
     7
176
     1
 62
   257
176
     1
 90
        1
176
     1
 90
        1
176
     1
 40
1.0
176
     1
 90
        8
176
     1
 62
   257
176
     1
 40
1.0
176
     1
 90
        1
176
     1
 90
        6
176
     1
 90
        2
176
     1
 62
     8
420
  7895160
176
     1
 90
        3
176
     1
 90
        0
176
     1
 90
        0
176
     1
290
     0
176
     1
 90
        5
176
     1
 40
0.0
176
     1
 90
        0
176
     1
290
     0
176
     1
290
     1
176
     1
290
     1
176
     1
290
     0
176
     1
290
     0
176
     1
290
     0
176
     1
290
     0
176
     1
290
     0
176
     1
290
     0
176
     1
 90
       50
176
     1
 40
0.0
176
     1
 40
1.0
176
     1
 90
        0
176
     1
 62
    18
420
        0
176
     1
 90
       50
176
     1
 90
        3
176
     1
 62
     5
420
      255
176
     1
290
     0
176
     1
 90
       50
176
     1
 90
       50
176
     1
 90
       50
176
     1
290
     0
176
     1
 90
       50
176
     1
 62
   256
176
     0
 40
1.0
176
     0
 90
        2
176
     1
  1
strokes_ogs.tif
176
     1
290
     0
176
     1
 40
1.0
176
     1
 40
1.0
176
     1
1001
ACAD
1000
AcDbSavedByObjectVersion
1070
     0
  0
VISUALSTYLE
  5
84F9
102
{ACAD_REACTORS
330
84E5
102
}
330
84E5
100
AcDbVisualStyle
  2
Shaded with edges
 70
    26
177
     3
291
     0
 70
    58
 90
        2
176
     1
 90
        2
176
     1
 90
        1
176
     1
 90
        2
176
     1
 40
0.6
176
     1
 40
30.0
176
     1
 62
     7
420
 16777215
176
     1
 90
        1
176
     1
 90
        2
176
     1
 62
     7
176
     1
 62
   257
176
     1
 90
        2
176
     1
 90
        1
176
     1
 40
1.0
176
     1
 90
        8
176
     1
 62
   257
176
     1
 40
1.0
176
     1
 90
        1
176
     1
 90
        6
176
     1
 90
        2
176
     1
 62
     7
176
     1
 90
        3
176
     1
 90
        0
176
     1
 90
        0
176
     1
290
     0
176
     1
 90
        5
176
     1
 40
0.0
176
     1
 90
        0
176
     1
290
     0
176
     1
290
     1
176
     1
290
     1
176
     1
290
     0
176
     1
290
     0
176
     1
290
     0
176
     1
290
     0
176
     1
290
     0
176
     1
290
     0
176
     1
 90
       50
176
     1
 40
0.0
176
     1
 40
1.0
176
     1
 90
        0
176
     1
 62
    18
420
        0
176
     1
 90
       50
176
     1
 90
        3
176
     1
 62
     5
420
      255
176
     1
290
     0
176
     1
 90
       50
176
     1
 90
       50
176
     1
 90
       50
176
     1
290
     0
176
     1
 90
       50
176
     1
 62
   256
176
     0
 40
1.0
176
     0
 90
        2
176
     1
  1
strokes_ogs.tif
176
     1
290
     0
176
     1
 40
1.0
176
     1
 40
1.0
176
     1
1001
ACAD
1000
AcDbSavedByObjectVersion
1070
     0
  0
VISUALSTYLE
  5
84F6
102
{ACAD_REACTORS
330
84E5
102
}
330
84E5
100
AcDbVisualStyle
  2
Shades of Gray
 70
    23
177
     3
291
     0
 70
    58
 90
        2
176
     1
 90
        2
176
     1
 90
        3
176
     1
 90
        0
176
     1
 40
0.6
176
     1
 40
30.0
176
     1
 62
     7
420
 16777215
176
     1
 90
        2
176
     1
 90
        2
176
     1
 62
     7
176
     1
 62
     7
176
     1
 90
        1
176
     1
 90
        1
176
     1
 40
40.0
176
     1
 90
        8
176
     1
 62
     7
176
     1
 40
1.0
176
     1
 90
        1
176
     1
 90
        6
176
     1
 90
        2
176
     1
 62
     7
176
     1
 90
        3
176
     1
 90
        0
176
     1
 90
        0
176
     1
290
     0
176
     1
 90
        1
176
     1
 40
0.0
176
     1
 90
        0
176
     1
290
     0
176
     1
290
     1
176
     1
290
     1
176
     1
290
     0
176
     1
290
     0
176
     1
290
     0
176
     1
290
     0
176
     1
290
     0
176
     1
290
     0
176
     1
 90
       50
176
     1
 40
0.0
176
     1
 40
1.0
176
     1
 90
        0
176
     1
 62
    18
420
        0
176
     1
 90
       50
176
     1
 90
        3
176
     1
 62
     5
420
      255
176
     1
290
     0
176
     1
 90
       50
176
     1
 90
       50
176
     1
 90
       50
176
     1
290
     0
176
     1
 90
       50
176
     1
 62
   256
176
     0
 40
1.0
176
     0
 90
        2
176
     1
  1
strokes_ogs.tif
176
     1
290
     0
176
     1
 40
1.0
176
     1
 40
1.0
176
     1
1001
ACAD
1000
AcDbSavedByObjectVersion
1070
     0
  0
VISUALSTYLE
  5
84F7
102
{ACAD_REACTORS
330
84E5
102
}
330
84E5
100
AcDbVisualStyle
  2
Sketchy
 70
    24
177
     3
291
     0
 70
    58
 90
        1
176
     1
 90
        2
176
     1
 90
        2
176
     1
 90
        0
176
     1
 40
0.6
176
     1
 40
30.0
176
     1
 62
     7
420
 16777215
176
     1
 90
        2
176
     1
 90
        2
176
     1
 62
     7
176
     1
 62
     7
176
     1
 90
        1
176
     1
 90
        1
176
     1
 40
40.0
176
     1
 90
       11
176
     1
 62
     7
176
     1
 40
1.0
176
     1
 90
        1
176
     1
 90
        6
176
     1
 90
        2
176
     1
 62
     7
176
     1
 90
        6
176
     1
 90
        0
176
     1
 90
        0
176
     1
290
     0
176
     1
 90
        1
176
     1
 40
0.0
176
     1
 90
        0
176
     1
290
     0
176
     1
290
     1
176
     1
290
     1
176
     1
290
     0
176
     1
290
     0
176
     1
290
     0
176
     1
290
     0
176
     1
290
     0
176
     1
290
     0
176
     1
 90
       50
176
     1
 40
0.0
176
     1
 40
1.0
176
     1
 90
        0
176
     1
 62
    18
420
        0
176
     1
 90
       50
176
     1
 90
        3
176
     1
 62
     5
420
      255
176
     1
290
     0
176
     1
 90
       50
176
     1
 90
       50
176
     1
 90
       50
176
     1
290
     0
176
     1
 90
       50
176
     1
 62
   256
176
     0
 40
1.0
176
     0
 90
        2
176
     1
  1
strokes_ogs.tif
176
     1
290
     0
176
     1
 40
1.0
176
     1
 40
1.0
176
     1
1001
ACAD
1000
AcDbSavedByObjectVersion
1070
     0
  0
VISUALSTYLE
  5
84F2
102
{ACAD_REACTORS
330
84E5
102
}
330
84E5
100
AcDbVisualStyle
  2
Thicken
 70
    13
177
     3
291
     1
 70
    58
 90
        2
176
     1
 90
        2
176
     1
 90
        0
176
     1
 90
        0
176
     1
 40
0.6
176
     1
 40
30.0
176
     1
 62
     7
420
 16777215
176
     1
 90
        1
176
     1
 90
        4
176
     1
 62
     7
176
     1
 62
   257
176
     1
 90
        1
176
     1
 90
        1
176
     1
 40
1.0
176
     1
 90
       12
176
     1
 62
     7
176
     1
 40
1.0
176
     1
 90
        1
176
     1
 90
        6
176
     1
 90
        2
176
     1
 62
     7
176
     1
 90
        5
176
     1
 90
        0
176
     1
 90
        0
176
     1
290
     0
176
     1
 90
        1
176
     1
 40
0.0
176
     1
 90
        0
176
     1
290
     0
176
     1
290
     1
176
     1
290
     1
176
     1
290
     0
176
     1
290
     0
176
     1
290
     0
176
     1
290
     0
176
     1
290
     0
176
     1
290
     0
176
     1
 90
       50
176
     1
 40
0.0
176
     1
 40
1.0
176
     1
 90
        0
176
     1
 62
    18
420
        0
176
     1
 90
       50
176
     1
 90
        3
176
     1
 62
     5
420
      255
176
     1
290
     0
176
     1
 90
       50
176
     1
 90
       50
176
     1
 90
       50
176
     1
290
     0
176
     1
 90
       50
176
     1
 62
   256
176
     0
 40
1.0
176
     0
 90
        2
176
     1
  1
strokes_ogs.tif
176
     1
290
     0
176
     1
 40
1.0
176
     1
 40
1.0
176
     1
1001
ACAD
1000
AcDbSavedByObjectVersion
1070
     0
  0
VISUALSTYLE
  5
84EC
102
{ACAD_REACTORS
330
84E5
102
}
330
84E5
100
AcDbVisualStyle
  2
Wireframe
 70
     5
177
     3
291
     0
 70
    58
 90
        0
176
     1
 90
        2
176
     1
 90
        0
176
     1
 90
        0
176
     1
 40
0.6
176
     1
 40
30.0
176
     1
 62
     7
420
 16777215
176
     1
 90
        1
176
     1
 90
        4
176
     1
 62
     7
176
     1
 62
   257
176
     1
 90
        1
176
     1
 90
        1
176
     1
 40
1.0
176
     1
 90
        0
176
     1
 62
   257
176
     1
 40
1.0
176
     1
 90
        1
176
     1
 90
        6
176
     1
 90
        2
176
     1
 62
     7
176
     1
 90
        3
176
     1
 90
        0
176
     1
 90
        0
176
     1
290
     0
176
     1
 90
        1
176
     1
 40
0.0
176
     1
 90
        0
176
     1
290
     0
176
     1
290
     1
176
     1
290
     1
176
     1
290
     0
176
     1
290
     0
176
     1
290
     0
176
     1
290
     0
176
     1
290
     0
176
     1
290
     0
176
     1
 90
       50
176
     1
 40
0.0
176
     1
 40
1.0
176
     1
 90
        0
176
     1
 62
    18
420
        0
176
     1
 90
       50
176
     1
 90
        3
176
     1
 62
     5
420
      255
176
     1
290
     0
176
     1
 90
       50
176
     1
 90
       50
176
     1
 90
       50
176
     1
290
     0
176
     1
 90
       50
176
     1
 62
   256
176
     0
 40
1.0
176
     0
 90
        2
176
     1
  1
strokes_ogs.tif
176
     1
290
     0
176
     1
 40
1.0
176
     1
 40
1.0
176
     1
1001
ACAD
1000
AcDbSavedByObjectVersion
1070
     0
  0
VISUALSTYLE
  5
84F8
102
{ACAD_REACTORS
330
84E5
102
}
330
84E5
100
AcDbVisualStyle
  2
X-Ray
 70
    25
177
     3
291
     0
 70
    58
 90
        2
176
     1
 90
        2
176
     1
 90
        1
176
     1
 90
        1
176
     1
 40
0.5
176
     1
 40
30.0
176
     1
 62
     7
420
 16777215
176
     1
 90
        1
176
     1
 90
        0
176
     1
 62
     7
176
     1
 62
   257
176
     1
 90
        1
176
     1
 90
        1
176
     1
 40
1.0
176
     1
 90
        8
176
     1
 62
     7
176
     1
 40
1.0
176
     1
 90
        1
176
     1
 90
        6
176
     1
 90
        2
176
     1
 62
     7
176
     1
 90
        3
176
     1
 90
        0
176
     1
 90
        0
176
     1
290
     0
176
     1
 90
       13
176
     1
 40
0.0
176
     1
 90
        0
176
     1
290
     0
176
     1
290
     1
176
     1
290
     1
176
     1
290
     0
176
     1
290
     0
176
     1
290
     0
176
     1
290
     0
176
     1
290
     0
176
     1
290
     0
176
     1
 90
       50
176
     1
 40
0.0
176
     1
 40
1.0
176
     1
 90
        0
176
     1
 62
    18
420
        0
176
     1
 90
       50
176
     1
 90
        3
176
     1
 62
     5
420
      255
176
     1
290
     0
176
     1
 90
       50
176
     1
 90
       50
176
     1
 90
       50
176
     1
290
     0
176
     1
 90
       50
176
     1
 62
   256
176
     0
 40
1.0
176
     0
 90
        2
176
     1
  1
strokes_ogs.tif
176
     1
290
     0
176
     1
 40
1.0
176
     1
 40
1.0
176
     1
1001
ACAD
1000
AcDbSavedByObjectVersion
1070
     0
  0
DICTIONARYVAR
  5
8558
102
{ACAD_REACTORS
330
8552
102
}
330
8552
100
DictionaryVariables
280
     0
  1
1:1
  0
DICTIONARYVAR
  5
8554
102
{ACAD_REACTORS
330
8552
102
}
330
8552
100
DictionaryVariables
280
     0
  1
STANDARD
  0
DICTIONARYVAR
  5
8553
102
{ACAD_REACTORS
330
8552
102
}
330
8552
100
DictionaryVariables
280
     0
  1
STANDARD
  0
DICTIONARYVAR
  5
8555
102
{ACAD_REACTORS
330
8552
102
}
330
8552
100
DictionaryVariables
280
     0
  1
Metric50
  0
DICTIONARYVAR
  5
8556
102
{ACAD_REACTORS
330
8552
102
}
330
8552
100
DictionaryVariables
280
     0
  1
Metric50
  0
DICTIONARYVAR
  5
855A
102
{ACAD_REACTORS
330
8552
102
}
330
8552
100
DictionaryVariables
280
     0
  1
1
  0
DICTIONARYVAR
  5
855B
102
{ACAD_REACTORS
330
8552
102
}
330
8552
100
DictionaryVariables
280
     0
  1
15
  0
DICTIONARYVAR
  5
8559
102
{ACAD_REACTORS
330
8552
102
}
330
8552
100
DictionaryVariables
280
     0
  1
0
  0
DICTIONARYVAR
  5
8560
102
{ACAD_REACTORS
330
8552
102
}
330
8552
100
DictionaryVariables
280
     0
  1
0
  0
DICTIONARYVAR
  5
8557
102
{ACAD_REACTORS
330
8552
102
}
330
8552
100
DictionaryVariables
280
     0
  1
0
  0
DICTIONARY
  5
856B
102
{ACAD_REACTORS
330
8569
102
}
330
8569
100
AcDbDictionary
281
     1
  0
DICTIONARY
  5
856A
102
{ACAD_REACTORS
330
8569
102
}
330
8569
100
AcDbDictionary
281
     1
  3
2039012734528
350
8564
  3
2039012734544
350
8565
  3
2039012734560
350
8566
  3
2039012734576
350
8567
  3
2039012734592
350
8568
  0
DICTIONARY
  5
856E
330
8518
100
AcDbDictionary
280
     1
281
     1
  3
ACAD_XREC_ROUNDTRIP
360
856F
  0
DICTIONARY
  5
84D6
330
84D5
100
AcDbDictionary
280
     1
281
     1
  3
BUMPTILE
360
84D8
  3
DIFFUSETILE
360
84D7
  3
OPACITYTILE
360
84DB
  3
REFLECTIONTILE
360
84DA
  3
REFRACTIONTILE
360
84DC
  3
SPECULARTILE
360
84D9
  0
DICTIONARY
  5
84CE
330
84CD
100
AcDbDictionary
280
     1
281
     1
  3
BUMPTILE
360
84D0
  3
DIFFUSETILE
360
84CF
  3
OPACITYTILE
360
84D3
  3
REFLECTIONTILE
360
84D2
  3
REFRACTIONTILE
360
84D4
  3
SPECULARTILE
360
84D1
  0
DICTIONARY
  5
84DE
330
84DD
100
AcDbDictionary
280
     1
281
     1
  3
BUMPTILE
360
84E0
  3
DIFFUSETILE
360
84DF
  3
OPACITYTILE
360
84E3
  3
REFLECTIONTILE
360
84E2
  3
REFRACTIONTILE
360
84E4
  3
SPECULARTILE
360
84E1
  0
DICTIONARY
  5
856C
330
8516
100
AcDbDictionary
280
     1
281
     1
  3
ACAD_XREC_ROUNDTRIP
360
856D
  0
DICTIONARY
  5
8561
330
8500
100
AcDbDictionary
280
     1
281
     1
  3
ACAD_ROUNDTRIP_2008_TABLESTYLE_CELLSTYLEMAP
360
8562
  0
XRECORD
  5
8564
102
{ACAD_REACTORS
330
856A
102
}
330
856A
100
AcDbXrecord
280
     1
  1
AcDb_Thumbnail_Schema
102
{ATTRRECORD
341
8565
  2
AcDbDs::TreatedAsObjectData
280
     1
291
     1
102
ATTRRECORD}
102
{ATTRRECORD
341
8566
  2
AcDbDs::Legacy
280
     1
291
     1
102
ATTRRECORD}
  2
AcDbDs::ID
280
    10
 91
        8
102
{ATTRRECORD
341
8567
  2
AcDs:Indexable
280
     1
291
     1
102
ATTRRECORD}
102
{ATTRRECORD
341
8568
  2
AcDbDs::HandleAttribute
280
     7
282
     1
102
ATTRRECORD}
  2
Thumbnail_Data
280
    15
 91
        0
  0
XRECORD
  5
8565
102
{ACAD_REACTORS
330
856A
102
}
330
856A
100
AcDbXrecord
280
     1
  1
AcDbDs::TreatedAsObjectDataSchema
  2
AcDbDs::TreatedAsObjectData
280
     1
 91
        0
  0
XRECORD
  5
8566
102
{ACAD_REACTORS
330
856A
102
}
330
856A
100
AcDbXrecord
280
     1
  1
AcDbDs::LegacySchema
  2
AcDbDs::Legacy
280
     1
 91
        0
  0
XRECORD
  5
8567
102
{ACAD_REACTORS
330
856A
102
}
330
856A
100
AcDbXrecord
280
     1
  1
AcDbDs::IndexedPropertySchema
  2
AcDs:Indexable
280
     1
 91
        0
  0
XRECORD
  5
8568
102
{ACAD_REACTORS
330
856A
102
}
330
856A
100
AcDbXrecord
280
     1
  1
AcDbDs::HandleAttributeSchema
  2
AcDbDs::HandleAttribute
280
     7
 91
        1
284
     1
  0
XRECORD
  5
856F
102
{ACAD_REACTORS
330
856E
102
}
330
856E
100
AcDbXrecord
280
     1
102
DISPLAYNAME
  1
Metric50
102
FLAGS
 90
        0
  0
XRECORD
  5
84D8
102
{ACAD_REACTORS
330
84D6
102
}
330
84D6
100
AcDbXrecord
280
     1
270
     1
271
     1
  0
XRECORD
  5
84D7
102
{ACAD_REACTORS
330
84D6
102
}
330
84D6
100
AcDbXrecord
280
     1
270
     1
271
     1
  0
XRECORD
  5
84DB
102
{ACAD_REACTORS
330
84D6
102
}
330
84D6
100
AcDbXrecord
280
     1
270
     1
271
     1
  0
XRECORD
  5
84DA
102
{ACAD_REACTORS
330
84D6
102
}
330
84D6
100
AcDbXrecord
280
     1
270
     1
271
     1
  0
XRECORD
  5
84DC
102
{ACAD_REACTORS
330
84D6
102
}
330
84D6
100
AcDbXrecord
280
     1
270
     1
271
     1
  0
XRECORD
  5
84D9
102
{ACAD_REACTORS
330
84D6
102
}
330
84D6
100
AcDbXrecord
280
     1
270
     1
271
     1
  0
XRECORD
  5
84D0
102
{ACAD_REACTORS
330
84CE
102
}
330
84CE
100
AcDbXrecord
280
     1
270
     1
271
     1
  0
XRECORD
  5
84CF
102
{ACAD_REACTORS
330
84CE
102
}
330
84CE
100
AcDbXrecord
280
     1
270
     1
271
     1
  0
XRECORD
  5
84D3
102
{ACAD_REACTORS
330
84CE
102
}
330
84CE
100
AcDbXrecord
280
     1
270
     1
271
     1
  0
XRECORD
  5
84D2
102
{ACAD_REACTORS
330
84CE
102
}
330
84CE
100
AcDbXrecord
280
     1
270
     1
271
     1
  0
XRECORD
  5
84D4
102
{ACAD_REACTORS
330
84CE
102
}
330
84CE
100
AcDbXrecord
280
     1
270
     1
271
     1
  0
XRECORD
  5
84D1
102
{ACAD_REACTORS
330
84CE
102
}
330
84CE
100
AcDbXrecord
280
     1
270
     1
271
     1
  0
XRECORD
  5
84E0
102
{ACAD_REACTORS
330
84DE
102
}
330
84DE
100
AcDbXrecord
280
     1
270
     1
271
     1
  0
XRECORD
  5
84DF
102
{ACAD_REACTORS
330
84DE
102
}
330
84DE
100
AcDbXrecord
280
     1
270
     1
271
     1
  0
XRECORD
  5
84E3
102
{ACAD_REACTORS
330
84DE
102
}
330
84DE
100
AcDbXrecord
280
     1
270
     1
271
     1
  0
XRECORD
  5
84E2
102
{ACAD_REACTORS
330
84DE
102
}
330
84DE
100
AcDbXrecord
280
     1
270
     1
271
     1
  0
XRECORD
  5
84E4
102
{ACAD_REACTORS
330
84DE
102
}
330
84DE
100
AcDbXrecord
280
     1
270
     1
271
     1
  0
XRECORD
  5
84E1
102
{ACAD_REACTORS
330
84DE
102
}
330
84DE
100
AcDbXrecord
280
     1
270
     1
271
     1
  0
XRECORD
  5
856D
102
{ACAD_REACTORS
330
856C
102
}
330
856C
100
AcDbXrecord
280
     1
102
DISPLAYNAME
  1
Metric50
102
FLAGS
 90
        0
  0
CELLSTYLEMAP
  5
8562
102
{ACAD_REACTORS
330
8561
102
}
330
8561
100
AcDbCellStyleMap
 90
        3
300
CELLSTYLE
  1
TABLEFORMAT_BEGIN
 90
        5
170
     1
 91
        0
 92
    32768
 62
   257
 93
        1
300
CONTENTFORMAT
  1
CONTENTFORMAT_BEGIN
 90
        0
 91
        0
 92
      512
 93
        0
300

 40
0.0
140
1.0
 94
        5
 62
     0
340
10
144
6.0
309
CONTENTFORMAT_END
171
     1
301
MARGIN
  1
CELLMARGIN_BEGIN
 40
1.5
 40
1.5
 40
1.5
 40
1.5
 40
4.5
 40
4.5
309
CELLMARGIN_END
 94
        6
 95
        1
302
GRIDFORMAT
  1
GRIDFORMAT_BEGIN
 90
        0
 91
        1
 62
     0
 92
       -2
340
0
 93
        0
 40
1.125
309
GRIDFORMAT_END
 95
        2
302
GRIDFORMAT
  1
GRIDFORMAT_BEGIN
 90
        0
 91
        1
 62
     0
 92
       -2
340
0
 93
        0
 40
1.125
309
GRIDFORMAT_END
 95
        4
302
GRIDFORMAT
  1
GRIDFORMAT_BEGIN
 90
        0
 91
        1
 62
     0
 92
       -2
340
0
 93
        0
 40
1.125
309
GRIDFORMAT_END
 95
        8
302
GRIDFORMAT
  1
GRIDFORMAT_BEGIN
 90
        0
 91
        1
 62
     0
 92
       -2
340
0
 93
        0
 40
1.125
309
GRIDFORMAT_END
 95
       16
302
GRIDFORMAT
  1
GRIDFORMAT_BEGIN
 90
        0
 91
        1
 62
     0
 92
       -2
340
0
 93
        0
 40
1.125
309
GRIDFORMAT_END
 95
       32
302
GRIDFORMAT
  1
GRIDFORMAT_BEGIN
 90
        0
 91
        1
 62
     0
 92
       -2
340
0
 93
        0
 40
1.125
309
GRIDFORMAT_END
309
TABLEFORMAT_END
  1
CELLSTYLE_BEGIN
 90
        1
 91
        1
300
_TITLE
309
CELLSTYLE_END
300
CELLSTYLE
  1
TABLEFORMAT_BEGIN
 90
        5
170
     1
 91
        0
 92
        0
 62
   257
 93
        1
300
CONTENTFORMAT
  1
CONTENTFORMAT_BEGIN
 90
        0
 91
        0
 92
      512
 93
        0
300

 40
0.0
140
1.0
 94
        5
 62
     0
340
10
144
4.5
309
CONTENTFORMAT_END
171
     1
301
MARGIN
  1
CELLMARGIN_BEGIN
 40
1.5
 40
1.5
 40
1.5
 40
1.5
 40
4.5
 40
4.5
309
CELLMARGIN_END
 94
        6
 95
        1
302
GRIDFORMAT
  1
GRIDFORMAT_BEGIN
 90
        0
 91
        1
 62
     0
 92
       -2
340
0
 93
        0
 40
1.125
309
GRIDFORMAT_END
 95
        2
302
GRIDFORMAT
  1
GRIDFORMAT_BEGIN
 90
        0
 91
        1
 62
     0
 92
       -2
340
0
 93
        0
 40
1.125
309
GRIDFORMAT_END
 95
        4
302
GRIDFORMAT
  1
GRIDFORMAT_BEGIN
 90
        0
 91
        1
 62
     0
 92
       -2
340
0
 93
        0
 40
1.125
309
GRIDFORMAT_END
 95
        8
302
GRIDFORMAT
  1
GRIDFORMAT_BEGIN
 90
        0
 91
        1
 62
     0
 92
       -2
340
0
 93
        0
 40
1.125
309
GRIDFORMAT_END
 95
       16
302
GRIDFORMAT
  1
GRIDFORMAT_BEGIN
 90
        0
 91
        1
 62
     0
 92
       -2
340
0
 93
        0
 40
1.125
309
GRIDFORMAT_END
 95
       32
302
GRIDFORMAT
  1
GRIDFORMAT_BEGIN
 90
        0
 91
        1
 62
     0
 92
       -2
340
0
 93
        0
 40
1.125
309
GRIDFORMAT_END
309
TABLEFORMAT_END
  1
CELLSTYLE_BEGIN
 90
        2
 91
        1
300
_HEADER
309
CELLSTYLE_END
300
CELLSTYLE
  1
TABLEFORMAT_BEGIN
 90
        5
170
     1
 91
        0
 92
        0
 62
   257
 93
        1
300
CONTENTFORMAT
  1
CONTENTFORMAT_BEGIN
 90
        0
 91
        0
 92
      512
 93
        0
300

 40
0.0
140
1.0
 94
        2
 62
     0
340
10
144
4.5
309
CONTENTFORMAT_END
171
     1
301
MARGIN
  1
CELLMARGIN_BEGIN
 40
1.5
 40
1.5
 40
1.5
 40
1.5
 40
4.5
 40
4.5
309
CELLMARGIN_END
 94
        6
 95
        1
302
GRIDFORMAT
  1
GRIDFORMAT_BEGIN
 90
        0
 91
        1
 62
     0
 92
       -2
340
0
 93
        0
 40
1.125
309
GRIDFORMAT_END
 95
        2
302
GRIDFORMAT
  1
GRIDFORMAT_BEGIN
 90
        0
 91
        1
 62
     0
 92
       -2
340
0
 93
        0
 40
1.125
309
GRIDFORMAT_END
 95
        4
302
GRIDFORMAT
  1
GRIDFORMAT_BEGIN
 90
        0
 91
        1
 62
     0
 92
       -2
340
0
 93
        0
 40
1.125
309
GRIDFORMAT_END
 95
        8
302
GRIDFORMAT
  1
GRIDFORMAT_BEGIN
 90
        0
 91
        1
 62
     0
 92
       -2
340
0
 93
        0
 40
1.125
309
GRIDFORMAT_END
 95
       16
302
GRIDFORMAT
  1
GRIDFORMAT_BEGIN
 90
        0
 91
        1
 62
     0
 92
       -2
340
0
 93
        0
 40
1.125
309
GRIDFORMAT_END
 95
       32
302
GRIDFORMAT
  1
GRIDFORMAT_BEGIN
 90
        0
 91
        1
 62
     0
 92
       -2
340
0
 93
        0
 40
1.125
309
GRIDFORMAT_END
309
TABLEFORMAT_END
  1
CELLSTYLE_BEGIN
 90
        3
 91
        2
300
_DATA
309
CELLSTYLE_END
  0
ENDSEC
  0
SECTION
  2
ACDSDATA
 70
     2
 71
     8
  0
ACDSSCHEMA
 90
        0
  1
AcDb_Thumbnail_Schema
  2
AcDbDs::ID
280
    10
 91
        8
  2
Thumbnail_Data
280
    15
 91
        0
101
ACDSRECORD
 95
        0
 90
        1
  2
AcDbDs::TreatedAsObjectData
280
     1
291
     1
101
ACDSRECORD
 95
        0
 90
        2
  2
AcDbDs::Legacy
280
     1
291
     1
101
ACDSRECORD
  1
AcDbDs::ID
 90
        3
  2
AcDs:Indexable
280
     1
291
     1
101
ACDSRECORD
  1
AcDbDs::ID
 90
        4
  2
AcDbDs::HandleAttribute
280
     7
282
     1
  0
ACDSSCHEMA
 90
        1
  1
AcDbDs::TreatedAsObjectDataSchema
  2
AcDbDs::TreatedAsObjectData
280
     1
 91
        0
  0
ACDSSCHEMA
 90
        2
  1
AcDbDs::LegacySchema
  2
AcDbDs::Legacy
280
     1
 91
        0
  0
ACDSSCHEMA
 90
        3
  1
AcDbDs::IndexedPropertySchema
  2
AcDs:Indexable
280
     1
 91
        0
  0
ACDSSCHEMA
 90
        4
  1
AcDbDs::HandleAttributeSchema
  2
AcDbDs::HandleAttribute
280
     7
 91
        1
284
     1
  0
ACDSRECORD
 90
        0
  2
AcDbDs::ID
280
    10
320
843C
  2
Thumbnail_Data
280
    15
 94
     1386
310
89504E470D0A1A0A0000000D49484452000001000000007C0803000000B13B9E5A00000300504C5445000000000000C8C8C80000000000000000000000000000000000000000000000000000330000660000990000CC0000FF0033000033330033660033990033CC0033FF0066000066330066660066990066CC0066FF0099
310
000099330099660099990099CC0099FF00CC0000CC3300CC6600CC9900CCCC00CCFF00FF0000FF3300FF6600FF9900FFCC00FFFF3300003300333300663300993300CC3300FF3333003333333333663333993333CC3333FF3366003366333366663366993366CC3366FF3399003399333399663399993399CC3399FF33CC00
310
33CC3333CC6633CC9933CCCC33CCFF33FF0033FF3333FF6633FF9933FFCC33FFFF6600006600336600666600996600CC6600FF6633006633336633666633996633CC6633FF6666006666336666666666996666CC6666FF6699006699336699666699996699CC6699FF66CC0066CC3366CC6666CC9966CCCC66CCFF66FF0066
310
FF3366FF6666FF9966FFCC66FFFF9900009900339900669900999900CC9900FF9933009933339933669933999933CC9933FF9966009966339966669966999966CC9966FF9999009999339999669999999999CC9999FF99CC0099CC3399CC6699CC9999CCCC99CCFF99FF0099FF3399FF6699FF9999FFCC99FFFFCC0000CC00
310
33CC0066CC0099CC00CCCC00FFCC3300CC3333CC3366CC3399CC33CCCC33FFCC6600CC6633CC6666CC6699CC66CCCC66FFCC9900CC9933CC9966CC9999CC99CCCC99FFCCCC00CCCC33CCCC66CCCC99CCCCCCCCCCFFCCFF00CCFF33CCFF66CCFF99CCFFCCCCFFFFFF0000FF0033FF0066FF0099FF00CCFF00FFFF3300FF3333
310
FF3366FF3399FF33CCFF33FFFF6600FF6633FF6666FF6699FF66CCFF66FFFF9900FF9933FF9966FF9999FF99CCFF99FFFFCC00FFCC33FFCC66FFCC99FFCCCCFFCCFFFFFF00FFFF33FFFF66FFFF99FFFFCCFFFFFF0000000D0D0D1A1A1A2828283535354343435050505D5D5D6B6B6B787878868686939393A1A1A1AEAEAEBB
310
BBBBC9C9C9D6D6D6E4E4E4F1F1F1FFFFFF00000000000000000000000000000000000000000000000000000000000008F1915C000002254944415478DAED9C5192C2200C40390E3FB9FF65B886FF5B81400AD519DD194793F7C6C5DADA8FBE0D01D2EDA604000000000000F00F6E6FE247C0474F4300027E54C0D6FB230A38
310
9D1032025C0B787500F427E0C5131C0AB8FC65DFFAA191061C47C0C388A70BC4E802D193E0C9413217DBFB7DDBE97B2678D9EDBB805B04012F7DD1AD80524AD0C550D98826603D8080C002724801B2F2340FF81320A6CDBA8D0004041220928F9F93805839408EEB3E244C244714103E0222E70004DC0558C28D023A08B440
310
88296099094712906C008CCD50027AEE6B4930A2803A133419309A808F9CF6FD051193F94A30014FABA2FA71ECF61A01A5D6C5B57DE0C6B580AB0858367C0BD85ADD881201DA8EB96051017386E85E409B0688682628BA3EC8F5DDB900913E259456101902DA54F178F32E40EB01B50B580149726DDD0B10ED02AB80BE4CAE
310
BB5D0AC8F6FE9011A08B8311014E05D895506BFB28D03ECE1CE034024E579F76017314702D20DF5F799684AA80BC968A1C0AC8A55D791E5130D73EED2E891D1D7C46C05613D62140B45C36E607118AA2C908909300A73960AB0A4B9A9380B4B9F13A0FE80941673E6351BCDC31727C7B7CB92F300404880023A06C02CADCEF
310
7A2D602B7FA56E8CA34BA92CC65F8A96EBB2A04F0157C4BA37F891D310F00302E23E32B308E847CDE322FD154BC0F5A3847481481190E66354E6042280611001084000021080000702A2FF2F3100000000000000000000000000000080EFE40FB9E8F0858015B1010000000049454E44AE426082
  0
ENDSEC
  0
EOF
