  0
SECTION
  2
HEADER
  9
$ACADVER
  1
AC1027
  9
$ACADMAINTVER
 70
   125
  9
$DWGCODEPAGE
  3
ANSI_932
  9
$LASTSAVEDBY
  1
yasukiyo.ogawa
  9
$REQUIREDVERSIONS
160
                 0
  9
$INSBASE
 10
0.0
 20
0.0
 30
0.0
  9
$EXTMIN
 10
0.0
 20
0.0
 30
0.0
  9
$EXTMAX
 10
3150.0
 20
4425.0
 30
0.0
  9
$LIMMIN
 10
0.0
 20
0.0
  9
$LIMMAX
 10
297.0
 20
210.0
  9
$ORTHOMODE
 70
     1
  9
$REGENMODE
 70
     1
  9
$FILLMODE
 70
     0
  9
$QTEXTMODE
 70
     0
  9
$MIRRTEXT
 70
     1
  9
$LTSCALE
 40
100.0
  9
$ATTMODE
 70
     1
  9
$TEXTSIZE
 40
180.0
  9
$TRACEWID
 40
0.05
  9
$TEXTSTYLE
  7
STANDARD
  9
$CLAYER
  8
3
  9
$CELTYPE
  6
BYLAYER
  9
$CECOLOR
 62
   256
  9
$CELTSCALE
 40
1.0
  9
$DISPSILH
 70
     0
  9
$DIMSCALE
 40
15.0
  9
$DIMASZ
 40
2.0
  9
$DIMEXO
 40
0.5
  9
$DIMDLI
 40
10.0
  9
$DIMRND
 40
0.0
  9
$DIMDLE
 40
0.0
  9
$DIMEXE
 40
1.0
  9
$DIMTP
 40
1.0
  9
$DIMTM
 40
1.0
  9
$DIMTXT
 40
3.0
  9
$DIMCEN
 40
0.0
  9
$DIMTSZ
 40
0.0
  9
$DIMTOL
 70
     0
  9
$DIMLIM
 70
     0
  9
$DIMTIH
 70
     0
  9
$DIMTOH
 70
     0
  9
$DIMSE1
 70
     0
  9
$DIMSE2
 70
     0
  9
$DIMTAD
 70
     1
  9
$DIMZIN
 70
     8
  9
$DIMBLK
  1

  9
$DIMASO
 70
     1
  9
$DIMSHO
 70
     1
  9
$DIMPOST
  1
(<>)
  9
$DIMAPOST
  1

  9
$DIMALT
 70
     0
  9
$DIMALTD
 70
     2
  9
$DIMALTF
 40
0.039
  9
$DIMLFAC
 40
1.0
  9
$DIMTOFL
 70
     1
  9
$DIMTVP
 40
0.0
  9
$DIMTIX
 70
     0
  9
$DIMSOXD
 70
     0
  9
$DIMSAH
 70
     1
  9
$DIMBLK1
  1
OPEN
  9
$DIMBLK2
  1
OPEN
  9
$DIMSTYLE
  2
IGA
  9
$DIMCLRD
 70
     0
  9
$DIMCLRE
 70
     0
  9
$DIMCLRT
 70
     0
  9
$DIMTFAC
 40
10.0
  9
$DIMGAP
 40
1.0
  9
$DIMJUST
 70
     0
  9
$DIMSD1
 70
     0
  9
$DIMSD2
 70
     0
  9
$DIMTOLJ
 70
     1
  9
$DIMTZIN
 70
     8
  9
$DIMALTZ
 70
     0
  9
$DIMALTTZ
 70
     0
  9
$DIMUPT
 70
     0
  9
$DIMDEC
 70
     0
  9
$DIMTDEC
 70
     0
  9
$DIMALTU
 70
     2
  9
$DIMALTTD
 70
     2
  9
$DIMTXSTY
  7
STANDARD
  9
$DIMAUNIT
 70
     0
  9
$DIMADEC
 70
     0
  9
$DIMALTRND
 40
0.0
  9
$DIMAZIN
 70
     0
  9
$DIMDSEP
 70
    46
  9
$DIMATFIT
 70
     3
  9
$DIMFRAC
 70
     0
  9
$DIMLDRBLK
  1
OPEN
  9
$DIMLUNIT
 70
     2
  9
$DIMLWD
 70
    -2
  9
$DIMLWE
 70
    -2
  9
$DIMTMOVE
 70
     2
  9
$DIMFXL
 40
1.0
  9
$DIMFXLON
 70
     0
  9
$DIMJOGANG
 40
0.7853981633974483
  9
$DIMTFILL
 70
     0
  9
$DIMTFILLCLR
 70
     0
  9
$DIMARCSYM
 70
     0
  9
$DIMLTYPE
  6

  9
$DIMLTEX1
  6

  9
$DIMLTEX2
  6

  9
$DIMTXTDIRECTION
 70
     0
  9
$LUNITS
 70
     2
  9
$LUPREC
 70
     3
  9
$SKETCHINC
 40
0.1
  9
$FILLETRAD
 40
50.0
  9
$AUNITS
 70
     0
  9
$AUPREC
 70
     0
  9
$MENU
  1
acad
  9
$ELEVATION
 40
0.0
  9
$PELEVATION
 40
0.0
  9
$THICKNESS
 40
0.0
  9
$LIMCHECK
 70
     0
  9
$CHAMFERA
 40
0.5
  9
$CHAMFERB
 40
0.5
  9
$CHAMFERC
 40
20.0
  9
$CHAMFERD
 40
0.0
  9
$SKPOLY
 70
     0
  9
$TDCREATE
 40
2451372.488287038
  9
$TDUCREATE
 40
2451372.113297801
  9
$TDUPDATE
 40
2460216.533368056
  9
$TDUUPDATE
 40
2460216.158371817
  9
$TDINDWG
 40
0.0208398264
  9
$TDUSRTIMER
 40
0.0208398264
  9
$USRTIMER
 70
     1
  9
$ANGBASE
 50
0.0
  9
$ANGDIR
 70
     0
  9
$PDMODE
 70
     0
  9
$PDSIZE
 40
0.0
  9
$PLINEWID
 40
0.0
  9
$SPLFRAME
 70
     0
  9
$SPLINETYPE
 70
     6
  9
$SPLINESEGS
 70
     8
  9
$HANDSEED
  5
8572
  9
$SURFTAB1
 70
     6
  9
$SURFTAB2
 70
     6
  9
$SURFTYPE
 70
     6
  9
$SURFU
 70
     6
  9
$SURFV
 70
     6
  9
$UCSBASE
  2

  9
$UCSNAME
  2

  9
$UCSORG
 10
0.0
 20
0.0
 30
0.0
  9
$UCSXDIR
 10
1.0
 20
0.0
 30
0.0
  9
$UCSYDIR
 10
0.0
 20
1.0
 30
0.0
  9
$UCSORTHOREF
  2

  9
$UCSORTHOVIEW
 70
     0
  9
$UCSORGTOP
 10
0.0
 20
0.0
 30
0.0
  9
$UCSORGBOTTOM
 10
0.0
 20
0.0
 30
0.0
  9
$UCSORGLEFT
 10
0.0
 20
0.0
 30
0.0
  9
$UCSORGRIGHT
 10
0.0
 20
0.0
 30
0.0
  9
$UCSORGFRONT
 10
0.0
 20
0.0
 30
0.0
  9
$UCSORGBACK
 10
0.0
 20
0.0
 30
0.0
  9
$PUCSBASE
  2

  9
$PUCSNAME
  2

  9
$PUCSORG
 10
0.0
 20
0.0
 30
0.0
  9
$PUCSXDIR
 10
1.0
 20
0.0
 30
0.0
  9
$PUCSYDIR
 10
0.0
 20
1.0
 30
0.0
  9
$PUCSORTHOREF
  2

  9
$PUCSORTHOVIEW
 70
     0
  9
$PUCSORGTOP
 10
0.0
 20
0.0
 30
0.0
  9
$PUCSORGBOTTOM
 10
0.0
 20
0.0
 30
0.0
  9
$PUCSORGLEFT
 10
0.0
 20
0.0
 30
0.0
  9
$PUCSORGRIGHT
 10
0.0
 20
0.0
 30
0.0
  9
$PUCSORGFRONT
 10
0.0
 20
0.0
 30
0.0
  9
$PUCSORGBACK
 10
0.0
 20
0.0
 30
0.0
  9
$USERI1
 70
     0
  9
$USERI2
 70
     0
  9
$USERI3
 70
     0
  9
$USERI4
 70
     0
  9
$USERI5
 70
     0
  9
$USERR1
 40
0.0
  9
$USERR2
 40
0.0
  9
$USERR3
 40
0.0
  9
$USERR4
 40
0.0
  9
$USERR5
 40
0.0
  9
$WORLDVIEW
 70
     1
  9
$SHADEDGE
 70
     3
  9
$SHADEDIF
 70
    70
  9
$TILEMODE
 70
     1
  9
$MAXACTVP
 70
    16
  9
$PINSBASE
 10
0.0
 20
0.0
 30
0.0
  9
$PLIMCHECK
 70
     0
  9
$PEXTMIN
 10
1.000000000000000E+20
 20
1.000000000000000E+20
 30
1.000000000000000E+20
  9
$PEXTMAX
 10
-1.000000000000000E+20
 20
-1.000000000000000E+20
 30
-1.000000000000000E+20
  9
$PLIMMIN
 10
0.0
 20
0.0
  9
$PLIMMAX
 10
12.0
 20
9.0
  9
$UNITMODE
 70
     0
  9
$VISRETAIN
 70
     0
  9
$PLINEGEN
 70
     0
  9
$PSLTSCALE
 70
     1
  9
$TREEDEPTH
 70
  3020
  9
$CMLSTYLE
  2
STANDARD
  9
$CMLJUST
 70
     0
  9
$CMLSCALE
 40
20.0
  9
$PROXYGRAPHICS
 70
     1
  9
$MEASUREMENT
 70
     1
  9
$CELWEIGHT
370
    -1
  9
$ENDCAPS
280
     0
  9
$JOINSTYLE
280
     0
  9
$LWDISPLAY
290
     0
  9
$INSUNITS
 70
     0
  9
$HYPERLINKBASE
  1

  9
$STYLESHEET
  1

  9
$XEDIT
290
     1
  9
$CEPSNTYPE
380
     0
  9
$PSTYLEMODE
290
     1
  9
$FINGERPRINTGUID
  2
{2CE74417-2CEE-47BB-A156-04366AA21ABA}
  9
$VERSIONGUID
  2
{79CAA3F2-E3CE-4BD2-BDA8-DC0657021529}
  9
$EXTNAMES
290
     1
  9
$PSVPSCALE
 40
0.0
  9
$OLESTARTUP
290
     0
  9
$SORTENTS
280
   127
  9
$INDEXCTL
280
     0
  9
$HIDETEXT
280
     0
  9
$XCLIPFRAME
280
     2
  9
$HALOGAP
280
     0
  9
$OBSCOLOR
 70
   257
  9
$OBSLTYPE
280
     0
  9
$INTERSECTIONDISPLAY
280
     0
  9
$INTERSECTIONCOLOR
 70
   257
  9
$DIMASSOC
280
     1
  9
$PROJECTNAME
  1

  9
$CAMERADISPLAY
290
     0
  9
$LENSLENGTH
 40
50.0
  9
$CAMERAHEIGHT
 40
0.0
  9
$STEPSPERSEC
 40
2.0
  9
$STEPSIZE
 40
6.0
  9
$3DDWFPREC
 40
2.0
  9
$PSOLWIDTH
 40
0.25
  9
$PSOLHEIGHT
 40
4.0
  9
$LOFTANG1
 40
1.570796326794896
  9
$LOFTANG2
 40
1.570796326794896
  9
$LOFTMAG1
 40
0.0
  9
$LOFTMAG2
 40
0.0
  9
$LOFTPARAM
 70
     7
  9
$LOFTNORMALS
280
     1
  9
$LATITUDE
 40
37.795
  9
$LONGITUDE
 40
-122.394
  9
$NORTHDIRECTION
 40
0.0
  9
$TIMEZONE
 70
 -8000
  9
$LIGHTGLYPHDISPLAY
280
     1
  9
$TILEMODELIGHTSYNCH
280
     1
  9
$CMATERIAL
347
84CF
  9
$SOLIDHIST
280
     0
  9
$SHOWHIST
280
     1
  9
$DWFFRAME
280
     2
  9
$DGNFRAME
280
     0
  9
$REALWORLDSCALE
290
     1
  9
$INTERFERECOLOR
 62
     1
  9
$INTERFEREOBJVS
345
84F1
  9
$INTERFEREVPVS
346
84EE
  9
$CSHADOW
280
     0
  9
$SHADOWPLANELOCATION
 40
0.0
  0
ENDSEC
  0
SECTION
  2
CLASSES
  0
CLASS
  1
ACDBDICTIONARYWDFLT
  2
AcDbDictionaryWithDefault
  3
ObjectDBX Classes
 90
        0
 91
        1
280
     0
281
     0
  0
CLASS
  1
MATERIAL
  2
AcDbMaterial
  3
ObjectDBX Classes
 90
     1153
 91
        3
280
     0
281
     0
  0
CLASS
  1
VISUALSTYLE
  2
AcDbVisualStyle
  3
ObjectDBX Classes
 90
     4095
 91
       24
280
     0
281
     0
  0
CLASS
  1
TABLESTYLE
  2
AcDbTableStyle
  3
ObjectDBX Classes
 90
     4095
 91
        1
280
     0
281
     0
  0
CLASS
  1
SCALE
  2
AcDbScale
  3
ObjectDBX Classes
 90
     1153
 91
       17
280
     0
281
     0
  0
CLASS
  1
MLEADERSTYLE
  2
AcDbMLeaderStyle
  3
ACDB_MLEADERSTYLE_CLASS
 90
     4095
 91
        1
280
     0
281
     0
  0
CLASS
  1
ACDBSECTIONVIEWSTYLE
  2
AcDbSectionViewStyle
  3
ObjectDBX Classes
 90
     1025
 91
        1
280
     0
281
     0
  0
CLASS
  1
ACDBDETAILVIEWSTYLE
  2
AcDbDetailViewStyle
  3
ObjectDBX Classes
 90
     1025
 91
        1
280
     0
281
     0
  0
CLASS
  1
SORTENTSTABLE
  2
AcDbSortentsTable
  3
ObjectDBX Classes
 90
        0
 91
        1
280
     0
281
     0
  0
CLASS
  1
DICTIONARYVAR
  2
AcDbDictionaryVar
  3
ObjectDBX Classes
 90
        0
 91
       10
280
     0
281
     0
  0
CLASS
  1
CELLSTYLEMAP
  2
AcDbCellStyleMap
  3
ObjectDBX Classes
 90
     1152
 91
        1
280
     0
281
     0
  0
ENDSEC
  0
SECTION
  2
TABLES
  0
TABLE
  2
VPORT
  5
8
330
0
100
AcDbSymbolTable
 70
     1
1001
ACAD
1000
DbSaveVer
1071
      278
  0
VPORT
  5
84CC
330
8
100
AcDbSymbolTableRecord
100
AcDbViewportTableRecord
  2
*Active
 70
     0
 10
0.0
 20
0.0
 11
1.0
 21
1.0
 12
2020.585139495969
 22
2212.500010302757
 13
0.0
 23
0.0
 14
10.0
 24
10.0
 15
10.0
 25
10.0
 16
0.0
 26
0.0
 36
1.0
 17
0.0
 27
0.0
 37
0.0
 40
4453.60692206448
 41
2.250314465408805
 42
50.0
 43
0.0
 44
0.0
 50
0.0
 51
0.0
 71
     0
 72
   100
 73
     1
 74
     0
 75
     0
 76
     0
 77
     0
 78
     0
281
     0
 65
     1
110
0.0
120
0.0
130
0.0
111
1.0
121
0.0
131
0.0
112
0.0
122
1.0
132
0.0
 79
     0
146
0.0
348
84ED
 60
     3
 61
     5
292
     1
282
     1
141
0.0
142
0.0
 63
   250
421
  3355443
1001
ACAD_NAV_VCDISPLAY
1070
     3
  0
ENDTAB
  0
TABLE
  2
LTYPE
  5
5
330
0
100
AcDbSymbolTable
 70
     2
  0
LTYPE
  5
13
330
5
100
AcDbSymbolTableRecord
100
AcDbLinetypeTableRecord
  2
BYBLOCK
 70
     0
  3

 72
    65
 73
     0
 40
0.0
  0
LTYPE
  5
14
330
5
100
AcDbSymbolTableRecord
100
AcDbLinetypeTableRecord
  2
BYLAYER
 70
     0
  3

 72
    65
 73
     0
 40
0.0
  0
LTYPE
  5
15
330
5
100
AcDbSymbolTableRecord
100
AcDbLinetypeTableRecord
  2
CONTINUOUS
 70
     0
  3
Solid line
 72
    65
 73
     0
 40
0.0
  0
LTYPE
  5
1F
330
5
100
AcDbSymbolTableRecord
100
AcDbLinetypeTableRecord
  2
CENTER
 70
     0
  3
____ _ ____ _ ____ _ ____ _ ____ _ ____ _ ____ 
 72
    65
 73
     4
 40
2.0
 49
1.25
 74
     0
 49
-0.25
 74
     0
 49
0.25
 74
     0
 49
-0.25
 74
     0
  0
ENDTAB
  0
TABLE
  2
LAYER
  5
2
102
{ACAD_XDICTIONARY
360
8548
102
}
330
0
100
AcDbSymbolTable
 70
     6
  0
LAYER
  5
F
102
{ACAD_XDICTIONARY
360
853B
102
}
330
2
100
AcDbSymbolTableRecord
100
AcDbLayerTableRecord
  2
0
 70
     0
 62
     7
  6
CONTINUOUS
370
    -3
390
845F
347
84DF
348
0
  0
LAYER
  5
31
102
{ACAD_XDICTIONARY
360
853D
102
}
330
2
100
AcDbSymbolTableRecord
100
AcDbLayerTableRecord
  2
3
 70
     0
 62
     2
  6
CONTINUOUS
370
    -3
390
845F
347
84DF
348
0
  0
LAYER
  5
76D0
102
{ACAD_XDICTIONARY
360
853F
102
}
330
2
100
AcDbSymbolTableRecord
100
AcDbLayerTableRecord
  2
2
 70
     0
 62
     3
  6
CENTER
370
    -3
390
845F
347
84DF
348
0
  0
LAYER
  5
76D1
102
{ACAD_XDICTIONARY
360
8541
102
}
330
2
100
AcDbSymbolTableRecord
100
AcDbLayerTableRecord
  2
1
 70
     0
 62
     4
  6
CONTINUOUS
370
    -3
390
845F
347
84DF
348
0
  0
LAYER
  5
76D2
102
{ACAD_XDICTIONARY
360
8543
102
}
330
2
100
AcDbSymbolTableRecord
100
AcDbLayerTableRecord
  2
4
 70
     0
 62
     7
  6
CONTINUOUS
370
    -3
390
845F
347
84DF
348
0
  0
LAYER
  5
7B0A
330
2
100
AcDbSymbolTableRecord
100
AcDbLayerTableRecord
  2
DEFPOINTS
 70
     0
 62
     7
  6
CONTINUOUS
290
     0
370
    -3
390
845F
347
84DF
348
0
  0
ENDTAB
  0
TABLE
  2
STYLE
  5
3
330
0
100
AcDbSymbolTable
 70
     1
  0
STYLE
  5
10
330
3
100
AcDbSymbolTableRecord
100
AcDbTextStyleTableRecord
  2
STANDARD
 70
     0
 40
0.0
 41
1.0
 50
0.0
 71
     0
 42
180.0
  3
simplex.shx
  4
extfont.shx
  0
ENDTAB
  0
TABLE
  2
VIEW
  5
6
330
0
100
AcDbSymbolTable
 70
     0
  0
ENDTAB
  0
TABLE
  2
UCS
  5
7
330
0
100
AcDbSymbolTable
 70
     0
  0
ENDTAB
  0
TABLE
  2
APPID
  5
9
330
0
100
AcDbSymbolTable
 70
     4
  0
APPID
  5
11
330
9
100
AcDbSymbolTableRecord
100
AcDbRegAppTableRecord
  2
ACAD
 70
     0
  0
APPID
  5
8520
330
9
100
AcDbSymbolTableRecord
100
AcDbRegAppTableRecord
  2
AcadAnnoMonitorAlertIconDisabled
 70
     0
  0
APPID
  5
8521
330
9
100
AcDbSymbolTableRecord
100
AcDbRegAppTableRecord
  2
ACAD_EXEMPT_FROM_CAD_STANDARDS
 70
     0
  0
APPID
  5
854E
330
9
100
AcDbSymbolTableRecord
100
AcDbRegAppTableRecord
  2
ACAD_NAV_VCDISPLAY
 70
     0
  0
ENDTAB
  0
TABLE
  2
DIMSTYLE
  5
A
330
0
100
AcDbSymbolTable
 70
     2
100
AcDbDimStyleTable
 71
     0
  0
DIMSTYLE
105
1D
102
{ACAD_REACTORS
330
81A7
330
8403
330
8410
330
841D
330
842A
330
8437
330
8444
102
}
330
A
100
AcDbSymbolTableRecord
100
AcDbDimStyleTableRecord
  2
IGA
 70
     0
 40
2.0
 41
2.0
 42
0.5
 43
10.0
 44
1.0
 47
1.0
 48
1.0
 73
     0
 74
     0
 77
     1
 78
     8
140
3.0
141
0.0
143
0.03937
146
10.0
147
1.0
173
     1
271
     1
272
     0
279
     2
284
     8
340
10
341
79FC
343
79FC
344
79FC
  0
DIMSTYLE
105
7B0C
102
{ACAD_REACTORS
330
8153
330
8154
330
8159
330
8172
330
8187
330
8192
330
8193
330
8196
330
8197
330
8198
330
819A
330
819F
102
}
330
A
100
AcDbSymbolTableRecord
100
AcDbDimStyleTableRecord
  2
MATSU
 70
     0
 41
2.0
 42
1.0
 43
10.0
 44
1.0
 73
     0
 74
     0
 77
     1
 78
     8
140
3.0
141
0.0
143
0.03937
147
0.5
172
     1
173
     1
176
   256
177
   256
178
   256
284
     8
289
     0
340
10
341
79FC
343
79FC
344
79FC
  0
ENDTAB
  0
TABLE
  2
BLOCK_RECORD
  5
1
330
0
100
AcDbSymbolTable
 70
    23
  0
BLOCK_RECORD
  5
19
102
{ACAD_XDICTIONARY
360
848D
102
}
330
1
100
AcDbSymbolTableRecord
100
AcDbBlockTableRecord
  2
*MODEL_SPACE
340
8462
 70
     0
280
     1
281
     0
  0
BLOCK_RECORD
  5
16
102
{ACAD_XDICTIONARY
360
848B
102
}
330
1
100
AcDbSymbolTableRecord
100
AcDbBlockTableRecord
  2
*PAPER_SPACE
340
8463
 70
     0
280
     1
281
     0
  0
BLOCK_RECORD
  5
79FC
330
1
100
AcDbSymbolTableRecord
100
AcDbBlockTableRecord
  2
_OPEN
340
0
102
{BLKREFS
331
8416
331
8417
331
8423
331
8424
331
843D
331
843E
331
849A
331
849B
331
84AA
331
84AB
331
84B6
331
8300
331
8301
331
830B
331
830C
331
8316
331
8317
331
836B
331
836C
331
8376
331
8377
331
8381
331
8382
331
83A0
331
83A1
331
83B6
331
83B7
331
83C1
331
83C2
331
83FC
331
83FD
331
8409
331
840A
331
8535
331
8536
102
}
 70
     0
280
     1
281
     0
  0
BLOCK_RECORD
  5
7F29
330
1
100
AcDbSymbolTableRecord
100
AcDbBlockTableRecord
  2
_DOT
340
0
102
{BLKREFS
331
84B5
102
}
 70
     0
280
     1
281
     0
  0
BLOCK_RECORD
  5
8059
330
1
100
AcDbSymbolTableRecord
100
AcDbBlockTableRecord
  2
YA_N
340
0
102
{BLKREFS
331
81A8
331
81A9
331
81AA
331
81AB
331
81AC
331
81AD
331
81AE
102
}
 70
     0
280
     1
281
     0
  0
BLOCK_RECORD
  5
8202
330
1
100
AcDbSymbolTableRecord
100
AcDbBlockTableRecord
  2
*D3
340
0
 70
     0
280
     1
281
     0
  0
BLOCK_RECORD
  5
820E
330
1
100
AcDbSymbolTableRecord
100
AcDbBlockTableRecord
  2
*D4
340
0
 70
     0
280
     1
281
     0
  0
BLOCK_RECORD
  5
821A
330
1
100
AcDbSymbolTableRecord
100
AcDbBlockTableRecord
  2
*D5
340
0
 70
     0
280
     1
281
     0
  0
BLOCK_RECORD
  5
8226
330
1
100
AcDbSymbolTableRecord
100
AcDbBlockTableRecord
  2
*D6
340
0
 70
     0
280
     1
281
     0
  0
BLOCK_RECORD
  5
8277
330
1
100
AcDbSymbolTableRecord
100
AcDbBlockTableRecord
  2
*D7
340
0
 70
     0
280
     1
281
     0
  0
BLOCK_RECORD
  5
8283
330
1
100
AcDbSymbolTableRecord
100
AcDbBlockTableRecord
  2
*D8
340
0
 70
     0
280
     1
281
     0
  0
BLOCK_RECORD
  5
828F
330
1
100
AcDbSymbolTableRecord
100
AcDbBlockTableRecord
  2
*D9
340
0
 70
     0
280
     1
281
     0
  0
BLOCK_RECORD
  5
829B
330
1
100
AcDbSymbolTableRecord
100
AcDbBlockTableRecord
  2
*D10
340
0
 70
     0
280
     1
281
     0
  0
BLOCK_RECORD
  5
82A6
330
1
100
AcDbSymbolTableRecord
100
AcDbBlockTableRecord
  2
*D11
340
0
 70
     0
280
     1
281
     0
  0
BLOCK_RECORD
  5
82B1
330
1
100
AcDbSymbolTableRecord
100
AcDbBlockTableRecord
  2
*D12
340
0
 70
     0
280
     1
281
     0
  0
BLOCK_RECORD
  5
82C9
330
1
100
AcDbSymbolTableRecord
100
AcDbBlockTableRecord
  2
*D13
340
0
 70
     0
280
     1
281
     0
  0
BLOCK_RECORD
  5
82D5
330
1
100
AcDbSymbolTableRecord
100
AcDbBlockTableRecord
  2
*D14
340
0
 70
     0
280
     1
281
     0
  0
BLOCK_RECORD
  5
82EE
330
1
100
AcDbSymbolTableRecord
100
AcDbBlockTableRecord
  2
*D15
340
0
 70
     0
280
     1
281
     0
  0
BLOCK_RECORD
  5
83F7
330
1
100
AcDbSymbolTableRecord
100
AcDbBlockTableRecord
  2
*D16
340
0
 70
     0
280
     1
281
     0
  0
BLOCK_RECORD
  5
8404
330
1
100
AcDbSymbolTableRecord
100
AcDbBlockTableRecord
  2
*D17
340
0
 70
     0
280
     1
281
     0
  0
BLOCK_RECORD
  5
8411
330
1
100
AcDbSymbolTableRecord
100
AcDbBlockTableRecord
  2
*D18
340
0
 70
     0
280
     1
281
     0
  0
BLOCK_RECORD
  5
841E
330
1
100
AcDbSymbolTableRecord
100
AcDbBlockTableRecord
  2
*D19
340
0
 70
     0
280
     1
281
     0
  0
BLOCK_RECORD
  5
842B
330
1
100
AcDbSymbolTableRecord
100
AcDbBlockTableRecord
  2
_NONE
340
0
 70
     0
280
     1
281
     0
  0
BLOCK_RECORD
  5
842F
330
1
100
AcDbSymbolTableRecord
100
AcDbBlockTableRecord
  2
*D21
340
0
 70
     0
280
     1
281
     0
  0
BLOCK_RECORD
  5
8438
330
1
100
AcDbSymbolTableRecord
100
AcDbBlockTableRecord
  2
*D22
340
0
 70
     0
280
     1
281
     0
  0
ENDTAB
  0
ENDSEC
  0
SECTION
  2
BLOCKS
  0
BLOCK
  5
1A
330
19
100
AcDbEntity
  8
0
100
AcDbBlockBegin
  2
*MODEL_SPACE
 70
     0
 10
0.0
 20
0.0
 30
0.0
  3
*MODEL_SPACE
  1

  0
ENDBLK
  5
1B
330
19
100
AcDbEntity
  8
0
100
AcDbBlockEnd
  0
BLOCK
  5
17
330
16
100
AcDbEntity
 67
     1
  8
0
100
AcDbBlockBegin
  2
*PAPER_SPACE
 70
     0
 10
0.0
 20
0.0
 30
0.0
  3
*PAPER_SPACE
  1

  0
ENDBLK
  5
18
330
16
100
AcDbEntity
 67
     1
  8
0
100
AcDbBlockEnd
  0
BLOCK
  5
7A00
330
79FC
100
AcDbEntity
  8
0
100
AcDbBlockBegin
  2
_OPEN
 70
     0
 10
0.0
 20
0.0
 30
0.0
  3
_OPEN
  1

  0
LINE
  5
79FD
330
79FC
100
AcDbEntity
  8
0
  6
ByBlock
 62
     0
100
AcDbLine
 10
-1.0
 20
0.1666666666666666
 30
0.0
 11
0.0
 21
0.0
 31
0.0
  0
LINE
  5
79FE
330
79FC
100
AcDbEntity
  8
0
  6
ByBlock
 62
     0
100
AcDbLine
 10
0.0
 20
0.0
 30
0.0
 11
-1.0
 21
-0.1666666666666666
 31
0.0
  0
LINE
  5
79FF
330
79FC
100
AcDbEntity
  8
0
  6
ByBlock
 62
     0
100
AcDbLine
 10
0.0
 20
0.0
 30
0.0
 11
-1.0
 21
0.0
 31
0.0
  0
ENDBLK
  5
7A01
330
79FC
100
AcDbEntity
  8
0
100
AcDbBlockEnd
  0
BLOCK
  5
7F2F
330
7F29
100
AcDbEntity
  8
0
100
AcDbBlockBegin
  2
_DOT
 70
     0
 10
0.0
 20
0.0
 30
0.0
  3
_DOT
  1

  0
LWPOLYLINE
  5
7F2A
330
7F29
100
AcDbEntity
  8
0
  6
ByBlock
 62
     0
100
AcDbPolyline
 90
        2
 70
     1
 43
0.25
 10
-0.125
 20
0.0
 42
1.0
 10
0.125
 20
0.0
 42
1.0
  0
LINE
  5
7F2E
330
7F29
100
AcDbEntity
  8
0
  6
ByBlock
 62
     0
100
AcDbLine
 10
-0.25
 20
0.0
 30
0.0
 11
-1.0
 21
0.0
 31
0.0
  0
ENDBLK
  5
7F30
330
7F29
100
AcDbEntity
  8
0
100
AcDbBlockEnd
  0
BLOCK
  5
805A
330
8059
100
AcDbEntity
  8
0
100
AcDbBlockBegin
  2
YA_N
 70
     0
 10
0.0
 20
0.0
 30
0.0
  3
YA_N
  1

  0
ENDBLK
  5
805B
330
8059
100
AcDbEntity
  8
0
100
AcDbBlockEnd
  0
BLOCK
  5
82FC
330
8202
100
AcDbEntity
  8
0
100
AcDbBlockBegin
  2
*D3
 70
     1
 10
0.0
 20
0.0
 30
0.0
  3
*D3
  1

  0
LINE
  5
82FD
330
8202
100
AcDbEntity
  8
0
  6
ByBlock
440
 16777216
100
AcDbLine
 10
5282.341285745403
 20
1908.349570101631
 30
0.0
 11
5282.341285745403
 21
2074.278899326693
 31
0.0
  0
LINE
  5
82FE
330
8202
100
AcDbEntity
  8
0
  6
ByBlock
440
 16777216
100
AcDbLine
 10
4858.341285745402
 20
1913.349570101631
 30
0.0
 11
4858.341285745402
 21
2074.278899326693
 31
0.0
  0
LINE
  5
82FF
330
8202
100
AcDbEntity
  8
0
  6
ByBlock
440
 16777216
100
AcDbLine
 10
5252.341285745402
 20
2059.278899326693
 30
0.0
 11
4888.341285745402
 21
2059.278899326693
 31
0.0
  0
INSERT
  5
8300
330
8202
100
AcDbEntity
  8
0
  6
ByBlock
440
 16777216
100
AcDbBlockReference
  2
_OPEN
 10
5282.341285745403
 20
2059.278899326693
 30
0.0
 41
30.0
 42
30.0
 43
30.0
  0
INSERT
  5
8301
330
8202
100
AcDbEntity
  8
0
  6
ByBlock
440
 16777216
100
AcDbBlockReference
  2
_OPEN
 10
4858.341285745402
 20
2059.278899326693
 30
0.0
 41
30.0
 42
30.0
 43
30.0
 50
180.0
  0
MTEXT
  5
8302
330
8202
100
AcDbEntity
  8
0
  6
ByBlock
440
 16777216
100
AcDbMText
 10
5070.341285745403
 20
2089.278899326693
 30
0.0
 40
45.0
 41
0.0
 46
0.0
 71
     5
 72
     5
  1
\A1;424
 73
     1
 44
1.0
  0
POINT
  5
8303
330
8202
100
AcDbEntity
  8
DEFPOINTS
  6
ByBlock
 62
     0
440
 16777216
100
AcDbPoint
 10
5282.341285745403
 20
1893.349570101631
 30
0.0
  0
POINT
  5
8304
330
8202
100
AcDbEntity
  8
DEFPOINTS
  6
ByBlock
 62
     0
440
 16777216
100
AcDbPoint
 10
4858.341285745402
 20
1898.349570101631
 30
0.0
  0
POINT
  5
8305
330
8202
100
AcDbEntity
  8
DEFPOINTS
  6
ByBlock
 62
     0
440
 16777216
100
AcDbPoint
 10
4858.341285745402
 20
2059.278899326693
 30
0.0
  0
ENDBLK
  5
8306
330
8202
100
AcDbEntity
  8
0
100
AcDbBlockEnd
  0
BLOCK
  5
8307
330
820E
100
AcDbEntity
  8
0
100
AcDbBlockBegin
  2
*D4
 70
     1
 10
0.0
 20
0.0
 30
0.0
  3
*D4
  1

  0
LINE
  5
8308
330
820E
100
AcDbEntity
  8
0
  6
ByBlock
440
 16777216
100
AcDbLine
 10
6631.227437279637
 20
1788.349570101631
 30
0.0
 11
6803.505957697161
 21
1788.349570101631
 31
0.0
  0
LINE
  5
8309
330
820E
100
AcDbEntity
  8
0
  6
ByBlock
440
 16777216
100
AcDbLine
 10
6631.227437279637
 20
1388.349570101631
 30
0.0
 11
6803.505957697161
 21
1388.349570101631
 31
0.0
  0
LINE
  5
830A
330
820E
100
AcDbEntity
  8
0
  6
ByBlock
440
 16777216
100
AcDbLine
 10
6788.505957697161
 20
1758.349570101631
 30
0.0
 11
6788.505957697161
 21
1418.349570101631
 31
0.0
  0
INSERT
  5
830B
330
820E
100
AcDbEntity
  8
0
  6
ByBlock
440
 16777216
100
AcDbBlockReference
  2
_OPEN
 10
6788.505957697161
 20
1788.349570101631
 30
0.0
 41
30.0
 42
30.0
 43
30.0
 50
90.0
  0
INSERT
  5
830C
330
820E
100
AcDbEntity
  8
0
  6
ByBlock
440
 16777216
100
AcDbBlockReference
  2
_OPEN
 10
6788.505957697161
 20
1388.349570101631
 30
0.0
 41
30.0
 42
30.0
 43
30.0
 50
270.0
  0
MTEXT
  5
830D
330
820E
100
AcDbEntity
  8
0
  6
ByBlock
440
 16777216
100
AcDbMText
 10
6758.505957697162
 20
1588.349570101631
 30
0.0
 40
45.0
 41
0.0
 46
0.0
 71
     5
 72
     5
  1
\A1;φ400
 11
0.0
 21
1.0
 31
0.0
 73
     1
 44
1.0
  0
POINT
  5
830E
330
820E
100
AcDbEntity
  8
DEFPOINTS
  6
ByBlock
 62
     0
440
 16777216
100
AcDbPoint
 10
6616.227437279636
 20
1788.349570101631
 30
0.0
  0
POINT
  5
830F
330
820E
100
AcDbEntity
  8
DEFPOINTS
  6
ByBlock
 62
     0
440
 16777216
100
AcDbPoint
 10
6616.227437279636
 20
1388.349570101631
 30
0.0
  0
POINT
  5
8310
330
820E
100
AcDbEntity
  8
DEFPOINTS
  6
ByBlock
 62
     0
440
 16777216
100
AcDbPoint
 10
6788.505957697161
 20
1388.349570101631
 30
0.0
  0
ENDBLK
  5
8311
330
820E
100
AcDbEntity
  8
0
100
AcDbBlockEnd
  0
BLOCK
  5
8312
330
821A
100
AcDbEntity
  8
0
100
AcDbBlockBegin
  2
*D5
 70
     1
 10
0.0
 20
0.0
 30
0.0
  3
*D5
  1

  0
LINE
  5
8313
330
821A
100
AcDbEntity
  8
0
  6
ByBlock
440
 16777216
100
AcDbLine
 10
5282.341285745403
 20
1908.349570101631
 30
0.0
 11
5282.341285745403
 21
1978.644749300858
 31
0.0
  0
LINE
  5
8314
330
821A
100
AcDbEntity
  8
0
  6
ByBlock
440
 16777216
100
AcDbLine
 10
4870.341285745403
 20
1908.349570101631
 30
0.0
 11
4870.341285745403
 21
1978.644749300858
 31
0.0
  0
LINE
  5
8315
330
821A
100
AcDbEntity
  8
0
  6
ByBlock
440
 16777216
100
AcDbLine
 10
5252.341285745402
 20
1963.644749300858
 30
0.0
 11
4900.341285745402
 21
1963.644749300858
 31
0.0
  0
INSERT
  5
8316
330
821A
100
AcDbEntity
  8
0
  6
ByBlock
440
 16777216
100
AcDbBlockReference
  2
_OPEN
 10
5282.341285745403
 20
1963.644749300858
 30
0.0
 41
30.0
 42
30.0
 43
30.0
  0
INSERT
  5
8317
330
821A
100
AcDbEntity
  8
0
  6
ByBlock
440
 16777216
100
AcDbBlockReference
  2
_OPEN
 10
4870.341285745403
 20
1963.644749300858
 30
0.0
 41
30.0
 42
30.0
 43
30.0
 50
180.0
  0
MTEXT
  5
8318
330
821A
100
AcDbEntity
  8
0
  6
ByBlock
440
 16777216
100
AcDbMText
 10
5076.341285745402
 20
1993.644749300858
 30
0.0
 40
45.0
 41
0.0
 46
0.0
 71
     5
 72
     5
  1
\A1;412
 73
     1
 44
1.0
  0
POINT
  5
8319
330
821A
100
AcDbEntity
  8
DEFPOINTS
  6
ByBlock
 62
     0
440
 16777216
100
AcDbPoint
 10
5282.341285745403
 20
1893.349570101631
 30
0.0
  0
POINT
  5
831A
330
821A
100
AcDbEntity
  8
DEFPOINTS
  6
ByBlock
 62
     0
440
 16777216
100
AcDbPoint
 10
4870.341285745403
 20
1893.349570101631
 30
0.0
  0
POINT
  5
831B
330
821A
100
AcDbEntity
  8
DEFPOINTS
  6
ByBlock
 62
     0
440
 16777216
100
AcDbPoint
 10
4870.341285745403
 20
1963.644749300858
 30
0.0
  0
ENDBLK
  5
831C
330
821A
100
AcDbEntity
  8
0
100
AcDbBlockEnd
  0
BLOCK
  5
831D
330
8226
100
AcDbEntity
  8
0
100
AcDbBlockBegin
  2
*D6
 70
     1
 10
0.0
 20
0.0
 30
0.0
  3
*D6
  1

  0
LINE
  5
8498
330
8226
100
AcDbEntity
  8
3
440
 16777216
100
AcDbLine
 10
732.4628727616182
 20
1183.349570101631
 30
0.0
 11
456.7412901308926
 21
1183.349570101631
 31
0.0
  0
LINE
  5
8499
330
8226
100
AcDbEntity
  8
3
440
 16777216
100
AcDbLine
 10
471.7412901308926
 20
1558.349570101631
 30
0.0
 11
471.7412901308925
 21
1213.349570101631
 31
0.0
  0
INSERT
  5
849A
330
8226
100
AcDbEntity
  8
3
440
 16777216
100
AcDbBlockReference
  2
_OPEN
 10
471.7412901308926
 20
1588.349570101631
 30
0.0
 41
30.0
 42
30.0
 43
30.0
 50
90.0
  0
INSERT
  5
849B
330
8226
100
AcDbEntity
  8
3
440
 16777216
100
AcDbBlockReference
  2
_OPEN
 10
471.7412901308925
 20
1183.349570101631
 30
0.0
 41
30.0
 42
30.0
 43
30.0
 50
270.0
  0
MTEXT
  5
849C
330
8226
100
AcDbEntity
  8
3
440
 16777216
100
AcDbMText
 10
441.7412901308924
 20
1385.849570101631
 30
0.0
 40
45.0
 41
0.0
 46
0.0
 71
     5
 72
     5
  1
\A1;405
 11
0.0000000000000001
 21
1.0
 31
0.0
 73
     1
 44
1.0
  0
POINT
  5
849D
330
8226
100
AcDbEntity
  8
DEFPOINTS
 62
     0
440
 16777216
100
AcDbPoint
 10
687.4628727616181
 20
1588.349570101631
 30
0.0
  0
POINT
  5
849E
330
8226
100
AcDbEntity
  8
DEFPOINTS
 62
     0
440
 16777216
100
AcDbPoint
 10
747.4628727616182
 20
1183.349570101631
 30
0.0
  0
POINT
  5
849F
330
8226
100
AcDbEntity
  8
DEFPOINTS
 62
     0
440
 16777216
100
AcDbPoint
 10
471.7412901308925
 20
1183.349570101631
 30
0.0
  0
ENDBLK
  5
8326
330
8226
100
AcDbEntity
  8
0
100
AcDbBlockEnd
  0
BLOCK
  5
8367
330
8277
100
AcDbEntity
  8
0
100
AcDbBlockBegin
  2
*D7
 70
     1
 10
0.0
 20
0.0
 30
0.0
  3
*D7
  1

  0
LINE
  5
8368
330
8277
100
AcDbEntity
  8
0
  6
ByBlock
440
 16777216
100
AcDbLine
 10
6691.227437279636
 20
1563.04957010163
 30
0.0
 11
6691.227437279636
 21
2073.03305107996
 31
0.0
  0
LINE
  5
8369
330
8277
100
AcDbEntity
  8
0
  6
ByBlock
440
 16777216
100
AcDbLine
 10
6349.227437279637
 20
2018.530449988143
 30
0.0
 11
6349.227437279637
 21
2073.03305107996
 31
0.0
  0
LINE
  5
836A
330
8277
100
AcDbEntity
  8
0
  6
ByBlock
440
 16777216
100
AcDbLine
 10
6661.227437279636
 20
2058.033051079961
 30
0.0
 11
6379.227437279636
 21
2058.033051079961
 31
0.0
  0
INSERT
  5
836B
330
8277
100
AcDbEntity
  8
0
  6
ByBlock
440
 16777216
100
AcDbBlockReference
  2
_OPEN
 10
6691.227437279636
 20
2058.033051079961
 30
0.0
 41
30.0
 42
30.0
 43
30.0
  0
INSERT
  5
836C
330
8277
100
AcDbEntity
  8
0
  6
ByBlock
440
 16777216
100
AcDbBlockReference
  2
_OPEN
 10
6349.227437279637
 20
2058.033051079961
 30
0.0
 41
30.0
 42
30.0
 43
30.0
 50
180.0
  0
MTEXT
  5
836D
330
8277
100
AcDbEntity
  8
0
  6
ByBlock
440
 16777216
100
AcDbMText
 10
6520.227437279636
 20
2099.818765365675
 30
0.0
 40
45.0
 41
0.0
 46
0.0
 71
     5
 72
     5
  1
\A1;(342)
 73
     1
 44
1.0
  0
POINT
  5
836E
330
8277
100
AcDbEntity
  8
DEFPOINTS
  6
ByBlock
 62
     0
440
 16777216
100
AcDbPoint
 10
6691.227437279636
 20
1548.04957010163
 30
0.0
  0
POINT
  5
836F
330
8277
100
AcDbEntity
  8
DEFPOINTS
  6
ByBlock
 62
     0
440
 16777216
100
AcDbPoint
 10
6349.227437279637
 20
2003.530449988143
 30
0.0
  0
POINT
  5
8370
330
8277
100
AcDbEntity
  8
DEFPOINTS
  6
ByBlock
 62
     0
440
 16777216
100
AcDbPoint
 10
6349.227437279637
 20
2058.033051079961
 30
0.0
  0
ENDBLK
  5
8371
330
8277
100
AcDbEntity
  8
0
100
AcDbBlockEnd
  0
BLOCK
  5
8372
330
8283
100
AcDbEntity
  8
0
100
AcDbBlockBegin
  2
*D8
 70
     1
 10
0.0
 20
0.0
 30
0.0
  3
*D8
  1

  0
LINE
  5
8373
330
8283
100
AcDbEntity
  8
0
  6
ByBlock
440
 16777216
100
AcDbLine
 10
5588.341285745403
 20
3222.590097744204
 30
0.0
 11
5588.341285745403
 21
3413.017978730899
 31
0.0
  0
LINE
  5
8374
330
8283
100
AcDbEntity
  8
0
  6
ByBlock
440
 16777216
100
AcDbLine
 10
4608.341285745402
 20
3222.590097744204
 30
0.0
 11
4608.341285745402
 21
3413.017978730899
 31
0.0
  0
LINE
  5
8375
330
8283
100
AcDbEntity
  8
0
  6
ByBlock
440
 16777216
100
AcDbLine
 10
5558.341285745402
 20
3398.017978730899
 30
0.0
 11
4638.341285745402
 21
3398.017978730899
 31
0.0
  0
INSERT
  5
8376
330
8283
100
AcDbEntity
  8
0
  6
ByBlock
440
 16777216
100
AcDbBlockReference
  2
_OPEN
 10
5588.341285745403
 20
3398.017978730899
 30
0.0
 41
30.0
 42
30.0
 43
30.0
  0
INSERT
  5
8377
330
8283
100
AcDbEntity
  8
0
  6
ByBlock
440
 16777216
100
AcDbBlockReference
  2
_OPEN
 10
4608.341285745402
 20
3398.017978730899
 30
0.0
 41
30.0
 42
30.0
 43
30.0
 50
180.0
  0
MTEXT
  5
8378
330
8283
100
AcDbEntity
  8
0
  6
ByBlock
440
 16777216
100
AcDbMText
 10
5098.341285745402
 20
3428.017978730899
 30
0.0
 40
45.0
 41
0.0
 46
0.0
 71
     5
 72
     5
  1
\A1;980
 73
     1
 44
1.0
  0
POINT
  5
8379
330
8283
100
AcDbEntity
  8
DEFPOINTS
  6
ByBlock
 62
     0
440
 16777216
100
AcDbPoint
 10
5588.341285745403
 20
3207.590097744204
 30
0.0
  0
POINT
  5
837A
330
8283
100
AcDbEntity
  8
DEFPOINTS
  6
ByBlock
 62
     0
440
 16777216
100
AcDbPoint
 10
4608.341285745402
 20
3207.590097744204
 30
0.0
  0
POINT
  5
837B
330
8283
100
AcDbEntity
  8
DEFPOINTS
  6
ByBlock
 62
     0
440
 16777216
100
AcDbPoint
 10
4608.341285745402
 20
3398.017978730899
 30
0.0
  0
ENDBLK
  5
837C
330
8283
100
AcDbEntity
  8
0
100
AcDbBlockEnd
  0
BLOCK
  5
837D
330
828F
100
AcDbEntity
  8
0
100
AcDbBlockBegin
  2
*D9
 70
     1
 10
0.0
 20
0.0
 30
0.0
  3
*D9
  1

  0
LINE
  5
837E
330
828F
100
AcDbEntity
  8
0
  6
ByBlock
440
 16777216
100
AcDbLine
 10
4593.341285745402
 20
3207.590097744204
 30
0.0
 11
4350.061829245197
 21
3207.590097744204
 31
0.0
  0
LINE
  5
837F
330
828F
100
AcDbEntity
  8
0
  6
ByBlock
440
 16777216
100
AcDbLine
 10
4593.341285745402
 20
2527.590097744204
 30
0.0
 11
4350.061829245197
 21
2527.590097744204
 31
0.0
  0
LINE
  5
8380
330
828F
100
AcDbEntity
  8
0
  6
ByBlock
440
 16777216
100
AcDbLine
 10
4365.061829245196
 20
3177.590097744204
 30
0.0
 11
4365.061829245196
 21
2557.590097744204
 31
0.0
  0
INSERT
  5
8381
330
828F
100
AcDbEntity
  8
0
  6
ByBlock
440
 16777216
100
AcDbBlockReference
  2
_OPEN
 10
4365.061829245196
 20
3207.590097744204
 30
0.0
 41
30.0
 42
30.0
 43
30.0
 50
90.0
  0
INSERT
  5
8382
330
828F
100
AcDbEntity
  8
0
  6
ByBlock
440
 16777216
100
AcDbBlockReference
  2
_OPEN
 10
4365.061829245196
 20
2527.590097744204
 30
0.0
 41
30.0
 42
30.0
 43
30.0
 50
270.0
  0
MTEXT
  5
8383
330
828F
100
AcDbEntity
  8
0
  6
ByBlock
440
 16777216
100
AcDbMText
 10
4335.061829245196
 20
2867.590097744204
 30
0.0
 40
45.0
 41
0.0
 46
0.0
 71
     5
 72
     5
  1
\A1;680
 11
0.0
 21
1.0
 31
0.0
 73
     1
 44
1.0
  0
POINT
  5
8384
330
828F
100
AcDbEntity
  8
DEFPOINTS
  6
ByBlock
 62
     0
440
 16777216
100
AcDbPoint
 10
4608.341285745402
 20
3207.590097744204
 30
0.0
  0
POINT
  5
8385
330
828F
100
AcDbEntity
  8
DEFPOINTS
  6
ByBlock
 62
     0
440
 16777216
100
AcDbPoint
 10
4608.341285745402
 20
2527.590097744204
 30
0.0
  0
POINT
  5
8386
330
828F
100
AcDbEntity
  8
DEFPOINTS
  6
ByBlock
 62
     0
440
 16777216
100
AcDbPoint
 10
4365.061829245196
 20
2527.590097744204
 30
0.0
  0
ENDBLK
  5
8387
330
828F
100
AcDbEntity
  8
0
100
AcDbBlockEnd
  0
BLOCK
  5
83E5
330
829B
100
AcDbEntity
  8
0
100
AcDbBlockBegin
  2
*D10
 70
     1
 10
0.0
 20
0.0
 30
0.0
  3
*D10
  1

  0
LINE
  5
8533
330
829B
100
AcDbEntity
  8
3
440
 16777216
370
    -2
100
AcDbLine
 10
1958.349024295852
 20
1758.34957010163
 30
0.0
 11
1958.349024295852
 21
2073.03305107996
 31
0.0
  0
LINE
  5
8534
330
829B
100
AcDbEntity
  8
3
440
 16777216
370
    -2
100
AcDbLine
 10
2458.349024295853
 20
2058.033051079961
 30
0.0
 11
1988.349024295852
 21
2058.033051079961
 31
0.0
  0
INSERT
  5
8535
330
829B
100
AcDbEntity
  8
3
440
 16777216
370
    -2
100
AcDbBlockReference
  2
_OPEN
 10
2488.349024295852
 20
2058.033051079961
 30
0.0
 41
30.0
 42
30.0
 43
30.0
  0
INSERT
  5
8536
330
829B
100
AcDbEntity
  8
3
440
 16777216
370
    -2
100
AcDbBlockReference
  2
_OPEN
 10
1958.349024295852
 20
2058.033051079961
 30
0.0
 41
30.0
 42
30.0
 43
30.0
 50
180.0
  0
MTEXT
  5
8537
330
829B
100
AcDbEntity
  8
3
440
 16777216
100
AcDbMText
 10
2223.349024295853
 20
2099.818765365675
 30
0.0
 40
45.0
 41
0.0
 46
0.0
 71
     5
 72
     1
  1
\A1;(530)
 73
     1
 44
1.0
  0
POINT
  5
8538
330
829B
100
AcDbEntity
  8
DEFPOINTS
 62
     0
440
 16777216
100
AcDbPoint
 10
2488.349024295852
 20
2003.530449988143
 30
0.0
  0
POINT
  5
8539
330
829B
100
AcDbEntity
  8
DEFPOINTS
 62
     0
440
 16777216
100
AcDbPoint
 10
1958.349024295852
 20
1743.34957010163
 30
0.0
  0
POINT
  5
853A
330
829B
100
AcDbEntity
  8
DEFPOINTS
 62
     0
440
 16777216
100
AcDbPoint
 10
1958.349024295852
 20
2058.033051079961
 30
0.0
  0
ENDBLK
  5
83EE
330
829B
100
AcDbEntity
  8
0
100
AcDbBlockEnd
  0
BLOCK
  5
8392
330
82A6
100
AcDbEntity
  8
0
100
AcDbBlockBegin
  2
*D11
 70
     1
 10
0.0
 20
0.0
 30
0.0
  3
*D11
  1

  0
LINE
  5
84A8
330
82A6
100
AcDbEntity
  8
3
440
 16777216
100
AcDbLine
 10
714.2551557996029
 20
1573.34957010163
 30
0.0
 11
714.2551557996029
 21
2074.278899326693
 31
0.0
  0
LINE
  5
84A9
330
82A6
100
AcDbEntity
  8
3
440
 16777216
100
AcDbLine
 10
967.4628727616182
 20
2059.278899326693
 30
0.0
 11
744.255155799603
 21
2059.278899326693
 31
0.0
  0
INSERT
  5
84AA
330
82A6
100
AcDbEntity
  8
3
440
 16777216
100
AcDbBlockReference
  2
_OPEN
 10
997.4628727616181
 20
2059.278899326693
 30
0.0
 41
30.0
 42
30.0
 43
30.0
  0
INSERT
  5
84AB
330
82A6
100
AcDbEntity
  8
3
440
 16777216
100
AcDbBlockReference
  2
_OPEN
 10
714.2551557996029
 20
2059.278899326693
 30
0.0
 41
30.0
 42
30.0
 43
30.0
 50
180.0
  0
MTEXT
  5
84AC
330
82A6
100
AcDbEntity
  8
3
440
 16777216
100
AcDbMText
 10
855.8590142806107
 20
2089.278899326693
 30
0.0
 40
45.0
 41
0.0
 46
0.0
 71
     5
 72
     5
  1
\A1;282
 73
     1
 44
1.0
  0
POINT
  5
84AD
330
82A6
100
AcDbEntity
  8
DEFPOINTS
 62
     0
440
 16777216
100
AcDbPoint
 10
997.4628727616181
 20
1898.349570101631
 30
0.0
  0
POINT
  5
84AE
330
82A6
100
AcDbEntity
  8
DEFPOINTS
 62
     0
440
 16777216
100
AcDbPoint
 10
714.2551557996029
 20
1558.34957010163
 30
0.0
  0
POINT
  5
84AF
330
82A6
100
AcDbEntity
  8
DEFPOINTS
 62
     0
440
 16777216
100
AcDbPoint
 10
714.2551557996029
 20
2059.278899326693
 30
0.0
  0
ENDBLK
  5
839B
330
82A6
100
AcDbEntity
  8
0
100
AcDbBlockEnd
  0
BLOCK
  5
839C
330
82B1
100
AcDbEntity
  8
0
100
AcDbBlockBegin
  2
*D12
 70
     1
 10
0.0
 20
0.0
 30
0.0
  3
*D12
  1

  0
LINE
  5
839D
330
82B1
100
AcDbEntity
  8
0
  6
ByBlock
440
 16777216
100
AcDbLine
 10
4828.341285745402
 20
1893.34957010163
 30
0.0
 11
4315.702925952079
 21
1893.34957010163
 31
0.0
  0
LINE
  5
839E
330
82B1
100
AcDbEntity
  8
0
  6
ByBlock
440
 16777216
100
AcDbLine
 10
4533.341285745402
 20
1588.349570101631
 30
0.0
 11
4315.702925952079
 21
1588.349570101631
 31
0.0
  0
LINE
  5
839F
330
82B1
100
AcDbEntity
  8
0
  6
ByBlock
440
 16777216
100
AcDbLine
 10
4330.702925952079
 20
1863.34957010163
 30
0.0
 11
4330.702925952079
 21
1618.349570101631
 31
0.0
  0
INSERT
  5
83A0
330
82B1
100
AcDbEntity
  8
0
  6
ByBlock
440
 16777216
100
AcDbBlockReference
  2
_OPEN
 10
4330.702925952079
 20
1893.34957010163
 30
0.0
 41
30.0
 42
30.0
 43
30.0
 50
90.0
  0
INSERT
  5
83A1
330
82B1
100
AcDbEntity
  8
0
  6
ByBlock
440
 16777216
100
AcDbBlockReference
  2
_OPEN
 10
4330.702925952079
 20
1588.349570101631
 30
0.0
 41
30.0
 42
30.0
 43
30.0
 50
270.0
  0
MTEXT
  5
83A2
330
82B1
100
AcDbEntity
  8
0
  6
ByBlock
440
 16777216
100
AcDbMText
 10
4300.702925952078
 20
1740.84957010163
 30
0.0
 40
45.0
 41
0.0
 46
0.0
 71
     5
 72
     5
  1
\A1;305
 11
0.0
 21
1.0
 31
0.0
 73
     1
 44
1.0
  0
POINT
  5
83A3
330
82B1
100
AcDbEntity
  8
DEFPOINTS
  6
ByBlock
 62
     0
440
 16777216
100
AcDbPoint
 10
4843.341285745403
 20
1893.34957010163
 30
0.0
  0
POINT
  5
83A4
330
82B1
100
AcDbEntity
  8
DEFPOINTS
  6
ByBlock
 62
     0
440
 16777216
100
AcDbPoint
 10
4548.341285745402
 20
1588.349570101631
 30
0.0
  0
POINT
  5
83A5
330
82B1
100
AcDbEntity
  8
DEFPOINTS
  6
ByBlock
 62
     0
440
 16777216
100
AcDbPoint
 10
4330.702925952079
 20
1588.349570101631
 30
0.0
  0
ENDBLK
  5
83A6
330
82B1
100
AcDbEntity
  8
0
100
AcDbBlockEnd
  0
BLOCK
  5
83B2
330
82C9
100
AcDbEntity
  8
0
100
AcDbBlockBegin
  2
*D13
 70
     1
 10
0.0
 20
0.0
 30
0.0
  3
*D13
  1

  0
LINE
  5
83B3
330
82C9
100
AcDbEntity
  8
0
  6
ByBlock
440
 16777216
100
AcDbLine
 10
4575.133568783387
 20
1573.34957010163
 30
0.0
 11
4575.133568783387
 21
2160.872469458392
 31
0.0
  0
LINE
  5
83B4
330
82C9
100
AcDbEntity
  8
0
  6
ByBlock
440
 16777216
100
AcDbLine
 10
5588.341285745403
 20
1263.349570101631
 30
0.0
 11
5588.341285745403
 21
2160.872469458392
 31
0.0
  0
LINE
  5
83B5
330
82C9
100
AcDbEntity
  8
0
  6
ByBlock
440
 16777216
100
AcDbLine
 10
4605.133568783386
 20
2145.872469458392
 30
0.0
 11
5558.341285745402
 21
2145.872469458392
 31
0.0
  0
INSERT
  5
83B6
330
82C9
100
AcDbEntity
  8
0
  6
ByBlock
440
 16777216
100
AcDbBlockReference
  2
_OPEN
 10
4575.133568783387
 20
2145.872469458392
 30
0.0
 41
30.0
 42
30.0
 43
30.0
 50
180.0
  0
INSERT
  5
83B7
330
82C9
100
AcDbEntity
  8
0
  6
ByBlock
440
 16777216
100
AcDbBlockReference
  2
_OPEN
 10
5588.341285745403
 20
2145.872469458392
 30
0.0
 41
30.0
 42
30.0
 43
30.0
  0
MTEXT
  5
83B8
330
82C9
100
AcDbEntity
  8
0
  6
ByBlock
440
 16777216
100
AcDbMText
 10
5081.737427264394
 20
2175.872469458392
 30
0.0
 40
45.0
 41
0.0
 46
0.0
 71
     5
 72
     5
  1
\A1;1012
 73
     1
 44
1.0
  0
POINT
  5
83B9
330
82C9
100
AcDbEntity
  8
DEFPOINTS
  6
ByBlock
 62
     0
440
 16777216
100
AcDbPoint
 10
4575.133568783387
 20
1558.34957010163
 30
0.0
  0
POINT
  5
83BA
330
82C9
100
AcDbEntity
  8
DEFPOINTS
  6
ByBlock
 62
     0
440
 16777216
100
AcDbPoint
 10
5588.341285745403
 20
1248.349570101631
 30
0.0
  0
POINT
  5
83BB
330
82C9
100
AcDbEntity
  8
DEFPOINTS
  6
ByBlock
 62
     0
440
 16777216
100
AcDbPoint
 10
5588.341285745403
 20
2145.872469458392
 30
0.0
  0
ENDBLK
  5
83BC
330
82C9
100
AcDbEntity
  8
0
100
AcDbBlockEnd
  0
BLOCK
  5
83BD
330
82D5
100
AcDbEntity
  8
0
100
AcDbBlockBegin
  2
*D14
 70
     1
 10
0.0
 20
0.0
 30
0.0
  3
*D14
  1

  0
LINE
  5
83BE
330
82D5
100
AcDbEntity
  8
0
  6
ByBlock
440
 16777216
100
AcDbLine
 10
6084.227437279635
 20
1908.349570101631
 30
0.0
 11
6084.227437279635
 21
1963.443026693625
 31
0.0
  0
LINE
  5
83BF
330
82D5
100
AcDbEntity
  8
0
  6
ByBlock
440
 16777216
100
AcDbLine
 10
6614.227437279637
 20
1908.34957010163
 30
0.0
 11
6614.227437279637
 21
1963.443026693625
 31
0.0
  0
LINE
  5
83C0
330
82D5
100
AcDbEntity
  8
0
  6
ByBlock
440
 16777216
100
AcDbLine
 10
6114.227437279636
 20
1948.443026693625
 30
0.0
 11
6584.227437279636
 21
1948.443026693625
 31
0.0
  0
INSERT
  5
83C1
330
82D5
100
AcDbEntity
  8
0
  6
ByBlock
440
 16777216
100
AcDbBlockReference
  2
_OPEN
 10
6084.227437279635
 20
1948.443026693625
 30
0.0
 41
30.0
 42
30.0
 43
30.0
 50
180.0
  0
INSERT
  5
83C2
330
82D5
100
AcDbEntity
  8
0
  6
ByBlock
440
 16777216
100
AcDbBlockReference
  2
_OPEN
 10
6614.227437279637
 20
1948.443026693625
 30
0.0
 41
30.0
 42
30.0
 43
30.0
  0
MTEXT
  5
83C3
330
82D5
100
AcDbEntity
  8
0
  6
ByBlock
440
 16777216
100
AcDbMText
 10
6349.227437279637
 20
1978.443026693625
 30
0.0
 40
45.0
 41
0.0
 46
0.0
 71
     5
 72
     5
  1
\A1;530
 73
     1
 44
1.0
  0
POINT
  5
83C4
330
82D5
100
AcDbEntity
  8
DEFPOINTS
  6
ByBlock
 62
     0
440
 16777216
100
AcDbPoint
 10
6084.227437279635
 20
1893.349570101631
 30
0.0
  0
POINT
  5
83C5
330
82D5
100
AcDbEntity
  8
DEFPOINTS
  6
ByBlock
 62
     0
440
 16777216
100
AcDbPoint
 10
6614.227437279637
 20
1893.34957010163
 30
0.0
  0
POINT
  5
83C6
330
82D5
100
AcDbEntity
  8
DEFPOINTS
  6
ByBlock
 62
     0
440
 16777216
100
AcDbPoint
 10
6614.227437279637
 20
1948.443026693625
 30
0.0
  0
ENDBLK
  5
83C7
330
82D5
100
AcDbEntity
  8
0
100
AcDbBlockEnd
  0
BLOCK
  5
83D4
330
82EE
100
AcDbEntity
  8
0
100
AcDbBlockBegin
  2
*D15
 70
     1
 10
0.0
 20
0.0
 30
0.0
  3
*D15
  1

  0
LINE
  5
84B0
330
82EE
100
AcDbEntity
  8
3
 62
     0
440
 16777216
100
AcDbLine
 10
739.9628727616182
 20
1147.349570101631
 30
0.0
 11
456.7412901308926
 21
1147.349570101631
 31
0.0
  0
LINE
  5
84B1
330
82EE
100
AcDbEntity
  8
3
 62
     0
440
 16777216
100
AcDbLine
 10
739.9628727616182
 20
1082.349570101631
 30
0.0
 11
456.7412901308926
 21
1082.349570101631
 31
0.0
  0
LINE
  5
84B2
330
82EE
100
AcDbEntity
  8
3
 62
     0
440
 16777216
100
AcDbLine
 10
471.7412901308926
 20
1177.349570101631
 30
0.0
 11
471.7412901308926
 21
1207.349570101631
 31
0.0
  0
LINE
  5
84B3
330
82EE
100
AcDbEntity
  8
3
 62
     0
440
 16777216
100
AcDbLine
 10
471.7412901308925
 20
1052.349570101631
 30
0.0
 11
471.7412901308925
 21
919.4924272444881
 31
0.0
  0
LINE
  5
84B4
330
82EE
100
AcDbEntity
  8
3
 62
     0
440
 16777216
100
AcDbLine
 10
471.7412901308925
 20
1147.349570101631
 30
0.0
 11
471.7412901308925
 21
1082.349570101631
 31
0.0
  0
INSERT
  5
84B5
330
82EE
100
AcDbEntity
  8
3
 62
     0
440
 16777216
100
AcDbBlockReference
  2
_DOT
 10
471.7412901308925
 20
1147.349570101631
 30
0.0
 41
30.0
 42
30.0
 43
30.0
 50
270.0
  0
INSERT
  5
84B6
330
82EE
100
AcDbEntity
  8
3
 62
     0
440
 16777216
100
AcDbBlockReference
  2
_OPEN
 10
471.7412901308925
 20
1082.349570101631
 30
0.0
 41
30.0
 42
30.0
 43
30.0
 50
90.0
  0
MTEXT
  5
84B7
330
82EE
100
AcDbEntity
  8
3
 62
     0
440
 16777216
100
AcDbMText
 10
434.2412901308924
 20
970.9209986730597
 30
0.0
 40
45.0
 41
0.0
 46
0.0
 71
     5
 72
     5
  1
\A1;65
 11
0.0000000000000001
 21
1.0
 31
0.0
 73
     1
 44
1.0
  0
POINT
  5
84B8
330
82EE
100
AcDbEntity
  8
DEFPOINTS
 62
     0
440
 16777216
100
AcDbPoint
 10
747.4628727616182
 20
1147.349570101631
 30
0.0
  0
POINT
  5
84B9
330
82EE
100
AcDbEntity
  8
DEFPOINTS
 62
     0
440
 16777216
100
AcDbPoint
 10
747.4628727616182
 20
1082.349570101631
 30
0.0
  0
POINT
  5
84BA
330
82EE
100
AcDbEntity
  8
DEFPOINTS
 62
     0
440
 16777216
100
AcDbPoint
 10
471.7412901308925
 20
1082.349570101631
 30
0.0
  0
ENDBLK
  5
83E0
330
82EE
100
AcDbEntity
  8
0
100
AcDbBlockEnd
  0
BLOCK
  5
83F8
330
83F7
100
AcDbEntity
  8
0
100
AcDbBlockBegin
  2
*D16
 70
     1
 10
0.0
 20
0.0
 30
0.0
  3
*D16
  1

  0
LINE
  5
83F9
330
83F7
100
AcDbEntity
  8
0
  6
ByBlock
 62
     0
440
 16777216
100
AcDbLine
 10
747.4628727616182
 20
1074.849570101631
 30
0.0
 11
747.4628727616182
 21
969.1241705713729
 31
0.0
  0
LINE
  5
83FA
330
83F7
100
AcDbEntity
  8
0
  6
ByBlock
 62
     0
440
 16777216
100
AcDbLine
 10
997.4628727616183
 20
1074.849570101631
 30
0.0
 11
997.4628727616183
 21
969.1241705713729
 31
0.0
  0
LINE
  5
83FB
330
83F7
100
AcDbEntity
  8
0
  6
ByBlock
 62
     0
440
 16777216
100
AcDbLine
 10
777.4628727616182
 20
984.1241705713727
 30
0.0
 11
967.4628727616182
 21
984.1241705713727
 31
0.0
  0
INSERT
  5
83FC
330
83F7
100
AcDbEntity
  8
0
  6
ByBlock
 62
     0
440
 16777216
100
AcDbBlockReference
  2
_OPEN
 10
747.4628727616182
 20
984.1241705713727
 30
0.0
 41
30.0
 42
30.0
 43
30.0
 50
180.0
  0
INSERT
  5
83FD
330
83F7
100
AcDbEntity
  8
0
  6
ByBlock
 62
     0
440
 16777216
100
AcDbBlockReference
  2
_OPEN
 10
997.4628727616183
 20
984.1241705713727
 30
0.0
 41
30.0
 42
30.0
 43
30.0
  0
MTEXT
  5
83FE
330
83F7
100
AcDbEntity
  8
0
  6
ByBlock
 62
     0
440
 16777216
100
AcDbMText
 10
872.4628727616181
 20
1021.624170571373
 30
0.0
 40
45.0
 41
0.0
 46
0.0
 71
     5
 72
     5
  1
\A1;250
 73
     1
 44
1.0
  0
POINT
  5
83FF
330
83F7
100
AcDbEntity
  8
DEFPOINTS
  6
ByBlock
 62
     0
440
 16777216
100
AcDbPoint
 10
747.4628727616182
 20
1082.349570101631
 30
0.0
  0
POINT
  5
8400
330
83F7
100
AcDbEntity
  8
DEFPOINTS
  6
ByBlock
 62
     0
440
 16777216
100
AcDbPoint
 10
997.4628727616183
 20
1082.349570101631
 30
0.0
  0
POINT
  5
8401
330
83F7
100
AcDbEntity
  8
DEFPOINTS
  6
ByBlock
 62
     0
440
 16777216
100
AcDbPoint
 10
997.4628727616183
 20
984.1241705713727
 30
0.0
  0
ENDBLK
  5
8402
330
83F7
100
AcDbEntity
  8
0
100
AcDbBlockEnd
  0
BLOCK
  5
8405
330
8404
100
AcDbEntity
  8
0
100
AcDbBlockBegin
  2
*D17
 70
     1
 10
0.0
 20
0.0
 30
0.0
  3
*D17
  1

  0
LINE
  5
8406
330
8404
100
AcDbEntity
  8
0
  6
ByBlock
 62
     0
440
 16777216
100
AcDbLine
 10
997.4628727616183
 20
1074.849570101631
 30
0.0
 11
997.4628727616183
 21
969.1241705713729
 31
0.0
  0
LINE
  5
8407
330
8404
100
AcDbEntity
  8
0
  6
ByBlock
 62
     0
440
 16777216
100
AcDbLine
 10
1727.462872761618
 20
1074.849570101631
 30
0.0
 11
1727.462872761618
 21
969.1241705713729
 31
0.0
  0
LINE
  5
8408
330
8404
100
AcDbEntity
  8
0
  6
ByBlock
 62
     0
440
 16777216
100
AcDbLine
 10
1027.462872761618
 20
984.1241705713727
 30
0.0
 11
1697.462872761618
 21
984.1241705713727
 31
0.0
  0
INSERT
  5
8409
330
8404
100
AcDbEntity
  8
0
  6
ByBlock
 62
     0
440
 16777216
100
AcDbBlockReference
  2
_OPEN
 10
997.4628727616183
 20
984.1241705713727
 30
0.0
 41
30.0
 42
30.0
 43
30.0
 50
180.0
  0
INSERT
  5
840A
330
8404
100
AcDbEntity
  8
0
  6
ByBlock
 62
     0
440
 16777216
100
AcDbBlockReference
  2
_OPEN
 10
1727.462872761618
 20
984.1241705713727
 30
0.0
 41
30.0
 42
30.0
 43
30.0
  0
MTEXT
  5
840B
330
8404
100
AcDbEntity
  8
0
  6
ByBlock
 62
     0
440
 16777216
100
AcDbMText
 10
1362.462872761618
 20
1021.624170571373
 30
0.0
 40
45.0
 41
0.0
 46
0.0
 71
     5
 72
     5
  1
\A1;730
 73
     1
 44
1.0
  0
POINT
  5
840C
330
8404
100
AcDbEntity
  8
DEFPOINTS
  6
ByBlock
 62
     0
440
 16777216
100
AcDbPoint
 10
997.4628727616183
 20
1082.349570101631
 30
0.0
  0
POINT
  5
840D
330
8404
100
AcDbEntity
  8
DEFPOINTS
  6
ByBlock
 62
     0
440
 16777216
100
AcDbPoint
 10
1727.462872761618
 20
1082.349570101631
 30
0.0
  0
POINT
  5
840E
330
8404
100
AcDbEntity
  8
DEFPOINTS
  6
ByBlock
 62
     0
440
 16777216
100
AcDbPoint
 10
1727.462872761618
 20
984.1241705713727
 30
0.0
  0
ENDBLK
  5
840F
330
8404
100
AcDbEntity
  8
0
100
AcDbBlockEnd
  0
BLOCK
  5
8412
330
8411
100
AcDbEntity
  8
0
100
AcDbBlockBegin
  2
*D18
 70
     1
 10
0.0
 20
0.0
 30
0.0
  3
*D18
  1

  0
LINE
  5
8413
330
8411
100
AcDbEntity
  8
0
  6
ByBlock
 62
     0
440
 16777216
100
AcDbLine
 10
2115.349024295852
 20
1074.849570101631
 30
0.0
 11
2115.349024295852
 21
969.1241705713729
 31
0.0
  0
LINE
  5
8414
330
8411
100
AcDbEntity
  8
0
  6
ByBlock
 62
     0
440
 16777216
100
AcDbLine
 10
2488.349024295852
 20
1074.849570101631
 30
0.0
 11
2488.349024295852
 21
969.1241705713729
 31
0.0
  0
LINE
  5
8415
330
8411
100
AcDbEntity
  8
0
  6
ByBlock
 62
     0
440
 16777216
100
AcDbLine
 10
2145.349024295852
 20
984.1241705713727
 30
0.0
 11
2458.349024295853
 21
984.1241705713727
 31
0.0
  0
INSERT
  5
8416
330
8411
100
AcDbEntity
  8
0
  6
ByBlock
 62
     0
440
 16777216
100
AcDbBlockReference
  2
_OPEN
 10
2115.349024295852
 20
984.1241705713727
 30
0.0
 41
30.0
 42
30.0
 43
30.0
 50
180.0
  0
INSERT
  5
8417
330
8411
100
AcDbEntity
  8
0
  6
ByBlock
 62
     0
440
 16777216
100
AcDbBlockReference
  2
_OPEN
 10
2488.349024295852
 20
984.1241705713727
 30
0.0
 41
30.0
 42
30.0
 43
30.0
  0
MTEXT
  5
8418
330
8411
100
AcDbEntity
  8
0
  6
ByBlock
 62
     0
440
 16777216
100
AcDbMText
 10
2301.849024295853
 20
1021.624170571373
 30
0.0
 40
45.0
 41
0.0
 46
0.0
 71
     5
 72
     5
  1
\A1;373
 73
     1
 44
1.0
  0
POINT
  5
8419
330
8411
100
AcDbEntity
  8
DEFPOINTS
  6
ByBlock
 62
     0
440
 16777216
100
AcDbPoint
 10
2115.349024295852
 20
1082.349570101631
 30
0.0
  0
POINT
  5
841A
330
8411
100
AcDbEntity
  8
DEFPOINTS
  6
ByBlock
 62
     0
440
 16777216
100
AcDbPoint
 10
2488.349024295852
 20
1082.349570101631
 30
0.0
  0
POINT
  5
841B
330
8411
100
AcDbEntity
  8
DEFPOINTS
  6
ByBlock
 62
     0
440
 16777216
100
AcDbPoint
 10
2488.349024295852
 20
984.1241705713727
 30
0.0
  0
ENDBLK
  5
841C
330
8411
100
AcDbEntity
  8
0
100
AcDbBlockEnd
  0
BLOCK
  5
841F
330
841E
100
AcDbEntity
  8
0
100
AcDbBlockBegin
  2
*D19
 70
     1
 10
0.0
 20
0.0
 30
0.0
  3
*D19
  1

  0
LINE
  5
8420
330
841E
100
AcDbEntity
  8
0
  6
ByBlock
 62
     0
440
 16777216
100
AcDbLine
 10
2488.349024295852
 20
1074.849570101631
 30
0.0
 11
2488.349024295852
 21
969.1241705713729
 31
0.0
  0
LINE
  5
8421
330
841E
100
AcDbEntity
  8
0
  6
ByBlock
 62
     0
440
 16777216
100
AcDbLine
 10
2795.349024295852
 20
1074.849570101631
 30
0.0
 11
2795.349024295852
 21
969.1241705713729
 31
0.0
  0
LINE
  5
8422
330
841E
100
AcDbEntity
  8
0
  6
ByBlock
 62
     0
440
 16777216
100
AcDbLine
 10
2518.349024295853
 20
984.1241705713727
 30
0.0
 11
2765.349024295853
 21
984.1241705713727
 31
0.0
  0
INSERT
  5
8423
330
841E
100
AcDbEntity
  8
0
  6
ByBlock
 62
     0
440
 16777216
100
AcDbBlockReference
  2
_OPEN
 10
2488.349024295852
 20
984.1241705713727
 30
0.0
 41
30.0
 42
30.0
 43
30.0
 50
180.0
  0
INSERT
  5
8424
330
841E
100
AcDbEntity
  8
0
  6
ByBlock
 62
     0
440
 16777216
100
AcDbBlockReference
  2
_OPEN
 10
2795.349024295852
 20
984.1241705713727
 30
0.0
 41
30.0
 42
30.0
 43
30.0
  0
MTEXT
  5
8425
330
841E
100
AcDbEntity
  8
0
  6
ByBlock
 62
     0
440
 16777216
100
AcDbMText
 10
2641.849024295852
 20
1021.624170571373
 30
0.0
 40
45.0
 41
0.0
 46
0.0
 71
     5
 72
     5
  1
\A1;307
 73
     1
 44
1.0
  0
POINT
  5
8426
330
841E
100
AcDbEntity
  8
DEFPOINTS
  6
ByBlock
 62
     0
440
 16777216
100
AcDbPoint
 10
2488.349024295852
 20
1082.349570101631
 30
0.0
  0
POINT
  5
8427
330
841E
100
AcDbEntity
  8
DEFPOINTS
  6
ByBlock
 62
     0
440
 16777216
100
AcDbPoint
 10
2795.349024295852
 20
1082.349570101631
 30
0.0
  0
POINT
  5
8428
330
841E
100
AcDbEntity
  8
DEFPOINTS
  6
ByBlock
 62
     0
440
 16777216
100
AcDbPoint
 10
2795.349024295852
 20
984.1241705713727
 30
0.0
  0
ENDBLK
  5
8429
330
841E
100
AcDbEntity
  8
0
100
AcDbBlockEnd
  0
BLOCK
  5
842C
330
842B
100
AcDbEntity
  8
0
100
AcDbBlockBegin
  2
_NONE
 70
     0
 10
0.0
 20
0.0
 30
0.0
  3
_NONE
  1

  0
CIRCLE
  5
842D
330
842B
100
AcDbEntity
  8
0
  6
ByBlock
 62
     0
100
AcDbCircle
 10
0.0
 20
0.0
 30
0.0
 40
0.25
  0
ENDBLK
  5
842E
330
842B
100
AcDbEntity
  8
0
100
AcDbBlockEnd
  0
BLOCK
  5
8430
330
842F
100
AcDbEntity
  8
0
100
AcDbBlockBegin
  2
*D21
 70
     1
 10
0.0
 20
0.0
 30
0.0
  3
*D21
  1

  0
LINE
  5
8431
330
842F
100
AcDbEntity
  8
0
  6
ByBlock
 62
     0
440
 16777216
100
AcDbLine
 10
472.6937532901374
 20
1147.349570101631
 30
0.0
 11
472.6937532901374
 21
1183.349570101631
 31
0.0
  0
MTEXT
  5
8432
330
842F
100
AcDbEntity
  8
0
  6
ByBlock
 62
     0
440
 16777216
100
AcDbMText
 10
400.9080390044231
 20
1165.349570101631
 30
0.0
 40
45.0
 41
0.0
 46
0.0
 71
     5
 72
     5
  1
\A1;(36)
 11
0.0
 21
1.0
 31
0.0
 73
     1
 44
1.0
  0
POINT
  5
8433
330
842F
100
AcDbEntity
  8
DEFPOINTS
  6
ByBlock
 62
     0
440
 16777216
100
AcDbPoint
 10
747.4628727616182
 20
1147.349570101631
 30
0.0
  0
POINT
  5
8434
330
842F
100
AcDbEntity
  8
DEFPOINTS
  6
ByBlock
 62
     0
440
 16777216
100
AcDbPoint
 10
747.4628727616182
 20
1183.349570101631
 30
0.0
  0
POINT
  5
8435
330
842F
100
AcDbEntity
  8
DEFPOINTS
  6
ByBlock
 62
     0
440
 16777216
100
AcDbPoint
 10
472.6937532901374
 20
1183.349570101631
 30
0.0
  0
ENDBLK
  5
8436
330
842F
100
AcDbEntity
  8
0
100
AcDbBlockEnd
  0
BLOCK
  5
8439
330
8438
100
AcDbEntity
  8
0
100
AcDbBlockBegin
  2
*D22
 70
     1
 10
0.0
 20
0.0
 30
0.0
  3
*D22
  1

  0
LINE
  5
843A
330
8438
100
AcDbEntity
  8
0
  6
ByBlock
 62
     0
440
 16777216
100
AcDbLine
 10
974.9628727616181
 20
1893.34957010163
 30
0.0
 11
313.9230982612298
 21
1893.34957010163
 31
0.0
  0
LINE
  5
843B
330
8438
100
AcDbEntity
  8
0
  6
ByBlock
 62
     0
440
 16777216
100
AcDbLine
 10
739.9628727616182
 20
1082.349570101631
 30
0.0
 11
313.9230982612298
 21
1082.349570101631
 31
0.0
  0
LINE
  5
843C
330
8438
100
AcDbEntity
  8
0
  6
ByBlock
 62
     0
440
 16777216
100
AcDbLine
 10
328.9230982612298
 20
1863.34957010163
 30
0.0
 11
328.9230982612298
 21
1112.349570101631
 31
0.0
  0
INSERT
  5
843D
330
8438
100
AcDbEntity
  8
0
  6
ByBlock
 62
     0
440
 16777216
100
AcDbBlockReference
  2
_OPEN
 10
328.9230982612298
 20
1893.34957010163
 30
0.0
 41
30.0
 42
30.0
 43
30.0
 50
90.0
  0
INSERT
  5
843E
330
8438
100
AcDbEntity
  8
0
  6
ByBlock
 62
     0
440
 16777216
100
AcDbBlockReference
  2
_OPEN
 10
328.9230982612298
 20
1082.349570101631
 30
0.0
 41
30.0
 42
30.0
 43
30.0
 50
270.0
  0
MTEXT
  5
843F
330
8438
100
AcDbEntity
  8
0
  6
ByBlock
 62
     0
440
 16777216
100
AcDbMText
 10
279.6373839755156
 20
1487.84957010163
 30
0.0
 40
45.0
 41
0.0
 46
0.0
 71
     5
 72
     5
  1
\A1;(811)
 11
0.0
 21
1.0
 31
0.0
 73
     1
 44
1.0
  0
POINT
  5
8440
330
8438
100
AcDbEntity
  8
DEFPOINTS
  6
ByBlock
 62
     0
440
 16777216
100
AcDbPoint
 10
982.4628727616182
 20
1893.34957010163
 30
0.0
  0
POINT
  5
8441
330
8438
100
AcDbEntity
  8
DEFPOINTS
  6
ByBlock
 62
     0
440
 16777216
100
AcDbPoint
 10
747.4628727616182
 20
1082.349570101631
 30
0.0
  0
POINT
  5
8442
330
8438
100
AcDbEntity
  8
DEFPOINTS
  6
ByBlock
 62
     0
440
 16777216
100
AcDbPoint
 10
328.9230982612298
 20
1082.349570101631
 30
0.0
  0
ENDBLK
  5
8443
330
8438
100
AcDbEntity
  8
0
100
AcDbBlockEnd
  0
ENDSEC
  0
SECTION
  2
ENTITIES
  0
LINE
  5
7E84
330
19
100
AcDbEntity
  8
4
100
AcDbLine
 10
2775.0
 20
750.0
 30
0.0
 11
2775.0
 21
450.0
 31
0.0
  0
LINE
  5
7E85
330
19
100
AcDbEntity
  8
4
100
AcDbLine
 10
1725.0
 20
750.0
 30
0.0
 11
1725.0
 21
450.0
 31
0.0
  0
LINE
  5
7E86
330
19
100
AcDbEntity
  8
4
100
AcDbLine
 10
975.0
 20
750.0
 30
0.0
 11
975.0
 21
450.0
 31
0.0
  0
LINE
  5
7E89
330
19
100
AcDbEntity
  8
4
100
AcDbLine
 10
975.0
 20
450.0
 30
0.0
 11
2775.0
 21
450.0
 31
0.0
  0
LINE
  5
7E8A
330
19
100
AcDbEntity
  8
4
100
AcDbLine
 10
975.0
 20
600.0
 30
0.0
 11
2775.0
 21
600.0
 31
0.0
  0
TEXT
  5
7E8B
330
19
100
AcDbEntity
  8
4
100
AcDbText
 10
1032.753121270352
 20
647.3145387999193
 30
0.0
 40
75.0
  1
機器名称
100
AcDbText
  0
TEXT
  5
7E8C
330
19
100
AcDbEntity
  8
4
100
AcDbText
 10
1029.387159037196
 20
482.4677350980164
 30
0.0
 40
75.0
  1
機器型番
100
AcDbText
  0
TEXT
  5
7E8D
330
19
100
AcDbEntity
  8
4
100
AcDbText
 10
1765.683671544667
 20
647.9848006068125
 30
0.0
 40
60.0
  1
ミツヤリミットロードファン
100
AcDbText
  0
TEXT
  5
7E8E
330
19
100
AcDbEntity
  8
4
100
AcDbText
 10
1779.981743378221
 20
475.739376419915
 30
0.0
 40
75.0
  1
LL#2 1/2-5
100
AcDbText
  0
TEXT
  5
7E90
330
19
100
AcDbEntity
  8
4
100
AcDbText
 10
1151.241591014728
 20
3575.143261998774
 30
0.0
 40
80.99999999999999
  1
床置防振ベット
100
AcDbText
  0
TEXT
  5
7E91
330
19
100
AcDbEntity
  8
4
100
AcDbText
 10
474.2513899941696
 20
3800.821464298947
 30
0.0
 40
108.0
  1
遠心式両吸込両持リミットロードファン
100
AcDbText
  0
LINE
  5
7E92
330
19
100
AcDbEntity
  8
4
100
AcDbLine
 10
375.0
 20
3704.113131397207
 30
0.0
 11
2775.0
 21
3704.113131397207
 31
0.0
  0
LINE
  5
7E93
330
19
100
AcDbEntity
  8
4
100
AcDbLine
 10
375.0
 20
4004.113131397207
 30
0.0
 11
2775.0
 21
4004.113131397207
 31
0.0
  0
LINE
  5
7E94
330
19
100
AcDbEntity
  8
4
100
AcDbLine
 10
975.0
 20
750.0
 30
0.0
 11
2775.0
 21
750.0
 31
0.0
  0
LINE
  5
7E95
330
19
100
AcDbEntity
  8
4
100
AcDbLine
 10
375.0
 20
4004.113131397207
 30
0.0
 11
375.0
 21
3704.113131397207
 31
0.0
  0
TEXT
  5
7E96
330
19
100
AcDbEntity
  8
4
100
AcDbText
 10
497.453342650675
 20
3573.479216319515
 30
0.0
 40
80.99999999999999
  1
左回転上向
100
AcDbText
  0
TEXT
  5
7E97
330
19
100
AcDbEntity
  8
4
100
AcDbText
 10
2203.454338873935
 20
4059.091622242963
 30
0.0
 40
84.00000000000002
  1
No.
100
AcDbText
  0
TEXT
  5
7E98
330
19
100
AcDbEntity
  8
4
100
AcDbText
 10
1966.94409390002
 20
3575.143261998774
 30
0.0
 40
80.99999999999999
  1
縮尺：1/15
100
AcDbText
  0
LINE
  5
7E99
330
19
100
AcDbEntity
  8
4
100
AcDbLine
 10
2775.0
 20
4004.113131397207
 30
0.0
 11
2775.0
 21
3704.113131397207
 31
0.0
  0
LINE
  5
7E9A
330
19
100
AcDbEntity
  8
4
100
AcDbLine
 10
3150.0
 20
4425.0
 30
0.0
 11
3150.0
 21
4425.0
 31
0.0
  0
LINE
  5
7E9B
330
19
100
AcDbEntity
  8
4
100
AcDbLine
 10
2160.926133539797
 20
4021.895374688102
 30
0.0
 11
2160.926133539797
 21
4179.978392324628
 31
0.0
  0
LINE
  5
7E9C
330
19
100
AcDbEntity
  8
4
100
AcDbLine
 10
2160.926133539797
 20
4179.978392324628
 30
0.0
 11
2775.0
 21
4179.978392324628
 31
0.0
  0
LINE
  5
7E9D
330
19
100
AcDbEntity
  8
4
100
AcDbLine
 10
2775.0
 20
4179.978392324628
 30
0.0
 11
2775.0
 21
4021.895374688102
 31
0.0
  0
LINE
  5
7E9E
330
19
100
AcDbEntity
  8
4
100
AcDbLine
 10
2775.0
 20
4021.895374688102
 30
0.0
 11
2160.926133539797
 21
4021.895374688102
 31
0.0
  0
LINE
  5
7E9F
330
19
100
AcDbEntity
  8
4
100
AcDbLine
 10
0.0
 20
0.0
 30
0.0
 11
0.0
 21
4425.0
 31
0.0
  0
LINE
  5
7EA0
330
19
100
AcDbEntity
  8
4
100
AcDbLine
 10
0.0
 20
4425.0
 30
0.0
 11
3150.0
 21
4425.0
 31
0.0
  0
LINE
  5
7EA1
330
19
100
AcDbEntity
  8
4
100
AcDbLine
 10
3150.0
 20
4425.0
 30
0.0
 11
3150.0
 21
0.0
 31
0.0
  0
LINE
  5
7EA2
330
19
100
AcDbEntity
  8
4
100
AcDbLine
 10
3150.0
 20
0.0
 30
0.0
 11
0.0
 21
0.0
 31
0.0
  0
LINE
  5
8150
330
19
100
AcDbEntity
  8
1
100
AcDbLine
 10
982.4628727616182
 20
1890.34957010163
 30
0.0
 11
1448.45769007419
 21
1890.349570101631
 31
0.0
  0
LINE
  5
8151
330
19
100
AcDbEntity
  8
1
100
AcDbLine
 10
982.4628727616182
 20
1893.34957010163
 30
0.0
 11
982.4628727616182
 21
1890.34957010163
 31
0.0
  0
LINE
  5
8152
330
19
100
AcDbEntity
  8
1
100
AcDbLine
 10
1448.45769007419
 20
1893.349570101631
 30
0.0
 11
1448.45769007419
 21
1890.349570101631
 31
0.0
  0
DIMENSION
  5
8153
330
19
100
AcDbEntity
  8
3
100
AcDbDimension
280
     0
  2
*D3
 10
997.4628727616181
 20
2059.278899326693
 30
0.0
 11
1209.462872761618
 21
2089.278899326693
 31
0.0
 12
-3860.878412983785
 22
0.0
 32
0.0
 70
    32
 71
     5
 42
-1.0
 73
     0
 74
     0
 75
     0
  3
MATSU
100
AcDbAlignedDimension
 13
1421.462872761618
 23
1893.349570101631
 33
0.0
 14
997.4628727616181
 24
1898.349570101631
 34
0.0
100
AcDbRotatedDimension
1001
ACAD
1000
DSTYLE
1002
{
1070
    40
1040
15.0
1002
}
  0
DIMENSION
  5
8154
330
19
100
AcDbEntity
  8
3
100
AcDbDimension
280
     0
  2
*D4
 10
2927.627544713378
 20
1388.349570101631
 30
0.0
 11
2897.627544713378
 21
1588.349570101631
 31
0.0
 12
-3860.878412983785
 22
0.0
 32
0.0
 70
    32
  1
φ400
 71
     5
 42
-1.0
 73
     0
 74
     0
 75
     0
  3
MATSU
100
AcDbAlignedDimension
 13
2755.349024295853
 23
1788.349570101631
 33
0.0
 14
2755.349024295853
 24
1388.349570101631
 34
0.0
 50
90.0
100
AcDbRotatedDimension
1001
ACAD
1000
DSTYLE
1002
{
1070
    40
1040
15.0
1002
}
  0
LINE
  5
8155
330
19
100
AcDbEntity
  8
2
100
AcDbLine
 10
1943.641199291209
 20
1588.349570101631
 30
0.0
 11
2833.349024295852
 21
1588.34957010163
 31
0.0
  0
LINE
  5
8156
330
19
100
AcDbEntity
  8
1
100
AcDbLine
 10
2753.349024295852
 20
1893.34957010163
 30
0.0
 11
2753.349024295852
 21
1248.349570101631
 31
0.0
  0
LINE
  5
8157
330
19
100
AcDbEntity
  8
1
100
AcDbLine
 10
2223.349024295851
 20
1893.349570101631
 30
0.0
 11
2223.349024295853
 21
1597.349570101631
 31
0.0
  0
LINE
  5
8158
330
19
100
AcDbEntity
  8
1
100
AcDbLine
 10
1009.462872761618
 20
1868.34957010163
 30
0.0
 11
1419.659594073094
 21
1868.349570101631
 31
0.0
  0
DIMENSION
  5
8159
330
19
100
AcDbEntity
  8
3
100
AcDbDimension
280
     0
  2
*D5
 10
1009.462872761618
 20
1963.644749300858
 30
0.0
 11
1215.462872761618
 21
1993.644749300858
 31
0.0
 12
-3860.878412983785
 22
0.0
 32
0.0
 70
    32
 71
     5
 42
-1.0
 73
     0
 74
     0
 75
     0
  3
MATSU
100
AcDbAlignedDimension
 13
1421.462872761618
 23
1893.349570101631
 33
0.0
 14
1009.462872761618
 24
1893.349570101631
 34
0.0
100
AcDbRotatedDimension
1001
ACAD
1000
DSTYLE
1002
{
1070
    40
1040
15.0
1002
}
  0
LINE
  5
815A
330
19
100
AcDbEntity
  8
1
100
AcDbLine
 10
1009.462872761618
 20
1822.212020423756
 30
0.0
 11
1009.462872761618
 21
1893.349570101631
 31
0.0
  0
LINE
  5
815B
330
19
100
AcDbEntity
  8
1
100
AcDbLine
 10
982.4628727616182
 20
1893.34957010163
 30
0.0
 11
1448.45769007419
 21
1893.349570101631
 31
0.0
  0
LINE
  5
815C
330
19
100
AcDbEntity
  8
2
100
AcDbLine
 10
687.4628727616181
 20
1588.349570101631
 30
0.0
 11
1409.843194476121
 21
1588.349570101631
 31
0.0
  0
LINE
  5
815D
330
19
100
AcDbEntity
  8
2
100
AcDbLine
 10
997.4628727616181
 20
1967.900843522579
 30
0.0
 11
997.4628727616183
 21
1082.349570101631
 31
0.0
  0
LINE
  5
815E
330
19
100
AcDbEntity
  8
1
100
AcDbLine
 10
999.4628727616182
 20
1833.695970978104
 30
0.0
 11
999.4628727616182
 21
1868.34957010163
 31
0.0
  0
LINE
  5
815F
330
19
100
AcDbEntity
  8
2
100
AcDbLine
 10
2488.349024295852
 20
1914.05909331825
 30
0.0
 11
2488.349024295852
 21
1082.349570101631
 31
0.0
  0
CIRCLE
  5
8168
330
19
100
AcDbEntity
  8
1
100
AcDbCircle
 10
997.4628727616181
 20
1588.349570101631
 30
0.0
 40
200.0
  0
CIRCLE
  5
8169
330
19
100
AcDbEntity
  8
1
100
AcDbCircle
 10
997.4628727616181
 20
1588.349570101631
 30
0.0
 40
225.0
  0
LINE
  5
816A
330
19
100
AcDbEntity
  8
1
100
AcDbLine
 10
747.4628727616182
 20
1183.349570101631
 30
0.0
 11
1727.462872761618
 21
1183.349570101631
 31
0.0
  0
LINE
  5
816B
330
19
100
AcDbEntity
  8
1
100
AcDbLine
 10
747.4628727616182
 20
1248.349570101631
 30
0.0
 11
1727.462872761618
 21
1248.349570101631
 31
0.0
  0
LINE
  5
816C
330
19
100
AcDbEntity
  8
1
100
AcDbLine
 10
747.4628727616182
 20
1147.349570101631
 30
0.0
 11
1727.462872761618
 21
1147.349570101631
 31
0.0
  0
LINE
  5
816D
330
19
100
AcDbEntity
  8
1
100
AcDbLine
 10
747.4628727616182
 20
1082.349570101631
 30
0.0
 11
1727.462872761618
 21
1082.349570101631
 31
0.0
  0
LINE
  5
816E
330
19
100
AcDbEntity
  8
1
100
AcDbLine
 10
747.4628727616182
 20
1248.349570101631
 30
0.0
 11
747.4628727616182
 21
1183.349570101631
 31
0.0
  0
LINE
  5
816F
330
19
100
AcDbEntity
  8
1
100
AcDbLine
 10
1727.462872761618
 20
1248.349570101631
 30
0.0
 11
1727.462872761618
 21
1183.349570101631
 31
0.0
  0
LINE
  5
8170
330
19
100
AcDbEntity
  8
1
100
AcDbLine
 10
747.4628727616182
 20
1147.349570101631
 30
0.0
 11
747.4628727616182
 21
1082.349570101631
 31
0.0
  0
LINE
  5
8171
330
19
100
AcDbEntity
  8
1
100
AcDbLine
 10
1727.462872761618
 20
1147.349570101631
 30
0.0
 11
1727.462872761618
 21
1082.349570101631
 31
0.0
  0
DIMENSION
  5
8172
330
19
100
AcDbEntity
  8
3
100
AcDbDimension
280
     0
  2
*D6
 10
471.7412901308925
 20
1183.349570101631
 30
0.0
 11
441.7412901308924
 21
1385.849570101631
 31
0.0
 70
    32
 71
     5
 42
-1.0
 73
     0
 74
     0
 75
     0
  3
MATSU
100
AcDbAlignedDimension
 13
687.4628727616181
 23
1588.349570101631
 33
0.0
 14
747.4628727616182
 24
1183.349570101631
 34
0.0
 50
270.0
100
AcDbRotatedDimension
1001
ACAD
1000
DSTYLE
1002
{
1070
   287
1070
     4
1070
    40
1040
15.0
1070
    75
1070
     1
1070
   279
1070
     1
1070
   289
1070
     3
1002
}
  0
LINE
  5
8176
330
19
100
AcDbEntity
  8
1
100
AcDbLine
 10
2115.349024295852
 20
1183.349570101631
 30
0.0
 11
2795.349024295852
 21
1183.349570101631
 31
0.0
  0
LINE
  5
8177
330
19
100
AcDbEntity
  8
1
100
AcDbLine
 10
2115.349024295852
 20
1248.34957010163
 30
0.0
 11
2795.349024295852
 21
1248.349570101631
 31
0.0
  0
LINE
  5
8178
330
19
100
AcDbEntity
  8
1
100
AcDbLine
 10
2115.349024295852
 20
1147.34957010163
 30
0.0
 11
2795.349024295852
 21
1147.349570101631
 31
0.0
  0
LINE
  5
8179
330
19
100
AcDbEntity
  8
1
100
AcDbLine
 10
2115.349024295852
 20
1082.349570101631
 30
0.0
 11
2795.349024295852
 21
1082.349570101631
 31
0.0
  0
LINE
  5
817A
330
19
100
AcDbEntity
  8
1
100
AcDbLine
 10
2795.349024295852
 20
1248.349570101631
 30
0.0
 11
2795.349024295852
 21
1183.349570101631
 31
0.0
  0
LINE
  5
817B
330
19
100
AcDbEntity
  8
1
100
AcDbLine
 10
2115.349024295852
 20
1248.34957010163
 30
0.0
 11
2115.349024295852
 21
1183.349570101631
 31
0.0
  0
LINE
  5
817C
330
19
100
AcDbEntity
  8
1
100
AcDbLine
 10
2795.349024295852
 20
1147.349570101631
 30
0.0
 11
2795.349024295852
 21
1082.349570101631
 31
0.0
  0
LINE
  5
817D
330
19
100
AcDbEntity
  8
1
100
AcDbLine
 10
2115.349024295852
 20
1147.34957010163
 30
0.0
 11
2115.349024295852
 21
1082.349570101631
 31
0.0
  0
LINE
  5
8181
330
19
100
AcDbEntity
  8
1
100
AcDbLine
 10
2830.349024295852
 20
1545.04957010163
 30
0.0
 11
2830.349024295852
 21
1485.04957010163
 31
0.0
  0
LINE
  5
8182
330
19
100
AcDbEntity
  8
1
100
AcDbLine
 10
2760.349024295853
 20
1555.049570101631
 30
0.0
 11
2760.349024295853
 21
1475.049570101631
 31
0.0
  0
LINE
  5
8183
330
19
100
AcDbEntity
  8
1
100
AcDbLine
 10
2760.349024295853
 20
1555.049570101631
 30
0.0
 11
2820.349024295853
 21
1555.04957010163
 31
0.0
  0
LINE
  5
8184
330
19
100
AcDbEntity
  8
1
100
AcDbLine
 10
2760.349024295853
 20
1475.049570101631
 30
0.0
 11
2820.349024295853
 21
1475.04957010163
 31
0.0
  0
LINE
  5
8185
330
19
100
AcDbEntity
  8
1
100
AcDbLine
 10
2820.349024295853
 20
1555.04957010163
 30
0.0
 11
2830.349024295852
 21
1545.04957010163
 31
0.0
  0
LINE
  5
8186
330
19
100
AcDbEntity
  8
1
100
AcDbLine
 10
2830.349024295852
 20
1485.04957010163
 30
0.0
 11
2820.349024295853
 21
1475.04957010163
 31
0.0
  0
DIMENSION
  5
8187
330
19
100
AcDbEntity
  8
3
100
AcDbDimension
280
     0
  2
*D7
 10
2488.349024295852
 20
2058.033051079961
 30
0.0
 11
2659.349024295853
 21
2099.818765365675
 31
0.0
 12
-3860.878412983785
 22
0.0
 32
0.0
 70
    32
  1
(<>)
 71
     5
 42
-1.0
 73
     0
 74
     0
 75
     0
  3
MATSU
100
AcDbAlignedDimension
 13
2830.349024295852
 23
1548.04957010163
 33
0.0
 14
2488.349024295852
 24
2003.530449988143
 34
0.0
100
AcDbRotatedDimension
1001
ACAD
1000
DSTYLE
1002
{
1070
    40
1040
15.0
1002
}
  0
LINE
  5
8188
330
19
100
AcDbEntity
  8
2
100
AcDbLine
 10
997.4628727616181
 20
2347.904805746299
 30
0.0
 11
997.4628727616181
 21
3301.98158625016
 31
0.0
  0
LINE
  5
8189
330
19
100
AcDbEntity
  8
2
100
AcDbLine
 10
1421.462872761618
 20
2900.590097744203
 30
0.0
 11
616.0301847491246
 21
2900.590097744204
 31
0.0
  0
LINE
  5
818A
330
19
100
AcDbEntity
  8
1
100
AcDbLine
 10
1727.462872761618
 20
3207.590097744204
 30
0.0
 11
747.4628727616182
 21
3207.590097744204
 31
0.0
  0
LINE
  5
818B
330
19
100
AcDbEntity
  8
1
100
AcDbLine
 10
1727.462872761618
 20
2527.590097744204
 30
0.0
 11
747.4628727616182
 21
2527.590097744204
 31
0.0
  0
LINE
  5
818C
330
19
100
AcDbEntity
  8
1
100
AcDbLine
 10
747.4628727616182
 20
2527.590097744204
 30
0.0
 11
747.4628727616182
 21
2635.590097744203
 31
0.0
  0
LINE
  5
818D
330
19
100
AcDbEntity
  8
1
100
AcDbLine
 10
1727.462872761618
 20
2527.590097744204
 30
0.0
 11
1727.462872761618
 21
3207.590097744204
 31
0.0
  0
LINE
  5
818E
330
19
100
AcDbEntity
  8
1
100
AcDbLine
 10
1421.462872761618
 20
3165.590097744204
 30
0.0
 11
715.4628727616182
 21
3165.590097744204
 31
0.0
  0
LINE
  5
818F
330
19
100
AcDbEntity
  8
1
100
AcDbLine
 10
1421.462872761618
 20
2635.590097744204
 30
0.0
 11
715.4628727616182
 21
2635.590097744203
 31
0.0
  0
LINE
  5
8190
330
19
100
AcDbEntity
  8
1
100
AcDbLine
 10
1958.349024295852
 20
1738.349570101631
 30
0.0
 11
1958.349024295852
 21
1305.349570101631
 31
0.0
  0
LINE
  5
8191
330
19
100
AcDbEntity
  8
1
100
AcDbLine
 10
1659.962872761618
 20
2370.590097744203
 30
0.0
 11
847.4628727616181
 21
2370.590097744202
 31
0.0
  0
DIMENSION
  5
8192
330
19
100
AcDbEntity
  8
3
100
AcDbDimension
280
     0
  2
*D8
 10
747.4628727616182
 20
3398.017978730899
 30
0.0
 11
1237.462872761618
 21
3428.017978730899
 31
0.0
 12
-3860.878412983785
 22
0.0
 32
0.0
 70
    32
 71
     5
 42
-1.0
 73
     0
 74
     0
 75
     0
  3
MATSU
100
AcDbAlignedDimension
 13
1727.462872761618
 23
3207.590097744204
 33
0.0
 14
747.4628727616182
 24
3207.590097744204
 34
0.0
100
AcDbRotatedDimension
1001
ACAD
1000
DSTYLE
1002
{
1070
    40
1040
15.0
1002
}
  0
DIMENSION
  5
8193
330
19
100
AcDbEntity
  8
3
100
AcDbDimension
280
     0
  2
*D9
 10
504.1834162614122
 20
2527.590097744204
 30
0.0
 11
474.1834162614122
 21
2867.590097744204
 31
0.0
 12
-3860.878412983785
 22
0.0
 32
0.0
 70
    32
 71
     5
 42
-1.0
 73
     0
 74
     0
 75
     0
  3
MATSU
100
AcDbAlignedDimension
 13
747.4628727616182
 23
3207.590097744204
 33
0.0
 14
747.4628727616182
 24
2527.590097744204
 34
0.0
 50
270.0
100
AcDbRotatedDimension
1001
ACAD
1000
DSTYLE
1002
{
1070
    40
1040
15.0
1002
}
  0
LINE
  5
8194
330
19
100
AcDbEntity
  8
1
100
AcDbLine
 10
977.462872761618
 20
2530.590097744203
 30
0.0
 11
977.462872761618
 21
2635.590097744203
 31
0.0
  0
LINE
  5
8195
330
19
100
AcDbEntity
  8
1
100
AcDbLine
 10
1017.462872761618
 20
2530.590097744203
 30
0.0
 11
1017.462872761618
 21
2635.590097744203
 31
0.0
  0
DIMENSION
  5
8196
330
19
100
AcDbEntity
  8
3
100
AcDbDimension
280
     0
  2
*D10
 10
1958.349024295852
 20
2058.033051079961
 30
0.0
 11
2223.349024295853
 21
2099.818765365675
 31
0.0
 70
    32
  1
(<>)
 71
     5
 42
530.0
 73
     0
 74
     0
 75
     0
  3
MATSU
100
AcDbAlignedDimension
 13
2488.349024295852
 23
2003.530449988143
 33
0.0
 14
1958.349024295852
 24
1743.34957010163
 34
0.0
100
AcDbRotatedDimension
1001
ACAD
1000
DSTYLE
1002
{
1070
   287
1070
     4
1070
    40
1040
15.0
1070
    75
1070
     1
1070
   279
1070
     1
1070
   289
1070
     3
1002
}
  0
DIMENSION
  5
8197
330
19
100
AcDbEntity
  8
3
100
AcDbDimension
280
     0
  2
*D11
 10
714.2551557996029
 20
2059.278899326693
 30
0.0
 11
855.8590142806107
 21
2089.278899326693
 31
0.0
 70
    32
  1
282
 71
     5
 42
-1.0
 73
     0
 74
     0
 75
     0
  3
MATSU
100
AcDbAlignedDimension
 13
997.4628727616181
 23
1898.349570101631
 33
0.0
 14
714.2551557996029
 24
1558.34957010163
 34
0.0
100
AcDbRotatedDimension
1001
ACAD
1000
DSTYLE
1002
{
1070
   287
1070
     4
1070
    40
1040
15.0
1070
    75
1070
     1
1070
   279
1070
     1
1070
   289
1070
     3
1002
}
  0
DIMENSION
  5
8198
330
19
100
AcDbEntity
  8
3
100
AcDbDimension
280
     0
  2
*D12
 10
469.8245129682946
 20
1588.349570101631
 30
0.0
 11
439.8245129682946
 21
1740.84957010163
 31
0.0
 12
-3860.878412983785
 22
0.0
 32
0.0
 70
    32
 71
     5
 42
-1.0
 73
     0
 74
     0
 75
     0
  3
MATSU
100
AcDbAlignedDimension
 13
982.4628727616182
 23
1893.34957010163
 33
0.0
 14
687.4628727616181
 24
1588.349570101631
 34
0.0
 50
270.0
100
AcDbRotatedDimension
1001
ACAD
1000
DSTYLE
1002
{
1070
    40
1040
15.0
1002
}
  0
DIMENSION
  5
819A
330
19
100
AcDbEntity
  8
3
100
AcDbDimension
280
     0
  2
*D13
 10
1727.462872761618
 20
2145.872469458392
 30
0.0
 11
1220.85901428061
 21
2175.872469458392
 31
0.0
 12
-3860.878412983785
 22
0.0
 32
0.0
 70
    32
  1
1012
 71
     5
 42
-1.0
 73
     0
 74
     0
 75
     0
  3
MATSU
100
AcDbAlignedDimension
 13
714.2551557996029
 23
1558.34957010163
 33
0.0
 14
1727.462872761618
 24
1248.349570101631
 34
0.0
100
AcDbRotatedDimension
1001
ACAD
1000
DSTYLE
1002
{
1070
    40
1040
15.0
1002
}
  0
LINE
  5
819B
330
19
100
AcDbEntity
  8
1
100
AcDbLine
 10
2198.349024295851
 20
1893.34957010163
 30
0.0
 11
2778.349024295853
 21
1893.34957010163
 31
0.0
  0
LINE
  5
819C
330
19
100
AcDbEntity
  8
1
100
AcDbLine
 10
2198.349024295851
 20
1893.349570101631
 30
0.0
 11
2198.349024295851
 21
1890.34957010163
 31
0.0
  0
LINE
  5
819D
330
19
100
AcDbEntity
  8
1
100
AcDbLine
 10
2778.349024295853
 20
1893.34957010163
 30
0.0
 11
2778.349024295853
 21
1890.34957010163
 31
0.0
  0
LINE
  5
819E
330
19
100
AcDbEntity
  8
1
100
AcDbLine
 10
2198.349024295851
 20
1890.34957010163
 30
0.0
 11
2778.349024295853
 21
1890.34957010163
 31
0.0
  0
DIMENSION
  5
819F
330
19
100
AcDbEntity
  8
3
100
AcDbDimension
280
     0
  2
*D14
 10
2753.349024295852
 20
1948.443026693625
 30
0.0
 11
2488.349024295852
 21
1978.443026693625
 31
0.0
 12
-3860.878412983785
 22
0.0
 32
0.0
 70
    32
 71
     5
 42
-1.0
 73
     0
 74
     0
 75
     0
  3
MATSU
100
AcDbAlignedDimension
 13
2223.349024295851
 23
1893.349570101631
 33
0.0
 14
2753.349024295852
 24
1893.34957010163
 34
0.0
100
AcDbRotatedDimension
1001
ACAD
1000
DSTYLE
1002
{
1070
    40
1040
15.0
1002
}
  0
LINE
  5
81A0
330
19
100
AcDbEntity
  8
1
100
AcDbLine
 10
715.4628727616182
 20
2635.590097744203
 30
0.0
 11
715.4628727616182
 21
3165.590097744204
 31
0.0
  0
LINE
  5
81A1
330
19
100
AcDbEntity
  8
1
100
AcDbLine
 10
1421.462872761618
 20
2635.590097744204
 30
0.0
 11
1421.462872761618
 21
3165.590097744204
 31
0.0
  0
LINE
  5
81A2
330
19
100
AcDbEntity
  8
1
100
AcDbLine
 10
1009.462872761618
 20
2635.590097744203
 30
0.0
 11
1009.462872761618
 21
3165.590097744204
 31
0.0
  0
LINE
  5
81A5
330
19
100
AcDbEntity
  8
1
100
AcDbLine
 10
747.4628727616182
 20
3165.590097744204
 30
0.0
 11
747.4628727616182
 21
3207.590097744204
 31
0.0
  0
DIMENSION
  5
81A7
330
19
100
AcDbEntity
  8
3
100
AcDbDimension
280
     0
  2
*D15
 10
471.7412901308925
 20
1082.349570101631
 30
0.0
 11
434.2412901308924
 21
970.9209986730597
 31
0.0
 70
    32
 71
     5
 42
-1.0
 73
     0
 74
     0
 75
     0
  3
IGA
100
AcDbAlignedDimension
 13
747.4628727616182
 23
1147.349570101631
 33
0.0
 14
747.4628727616182
 24
1082.349570101631
 34
0.0
 50
90.0
100
AcDbRotatedDimension
1001
ACAD
1000
DSTYLE
1002
{
1070
   287
1070
     3
1070
    40
1040
15.0
1070
   143
1040
0.039
1070
   172
1070
     1
1070
   271
1070
     0
1070
   279
1070
     0
1070
   288
1070
     1
1070
     6
1000
DOT
1002
}
  0
INSERT
  5
81A8
330
19
100
AcDbEntity
  8
0
100
AcDbBlockReference
  2
YA_N
 10
11953.24478214503
 20
46.97352167509961
 30
0.0
  0
INSERT
  5
81A9
330
19
100
AcDbEntity
  8
0
100
AcDbBlockReference
  2
YA_N
 10
11953.24478214503
 20
46.97352167509961
 30
0.0
  0
INSERT
  5
81AA
330
19
100
AcDbEntity
  8
0
100
AcDbBlockReference
  2
YA_N
 10
13599.35521246346
 20
395.8333338643276
 30
0.0
  0
INSERT
  5
81AB
330
19
100
AcDbEntity
  8
0
100
AcDbBlockReference
  2
YA_N
 10
11737.84114547566
 20
-1402.510486570387
 30
0.0
 41
10.0
 42
10.0
 43
10.0
  0
INSERT
  5
81AC
330
19
100
AcDbEntity
  8
0
100
AcDbBlockReference
  2
YA_N
 10
11737.84114547566
 20
-1402.510486570387
 30
0.0
 41
10.0
 42
10.0
 43
10.0
  0
INSERT
  5
81AD
330
19
100
AcDbEntity
  8
0
  6
ByBlock
 62
     2
100
AcDbBlockReference
  2
YA_N
 10
13109.1548241626
 20
-353.1251620733858
 30
0.0
 41
30.0
 42
30.0
 43
30.0
 50
90.0
  0
INSERT
  5
81AE
330
19
100
AcDbEntity
  8
0
  6
ByBlock
 62
     2
100
AcDbBlockReference
  2
YA_N
 10
13109.1548241626
 20
-353.1251620733858
 30
0.0
 41
30.0
 42
30.0
 43
30.0
 50
90.0
  0
LINE
  5
81AF
330
19
100
AcDbEntity
  8
2
100
AcDbLine
 10
1517.462872761618
 20
1658.747570101631
 30
0.0
 11
1517.462872761618
 21
1082.349570101631
 31
0.0
  0
LINE
  5
81B0
330
19
100
AcDbEntity
  8
2
100
AcDbLine
 10
1326.831544260281
 20
1455.349570101631
 30
0.0
 11
1725.361772761618
 21
1455.349570101631
 31
0.0
  0
ARC
  5
81B1
330
19
100
AcDbEntity
  8
1
100
AcDbCircle
 10
1517.462872761618
 20
1455.349570101631
 30
0.0
 40
150.0
100
AcDbArc
 50
255.6530730185262
 51
75.65307301852621
  0
CIRCLE
  5
81B2
330
19
100
AcDbEntity
  8
1
100
AcDbCircle
 10
1517.462872761618
 20
1455.349570101631
 30
0.0
 40
75.0
  0
LINE
  5
81B3
330
19
100
AcDbEntity
  8
1
100
AcDbLine
 10
1682.462872761618
 20
1323.349570101631
 30
0.0
 11
1352.462872761618
 21
1323.34957010163
 31
0.0
  0
ARC
  5
81B4
330
19
100
AcDbEntity
  8
1
100
AcDbCircle
 10
1517.462872761618
 20
1455.349570101631
 30
0.0
 40
142.5
100
AcDbArc
 50
180.0
 51
244.787
  0
ARC
  5
81B5
330
19
100
AcDbEntity
  8
1
100
AcDbCircle
 10
1517.462872761618
 20
1455.349570101631
 30
0.0
 40
142.5
100
AcDbArc
 50
295.1874
 51
180.0
  0
LINE
  5
81B6
330
19
100
AcDbEntity
  8
1
100
AcDbLine
 10
1456.921572761618
 20
1326.349570101631
 30
0.0
 11
1578.004172761618
 21
1326.349570101631
 31
0.0
  0
LINE
  5
81B7
330
19
100
AcDbEntity
  8
1
100
AcDbLine
 10
1387.462872761618
 20
1323.349570101631
 30
0.0
 11
1437.462872761618
 21
1323.349570101631
 31
0.0
  0
LINE
  5
81B8
330
19
100
AcDbEntity
  8
1
100
AcDbLine
 10
1397.937272761618
 20
1377.440870101631
 30
0.0
 11
1387.462872761618
 21
1338.349570101631
 31
0.0
  0
LINE
  5
81B9
330
19
100
AcDbEntity
  8
1
100
AcDbLine
 10
1387.462872761618
 20
1338.152170101631
 30
0.0
 11
1387.462872761618
 21
1323.349570101631
 31
0.0
  0
LINE
  5
81BA
330
19
100
AcDbEntity
  8
1
100
AcDbLine
 10
1647.462872761618
 20
1323.349570101631
 30
0.0
 11
1597.462872761618
 21
1323.349570101631
 31
0.0
  0
LINE
  5
81BB
330
19
100
AcDbEntity
  8
1
100
AcDbLine
 10
1636.945672761618
 20
1377.600170101631
 30
0.0
 11
1647.462872761618
 21
1338.349570101631
 31
0.0
  0
LINE
  5
81BC
330
19
100
AcDbEntity
  8
1
100
AcDbLine
 10
1647.462872761618
 20
1338.152170101631
 30
0.0
 11
1647.462872761618
 21
1323.349570101631
 31
0.0
  0
LINE
  5
81BD
330
19
100
AcDbEntity
  8
1
100
AcDbLine
 10
2535.919799305265
 20
1597.349570101631
 30
0.0
 11
2183.920099305264
 21
1597.349570101631
 31
0.0
  0
LINE
  5
81BE
330
19
100
AcDbEntity
  8
1
100
AcDbLine
 10
2535.919799305265
 20
1323.349570101631
 30
0.0
 11
2183.920099305264
 21
1323.349570101631
 31
0.0
  0
LINE
  5
81BF
330
19
100
AcDbEntity
  8
1
100
AcDbLine
 10
2535.919799305265
 20
1597.349570101631
 30
0.0
 11
2535.919799305265
 21
1323.34957010163
 31
0.0
  0
LINE
  5
81C0
330
19
100
AcDbEntity
  8
1
100
AcDbLine
 10
2183.920099305265
 20
1597.349570101631
 30
0.0
 11
2183.920099305265
 21
1323.349570101631
 31
0.0
  0
LINE
  5
81C1
330
19
100
AcDbEntity
  8
1
100
AcDbLine
 10
2173.920099305266
 20
1397.349570101631
 30
0.0
 11
2173.920099305266
 21
1513.349570101631
 31
0.0
  0
LINE
  5
81C2
330
19
100
AcDbEntity
  8
1
100
AcDbLine
 10
2183.920099305265
 20
1396.349570101631
 30
0.0
 11
2174.920099305265
 21
1396.349570101631
 31
0.0
  0
ARC
  5
81C3
330
19
100
AcDbEntity
  8
1
100
AcDbCircle
 10
2174.920099305265
 20
1397.349570101631
 30
0.0
 40
0.9999
100
AcDbArc
 50
179.9965
 51
270.007
  0
LINE
  5
81C5
330
19
100
AcDbEntity
  8
1
100
AcDbLine
 10
2166.920099305265
 20
1436.349570101631
 30
0.0
 11
2118.349024295852
 21
1436.349570101631
 31
0.0
  0
LINE
  5
81C6
330
19
100
AcDbEntity
  8
1
100
AcDbLine
 10
2166.920099305265
 20
1474.349570101631
 30
0.0
 11
2118.349024295852
 21
1474.349570101631
 31
0.0
  0
LINE
  5
81C7
330
19
100
AcDbEntity
  8
1
100
AcDbLine
 10
2183.920099305265
 20
1514.349570101631
 30
0.0
 11
2174.920099305265
 21
1514.349570101631
 31
0.0
  0
LINE
  5
81C8
330
19
100
AcDbEntity
  8
1
100
AcDbLine
 10
2166.920099305265
 20
1435.349570101631
 30
0.0
 11
2166.920099305265
 21
1475.349570101631
 31
0.0
  0
LINE
  5
81C9
330
19
100
AcDbEntity
  8
1
100
AcDbLine
 10
2173.920099305266
 20
1435.349570101631
 30
0.0
 11
2166.920099305265
 21
1435.349570101631
 31
0.0
  0
LINE
  5
81CA
330
19
100
AcDbEntity
  8
1
100
AcDbLine
 10
2173.920099305266
 20
1475.349570101631
 30
0.0
 11
2166.920099305265
 21
1475.349570101631
 31
0.0
  0
ARC
  5
81CC
330
19
100
AcDbEntity
  8
1
100
AcDbCircle
 10
2174.919099305265
 20
1513.349570101631
 30
0.0
 40
0.9998000000000001
100
AcDbArc
 50
89.98600000000001
 51
180.007
  0
LINE
  5
81CD
330
19
100
AcDbEntity
  8
1
100
AcDbLine
 10
1717.462872761618
 20
1288.349570101631
 30
0.0
 11
1317.462872761618
 21
1288.34957010163
 31
0.0
  0
LINE
  5
81CE
330
19
100
AcDbEntity
  8
1
100
AcDbLine
 10
1717.462872761618
 20
1288.349570101631
 30
0.0
 11
1717.462872761618
 21
1248.349570101631
 31
0.0
  0
LINE
  5
81CF
330
19
100
AcDbEntity
  8
1
100
AcDbLine
 10
1317.462872761618
 20
1288.34957010163
 30
0.0
 11
1317.462872761618
 21
1248.34957010163
 31
0.0
  0
LINE
  5
81D0
330
19
100
AcDbEntity
  8
1
100
AcDbLine
 10
1682.462872761618
 20
1323.349570101631
 30
0.0
 11
1692.462872761618
 21
1288.349570101631
 31
0.0
  0
LINE
  5
81D1
330
19
100
AcDbEntity
  8
1
100
AcDbLine
 10
1352.462872761618
 20
1323.349570101631
 30
0.0
 11
1342.462872761618
 21
1288.34957010163
 31
0.0
  0
LINE
  5
81D2
330
19
100
AcDbEntity
  8
1
100
AcDbLine
 10
1421.462872761618
 20
2954.268682697987
 30
0.0
 11
1649.462872761618
 21
2954.268682697987
 31
0.0
  0
LINE
  5
81D3
330
19
100
AcDbEntity
  8
1
100
AcDbLine
 10
1375.462872761618
 20
2602.268982697988
 30
0.0
 11
1649.462872761618
 21
2602.268982697988
 31
0.0
  0
LINE
  5
81D4
330
19
100
AcDbEntity
  8
1
100
AcDbLine
 10
1575.462872761618
 20
2592.268982697988
 30
0.0
 11
1459.462872761618
 21
2592.268982697988
 31
0.0
  0
LINE
  5
81D5
330
19
100
AcDbEntity
  8
1
100
AcDbLine
 10
1649.462872761618
 20
2954.268682697987
 30
0.0
 11
1649.462872761618
 21
2602.268982697987
 31
0.0
  0
LINE
  5
81D6
330
19
100
AcDbEntity
  8
1
100
AcDbLine
 10
1576.462872761618
 20
2602.268982697988
 30
0.0
 11
1576.462872761618
 21
2593.268982697988
 31
0.0
  0
ARC
  5
81D7
330
19
100
AcDbEntity
  8
1
100
AcDbCircle
 10
1575.462872761618
 20
2593.268982697988
 30
0.0
 40
0.9999
100
AcDbArc
 50
269.9965
 51
0.0069999999999659
  0
LINE
  5
81D8
330
19
100
AcDbEntity
  8
1
100
AcDbLine
 10
1375.462872761618
 20
2635.590097744204
 30
0.0
 11
1375.462872761618
 21
2602.268982697987
 31
0.0
  0
LINE
  5
81D9
330
19
100
AcDbEntity
  8
2
100
AcDbLine
 10
1517.462872761618
 20
2987.020042095812
 30
0.0
 11
1517.462872761618
 21
2345.408684933
 31
0.0
  0
LINE
  5
81DA
330
19
100
AcDbEntity
  8
1
100
AcDbLine
 10
1536.462872761618
 20
2585.268982697988
 30
0.0
 11
1536.462872761618
 21
2530.590097744203
 31
0.0
  0
LINE
  5
81DB
330
19
100
AcDbEntity
  8
1
100
AcDbLine
 10
1498.462872761618
 20
2585.268982697988
 30
0.0
 11
1498.462872761618
 21
2530.590097744203
 31
0.0
  0
LINE
  5
81DE
330
19
100
AcDbEntity
  8
1
100
AcDbLine
 10
1537.462872761618
 20
2585.268982697988
 30
0.0
 11
1497.462872761618
 21
2585.268982697988
 31
0.0
  0
LINE
  5
81DF
330
19
100
AcDbEntity
  8
1
100
AcDbLine
 10
1537.462872761618
 20
2592.268982697988
 30
0.0
 11
1537.462872761618
 21
2585.268982697988
 31
0.0
  0
LINE
  5
81E0
330
19
100
AcDbEntity
  8
1
100
AcDbLine
 10
1497.462872761618
 20
2592.268982697988
 30
0.0
 11
1497.462872761618
 21
2585.268982697988
 31
0.0
  0
LINE
  5
81E1
330
19
100
AcDbEntity
  8
1
100
AcDbLine
 10
1458.462872761618
 20
2602.268982697988
 30
0.0
 11
1458.462872761618
 21
2593.268982697988
 31
0.0
  0
ARC
  5
81E2
330
19
100
AcDbEntity
  8
1
100
AcDbCircle
 10
1459.462872761618
 20
2593.267982697988
 30
0.0
 40
0.9998000000000001
100
AcDbArc
 50
179.986
 51
270.007
  0
ARC
  5
81E3
330
19
100
AcDbEntity
  8
1
100
AcDbCircle
 10
997.4628727616181
 20
1588.349570101631
 30
0.0
 40
150.0
100
AcDbArc
 50
75.65307301852621
 51
255.6530730185262
  0
CIRCLE
  5
81E4
330
19
100
AcDbEntity
  8
1
100
AcDbCircle
 10
997.4628727616181
 20
1588.349570101631
 30
0.0
 40
75.0
  0
LINE
  5
81E5
330
19
100
AcDbEntity
  8
1
100
AcDbLine
 10
1554.631760221831
 20
1600.671536111488
 30
0.0
 11
1034.631760221831
 21
1733.671536111488
 31
0.0
  0
LINE
  5
81E6
330
19
100
AcDbEntity
  8
1
100
AcDbLine
 10
1480.293985301405
 20
1310.027604091774
 30
0.0
 11
960.2939853014049
 21
1443.027604091774
 31
0.0
  0
LINE
  5
81E7
330
19
100
AcDbEntity
  8
1
100
AcDbLine
 10
1536.047316491725
 20
1528.010553106559
 30
0.0
 11
1016.047316491724
 21
1661.010553106559
 31
0.0
  0
LINE
  5
81E8
330
19
100
AcDbEntity
  8
1
100
AcDbLine
 10
1498.878429031512
 20
1382.688587096702
 30
0.0
 11
978.8784290315115
 21
1515.688587096702
 31
0.0
  0
LINE
  5
81E9
330
19
100
AcDbEntity
  8
1
100
AcDbLine
 10
2150.349024295852
 20
1738.349570101631
 30
0.0
 11
2150.349024295852
 21
1701.621819265756
 31
0.0
  0
LINE
  5
81EA
330
19
100
AcDbEntity
  8
1
100
AcDbLine
 10
2058.349024295853
 20
1663.349570101631
 30
0.0
 11
2058.349024295853
 21
1380.349570101631
 31
0.0
  0
LINE
  5
81EB
330
19
100
AcDbEntity
  8
1
100
AcDbLine
 10
2118.349024295852
 20
1663.349570101631
 30
0.0
 11
2118.349024295852
 21
1380.349570101631
 31
0.0
  0
LINE
  5
81EC
330
19
100
AcDbEntity
  8
1
100
AcDbLine
 10
1958.349024295852
 20
1738.349570101631
 30
0.0
 11
2150.349024295852
 21
1738.349570101631
 31
0.0
  0
LINE
  5
81ED
330
19
100
AcDbEntity
  8
1
100
AcDbLine
 10
1958.349024295852
 20
1305.349570101631
 30
0.0
 11
2150.349024295852
 21
1305.349570101631
 31
0.0
  0
LINE
  5
81EE
330
19
100
AcDbEntity
  8
1
100
AcDbLine
 10
2058.349024295853
 20
1663.349570101631
 30
0.0
 11
2118.349024295852
 21
1663.349570101631
 31
0.0
  0
LINE
  5
81EF
330
19
100
AcDbEntity
  8
1
100
AcDbLine
 10
2058.349024295853
 20
1513.349570101631
 30
0.0
 11
2118.349024295852
 21
1513.34957010163
 31
0.0
  0
LINE
  5
81F0
330
19
100
AcDbEntity
  8
1
100
AcDbLine
 10
2058.349024295853
 20
1530.349570101631
 30
0.0
 11
2118.349024295852
 21
1530.349570101631
 31
0.0
  0
LINE
  5
81F1
330
19
100
AcDbEntity
  8
1
100
AcDbLine
 10
2058.349024295853
 20
1380.34957010163
 30
0.0
 11
2118.349024295852
 21
1380.349570101631
 31
0.0
  0
LINE
  5
81F2
330
19
100
AcDbEntity
  8
2
100
AcDbLine
 10
1937.161285367254
 20
1455.349570101631
 30
0.0
 11
2535.919799305265
 21
1455.349570101631
 31
0.0
  0
LINE
  5
81F3
330
19
100
AcDbEntity
  8
1
100
AcDbLine
 10
2460.920099305266
 20
1323.349570101631
 30
0.0
 11
2460.920099305266
 21
1248.349570101631
 31
0.0
  0
LINE
  5
81F4
330
19
100
AcDbEntity
  8
1
100
AcDbLine
 10
2190.920099305265
 20
1323.349570101631
 30
0.0
 11
2190.920099305265
 21
1248.34957010163
 31
0.0
  0
LINE
  5
81F5
330
19
100
AcDbEntity
  8
1
100
AcDbLine
 10
2190.920099305265
 20
1288.34957010163
 30
0.0
 11
2460.920099305266
 21
1288.34957010163
 31
0.0
  0
LINE
  5
81F6
330
19
100
AcDbEntity
  8
1
100
AcDbLine
 10
1659.962872761618
 20
2562.590097744203
 30
0.0
 11
847.4628727616181
 21
2562.590097744203
 31
0.0
  0
LINE
  5
81F7
330
19
100
AcDbEntity
  8
1
100
AcDbLine
 10
1592.462872761618
 20
2470.590097744203
 30
0.0
 11
1442.462872761618
 21
2470.590097744203
 31
0.0
  0
LINE
  5
81F8
330
19
100
AcDbEntity
  8
1
100
AcDbLine
 10
1592.462872761618
 20
2530.590097744203
 30
0.0
 11
1442.462872761618
 21
2530.590097744203
 31
0.0
  0
LINE
  5
81F9
330
19
100
AcDbEntity
  8
1
100
AcDbLine
 10
847.4628727616181
 20
2370.590097744202
 30
0.0
 11
847.4628727616181
 21
2562.590097744203
 31
0.0
  0
LINE
  5
81FA
330
19
100
AcDbEntity
  8
1
100
AcDbLine
 10
1659.962872761618
 20
2370.590097744203
 30
0.0
 11
1659.962872761618
 21
2562.590097744203
 31
0.0
  0
LINE
  5
81FB
330
19
100
AcDbEntity
  8
1
100
AcDbLine
 10
922.4628727616181
 20
2470.590097744203
 30
0.0
 11
922.4628727616181
 21
2530.590097744203
 31
0.0
  0
LINE
  5
81FC
330
19
100
AcDbEntity
  8
1
100
AcDbLine
 10
1072.462872761618
 20
2470.590097744203
 30
0.0
 11
1072.462872761618
 21
2530.590097744203
 31
0.0
  0
LINE
  5
81FD
330
19
100
AcDbEntity
  8
1
100
AcDbLine
 10
1442.462872761618
 20
2470.590097744203
 30
0.0
 11
1442.462872761618
 21
2530.590097744203
 31
0.0
  0
LINE
  5
81FE
330
19
100
AcDbEntity
  8
1
100
AcDbLine
 10
1592.462872761618
 20
2470.590097744203
 30
0.0
 11
1592.462872761618
 21
2530.590097744203
 31
0.0
  0
LINE
  5
81FF
330
19
100
AcDbEntity
  8
1
100
AcDbLine
 10
1072.462872761618
 20
2530.590097744203
 30
0.0
 11
922.4628727616181
 21
2530.590097744203
 31
0.0
  0
LINE
  5
8200
330
19
100
AcDbEntity
  8
1
100
AcDbLine
 10
1072.462872761618
 20
2470.590097744203
 30
0.0
 11
922.4628727616181
 21
2470.590097744203
 31
0.0
  0
LINE
  5
8201
330
19
100
AcDbEntity
  8
1
100
AcDbLine
 10
2150.349024295852
 20
1347.706511381728
 30
0.0
 11
2150.349024295852
 21
1305.349570101631
 31
0.0
  0
DIMENSION
  5
8403
330
19
100
AcDbEntity
  8
3
100
AcDbDimension
280
     0
  2
*D16
 10
997.4628727616183
 20
984.1241705713727
 30
0.0
 11
872.4628727616181
 21
1021.624170571373
 31
0.0
 70
    32
 71
     5
 42
-1.0
 73
     0
 74
     0
 75
     0
  3
IGA
100
AcDbAlignedDimension
 13
747.4628727616182
 23
1082.349570101631
 33
0.0
 14
997.4628727616183
 24
1082.349570101631
 34
0.0
100
AcDbRotatedDimension
1001
ACAD
1000
DSTYLE
1002
{
1070
   172
1070
     1
1070
    40
1040
15.0
1070
   271
1070
     0
1070
   143
1040
0.039
1002
}
  0
DIMENSION
  5
8410
330
19
100
AcDbEntity
  8
3
100
AcDbDimension
280
     0
  2
*D17
 10
1727.462872761618
 20
984.1241705713727
 30
0.0
 11
1362.462872761618
 21
1021.624170571373
 31
0.0
 70
    32
 71
     5
 42
-1.0
 73
     0
 74
     0
 75
     0
  3
IGA
100
AcDbAlignedDimension
 13
997.4628727616183
 23
1082.349570101631
 33
0.0
 14
1727.462872761618
 24
1082.349570101631
 34
0.0
100
AcDbRotatedDimension
1001
ACAD
1000
DSTYLE
1002
{
1070
   172
1070
     1
1070
    40
1040
15.0
1070
   271
1070
     0
1070
   143
1040
0.039
1002
}
  0
DIMENSION
  5
841D
330
19
100
AcDbEntity
  8
3
100
AcDbDimension
280
     0
  2
*D18
 10
2488.349024295852
 20
984.1241705713727
 30
0.0
 11
2301.849024295853
 21
1021.624170571373
 31
0.0
 70
    32
 71
     5
 42
-1.0
 73
     0
 74
     0
 75
     0
  3
IGA
100
AcDbAlignedDimension
 13
2115.349024295852
 23
1082.349570101631
 33
0.0
 14
2488.349024295852
 24
1082.349570101631
 34
0.0
100
AcDbRotatedDimension
1001
ACAD
1000
DSTYLE
1002
{
1070
   172
1070
     1
1070
    40
1040
15.0
1070
   271
1070
     0
1070
   143
1040
0.039
1002
}
  0
DIMENSION
  5
842A
330
19
100
AcDbEntity
  8
3
100
AcDbDimension
280
     0
  2
*D19
 10
2795.349024295852
 20
984.1241705713727
 30
0.0
 11
2641.849024295852
 21
1021.624170571373
 31
0.0
 70
    32
 71
     5
 42
-1.0
 73
     0
 74
     0
 75
     0
  3
IGA
100
AcDbAlignedDimension
 13
2488.349024295852
 23
1082.349570101631
 33
0.0
 14
2795.349024295852
 24
1082.349570101631
 34
0.0
100
AcDbRotatedDimension
1001
ACAD
1000
DSTYLE
1002
{
1070
   172
1070
     1
1070
    40
1040
15.0
1070
   271
1070
     0
1070
   143
1040
0.039
1002
}
  0
DIMENSION
  5
8437
330
19
100
AcDbEntity
  8
3
100
AcDbDimension
280
     0
  2
*D21
 10
472.6937532901374
 20
1183.349570101631
 30
0.0
 11
400.9080390044231
 21
1165.349570101631
 31
0.0
 70
    32
 71
     5
 42
-1.0
 73
     0
 74
     0
 75
     0
  3
IGA
100
AcDbAlignedDimension
 13
747.4628727616182
 23
1147.349570101631
 33
0.0
 14
747.4628727616182
 24
1183.349570101631
 34
0.0
 50
90.0
100
AcDbRotatedDimension
1001
ACAD
1000
DSTYLE
1002
{
1070
   172
1070
     1
1070
    76
1070
     1
1070
    75
1070
     1
1070
    40
1040
15.0
1070
     3
1000
(<>)
1070
   271
1070
     0
1070
     7
1000
_NONE
1070
     6
1000
_NONE
1070
   143
1040
0.039
1002
}
  0
DIMENSION
  5
8444
330
19
100
AcDbEntity
  8
3
100
AcDbDimension
280
     0
  2
*D22
 10
328.9230982612298
 20
1082.349570101631
 30
0.0
 11
279.6373839755156
 21
1487.84957010163
 31
0.0
 70
    32
 71
     5
 42
-1.0
 73
     0
 74
     0
 75
     0
  3
IGA
100
AcDbAlignedDimension
 13
982.4628727616182
 23
1893.34957010163
 33
0.0
 14
747.4628727616182
 24
1082.349570101631
 34
0.0
 50
90.0
100
AcDbRotatedDimension
1001
ACAD
1000
DSTYLE
1002
{
1070
   172
1070
     1
1070
    40
1040
15.0
1070
     3
1000
(<>)
1070
   271
1070
     0
1070
   143
1040
0.039
1002
}
  0
LINE
  5
8449
330
19
100
AcDbEntity
  8
1
100
AcDbLine
 10
1009.462872761618
 20
2635.590097744203
 30
0.0
 11
1421.462872761618
 21
3165.590097744204
 31
0.0
  0
LINE
  5
844A
330
19
100
AcDbEntity
  8
1
100
AcDbLine
 10
1009.462872761618
 20
3165.590097744204
 30
0.0
 11
1421.462872761618
 21
2635.590097744204
 31
0.0
  0
LWPOLYLINE
  5
844B
330
19
100
AcDbEntity
  8
1
100
AcDbPolyline
 90
        3
 70
     0
 43
0.0
 10
1421.462872761618
 20
1893.349570101631
 10
1399.462872761618
 20
1588.349570101631
 42
-0.3534895526992186
 10
1076.289095224556
 20
1248.349570101631
 42
-0.4532193849935457
  0
LWPOLYLINE
  5
8450
330
19
100
AcDbEntity
  8
1
100
AcDbPolyline
 90
        4
 70
     0
 43
0.0
 10
982.7518678013358
 20
1248.349570101631
 42
-0.4107248674758204
 10
716.9517144847686
 20
1599.360477798573
 42
-0.3762546939936967
 10
974.4628727616182
 20
1825.097021445152
 42
-0.0411445297571046
 10
1009.462872761618
 20
1822.212020423756
 42
-0.3936265759256327
  0
LINE
  5
8456
330
19
100
AcDbEntity
  8
1
100
AcDbLine
 10
2118.349024295852
 20
1608.349570101631
 30
0.0
 11
2223.349024295853
 21
1608.349570101631
 31
0.0
  0
LINE
  5
8457
330
19
100
AcDbEntity
  8
1
100
AcDbLine
 10
2118.349024295852
 20
1568.34957010163
 30
0.0
 11
2183.920099305265
 21
1568.349570101631
 31
0.0
  0
ENDSEC
  0
SECTION
  2
OBJECTS
  0
DICTIONARY
  5
C
330
0
100
AcDbDictionary
281
     1
  3
ACAD_CIP_PREVIOUS_PRODUCT_INFO
350
851D
  3
ACAD_COLOR
350
8500
  3
ACAD_DETAILVIEWSTYLE
350
8519
  3
ACAD_GROUP
350
D
  3
ACAD_LAYOUT
350
8460
  3
ACAD_MATERIAL
350
84CE
  3
ACAD_MLEADERSTYLE
350
8515
  3
ACAD_MLINESTYLE
350
E
  3
ACAD_PLOTSETTINGS
350
8461
  3
ACAD_PLOTSTYLENAME
350
845E
  3
ACAD_SCALELIST
350
8503
  3
ACAD_SECTIONVIEWSTYLE
350
8517
  3
ACAD_TABLESTYLE
350
8501
  3
ACAD_VISUALSTYLE
350
84E7
  3
ACDB_RECOMPOSE_DATA
350
8565
  3
AcDbVariableDictionary
350
8554
  3
AcDsDecomposeData
350
856B
  0
DICTIONARY
  5
8548
330
2
100
AcDbDictionary
280
     1
281
     1
  3
ACAD_LAYERSTATES
360
8549
  0
DICTIONARY
  5
853B
330
F
100
AcDbDictionary
280
     1
281
     1
  3
ADSK_XREC_LAYER_RECONCILED
360
853C
  0
DICTIONARY
  5
853D
330
31
100
AcDbDictionary
280
     1
281
     1
  3
ADSK_XREC_LAYER_RECONCILED
360
853E
  0
DICTIONARY
  5
853F
330
76D0
100
AcDbDictionary
280
     1
281
     1
  3
ADSK_XREC_LAYER_RECONCILED
360
8540
  0
DICTIONARY
  5
8541
330
76D1
100
AcDbDictionary
280
     1
281
     1
  3
ADSK_XREC_LAYER_RECONCILED
360
8542
  0
DICTIONARY
  5
8543
330
76D2
100
AcDbDictionary
280
     1
281
     1
  3
ADSK_XREC_LAYER_RECONCILED
360
8544
  0
DICTIONARY
  5
848D
330
19
100
AcDbDictionary
280
     1
281
     1
  3
ACAD_LAYOUTSELFREF
360
848E
  3
ACAD_SORTENTS
360
851F
  0
DICTIONARY
  5
848B
330
16
100
AcDbDictionary
280
     1
281
     1
  3
ACAD_LAYOUTSELFREF
360
848C
  0
XRECORD
  5
851D
102
{ACAD_REACTORS
330
C
102
}
330
C
100
AcDbXrecord
280
     1
300
ACDLT
300
2023
300

  0
DICTIONARY
  5
8500
102
{ACAD_REACTORS
330
C
102
}
330
C
100
AcDbDictionary
281
     1
  0
DICTIONARY
  5
8519
102
{ACAD_REACTORS
330
C
102
}
330
C
100
AcDbDictionary
281
     1
  3
Metric50
350
851A
  0
DICTIONARY
  5
D
102
{ACAD_REACTORS
330
C
102
}
330
C
100
AcDbDictionary
281
     1
  0
DICTIONARY
  5
8460
102
{ACAD_REACTORS
330
C
102
}
330
C
100
AcDbDictionary
281
     1
  3
Model
350
8462
  3
ﾚｲｱｳﾄ1
350
8463
  0
DICTIONARY
  5
84CE
102
{ACAD_REACTORS
330
C
102
}
330
C
100
AcDbDictionary
281
     1
  3
ByBlock
350
84D7
  3
ByLayer
350
84CF
  3
Global
350
84DF
  0
DICTIONARY
  5
8515
102
{ACAD_REACTORS
330
C
102
}
330
C
100
AcDbDictionary
281
     1
  3
Standard
350
8516
  0
DICTIONARY
  5
E
102
{ACAD_REACTORS
330
C
102
}
330
C
100
AcDbDictionary
281
     1
  3
STANDARD
350
1C
  0
DICTIONARY
  5
8461
102
{ACAD_REACTORS
330
C
102
}
330
C
100
AcDbDictionary
281
     1
  0
ACDBDICTIONARYWDFLT
  5
845E
102
{ACAD_REACTORS
330
C
102
}
330
C
100
AcDbDictionary
281
     1
  3
Normal
350
845F
100
AcDbDictionaryWithDefault
340
845F
  0
DICTIONARY
  5
8503
102
{ACAD_REACTORS
330
C
102
}
330
C
100
AcDbDictionary
281
     1
  3
A0
350
8504
  3
A1
350
8505
  3
A2
350
8506
  3
A3
350
8507
  3
A4
350
8508
  3
A5
350
8509
  3
A6
350
850A
  3
A7
350
850B
  3
A8
350
850C
  3
A9
350
850D
  3
B0
350
850E
  3
B1
350
850F
  3
B2
350
8510
  3
B3
350
8511
  3
B4
350
8512
  3
B5
350
8513
  3
B6
350
8514
  0
DICTIONARY
  5
8517
102
{ACAD_REACTORS
330
C
102
}
330
C
100
AcDbDictionary
281
     1
  3
Metric50
350
8518
  0
DICTIONARY
  5
8501
102
{ACAD_REACTORS
330
C
102
}
330
C
100
AcDbDictionary
281
     1
  3
Standard
350
8502
  0
DICTIONARY
  5
84E7
102
{ACAD_REACTORS
330
C
102
}
330
C
100
AcDbDictionary
281
     1
  3
2dWireframe
350
84ED
  3
Basic
350
84EC
  3
Brighten
350
84F3
  3
ColorChange
350
84F7
  3
Conceptual
350
84F0
  3
Dim
350
84F2
  3
EdgeColorOff
350
84FF
  3
Facepattern
350
84F6
  3
Flat
350
84E8
  3
FlatWithEdges
350
84E9
  3
Gouraud
350
84EA
  3
GouraudWithEdges
350
84EB
  3
Hidden
350
84EF
  3
JitterOff
350
84FD
  3
Linepattern
350
84F5
  3
OverhangOff
350
84FE
  3
Realistic
350
84F1
  3
Shaded
350
84FC
  3
Shaded with edges
350
84FB
  3
Shades of Gray
350
84F8
  3
Sketchy
350
84F9
  3
Thicken
350
84F4
  3
Wireframe
350
84EE
  3
X-Ray
350
84FA
  0
XRECORD
  5
8565
102
{ACAD_REACTORS
330
C
102
}
330
C
100
AcDbXrecord
280
     1
 90
        1
330
8172
330
8196
330
8197
330
8502
  0
DICTIONARY
  5
8554
102
{ACAD_REACTORS
330
C
102
}
330
C
100
AcDbDictionary
281
     1
  3
CANNOSCALE
350
855A
  3
CMLEADERSTYLE
350
8556
  3
CTABLESTYLE
350
8555
  3
CVIEWDETAILSTYLE
350
8557
  3
CVIEWSECTIONSTYLE
350
8558
  3
LAYEREVAL
350
855C
  3
LAYERNOTIFY
350
855D
  3
LIGHTINGUNITS
350
855B
  3
MARKUPASSISTMODE
350
8562
  3
MSLTSCALE
350
8559
  0
DICTIONARY
  5
856B
102
{ACAD_REACTORS
330
C
102
}
330
C
100
AcDbDictionary
281
     1
  3
AcDsRecords
350
856D
  3
AcDsSchemas
350
856C
1001
ACAD
1070
     2
  0
DICTIONARY
  5
8549
102
{ACAD_REACTORS
330
8548
102
}
330
8548
100
AcDbDictionary
281
     1
  0
XRECORD
  5
853C
102
{ACAD_REACTORS
330
853B
102
}
330
853B
100
AcDbXrecord
280
     1
290
     1
  0
XRECORD
  5
853E
102
{ACAD_REACTORS
330
853D
102
}
330
853D
100
AcDbXrecord
280
     1
290
     1
  0
XRECORD
  5
8540
102
{ACAD_REACTORS
330
853F
102
}
330
853F
100
AcDbXrecord
280
     1
290
     1
  0
XRECORD
  5
8542
102
{ACAD_REACTORS
330
8541
102
}
330
8541
100
AcDbXrecord
280
     1
290
     1
  0
XRECORD
  5
8544
102
{ACAD_REACTORS
330
8543
102
}
330
8543
100
AcDbXrecord
280
     1
290
     1
  0
XRECORD
  5
848E
102
{ACAD_REACTORS
330
848D
102
}
330
848D
100
AcDbXrecord
280
     1
340
19
  0
SORTENTSTABLE
  5
851F
102
{ACAD_REACTORS
330
848D
102
}
330
848D
100
AcDbSortentsTable
330
19
331
8168
  5
8169
331
8169
  5
816A
331
816A
  5
816B
331
816B
  5
816C
331
816C
  5
816D
331
816D
  5
816E
331
816E
  5
816F
331
816F
  5
8170
331
8170
  5
8171
331
8171
  5
8172
331
8172
  5
8176
331
8176
  5
8177
331
8177
  5
8178
331
8178
  5
8179
331
8179
  5
817A
331
817A
  5
817B
331
817B
  5
817C
331
817C
  5
817D
331
817D
  5
8181
331
8181
  5
8182
331
8182
  5
8183
331
8183
  5
8184
331
8184
  5
8185
331
8185
  5
8186
331
8186
  5
8187
331
8187
  5
8188
331
8188
  5
8189
331
8189
  5
818A
331
818A
  5
818B
331
818B
  5
818C
331
818C
  5
818D
331
818D
  5
818E
331
818E
  5
818F
331
818F
  5
8190
331
8190
  5
8191
331
8191
  5
8192
331
8192
  5
8193
331
8193
  5
8194
331
8194
  5
8195
331
8195
  5
8196
331
8196
  5
8197
331
8197
  5
8198
331
8198
  5
819A
331
819A
  5
819B
331
819B
  5
819C
331
819C
  5
819D
331
819D
  5
819E
331
819E
  5
819F
331
819F
  5
81A0
331
81A0
  5
81A1
331
81A1
  5
81A2
331
81A2
  5
81A5
331
81A5
  5
81A7
331
81A7
  5
81A8
331
81A8
  5
81A9
331
81A9
  5
81AA
331
81AA
  5
81AB
331
81AB
  5
81AC
331
81AC
  5
81AD
331
81AD
  5
81AE
331
81AE
  5
81AF
331
81AF
  5
81B0
331
81B0
  5
81B1
331
81B1
  5
81B2
331
81B2
  5
81B3
331
81B3
  5
81B4
331
81B4
  5
81B5
331
81B5
  5
81B6
331
81B6
  5
81B7
331
81B7
  5
81B8
331
81B8
  5
81B9
331
81B9
  5
81BA
331
81BA
  5
81BB
331
81BB
  5
81BC
331
81BC
  5
81BD
331
81BD
  5
81BE
331
81BE
  5
81BF
331
81BF
  5
81C0
331
81C0
  5
81C1
331
81C1
  5
81C2
331
81C2
  5
81C3
331
81C3
  5
81C5
331
81C5
  5
81C6
331
81C6
  5
81C7
331
81C7
  5
81C8
331
81C8
  5
81C9
331
81C9
  5
81CA
331
81CA
  5
81CC
331
81CC
  5
81CD
331
81CD
  5
81CE
331
81CE
  5
81CF
331
81CF
  5
81D0
331
81D0
  5
81D1
331
81D1
  5
81D2
331
81D2
  5
81D3
331
81D3
  5
81D4
331
81D4
  5
81D5
331
81D5
  5
81D6
331
81D6
  5
81D7
331
81D7
  5
81D8
331
81D8
  5
81D9
331
81D9
  5
81DA
331
81DA
  5
81DB
331
81DB
  5
81DE
331
81DE
  5
81DF
331
81DF
  5
81E0
331
81E0
  5
81E1
331
81E1
  5
81E2
331
81E2
  5
81E3
331
81E3
  5
81E4
331
81E4
  5
81E5
331
81E5
  5
81E6
331
81E6
  5
81E7
331
81E7
  5
81E8
331
81E8
  5
81E9
331
81E9
  5
81EA
331
81EA
  5
81EB
331
81EB
  5
81EC
331
81EC
  5
81ED
331
81ED
  5
81EE
331
81EE
  5
81EF
331
81EF
  5
81F0
331
81F0
  5
81F1
331
81F1
  5
81F2
331
81F2
  5
81F3
331
81F3
  5
81F4
331
81F4
  5
81F5
331
81F5
  5
81F6
331
81F6
  5
81F7
331
81F7
  5
81F8
331
81F8
  5
81F9
331
81F9
  5
81FA
331
81FA
  5
81FB
331
81FB
  5
81FC
331
81FC
  5
81FD
331
81FD
  5
81FE
331
81FE
  5
81FF
331
81FF
  5
8200
331
8200
  5
8201
331
8201
  5
8403
331
8403
  5
8410
331
8410
  5
841D
331
841D
  5
842A
331
842A
  5
8437
331
8437
  5
8444
331
8444
  5
8449
331
8449
  5
844A
331
844A
  5
844B
331
844B
  5
8450
331
8450
  5
8456
331
8456
  5
8457
331
8457
  5
851E
  0
XRECORD
  5
848C
102
{ACAD_REACTORS
330
848B
102
}
330
848B
100
AcDbXrecord
280
     1
340
16
  0
ACDBDETAILVIEWSTYLE
  5
851A
102
{ACAD_XDICTIONARY
360
8570
102
}
102
{ACAD_REACTORS
330
8519
102
}
330
8519
100
AcDbModelDocViewStyle
 70
     0
  3
Metric50
290
     0
100
AcDbDetailViewStyle
 70
     0
 71
     0
 90
        3
 71
     1
340
10
 62
   256
 40
5.0
340
0
 62
   256
 40
5.0
300

 40
0.0
280
     1
 71
     2
340
15
 90
       25
 62
   256
 71
     3
340
10
 62
   256
 40
5.0
 90
        0
 40
15.0
 90
        1
300
%<\AcVar ViewDetailId>% (%<\AcVar ViewScale \f "%sn">%)
 71
     4
340
15
 90
       25
 62
   256
340
15
 90
       25
 62
   256
280
     0
  0
LAYOUT
  5
8462
102
{ACAD_REACTORS
330
8460
102
}
330
8460
100
AcDbPlotSettings
  1

  2
EPSON LP-9300
  4

  6

 40
0.0
 41
0.0
 42
0.0
 43
0.0
 44
0.0
 45
0.0
 46
0.0
 47
0.0
 48
0.0
 49
0.0
140
0.0
141
0.0
142
1.0
143
1.0
 70
  1712
 72
     0
 73
     0
 74
     0
  7

 75
     0
147
1.0
 76
     0
 77
     2
 78
   300
148
0.0
149
0.0
100
AcDbLayout
  1
Model
 70
     1
 71
     0
 10
0.0
 20
0.0
 11
12.0
 21
9.0
 12
0.0
 22
0.0
 32
0.0
 14
0.0
 24
0.0
 34
0.0
 15
0.0
 25
0.0
 35
0.0
146
0.0
 13
0.0
 23
0.0
 33
0.0
 16
1.0
 26
0.0
 36
0.0
 17
0.0
 27
1.0
 37
0.0
 76
     0
330
19
331
84CC
  0
LAYOUT
  5
8463
102
{ACAD_REACTORS
330
8460
102
}
330
8460
100
AcDbPlotSettings
  1

  2
EPSON LP-9300
  4

  6

 40
0.0
 41
0.0
 42
0.0
 43
0.0
 44
0.0
 45
0.0
 46
0.0
 47
0.0
 48
0.0
 49
0.0
140
0.0
141
0.0
142
1.0
143
1.0
 70
   688
 72
     0
 73
     0
 74
     5
  7

 75
    16
147
1.0
 76
     0
 77
     2
 78
   300
148
0.0
149
0.0
100
AcDbLayout
  1
ﾚｲｱｳﾄ1
 70
     1
 71
     1
 10
0.0
 20
0.0
 11
12.0
 21
9.0
 12
0.0
 22
0.0
 32
0.0
 14
1.000000000000000E+20
 24
1.000000000000000E+20
 34
1.000000000000000E+20
 15
-1.000000000000000E+20
 25
-1.000000000000000E+20
 35
-1.000000000000000E+20
146
0.0
 13
0.0
 23
0.0
 33
0.0
 16
1.0
 26
0.0
 36
0.0
 17
0.0
 27
1.0
 37
0.0
 76
     0
330
16
  0
MATERIAL
  5
84D7
102
{ACAD_XDICTIONARY
360
84D8
102
}
102
{ACAD_REACTORS
330
84CE
102
}
330
84CE
100
AcDbMaterial
  1
ByBlock
 72
     0
 43
0.0208333333333333
 43
0.0
 43
0.0
 43
0.0
 43
0.0
 43
0.0208333333333333
 43
0.0
 43
0.0
 43
0.0
 43
0.0
 43
1.0
 43
0.0
 43
0.0
 43
0.0
 43
0.0
 43
1.0
 77
     0
 47
0.0208333333333333
 47
0.0
 47
0.0
 47
0.0
 47
0.0
 47
0.0208333333333333
 47
0.0
 47
0.0
 47
0.0
 47
0.0
 47
1.0
 47
0.0
 47
0.0
 47
0.0
 47
0.0
 47
1.0
171
     0
 49
0.0208333333333333
 49
0.0
 49
0.0
 49
0.0
 49
0.0
 49
0.0208333333333333
 49
0.0
 49
0.0
 49
0.0
 49
0.0
 49
1.0
 49
0.0
 49
0.0
 49
0.0
 49
0.0
 49
1.0
175
     0
142
0.0208333333333333
142
0.0
142
0.0
142
0.0
142
0.0
142
0.0208333333333333
142
0.0
142
0.0
142
0.0
142
0.0
142
1.0
142
0.0
142
0.0
142
0.0
142
0.0
142
1.0
179
     0
144
0.0208333333333333
144
0.0
144
0.0
144
0.0
144
0.0
144
0.0208333333333333
144
0.0
144
0.0
144
0.0
144
0.0
144
1.0
144
0.0
144
0.0
144
0.0
144
0.0
144
1.0
147
0.0208333333333333
147
0.0
147
0.0
147
0.0
147
0.0
147
0.0208333333333333
147
0.0
147
0.0
147
0.0
147
0.0
147
1.0
147
0.0
147
0.0
147
0.0
147
0.0
147
1.0
  0
MATERIAL
  5
84CF
102
{ACAD_XDICTIONARY
360
84D0
102
}
102
{ACAD_REACTORS
330
84CE
102
}
330
84CE
100
AcDbMaterial
  1
ByLayer
 72
     0
 43
0.0208333333333333
 43
0.0
 43
0.0
 43
0.0
 43
0.0
 43
0.0208333333333333
 43
0.0
 43
0.0
 43
0.0
 43
0.0
 43
1.0
 43
0.0
 43
0.0
 43
0.0
 43
0.0
 43
1.0
 77
     0
 47
0.0208333333333333
 47
0.0
 47
0.0
 47
0.0
 47
0.0
 47
0.0208333333333333
 47
0.0
 47
0.0
 47
0.0
 47
0.0
 47
1.0
 47
0.0
 47
0.0
 47
0.0
 47
0.0
 47
1.0
171
     0
 49
0.0208333333333333
 49
0.0
 49
0.0
 49
0.0
 49
0.0
 49
0.0208333333333333
 49
0.0
 49
0.0
 49
0.0
 49
0.0
 49
1.0
 49
0.0
 49
0.0
 49
0.0
 49
0.0
 49
1.0
175
     0
142
0.0208333333333333
142
0.0
142
0.0
142
0.0
142
0.0
142
0.0208333333333333
142
0.0
142
0.0
142
0.0
142
0.0
142
1.0
142
0.0
142
0.0
142
0.0
142
0.0
142
1.0
179
     0
144
0.0208333333333333
144
0.0
144
0.0
144
0.0
144
0.0
144
0.0208333333333333
144
0.0
144
0.0
144
0.0
144
0.0
144
1.0
144
0.0
144
0.0
144
0.0
144
0.0
144
1.0
147
0.0208333333333333
147
0.0
147
0.0
147
0.0
147
0.0
147
0.0208333333333333
147
0.0
147
0.0
147
0.0
147
0.0
147
1.0
147
0.0
147
0.0
147
0.0
147
0.0
147
1.0
  0
MATERIAL
  5
84DF
102
{ACAD_XDICTIONARY
360
84E0
102
}
102
{ACAD_REACTORS
330
84CE
102
}
330
84CE
100
AcDbMaterial
  1
Global
 72
     0
 43
0.0208333333333333
 43
0.0
 43
0.0
 43
0.0
 43
0.0
 43
0.0208333333333333
 43
0.0
 43
0.0
 43
0.0
 43
0.0
 43
1.0
 43
0.0
 43
0.0
 43
0.0
 43
0.0
 43
1.0
 77
     0
 47
0.0208333333333333
 47
0.0
 47
0.0
 47
0.0
 47
0.0
 47
0.0208333333333333
 47
0.0
 47
0.0
 47
0.0
 47
0.0
 47
1.0
 47
0.0
 47
0.0
 47
0.0
 47
0.0
 47
1.0
171
     0
 49
0.0208333333333333
 49
0.0
 49
0.0
 49
0.0
 49
0.0
 49
0.0208333333333333
 49
0.0
 49
0.0
 49
0.0
 49
0.0
 49
1.0
 49
0.0
 49
0.0
 49
0.0
 49
0.0
 49
1.0
175
     0
142
0.0208333333333333
142
0.0
142
0.0
142
0.0
142
0.0
142
0.0208333333333333
142
0.0
142
0.0
142
0.0
142
0.0
142
1.0
142
0.0
142
0.0
142
0.0
142
0.0
142
1.0
179
     0
144
0.0208333333333333
144
0.0
144
0.0
144
0.0
144
0.0
144
0.0208333333333333
144
0.0
144
0.0
144
0.0
144
0.0
144
1.0
144
0.0
144
0.0
144
0.0
144
0.0
144
1.0
147
0.0208333333333333
147
0.0
147
0.0
147
0.0
147
0.0
147
0.0208333333333333
147
0.0
147
0.0
147
0.0
147
0.0
147
1.0
147
0.0
147
0.0
147
0.0
147
0.0
147
1.0
  0
MLEADERSTYLE
  5
8516
102
{ACAD_REACTORS
330
8515
102
}
330
8515
100
AcDbMLeaderStyle
179
     2
170
     2
171
     1
172
     0
 90
        2
 40
0.0
 41
0.0
173
     1
 91
-1056964608
340
13
 92
       -2
290
     1
 42
2.0
291
     1
 43
0.36
  3
Standard
 44
4.0
300

342
10
174
     1
178
     6
175
     1
176
     0
 93
-1056964608
 45
4.0
292
     0
297
     0
 46
4.0
 94
-1056964608
 47
1.0
 49
1.0
140
1.0
293
     1
141
0.0
294
     1
177
     0
142
1.0
295
     0
296
     0
143
0.125
271
     0
272
     9
273
     9
298
     1
  0
MLINESTYLE
  5
1C
102
{ACAD_REACTORS
330
E
102
}
330
E
100
AcDbMlineStyle
  2
STANDARD
 70
     0
  3

 62
     0
 51
90.0
 52
90.0
 71
     2
 49
0.5
 62
   256
  6
BYLAYER
 49
-0.5
 62
   256
  6
BYLAYER
  0
ACDBPLACEHOLDER
  5
845F
102
{ACAD_REACTORS
330
845E
102
}
330
845E
  0
SCALE
  5
8504
102
{ACAD_REACTORS
330
8503
102
}
330
8503
100
AcDbScale
 70
     0
300
1:1
140
1.0
141
1.0
290
     1
  0
SCALE
  5
8505
102
{ACAD_REACTORS
330
8503
102
}
330
8503
100
AcDbScale
 70
     0
300
1:2
140
1.0
141
2.0
290
     0
  0
SCALE
  5
8506
102
{ACAD_REACTORS
330
8503
102
}
330
8503
100
AcDbScale
 70
     0
300
1:4
140
1.0
141
4.0
290
     0
  0
SCALE
  5
8507
102
{ACAD_REACTORS
330
8503
102
}
330
8503
100
AcDbScale
 70
     0
300
1:5
140
1.0
141
5.0
290
     0
  0
SCALE
  5
8508
102
{ACAD_REACTORS
330
8503
102
}
330
8503
100
AcDbScale
 70
     0
300
1:8
140
1.0
141
8.0
290
     0
  0
SCALE
  5
8509
102
{ACAD_REACTORS
330
8503
102
}
330
8503
100
AcDbScale
 70
     0
300
1:10
140
1.0
141
10.0
290
     0
  0
SCALE
  5
850A
102
{ACAD_REACTORS
330
8503
102
}
330
8503
100
AcDbScale
 70
     0
300
1:16
140
1.0
141
16.0
290
     0
  0
SCALE
  5
850B
102
{ACAD_REACTORS
330
8503
102
}
330
8503
100
AcDbScale
 70
     0
300
1:20
140
1.0
141
20.0
290
     0
  0
SCALE
  5
850C
102
{ACAD_REACTORS
330
8503
102
}
330
8503
100
AcDbScale
 70
     0
300
1:30
140
1.0
141
30.0
290
     0
  0
SCALE
  5
850D
102
{ACAD_REACTORS
330
8503
102
}
330
8503
100
AcDbScale
 70
     0
300
1:40
140
1.0
141
40.0
290
     0
  0
SCALE
  5
850E
102
{ACAD_REACTORS
330
8503
102
}
330
8503
100
AcDbScale
 70
     0
300
1:50
140
1.0
141
50.0
290
     0
  0
SCALE
  5
850F
102
{ACAD_REACTORS
330
8503
102
}
330
8503
100
AcDbScale
 70
     0
300
1:100
140
1.0
141
100.0
290
     0
  0
SCALE
  5
8510
102
{ACAD_REACTORS
330
8503
102
}
330
8503
100
AcDbScale
 70
     0
300
2:1
140
2.0
141
1.0
290
     0
  0
SCALE
  5
8511
102
{ACAD_REACTORS
330
8503
102
}
330
8503
100
AcDbScale
 70
     0
300
4:1
140
4.0
141
1.0
290
     0
  0
SCALE
  5
8512
102
{ACAD_REACTORS
330
8503
102
}
330
8503
100
AcDbScale
 70
     0
300
8:1
140
8.0
141
1.0
290
     0
  0
SCALE
  5
8513
102
{ACAD_REACTORS
330
8503
102
}
330
8503
100
AcDbScale
 70
     0
300
10:1
140
10.0
141
1.0
290
     0
  0
SCALE
  5
8514
102
{ACAD_REACTORS
330
8503
102
}
330
8503
100
AcDbScale
 70
     0
300
100:1
140
100.0
141
1.0
290
     0
  0
ACDBSECTIONVIEWSTYLE
  5
8518
102
{ACAD_XDICTIONARY
360
856E
102
}
102
{ACAD_REACTORS
330
8517
102
}
330
8517
100
AcDbModelDocViewStyle
 70
     0
  3
Metric50
290
     0
100
AcDbSectionViewStyle
 70
     0
 71
     0
 90
      102
 71
     1
340
10
 62
   256
 40
5.0
340
0
340
0
 62
   256
 40
5.0
300
I, O, Q, S, X, Z
 40
10.0
 90
        0
 40
2.5
 90
        0
 71
     2
340
15
 90
       25
 62
   256
340
15
 90
       50
 62
   256
 40
5.0
 40
2.5
 40
5.0
 71
     3
340
10
 62
   256
 40
5.0
 90
        0
 40
15.0
 90
        1
300
%<\AcVar ViewSectionStartId>%-%<\AcVar ViewSectionEndId>% (%<\AcVar ViewScale \f "%sn">%)
 71
     4
 62
   256
 62
   257
300
ANSI31
 40
1.0
 90
        0
290
     0
290
     0
 90
        6
 40
0.0
 40
1.570796326794896
 40
0.2617993877991494
 40
1.308996938995747
 40
-0.2617993877991494
 40
1.832595714594046
  0
TABLESTYLE
  5
8502
102
{ACAD_XDICTIONARY
360
8563
102
}
102
{ACAD_REACTORS
330
8501
102
}
330
8501
100
AcDbTableStyle
280
     0
  3
Standard
 70
     0
 71
     0
 40
1.5
 41
1.5
280
     0
281
     0
  7
STANDARD
140
4.5
170
     2
 62
     0
 63
     7
283
     0
 90
      512
 91
        0
  1

274
    -2
284
     1
 64
     0
275
    -2
285
     1
 65
     0
276
    -2
286
     1
 66
     0
277
    -2
287
     1
 67
     0
278
    -2
288
     1
 68
     0
279
    -2
289
     1
 69
     0
  7
STANDARD
140
6.0
170
     5
 62
     0
 63
     7
283
     0
 90
      512
 91
        0
  1

274
    -2
284
     1
 64
     0
275
    -2
285
     1
 65
     0
276
    -2
286
     1
 66
     0
277
    -2
287
     1
 67
     0
278
    -2
288
     1
 68
     0
279
    -2
289
     1
 69
     0
  7
STANDARD
140
4.5
170
     5
 62
     0
 63
     7
283
     0
 90
      512
 91
        0
  1

274
    -2
284
     1
 64
     0
275
    -2
285
     1
 65
     0
276
    -2
286
     1
 66
     0
277
    -2
287
     1
 67
     0
278
    -2
288
     1
 68
     0
279
    -2
289
     1
 69
     0
  0
VISUALSTYLE
  5
84ED
102
{ACAD_REACTORS
330
84E7
102
}
330
84E7
100
AcDbVisualStyle
  2
2dWireframe
 70
     4
177
     3
291
     0
 70
    58
 90
        0
176
     1
 90
        2
176
     1
 90
        0
176
     1
 90
        0
176
     1
 40
0.6
176
     1
 40
30.0
176
     1
 62
     7
420
 16777215
176
     1
 90
        1
176
     1
 90
        4
176
     1
 62
     7
176
     1
 62
   257
176
     1
 90
        1
176
     1
 90
        1
176
     1
 40
1.0
176
     1
 90
        0
176
     1
 62
   257
176
     1
 40
1.0
176
     1
 90
        1
176
     1
 90
        6
176
     1
 90
        2
176
     1
 62
     7
176
     1
 90
        5
176
     1
 90
        0
176
     1
 90
        0
176
     1
290
     0
176
     1
 90
        1
176
     1
 40
0.0
176
     1
 90
        0
176
     1
290
     1
176
     1
290
     1
176
     1
290
     0
176
     1
290
     0
176
     1
290
     0
176
     1
290
     0
176
     1
290
     0
176
     1
290
     0
176
     1
290
     0
176
     1
 90
       50
176
     1
 40
0.0
176
     1
 40
1.0
176
     1
 90
        0
176
     1
 62
    18
420
        0
176
     1
 90
       50
176
     1
 90
        3
176
     1
 62
     5
420
      255
176
     1
290
     0
176
     1
 90
       50
176
     1
 90
       50
176
     1
 90
       50
176
     1
290
     0
176
     1
 90
       50
176
     1
 62
   256
176
     0
 40
1.0
176
     0
 90
        2
176
     1
  1
strokes_ogs.tif
176
     1
290
     0
176
     1
 40
1.0
176
     1
 40
1.0
176
     1
1001
ACAD
1000
AcDbSavedByObjectVersion
1070
     0
  0
VISUALSTYLE
  5
84EC
102
{ACAD_REACTORS
330
84E7
102
}
330
84E7
100
AcDbVisualStyle
  2
Basic
 70
     7
177
     3
291
     1
 70
    58
 90
        1
176
     1
 90
        0
176
     1
 90
        1
176
     1
 90
        0
176
     1
 40
0.6
176
     1
 40
30.0
176
     1
 62
     7
420
 16777215
176
     1
 90
        0
176
     1
 90
        4
176
     1
 62
     7
176
     1
 62
   257
176
     1
 90
        1
176
     1
 90
        1
176
     1
 40
1.0
176
     1
 90
        8
176
     1
 62
     7
176
     1
 40
1.0
176
     1
 90
        1
176
     1
 90
        6
176
     1
 90
        2
176
     1
 62
     7
176
     1
 90
        5
176
     1
 90
        0
176
     1
 90
        0
176
     1
290
     0
176
     1
 90
        1
176
     1
 40
0.0
176
     1
 90
        0
176
     1
290
     0
176
     1
290
     1
176
     1
290
     1
176
     1
290
     0
176
     1
290
     0
176
     1
290
     0
176
     1
290
     0
176
     1
290
     0
176
     1
290
     0
176
     1
 90
       50
176
     1
 40
0.0
176
     1
 40
1.0
176
     1
 90
        0
176
     1
 62
    18
420
        0
176
     1
 90
       50
176
     1
 90
        3
176
     1
 62
     5
420
      255
176
     1
290
     0
176
     1
 90
       50
176
     1
 90
       50
176
     1
 90
       50
176
     1
290
     0
176
     1
 90
       50
176
     1
 62
   256
176
     0
 40
1.0
176
     0
 90
        2
176
     1
  1
strokes_ogs.tif
176
     1
290
     0
176
     1
 40
1.0
176
     1
 40
1.0
176
     1
1001
ACAD
1000
AcDbSavedByObjectVersion
1070
     0
  0
VISUALSTYLE
  5
84F3
102
{ACAD_REACTORS
330
84E7
102
}
330
84E7
100
AcDbVisualStyle
  2
Brighten
 70
    12
177
     3
291
     1
 70
    58
 90
        2
176
     1
 90
        2
176
     1
 90
        0
176
     1
 90
        0
176
     1
 40
0.6
176
     1
 40
30.0
176
     1
 62
     7
420
 16777215
176
     1
 90
        1
176
     1
 90
        4
176
     1
 62
     7
176
     1
 62
   257
176
     1
 90
        1
176
     1
 90
        1
176
     1
 40
1.0
176
     1
 90
        8
176
     1
 62
     7
176
     1
 40
1.0
176
     1
 90
        1
176
     1
 90
        6
176
     1
 90
        2
176
     1
 62
     7
176
     1
 90
        5
176
     1
 90
        0
176
     1
 90
        0
176
     1
290
     0
176
     1
 90
        1
176
     1
 40
50.0
176
     1
 90
        0
176
     1
290
     0
176
     1
290
     1
176
     1
290
     1
176
     1
290
     0
176
     1
290
     0
176
     1
290
     0
176
     1
290
     0
176
     1
290
     0
176
     1
290
     0
176
     1
 90
       50
176
     1
 40
0.0
176
     1
 40
1.0
176
     1
 90
        0
176
     1
 62
    18
420
        0
176
     1
 90
       50
176
     1
 90
        3
176
     1
 62
     5
420
      255
176
     1
290
     0
176
     1
 90
       50
176
     1
 90
       50
176
     1
 90
       50
176
     1
290
     0
176
     1
 90
       50
176
     1
 62
   256
176
     0
 40
1.0
176
     0
 90
        2
176
     1
  1
strokes_ogs.tif
176
     1
290
     0
176
     1
 40
1.0
176
     1
 40
1.0
176
     1
1001
ACAD
1000
AcDbSavedByObjectVersion
1070
     0
  0
VISUALSTYLE
  5
84F7
102
{ACAD_REACTORS
330
84E7
102
}
330
84E7
100
AcDbVisualStyle
  2
ColorChange
 70
    16
177
     3
291
     1
 70
    58
 90
        2
176
     1
 90
        2
176
     1
 90
        3
176
     1
 90
        0
176
     1
 40
0.6
176
     1
 40
30.0
176
     1
 62
     8
420
  8421504
176
     1
 90
        1
176
     1
 90
        4
176
     1
 62
     7
176
     1
 62
   257
176
     1
 90
        1
176
     1
 90
        1
176
     1
 40
1.0
176
     1
 90
        8
176
     1
 62
     8
420
  8421504
176
     1
 40
1.0
176
     1
 90
        1
176
     1
 90
        6
176
     1
 90
        2
176
     1
 62
     7
176
     1
 90
        5
176
     1
 90
        0
176
     1
 90
        0
176
     1
290
     0
176
     1
 90
        1
176
     1
 40
0.0
176
     1
 90
        0
176
     1
290
     0
176
     1
290
     1
176
     1
290
     1
176
     1
290
     0
176
     1
290
     0
176
     1
290
     0
176
     1
290
     0
176
     1
290
     0
176
     1
290
     0
176
     1
 90
       50
176
     1
 40
0.0
176
     1
 40
1.0
176
     1
 90
        0
176
     1
 62
    18
420
        0
176
     1
 90
       50
176
     1
 90
        3
176
     1
 62
     5
420
      255
176
     1
290
     0
176
     1
 90
       50
176
     1
 90
       50
176
     1
 90
       50
176
     1
290
     0
176
     1
 90
       50
176
     1
 62
   256
176
     0
 40
1.0
176
     0
 90
        2
176
     1
  1
strokes_ogs.tif
176
     1
290
     0
176
     1
 40
1.0
176
     1
 40
1.0
176
     1
1001
ACAD
1000
AcDbSavedByObjectVersion
1070
     0
  0
VISUALSTYLE
  5
84F0
102
{ACAD_REACTORS
330
84E7
102
}
330
84E7
100
AcDbVisualStyle
  2
Conceptual
 70
     9
177
     3
291
     0
 70
    58
 90
        3
176
     1
 90
        2
176
     1
 90
        0
176
     1
 90
        0
176
     1
 40
0.6
176
     1
 40
30.0
176
     1
 62
     7
420
 16777215
176
     1
 90
        2
176
     1
 90
        2
176
     1
 62
     7
176
     1
 62
   257
176
     1
 90
        1
176
     1
 90
        1
176
     1
 40
179.0
176
     1
 90
        8
176
     1
 62
     7
176
     1
 40
1.0
176
     1
 90
        1
176
     1
 90
        6
176
     1
 90
        2
176
     1
 62
     7
176
     1
 90
        3
176
     1
 90
        0
176
     1
 90
        0
176
     1
290
     0
176
     1
 90
        1
176
     1
 40
0.0
176
     1
 90
        0
176
     1
290
     0
176
     1
290
     1
176
     1
290
     1
176
     1
290
     0
176
     1
290
     0
176
     1
290
     0
176
     1
290
     0
176
     1
290
     0
176
     1
290
     0
176
     1
 90
       50
176
     1
 40
0.0
176
     1
 40
1.0
176
     1
 90
        0
176
     1
 62
    18
420
        0
176
     1
 90
       50
176
     1
 90
        3
176
     1
 62
     5
420
      255
176
     1
290
     0
176
     1
 90
       50
176
     1
 90
       50
176
     1
 90
       50
176
     1
290
     0
176
     1
 90
       50
176
     1
 62
   256
176
     0
 40
1.0
176
     0
 90
        2
176
     1
  1
strokes_ogs.tif
176
     1
290
     0
176
     1
 40
1.0
176
     1
 40
1.0
176
     1
1001
ACAD
1000
AcDbSavedByObjectVersion
1070
     0
  0
VISUALSTYLE
  5
84F2
102
{ACAD_REACTORS
330
84E7
102
}
330
84E7
100
AcDbVisualStyle
  2
Dim
 70
    11
177
     3
291
     1
 70
    58
 90
        2
176
     1
 90
        2
176
     1
 90
        0
176
     1
 90
        0
176
     1
 40
0.6
176
     1
 40
30.0
176
     1
 62
     7
420
 16777215
176
     1
 90
        1
176
     1
 90
        4
176
     1
 62
     7
176
     1
 62
   257
176
     1
 90
        1
176
     1
 90
        1
176
     1
 40
1.0
176
     1
 90
        8
176
     1
 62
     7
176
     1
 40
1.0
176
     1
 90
        1
176
     1
 90
        6
176
     1
 90
        2
176
     1
 62
     7
176
     1
 90
        5
176
     1
 90
        0
176
     1
 90
        0
176
     1
290
     0
176
     1
 90
        1
176
     1
 40
-50.0
176
     1
 90
        0
176
     1
290
     0
176
     1
290
     1
176
     1
290
     1
176
     1
290
     0
176
     1
290
     0
176
     1
290
     0
176
     1
290
     0
176
     1
290
     0
176
     1
290
     0
176
     1
 90
       50
176
     1
 40
0.0
176
     1
 40
1.0
176
     1
 90
        0
176
     1
 62
    18
420
        0
176
     1
 90
       50
176
     1
 90
        3
176
     1
 62
     5
420
      255
176
     1
290
     0
176
     1
 90
       50
176
     1
 90
       50
176
     1
 90
       50
176
     1
290
     0
176
     1
 90
       50
176
     1
 62
   256
176
     0
 40
1.0
176
     0
 90
        2
176
     1
  1
strokes_ogs.tif
176
     1
290
     0
176
     1
 40
1.0
176
     1
 40
1.0
176
     1
1001
ACAD
1000
AcDbSavedByObjectVersion
1070
     0
  0
VISUALSTYLE
  5
84FF
102
{ACAD_REACTORS
330
84E7
102
}
330
84E7
100
AcDbVisualStyle
  2
EdgeColorOff
 70
    22
177
     3
291
     1
 70
    58
 90
        2
176
     0
 90
        2
176
     0
 90
        0
176
     0
 90
        0
176
     0
 40
0.6
176
     0
 40
30.0
176
     0
 62
     7
420
 16777215
176
     0
 90
        1
176
     0
 90
        4
176
     0
 62
     7
176
     0
 62
   257
176
     0
 90
        1
176
     0
 90
        1
176
     0
 40
1.0
176
     0
 90
        8
176
     2
 62
     7
176
     0
 40
1.0
176
     0
 90
        1
176
     0
 90
        6
176
     0
 90
        2
176
     0
 62
     7
176
     0
 90
        5
176
     0
 90
        0
176
     0
 90
        0
176
     0
290
     0
176
     0
 90
        1
176
     0
 40
0.0
176
     0
 90
        0
176
     0
290
     0
176
     0
290
     1
176
     0
290
     1
176
     0
290
     0
176
     0
290
     0
176
     0
290
     0
176
     0
290
     0
176
     0
290
     0
176
     0
290
     0
176
     0
 90
       50
176
     0
 40
0.0
176
     0
 40
1.0
176
     0
 90
        0
176
     0
 62
    18
420
        0
176
     0
 90
       50
176
     0
 90
        3
176
     0
 62
     5
420
      255
176
     0
290
     0
176
     0
 90
       50
176
     0
 90
       50
176
     0
 90
       50
176
     0
290
     0
176
     0
 90
       50
176
     0
 62
   256
176
     0
 40
1.0
176
     0
 90
        2
176
     0
  1
strokes_ogs.tif
176
     0
290
     0
176
     0
 40
1.0
176
     0
 40
1.0
176
     0
1001
ACAD
1000
AcDbSavedByObjectVersion
1070
     0
  0
VISUALSTYLE
  5
84F6
102
{ACAD_REACTORS
330
84E7
102
}
330
84E7
100
AcDbVisualStyle
  2
Facepattern
 70
    15
177
     3
291
     1
 70
    58
 90
        2
176
     1
 90
        2
176
     1
 90
        0
176
     1
 90
        0
176
     1
 40
0.6
176
     1
 40
30.0
176
     1
 62
     7
420
 16777215
176
     1
 90
        1
176
     1
 90
        4
176
     1
 62
     7
176
     1
 62
   257
176
     1
 90
        1
176
     1
 90
        1
176
     1
 40
1.0
176
     1
 90
        8
176
     1
 62
     7
176
     1
 40
1.0
176
     1
 90
        1
176
     1
 90
        6
176
     1
 90
        2
176
     1
 62
     7
176
     1
 90
        5
176
     1
 90
        0
176
     1
 90
        0
176
     1
290
     0
176
     1
 90
        1
176
     1
 40
0.0
176
     1
 90
        0
176
     1
290
     0
176
     1
290
     1
176
     1
290
     1
176
     1
290
     0
176
     1
290
     0
176
     1
290
     0
176
     1
290
     0
176
     1
290
     0
176
     1
290
     0
176
     1
 90
       50
176
     1
 40
0.0
176
     1
 40
1.0
176
     1
 90
        0
176
     1
 62
    18
420
        0
176
     1
 90
       50
176
     1
 90
        3
176
     1
 62
     5
420
      255
176
     1
290
     0
176
     1
 90
       50
176
     1
 90
       50
176
     1
 90
       50
176
     1
290
     0
176
     1
 90
       50
176
     1
 62
   256
176
     0
 40
1.0
176
     0
 90
        2
176
     1
  1
strokes_ogs.tif
176
     1
290
     0
176
     1
 40
1.0
176
     1
 40
1.0
176
     1
1001
ACAD
1000
AcDbSavedByObjectVersion
1070
     0
  0
VISUALSTYLE
  5
84E8
102
{ACAD_REACTORS
330
84E7
102
}
330
84E7
100
AcDbVisualStyle
  2
Flat
 70
     0
177
     3
291
     1
 70
    58
 90
        2
176
     1
 90
        1
176
     1
 90
        1
176
     1
 90
        2
176
     1
 40
0.6
176
     1
 40
30.0
176
     1
 62
     7
420
 16777215
176
     1
 90
        0
176
     1
 90
        0
176
     1
 62
     7
176
     1
 62
   257
176
     1
 90
        1
176
     1
 90
        1
176
     1
 40
1.0
176
     1
 90
        8
176
     1
 62
     7
176
     1
 40
1.0
176
     1
 90
        1
176
     1
 90
        6
176
     1
 90
        2
176
     1
 62
     7
176
     1
 90
        5
176
     1
 90
        0
176
     1
 90
        0
176
     1
290
     0
176
     1
 90
       13
176
     1
 40
0.0
176
     1
 90
        0
176
     1
290
     0
176
     1
290
     1
176
     1
290
     1
176
     1
290
     0
176
     1
290
     0
176
     1
290
     0
176
     1
290
     0
176
     1
290
     0
176
     1
290
     0
176
     1
 90
       50
176
     1
 40
0.0
176
     1
 40
1.0
176
     1
 90
        0
176
     1
 62
    18
420
        0
176
     1
 90
       50
176
     1
 90
        3
176
     1
 62
     5
420
      255
176
     1
290
     0
176
     1
 90
       50
176
     1
 90
       50
176
     1
 90
       50
176
     1
290
     0
176
     1
 90
       50
176
     1
 62
   256
176
     0
 40
1.0
176
     0
 90
        2
176
     1
  1
strokes_ogs.tif
176
     1
290
     0
176
     1
 40
1.0
176
     1
 40
1.0
176
     1
1001
ACAD
1000
AcDbSavedByObjectVersion
1070
     0
  0
VISUALSTYLE
  5
84E9
102
{ACAD_REACTORS
330
84E7
102
}
330
84E7
100
AcDbVisualStyle
  2
FlatWithEdges
 70
     1
177
     3
291
     1
 70
    58
 90
        2
176
     1
 90
        1
176
     1
 90
        1
176
     1
 90
        2
176
     1
 40
0.6
176
     1
 40
30.0
176
     1
 62
     7
420
 16777215
176
     1
 90
        1
176
     1
 90
        0
176
     1
 62
     7
176
     1
 62
   257
176
     1
 90
        1
176
     1
 90
        1
176
     1
 40
1.0
176
     1
 90
        0
176
     1
 62
   257
176
     1
 40
1.0
176
     1
 90
        1
176
     1
 90
        6
176
     1
 90
        2
176
     1
 62
     7
176
     1
 90
        5
176
     1
 90
        0
176
     1
 90
        0
176
     1
290
     0
176
     1
 90
       13
176
     1
 40
0.0
176
     1
 90
        0
176
     1
290
     0
176
     1
290
     1
176
     1
290
     1
176
     1
290
     0
176
     1
290
     0
176
     1
290
     0
176
     1
290
     0
176
     1
290
     0
176
     1
290
     0
176
     1
 90
       50
176
     1
 40
0.0
176
     1
 40
1.0
176
     1
 90
        0
176
     1
 62
    18
420
        0
176
     1
 90
       50
176
     1
 90
        3
176
     1
 62
     5
420
      255
176
     1
290
     0
176
     1
 90
       50
176
     1
 90
       50
176
     1
 90
       50
176
     1
290
     0
176
     1
 90
       50
176
     1
 62
   256
176
     0
 40
1.0
176
     0
 90
        2
176
     1
  1
strokes_ogs.tif
176
     1
290
     0
176
     1
 40
1.0
176
     1
 40
1.0
176
     1
1001
ACAD
1000
AcDbSavedByObjectVersion
1070
     0
  0
VISUALSTYLE
  5
84EA
102
{ACAD_REACTORS
330
84E7
102
}
330
84E7
100
AcDbVisualStyle
  2
Gouraud
 70
     2
177
     3
291
     1
 70
    58
 90
        2
176
     1
 90
        2
176
     1
 90
        1
176
     1
 90
        2
176
     1
 40
0.6
176
     1
 40
30.0
176
     1
 62
     7
420
 16777215
176
     1
 90
        0
176
     1
 90
        0
176
     1
 62
     7
176
     1
 62
   257
176
     1
 90
        1
176
     1
 90
        1
176
     1
 40
1.0
176
     1
 90
        0
176
     1
 62
     7
176
     1
 40
1.0
176
     1
 90
        1
176
     1
 90
        6
176
     1
 90
        2
176
     1
 62
     7
176
     1
 90
        5
176
     1
 90
        0
176
     1
 90
        0
176
     1
290
     0
176
     1
 90
       13
176
     1
 40
0.0
176
     1
 90
        0
176
     1
290
     0
176
     1
290
     1
176
     1
290
     1
176
     1
290
     0
176
     1
290
     0
176
     1
290
     0
176
     1
290
     0
176
     1
290
     0
176
     1
290
     0
176
     1
 90
       50
176
     1
 40
0.0
176
     1
 40
1.0
176
     1
 90
        0
176
     1
 62
    18
420
        0
176
     1
 90
       50
176
     1
 90
        3
176
     1
 62
     5
420
      255
176
     1
290
     0
176
     1
 90
       50
176
     1
 90
       50
176
     1
 90
       50
176
     1
290
     0
176
     1
 90
       50
176
     1
 62
   256
176
     0
 40
1.0
176
     0
 90
        2
176
     1
  1
strokes_ogs.tif
176
     1
290
     0
176
     1
 40
1.0
176
     1
 40
1.0
176
     1
1001
ACAD
1000
AcDbSavedByObjectVersion
1070
     0
  0
VISUALSTYLE
  5
84EB
102
{ACAD_REACTORS
330
84E7
102
}
330
84E7
100
AcDbVisualStyle
  2
GouraudWithEdges
 70
     3
177
     3
291
     1
 70
    58
 90
        2
176
     1
 90
        2
176
     1
 90
        1
176
     1
 90
        2
176
     1
 40
0.6
176
     1
 40
30.0
176
     1
 62
     7
420
 16777215
176
     1
 90
        1
176
     1
 90
        0
176
     1
 62
     7
176
     1
 62
   257
176
     1
 90
        1
176
     1
 90
        1
176
     1
 40
1.0
176
     1
 90
        0
176
     1
 62
   257
176
     1
 40
1.0
176
     1
 90
        1
176
     1
 90
        6
176
     1
 90
        2
176
     1
 62
     7
176
     1
 90
        5
176
     1
 90
        0
176
     1
 90
        0
176
     1
290
     0
176
     1
 90
       13
176
     1
 40
0.0
176
     1
 90
        0
176
     1
290
     0
176
     1
290
     1
176
     1
290
     1
176
     1
290
     0
176
     1
290
     0
176
     1
290
     0
176
     1
290
     0
176
     1
290
     0
176
     1
290
     0
176
     1
 90
       50
176
     1
 40
0.0
176
     1
 40
1.0
176
     1
 90
        0
176
     1
 62
    18
420
        0
176
     1
 90
       50
176
     1
 90
        3
176
     1
 62
     5
420
      255
176
     1
290
     0
176
     1
 90
       50
176
     1
 90
       50
176
     1
 90
       50
176
     1
290
     0
176
     1
 90
       50
176
     1
 62
   256
176
     0
 40
1.0
176
     0
 90
        2
176
     1
  1
strokes_ogs.tif
176
     1
290
     0
176
     1
 40
1.0
176
     1
 40
1.0
176
     1
1001
ACAD
1000
AcDbSavedByObjectVersion
1070
     0
  0
VISUALSTYLE
  5
84EF
102
{ACAD_REACTORS
330
84E7
102
}
330
84E7
100
AcDbVisualStyle
  2
Hidden
 70
     6
177
     3
291
     0
 70
    58
 90
        1
176
     1
 90
        2
176
     1
 90
        2
176
     1
 90
        0
176
     1
 40
0.6
176
     1
 40
30.0
176
     1
 62
     7
420
 16777215
176
     1
 90
        2
176
     1
 90
        2
176
     1
 62
     7
176
     1
 62
   257
176
     1
 90
        2
176
     1
 90
        1
176
     1
 40
40.0
176
     1
 90
        0
176
     1
 62
   257
176
     1
 40
1.0
176
     1
 90
        1
176
     1
 90
        6
176
     1
 90
        2
176
     1
 62
     7
176
     1
 90
        3
176
     1
 90
        0
176
     1
 90
        0
176
     1
290
     0
176
     1
 90
        1
176
     1
 40
0.0
176
     1
 90
        0
176
     1
290
     0
176
     1
290
     1
176
     1
290
     1
176
     1
290
     0
176
     1
290
     0
176
     1
290
     0
176
     1
290
     0
176
     1
290
     0
176
     1
290
     0
176
     1
 90
       50
176
     1
 40
0.0
176
     1
 40
1.0
176
     1
 90
        0
176
     1
 62
    18
420
        0
176
     1
 90
       50
176
     1
 90
        3
176
     1
 62
     5
420
      255
176
     1
290
     0
176
     1
 90
       50
176
     1
 90
       50
176
     1
 90
       50
176
     1
290
     0
176
     1
 90
       50
176
     1
 62
   256
176
     0
 40
1.0
176
     0
 90
        2
176
     1
  1
strokes_ogs.tif
176
     1
290
     0
176
     1
 40
1.0
176
     1
 40
1.0
176
     1
1001
ACAD
1000
AcDbSavedByObjectVersion
1070
     0
  0
VISUALSTYLE
  5
84FD
102
{ACAD_REACTORS
330
84E7
102
}
330
84E7
100
AcDbVisualStyle
  2
JitterOff
 70
    20
177
     3
291
     1
 70
    58
 90
        2
176
     0
 90
        2
176
     0
 90
        0
176
     0
 90
        0
176
     0
 40
0.6
176
     0
 40
30.0
176
     0
 62
     7
420
 16777215
176
     0
 90
        1
176
     0
 90
        4
176
     0
 62
     7
176
     0
 62
   257
176
     0
 90
        1
176
     0
 90
        1
176
     0
 40
1.0
176
     0
 90
       10
176
     2
 62
     7
176
     0
 40
1.0
176
     0
 90
        1
176
     0
 90
        6
176
     0
 90
        2
176
     0
 62
     7
176
     0
 90
        5
176
     0
 90
        0
176
     0
 90
        0
176
     0
290
     0
176
     0
 90
        1
176
     0
 40
0.0
176
     0
 90
        0
176
     0
290
     0
176
     0
290
     1
176
     0
290
     1
176
     0
290
     0
176
     0
290
     0
176
     0
290
     0
176
     0
290
     0
176
     0
290
     0
176
     0
290
     0
176
     0
 90
       50
176
     0
 40
0.0
176
     0
 40
1.0
176
     0
 90
        0
176
     0
 62
    18
420
        0
176
     0
 90
       50
176
     0
 90
        3
176
     0
 62
     5
420
      255
176
     0
290
     0
176
     0
 90
       50
176
     0
 90
       50
176
     0
 90
       50
176
     0
290
     0
176
     0
 90
       50
176
     0
 62
   256
176
     0
 40
1.0
176
     0
 90
        2
176
     0
  1
strokes_ogs.tif
176
     0
290
     0
176
     0
 40
1.0
176
     0
 40
1.0
176
     0
1001
ACAD
1000
AcDbSavedByObjectVersion
1070
     0
  0
VISUALSTYLE
  5
84F5
102
{ACAD_REACTORS
330
84E7
102
}
330
84E7
100
AcDbVisualStyle
  2
Linepattern
 70
    14
177
     3
291
     1
 70
    58
 90
        2
176
     1
 90
        2
176
     1
 90
        0
176
     1
 90
        0
176
     1
 40
0.6
176
     1
 40
30.0
176
     1
 62
     7
420
 16777215
176
     1
 90
        1
176
     1
 90
        4
176
     1
 62
     7
176
     1
 62
   257
176
     1
 90
        7
176
     1
 90
        7
176
     1
 40
1.0
176
     1
 90
        8
176
     1
 62
     7
176
     1
 40
1.0
176
     1
 90
        1
176
     1
 90
        6
176
     1
 90
        2
176
     1
 62
     7
176
     1
 90
        5
176
     1
 90
        0
176
     1
 90
        0
176
     1
290
     0
176
     1
 90
        1
176
     1
 40
0.0
176
     1
 90
        0
176
     1
290
     0
176
     1
290
     1
176
     1
290
     1
176
     1
290
     0
176
     1
290
     0
176
     1
290
     0
176
     1
290
     0
176
     1
290
     0
176
     1
290
     0
176
     1
 90
       50
176
     1
 40
0.0
176
     1
 40
1.0
176
     1
 90
        0
176
     1
 62
    18
420
        0
176
     1
 90
       50
176
     1
 90
        3
176
     1
 62
     5
420
      255
176
     1
290
     0
176
     1
 90
       50
176
     1
 90
       50
176
     1
 90
       50
176
     1
290
     0
176
     1
 90
       50
176
     1
 62
   256
176
     0
 40
1.0
176
     0
 90
        2
176
     1
  1
strokes_ogs.tif
176
     1
290
     0
176
     1
 40
1.0
176
     1
 40
1.0
176
     1
1001
ACAD
1000
AcDbSavedByObjectVersion
1070
     0
  0
VISUALSTYLE
  5
84FE
102
{ACAD_REACTORS
330
84E7
102
}
330
84E7
100
AcDbVisualStyle
  2
OverhangOff
 70
    21
177
     3
291
     1
 70
    58
 90
        2
176
     0
 90
        2
176
     0
 90
        0
176
     0
 90
        0
176
     0
 40
0.6
176
     0
 40
30.0
176
     0
 62
     7
420
 16777215
176
     0
 90
        1
176
     0
 90
        4
176
     0
 62
     7
176
     0
 62
   257
176
     0
 90
        1
176
     0
 90
        1
176
     0
 40
1.0
176
     0
 90
        9
176
     2
 62
     7
176
     0
 40
1.0
176
     0
 90
        1
176
     0
 90
        6
176
     0
 90
        2
176
     0
 62
     7
176
     0
 90
        5
176
     0
 90
        0
176
     0
 90
        0
176
     0
290
     0
176
     0
 90
        1
176
     0
 40
0.0
176
     0
 90
        0
176
     0
290
     0
176
     0
290
     1
176
     0
290
     1
176
     0
290
     0
176
     0
290
     0
176
     0
290
     0
176
     0
290
     0
176
     0
290
     0
176
     0
290
     0
176
     0
 90
       50
176
     0
 40
0.0
176
     0
 40
1.0
176
     0
 90
        0
176
     0
 62
    18
420
        0
176
     0
 90
       50
176
     0
 90
        3
176
     0
 62
     5
420
      255
176
     0
290
     0
176
     0
 90
       50
176
     0
 90
       50
176
     0
 90
       50
176
     0
290
     0
176
     0
 90
       50
176
     0
 62
   256
176
     0
 40
1.0
176
     0
 90
        2
176
     0
  1
strokes_ogs.tif
176
     0
290
     0
176
     0
 40
1.0
176
     0
 40
1.0
176
     0
1001
ACAD
1000
AcDbSavedByObjectVersion
1070
     0
  0
VISUALSTYLE
  5
84F1
102
{ACAD_REACTORS
330
84E7
102
}
330
84E7
100
AcDbVisualStyle
  2
Realistic
 70
     8
177
     3
291
     0
 70
    58
 90
        2
176
     1
 90
        3
176
     1
 90
        0
176
     1
 90
        2
176
     1
 40
0.6
176
     1
 40
30.0
176
     1
 62
     7
420
 16777215
176
     1
 90
        0
176
     1
 90
        0
176
     1
 62
     7
176
     1
 62
   257
176
     1
 90
        1
176
     1
 90
        1
176
     1
 40
1.0
176
     1
 90
        8
176
     1
 62
   257
176
     1
 40
1.0
176
     1
 90
        1
176
     1
 90
        6
176
     1
 90
        2
176
     1
 62
     7
176
     1
 90
        3
176
     1
 90
        0
176
     1
 90
        0
176
     1
290
     0
176
     1
 90
       13
176
     1
 40
0.0
176
     1
 90
        0
176
     1
290
     0
176
     1
290
     1
176
     1
290
     1
176
     1
290
     0
176
     1
290
     0
176
     1
290
     0
176
     1
290
     0
176
     1
290
     0
176
     1
290
     0
176
     1
 90
       50
176
     1
 40
0.0
176
     1
 40
1.0
176
     1
 90
        0
176
     1
 62
    18
420
        0
176
     1
 90
       50
176
     1
 90
        3
176
     1
 62
     5
420
      255
176
     1
290
     0
176
     1
 90
       50
176
     1
 90
       50
176
     1
 90
       50
176
     1
290
     0
176
     1
 90
       50
176
     1
 62
   256
176
     0
 40
1.0
176
     0
 90
        2
176
     1
  1
strokes_ogs.tif
176
     1
290
     0
176
     1
 40
1.0
176
     1
 40
1.0
176
     1
1001
ACAD
1000
AcDbSavedByObjectVersion
1070
     0
  0
VISUALSTYLE
  5
84FC
102
{ACAD_REACTORS
330
84E7
102
}
330
84E7
100
AcDbVisualStyle
  2
Shaded
 70
    27
177
     3
291
     0
 70
    58
 90
        2
176
     1
 90
        2
176
     1
 90
        1
176
     1
 90
        2
176
     1
 40
0.6
176
     1
 40
30.0
176
     1
 62
     7
420
 16777215
176
     1
 90
        0
176
     1
 90
        4
176
     1
 62
     7
176
     1
 62
   257
176
     1
 90
        1
176
     1
 90
        1
176
     1
 40
1.0
176
     1
 90
        8
176
     1
 62
   257
176
     1
 40
1.0
176
     1
 90
        1
176
     1
 90
        6
176
     1
 90
        2
176
     1
 62
     8
420
  7895160
176
     1
 90
        3
176
     1
 90
        0
176
     1
 90
        0
176
     1
290
     0
176
     1
 90
        5
176
     1
 40
0.0
176
     1
 90
        0
176
     1
290
     0
176
     1
290
     1
176
     1
290
     1
176
     1
290
     0
176
     1
290
     0
176
     1
290
     0
176
     1
290
     0
176
     1
290
     0
176
     1
290
     0
176
     1
 90
       50
176
     1
 40
0.0
176
     1
 40
1.0
176
     1
 90
        0
176
     1
 62
    18
420
        0
176
     1
 90
       50
176
     1
 90
        3
176
     1
 62
     5
420
      255
176
     1
290
     0
176
     1
 90
       50
176
     1
 90
       50
176
     1
 90
       50
176
     1
290
     0
176
     1
 90
       50
176
     1
 62
   256
176
     0
 40
1.0
176
     0
 90
        2
176
     1
  1
strokes_ogs.tif
176
     1
290
     0
176
     1
 40
1.0
176
     1
 40
1.0
176
     1
1001
ACAD
1000
AcDbSavedByObjectVersion
1070
     0
  0
VISUALSTYLE
  5
84FB
102
{ACAD_REACTORS
330
84E7
102
}
330
84E7
100
AcDbVisualStyle
  2
Shaded with edges
 70
    26
177
     3
291
     0
 70
    58
 90
        2
176
     1
 90
        2
176
     1
 90
        1
176
     1
 90
        2
176
     1
 40
0.6
176
     1
 40
30.0
176
     1
 62
     7
420
 16777215
176
     1
 90
        1
176
     1
 90
        2
176
     1
 62
     7
176
     1
 62
   257
176
     1
 90
        2
176
     1
 90
        1
176
     1
 40
1.0
176
     1
 90
        8
176
     1
 62
   257
176
     1
 40
1.0
176
     1
 90
        1
176
     1
 90
        6
176
     1
 90
        2
176
     1
 62
     7
176
     1
 90
        3
176
     1
 90
        0
176
     1
 90
        0
176
     1
290
     0
176
     1
 90
        5
176
     1
 40
0.0
176
     1
 90
        0
176
     1
290
     0
176
     1
290
     1
176
     1
290
     1
176
     1
290
     0
176
     1
290
     0
176
     1
290
     0
176
     1
290
     0
176
     1
290
     0
176
     1
290
     0
176
     1
 90
       50
176
     1
 40
0.0
176
     1
 40
1.0
176
     1
 90
        0
176
     1
 62
    18
420
        0
176
     1
 90
       50
176
     1
 90
        3
176
     1
 62
     5
420
      255
176
     1
290
     0
176
     1
 90
       50
176
     1
 90
       50
176
     1
 90
       50
176
     1
290
     0
176
     1
 90
       50
176
     1
 62
   256
176
     0
 40
1.0
176
     0
 90
        2
176
     1
  1
strokes_ogs.tif
176
     1
290
     0
176
     1
 40
1.0
176
     1
 40
1.0
176
     1
1001
ACAD
1000
AcDbSavedByObjectVersion
1070
     0
  0
VISUALSTYLE
  5
84F8
102
{ACAD_REACTORS
330
84E7
102
}
330
84E7
100
AcDbVisualStyle
  2
Shades of Gray
 70
    23
177
     3
291
     0
 70
    58
 90
        2
176
     1
 90
        2
176
     1
 90
        3
176
     1
 90
        0
176
     1
 40
0.6
176
     1
 40
30.0
176
     1
 62
     7
420
 16777215
176
     1
 90
        2
176
     1
 90
        2
176
     1
 62
     7
176
     1
 62
     7
176
     1
 90
        1
176
     1
 90
        1
176
     1
 40
40.0
176
     1
 90
        8
176
     1
 62
     7
176
     1
 40
1.0
176
     1
 90
        1
176
     1
 90
        6
176
     1
 90
        2
176
     1
 62
     7
176
     1
 90
        3
176
     1
 90
        0
176
     1
 90
        0
176
     1
290
     0
176
     1
 90
        1
176
     1
 40
0.0
176
     1
 90
        0
176
     1
290
     0
176
     1
290
     1
176
     1
290
     1
176
     1
290
     0
176
     1
290
     0
176
     1
290
     0
176
     1
290
     0
176
     1
290
     0
176
     1
290
     0
176
     1
 90
       50
176
     1
 40
0.0
176
     1
 40
1.0
176
     1
 90
        0
176
     1
 62
    18
420
        0
176
     1
 90
       50
176
     1
 90
        3
176
     1
 62
     5
420
      255
176
     1
290
     0
176
     1
 90
       50
176
     1
 90
       50
176
     1
 90
       50
176
     1
290
     0
176
     1
 90
       50
176
     1
 62
   256
176
     0
 40
1.0
176
     0
 90
        2
176
     1
  1
strokes_ogs.tif
176
     1
290
     0
176
     1
 40
1.0
176
     1
 40
1.0
176
     1
1001
ACAD
1000
AcDbSavedByObjectVersion
1070
     0
  0
VISUALSTYLE
  5
84F9
102
{ACAD_REACTORS
330
84E7
102
}
330
84E7
100
AcDbVisualStyle
  2
Sketchy
 70
    24
177
     3
291
     0
 70
    58
 90
        1
176
     1
 90
        2
176
     1
 90
        2
176
     1
 90
        0
176
     1
 40
0.6
176
     1
 40
30.0
176
     1
 62
     7
420
 16777215
176
     1
 90
        2
176
     1
 90
        2
176
     1
 62
     7
176
     1
 62
     7
176
     1
 90
        1
176
     1
 90
        1
176
     1
 40
40.0
176
     1
 90
       11
176
     1
 62
     7
176
     1
 40
1.0
176
     1
 90
        1
176
     1
 90
        6
176
     1
 90
        2
176
     1
 62
     7
176
     1
 90
        6
176
     1
 90
        0
176
     1
 90
        0
176
     1
290
     0
176
     1
 90
        1
176
     1
 40
0.0
176
     1
 90
        0
176
     1
290
     0
176
     1
290
     1
176
     1
290
     1
176
     1
290
     0
176
     1
290
     0
176
     1
290
     0
176
     1
290
     0
176
     1
290
     0
176
     1
290
     0
176
     1
 90
       50
176
     1
 40
0.0
176
     1
 40
1.0
176
     1
 90
        0
176
     1
 62
    18
420
        0
176
     1
 90
       50
176
     1
 90
        3
176
     1
 62
     5
420
      255
176
     1
290
     0
176
     1
 90
       50
176
     1
 90
       50
176
     1
 90
       50
176
     1
290
     0
176
     1
 90
       50
176
     1
 62
   256
176
     0
 40
1.0
176
     0
 90
        2
176
     1
  1
strokes_ogs.tif
176
     1
290
     0
176
     1
 40
1.0
176
     1
 40
1.0
176
     1
1001
ACAD
1000
AcDbSavedByObjectVersion
1070
     0
  0
VISUALSTYLE
  5
84F4
102
{ACAD_REACTORS
330
84E7
102
}
330
84E7
100
AcDbVisualStyle
  2
Thicken
 70
    13
177
     3
291
     1
 70
    58
 90
        2
176
     1
 90
        2
176
     1
 90
        0
176
     1
 90
        0
176
     1
 40
0.6
176
     1
 40
30.0
176
     1
 62
     7
420
 16777215
176
     1
 90
        1
176
     1
 90
        4
176
     1
 62
     7
176
     1
 62
   257
176
     1
 90
        1
176
     1
 90
        1
176
     1
 40
1.0
176
     1
 90
       12
176
     1
 62
     7
176
     1
 40
1.0
176
     1
 90
        1
176
     1
 90
        6
176
     1
 90
        2
176
     1
 62
     7
176
     1
 90
        5
176
     1
 90
        0
176
     1
 90
        0
176
     1
290
     0
176
     1
 90
        1
176
     1
 40
0.0
176
     1
 90
        0
176
     1
290
     0
176
     1
290
     1
176
     1
290
     1
176
     1
290
     0
176
     1
290
     0
176
     1
290
     0
176
     1
290
     0
176
     1
290
     0
176
     1
290
     0
176
     1
 90
       50
176
     1
 40
0.0
176
     1
 40
1.0
176
     1
 90
        0
176
     1
 62
    18
420
        0
176
     1
 90
       50
176
     1
 90
        3
176
     1
 62
     5
420
      255
176
     1
290
     0
176
     1
 90
       50
176
     1
 90
       50
176
     1
 90
       50
176
     1
290
     0
176
     1
 90
       50
176
     1
 62
   256
176
     0
 40
1.0
176
     0
 90
        2
176
     1
  1
strokes_ogs.tif
176
     1
290
     0
176
     1
 40
1.0
176
     1
 40
1.0
176
     1
1001
ACAD
1000
AcDbSavedByObjectVersion
1070
     0
  0
VISUALSTYLE
  5
84EE
102
{ACAD_REACTORS
330
84E7
102
}
330
84E7
100
AcDbVisualStyle
  2
Wireframe
 70
     5
177
     3
291
     0
 70
    58
 90
        0
176
     1
 90
        2
176
     1
 90
        0
176
     1
 90
        0
176
     1
 40
0.6
176
     1
 40
30.0
176
     1
 62
     7
420
 16777215
176
     1
 90
        1
176
     1
 90
        4
176
     1
 62
     7
176
     1
 62
   257
176
     1
 90
        1
176
     1
 90
        1
176
     1
 40
1.0
176
     1
 90
        0
176
     1
 62
   257
176
     1
 40
1.0
176
     1
 90
        1
176
     1
 90
        6
176
     1
 90
        2
176
     1
 62
     7
176
     1
 90
        3
176
     1
 90
        0
176
     1
 90
        0
176
     1
290
     0
176
     1
 90
        1
176
     1
 40
0.0
176
     1
 90
        0
176
     1
290
     0
176
     1
290
     1
176
     1
290
     1
176
     1
290
     0
176
     1
290
     0
176
     1
290
     0
176
     1
290
     0
176
     1
290
     0
176
     1
290
     0
176
     1
 90
       50
176
     1
 40
0.0
176
     1
 40
1.0
176
     1
 90
        0
176
     1
 62
    18
420
        0
176
     1
 90
       50
176
     1
 90
        3
176
     1
 62
     5
420
      255
176
     1
290
     0
176
     1
 90
       50
176
     1
 90
       50
176
     1
 90
       50
176
     1
290
     0
176
     1
 90
       50
176
     1
 62
   256
176
     0
 40
1.0
176
     0
 90
        2
176
     1
  1
strokes_ogs.tif
176
     1
290
     0
176
     1
 40
1.0
176
     1
 40
1.0
176
     1
1001
ACAD
1000
AcDbSavedByObjectVersion
1070
     0
  0
VISUALSTYLE
  5
84FA
102
{ACAD_REACTORS
330
84E7
102
}
330
84E7
100
AcDbVisualStyle
  2
X-Ray
 70
    25
177
     3
291
     0
 70
    58
 90
        2
176
     1
 90
        2
176
     1
 90
        1
176
     1
 90
        1
176
     1
 40
0.5
176
     1
 40
30.0
176
     1
 62
     7
420
 16777215
176
     1
 90
        1
176
     1
 90
        0
176
     1
 62
     7
176
     1
 62
   257
176
     1
 90
        1
176
     1
 90
        1
176
     1
 40
1.0
176
     1
 90
        8
176
     1
 62
     7
176
     1
 40
1.0
176
     1
 90
        1
176
     1
 90
        6
176
     1
 90
        2
176
     1
 62
     7
176
     1
 90
        3
176
     1
 90
        0
176
     1
 90
        0
176
     1
290
     0
176
     1
 90
       13
176
     1
 40
0.0
176
     1
 90
        0
176
     1
290
     0
176
     1
290
     1
176
     1
290
     1
176
     1
290
     0
176
     1
290
     0
176
     1
290
     0
176
     1
290
     0
176
     1
290
     0
176
     1
290
     0
176
     1
 90
       50
176
     1
 40
0.0
176
     1
 40
1.0
176
     1
 90
        0
176
     1
 62
    18
420
        0
176
     1
 90
       50
176
     1
 90
        3
176
     1
 62
     5
420
      255
176
     1
290
     0
176
     1
 90
       50
176
     1
 90
       50
176
     1
 90
       50
176
     1
290
     0
176
     1
 90
       50
176
     1
 62
   256
176
     0
 40
1.0
176
     0
 90
        2
176
     1
  1
strokes_ogs.tif
176
     1
290
     0
176
     1
 40
1.0
176
     1
 40
1.0
176
     1
1001
ACAD
1000
AcDbSavedByObjectVersion
1070
     0
  0
DICTIONARYVAR
  5
855A
102
{ACAD_REACTORS
330
8554
102
}
330
8554
100
DictionaryVariables
280
     0
  1
1:1
  0
DICTIONARYVAR
  5
8556
102
{ACAD_REACTORS
330
8554
102
}
330
8554
100
DictionaryVariables
280
     0
  1
STANDARD
  0
DICTIONARYVAR
  5
8555
102
{ACAD_REACTORS
330
8554
102
}
330
8554
100
DictionaryVariables
280
     0
  1
STANDARD
  0
DICTIONARYVAR
  5
8557
102
{ACAD_REACTORS
330
8554
102
}
330
8554
100
DictionaryVariables
280
     0
  1
Metric50
  0
DICTIONARYVAR
  5
8558
102
{ACAD_REACTORS
330
8554
102
}
330
8554
100
DictionaryVariables
280
     0
  1
Metric50
  0
DICTIONARYVAR
  5
855C
102
{ACAD_REACTORS
330
8554
102
}
330
8554
100
DictionaryVariables
280
     0
  1
1
  0
DICTIONARYVAR
  5
855D
102
{ACAD_REACTORS
330
8554
102
}
330
8554
100
DictionaryVariables
280
     0
  1
15
  0
DICTIONARYVAR
  5
855B
102
{ACAD_REACTORS
330
8554
102
}
330
8554
100
DictionaryVariables
280
     0
  1
0
  0
DICTIONARYVAR
  5
8562
102
{ACAD_REACTORS
330
8554
102
}
330
8554
100
DictionaryVariables
280
     0
  1
0
  0
DICTIONARYVAR
  5
8559
102
{ACAD_REACTORS
330
8554
102
}
330
8554
100
DictionaryVariables
280
     0
  1
0
  0
DICTIONARY
  5
856D
102
{ACAD_REACTORS
330
856B
102
}
330
856B
100
AcDbDictionary
281
     1
  0
DICTIONARY
  5
856C
102
{ACAD_REACTORS
330
856B
102
}
330
856B
100
AcDbDictionary
281
     1
  3
2039012622944
350
8566
  3
2039012622960
350
8567
  3
2039012622976
350
8568
  3
2039012622992
350
8569
  3
2039012623008
350
856A
  0
DICTIONARY
  5
8570
330
851A
100
AcDbDictionary
280
     1
281
     1
  3
ACAD_XREC_ROUNDTRIP
360
8571
  0
DICTIONARY
  5
84D8
330
84D7
100
AcDbDictionary
280
     1
281
     1
  3
BUMPTILE
360
84DA
  3
DIFFUSETILE
360
84D9
  3
OPACITYTILE
360
84DD
  3
REFLECTIONTILE
360
84DC
  3
REFRACTIONTILE
360
84DE
  3
SPECULARTILE
360
84DB
  0
DICTIONARY
  5
84D0
330
84CF
100
AcDbDictionary
280
     1
281
     1
  3
BUMPTILE
360
84D2
  3
DIFFUSETILE
360
84D1
  3
OPACITYTILE
360
84D5
  3
REFLECTIONTILE
360
84D4
  3
REFRACTIONTILE
360
84D6
  3
SPECULARTILE
360
84D3
  0
DICTIONARY
  5
84E0
330
84DF
100
AcDbDictionary
280
     1
281
     1
  3
BUMPTILE
360
84E2
  3
DIFFUSETILE
360
84E1
  3
OPACITYTILE
360
84E5
  3
REFLECTIONTILE
360
84E4
  3
REFRACTIONTILE
360
84E6
  3
SPECULARTILE
360
84E3
  0
DICTIONARY
  5
856E
330
8518
100
AcDbDictionary
280
     1
281
     1
  3
ACAD_XREC_ROUNDTRIP
360
856F
  0
DICTIONARY
  5
8563
330
8502
100
AcDbDictionary
280
     1
281
     1
  3
ACAD_ROUNDTRIP_2008_TABLESTYLE_CELLSTYLEMAP
360
8564
  0
XRECORD
  5
8566
102
{ACAD_REACTORS
330
856C
102
}
330
856C
100
AcDbXrecord
280
     1
  1
AcDb_Thumbnail_Schema
102
{ATTRRECORD
341
8567
  2
AcDbDs::TreatedAsObjectData
280
     1
291
     1
102
ATTRRECORD}
102
{ATTRRECORD
341
8568
  2
AcDbDs::Legacy
280
     1
291
     1
102
ATTRRECORD}
  2
AcDbDs::ID
280
    10
 91
        8
102
{ATTRRECORD
341
8569
  2
AcDs:Indexable
280
     1
291
     1
102
ATTRRECORD}
102
{ATTRRECORD
341
856A
  2
AcDbDs::HandleAttribute
280
     7
282
     1
102
ATTRRECORD}
  2
Thumbnail_Data
280
    15
 91
        0
  0
XRECORD
  5
8567
102
{ACAD_REACTORS
330
856C
102
}
330
856C
100
AcDbXrecord
280
     1
  1
AcDbDs::TreatedAsObjectDataSchema
  2
AcDbDs::TreatedAsObjectData
280
     1
 91
        0
  0
XRECORD
  5
8568
102
{ACAD_REACTORS
330
856C
102
}
330
856C
100
AcDbXrecord
280
     1
  1
AcDbDs::LegacySchema
  2
AcDbDs::Legacy
280
     1
 91
        0
  0
XRECORD
  5
8569
102
{ACAD_REACTORS
330
856C
102
}
330
856C
100
AcDbXrecord
280
     1
  1
AcDbDs::IndexedPropertySchema
  2
AcDs:Indexable
280
     1
 91
        0
  0
XRECORD
  5
856A
102
{ACAD_REACTORS
330
856C
102
}
330
856C
100
AcDbXrecord
280
     1
  1
AcDbDs::HandleAttributeSchema
  2
AcDbDs::HandleAttribute
280
     7
 91
        1
284
     1
  0
XRECORD
  5
8571
102
{ACAD_REACTORS
330
8570
102
}
330
8570
100
AcDbXrecord
280
     1
102
DISPLAYNAME
  1
Metric50
102
FLAGS
 90
        0
  0
XRECORD
  5
84DA
102
{ACAD_REACTORS
330
84D8
102
}
330
84D8
100
AcDbXrecord
280
     1
270
     1
271
     1
  0
XRECORD
  5
84D9
102
{ACAD_REACTORS
330
84D8
102
}
330
84D8
100
AcDbXrecord
280
     1
270
     1
271
     1
  0
XRECORD
  5
84DD
102
{ACAD_REACTORS
330
84D8
102
}
330
84D8
100
AcDbXrecord
280
     1
270
     1
271
     1
  0
XRECORD
  5
84DC
102
{ACAD_REACTORS
330
84D8
102
}
330
84D8
100
AcDbXrecord
280
     1
270
     1
271
     1
  0
XRECORD
  5
84DE
102
{ACAD_REACTORS
330
84D8
102
}
330
84D8
100
AcDbXrecord
280
     1
270
     1
271
     1
  0
XRECORD
  5
84DB
102
{ACAD_REACTORS
330
84D8
102
}
330
84D8
100
AcDbXrecord
280
     1
270
     1
271
     1
  0
XRECORD
  5
84D2
102
{ACAD_REACTORS
330
84D0
102
}
330
84D0
100
AcDbXrecord
280
     1
270
     1
271
     1
  0
XRECORD
  5
84D1
102
{ACAD_REACTORS
330
84D0
102
}
330
84D0
100
AcDbXrecord
280
     1
270
     1
271
     1
  0
XRECORD
  5
84D5
102
{ACAD_REACTORS
330
84D0
102
}
330
84D0
100
AcDbXrecord
280
     1
270
     1
271
     1
  0
XRECORD
  5
84D4
102
{ACAD_REACTORS
330
84D0
102
}
330
84D0
100
AcDbXrecord
280
     1
270
     1
271
     1
  0
XRECORD
  5
84D6
102
{ACAD_REACTORS
330
84D0
102
}
330
84D0
100
AcDbXrecord
280
     1
270
     1
271
     1
  0
XRECORD
  5
84D3
102
{ACAD_REACTORS
330
84D0
102
}
330
84D0
100
AcDbXrecord
280
     1
270
     1
271
     1
  0
XRECORD
  5
84E2
102
{ACAD_REACTORS
330
84E0
102
}
330
84E0
100
AcDbXrecord
280
     1
270
     1
271
     1
  0
XRECORD
  5
84E1
102
{ACAD_REACTORS
330
84E0
102
}
330
84E0
100
AcDbXrecord
280
     1
270
     1
271
     1
  0
XRECORD
  5
84E5
102
{ACAD_REACTORS
330
84E0
102
}
330
84E0
100
AcDbXrecord
280
     1
270
     1
271
     1
  0
XRECORD
  5
84E4
102
{ACAD_REACTORS
330
84E0
102
}
330
84E0
100
AcDbXrecord
280
     1
270
     1
271
     1
  0
XRECORD
  5
84E6
102
{ACAD_REACTORS
330
84E0
102
}
330
84E0
100
AcDbXrecord
280
     1
270
     1
271
     1
  0
XRECORD
  5
84E3
102
{ACAD_REACTORS
330
84E0
102
}
330
84E0
100
AcDbXrecord
280
     1
270
     1
271
     1
  0
XRECORD
  5
856F
102
{ACAD_REACTORS
330
856E
102
}
330
856E
100
AcDbXrecord
280
     1
102
DISPLAYNAME
  1
Metric50
102
FLAGS
 90
        0
  0
CELLSTYLEMAP
  5
8564
102
{ACAD_REACTORS
330
8563
102
}
330
8563
100
AcDbCellStyleMap
 90
        3
300
CELLSTYLE
  1
TABLEFORMAT_BEGIN
 90
        5
170
     1
 91
        0
 92
    32768
 62
   257
 93
        1
300
CONTENTFORMAT
  1
CONTENTFORMAT_BEGIN
 90
        0
 91
        0
 92
      512
 93
        0
300

 40
0.0
140
1.0
 94
        5
 62
     0
340
10
144
6.0
309
CONTENTFORMAT_END
171
     1
301
MARGIN
  1
CELLMARGIN_BEGIN
 40
1.5
 40
1.5
 40
1.5
 40
1.5
 40
4.5
 40
4.5
309
CELLMARGIN_END
 94
        6
 95
        1
302
GRIDFORMAT
  1
GRIDFORMAT_BEGIN
 90
        0
 91
        1
 62
     0
 92
       -2
340
0
 93
        0
 40
1.125
309
GRIDFORMAT_END
 95
        2
302
GRIDFORMAT
  1
GRIDFORMAT_BEGIN
 90
        0
 91
        1
 62
     0
 92
       -2
340
0
 93
        0
 40
1.125
309
GRIDFORMAT_END
 95
        4
302
GRIDFORMAT
  1
GRIDFORMAT_BEGIN
 90
        0
 91
        1
 62
     0
 92
       -2
340
0
 93
        0
 40
1.125
309
GRIDFORMAT_END
 95
        8
302
GRIDFORMAT
  1
GRIDFORMAT_BEGIN
 90
        0
 91
        1
 62
     0
 92
       -2
340
0
 93
        0
 40
1.125
309
GRIDFORMAT_END
 95
       16
302
GRIDFORMAT
  1
GRIDFORMAT_BEGIN
 90
        0
 91
        1
 62
     0
 92
       -2
340
0
 93
        0
 40
1.125
309
GRIDFORMAT_END
 95
       32
302
GRIDFORMAT
  1
GRIDFORMAT_BEGIN
 90
        0
 91
        1
 62
     0
 92
       -2
340
0
 93
        0
 40
1.125
309
GRIDFORMAT_END
309
TABLEFORMAT_END
  1
CELLSTYLE_BEGIN
 90
        1
 91
        1
300
_TITLE
309
CELLSTYLE_END
300
CELLSTYLE
  1
TABLEFORMAT_BEGIN
 90
        5
170
     1
 91
        0
 92
        0
 62
   257
 93
        1
300
CONTENTFORMAT
  1
CONTENTFORMAT_BEGIN
 90
        0
 91
        0
 92
      512
 93
        0
300

 40
0.0
140
1.0
 94
        5
 62
     0
340
10
144
4.5
309
CONTENTFORMAT_END
171
     1
301
MARGIN
  1
CELLMARGIN_BEGIN
 40
1.5
 40
1.5
 40
1.5
 40
1.5
 40
4.5
 40
4.5
309
CELLMARGIN_END
 94
        6
 95
        1
302
GRIDFORMAT
  1
GRIDFORMAT_BEGIN
 90
        0
 91
        1
 62
     0
 92
       -2
340
0
 93
        0
 40
1.125
309
GRIDFORMAT_END
 95
        2
302
GRIDFORMAT
  1
GRIDFORMAT_BEGIN
 90
        0
 91
        1
 62
     0
 92
       -2
340
0
 93
        0
 40
1.125
309
GRIDFORMAT_END
 95
        4
302
GRIDFORMAT
  1
GRIDFORMAT_BEGIN
 90
        0
 91
        1
 62
     0
 92
       -2
340
0
 93
        0
 40
1.125
309
GRIDFORMAT_END
 95
        8
302
GRIDFORMAT
  1
GRIDFORMAT_BEGIN
 90
        0
 91
        1
 62
     0
 92
       -2
340
0
 93
        0
 40
1.125
309
GRIDFORMAT_END
 95
       16
302
GRIDFORMAT
  1
GRIDFORMAT_BEGIN
 90
        0
 91
        1
 62
     0
 92
       -2
340
0
 93
        0
 40
1.125
309
GRIDFORMAT_END
 95
       32
302
GRIDFORMAT
  1
GRIDFORMAT_BEGIN
 90
        0
 91
        1
 62
     0
 92
       -2
340
0
 93
        0
 40
1.125
309
GRIDFORMAT_END
309
TABLEFORMAT_END
  1
CELLSTYLE_BEGIN
 90
        2
 91
        1
300
_HEADER
309
CELLSTYLE_END
300
CELLSTYLE
  1
TABLEFORMAT_BEGIN
 90
        5
170
     1
 91
        0
 92
        0
 62
   257
 93
        1
300
CONTENTFORMAT
  1
CONTENTFORMAT_BEGIN
 90
        0
 91
        0
 92
      512
 93
        0
300

 40
0.0
140
1.0
 94
        2
 62
     0
340
10
144
4.5
309
CONTENTFORMAT_END
171
     1
301
MARGIN
  1
CELLMARGIN_BEGIN
 40
1.5
 40
1.5
 40
1.5
 40
1.5
 40
4.5
 40
4.5
309
CELLMARGIN_END
 94
        6
 95
        1
302
GRIDFORMAT
  1
GRIDFORMAT_BEGIN
 90
        0
 91
        1
 62
     0
 92
       -2
340
0
 93
        0
 40
1.125
309
GRIDFORMAT_END
 95
        2
302
GRIDFORMAT
  1
GRIDFORMAT_BEGIN
 90
        0
 91
        1
 62
     0
 92
       -2
340
0
 93
        0
 40
1.125
309
GRIDFORMAT_END
 95
        4
302
GRIDFORMAT
  1
GRIDFORMAT_BEGIN
 90
        0
 91
        1
 62
     0
 92
       -2
340
0
 93
        0
 40
1.125
309
GRIDFORMAT_END
 95
        8
302
GRIDFORMAT
  1
GRIDFORMAT_BEGIN
 90
        0
 91
        1
 62
     0
 92
       -2
340
0
 93
        0
 40
1.125
309
GRIDFORMAT_END
 95
       16
302
GRIDFORMAT
  1
GRIDFORMAT_BEGIN
 90
        0
 91
        1
 62
     0
 92
       -2
340
0
 93
        0
 40
1.125
309
GRIDFORMAT_END
 95
       32
302
GRIDFORMAT
  1
GRIDFORMAT_BEGIN
 90
        0
 91
        1
 62
     0
 92
       -2
340
0
 93
        0
 40
1.125
309
GRIDFORMAT_END
309
TABLEFORMAT_END
  1
CELLSTYLE_BEGIN
 90
        3
 91
        2
300
_DATA
309
CELLSTYLE_END
  0
ENDSEC
  0
SECTION
  2
ACDSDATA
 70
     2
 71
     8
  0
ACDSSCHEMA
 90
        0
  1
AcDb_Thumbnail_Schema
  2
AcDbDs::ID
280
    10
 91
        8
  2
Thumbnail_Data
280
    15
 91
        0
101
ACDSRECORD
 95
        0
 90
        1
  2
AcDbDs::TreatedAsObjectData
280
     1
291
     1
101
ACDSRECORD
 95
        0
 90
        2
  2
AcDbDs::Legacy
280
     1
291
     1
101
ACDSRECORD
  1
AcDbDs::ID
 90
        3
  2
AcDs:Indexable
280
     1
291
     1
101
ACDSRECORD
  1
AcDbDs::ID
 90
        4
  2
AcDbDs::HandleAttribute
280
     7
282
     1
  0
ACDSSCHEMA
 90
        1
  1
AcDbDs::TreatedAsObjectDataSchema
  2
AcDbDs::TreatedAsObjectData
280
     1
 91
        0
  0
ACDSSCHEMA
 90
        2
  1
AcDbDs::LegacySchema
  2
AcDbDs::Legacy
280
     1
 91
        0
  0
ACDSSCHEMA
 90
        3
  1
AcDbDs::IndexedPropertySchema
  2
AcDs:Indexable
280
     1
 91
        0
  0
ACDSSCHEMA
 90
        4
  1
AcDbDs::HandleAttributeSchema
  2
AcDbDs::HandleAttribute
280
     7
 91
        1
284
     1
  0
ACDSRECORD
 90
        0
  2
AcDbDs::ID
280
    10
320
8462
  2
Thumbnail_Data
280
    15
 94
     1783
310
89504E470D0A1A0A0000000D49484452000001000000007C0803000000B13B9E5A00000300504C5445000000000000C8C8C80000000000000000000000000000000000000000000000000000330000660000990000CC0000FF0033000033330033660033990033CC0033FF0066000066330066660066990066CC0066FF0099
310
000099330099660099990099CC0099FF00CC0000CC3300CC6600CC9900CCCC00CCFF00FF0000FF3300FF6600FF9900FFCC00FFFF3300003300333300663300993300CC3300FF3333003333333333663333993333CC3333FF3366003366333366663366993366CC3366FF3399003399333399663399993399CC3399FF33CC00
310
33CC3333CC6633CC9933CCCC33CCFF33FF0033FF3333FF6633FF9933FFCC33FFFF6600006600336600666600996600CC6600FF6633006633336633666633996633CC6633FF6666006666336666666666996666CC6666FF6699006699336699666699996699CC6699FF66CC0066CC3366CC6666CC9966CCCC66CCFF66FF0066
310
FF3366FF6666FF9966FFCC66FFFF9900009900339900669900999900CC9900FF9933009933339933669933999933CC9933FF9966009966339966669966999966CC9966FF9999009999339999669999999999CC9999FF99CC0099CC3399CC6699CC9999CCCC99CCFF99FF0099FF3399FF6699FF9999FFCC99FFFFCC0000CC00
310
33CC0066CC0099CC00CCCC00FFCC3300CC3333CC3366CC3399CC33CCCC33FFCC6600CC6633CC6666CC6699CC66CCCC66FFCC9900CC9933CC9966CC9999CC99CCCC99FFCCCC00CCCC33CCCC66CCCC99CCCCCCCCCCFFCCFF00CCFF33CCFF66CCFF99CCFFCCCCFFFFFF0000FF0033FF0066FF0099FF00CCFF00FFFF3300FF3333
310
FF3366FF3399FF33CCFF33FFFF6600FF6633FF6666FF6699FF66CCFF66FFFF9900FF9933FF9966FF9999FF99CCFF99FFFFCC00FFCC33FFCC66FFCC99FFCCCCFFCCFFFFFF00FFFF33FFFF66FFFF99FFFFCCFFFFFF0000000D0D0D1A1A1A2828283535354343435050505D5D5D6B6B6B787878868686939393A1A1A1AEAEAEBB
310
BBBBC9C9C9D6D6D6E4E4E4F1F1F1FFFFFF00000000000000000000000000000000000000000000000000000000000008F1915C000003B24944415478DAED9D4972AC300C86751C6F74FFCBE81ADEBF063C48B21BD255495E347841A069A8D6C72F591E70007EA0D41F2A60A55453B74D00092001248004F0777EE94DE51705
310
80BABC8654407800353200E505B6017C6B0BC024803F76B304F01F00341D334957B10F5DE4D777A7E7B40F3D0080CB689866433BEC31AFD69601D4BE0BB56F5D2800DEC5B7A680CBD6A90076C28B0BF424AF729FB8B7AD6610CC3C206063E8D125CC0190D5DFAA0BE6EDBD86005E3BDAEF0FD801804D2A30AB485021D28902
310
EA68E4C8E75FDB05DC7CF0A4806FBB3EFB04FD00A05789068094FDF4E69C5F0077259A023E39E70D40490009201A8016E7F0A67807706CB786F7AFA06F17206E63616627809800FA2E425400D73E425C00DD78ECB562580088E5AC0C5C03389B3AA56069E5DCC16B7B29200200A5805601C40520634002885C0D8604C013A1
310
8800442A9C00E200D83787E300189E3F8D9D1C7C03A001E05D87907B00CF7D62BE5D606A1E94B51F3D7F1700965EE1F2F5C670027000602DE5EB11C0C9F078B93D0C00E00FDE360124805FFFA514708A0C459F21427C6694B69934A875DF0D00620048022069348D7D72EB020AC09387585780B4F58D0238317DAD0B00E546
310
01FC8879823B00AAA76405A0F56F17C0CE9F771D210200CAAF105A56008DE74CBB16E15E0128DA4908C60170EB7487500400C414D0BAC4F03300335E5A07C006023E55007950C069BFE80655005427B9370087FE5FD614160A3480B6F50560E8FB7AB6CDF6A1852201F4930A0059064013C0615C61A303082D224E00B0D492
310
96015C691C4B80CE1952784D926A0A38CD6C008E7388723AD5B1B50A40347AB902C624A9AE78E102723AD5F1910B00670844E0E1EF382AA7C572F854033852010F00462DD0A706748F786D2F8B751995231806301ABD63787C2604270FA900581530A3A4C920385BFD22C8B3BCE7C9059CA4C257E01B06B22932A812A19D02
310
1C3487BB2D05664850EF0CA16E2FFB00C0BBFAE6FC7899F1D0DA55F0AA20C01780FDDC98A2DF1ABB9B40631100F15A8065F8BD2C2F4CA03AC53FB20AE06E9254C1DDB421670A080F20B00B6CFAC3E9210812EB0FD72FD65A9D28C9722262C3619BB12FE0A3C863CF360035D6FD383FE0EEAC7500FC8F28448B5ED60BCD03F8
310
6ECFB2130320012480049000E6A9E82B4AEE2D93CBEBCD6DADEE16577F02D0D75AEC4B0FFB03009B7F9B34D7509E8FBC2FAEE959013163C0560173F16DE6FCCBCD3CC78009602EB5ED1EC0E643B6F4760DA0805C593A53E1049000124002480009200124800490009C0130F4AFB7FF012FD0283B00F7A6BA0000000049454E
310
44AE426082
  0
ENDSEC
  0
EOF
