  0
SECTION
  2
HEADER
  9
$ACADVER
  1
AC1027
  9
$ACADMAINTVER
 70
   125
  9
$DWGCODEPAGE
  3
ANSI_932
  9
$LASTSAVEDBY
  1
yasukiyo.ogawa
  9
$REQUIREDVERSIONS
160
                 0
  9
$INSBASE
 10
0.0
 20
0.0
 30
0.0
  9
$EXTMIN
 10
0.0
 20
0.0
 30
0.0
  9
$EXTMAX
 10
3150.0
 20
4425.0
 30
0.0
  9
$LIMMIN
 10
0.0
 20
0.0
  9
$LIMMAX
 10
297.0
 20
210.0
  9
$ORTHOMODE
 70
     1
  9
$REGENMODE
 70
     1
  9
$FILLMODE
 70
     0
  9
$QTEXTMODE
 70
     0
  9
$MIRRTEXT
 70
     1
  9
$LTSCALE
 40
100.0
  9
$ATTMODE
 70
     1
  9
$TEXTSIZE
 40
180.0
  9
$TRACEWID
 40
0.05
  9
$TEXTSTYLE
  7
STANDARD
  9
$CLAYER
  8
3
  9
$CELTYPE
  6
BYLAYER
  9
$CECOLOR
 62
   256
  9
$CELTSCALE
 40
1.0
  9
$DISPSILH
 70
     0
  9
$DIMSCALE
 40
15.0
  9
$DIMASZ
 40
2.0
  9
$DIMEXO
 40
0.5
  9
$DIMDLI
 40
10.0
  9
$DIMRND
 40
0.0
  9
$DIMDLE
 40
0.0
  9
$DIMEXE
 40
1.0
  9
$DIMTP
 40
1.0
  9
$DIMTM
 40
1.0
  9
$DIMTXT
 40
3.0
  9
$DIMCEN
 40
0.0
  9
$DIMTSZ
 40
0.0
  9
$DIMTOL
 70
     0
  9
$DIMLIM
 70
     0
  9
$DIMTIH
 70
     0
  9
$DIMTOH
 70
     0
  9
$DIMSE1
 70
     0
  9
$DIMSE2
 70
     0
  9
$DIMTAD
 70
     1
  9
$DIMZIN
 70
     8
  9
$DIMBLK
  1

  9
$DIMASO
 70
     1
  9
$DIMSHO
 70
     1
  9
$DIMPOST
  1

  9
$DIMAPOST
  1

  9
$DIMALT
 70
     0
  9
$DIMALTD
 70
     2
  9
$DIMALTF
 40
0.039
  9
$DIMLFAC
 40
1.0
  9
$DIMTOFL
 70
     1
  9
$DIMTVP
 40
0.0
  9
$DIMTIX
 70
     0
  9
$DIMSOXD
 70
     0
  9
$DIMSAH
 70
     1
  9
$DIMBLK1
  1
OPEN
  9
$DIMBLK2
  1
OPEN
  9
$DIMSTYLE
  2
IGA
  9
$DIMCLRD
 70
     0
  9
$DIMCLRE
 70
     0
  9
$DIMCLRT
 70
     0
  9
$DIMTFAC
 40
10.0
  9
$DIMGAP
 40
1.0
  9
$DIMJUST
 70
     0
  9
$DIMSD1
 70
     0
  9
$DIMSD2
 70
     0
  9
$DIMTOLJ
 70
     1
  9
$DIMTZIN
 70
     8
  9
$DIMALTZ
 70
     0
  9
$DIMALTTZ
 70
     0
  9
$DIMUPT
 70
     0
  9
$DIMDEC
 70
     0
  9
$DIMTDEC
 70
     0
  9
$DIMALTU
 70
     2
  9
$DIMALTTD
 70
     2
  9
$DIMTXSTY
  7
STANDARD
  9
$DIMAUNIT
 70
     0
  9
$DIMADEC
 70
     0
  9
$DIMALTRND
 40
0.0
  9
$DIMAZIN
 70
     0
  9
$DIMDSEP
 70
    46
  9
$DIMATFIT
 70
     3
  9
$DIMFRAC
 70
     0
  9
$DIMLDRBLK
  1
OPEN
  9
$DIMLUNIT
 70
     2
  9
$DIMLWD
 70
    -2
  9
$DIMLWE
 70
    -2
  9
$DIMTMOVE
 70
     2
  9
$DIMFXL
 40
1.0
  9
$DIMFXLON
 70
     0
  9
$DIMJOGANG
 40
0.7853981633974483
  9
$DIMTFILL
 70
     0
  9
$DIMTFILLCLR
 70
     0
  9
$DIMARCSYM
 70
     0
  9
$DIMLTYPE
  6

  9
$DIMLTEX1
  6

  9
$DIMLTEX2
  6

  9
$DIMTXTDIRECTION
 70
     0
  9
$LUNITS
 70
     2
  9
$LUPREC
 70
     3
  9
$SKETCHINC
 40
0.1
  9
$FILLETRAD
 40
50.0
  9
$AUNITS
 70
     0
  9
$AUPREC
 70
     0
  9
$MENU
  1
acad
  9
$ELEVATION
 40
0.0
  9
$PELEVATION
 40
0.0
  9
$THICKNESS
 40
0.0
  9
$LIMCHECK
 70
     0
  9
$CHAMFERA
 40
0.5
  9
$CHAMFERB
 40
0.5
  9
$CHAMFERC
 40
20.0
  9
$CHAMFERD
 40
0.0
  9
$SKPOLY
 70
     0
  9
$TDCREATE
 40
2451372.464108796
  9
$TDUCREATE
 40
2451372.089114584
  9
$TDUPDATE
 40
2460216.500590278
  9
$TDUUPDATE
 40
2460216.125596586
  9
$TDINDWG
 40
0.0242862384
  9
$TDUSRTIMER
 40
0.0242862384
  9
$USRTIMER
 70
     1
  9
$ANGBASE
 50
0.0
  9
$ANGDIR
 70
     0
  9
$PDMODE
 70
     0
  9
$PDSIZE
 40
0.0
  9
$PLINEWID
 40
0.0
  9
$SPLFRAME
 70
     0
  9
$SPLINETYPE
 70
     6
  9
$SPLINESEGS
 70
     8
  9
$HANDSEED
  5
8648
  9
$SURFTAB1
 70
     6
  9
$SURFTAB2
 70
     6
  9
$SURFTYPE
 70
     6
  9
$SURFU
 70
     6
  9
$SURFV
 70
     6
  9
$UCSBASE
  2

  9
$UCSNAME
  2

  9
$UCSORG
 10
0.0
 20
0.0
 30
0.0
  9
$UCSXDIR
 10
1.0
 20
0.0
 30
0.0
  9
$UCSYDIR
 10
0.0
 20
1.0
 30
0.0
  9
$UCSORTHOREF
  2

  9
$UCSORTHOVIEW
 70
     0
  9
$UCSORGTOP
 10
0.0
 20
0.0
 30
0.0
  9
$UCSORGBOTTOM
 10
0.0
 20
0.0
 30
0.0
  9
$UCSORGLEFT
 10
0.0
 20
0.0
 30
0.0
  9
$UCSORGRIGHT
 10
0.0
 20
0.0
 30
0.0
  9
$UCSORGFRONT
 10
0.0
 20
0.0
 30
0.0
  9
$UCSORGBACK
 10
0.0
 20
0.0
 30
0.0
  9
$PUCSBASE
  2

  9
$PUCSNAME
  2

  9
$PUCSORG
 10
0.0
 20
0.0
 30
0.0
  9
$PUCSXDIR
 10
1.0
 20
0.0
 30
0.0
  9
$PUCSYDIR
 10
0.0
 20
1.0
 30
0.0
  9
$PUCSORTHOREF
  2

  9
$PUCSORTHOVIEW
 70
     0
  9
$PUCSORGTOP
 10
0.0
 20
0.0
 30
0.0
  9
$PUCSORGBOTTOM
 10
0.0
 20
0.0
 30
0.0
  9
$PUCSORGLEFT
 10
0.0
 20
0.0
 30
0.0
  9
$PUCSORGRIGHT
 10
0.0
 20
0.0
 30
0.0
  9
$PUCSORGFRONT
 10
0.0
 20
0.0
 30
0.0
  9
$PUCSORGBACK
 10
0.0
 20
0.0
 30
0.0
  9
$USERI1
 70
     0
  9
$USERI2
 70
     0
  9
$USERI3
 70
     0
  9
$USERI4
 70
     0
  9
$USERI5
 70
     0
  9
$USERR1
 40
0.0
  9
$USERR2
 40
0.0
  9
$USERR3
 40
0.0
  9
$USERR4
 40
0.0
  9
$USERR5
 40
0.0
  9
$WORLDVIEW
 70
     1
  9
$SHADEDGE
 70
     3
  9
$SHADEDIF
 70
    70
  9
$TILEMODE
 70
     1
  9
$MAXACTVP
 70
    16
  9
$PINSBASE
 10
0.0
 20
0.0
 30
0.0
  9
$PLIMCHECK
 70
     0
  9
$PEXTMIN
 10
1.000000000000000E+20
 20
1.000000000000000E+20
 30
1.000000000000000E+20
  9
$PEXTMAX
 10
-1.000000000000000E+20
 20
-1.000000000000000E+20
 30
-1.000000000000000E+20
  9
$PLIMMIN
 10
0.0
 20
0.0
  9
$PLIMMAX
 10
12.0
 20
9.0
  9
$UNITMODE
 70
     0
  9
$VISRETAIN
 70
     0
  9
$PLINEGEN
 70
     0
  9
$PSLTSCALE
 70
     1
  9
$TREEDEPTH
 70
  3020
  9
$CMLSTYLE
  2
STANDARD
  9
$CMLJUST
 70
     0
  9
$CMLSCALE
 40
20.0
  9
$PROXYGRAPHICS
 70
     1
  9
$MEASUREMENT
 70
     1
  9
$CELWEIGHT
370
    -1
  9
$ENDCAPS
280
     0
  9
$JOINSTYLE
280
     0
  9
$LWDISPLAY
290
     0
  9
$INSUNITS
 70
     0
  9
$HYPERLINKBASE
  1

  9
$STYLESHEET
  1

  9
$XEDIT
290
     1
  9
$CEPSNTYPE
380
     0
  9
$PSTYLEMODE
290
     1
  9
$FINGERPRINTGUID
  2
{2F78EDD2-1494-40EC-99BC-06B44DF9EAEA}
  9
$VERSIONGUID
  2
{8ED50053-D40D-4244-A9E9-AFA4158D38BD}
  9
$EXTNAMES
290
     1
  9
$PSVPSCALE
 40
0.0
  9
$OLESTARTUP
290
     0
  9
$SORTENTS
280
   127
  9
$INDEXCTL
280
     0
  9
$HIDETEXT
280
     0
  9
$XCLIPFRAME
280
     2
  9
$HALOGAP
280
     0
  9
$OBSCOLOR
 70
   257
  9
$OBSLTYPE
280
     0
  9
$INTERSECTIONDISPLAY
280
     0
  9
$INTERSECTIONCOLOR
 70
   257
  9
$DIMASSOC
280
     1
  9
$PROJECTNAME
  1

  9
$CAMERADISPLAY
290
     0
  9
$LENSLENGTH
 40
50.0
  9
$CAMERAHEIGHT
 40
0.0
  9
$STEPSPERSEC
 40
2.0
  9
$STEPSIZE
 40
6.0
  9
$3DDWFPREC
 40
2.0
  9
$PSOLWIDTH
 40
0.25
  9
$PSOLHEIGHT
 40
4.0
  9
$LOFTANG1
 40
1.570796326794896
  9
$LOFTANG2
 40
1.570796326794896
  9
$LOFTMAG1
 40
0.0
  9
$LOFTMAG2
 40
0.0
  9
$LOFTPARAM
 70
     7
  9
$LOFTNORMALS
280
     1
  9
$LATITUDE
 40
37.795
  9
$LONGITUDE
 40
-122.394
  9
$NORTHDIRECTION
 40
0.0
  9
$TIMEZONE
 70
 -8000
  9
$LIGHTGLYPHDISPLAY
280
     1
  9
$TILEMODELIGHTSYNCH
280
     1
  9
$CMATERIAL
347
85A5
  9
$SOLIDHIST
280
     0
  9
$SHOWHIST
280
     1
  9
$DWFFRAME
280
     2
  9
$DGNFRAME
280
     0
  9
$REALWORLDSCALE
290
     1
  9
$INTERFERECOLOR
 62
     1
  9
$INTERFEREOBJVS
345
85C7
  9
$INTERFEREVPVS
346
85C4
  9
$CSHADOW
280
     0
  9
$SHADOWPLANELOCATION
 40
0.0
  0
ENDSEC
  0
SECTION
  2
CLASSES
  0
CLASS
  1
ACDBDICTIONARYWDFLT
  2
AcDbDictionaryWithDefault
  3
ObjectDBX Classes
 90
        0
 91
        1
280
     0
281
     0
  0
CLASS
  1
MATERIAL
  2
AcDbMaterial
  3
ObjectDBX Classes
 90
     1153
 91
        3
280
     0
281
     0
  0
CLASS
  1
VISUALSTYLE
  2
AcDbVisualStyle
  3
ObjectDBX Classes
 90
     4095
 91
       24
280
     0
281
     0
  0
CLASS
  1
TABLESTYLE
  2
AcDbTableStyle
  3
ObjectDBX Classes
 90
     4095
 91
        1
280
     0
281
     0
  0
CLASS
  1
SCALE
  2
AcDbScale
  3
ObjectDBX Classes
 90
     1153
 91
       17
280
     0
281
     0
  0
CLASS
  1
MLEADERSTYLE
  2
AcDbMLeaderStyle
  3
ACDB_MLEADERSTYLE_CLASS
 90
     4095
 91
        1
280
     0
281
     0
  0
CLASS
  1
ACDBSECTIONVIEWSTYLE
  2
AcDbSectionViewStyle
  3
ObjectDBX Classes
 90
     1025
 91
        1
280
     0
281
     0
  0
CLASS
  1
ACDBDETAILVIEWSTYLE
  2
AcDbDetailViewStyle
  3
ObjectDBX Classes
 90
     1025
 91
        1
280
     0
281
     0
  0
CLASS
  1
SORTENTSTABLE
  2
AcDbSortentsTable
  3
ObjectDBX Classes
 90
        0
 91
        1
280
     0
281
     0
  0
CLASS
  1
DICTIONARYVAR
  2
AcDbDictionaryVar
  3
ObjectDBX Classes
 90
        0
 91
       10
280
     0
281
     0
  0
CLASS
  1
CELLSTYLEMAP
  2
AcDbCellStyleMap
  3
ObjectDBX Classes
 90
     1152
 91
        1
280
     0
281
     0
  0
ENDSEC
  0
SECTION
  2
TABLES
  0
TABLE
  2
VPORT
  5
8
330
0
100
AcDbSymbolTable
 70
     1
1001
ACAD
1000
DbSaveVer
1071
      278
  0
VPORT
  5
85A2
330
8
100
AcDbSymbolTableRecord
100
AcDbViewportTableRecord
  2
*Active
 70
     0
 10
0.0
 20
0.0
 11
1.0
 21
1.0
 12
2020.585139495969
 22
2212.500010302757
 13
0.0
 23
0.0
 14
10.0
 24
10.0
 15
10.0
 25
10.0
 16
0.0
 26
0.0
 36
1.0
 17
0.0
 27
0.0
 37
0.0
 40
4453.60692206448
 41
2.250314465408805
 42
50.0
 43
0.0
 44
0.0
 50
0.0
 51
0.0
 71
     0
 72
   100
 73
     1
 74
     0
 75
     0
 76
     0
 77
     0
 78
     0
281
     0
 65
     1
110
0.0
120
0.0
130
0.0
111
1.0
121
0.0
131
0.0
112
0.0
122
1.0
132
0.0
 79
     0
146
0.0
348
85C3
 60
     3
 61
     5
292
     1
282
     1
141
0.0
142
0.0
 63
   250
421
  3355443
1001
ACAD_NAV_VCDISPLAY
1070
     3
  0
ENDTAB
  0
TABLE
  2
LTYPE
  5
5
330
0
100
AcDbSymbolTable
 70
     2
  0
LTYPE
  5
13
330
5
100
AcDbSymbolTableRecord
100
AcDbLinetypeTableRecord
  2
BYBLOCK
 70
     0
  3

 72
    65
 73
     0
 40
0.0
  0
LTYPE
  5
14
330
5
100
AcDbSymbolTableRecord
100
AcDbLinetypeTableRecord
  2
BYLAYER
 70
     0
  3

 72
    65
 73
     0
 40
0.0
  0
LTYPE
  5
15
330
5
100
AcDbSymbolTableRecord
100
AcDbLinetypeTableRecord
  2
CONTINUOUS
 70
     0
  3
Solid line
 72
    65
 73
     0
 40
0.0
  0
LTYPE
  5
1F
330
5
100
AcDbSymbolTableRecord
100
AcDbLinetypeTableRecord
  2
CENTER
 70
     0
  3
____ _ ____ _ ____ _ ____ _ ____ _ ____ _ ____ 
 72
    65
 73
     4
 40
2.0
 49
1.25
 74
     0
 49
-0.25
 74
     0
 49
0.25
 74
     0
 49
-0.25
 74
     0
  0
ENDTAB
  0
TABLE
  2
LAYER
  5
2
102
{ACAD_XDICTIONARY
360
861E
102
}
330
0
100
AcDbSymbolTable
 70
     6
  0
LAYER
  5
F
102
{ACAD_XDICTIONARY
360
8611
102
}
330
2
100
AcDbSymbolTableRecord
100
AcDbLayerTableRecord
  2
0
 70
     0
 62
     7
  6
CONTINUOUS
370
    -3
390
8543
347
85B5
348
0
  0
LAYER
  5
31
102
{ACAD_XDICTIONARY
360
8613
102
}
330
2
100
AcDbSymbolTableRecord
100
AcDbLayerTableRecord
  2
3
 70
     0
 62
     2
  6
CONTINUOUS
370
    -3
390
8543
347
85B5
348
0
  0
LAYER
  5
76D0
102
{ACAD_XDICTIONARY
360
8615
102
}
330
2
100
AcDbSymbolTableRecord
100
AcDbLayerTableRecord
  2
2
 70
     0
 62
     3
  6
CENTER
370
    -3
390
8543
347
85B5
348
0
  0
LAYER
  5
76D1
102
{ACAD_XDICTIONARY
360
8617
102
}
330
2
100
AcDbSymbolTableRecord
100
AcDbLayerTableRecord
  2
1
 70
     0
 62
     4
  6
CONTINUOUS
370
    -3
390
8543
347
85B5
348
0
  0
LAYER
  5
76D2
102
{ACAD_XDICTIONARY
360
8619
102
}
330
2
100
AcDbSymbolTableRecord
100
AcDbLayerTableRecord
  2
4
 70
     0
 62
     7
  6
CONTINUOUS
370
    -3
390
8543
347
85B5
348
0
  0
LAYER
  5
7B16
330
2
100
AcDbSymbolTableRecord
100
AcDbLayerTableRecord
  2
DEFPOINTS
 70
     0
 62
     7
  6
CONTINUOUS
290
     0
370
    -3
390
8543
347
85B5
348
0
  0
ENDTAB
  0
TABLE
  2
STYLE
  5
3
330
0
100
AcDbSymbolTable
 70
     1
  0
STYLE
  5
10
330
3
100
AcDbSymbolTableRecord
100
AcDbTextStyleTableRecord
  2
STANDARD
 70
     0
 40
0.0
 41
1.0
 50
0.0
 71
     0
 42
180.0
  3
simplex.shx
  4
extfont.shx
  0
ENDTAB
  0
TABLE
  2
VIEW
  5
6
330
0
100
AcDbSymbolTable
 70
     0
  0
ENDTAB
  0
TABLE
  2
UCS
  5
7
330
0
100
AcDbSymbolTable
 70
     0
  0
ENDTAB
  0
TABLE
  2
APPID
  5
9
330
0
100
AcDbSymbolTable
 70
     4
  0
APPID
  5
11
330
9
100
AcDbSymbolTableRecord
100
AcDbRegAppTableRecord
  2
ACAD
 70
     0
  0
APPID
  5
85F6
330
9
100
AcDbSymbolTableRecord
100
AcDbRegAppTableRecord
  2
AcadAnnoMonitorAlertIconDisabled
 70
     0
  0
APPID
  5
85F7
330
9
100
AcDbSymbolTableRecord
100
AcDbRegAppTableRecord
  2
ACAD_EXEMPT_FROM_CAD_STANDARDS
 70
     0
  0
APPID
  5
8624
330
9
100
AcDbSymbolTableRecord
100
AcDbRegAppTableRecord
  2
ACAD_NAV_VCDISPLAY
 70
     0
  0
ENDTAB
  0
TABLE
  2
DIMSTYLE
  5
A
330
0
100
AcDbSymbolTable
 70
     2
100
AcDbDimStyleTable
 71
     0
  0
DIMSTYLE
105
1D
102
{ACAD_REACTORS
330
84C8
330
84FD
330
850A
330
8517
330
8524
330
8531
102
}
330
A
100
AcDbSymbolTableRecord
100
AcDbDimStyleTableRecord
  2
IGA
 70
     0
 40
2.0
 41
2.0
 42
0.5
 43
10.0
 44
1.0
 47
1.0
 48
1.0
 73
     0
 74
     0
 77
     1
 78
     8
140
3.0
141
0.0
143
0.03937
146
10.0
147
1.0
173
     1
271
     1
272
     0
279
     2
284
     8
340
10
341
79FC
343
79FC
344
79FC
  0
DIMSTYLE
105
7B18
102
{ACAD_REACTORS
330
81AD
330
81AE
330
81B3
330
81E5
330
81F5
330
81F6
330
81FC
330
81FF
330
8200
330
8201
330
8202
330
8208
102
}
330
A
100
AcDbSymbolTableRecord
100
AcDbDimStyleTableRecord
  2
MATSU
 70
     0
 41
2.0
 42
1.0
 43
10.0
 44
1.0
 73
     0
 74
     0
 77
     1
 78
     8
140
3.0
141
0.0
143
0.03937
147
0.5
172
     1
173
     1
176
   256
177
   256
178
   256
284
     8
289
     0
340
10
341
79FC
343
79FC
344
79FC
  0
ENDTAB
  0
TABLE
  2
BLOCK_RECORD
  5
1
330
0
100
AcDbSymbolTable
 70
    22
  0
BLOCK_RECORD
  5
19
102
{ACAD_XDICTIONARY
360
8571
102
}
330
1
100
AcDbSymbolTableRecord
100
AcDbBlockTableRecord
  2
*MODEL_SPACE
340
8546
 70
     0
280
     1
281
     0
  0
BLOCK_RECORD
  5
16
102
{ACAD_XDICTIONARY
360
856F
102
}
330
1
100
AcDbSymbolTableRecord
100
AcDbBlockTableRecord
  2
*PAPER_SPACE
340
8547
 70
     0
280
     1
281
     0
  0
BLOCK_RECORD
  5
79FC
330
1
100
AcDbSymbolTableRecord
100
AcDbBlockTableRecord
  2
_OPEN
340
0
102
{BLKREFS
331
84C1
331
84C2
331
84F6
331
84F7
331
8503
331
8504
331
8510
331
8511
331
851D
331
851E
331
852A
331
852B
331
860B
331
860C
331
83DF
331
83E0
331
83EA
331
83EB
331
8414
331
8415
331
8429
331
842A
331
843F
331
8440
331
8373
331
8374
331
837E
331
837F
331
8389
331
838A
331
83D4
331
83D5
331
858D
331
858E
331
8595
331
8596
102
}
 70
     0
280
     1
281
     0
  0
BLOCK_RECORD
  5
7F39
330
1
100
AcDbSymbolTableRecord
100
AcDbBlockTableRecord
  2
_DOT
340
0
 70
     0
280
     1
281
     0
  0
BLOCK_RECORD
  5
80A6
330
1
100
AcDbSymbolTableRecord
100
AcDbBlockTableRecord
  2
YA_N
340
0
102
{BLKREFS
331
8210
331
8211
331
8212
331
8213
331
8214
331
8215
331
8216
102
}
 70
     0
280
     1
281
     0
  0
BLOCK_RECORD
  5
8269
330
1
100
AcDbSymbolTableRecord
100
AcDbBlockTableRecord
  2
*D3
340
0
 70
     0
280
     1
281
     0
  0
BLOCK_RECORD
  5
8275
330
1
100
AcDbSymbolTableRecord
100
AcDbBlockTableRecord
  2
*D4
340
0
 70
     0
280
     1
281
     0
  0
BLOCK_RECORD
  5
8281
330
1
100
AcDbSymbolTableRecord
100
AcDbBlockTableRecord
  2
*D5
340
0
 70
     0
280
     1
281
     0
  0
BLOCK_RECORD
  5
82D3
330
1
100
AcDbSymbolTableRecord
100
AcDbBlockTableRecord
  2
*D6
340
0
 70
     0
280
     1
281
     0
  0
BLOCK_RECORD
  5
82DF
330
1
100
AcDbSymbolTableRecord
100
AcDbBlockTableRecord
  2
*D7
340
0
 70
     0
280
     1
281
     0
  0
BLOCK_RECORD
  5
82EB
330
1
100
AcDbSymbolTableRecord
100
AcDbBlockTableRecord
  2
*D8
340
0
 70
     0
280
     1
281
     0
  0
BLOCK_RECORD
  5
82F7
330
1
100
AcDbSymbolTableRecord
100
AcDbBlockTableRecord
  2
*D9
340
0
 70
     0
280
     1
281
     0
  0
BLOCK_RECORD
  5
830E
330
1
100
AcDbSymbolTableRecord
100
AcDbBlockTableRecord
  2
*D10
340
0
 70
     0
280
     1
281
     0
  0
BLOCK_RECORD
  5
8319
330
1
100
AcDbSymbolTableRecord
100
AcDbBlockTableRecord
  2
*D11
340
0
 70
     0
280
     1
281
     0
  0
BLOCK_RECORD
  5
8325
330
1
100
AcDbSymbolTableRecord
100
AcDbBlockTableRecord
  2
*D12
340
0
 70
     0
280
     1
281
     0
  0
BLOCK_RECORD
  5
8330
330
1
100
AcDbSymbolTableRecord
100
AcDbBlockTableRecord
  2
*D13
340
0
 70
     0
280
     1
281
     0
  0
BLOCK_RECORD
  5
8348
330
1
100
AcDbSymbolTableRecord
100
AcDbBlockTableRecord
  2
*D14
340
0
 70
     0
280
     1
281
     0
  0
BLOCK_RECORD
  5
84AE
330
1
100
AcDbSymbolTableRecord
100
AcDbBlockTableRecord
  2
_NONE
340
0
 70
     0
280
     1
281
     0
  0
BLOCK_RECORD
  5
84BC
330
1
100
AcDbSymbolTableRecord
100
AcDbBlockTableRecord
  2
*D16
340
0
 70
     0
280
     1
281
     0
  0
BLOCK_RECORD
  5
84F1
330
1
100
AcDbSymbolTableRecord
100
AcDbBlockTableRecord
  2
*D17
340
0
 70
     0
280
     1
281
     0
  0
BLOCK_RECORD
  5
84FE
330
1
100
AcDbSymbolTableRecord
100
AcDbBlockTableRecord
  2
*D18
340
0
 70
     0
280
     1
281
     0
  0
BLOCK_RECORD
  5
850B
330
1
100
AcDbSymbolTableRecord
100
AcDbBlockTableRecord
  2
*D19
340
0
 70
     0
280
     1
281
     0
  0
BLOCK_RECORD
  5
8518
330
1
100
AcDbSymbolTableRecord
100
AcDbBlockTableRecord
  2
*D20
340
0
 70
     0
280
     1
281
     0
  0
BLOCK_RECORD
  5
8525
330
1
100
AcDbSymbolTableRecord
100
AcDbBlockTableRecord
  2
*D21
340
0
 70
     0
280
     1
281
     0
  0
ENDTAB
  0
ENDSEC
  0
SECTION
  2
BLOCKS
  0
BLOCK
  5
1A
330
19
100
AcDbEntity
  8
0
100
AcDbBlockBegin
  2
*MODEL_SPACE
 70
     0
 10
0.0
 20
0.0
 30
0.0
  3
*MODEL_SPACE
  1

  0
ENDBLK
  5
1B
330
19
100
AcDbEntity
  8
0
100
AcDbBlockEnd
  0
BLOCK
  5
17
330
16
100
AcDbEntity
 67
     1
  8
0
100
AcDbBlockBegin
  2
*PAPER_SPACE
 70
     0
 10
0.0
 20
0.0
 30
0.0
  3
*PAPER_SPACE
  1

  0
ENDBLK
  5
18
330
16
100
AcDbEntity
 67
     1
  8
0
100
AcDbBlockEnd
  0
BLOCK
  5
7A00
330
79FC
100
AcDbEntity
  8
0
100
AcDbBlockBegin
  2
_OPEN
 70
     0
 10
0.0
 20
0.0
 30
0.0
  3
_OPEN
  1

  0
LINE
  5
79FD
330
79FC
100
AcDbEntity
  8
0
  6
ByBlock
 62
     0
100
AcDbLine
 10
-1.0
 20
0.1666666666666666
 30
0.0
 11
0.0
 21
0.0
 31
0.0
  0
LINE
  5
79FE
330
79FC
100
AcDbEntity
  8
0
  6
ByBlock
 62
     0
100
AcDbLine
 10
0.0
 20
0.0
 30
0.0
 11
-1.0
 21
-0.1666666666666666
 31
0.0
  0
LINE
  5
79FF
330
79FC
100
AcDbEntity
  8
0
  6
ByBlock
 62
     0
100
AcDbLine
 10
0.0
 20
0.0
 30
0.0
 11
-1.0
 21
0.0
 31
0.0
  0
ENDBLK
  5
7A01
330
79FC
100
AcDbEntity
  8
0
100
AcDbBlockEnd
  0
BLOCK
  5
7F3F
330
7F39
100
AcDbEntity
  8
0
100
AcDbBlockBegin
  2
_DOT
 70
     0
 10
0.0
 20
0.0
 30
0.0
  3
_DOT
  1

  0
LWPOLYLINE
  5
7F3A
330
7F39
100
AcDbEntity
  8
0
  6
ByBlock
 62
     0
100
AcDbPolyline
 90
        2
 70
     1
 43
0.25
 10
-0.125
 20
0.0
 42
1.0
 10
0.125
 20
0.0
 42
1.0
  0
LINE
  5
7F3E
330
7F39
100
AcDbEntity
  8
0
  6
ByBlock
 62
     0
100
AcDbLine
 10
-0.25
 20
0.0
 30
0.0
 11
-1.0
 21
0.0
 31
0.0
  0
ENDBLK
  5
7F40
330
7F39
100
AcDbEntity
  8
0
100
AcDbBlockEnd
  0
BLOCK
  5
80A7
330
80A6
100
AcDbEntity
  8
0
100
AcDbBlockBegin
  2
YA_N
 70
     0
 10
0.0
 20
0.0
 30
0.0
  3
YA_N
  1

  0
ENDBLK
  5
80A8
330
80A6
100
AcDbEntity
  8
0
100
AcDbBlockEnd
  0
BLOCK
  5
836F
330
8269
100
AcDbEntity
  8
0
100
AcDbBlockBegin
  2
*D3
 70
     1
 10
0.0
 20
0.0
 30
0.0
  3
*D3
  1

  0
LINE
  5
8370
330
8269
100
AcDbEntity
  8
0
  6
ByBlock
440
 16777216
100
AcDbLine
 10
4517.808030903148
 20
1264.73586710622
 30
0.0
 11
4344.391230395173
 21
1264.73586710622
 31
0.0
  0
LINE
  5
8371
330
8269
100
AcDbEntity
  8
0
  6
ByBlock
440
 16777216
100
AcDbLine
 10
4512.808030903148
 20
1688.73586710622
 30
0.0
 11
4344.391230395173
 21
1688.73586710622
 31
0.0
  0
LINE
  5
8372
330
8269
100
AcDbEntity
  8
0
  6
ByBlock
440
 16777216
100
AcDbLine
 10
4359.391230395173
 20
1294.73586710622
 30
0.0
 11
4359.391230395173
 21
1658.73586710622
 31
0.0
  0
INSERT
  5
8373
330
8269
100
AcDbEntity
  8
0
  6
ByBlock
440
 16777216
100
AcDbBlockReference
  2
_OPEN
 10
4359.391230395173
 20
1264.73586710622
 30
0.0
 41
30.0
 42
30.0
 43
30.0
 50
270.0
  0
INSERT
  5
8374
330
8269
100
AcDbEntity
  8
0
  6
ByBlock
440
 16777216
100
AcDbBlockReference
  2
_OPEN
 10
4359.391230395173
 20
1688.73586710622
 30
0.0
 41
30.0
 42
30.0
 43
30.0
 50
90.0
  0
MTEXT
  5
8375
330
8269
100
AcDbEntity
  8
0
  6
ByBlock
440
 16777216
100
AcDbMText
 10
4329.391230395173
 20
1476.73586710622
 30
0.0
 40
45.0
 41
0.0
 46
0.0
 71
     5
 72
     5
  1
\A1;424
 11
0.0
 21
1.0
 31
0.0
 73
     1
 44
1.0
  0
POINT
  5
8376
330
8269
100
AcDbEntity
  8
DEFPOINTS
  6
ByBlock
 62
     0
440
 16777216
100
AcDbPoint
 10
4532.808030903148
 20
1264.73586710622
 30
0.0
  0
POINT
  5
8377
330
8269
100
AcDbEntity
  8
DEFPOINTS
  6
ByBlock
 62
     0
440
 16777216
100
AcDbPoint
 10
4527.808030903148
 20
1688.73586710622
 30
0.0
  0
POINT
  5
8378
330
8269
100
AcDbEntity
  8
DEFPOINTS
  6
ByBlock
 62
     0
440
 16777216
100
AcDbPoint
 10
4359.391230395173
 20
1688.73586710622
 30
0.0
  0
ENDBLK
  5
8379
330
8269
100
AcDbEntity
  8
0
100
AcDbBlockEnd
  0
BLOCK
  5
837A
330
8275
100
AcDbEntity
  8
0
100
AcDbBlockBegin
  2
*D4
 70
     1
 10
0.0
 20
0.0
 30
0.0
  3
*D4
  1

  0
LINE
  5
837B
330
8275
100
AcDbEntity
  8
0
  6
ByBlock
440
 16777216
100
AcDbLine
 10
6679.524048208731
 20
1888.73586710622
 30
0.0
 11
6851.802568626256
 21
1888.73586710622
 31
0.0
  0
LINE
  5
837C
330
8275
100
AcDbEntity
  8
0
  6
ByBlock
440
 16777216
100
AcDbLine
 10
6679.524048208731
 20
1488.73586710622
 30
0.0
 11
6851.802568626256
 21
1488.73586710622
 31
0.0
  0
LINE
  5
837D
330
8275
100
AcDbEntity
  8
0
  6
ByBlock
440
 16777216
100
AcDbLine
 10
6836.802568626255
 20
1858.73586710622
 30
0.0
 11
6836.802568626255
 21
1518.73586710622
 31
0.0
  0
INSERT
  5
837E
330
8275
100
AcDbEntity
  8
0
  6
ByBlock
440
 16777216
100
AcDbBlockReference
  2
_OPEN
 10
6836.802568626255
 20
1888.73586710622
 30
0.0
 41
30.0
 42
30.0
 43
30.0
 50
90.0
  0
INSERT
  5
837F
330
8275
100
AcDbEntity
  8
0
  6
ByBlock
440
 16777216
100
AcDbBlockReference
  2
_OPEN
 10
6836.802568626255
 20
1488.73586710622
 30
0.0
 41
30.0
 42
30.0
 43
30.0
 50
270.0
  0
MTEXT
  5
8380
330
8275
100
AcDbEntity
  8
0
  6
ByBlock
440
 16777216
100
AcDbMText
 10
6806.802568626256
 20
1688.73586710622
 30
0.0
 40
45.0
 41
0.0
 46
0.0
 71
     5
 72
     5
  1
\A1;φ400
 11
0.0
 21
1.0
 31
0.0
 73
     1
 44
1.0
  0
POINT
  5
8381
330
8275
100
AcDbEntity
  8
DEFPOINTS
  6
ByBlock
 62
     0
440
 16777216
100
AcDbPoint
 10
6664.52404820873
 20
1888.73586710622
 30
0.0
  0
POINT
  5
8382
330
8275
100
AcDbEntity
  8
DEFPOINTS
  6
ByBlock
 62
     0
440
 16777216
100
AcDbPoint
 10
6664.52404820873
 20
1488.73586710622
 30
0.0
  0
POINT
  5
8383
330
8275
100
AcDbEntity
  8
DEFPOINTS
  6
ByBlock
 62
     0
440
 16777216
100
AcDbPoint
 10
6836.802568626255
 20
1488.73586710622
 30
0.0
  0
ENDBLK
  5
8384
330
8275
100
AcDbEntity
  8
0
100
AcDbBlockEnd
  0
BLOCK
  5
8385
330
8281
100
AcDbEntity
  8
0
100
AcDbBlockBegin
  2
*D5
 70
     1
 10
0.0
 20
0.0
 30
0.0
  3
*D5
  1

  0
LINE
  5
8386
330
8281
100
AcDbEntity
  8
0
  6
ByBlock
440
 16777216
100
AcDbLine
 10
4517.808030903148
 20
1264.73586710622
 30
0.0
 11
4440.025380421007
 21
1264.73586710622
 31
0.0
  0
LINE
  5
8387
330
8281
100
AcDbEntity
  8
0
  6
ByBlock
440
 16777216
100
AcDbLine
 10
4517.808030903148
 20
1676.73586710622
 30
0.0
 11
4440.025380421007
 21
1676.73586710622
 31
0.0
  0
LINE
  5
8388
330
8281
100
AcDbEntity
  8
0
  6
ByBlock
440
 16777216
100
AcDbLine
 10
4455.025380421008
 20
1294.73586710622
 30
0.0
 11
4455.025380421008
 21
1646.73586710622
 31
0.0
  0
INSERT
  5
8389
330
8281
100
AcDbEntity
  8
0
  6
ByBlock
440
 16777216
100
AcDbBlockReference
  2
_OPEN
 10
4455.025380421008
 20
1264.73586710622
 30
0.0
 41
30.0
 42
30.0
 43
30.0
 50
270.0
  0
INSERT
  5
838A
330
8281
100
AcDbEntity
  8
0
  6
ByBlock
440
 16777216
100
AcDbBlockReference
  2
_OPEN
 10
4455.025380421008
 20
1676.73586710622
 30
0.0
 41
30.0
 42
30.0
 43
30.0
 50
90.0
  0
MTEXT
  5
838B
330
8281
100
AcDbEntity
  8
0
  6
ByBlock
440
 16777216
100
AcDbMText
 10
4425.025380421008
 20
1470.73586710622
 30
0.0
 40
45.0
 41
0.0
 46
0.0
 71
     5
 72
     5
  1
\A1;412
 11
0.0
 21
1.0
 31
0.0
 73
     1
 44
1.0
  0
POINT
  5
838C
330
8281
100
AcDbEntity
  8
DEFPOINTS
  6
ByBlock
 62
     0
440
 16777216
100
AcDbPoint
 10
4532.808030903148
 20
1264.73586710622
 30
0.0
  0
POINT
  5
838D
330
8281
100
AcDbEntity
  8
DEFPOINTS
  6
ByBlock
 62
     0
440
 16777216
100
AcDbPoint
 10
4532.808030903148
 20
1676.73586710622
 30
0.0
  0
POINT
  5
838E
330
8281
100
AcDbEntity
  8
DEFPOINTS
  6
ByBlock
 62
     0
440
 16777216
100
AcDbPoint
 10
4455.025380421008
 20
1676.73586710622
 30
0.0
  0
ENDBLK
  5
838F
330
8281
100
AcDbEntity
  8
0
100
AcDbBlockEnd
  0
BLOCK
  5
83D0
330
82D3
100
AcDbEntity
  8
0
100
AcDbBlockBegin
  2
*D6
 70
     1
 10
0.0
 20
0.0
 30
0.0
  3
*D6
  1

  0
LINE
  5
83D1
330
82D3
100
AcDbEntity
  8
0
  6
ByBlock
440
 16777216
100
AcDbLine
 10
6739.52404820873
 20
1663.435867106219
 30
0.0
 11
6739.52404820873
 21
2143.953126243037
 31
0.0
  0
LINE
  5
83D2
330
82D3
100
AcDbEntity
  8
0
  6
ByBlock
440
 16777216
100
AcDbLine
 10
6397.52404820873
 20
2089.450525151219
 30
0.0
 11
6397.52404820873
 21
2143.953126243037
 31
0.0
  0
LINE
  5
83D3
330
82D3
100
AcDbEntity
  8
0
  6
ByBlock
440
 16777216
100
AcDbLine
 10
6709.524048208731
 20
2128.953126243037
 30
0.0
 11
6427.52404820873
 21
2128.953126243037
 31
0.0
  0
INSERT
  5
83D4
330
82D3
100
AcDbEntity
  8
0
  6
ByBlock
440
 16777216
100
AcDbBlockReference
  2
_OPEN
 10
6739.52404820873
 20
2128.953126243037
 30
0.0
 41
30.0
 42
30.0
 43
30.0
  0
INSERT
  5
83D5
330
82D3
100
AcDbEntity
  8
0
  6
ByBlock
440
 16777216
100
AcDbBlockReference
  2
_OPEN
 10
6397.52404820873
 20
2128.953126243037
 30
0.0
 41
30.0
 42
30.0
 43
30.0
 50
180.0
  0
MTEXT
  5
83D6
330
82D3
100
AcDbEntity
  8
0
  6
ByBlock
440
 16777216
100
AcDbMText
 10
6568.524048208731
 20
2170.738840528751
 30
0.0
 40
45.0
 41
0.0
 46
0.0
 71
     5
 72
     5
  1
\A1;(342)
 73
     1
 44
1.0
  0
POINT
  5
83D7
330
82D3
100
AcDbEntity
  8
DEFPOINTS
  6
ByBlock
 62
     0
440
 16777216
100
AcDbPoint
 10
6739.52404820873
 20
1648.435867106219
 30
0.0
  0
POINT
  5
83D8
330
82D3
100
AcDbEntity
  8
DEFPOINTS
  6
ByBlock
 62
     0
440
 16777216
100
AcDbPoint
 10
6397.52404820873
 20
2074.450525151219
 30
0.0
  0
POINT
  5
83D9
330
82D3
100
AcDbEntity
  8
DEFPOINTS
  6
ByBlock
 62
     0
440
 16777216
100
AcDbPoint
 10
6397.52404820873
 20
2128.953126243037
 30
0.0
  0
ENDBLK
  5
83DA
330
82D3
100
AcDbEntity
  8
0
100
AcDbBlockEnd
  0
BLOCK
  5
83DB
330
82DF
100
AcDbEntity
  8
0
100
AcDbBlockBegin
  2
*D7
 70
     1
 10
0.0
 20
0.0
 30
0.0
  3
*D7
  1

  0
LINE
  5
83DC
330
82DF
100
AcDbEntity
  8
0
  6
ByBlock
440
 16777216
100
AcDbLine
 10
5567.808030903148
 20
3195.25002315308
 30
0.0
 11
5567.808030903148
 21
3385.677904139776
 31
0.0
  0
LINE
  5
83DD
330
82DF
100
AcDbEntity
  8
0
  6
ByBlock
440
 16777216
100
AcDbLine
 10
4587.808030903148
 20
3195.25002315308
 30
0.0
 11
4587.808030903148
 21
3385.677904139776
 31
0.0
  0
LINE
  5
83DE
330
82DF
100
AcDbEntity
  8
0
  6
ByBlock
440
 16777216
100
AcDbLine
 10
5537.808030903148
 20
3370.677904139776
 30
0.0
 11
4617.808030903148
 21
3370.677904139776
 31
0.0
  0
INSERT
  5
83DF
330
82DF
100
AcDbEntity
  8
0
  6
ByBlock
440
 16777216
100
AcDbBlockReference
  2
_OPEN
 10
5567.808030903148
 20
3370.677904139776
 30
0.0
 41
30.0
 42
30.0
 43
30.0
  0
INSERT
  5
83E0
330
82DF
100
AcDbEntity
  8
0
  6
ByBlock
440
 16777216
100
AcDbBlockReference
  2
_OPEN
 10
4587.808030903148
 20
3370.677904139776
 30
0.0
 41
30.0
 42
30.0
 43
30.0
 50
180.0
  0
MTEXT
  5
83E1
330
82DF
100
AcDbEntity
  8
0
  6
ByBlock
440
 16777216
100
AcDbMText
 10
5077.808030903149
 20
3400.677904139776
 30
0.0
 40
45.0
 41
0.0
 46
0.0
 71
     5
 72
     5
  1
\A1;980
 73
     1
 44
1.0
  0
POINT
  5
83E2
330
82DF
100
AcDbEntity
  8
DEFPOINTS
  6
ByBlock
 62
     0
440
 16777216
100
AcDbPoint
 10
5567.808030903148
 20
3180.25002315308
 30
0.0
  0
POINT
  5
83E3
330
82DF
100
AcDbEntity
  8
DEFPOINTS
  6
ByBlock
 62
     0
440
 16777216
100
AcDbPoint
 10
4587.808030903148
 20
3180.25002315308
 30
0.0
  0
POINT
  5
83E4
330
82DF
100
AcDbEntity
  8
DEFPOINTS
  6
ByBlock
 62
     0
440
 16777216
100
AcDbPoint
 10
4587.808030903148
 20
3370.677904139776
 30
0.0
  0
ENDBLK
  5
83E5
330
82DF
100
AcDbEntity
  8
0
100
AcDbBlockEnd
  0
BLOCK
  5
83E6
330
82EB
100
AcDbEntity
  8
0
100
AcDbBlockBegin
  2
*D8
 70
     1
 10
0.0
 20
0.0
 30
0.0
  3
*D8
  1

  0
LINE
  5
83E7
330
82EB
100
AcDbEntity
  8
0
  6
ByBlock
440
 16777216
100
AcDbLine
 10
4572.808030903148
 20
3180.25002315308
 30
0.0
 11
4329.528574402942
 21
3180.25002315308
 31
0.0
  0
LINE
  5
83E8
330
82EB
100
AcDbEntity
  8
0
  6
ByBlock
440
 16777216
100
AcDbLine
 10
4572.808030903148
 20
2500.250023153081
 30
0.0
 11
4329.528574402942
 21
2500.250023153081
 31
0.0
  0
LINE
  5
83E9
330
82EB
100
AcDbEntity
  8
0
  6
ByBlock
440
 16777216
100
AcDbLine
 10
4344.528574402942
 20
3150.250023153081
 30
0.0
 11
4344.528574402942
 21
2530.250023153081
 31
0.0
  0
INSERT
  5
83EA
330
82EB
100
AcDbEntity
  8
0
  6
ByBlock
440
 16777216
100
AcDbBlockReference
  2
_OPEN
 10
4344.528574402942
 20
3180.25002315308
 30
0.0
 41
30.0
 42
30.0
 43
30.0
 50
90.0
  0
INSERT
  5
83EB
330
82EB
100
AcDbEntity
  8
0
  6
ByBlock
440
 16777216
100
AcDbBlockReference
  2
_OPEN
 10
4344.528574402942
 20
2500.250023153081
 30
0.0
 41
30.0
 42
30.0
 43
30.0
 50
270.0
  0
MTEXT
  5
83EC
330
82EB
100
AcDbEntity
  8
0
  6
ByBlock
440
 16777216
100
AcDbMText
 10
4314.528574402942
 20
2840.25002315308
 30
0.0
 40
45.0
 41
0.0
 46
0.0
 71
     5
 72
     5
  1
\A1;680
 11
0.0
 21
1.0
 31
0.0
 73
     1
 44
1.0
  0
POINT
  5
83ED
330
82EB
100
AcDbEntity
  8
DEFPOINTS
  6
ByBlock
 62
     0
440
 16777216
100
AcDbPoint
 10
4587.808030903148
 20
3180.25002315308
 30
0.0
  0
POINT
  5
83EE
330
82EB
100
AcDbEntity
  8
DEFPOINTS
  6
ByBlock
 62
     0
440
 16777216
100
AcDbPoint
 10
4587.808030903148
 20
2500.250023153081
 30
0.0
  0
POINT
  5
83EF
330
82EB
100
AcDbEntity
  8
DEFPOINTS
  6
ByBlock
 62
     0
440
 16777216
100
AcDbPoint
 10
4344.528574402942
 20
2500.250023153081
 30
0.0
  0
ENDBLK
  5
83F0
330
82EB
100
AcDbEntity
  8
0
100
AcDbBlockEnd
  0
BLOCK
  5
8463
330
82F7
100
AcDbEntity
  8
0
100
AcDbBlockBegin
  2
*D9
 70
     1
 10
0.0
 20
0.0
 30
0.0
  3
*D9
  1

  0
LINE
  5
8609
330
82F7
100
AcDbEntity
  8
3
440
 16777216
370
    -2
100
AcDbLine
 10
1945.440188232262
 20
1893.681535314736
 30
0.0
 11
1945.440188232262
 21
2178.898794451553
 31
0.0
  0
LINE
  5
860A
330
82F7
100
AcDbEntity
  8
3
440
 16777216
370
    -2
100
AcDbLine
 10
2445.440188232262
 20
2163.898794451553
 30
0.0
 11
1975.440188232262
 21
2163.898794451553
 31
0.0
  0
INSERT
  5
860B
330
82F7
100
AcDbEntity
  8
3
440
 16777216
370
    -2
100
AcDbBlockReference
  2
_OPEN
 10
2475.440188232262
 20
2163.898794451553
 30
0.0
 41
30.0
 42
30.0
 43
30.0
  0
INSERT
  5
860C
330
82F7
100
AcDbEntity
  8
3
440
 16777216
370
    -2
100
AcDbBlockReference
  2
_OPEN
 10
1945.440188232262
 20
2163.898794451553
 30
0.0
 41
30.0
 42
30.0
 43
30.0
 50
180.0
  0
MTEXT
  5
860D
330
82F7
100
AcDbEntity
  8
3
440
 16777216
100
AcDbMText
 10
2210.440188232262
 20
2205.684508737267
 30
0.0
 40
45.0
 41
0.0
 46
0.0
 71
     5
 72
     1
  1
\A1;(530)
 73
     1
 44
1.0
  0
POINT
  5
860E
330
82F7
100
AcDbEntity
  8
DEFPOINTS
 62
     0
440
 16777216
100
AcDbPoint
 10
2475.440188232262
 20
2109.396193359736
 30
0.0
  0
POINT
  5
860F
330
82F7
100
AcDbEntity
  8
DEFPOINTS
 62
     0
440
 16777216
100
AcDbPoint
 10
1945.440188232262
 20
1878.681535314736
 30
0.0
  0
POINT
  5
8610
330
82F7
100
AcDbEntity
  8
DEFPOINTS
 62
     0
440
 16777216
100
AcDbPoint
 10
1945.440188232262
 20
2163.898794451553
 30
0.0
  0
ENDBLK
  5
846C
330
82F7
100
AcDbEntity
  8
0
100
AcDbBlockEnd
  0
BLOCK
  5
8406
330
830E
100
AcDbEntity
  8
0
100
AcDbBlockBegin
  2
*D10
 70
     1
 10
0.0
 20
0.0
 30
0.0
  3
*D10
  1

  0
LINE
  5
858B
330
830E
100
AcDbEntity
  8
3
440
 16777216
100
AcDbLine
 10
807.9545313312573
 20
1203.681535314736
 30
0.0
 11
493.4123655888343
 21
1203.681535314737
 31
0.0
  0
LINE
  5
858C
330
830E
100
AcDbEntity
  8
3
440
 16777216
100
AcDbLine
 10
508.4123655888344
 20
1693.681535314737
 30
0.0
 11
508.4123655888342
 21
1233.681535314737
 31
0.0
  0
INSERT
  5
858D
330
830E
100
AcDbEntity
  8
3
440
 16777216
100
AcDbBlockReference
  2
_OPEN
 10
508.4123655888344
 20
1723.681535314737
 30
0.0
 41
30.0
 42
30.0
 43
30.0
 50
90.0
  0
INSERT
  5
858E
330
830E
100
AcDbEntity
  8
3
440
 16777216
100
AcDbBlockReference
  2
_OPEN
 10
508.4123655888342
 20
1203.681535314737
 30
0.0
 41
30.0
 42
30.0
 43
30.0
 50
270.0
  0
MTEXT
  5
858F
330
830E
100
AcDbEntity
  8
3
440
 16777216
100
AcDbMText
 10
478.4123655888341
 20
1463.681535314736
 30
0.0
 40
45.0
 41
0.0
 46
0.0
 71
     5
 72
     5
  1
\A1;520
 11
0.0000000000000001
 21
1.0
 31
0.0
 73
     1
 44
1.0
  0
POINT
  5
8590
330
830E
100
AcDbEntity
  8
DEFPOINTS
 62
     0
440
 16777216
100
AcDbPoint
 10
707.606162559864
 20
1723.681535314736
 30
0.0
  0
POINT
  5
8591
330
830E
100
AcDbEntity
  8
DEFPOINTS
 62
     0
440
 16777216
100
AcDbPoint
 10
822.9545313312573
 20
1203.681535314736
 30
0.0
  0
POINT
  5
8592
330
830E
100
AcDbEntity
  8
DEFPOINTS
 62
     0
440
 16777216
100
AcDbPoint
 10
508.4123655888342
 20
1203.681535314737
 30
0.0
  0
ENDBLK
  5
840F
330
830E
100
AcDbEntity
  8
0
100
AcDbBlockEnd
  0
BLOCK
  5
8410
330
8319
100
AcDbEntity
  8
0
100
AcDbBlockBegin
  2
*D11
 70
     1
 10
0.0
 20
0.0
 30
0.0
  3
*D11
  1

  0
LINE
  5
8411
330
8319
100
AcDbEntity
  8
0
  6
ByBlock
440
 16777216
100
AcDbLine
 10
4532.808030903148
 20
1718.73586710622
 30
0.0
 11
4532.808030903148
 21
2080.554365150284
 31
0.0
  0
LINE
  5
8412
330
8319
100
AcDbEntity
  8
0
  6
ByBlock
440
 16777216
100
AcDbLine
 10
4837.808030903148
 20
2023.822565713226
 30
0.0
 11
4837.808030903148
 21
2080.554365150284
 31
0.0
  0
LINE
  5
8413
330
8319
100
AcDbEntity
  8
0
  6
ByBlock
440
 16777216
100
AcDbLine
 10
4562.808030903148
 20
2065.554365150284
 30
0.0
 11
4807.808030903149
 21
2065.554365150284
 31
0.0
  0
INSERT
  5
8414
330
8319
100
AcDbEntity
  8
0
  6
ByBlock
440
 16777216
100
AcDbBlockReference
  2
_OPEN
 10
4532.808030903148
 20
2065.554365150284
 30
0.0
 41
30.0
 42
30.0
 43
30.0
 50
180.0
  0
INSERT
  5
8415
330
8319
100
AcDbEntity
  8
0
  6
ByBlock
440
 16777216
100
AcDbBlockReference
  2
_OPEN
 10
4837.808030903148
 20
2065.554365150284
 30
0.0
 41
30.0
 42
30.0
 43
30.0
  0
MTEXT
  5
8416
330
8319
100
AcDbEntity
  8
0
  6
ByBlock
440
 16777216
100
AcDbMText
 10
4685.308030903148
 20
2095.554365150284
 30
0.0
 40
45.0
 41
0.0
 46
0.0
 71
     5
 72
     5
  1
\A1;305
 73
     1
 44
1.0
  0
POINT
  5
8417
330
8319
100
AcDbEntity
  8
DEFPOINTS
  6
ByBlock
 62
     0
440
 16777216
100
AcDbPoint
 10
4532.808030903148
 20
1703.73586710622
 30
0.0
  0
POINT
  5
8418
330
8319
100
AcDbEntity
  8
DEFPOINTS
  6
ByBlock
 62
     0
440
 16777216
100
AcDbPoint
 10
4837.808030903148
 20
2008.822565713225
 30
0.0
  0
POINT
  5
8419
330
8319
100
AcDbEntity
  8
DEFPOINTS
  6
ByBlock
 62
     0
440
 16777216
100
AcDbPoint
 10
4837.808030903148
 20
2065.554365150284
 30
0.0
  0
ENDBLK
  5
841A
330
8319
100
AcDbEntity
  8
0
100
AcDbBlockEnd
  0
BLOCK
  5
841B
330
8325
100
AcDbEntity
  8
0
100
AcDbBlockBegin
  2
*D12
 70
     1
 10
0.0
 20
0.0
 30
0.0
  3
*D12
  1

  0
LINE
  5
8593
330
8325
100
AcDbEntity
  8
3
440
 16777216
100
AcDbLine
 10
1416.162248293273
 20
1708.681535314737
 30
0.0
 11
1416.162248293273
 21
2115.5000333588
 31
0.0
  0
LINE
  5
8594
330
8325
100
AcDbEntity
  8
3
440
 16777216
100
AcDbLine
 10
1102.954531331257
 20
2100.5000333588
 30
0.0
 11
1386.162248293273
 21
2100.5000333588
 31
0.0
  0
INSERT
  5
8595
330
8325
100
AcDbEntity
  8
3
440
 16777216
100
AcDbBlockReference
  2
_OPEN
 10
1072.954531331257
 20
2100.5000333588
 30
0.0
 41
30.0
 42
30.0
 43
30.0
 50
180.0
  0
INSERT
  5
8596
330
8325
100
AcDbEntity
  8
3
440
 16777216
100
AcDbBlockReference
  2
_OPEN
 10
1416.162248293273
 20
2100.5000333588
 30
0.0
 41
30.0
 42
30.0
 43
30.0
  0
MTEXT
  5
8597
330
8325
100
AcDbEntity
  8
3
440
 16777216
100
AcDbMText
 10
1244.558389812265
 20
2130.500033358801
 30
0.0
 40
45.0
 41
0.0
 46
0.0
 71
     5
 72
     5
  1
\A1;342
 73
     1
 44
1.0
  0
POINT
  5
8598
330
8325
100
AcDbEntity
  8
DEFPOINTS
 62
     0
440
 16777216
100
AcDbPoint
 10
1072.954531331257
 20
2043.768233921742
 30
0.0
  0
POINT
  5
8599
330
8325
100
AcDbEntity
  8
DEFPOINTS
 62
     0
440
 16777216
100
AcDbPoint
 10
1416.162248293273
 20
1693.681535314737
 30
0.0
  0
POINT
  5
859A
330
8325
100
AcDbEntity
  8
DEFPOINTS
 62
     0
440
 16777216
100
AcDbPoint
 10
1416.162248293273
 20
2100.5000333588
 30
0.0
  0
ENDBLK
  5
8424
330
8325
100
AcDbEntity
  8
0
100
AcDbBlockEnd
  0
BLOCK
  5
8425
330
8330
100
AcDbEntity
  8
0
100
AcDbBlockBegin
  2
*D13
 70
     1
 10
0.0
 20
0.0
 30
0.0
  3
*D13
  1

  0
LINE
  5
8426
330
8330
100
AcDbEntity
  8
0
  6
ByBlock
440
 16777216
100
AcDbLine
 10
4532.808030903148
 20
1718.73586710622
 30
0.0
 11
4532.808030903148
 21
2178.259133862659
 31
0.0
  0
LINE
  5
8427
330
8330
100
AcDbEntity
  8
0
  6
ByBlock
440
 16777216
100
AcDbLine
 10
5567.808030903148
 20
1248.73586710622
 30
0.0
 11
5567.808030903148
 21
2178.259133862659
 31
0.0
  0
LINE
  5
8428
330
8330
100
AcDbEntity
  8
0
  6
ByBlock
440
 16777216
100
AcDbLine
 10
4562.808030903148
 20
2163.259133862659
 30
0.0
 11
5537.808030903148
 21
2163.259133862659
 31
0.0
  0
INSERT
  5
8429
330
8330
100
AcDbEntity
  8
0
  6
ByBlock
440
 16777216
100
AcDbBlockReference
  2
_OPEN
 10
4532.808030903148
 20
2163.259133862659
 30
0.0
 41
30.0
 42
30.0
 43
30.0
 50
180.0
  0
INSERT
  5
842A
330
8330
100
AcDbEntity
  8
0
  6
ByBlock
440
 16777216
100
AcDbBlockReference
  2
_OPEN
 10
5567.808030903148
 20
2163.259133862659
 30
0.0
 41
30.0
 42
30.0
 43
30.0
  0
MTEXT
  5
842B
330
8330
100
AcDbEntity
  8
0
  6
ByBlock
440
 16777216
100
AcDbMText
 10
5050.308030903148
 20
2193.259133862659
 30
0.0
 40
45.0
 41
0.0
 46
0.0
 71
     5
 72
     5
  1
\A1;1035
 73
     1
 44
1.0
  0
POINT
  5
842C
330
8330
100
AcDbEntity
  8
DEFPOINTS
  6
ByBlock
 62
     0
440
 16777216
100
AcDbPoint
 10
4532.808030903148
 20
1703.73586710622
 30
0.0
  0
POINT
  5
842D
330
8330
100
AcDbEntity
  8
DEFPOINTS
  6
ByBlock
 62
     0
440
 16777216
100
AcDbPoint
 10
5567.808030903148
 20
1233.73586710622
 30
0.0
  0
POINT
  5
842E
330
8330
100
AcDbEntity
  8
DEFPOINTS
  6
ByBlock
 62
     0
440
 16777216
100
AcDbPoint
 10
5567.808030903148
 20
2163.259133862659
 30
0.0
  0
ENDBLK
  5
842F
330
8330
100
AcDbEntity
  8
0
100
AcDbBlockEnd
  0
BLOCK
  5
843B
330
8348
100
AcDbEntity
  8
0
100
AcDbBlockBegin
  2
*D14
 70
     1
 10
0.0
 20
0.0
 30
0.0
  3
*D14
  1

  0
LINE
  5
843C
330
8348
100
AcDbEntity
  8
0
  6
ByBlock
440
 16777216
100
AcDbLine
 10
6662.52404820873
 20
1985.735867106219
 30
0.0
 11
6662.52404820873
 21
2027.878834956596
 31
0.0
  0
LINE
  5
843D
330
8348
100
AcDbEntity
  8
0
  6
ByBlock
440
 16777216
100
AcDbLine
 10
6132.524048208729
 20
1985.735867106219
 30
0.0
 11
6132.524048208729
 21
2027.878834956596
 31
0.0
  0
LINE
  5
843E
330
8348
100
AcDbEntity
  8
0
  6
ByBlock
440
 16777216
100
AcDbLine
 10
6632.524048208731
 20
2012.878834956596
 30
0.0
 11
6162.524048208729
 21
2012.878834956596
 31
0.0
  0
INSERT
  5
843F
330
8348
100
AcDbEntity
  8
0
  6
ByBlock
440
 16777216
100
AcDbBlockReference
  2
_OPEN
 10
6662.52404820873
 20
2012.878834956596
 30
0.0
 41
30.0
 42
30.0
 43
30.0
  0
INSERT
  5
8440
330
8348
100
AcDbEntity
  8
0
  6
ByBlock
440
 16777216
100
AcDbBlockReference
  2
_OPEN
 10
6132.524048208729
 20
2012.878834956596
 30
0.0
 41
30.0
 42
30.0
 43
30.0
 50
180.0
  0
MTEXT
  5
8441
330
8348
100
AcDbEntity
  8
0
  6
ByBlock
440
 16777216
100
AcDbMText
 10
6397.52404820873
 20
2042.878834956596
 30
0.0
 40
45.0
 41
0.0
 46
0.0
 71
     5
 72
     5
  1
\A1;530
 73
     1
 44
1.0
  0
POINT
  5
8442
330
8348
100
AcDbEntity
  8
DEFPOINTS
  6
ByBlock
 62
     0
440
 16777216
100
AcDbPoint
 10
6662.52404820873
 20
1970.73586710622
 30
0.0
  0
POINT
  5
8443
330
8348
100
AcDbEntity
  8
DEFPOINTS
  6
ByBlock
 62
     0
440
 16777216
100
AcDbPoint
 10
6132.524048208729
 20
1970.73586710622
 30
0.0
  0
POINT
  5
8444
330
8348
100
AcDbEntity
  8
DEFPOINTS
  6
ByBlock
 62
     0
440
 16777216
100
AcDbPoint
 10
6132.524048208729
 20
2012.878834956596
 30
0.0
  0
ENDBLK
  5
8445
330
8348
100
AcDbEntity
  8
0
100
AcDbBlockEnd
  0
BLOCK
  5
84AF
330
84AE
100
AcDbEntity
  8
0
100
AcDbBlockBegin
  2
_NONE
 70
     0
 10
0.0
 20
0.0
 30
0.0
  3
_NONE
  1

  0
CIRCLE
  5
84B0
330
84AE
100
AcDbEntity
  8
0
  6
ByBlock
 62
     0
100
AcDbCircle
 10
0.0
 20
0.0
 30
0.0
 40
0.25
  0
ENDBLK
  5
84B1
330
84AE
100
AcDbEntity
  8
0
100
AcDbBlockEnd
  0
BLOCK
  5
84BD
330
84BC
100
AcDbEntity
  8
0
100
AcDbBlockBegin
  2
*D16
 70
     1
 10
0.0
 20
0.0
 30
0.0
  3
*D16
  1

  0
LINE
  5
84BE
330
84BC
100
AcDbEntity
  8
0
  6
ByBlock
 62
     0
440
 16777216
100
AcDbLine
 10
700.106162559864
 20
1723.681535314736
 30
0.0
 11
492.5748722840162
 21
1723.681535314736
 31
0.0
  0
LINE
  5
84BF
330
84BC
100
AcDbEntity
  8
0
  6
ByBlock
 62
     0
440
 16777216
100
AcDbLine
 10
1122.933140549307
 20
2005.681535314737
 30
0.0
 11
492.5748722840162
 21
2005.681535314737
 31
0.0
  0
LINE
  5
84C0
330
84BC
100
AcDbEntity
  8
0
  6
ByBlock
 62
     0
440
 16777216
100
AcDbLine
 10
507.5748722840162
 20
1753.681535314736
 30
0.0
 11
507.5748722840162
 21
1975.681535314737
 31
0.0
  0
INSERT
  5
84C1
330
84BC
100
AcDbEntity
  8
0
  6
ByBlock
 62
     0
440
 16777216
100
AcDbBlockReference
  2
_OPEN
 10
507.5748722840162
 20
1723.681535314736
 30
0.0
 41
30.0
 42
30.0
 43
30.0
 50
270.0
  0
INSERT
  5
84C2
330
84BC
100
AcDbEntity
  8
0
  6
ByBlock
 62
     0
440
 16777216
100
AcDbBlockReference
  2
_OPEN
 10
507.5748722840162
 20
2005.681535314737
 30
0.0
 41
30.0
 42
30.0
 43
30.0
 50
90.0
  0
MTEXT
  5
84C3
330
84BC
100
AcDbEntity
  8
0
  6
ByBlock
 62
     0
440
 16777216
100
AcDbMText
 10
470.0748722840162
 20
1864.681535314736
 30
0.0
 40
45.0
 41
0.0
 46
0.0
 71
     5
 72
     5
  1
\A1;282
 11
0.0
 21
1.0
 31
0.0
 73
     1
 44
1.0
  0
POINT
  5
84C4
330
84BC
100
AcDbEntity
  8
DEFPOINTS
  6
ByBlock
 62
     0
440
 16777216
100
AcDbPoint
 10
707.606162559864
 20
1723.681535314736
 30
0.0
  0
POINT
  5
84C5
330
84BC
100
AcDbEntity
  8
DEFPOINTS
  6
ByBlock
 62
     0
440
 16777216
100
AcDbPoint
 10
1130.433140549307
 20
2005.681535314737
 30
0.0
  0
POINT
  5
84C6
330
84BC
100
AcDbEntity
  8
DEFPOINTS
  6
ByBlock
 62
     0
440
 16777216
100
AcDbPoint
 10
507.5748722840162
 20
2005.681535314737
 30
0.0
  0
ENDBLK
  5
84C7
330
84BC
100
AcDbEntity
  8
0
100
AcDbBlockEnd
  0
BLOCK
  5
84F2
330
84F1
100
AcDbEntity
  8
0
100
AcDbBlockBegin
  2
*D17
 70
     1
 10
0.0
 20
0.0
 30
0.0
  3
*D17
  1

  0
LINE
  5
84F3
330
84F1
100
AcDbEntity
  8
0
  6
ByBlock
 62
     0
440
 16777216
100
AcDbLine
 10
822.9545313312573
 20
1196.181535314736
 30
0.0
 11
822.9545313312573
 21
1085.06083363556
 31
0.0
  0
LINE
  5
84F4
330
84F1
100
AcDbEntity
  8
0
  6
ByBlock
 62
     0
440
 16777216
100
AcDbLine
 10
1072.954531331257
 20
1196.181535314736
 30
0.0
 11
1072.954531331257
 21
1085.06083363556
 31
0.0
  0
LINE
  5
84F5
330
84F1
100
AcDbEntity
  8
0
  6
ByBlock
 62
     0
440
 16777216
100
AcDbLine
 10
852.9545313312574
 20
1100.06083363556
 30
0.0
 11
1042.954531331257
 21
1100.06083363556
 31
0.0
  0
INSERT
  5
84F6
330
84F1
100
AcDbEntity
  8
0
  6
ByBlock
 62
     0
440
 16777216
100
AcDbBlockReference
  2
_OPEN
 10
822.9545313312573
 20
1100.06083363556
 30
0.0
 41
30.0
 42
30.0
 43
30.0
 50
180.0
  0
INSERT
  5
84F7
330
84F1
100
AcDbEntity
  8
0
  6
ByBlock
 62
     0
440
 16777216
100
AcDbBlockReference
  2
_OPEN
 10
1072.954531331257
 20
1100.06083363556
 30
0.0
 41
30.0
 42
30.0
 43
30.0
  0
MTEXT
  5
84F8
330
84F1
100
AcDbEntity
  8
0
  6
ByBlock
 62
     0
440
 16777216
100
AcDbMText
 10
947.9545313312573
 20
1137.56083363556
 30
0.0
 40
45.0
 41
0.0
 46
0.0
 71
     5
 72
     5
  1
\A1;250
 73
     1
 44
1.0
  0
POINT
  5
84F9
330
84F1
100
AcDbEntity
  8
DEFPOINTS
  6
ByBlock
 62
     0
440
 16777216
100
AcDbPoint
 10
822.9545313312573
 20
1203.681535314736
 30
0.0
  0
POINT
  5
84FA
330
84F1
100
AcDbEntity
  8
DEFPOINTS
  6
ByBlock
 62
     0
440
 16777216
100
AcDbPoint
 10
1072.954531331257
 20
1203.681535314736
 30
0.0
  0
POINT
  5
84FB
330
84F1
100
AcDbEntity
  8
DEFPOINTS
  6
ByBlock
 62
     0
440
 16777216
100
AcDbPoint
 10
1072.954531331257
 20
1100.06083363556
 30
0.0
  0
ENDBLK
  5
84FC
330
84F1
100
AcDbEntity
  8
0
100
AcDbBlockEnd
  0
BLOCK
  5
84FF
330
84FE
100
AcDbEntity
  8
0
100
AcDbBlockBegin
  2
*D18
 70
     1
 10
0.0
 20
0.0
 30
0.0
  3
*D18
  1

  0
LINE
  5
8500
330
84FE
100
AcDbEntity
  8
0
  6
ByBlock
 62
     0
440
 16777216
100
AcDbLine
 10
1072.954531331257
 20
1196.181535314736
 30
0.0
 11
1072.954531331257
 21
1085.06083363556
 31
0.0
  0
LINE
  5
8501
330
84FE
100
AcDbEntity
  8
0
  6
ByBlock
 62
     0
440
 16777216
100
AcDbLine
 10
1802.954531331257
 20
1196.181535314736
 30
0.0
 11
1802.954531331257
 21
1085.06083363556
 31
0.0
  0
LINE
  5
8502
330
84FE
100
AcDbEntity
  8
0
  6
ByBlock
 62
     0
440
 16777216
100
AcDbLine
 10
1102.954531331257
 20
1100.06083363556
 30
0.0
 11
1772.954531331257
 21
1100.06083363556
 31
0.0
  0
INSERT
  5
8503
330
84FE
100
AcDbEntity
  8
0
  6
ByBlock
 62
     0
440
 16777216
100
AcDbBlockReference
  2
_OPEN
 10
1072.954531331257
 20
1100.06083363556
 30
0.0
 41
30.0
 42
30.0
 43
30.0
 50
180.0
  0
INSERT
  5
8504
330
84FE
100
AcDbEntity
  8
0
  6
ByBlock
 62
     0
440
 16777216
100
AcDbBlockReference
  2
_OPEN
 10
1802.954531331257
 20
1100.06083363556
 30
0.0
 41
30.0
 42
30.0
 43
30.0
  0
MTEXT
  5
8505
330
84FE
100
AcDbEntity
  8
0
  6
ByBlock
 62
     0
440
 16777216
100
AcDbMText
 10
1437.954531331257
 20
1137.56083363556
 30
0.0
 40
45.0
 41
0.0
 46
0.0
 71
     5
 72
     5
  1
\A1;730
 73
     1
 44
1.0
  0
POINT
  5
8506
330
84FE
100
AcDbEntity
  8
DEFPOINTS
  6
ByBlock
 62
     0
440
 16777216
100
AcDbPoint
 10
1072.954531331257
 20
1203.681535314736
 30
0.0
  0
POINT
  5
8507
330
84FE
100
AcDbEntity
  8
DEFPOINTS
  6
ByBlock
 62
     0
440
 16777216
100
AcDbPoint
 10
1802.954531331257
 20
1203.681535314736
 30
0.0
  0
POINT
  5
8508
330
84FE
100
AcDbEntity
  8
DEFPOINTS
  6
ByBlock
 62
     0
440
 16777216
100
AcDbPoint
 10
1802.954531331257
 20
1100.06083363556
 30
0.0
  0
ENDBLK
  5
8509
330
84FE
100
AcDbEntity
  8
0
100
AcDbBlockEnd
  0
BLOCK
  5
850C
330
850B
100
AcDbEntity
  8
0
100
AcDbBlockBegin
  2
*D19
 70
     1
 10
0.0
 20
0.0
 30
0.0
  3
*D19
  1

  0
LINE
  5
850D
330
850B
100
AcDbEntity
  8
0
  6
ByBlock
 62
     0
440
 16777216
100
AcDbLine
 10
2102.440188232262
 20
1196.181535314736
 30
0.0
 11
2102.440188232262
 21
1085.06083363556
 31
0.0
  0
LINE
  5
850E
330
850B
100
AcDbEntity
  8
0
  6
ByBlock
 62
     0
440
 16777216
100
AcDbLine
 10
2475.440188232262
 20
1196.181535314736
 30
0.0
 11
2475.440188232262
 21
1085.06083363556
 31
0.0
  0
LINE
  5
850F
330
850B
100
AcDbEntity
  8
0
  6
ByBlock
 62
     0
440
 16777216
100
AcDbLine
 10
2132.440188232262
 20
1100.06083363556
 30
0.0
 11
2445.440188232262
 21
1100.06083363556
 31
0.0
  0
INSERT
  5
8510
330
850B
100
AcDbEntity
  8
0
  6
ByBlock
 62
     0
440
 16777216
100
AcDbBlockReference
  2
_OPEN
 10
2102.440188232262
 20
1100.06083363556
 30
0.0
 41
30.0
 42
30.0
 43
30.0
 50
180.0
  0
INSERT
  5
8511
330
850B
100
AcDbEntity
  8
0
  6
ByBlock
 62
     0
440
 16777216
100
AcDbBlockReference
  2
_OPEN
 10
2475.440188232262
 20
1100.06083363556
 30
0.0
 41
30.0
 42
30.0
 43
30.0
  0
MTEXT
  5
8512
330
850B
100
AcDbEntity
  8
0
  6
ByBlock
 62
     0
440
 16777216
100
AcDbMText
 10
2288.940188232262
 20
1137.56083363556
 30
0.0
 40
45.0
 41
0.0
 46
0.0
 71
     5
 72
     5
  1
\A1;373
 73
     1
 44
1.0
  0
POINT
  5
8513
330
850B
100
AcDbEntity
  8
DEFPOINTS
  6
ByBlock
 62
     0
440
 16777216
100
AcDbPoint
 10
2102.440188232262
 20
1203.681535314736
 30
0.0
  0
POINT
  5
8514
330
850B
100
AcDbEntity
  8
DEFPOINTS
  6
ByBlock
 62
     0
440
 16777216
100
AcDbPoint
 10
2475.440188232262
 20
1203.681535314736
 30
0.0
  0
POINT
  5
8515
330
850B
100
AcDbEntity
  8
DEFPOINTS
  6
ByBlock
 62
     0
440
 16777216
100
AcDbPoint
 10
2475.440188232262
 20
1100.06083363556
 30
0.0
  0
ENDBLK
  5
8516
330
850B
100
AcDbEntity
  8
0
100
AcDbBlockEnd
  0
BLOCK
  5
8519
330
8518
100
AcDbEntity
  8
0
100
AcDbBlockBegin
  2
*D20
 70
     1
 10
0.0
 20
0.0
 30
0.0
  3
*D20
  1

  0
LINE
  5
851A
330
8518
100
AcDbEntity
  8
0
  6
ByBlock
 62
     0
440
 16777216
100
AcDbLine
 10
2475.440188232262
 20
1196.181535314736
 30
0.0
 11
2475.440188232262
 21
1085.06083363556
 31
0.0
  0
LINE
  5
851B
330
8518
100
AcDbEntity
  8
0
  6
ByBlock
 62
     0
440
 16777216
100
AcDbLine
 10
2782.440188232262
 20
1196.181535314736
 30
0.0
 11
2782.440188232262
 21
1085.06083363556
 31
0.0
  0
LINE
  5
851C
330
8518
100
AcDbEntity
  8
0
  6
ByBlock
 62
     0
440
 16777216
100
AcDbLine
 10
2505.440188232262
 20
1100.06083363556
 30
0.0
 11
2752.440188232262
 21
1100.06083363556
 31
0.0
  0
INSERT
  5
851D
330
8518
100
AcDbEntity
  8
0
  6
ByBlock
 62
     0
440
 16777216
100
AcDbBlockReference
  2
_OPEN
 10
2475.440188232262
 20
1100.06083363556
 30
0.0
 41
30.0
 42
30.0
 43
30.0
 50
180.0
  0
INSERT
  5
851E
330
8518
100
AcDbEntity
  8
0
  6
ByBlock
 62
     0
440
 16777216
100
AcDbBlockReference
  2
_OPEN
 10
2782.440188232262
 20
1100.06083363556
 30
0.0
 41
30.0
 42
30.0
 43
30.0
  0
MTEXT
  5
851F
330
8518
100
AcDbEntity
  8
0
  6
ByBlock
 62
     0
440
 16777216
100
AcDbMText
 10
2628.940188232262
 20
1137.56083363556
 30
0.0
 40
45.0
 41
0.0
 46
0.0
 71
     5
 72
     5
  1
\A1;307
 73
     1
 44
1.0
  0
POINT
  5
8520
330
8518
100
AcDbEntity
  8
DEFPOINTS
  6
ByBlock
 62
     0
440
 16777216
100
AcDbPoint
 10
2475.440188232262
 20
1203.681535314736
 30
0.0
  0
POINT
  5
8521
330
8518
100
AcDbEntity
  8
DEFPOINTS
  6
ByBlock
 62
     0
440
 16777216
100
AcDbPoint
 10
2782.440188232262
 20
1203.681535314736
 30
0.0
  0
POINT
  5
8522
330
8518
100
AcDbEntity
  8
DEFPOINTS
  6
ByBlock
 62
     0
440
 16777216
100
AcDbPoint
 10
2782.440188232262
 20
1100.06083363556
 30
0.0
  0
ENDBLK
  5
8523
330
8518
100
AcDbEntity
  8
0
100
AcDbBlockEnd
  0
BLOCK
  5
8526
330
8525
100
AcDbEntity
  8
0
100
AcDbBlockBegin
  2
*D21
 70
     1
 10
0.0
 20
0.0
 30
0.0
  3
*D21
  1

  0
LINE
  5
8527
330
8525
100
AcDbEntity
  8
0
  6
ByBlock
 62
     0
440
 16777216
100
AcDbLine
 10
1115.433140549306
 20
2005.681535314737
 30
0.0
 11
385.9561087993061
 21
2005.681535314737
 31
0.0
  0
LINE
  5
8528
330
8525
100
AcDbEntity
  8
0
  6
ByBlock
 62
     0
440
 16777216
100
AcDbLine
 10
815.4545313312574
 20
1203.681535314736
 30
0.0
 11
385.9561087993061
 21
1203.681535314736
 31
0.0
  0
LINE
  5
8529
330
8525
100
AcDbEntity
  8
0
  6
ByBlock
 62
     0
440
 16777216
100
AcDbLine
 10
400.9561087993061
 20
1975.681535314737
 30
0.0
 11
400.9561087993061
 21
1233.681535314736
 31
0.0
  0
INSERT
  5
852A
330
8525
100
AcDbEntity
  8
0
  6
ByBlock
 62
     0
440
 16777216
100
AcDbBlockReference
  2
_OPEN
 10
400.9561087993061
 20
2005.681535314737
 30
0.0
 41
30.0
 42
30.0
 43
30.0
 50
90.0
  0
INSERT
  5
852B
330
8525
100
AcDbEntity
  8
0
  6
ByBlock
 62
     0
440
 16777216
100
AcDbBlockReference
  2
_OPEN
 10
400.9561087993061
 20
1203.681535314736
 30
0.0
 41
30.0
 42
30.0
 43
30.0
 50
270.0
  0
MTEXT
  5
852C
330
8525
100
AcDbEntity
  8
0
  6
ByBlock
 62
     0
440
 16777216
100
AcDbMText
 10
363.4561087993061
 20
1604.681535314736
 30
0.0
 40
45.0
 41
0.0
 46
0.0
 71
     5
 72
     5
  1
\A1;802
 11
0.0
 21
1.0
 31
0.0
 73
     1
 44
1.0
  0
POINT
  5
852D
330
8525
100
AcDbEntity
  8
DEFPOINTS
  6
ByBlock
 62
     0
440
 16777216
100
AcDbPoint
 10
1122.933140549307
 20
2005.681535314737
 30
0.0
  0
POINT
  5
852E
330
8525
100
AcDbEntity
  8
DEFPOINTS
  6
ByBlock
 62
     0
440
 16777216
100
AcDbPoint
 10
822.9545313312573
 20
1203.681535314736
 30
0.0
  0
POINT
  5
852F
330
8525
100
AcDbEntity
  8
DEFPOINTS
  6
ByBlock
 62
     0
440
 16777216
100
AcDbPoint
 10
400.9561087993061
 20
1203.681535314736
 30
0.0
  0
ENDBLK
  5
8530
330
8525
100
AcDbEntity
  8
0
100
AcDbBlockEnd
  0
ENDSEC
  0
SECTION
  2
ENTITIES
  0
LINE
  5
7EB1
330
19
100
AcDbEntity
  8
4
100
AcDbLine
 10
2775.0
 20
750.0
 30
0.0
 11
2775.0
 21
450.0
 31
0.0
  0
LINE
  5
7EB2
330
19
100
AcDbEntity
  8
4
100
AcDbLine
 10
1725.0
 20
750.0
 30
0.0
 11
1725.0
 21
450.0
 31
0.0
  0
LINE
  5
7EB3
330
19
100
AcDbEntity
  8
4
100
AcDbLine
 10
975.0
 20
750.0
 30
0.0
 11
975.0
 21
450.0
 31
0.0
  0
LINE
  5
7EB6
330
19
100
AcDbEntity
  8
4
100
AcDbLine
 10
975.0
 20
450.0
 30
0.0
 11
2775.0
 21
450.0
 31
0.0
  0
LINE
  5
7EB7
330
19
100
AcDbEntity
  8
4
100
AcDbLine
 10
975.0
 20
600.0
 30
0.0
 11
2775.0
 21
600.0
 31
0.0
  0
TEXT
  5
7EB8
330
19
100
AcDbEntity
  8
4
100
AcDbText
 10
1032.753121270352
 20
647.3145387999193
 30
0.0
 40
75.0
  1
機器名称
100
AcDbText
  0
TEXT
  5
7EB9
330
19
100
AcDbEntity
  8
4
100
AcDbText
 10
1029.387159037196
 20
482.4677350980164
 30
0.0
 40
75.0
  1
機器型番
100
AcDbText
  0
TEXT
  5
7EBA
330
19
100
AcDbEntity
  8
4
100
AcDbText
 10
1765.683671544667
 20
632.9492696563709
 30
0.0
 40
60.0
  1
ミツヤリミットロードファン
100
AcDbText
  0
TEXT
  5
7EBB
330
19
100
AcDbEntity
  8
4
100
AcDbText
 10
1779.981743378221
 20
475.739376419915
 30
0.0
 40
75.0
  1
LL#2 1/2-5
100
AcDbText
  0
TEXT
  5
7EBD
330
19
100
AcDbEntity
  8
4
100
AcDbText
 10
1198.765520146822
 20
3583.059178509553
 30
0.0
 40
80.99999999999999
  1
床置ベット
100
AcDbText
  0
TEXT
  5
7EBE
330
19
100
AcDbEntity
  8
4
100
AcDbText
 10
474.2513899941696
 20
3800.821464298947
 30
0.0
 40
108.0
  1
遠心式両吸込両持リミットロードファン
100
AcDbText
  0
LINE
  5
7EBF
330
19
100
AcDbEntity
  8
4
100
AcDbLine
 10
375.0
 20
3704.113131397207
 30
0.0
 11
2775.0
 21
3704.113131397207
 31
0.0
  0
LINE
  5
7EC0
330
19
100
AcDbEntity
  8
4
100
AcDbLine
 10
375.0
 20
4004.113131397207
 30
0.0
 11
2775.0
 21
4004.113131397207
 31
0.0
  0
LINE
  5
7EC1
330
19
100
AcDbEntity
  8
4
100
AcDbLine
 10
975.0
 20
750.0
 30
0.0
 11
2775.0
 21
750.0
 31
0.0
  0
LINE
  5
7EC2
330
19
100
AcDbEntity
  8
4
100
AcDbLine
 10
375.0
 20
4004.113131397207
 30
0.0
 11
375.0
 21
3704.113131397207
 31
0.0
  0
TEXT
  5
7EC3
330
19
100
AcDbEntity
  8
4
100
AcDbText
 10
544.977271782769
 20
3581.395132830295
 30
0.0
 40
80.99999999999999
  1
右回転左横向
100
AcDbText
  0
TEXT
  5
7EC4
330
19
100
AcDbEntity
  8
4
100
AcDbText
 10
2203.454338873935
 20
4059.091622242963
 30
0.0
 40
84.00000000000002
  1
No.
100
AcDbText
  0
TEXT
  5
7EC5
330
19
100
AcDbEntity
  8
4
100
AcDbText
 10
1966.94409390002
 20
3575.143261998774
 30
0.0
 40
80.99999999999999
  1
縮尺：1/15
100
AcDbText
  0
LINE
  5
7EC6
330
19
100
AcDbEntity
  8
4
100
AcDbLine
 10
2775.0
 20
4004.113131397207
 30
0.0
 11
2775.0
 21
3704.113131397207
 31
0.0
  0
LINE
  5
7EC7
330
19
100
AcDbEntity
  8
4
100
AcDbLine
 10
3150.0
 20
4425.0
 30
0.0
 11
3150.0
 21
4425.0
 31
0.0
  0
LINE
  5
7EC8
330
19
100
AcDbEntity
  8
4
100
AcDbLine
 10
2160.926133539797
 20
4021.895374688102
 30
0.0
 11
2160.926133539797
 21
4179.978392324628
 31
0.0
  0
LINE
  5
7EC9
330
19
100
AcDbEntity
  8
4
100
AcDbLine
 10
2160.926133539797
 20
4179.978392324628
 30
0.0
 11
2775.0
 21
4179.978392324628
 31
0.0
  0
LINE
  5
7ECA
330
19
100
AcDbEntity
  8
4
100
AcDbLine
 10
2775.0
 20
4179.978392324628
 30
0.0
 11
2775.0
 21
4021.895374688102
 31
0.0
  0
LINE
  5
7ECB
330
19
100
AcDbEntity
  8
4
100
AcDbLine
 10
2775.0
 20
4021.895374688102
 30
0.0
 11
2160.926133539797
 21
4021.895374688102
 31
0.0
  0
LINE
  5
7ECC
330
19
100
AcDbEntity
  8
4
100
AcDbLine
 10
0.0
 20
0.0
 30
0.0
 11
0.0
 21
4425.0
 31
0.0
  0
LINE
  5
7ECD
330
19
100
AcDbEntity
  8
4
100
AcDbLine
 10
0.0
 20
4425.0
 30
0.0
 11
3150.0
 21
4425.0
 31
0.0
  0
LINE
  5
7ECE
330
19
100
AcDbEntity
  8
4
100
AcDbLine
 10
3150.0
 20
4425.0
 30
0.0
 11
3150.0
 21
0.0
 31
0.0
  0
LINE
  5
7ECF
330
19
100
AcDbEntity
  8
4
100
AcDbLine
 10
3150.0
 20
0.0
 30
0.0
 11
0.0
 21
0.0
 31
0.0
  0
LINE
  5
81AA
330
19
100
AcDbEntity
  8
1
100
AcDbLine
 10
770.9545313312574
 20
1738.681535314736
 30
0.0
 11
770.9545313312574
 21
1272.686718002165
 31
0.0
  0
LINE
  5
81AB
330
19
100
AcDbEntity
  8
1
100
AcDbLine
 10
767.9545313312574
 20
1738.681535314736
 30
0.0
 11
770.9545313312583
 21
1738.681535314736
 31
0.0
  0
LINE
  5
81AC
330
19
100
AcDbEntity
  8
1
100
AcDbLine
 10
767.9545313312574
 20
1272.686718002165
 30
0.0
 11
770.9545313312574
 21
1272.686718002165
 31
0.0
  0
DIMENSION
  5
81AD
330
19
100
AcDbEntity
  8
3
100
AcDbDimension
280
     0
  2
*D3
 10
594.5377308232819
 20
1723.681535314736
 30
0.0
 11
564.5377308232818
 21
1511.681535314736
 31
0.0
 12
-3764.853499571891
 22
34.94566820851651
 32
0.0
 70
    32
 71
     5
 42
-1.0
 73
     0
 74
     0
 75
     0
  3
MATSU
100
AcDbAlignedDimension
 13
767.9545313312574
 23
1299.681535314736
 33
0.0
 14
762.9545313312574
 24
1723.681535314736
 34
0.0
 50
90.0
100
AcDbRotatedDimension
1001
ACAD
1000
DSTYLE
1002
{
1070
    40
1040
15.0
1002
}
  0
DIMENSION
  5
81AE
330
19
100
AcDbEntity
  8
3
100
AcDbDimension
280
     0
  2
*D4
 10
2914.718708649787
 20
1523.681535314736
 30
0.0
 11
2884.718708649787
 21
1723.681535314736
 31
0.0
 12
-3922.083859976469
 22
34.94566820851651
 32
0.0
 70
    32
  1
φ400
 71
     5
 42
-1.0
 73
     0
 74
     0
 75
     0
  3
MATSU
100
AcDbAlignedDimension
 13
2742.440188232262
 23
1923.681535314736
 33
0.0
 14
2742.440188232262
 24
1523.681535314736
 34
0.0
 50
90.0
100
AcDbRotatedDimension
1001
ACAD
1000
DSTYLE
1002
{
1070
    40
1040
15.0
1002
}
  0
LINE
  5
81AF
330
19
100
AcDbEntity
  8
2
100
AcDbLine
 10
1930.732363227618
 20
1723.681535314736
 30
0.0
 11
2820.440188232262
 21
1723.681535314736
 31
0.0
  0
LINE
  5
81B0
330
19
100
AcDbEntity
  8
1
100
AcDbLine
 10
2740.440188232262
 20
2005.681535314737
 30
0.0
 11
2740.440188232262
 21
1299.681535314736
 31
0.0
  0
LINE
  5
81B1
330
19
100
AcDbEntity
  8
1
100
AcDbLine
 10
2210.440188232261
 20
2005.681535314737
 30
0.0
 11
2210.440188232262
 21
1630.681535314737
 31
0.0
  0
LINE
  5
81B2
330
19
100
AcDbEntity
  8
1
100
AcDbLine
 10
792.9545313312574
 20
1711.681535314736
 30
0.0
 11
792.9545313312574
 21
1301.484814003261
 31
0.0
  0
DIMENSION
  5
81B3
330
19
100
AcDbEntity
  8
3
100
AcDbDimension
280
     0
  2
*D5
 10
690.1718808491168
 20
1711.681535314736
 30
0.0
 11
660.1718808491169
 21
1505.681535314736
 31
0.0
 12
-3764.853499571891
 22
34.94566820851651
 32
0.0
 70
    32
 71
     5
 42
-1.0
 73
     0
 74
     0
 75
     0
  3
MATSU
100
AcDbAlignedDimension
 13
767.9545313312574
 23
1299.681535314736
 33
0.0
 14
767.9545313312574
 24
1711.681535314736
 34
0.0
 50
90.0
100
AcDbRotatedDimension
1001
ACAD
1000
DSTYLE
1002
{
1070
    40
1040
15.0
1002
}
  0
LINE
  5
81B4
330
19
100
AcDbEntity
  8
1
100
AcDbLine
 10
839.0920810091319
 20
1711.681535314736
 30
0.0
 11
767.9545313312574
 21
1711.681535314736
 31
0.0
  0
LINE
  5
81B5
330
19
100
AcDbEntity
  8
1
100
AcDbLine
 10
767.9545313312574
 20
1738.681535314736
 30
0.0
 11
767.9545313312574
 21
1272.686718002165
 31
0.0
  0
LINE
  5
81B6
330
19
100
AcDbEntity
  8
2
100
AcDbLine
 10
1450.473864881251
 20
1723.681535314736
 30
0.0
 11
707.606162559864
 21
1723.681535314736
 31
0.0
  0
LINE
  5
81B7
330
19
100
AcDbEntity
  8
2
100
AcDbLine
 10
1072.954531331257
 20
2043.768233921742
 30
0.0
 11
1072.954531331257
 21
1203.681535314736
 31
0.0
  0
LINE
  5
81B8
330
19
100
AcDbEntity
  8
2
100
AcDbLine
 10
2475.440188232262
 20
2029.697179905174
 30
0.0
 11
2475.440188232262
 21
1203.681535314736
 31
0.0
  0
LWPOLYLINE
  5
81B9
330
19
100
AcDbEntity
  8
1
100
AcDbPolyline
 90
        6
 70
     0
 43
0.0
 10
767.9545313312574
 20
1299.681535314736
 10
1072.954531331257
 20
1321.681535314736
 42
0.3908358028773531
 10
1416.162248293273
 20
1693.681535314737
 42
0.4532193849935457
 10
1061.943623634315
 20
2004.192693591587
 42
0.3762546939936967
 10
836.2070799877365
 20
1746.681535314736
 42
0.0411445297571046
 10
839.0920810091319
 20
1711.681535314736
 42
0.3936265759256327
  0
CIRCLE
  5
81C1
330
19
100
AcDbEntity
  8
1
100
AcDbCircle
 10
1072.954531331257
 20
1723.681535314736
 30
0.0
 40
200.0
  0
CIRCLE
  5
81C2
330
19
100
AcDbEntity
  8
1
100
AcDbCircle
 10
1072.954531331257
 20
1723.681535314736
 30
0.0
 40
225.0
  0
LINE
  5
81C3
330
19
100
AcDbEntity
  8
1
100
AcDbLine
 10
822.9545313312573
 20
1203.681535314736
 30
0.0
 11
1802.954531331257
 21
1203.681535314736
 31
0.0
  0
LINE
  5
81C6
330
19
100
AcDbEntity
  8
1
100
AcDbLine
 10
822.9545313312573
 20
1278.681535314736
 30
0.0
 11
822.9545313312573
 21
1203.681535314736
 31
0.0
  0
LINE
  5
81C7
330
19
100
AcDbEntity
  8
1
100
AcDbLine
 10
1802.954531331257
 20
1278.681535314736
 30
0.0
 11
1802.954531331257
 21
1203.681535314736
 31
0.0
  0
LINE
  5
81CD
330
19
100
AcDbEntity
  8
2
100
AcDbLine
 10
1592.954531331257
 20
1697.917535314736
 30
0.0
 11
1592.954531331257
 21
1203.681535314736
 31
0.0
  0
LINE
  5
81CE
330
19
100
AcDbEntity
  8
2
100
AcDbLine
 10
1825.443721230449
 20
1488.681535314736
 30
0.0
 11
1369.877702988631
 21
1488.681535314736
 31
0.0
  0
LINE
  5
81CF
330
19
100
AcDbEntity
  8
1
100
AcDbLine
 10
2102.440188232262
 20
1203.681535314736
 30
0.0
 11
2782.440188232262
 21
1203.681535314736
 31
0.0
  0
LINE
  5
81D2
330
19
100
AcDbEntity
  8
1
100
AcDbLine
 10
2782.440188232262
 20
1278.681535314736
 30
0.0
 11
2782.440188232262
 21
1203.681535314736
 31
0.0
  0
LINE
  5
81D3
330
19
100
AcDbEntity
  8
1
100
AcDbLine
 10
2102.440188232262
 20
1278.681535314736
 30
0.0
 11
2102.440188232262
 21
1203.681535314736
 31
0.0
  0
LINE
  5
81D9
330
19
100
AcDbEntity
  8
1
100
AcDbLine
 10
2130.440188232262
 20
1670.781535314737
 30
0.0
 11
2130.440188232262
 21
1610.781535314736
 31
0.0
  0
LINE
  5
81DA
330
19
100
AcDbEntity
  8
1
100
AcDbLine
 10
2200.440188232262
 20
1680.781535314736
 30
0.0
 11
2200.440188232262
 21
1630.681535314737
 31
0.0
  0
LINE
  5
81DB
330
19
100
AcDbEntity
  8
1
100
AcDbLine
 10
2817.440188232262
 20
1680.381535314736
 30
0.0
 11
2817.440188232262
 21
1620.381535314736
 31
0.0
  0
LINE
  5
81DC
330
19
100
AcDbEntity
  8
1
100
AcDbLine
 10
2747.440188232262
 20
1690.381535314737
 30
0.0
 11
2747.440188232262
 21
1610.381535314736
 31
0.0
  0
LINE
  5
81DD
330
19
100
AcDbEntity
  8
1
100
AcDbLine
 10
2747.440188232262
 20
1690.381535314737
 30
0.0
 11
2807.440188232262
 21
1690.381535314736
 31
0.0
  0
LINE
  5
81DE
330
19
100
AcDbEntity
  8
1
100
AcDbLine
 10
2747.440188232262
 20
1610.381535314737
 30
0.0
 11
2807.440188232262
 21
1610.381535314736
 31
0.0
  0
LINE
  5
81DF
330
19
100
AcDbEntity
  8
1
100
AcDbLine
 10
2140.440188232262
 20
1680.781535314736
 30
0.0
 11
2200.440188232262
 21
1680.781535314736
 31
0.0
  0
LINE
  5
81E0
330
19
100
AcDbEntity
  8
1
100
AcDbLine
 10
2140.440188232262
 20
1600.781535314737
 30
0.0
 11
2172.440188232263
 21
1600.781535314736
 31
0.0
  0
LINE
  5
81E1
330
19
100
AcDbEntity
  8
1
100
AcDbLine
 10
2140.440188232262
 20
1680.781535314736
 30
0.0
 11
2130.440188232262
 21
1670.781535314737
 31
0.0
  0
LINE
  5
81E2
330
19
100
AcDbEntity
  8
1
100
AcDbLine
 10
2130.440188232262
 20
1610.781535314736
 30
0.0
 11
2140.440188232262
 21
1600.781535314737
 31
0.0
  0
LINE
  5
81E3
330
19
100
AcDbEntity
  8
1
100
AcDbLine
 10
2807.440188232262
 20
1690.381535314736
 30
0.0
 11
2817.440188232262
 21
1680.381535314736
 31
0.0
  0
LINE
  5
81E4
330
19
100
AcDbEntity
  8
1
100
AcDbLine
 10
2817.440188232262
 20
1620.381535314736
 30
0.0
 11
2807.440188232262
 21
1610.381535314736
 31
0.0
  0
DIMENSION
  5
81E5
330
19
100
AcDbEntity
  8
3
100
AcDbDimension
280
     0
  2
*D6
 10
2475.440188232262
 20
2163.898794451553
 30
0.0
 11
2646.440188232262
 21
2205.684508737267
 31
0.0
 12
-3922.083859976469
 22
34.94566820851651
 32
0.0
 70
    32
  1
(<>)
 71
     5
 42
-1.0
 73
     0
 74
     0
 75
     0
  3
MATSU
100
AcDbAlignedDimension
 13
2817.440188232262
 23
1683.381535314736
 33
0.0
 14
2475.440188232262
 24
2109.396193359736
 34
0.0
100
AcDbRotatedDimension
1001
ACAD
1000
DSTYLE
1002
{
1070
    40
1040
15.0
1002
}
  0
LINE
  5
81E6
330
19
100
AcDbEntity
  8
2
100
AcDbLine
 10
1072.954531331257
 20
2359.860347887052
 30
0.0
 11
1072.954531331257
 21
3235.779845969695
 31
0.0
  0
LINE
  5
81E7
330
19
100
AcDbEntity
  8
2
100
AcDbLine
 10
1414.954531331257
 20
2908.195691361597
 30
0.0
 11
742.8125890635073
 21
2908.195691361597
 31
0.0
  0
LINE
  5
81E8
330
19
100
AcDbEntity
  8
1
100
AcDbLine
 10
1802.954531331257
 20
3215.195691361597
 30
0.0
 11
822.9545313312573
 21
3215.195691361597
 31
0.0
  0
LINE
  5
81E9
330
19
100
AcDbEntity
  8
1
100
AcDbLine
 10
1802.954531331257
 20
2535.195691361597
 30
0.0
 11
822.9545313312573
 21
2535.195691361597
 31
0.0
  0
LINE
  5
81EA
330
19
100
AcDbEntity
  8
1
100
AcDbLine
 10
822.9545313312573
 20
2535.195691361597
 30
0.0
 11
822.9545313312573
 21
2643.195691361597
 31
0.0
  0
LINE
  5
81EB
330
19
100
AcDbEntity
  8
1
100
AcDbLine
 10
1802.954531331257
 20
2535.195691361597
 30
0.0
 11
1802.954531331257
 21
3215.195691361596
 31
0.0
  0
LINE
  5
81EC
330
19
100
AcDbEntity
  8
1
100
AcDbLine
 10
1414.954531331257
 20
3173.195691361597
 30
0.0
 11
767.9545313312574
 21
3173.195691361597
 31
0.0
  0
LINE
  5
81ED
330
19
100
AcDbEntity
  8
1
100
AcDbLine
 10
1414.954531331257
 20
2643.195691361597
 30
0.0
 11
767.9545313312574
 21
2643.195691361597
 31
0.0
  0
LINE
  5
81EE
330
19
100
AcDbEntity
  8
1
100
AcDbLine
 10
767.9545313312574
 20
2616.195691361597
 30
0.0
 11
767.9545313312573
 21
3200.195691361597
 31
0.0
  0
LINE
  5
81EF
330
19
100
AcDbEntity
  8
1
100
AcDbLine
 10
1414.954531331257
 20
2643.195691361597
 30
0.0
 11
1414.954531331257
 21
3173.195691361597
 31
0.0
  0
LINE
  5
81F3
330
19
100
AcDbEntity
  8
1
100
AcDbLine
 10
1945.440188232262
 20
1878.681535314736
 30
0.0
 11
1945.440188232262
 21
1338.681535314736
 31
0.0
  0
LINE
  5
81F4
330
19
100
AcDbEntity
  8
1
100
AcDbLine
 10
1735.454531331257
 20
2378.195691361597
 30
0.0
 11
922.9545313312573
 21
2378.195691361596
 31
0.0
  0
DIMENSION
  5
81F5
330
19
100
AcDbEntity
  8
3
100
AcDbDimension
280
     0
  2
*D7
 10
822.9545313312573
 20
3405.623572348292
 30
0.0
 11
1312.954531331257
 21
3435.623572348293
 31
0.0
 12
-3764.853499571891
 22
34.94566820851651
 32
0.0
 70
    32
 71
     5
 42
-1.0
 73
     0
 74
     0
 75
     0
  3
MATSU
100
AcDbAlignedDimension
 13
1802.954531331257
 23
3215.195691361597
 33
0.0
 14
822.9545313312573
 24
3215.195691361597
 34
0.0
100
AcDbRotatedDimension
1001
ACAD
1000
DSTYLE
1002
{
1070
    40
1040
15.0
1002
}
  0
DIMENSION
  5
81F6
330
19
100
AcDbEntity
  8
3
100
AcDbDimension
280
     0
  2
*D8
 10
579.6750748310514
 20
2535.195691361597
 30
0.0
 11
549.6750748310514
 21
2875.195691361597
 31
0.0
 12
-3764.853499571891
 22
34.94566820851651
 32
0.0
 70
    32
 71
     5
 42
-1.0
 73
     0
 74
     0
 75
     0
  3
MATSU
100
AcDbAlignedDimension
 13
822.9545313312573
 23
3215.195691361597
 33
0.0
 14
822.9545313312573
 24
2535.195691361597
 34
0.0
 50
270.0
100
AcDbRotatedDimension
1001
ACAD
1000
DSTYLE
1002
{
1070
    40
1040
15.0
1002
}
  0
LINE
  5
81F7
330
19
100
AcDbEntity
  8
1
100
AcDbLine
 10
2105.440188232262
 20
1743.681535314737
 30
0.0
 11
2210.440188232262
 21
1743.681535314736
 31
0.0
  0
LINE
  5
81F8
330
19
100
AcDbEntity
  8
1
100
AcDbLine
 10
2105.440188232262
 20
1703.681535314737
 30
0.0
 11
2210.440188232262
 21
1703.681535314736
 31
0.0
  0
LINE
  5
81F9
330
19
100
AcDbEntity
  8
1
100
AcDbLine
 10
1052.954531331257
 20
2538.195691361597
 30
0.0
 11
1052.954531331257
 21
2643.195691361598
 31
0.0
  0
LINE
  5
81FA
330
19
100
AcDbEntity
  8
1
100
AcDbLine
 10
1092.954531331257
 20
2538.195691361597
 30
0.0
 11
1092.954531331257
 21
2643.195691361598
 31
0.0
  0
LINE
  5
81FB
330
19
100
AcDbEntity
  8
1
100
AcDbLine
 10
1945.440188232262
 20
1878.681535314736
 30
0.0
 11
2137.440188232262
 21
1878.681535314736
 31
0.0
  0
DIMENSION
  5
81FC
330
19
100
AcDbEntity
  8
3
100
AcDbDimension
280
     0
  2
*D9
 10
1945.440188232262
 20
2163.898794451553
 30
0.0
 11
2210.440188232262
 21
2205.684508737267
 31
0.0
 70
    32
  1
(<>)
 71
     5
 42
530.0
 73
     0
 74
     0
 75
     0
  3
MATSU
100
AcDbAlignedDimension
 13
2475.440188232262
 23
2109.396193359736
 33
0.0
 14
1945.440188232262
 24
1878.681535314736
 34
0.0
100
AcDbRotatedDimension
1001
ACAD
1000
DSTYLE
1002
{
1070
   287
1070
     4
1070
    40
1040
15.0
1070
    75
1070
     1
1070
   279
1070
     1
1070
   289
1070
     3
1002
}
  0
LINE
  5
81FD
330
19
100
AcDbEntity
  8
1
100
AcDbLine
 10
922.9545313312573
 20
2378.195691361597
 30
0.0
 11
922.9545313312573
 21
2570.195691361595
 31
0.0
  0
DIMENSION
  5
81FF
330
19
100
AcDbEntity
  8
3
100
AcDbDimension
280
     0
  2
*D10
 10
508.4123655888342
 20
1203.681535314737
 30
0.0
 11
478.4123655888341
 21
1463.681535314736
 31
0.0
 70
    32
 71
     5
 42
-1.0
 73
     0
 74
     0
 75
     0
  3
MATSU
100
AcDbAlignedDimension
 13
707.606162559864
 23
1723.681535314736
 33
0.0
 14
822.9545313312573
 24
1203.681535314736
 34
0.0
 50
90.0
100
AcDbRotatedDimension
1001
ACAD
1000
DSTYLE
1002
{
1070
   287
1070
     4
1070
    40
1040
15.0
1070
    75
1070
     1
1070
   279
1070
     1
1070
   289
1070
     3
1002
}
  0
DIMENSION
  5
8200
330
19
100
AcDbEntity
  8
3
100
AcDbDimension
280
     0
  2
*D11
 10
1072.954531331257
 20
2100.5000333588
 30
0.0
 11
920.4545313312573
 21
2130.500033358801
 31
0.0
 12
-3764.853499571891
 22
34.94566820851651
 32
0.0
 70
    32
 71
     5
 42
-1.0
 73
     0
 74
     0
 75
     0
  3
MATSU
100
AcDbAlignedDimension
 13
767.9545313312574
 23
1738.681535314736
 33
0.0
 14
1072.954531331257
 24
2043.768233921742
 34
0.0
100
AcDbRotatedDimension
1001
ACAD
1000
DSTYLE
1002
{
1070
    40
1040
15.0
1002
}
  0
DIMENSION
  5
8201
330
19
100
AcDbEntity
  8
3
100
AcDbDimension
280
     0
  2
*D12
 10
1416.162248293273
 20
2100.5000333588
 30
0.0
 11
1244.558389812265
 21
2130.500033358801
 31
0.0
 70
    32
  1
342
 71
     5
 42
-1.0
 73
     0
 74
     0
 75
     0
  3
MATSU
100
AcDbAlignedDimension
 13
1072.954531331257
 23
2043.768233921742
 33
0.0
 14
1416.162248293273
 24
1693.681535314737
 34
0.0
100
AcDbRotatedDimension
1001
ACAD
1000
DSTYLE
1002
{
1070
   287
1070
     4
1070
    40
1040
15.0
1070
    75
1070
     1
1070
   279
1070
     1
1070
   289
1070
     3
1002
}
  0
DIMENSION
  5
8202
330
19
100
AcDbEntity
  8
3
100
AcDbDimension
280
     0
  2
*D13
 10
1802.954531331257
 20
2198.204802071176
 30
0.0
 11
1285.454531331257
 21
2228.204802071175
 31
0.0
 12
-3764.853499571891
 22
34.94566820851651
 32
0.0
 70
    32
 71
     5
 42
-1.0
 73
     0
 74
     0
 75
     0
  3
MATSU
100
AcDbAlignedDimension
 13
767.9545313312574
 23
1738.681535314736
 33
0.0
 14
1802.954531331257
 24
1268.681535314736
 34
0.0
100
AcDbRotatedDimension
1001
ACAD
1000
DSTYLE
1002
{
1070
    40
1040
15.0
1002
}
  0
LINE
  5
8207
330
19
100
AcDbEntity
  8
1
100
AcDbLine
 10
2210.440188232262
 20
2005.681535314737
 30
0.0
 11
2740.440188232262
 21
2005.681535314736
 31
0.0
  0
DIMENSION
  5
8208
330
19
100
AcDbEntity
  8
3
100
AcDbDimension
280
     0
  2
*D14
 10
2210.440188232261
 20
2047.824503165112
 30
0.0
 11
2475.440188232262
 21
2077.824503165112
 31
0.0
 12
-3922.083859976469
 22
34.94566820851651
 32
0.0
 70
    32
 71
     5
 42
-1.0
 73
     0
 74
     0
 75
     0
  3
MATSU
100
AcDbAlignedDimension
 13
2740.440188232262
 23
2005.681535314737
 33
0.0
 14
2210.440188232261
 24
2005.681535314737
 34
0.0
100
AcDbRotatedDimension
1001
ACAD
1000
DSTYLE
1002
{
1070
    40
1040
15.0
1002
}
  0
LINE
  5
820A
330
19
100
AcDbEntity
  8
1
100
AcDbLine
 10
2450.005619743221
 20
1299.681535314737
 30
0.0
 11
2740.440188232262
 21
1299.681535314736
 31
0.0
  0
LINE
  5
820B
330
19
100
AcDbEntity
  8
1
100
AcDbLine
 10
822.9545313312572
 20
3173.195691361597
 30
0.0
 11
822.9545313312573
 21
3215.195691361597
 31
0.0
  0
LINE
  5
820E
330
19
100
AcDbEntity
  8
1
100
AcDbLine
 10
822.9545313312573
 20
1278.681535314736
 30
0.0
 11
1802.954531331257
 21
1278.681535314736
 31
0.0
  0
LINE
  5
820F
330
19
100
AcDbEntity
  8
1
100
AcDbLine
 10
2102.440188232262
 20
1278.681535314736
 30
0.0
 11
2782.440188232262
 21
1278.681535314736
 31
0.0
  0
INSERT
  5
8210
330
19
100
AcDbEntity
  8
0
100
AcDbBlockReference
  2
YA_N
 10
12023.21108061167
 20
29.50068757084228
 30
0.0
  0
INSERT
  5
8211
330
19
100
AcDbEntity
  8
0
100
AcDbBlockReference
  2
YA_N
 10
12023.21108061167
 20
29.50068757084228
 30
0.0
  0
INSERT
  5
8212
330
19
100
AcDbEntity
  8
0
100
AcDbBlockReference
  2
YA_N
 10
13669.32151093011
 20
378.3604997600702
 30
0.0
  0
INSERT
  5
8213
330
19
100
AcDbEntity
  8
0
100
AcDbBlockReference
  2
YA_N
 10
11807.80744394231
 20
-1419.983320674644
 30
0.0
 41
10.0
 42
10.0
 43
10.0
  0
INSERT
  5
8214
330
19
100
AcDbEntity
  8
0
100
AcDbBlockReference
  2
YA_N
 10
11807.80744394231
 20
-1419.983320674644
 30
0.0
 41
10.0
 42
10.0
 43
10.0
  0
INSERT
  5
8215
330
19
100
AcDbEntity
  8
0
  6
ByBlock
 62
     2
100
AcDbBlockReference
  2
YA_N
 10
13179.12112262926
 20
-370.5979961776431
 30
0.0
 41
30.0
 42
30.0
 43
30.0
 50
90.0
  0
INSERT
  5
8216
330
19
100
AcDbEntity
  8
0
  6
ByBlock
 62
     2
100
AcDbBlockReference
  2
YA_N
 10
13179.12112262926
 20
-370.5979961776431
 30
0.0
 41
30.0
 42
30.0
 43
30.0
 50
90.0
  0
ARC
  5
8217
330
19
100
AcDbEntity
  8
1
100
AcDbCircle
 10
1592.954531331257
 20
1488.681535314736
 30
0.0
 40
150.0
100
AcDbArc
 50
234.0439091359522
 51
65.68069138881712
  0
CIRCLE
  5
8218
330
19
100
AcDbEntity
  8
1
100
AcDbCircle
 10
1592.954531331257
 20
1488.681535314736
 30
0.0
 40
75.0
  0
LINE
  5
8219
330
19
100
AcDbEntity
  8
1
100
AcDbLine
 10
1757.954531331257
 20
1356.681535314736
 30
0.0
 11
1427.954531331257
 21
1356.681535314736
 31
0.0
  0
ARC
  5
821A
330
19
100
AcDbEntity
  8
1
100
AcDbCircle
 10
1592.954531331257
 20
1488.681535314736
 30
0.0
 40
142.5
100
AcDbArc
 50
180.0
 51
244.787
  0
ARC
  5
821B
330
19
100
AcDbEntity
  8
1
100
AcDbCircle
 10
1592.954531331257
 20
1488.681535314736
 30
0.0
 40
142.5
100
AcDbArc
 50
295.1874
 51
180.0
  0
LINE
  5
821C
330
19
100
AcDbEntity
  8
1
100
AcDbLine
 10
1532.413231331257
 20
1359.681535314736
 30
0.0
 11
1653.495831331257
 21
1359.681535314736
 31
0.0
  0
LINE
  5
821D
330
19
100
AcDbEntity
  8
1
100
AcDbLine
 10
1462.954531331257
 20
1356.681535314736
 30
0.0
 11
1512.954531331257
 21
1356.681535314736
 31
0.0
  0
LINE
  5
821E
330
19
100
AcDbEntity
  8
1
100
AcDbLine
 10
1473.428931331257
 20
1410.772835314736
 30
0.0
 11
1462.954531331257
 21
1371.681535314736
 31
0.0
  0
LINE
  5
821F
330
19
100
AcDbEntity
  8
1
100
AcDbLine
 10
1462.954531331257
 20
1371.484135314736
 30
0.0
 11
1462.954531331257
 21
1356.681535314736
 31
0.0
  0
LINE
  5
8220
330
19
100
AcDbEntity
  8
1
100
AcDbLine
 10
1722.954531331257
 20
1356.681535314736
 30
0.0
 11
1672.954531331257
 21
1356.681535314736
 31
0.0
  0
LINE
  5
8221
330
19
100
AcDbEntity
  8
1
100
AcDbLine
 10
1712.437331331257
 20
1410.932135314737
 30
0.0
 11
1722.954531331257
 21
1371.681535314736
 31
0.0
  0
LINE
  5
8222
330
19
100
AcDbEntity
  8
1
100
AcDbLine
 10
1722.954531331257
 20
1371.484135314736
 30
0.0
 11
1722.954531331257
 21
1356.681535314736
 31
0.0
  0
LINE
  5
8223
330
19
100
AcDbEntity
  8
1
100
AcDbLine
 10
2525.00531974322
 20
1630.681535314736
 30
0.0
 11
2173.00561974322
 21
1630.681535314736
 31
0.0
  0
LINE
  5
8224
330
19
100
AcDbEntity
  8
1
100
AcDbLine
 10
2525.00531974322
 20
1356.681535314736
 30
0.0
 11
2173.00561974322
 21
1356.681535314737
 31
0.0
  0
LINE
  5
8225
330
19
100
AcDbEntity
  8
1
100
AcDbLine
 10
2525.00531974322
 20
1630.681535314737
 30
0.0
 11
2525.00531974322
 21
1356.681535314736
 31
0.0
  0
LINE
  5
8226
330
19
100
AcDbEntity
  8
1
100
AcDbLine
 10
2173.005619743221
 20
1630.681535314737
 30
0.0
 11
2173.005619743221
 21
1356.681535314736
 31
0.0
  0
LINE
  5
8227
330
19
100
AcDbEntity
  8
1
100
AcDbLine
 10
2163.00561974322
 20
1430.681535314736
 30
0.0
 11
2163.00561974322
 21
1546.681535314736
 31
0.0
  0
LINE
  5
8228
330
19
100
AcDbEntity
  8
1
100
AcDbLine
 10
2173.005619743221
 20
1429.681535314736
 30
0.0
 11
2164.005619743221
 21
1429.681535314736
 31
0.0
  0
ARC
  5
8229
330
19
100
AcDbEntity
  8
1
100
AcDbCircle
 10
2164.005619743221
 20
1430.681535314736
 30
0.0
 40
0.9999
100
AcDbArc
 50
179.9965
 51
270.007
  0
LINE
  5
822B
330
19
100
AcDbEntity
  8
1
100
AcDbLine
 10
2156.00561974322
 20
1469.681535314736
 30
0.0
 11
2105.440188232262
 21
1469.681535314736
 31
0.0
  0
LINE
  5
822C
330
19
100
AcDbEntity
  8
1
100
AcDbLine
 10
2156.00561974322
 20
1507.681535314736
 30
0.0
 11
2105.440188232262
 21
1507.681535314736
 31
0.0
  0
LINE
  5
822D
330
19
100
AcDbEntity
  8
1
100
AcDbLine
 10
2173.005619743221
 20
1547.681535314736
 30
0.0
 11
2164.005619743221
 21
1547.681535314736
 31
0.0
  0
LINE
  5
822E
330
19
100
AcDbEntity
  8
1
100
AcDbLine
 10
2156.00561974322
 20
1468.681535314736
 30
0.0
 11
2156.00561974322
 21
1508.681535314736
 31
0.0
  0
LINE
  5
822F
330
19
100
AcDbEntity
  8
1
100
AcDbLine
 10
2163.00561974322
 20
1468.681535314736
 30
0.0
 11
2156.00561974322
 21
1468.681535314736
 31
0.0
  0
LINE
  5
8230
330
19
100
AcDbEntity
  8
1
100
AcDbLine
 10
2163.00561974322
 20
1508.681535314736
 30
0.0
 11
2156.00561974322
 21
1508.681535314736
 31
0.0
  0
ARC
  5
8232
330
19
100
AcDbEntity
  8
1
100
AcDbCircle
 10
2164.00461974322
 20
1546.681535314736
 30
0.0
 40
0.9998000000000001
100
AcDbArc
 50
89.98600000000001
 51
180.007
  0
LINE
  5
8233
330
19
100
AcDbEntity
  8
1
100
AcDbLine
 10
1792.954531331257
 20
1321.681535314736
 30
0.0
 11
1392.954531331257
 21
1321.681535314736
 31
0.0
  0
LINE
  5
8234
330
19
100
AcDbEntity
  8
1
100
AcDbLine
 10
1792.954531331257
 20
1321.681535314736
 30
0.0
 11
1792.954531331257
 21
1281.681535314736
 31
0.0
  0
LINE
  5
8235
330
19
100
AcDbEntity
  8
1
100
AcDbLine
 10
1392.954531331257
 20
1321.681535314736
 30
0.0
 11
1392.954531331257
 21
1281.681535314735
 31
0.0
  0
LINE
  5
8236
330
19
100
AcDbEntity
  8
1
100
AcDbLine
 10
1757.954531331257
 20
1356.681535314736
 30
0.0
 11
1767.954531331257
 21
1321.681535314736
 31
0.0
  0
LINE
  5
8237
330
19
100
AcDbEntity
  8
1
100
AcDbLine
 10
1427.954531331257
 20
1356.681535314736
 30
0.0
 11
1417.954531331257
 21
1321.681535314736
 31
0.0
  0
LINE
  5
8238
330
19
100
AcDbEntity
  8
1
100
AcDbLine
 10
1450.954531331257
 20
2951.178656943411
 30
0.0
 11
1724.954531331257
 21
2951.178656943411
 31
0.0
  0
LINE
  5
8239
330
19
100
AcDbEntity
  8
1
100
AcDbLine
 10
1450.954531331257
 20
2599.178956943412
 30
0.0
 11
1724.954531331257
 21
2599.178956943412
 31
0.0
  0
LINE
  5
823A
330
19
100
AcDbEntity
  8
1
100
AcDbLine
 10
1650.954531331257
 20
2589.178956943412
 30
0.0
 11
1534.954531331257
 21
2589.178956943412
 31
0.0
  0
LINE
  5
823B
330
19
100
AcDbEntity
  8
1
100
AcDbLine
 10
1724.954531331257
 20
2951.178656943411
 30
0.0
 11
1724.954531331257
 21
2599.17895694341
 31
0.0
  0
LINE
  5
823C
330
19
100
AcDbEntity
  8
1
100
AcDbLine
 10
1651.954531331257
 20
2599.178956943412
 30
0.0
 11
1651.954531331257
 21
2590.178956943411
 31
0.0
  0
ARC
  5
823D
330
19
100
AcDbEntity
  8
1
100
AcDbCircle
 10
1650.954531331257
 20
2590.178956943411
 30
0.0
 40
0.9999
100
AcDbArc
 50
269.9965
 51
0.0069999999999659
  0
LINE
  5
823E
330
19
100
AcDbEntity
  8
1
100
AcDbLine
 10
1450.954531331257
 20
2951.178656943411
 30
0.0
 11
1450.954531331257
 21
2599.17895694341
 31
0.0
  0
LINE
  5
823F
330
19
100
AcDbEntity
  8
2
100
AcDbLine
 10
1592.954531331257
 20
2986.581059696377
 30
0.0
 11
1592.954531331257
 21
2357.209294229157
 31
0.0
  0
LINE
  5
8240
330
19
100
AcDbEntity
  8
1
100
AcDbLine
 10
1611.954531331257
 20
2582.178956943411
 30
0.0
 11
1611.954531331257
 21
2538.195691361597
 31
0.0
  0
LINE
  5
8241
330
19
100
AcDbEntity
  8
1
100
AcDbLine
 10
1573.954531331257
 20
2582.178956943411
 30
0.0
 11
1573.954531331257
 21
2538.195691361597
 31
0.0
  0
LINE
  5
8244
330
19
100
AcDbEntity
  8
1
100
AcDbLine
 10
1612.954531331257
 20
2582.178956943411
 30
0.0
 11
1572.954531331257
 21
2582.178956943411
 31
0.0
  0
LINE
  5
8245
330
19
100
AcDbEntity
  8
1
100
AcDbLine
 10
1612.954531331257
 20
2589.178956943412
 30
0.0
 11
1612.954531331257
 21
2582.178956943411
 31
0.0
  0
LINE
  5
8246
330
19
100
AcDbEntity
  8
1
100
AcDbLine
 10
1572.954531331257
 20
2589.178956943412
 30
0.0
 11
1572.954531331257
 21
2582.178956943411
 31
0.0
  0
LINE
  5
8247
330
19
100
AcDbEntity
  8
1
100
AcDbLine
 10
1533.954531331257
 20
2599.178956943412
 30
0.0
 11
1533.954531331257
 21
2590.178956943411
 31
0.0
  0
ARC
  5
8248
330
19
100
AcDbEntity
  8
1
100
AcDbCircle
 10
1534.954531331257
 20
2590.177956943411
 30
0.0
 40
0.9998000000000001
100
AcDbArc
 50
179.986
 51
270.007
  0
ARC
  5
8249
330
19
100
AcDbEntity
  8
1
100
AcDbCircle
 10
1072.954531331257
 20
1723.681535314736
 30
0.0
 40
150.0
100
AcDbArc
 50
65.68069138881708
 51
245.6806913888171
  0
CIRCLE
  5
824A
330
19
100
AcDbEntity
  8
1
100
AcDbCircle
 10
1072.954531331257
 20
1723.681535314736
 30
0.0
 40
75.0
  0
LINE
  5
824B
330
19
100
AcDbEntity
  8
1
100
AcDbLine
 10
1134.727752892957
 20
1860.371217068295
 30
0.0
 11
1654.727752892957
 21
1625.371217068295
 31
0.0
  0
LINE
  5
824C
330
19
100
AcDbEntity
  8
1
100
AcDbLine
 10
1011.181309769557
 20
1586.991853561178
 30
0.0
 11
1531.181309769557
 21
1351.991853561178
 31
0.0
  0
LINE
  5
824D
330
19
100
AcDbEntity
  8
1
100
AcDbLine
 10
1103.841142112107
 20
1792.026376191516
 30
0.0
 11
1623.841142112107
 21
1557.026376191516
 31
0.0
  0
LINE
  5
824E
330
19
100
AcDbEntity
  8
1
100
AcDbLine
 10
1042.067920550407
 20
1655.336694437957
 30
0.0
 11
1562.067920550407
 21
1420.336694437957
 31
0.0
  0
LINE
  5
824F
330
19
100
AcDbEntity
  8
2
100
AcDbLine
 10
2525.00531974322
 20
1488.681535314736
 30
0.0
 11
1927.916364390867
 21
1488.681535314736
 31
0.0
  0
LINE
  5
8250
330
19
100
AcDbEntity
  8
1
100
AcDbLine
 10
2045.440188232262
 20
1798.681535314736
 30
0.0
 11
2045.440188232262
 21
1648.681535314737
 31
0.0
  0
LINE
  5
8251
330
19
100
AcDbEntity
  8
1
100
AcDbLine
 10
2105.440188232262
 20
1798.681535314736
 30
0.0
 11
2105.440188232262
 21
1648.681535314737
 31
0.0
  0
LINE
  5
8252
330
19
100
AcDbEntity
  8
1
100
AcDbLine
 10
2137.440188232262
 20
1878.681535314736
 30
0.0
 11
2137.440188232262
 21
1836.059368191487
 31
0.0
  0
LINE
  5
8253
330
19
100
AcDbEntity
  8
1
100
AcDbLine
 10
1945.440188232262
 20
1338.681535314736
 30
0.0
 11
2137.440188232262
 21
1338.681535314736
 31
0.0
  0
LINE
  5
8254
330
19
100
AcDbEntity
  8
1
100
AcDbLine
 10
2045.440188232262
 20
1798.681535314736
 30
0.0
 11
2105.440188232262
 21
1798.681535314736
 31
0.0
  0
LINE
  5
8255
330
19
100
AcDbEntity
  8
1
100
AcDbLine
 10
2045.440188232262
 20
1648.681535314737
 30
0.0
 11
2105.440188232262
 21
1648.681535314737
 31
0.0
  0
LINE
  5
8256
330
19
100
AcDbEntity
  8
1
100
AcDbLine
 10
2045.440188232262
 20
1563.681535314736
 30
0.0
 11
2105.440188232262
 21
1563.681535314737
 31
0.0
  0
LINE
  5
8257
330
19
100
AcDbEntity
  8
1
100
AcDbLine
 10
2045.440188232262
 20
1413.681535314737
 30
0.0
 11
2105.440188232262
 21
1413.681535314736
 31
0.0
  0
LINE
  5
8258
330
19
100
AcDbEntity
  8
1
100
AcDbLine
 10
2105.440188232262
 20
1563.681535314736
 30
0.0
 11
2105.440188232262
 21
1413.681535314736
 31
0.0
  0
LINE
  5
8259
330
19
100
AcDbEntity
  8
1
100
AcDbLine
 10
2045.440188232262
 20
1563.681535314736
 30
0.0
 11
2045.440188232262
 21
1413.681535314736
 31
0.0
  0
LINE
  5
825A
330
19
100
AcDbEntity
  8
1
100
AcDbLine
 10
2137.440188232262
 20
1400.804996876008
 30
0.0
 11
2137.440188232262
 21
1338.681535314736
 31
0.0
  0
LINE
  5
825B
330
19
100
AcDbEntity
  8
1
100
AcDbLine
 10
2450.005619743221
 20
1356.681535314736
 30
0.0
 11
2450.005619743221
 21
1278.681535314736
 31
0.0
  0
LINE
  5
825C
330
19
100
AcDbEntity
  8
1
100
AcDbLine
 10
2180.005619743221
 20
1356.681535314737
 30
0.0
 11
2180.005619743221
 21
1278.681535314736
 31
0.0
  0
LINE
  5
825D
330
19
100
AcDbEntity
  8
1
100
AcDbLine
 10
2180.005619743221
 20
1318.681535314736
 30
0.0
 11
2450.005619743221
 21
1318.681535314736
 31
0.0
  0
LINE
  5
825E
330
19
100
AcDbEntity
  8
1
100
AcDbLine
 10
922.9545313312573
 20
2378.195691361595
 30
0.0
 11
922.9545313312573
 21
2570.195691361595
 31
0.0
  0
LINE
  5
825F
330
19
100
AcDbEntity
  8
1
100
AcDbLine
 10
1735.454531331257
 20
2378.195691361597
 30
0.0
 11
1735.454531331257
 21
2570.195691361596
 31
0.0
  0
LINE
  5
8260
330
19
100
AcDbEntity
  8
1
100
AcDbLine
 10
997.9545313312573
 20
2478.195691361596
 30
0.0
 11
997.9545313312573
 21
2538.195691361596
 31
0.0
  0
LINE
  5
8261
330
19
100
AcDbEntity
  8
1
100
AcDbLine
 10
1667.954531331257
 20
2478.195691361597
 30
0.0
 11
1667.954531331257
 21
2538.195691361597
 31
0.0
  0
LINE
  5
8262
330
19
100
AcDbEntity
  8
1
100
AcDbLine
 10
1147.954531331257
 20
2478.195691361597
 30
0.0
 11
1147.954531331257
 21
2538.195691361597
 31
0.0
  0
LINE
  5
8263
330
19
100
AcDbEntity
  8
1
100
AcDbLine
 10
1517.954531331257
 20
2478.195691361597
 30
0.0
 11
1517.954531331257
 21
2538.195691361596
 31
0.0
  0
LINE
  5
8264
330
19
100
AcDbEntity
  8
1
100
AcDbLine
 10
1735.454531331257
 20
2570.195691361595
 30
0.0
 11
922.9545313312573
 21
2570.195691361596
 31
0.0
  0
LINE
  5
8265
330
19
100
AcDbEntity
  8
1
100
AcDbLine
 10
1667.954531331257
 20
2478.195691361597
 30
0.0
 11
1517.954531331257
 21
2478.195691361597
 31
0.0
  0
LINE
  5
8266
330
19
100
AcDbEntity
  8
1
100
AcDbLine
 10
1667.954531331257
 20
2538.195691361597
 30
0.0
 11
1517.954531331257
 21
2538.195691361597
 31
0.0
  0
LINE
  5
8267
330
19
100
AcDbEntity
  8
1
100
AcDbLine
 10
1147.954531331257
 20
2538.195691361597
 30
0.0
 11
997.9545313312573
 21
2538.195691361596
 31
0.0
  0
LINE
  5
8268
330
19
100
AcDbEntity
  8
1
100
AcDbLine
 10
1147.954531331257
 20
2478.195691361596
 30
0.0
 11
997.9545313312573
 21
2478.195691361596
 31
0.0
  0
DIMENSION
  5
84C8
330
19
100
AcDbEntity
  8
3
100
AcDbDimension
280
     0
  2
*D16
 10
507.5748722840162
 20
2005.681535314737
 30
0.0
 11
470.0748722840162
 21
1864.681535314736
 31
0.0
 70
    32
 71
     5
 42
-1.0
 73
     0
 74
     0
 75
     0
  3
IGA
100
AcDbAlignedDimension
 13
707.606162559864
 23
1723.681535314736
 33
0.0
 14
1130.433140549307
 24
2005.681535314737
 34
0.0
 50
90.0
100
AcDbRotatedDimension
1001
ACAD
1000
DSTYLE
1002
{
1070
   172
1070
     1
1070
    40
1040
15.0
1070
   271
1070
     0
1070
   143
1040
0.039
1002
}
  0
DIMENSION
  5
84FD
330
19
100
AcDbEntity
  8
3
100
AcDbDimension
280
     0
  2
*D17
 10
1072.954531331257
 20
1100.06083363556
 30
0.0
 11
947.9545313312573
 21
1137.56083363556
 31
0.0
 70
    32
 71
     5
 42
-1.0
 73
     0
 74
     0
 75
     0
  3
IGA
100
AcDbAlignedDimension
 13
822.9545313312573
 23
1203.681535314736
 33
0.0
 14
1072.954531331257
 24
1203.681535314736
 34
0.0
100
AcDbRotatedDimension
1001
ACAD
1000
DSTYLE
1002
{
1070
   172
1070
     1
1070
    40
1040
15.0
1070
   271
1070
     0
1070
   143
1040
0.039
1002
}
  0
DIMENSION
  5
850A
330
19
100
AcDbEntity
  8
3
100
AcDbDimension
280
     0
  2
*D18
 10
1802.954531331257
 20
1100.06083363556
 30
0.0
 11
1437.954531331257
 21
1137.56083363556
 31
0.0
 70
    32
 71
     5
 42
-1.0
 73
     0
 74
     0
 75
     0
  3
IGA
100
AcDbAlignedDimension
 13
1072.954531331257
 23
1203.681535314736
 33
0.0
 14
1802.954531331257
 24
1203.681535314736
 34
0.0
100
AcDbRotatedDimension
1001
ACAD
1000
DSTYLE
1002
{
1070
   172
1070
     1
1070
    40
1040
15.0
1070
   271
1070
     0
1070
   143
1040
0.039
1002
}
  0
DIMENSION
  5
8517
330
19
100
AcDbEntity
  8
3
100
AcDbDimension
280
     0
  2
*D19
 10
2475.440188232262
 20
1100.06083363556
 30
0.0
 11
2288.940188232262
 21
1137.56083363556
 31
0.0
 70
    32
 71
     5
 42
-1.0
 73
     0
 74
     0
 75
     0
  3
IGA
100
AcDbAlignedDimension
 13
2102.440188232262
 23
1203.681535314736
 33
0.0
 14
2475.440188232262
 24
1203.681535314736
 34
0.0
100
AcDbRotatedDimension
1001
ACAD
1000
DSTYLE
1002
{
1070
   172
1070
     1
1070
    40
1040
15.0
1070
   271
1070
     0
1070
   143
1040
0.039
1002
}
  0
DIMENSION
  5
8524
330
19
100
AcDbEntity
  8
3
100
AcDbDimension
280
     0
  2
*D20
 10
2782.440188232262
 20
1100.06083363556
 30
0.0
 11
2628.940188232262
 21
1137.56083363556
 31
0.0
 70
    32
 71
     5
 42
-1.0
 73
     0
 74
     0
 75
     0
  3
IGA
100
AcDbAlignedDimension
 13
2475.440188232262
 23
1203.681535314736
 33
0.0
 14
2782.440188232262
 24
1203.681535314736
 34
0.0
100
AcDbRotatedDimension
1001
ACAD
1000
DSTYLE
1002
{
1070
   172
1070
     1
1070
    40
1040
15.0
1070
   271
1070
     0
1070
   143
1040
0.039
1002
}
  0
DIMENSION
  5
8531
330
19
100
AcDbEntity
  8
3
100
AcDbDimension
280
     0
  2
*D21
 10
400.9561087993061
 20
1203.681535314736
 30
0.0
 11
363.4561087993061
 21
1604.681535314736
 31
0.0
 70
    32
 71
     5
 42
-1.0
 73
     0
 74
     0
 75
     0
  3
IGA
100
AcDbAlignedDimension
 13
1122.933140549307
 23
2005.681535314737
 33
0.0
 14
822.9545313312573
 24
1203.681535314736
 34
0.0
 50
90.0
100
AcDbRotatedDimension
1001
ACAD
1000
DSTYLE
1002
{
1070
   172
1070
     1
1070
    40
1040
15.0
1070
   271
1070
     0
1070
   143
1040
0.039
1002
}
  0
ENDSEC
  0
SECTION
  2
OBJECTS
  0
DICTIONARY
  5
C
330
0
100
AcDbDictionary
281
     1
  3
ACAD_CIP_PREVIOUS_PRODUCT_INFO
350
85F3
  3
ACAD_COLOR
350
85D6
  3
ACAD_DETAILVIEWSTYLE
350
85EF
  3
ACAD_GROUP
350
D
  3
ACAD_LAYOUT
350
8544
  3
ACAD_MATERIAL
350
85A4
  3
ACAD_MLEADERSTYLE
350
85EB
  3
ACAD_MLINESTYLE
350
E
  3
ACAD_PLOTSETTINGS
350
8545
  3
ACAD_PLOTSTYLENAME
350
8542
  3
ACAD_SCALELIST
350
85D9
  3
ACAD_SECTIONVIEWSTYLE
350
85ED
  3
ACAD_TABLESTYLE
350
85D7
  3
ACAD_VISUALSTYLE
350
85BD
  3
ACDB_RECOMPOSE_DATA
350
863B
  3
AcDbVariableDictionary
350
862A
  3
AcDsDecomposeData
350
8641
  0
DICTIONARY
  5
861E
330
2
100
AcDbDictionary
280
     1
281
     1
  3
ACAD_LAYERSTATES
360
861F
  0
DICTIONARY
  5
8611
330
F
100
AcDbDictionary
280
     1
281
     1
  3
ADSK_XREC_LAYER_RECONCILED
360
8612
  0
DICTIONARY
  5
8613
330
31
100
AcDbDictionary
280
     1
281
     1
  3
ADSK_XREC_LAYER_RECONCILED
360
8614
  0
DICTIONARY
  5
8615
330
76D0
100
AcDbDictionary
280
     1
281
     1
  3
ADSK_XREC_LAYER_RECONCILED
360
8616
  0
DICTIONARY
  5
8617
330
76D1
100
AcDbDictionary
280
     1
281
     1
  3
ADSK_XREC_LAYER_RECONCILED
360
8618
  0
DICTIONARY
  5
8619
330
76D2
100
AcDbDictionary
280
     1
281
     1
  3
ADSK_XREC_LAYER_RECONCILED
360
861A
  0
DICTIONARY
  5
8571
330
19
100
AcDbDictionary
280
     1
281
     1
  3
ACAD_LAYOUTSELFREF
360
8572
  3
ACAD_SORTENTS
360
85F5
  0
DICTIONARY
  5
856F
330
16
100
AcDbDictionary
280
     1
281
     1
  3
ACAD_LAYOUTSELFREF
360
8570
  0
XRECORD
  5
85F3
102
{ACAD_REACTORS
330
C
102
}
330
C
100
AcDbXrecord
280
     1
300
ACDLT
300
2023
300

  0
DICTIONARY
  5
85D6
102
{ACAD_REACTORS
330
C
102
}
330
C
100
AcDbDictionary
281
     1
  0
DICTIONARY
  5
85EF
102
{ACAD_REACTORS
330
C
102
}
330
C
100
AcDbDictionary
281
     1
  3
Metric50
350
85F0
  0
DICTIONARY
  5
D
102
{ACAD_REACTORS
330
C
102
}
330
C
100
AcDbDictionary
281
     1
  0
DICTIONARY
  5
8544
102
{ACAD_REACTORS
330
C
102
}
330
C
100
AcDbDictionary
281
     1
  3
Model
350
8546
  3
ﾚｲｱｳﾄ1
350
8547
  0
DICTIONARY
  5
85A4
102
{ACAD_REACTORS
330
C
102
}
330
C
100
AcDbDictionary
281
     1
  3
ByBlock
350
85AD
  3
ByLayer
350
85A5
  3
Global
350
85B5
  0
DICTIONARY
  5
85EB
102
{ACAD_REACTORS
330
C
102
}
330
C
100
AcDbDictionary
281
     1
  3
Standard
350
85EC
  0
DICTIONARY
  5
E
102
{ACAD_REACTORS
330
C
102
}
330
C
100
AcDbDictionary
281
     1
  3
STANDARD
350
1C
  0
DICTIONARY
  5
8545
102
{ACAD_REACTORS
330
C
102
}
330
C
100
AcDbDictionary
281
     1
  0
ACDBDICTIONARYWDFLT
  5
8542
102
{ACAD_REACTORS
330
C
102
}
330
C
100
AcDbDictionary
281
     1
  3
Normal
350
8543
100
AcDbDictionaryWithDefault
340
8543
  0
DICTIONARY
  5
85D9
102
{ACAD_REACTORS
330
C
102
}
330
C
100
AcDbDictionary
281
     1
  3
A0
350
85DA
  3
A1
350
85DB
  3
A2
350
85DC
  3
A3
350
85DD
  3
A4
350
85DE
  3
A5
350
85DF
  3
A6
350
85E0
  3
A7
350
85E1
  3
A8
350
85E2
  3
A9
350
85E3
  3
B0
350
85E4
  3
B1
350
85E5
  3
B2
350
85E6
  3
B3
350
85E7
  3
B4
350
85E8
  3
B5
350
85E9
  3
B6
350
85EA
  0
DICTIONARY
  5
85ED
102
{ACAD_REACTORS
330
C
102
}
330
C
100
AcDbDictionary
281
     1
  3
Metric50
350
85EE
  0
DICTIONARY
  5
85D7
102
{ACAD_REACTORS
330
C
102
}
330
C
100
AcDbDictionary
281
     1
  3
Standard
350
85D8
  0
DICTIONARY
  5
85BD
102
{ACAD_REACTORS
330
C
102
}
330
C
100
AcDbDictionary
281
     1
  3
2dWireframe
350
85C3
  3
Basic
350
85C2
  3
Brighten
350
85C9
  3
ColorChange
350
85CD
  3
Conceptual
350
85C6
  3
Dim
350
85C8
  3
EdgeColorOff
350
85D5
  3
Facepattern
350
85CC
  3
Flat
350
85BE
  3
FlatWithEdges
350
85BF
  3
Gouraud
350
85C0
  3
GouraudWithEdges
350
85C1
  3
Hidden
350
85C5
  3
JitterOff
350
85D3
  3
Linepattern
350
85CB
  3
OverhangOff
350
85D4
  3
Realistic
350
85C7
  3
Shaded
350
85D2
  3
Shaded with edges
350
85D1
  3
Shades of Gray
350
85CE
  3
Sketchy
350
85CF
  3
Thicken
350
85CA
  3
Wireframe
350
85C4
  3
X-Ray
350
85D0
  0
XRECORD
  5
863B
102
{ACAD_REACTORS
330
C
102
}
330
C
100
AcDbXrecord
280
     1
 90
        1
330
81FC
330
81FF
330
8201
330
85D8
  0
DICTIONARY
  5
862A
102
{ACAD_REACTORS
330
C
102
}
330
C
100
AcDbDictionary
281
     1
  3
CANNOSCALE
350
8630
  3
CMLEADERSTYLE
350
862C
  3
CTABLESTYLE
350
862B
  3
CVIEWDETAILSTYLE
350
862D
  3
CVIEWSECTIONSTYLE
350
862E
  3
LAYEREVAL
350
8632
  3
LAYERNOTIFY
350
8633
  3
LIGHTINGUNITS
350
8631
  3
MARKUPASSISTMODE
350
8638
  3
MSLTSCALE
350
862F
  0
DICTIONARY
  5
8641
102
{ACAD_REACTORS
330
C
102
}
330
C
100
AcDbDictionary
281
     1
  3
AcDsRecords
350
8643
  3
AcDsSchemas
350
8642
1001
ACAD
1070
     2
  0
DICTIONARY
  5
861F
102
{ACAD_REACTORS
330
861E
102
}
330
861E
100
AcDbDictionary
281
     1
  0
XRECORD
  5
8612
102
{ACAD_REACTORS
330
8611
102
}
330
8611
100
AcDbXrecord
280
     1
290
     1
  0
XRECORD
  5
8614
102
{ACAD_REACTORS
330
8613
102
}
330
8613
100
AcDbXrecord
280
     1
290
     1
  0
XRECORD
  5
8616
102
{ACAD_REACTORS
330
8615
102
}
330
8615
100
AcDbXrecord
280
     1
290
     1
  0
XRECORD
  5
8618
102
{ACAD_REACTORS
330
8617
102
}
330
8617
100
AcDbXrecord
280
     1
290
     1
  0
XRECORD
  5
861A
102
{ACAD_REACTORS
330
8619
102
}
330
8619
100
AcDbXrecord
280
     1
290
     1
  0
XRECORD
  5
8572
102
{ACAD_REACTORS
330
8571
102
}
330
8571
100
AcDbXrecord
280
     1
340
19
  0
SORTENTSTABLE
  5
85F5
102
{ACAD_REACTORS
330
8571
102
}
330
8571
100
AcDbSortentsTable
330
19
331
81B9
  5
81C1
331
81C1
  5
81C2
331
81C2
  5
81C3
331
81C3
  5
81C6
331
81C6
  5
81C7
331
81C7
  5
81CD
331
81CD
  5
81CE
331
81CE
  5
81CF
331
81CF
  5
81D2
331
81D2
  5
81D3
331
81D3
  5
81D9
331
81D9
  5
81DA
331
81DA
  5
81DB
331
81DB
  5
81DC
331
81DC
  5
81DD
331
81DD
  5
81DE
331
81DE
  5
81DF
331
81DF
  5
81E0
331
81E0
  5
81E1
331
81E1
  5
81E2
331
81E2
  5
81E3
331
81E3
  5
81E4
331
81E4
  5
81E5
331
81E5
  5
81E6
331
81E6
  5
81E7
331
81E7
  5
81E8
331
81E8
  5
81E9
331
81E9
  5
81EA
331
81EA
  5
81EB
331
81EB
  5
81EC
331
81EC
  5
81ED
331
81ED
  5
81EE
331
81EE
  5
81EF
331
81EF
  5
81F3
331
81F3
  5
81F4
331
81F4
  5
81F5
331
81F5
  5
81F6
331
81F6
  5
81F7
331
81F7
  5
81F8
331
81F8
  5
81F9
331
81F9
  5
81FA
331
81FA
  5
81FB
331
81FB
  5
81FC
331
81FC
  5
81FD
331
81FD
  5
81FF
331
81FF
  5
8200
331
8200
  5
8201
331
8201
  5
8202
331
8202
  5
8207
331
8207
  5
8208
331
8208
  5
820A
331
820A
  5
820B
331
820B
  5
820E
331
820E
  5
820F
331
820F
  5
8210
331
8210
  5
8211
331
8211
  5
8212
331
8212
  5
8213
331
8213
  5
8214
331
8214
  5
8215
331
8215
  5
8216
331
8216
  5
8217
331
8217
  5
8218
331
8218
  5
8219
331
8219
  5
821A
331
821A
  5
821B
331
821B
  5
821C
331
821C
  5
821D
331
821D
  5
821E
331
821E
  5
821F
331
821F
  5
8220
331
8220
  5
8221
331
8221
  5
8222
331
8222
  5
8223
331
8223
  5
8224
331
8224
  5
8225
331
8225
  5
8226
331
8226
  5
8227
331
8227
  5
8228
331
8228
  5
8229
331
8229
  5
822B
331
822B
  5
822C
331
822C
  5
822D
331
822D
  5
822E
331
822E
  5
822F
331
822F
  5
8230
331
8230
  5
8232
331
8232
  5
8233
331
8233
  5
8234
331
8234
  5
8235
331
8235
  5
8236
331
8236
  5
8237
331
8237
  5
8238
331
8238
  5
8239
331
8239
  5
823A
331
823A
  5
823B
331
823B
  5
823C
331
823C
  5
823D
331
823D
  5
823E
331
823E
  5
823F
331
823F
  5
8240
331
8240
  5
8241
331
8241
  5
8244
331
8244
  5
8245
331
8245
  5
8246
331
8246
  5
8247
331
8247
  5
8248
331
8248
  5
8249
331
8249
  5
824A
331
824A
  5
824B
331
824B
  5
824C
331
824C
  5
824D
331
824D
  5
824E
331
824E
  5
824F
331
824F
  5
8250
331
8250
  5
8251
331
8251
  5
8252
331
8252
  5
8253
331
8253
  5
8254
331
8254
  5
8255
331
8255
  5
8256
331
8256
  5
8257
331
8257
  5
8258
331
8258
  5
8259
331
8259
  5
825A
331
825A
  5
825B
331
825B
  5
825C
331
825C
  5
825D
331
825D
  5
825E
331
825E
  5
825F
331
825F
  5
8260
331
8260
  5
8261
331
8261
  5
8262
331
8262
  5
8263
331
8263
  5
8264
331
8264
  5
8265
331
8265
  5
8266
331
8266
  5
8267
331
8267
  5
8268
331
8268
  5
84C8
331
84C8
  5
84FD
331
84FD
  5
850A
331
850A
  5
8517
331
8517
  5
8524
331
8524
  5
8531
331
8531
  5
85F4
  0
XRECORD
  5
8570
102
{ACAD_REACTORS
330
856F
102
}
330
856F
100
AcDbXrecord
280
     1
340
16
  0
ACDBDETAILVIEWSTYLE
  5
85F0
102
{ACAD_XDICTIONARY
360
8646
102
}
102
{ACAD_REACTORS
330
85EF
102
}
330
85EF
100
AcDbModelDocViewStyle
 70
     0
  3
Metric50
290
     0
100
AcDbDetailViewStyle
 70
     0
 71
     0
 90
        3
 71
     1
340
10
 62
   256
 40
5.0
340
0
 62
   256
 40
5.0
300

 40
0.0
280
     1
 71
     2
340
15
 90
       25
 62
   256
 71
     3
340
10
 62
   256
 40
5.0
 90
        0
 40
15.0
 90
        1
300
%<\AcVar ViewDetailId>% (%<\AcVar ViewScale \f "%sn">%)
 71
     4
340
15
 90
       25
 62
   256
340
15
 90
       25
 62
   256
280
     0
  0
LAYOUT
  5
8546
102
{ACAD_REACTORS
330
8544
102
}
330
8544
100
AcDbPlotSettings
  1

  2
EPSON LP-9300
  4

  6

 40
0.0
 41
0.0
 42
0.0
 43
0.0
 44
0.0
 45
0.0
 46
0.0
 47
0.0
 48
0.0
 49
0.0
140
0.0
141
0.0
142
1.0
143
1.0
 70
  1712
 72
     0
 73
     0
 74
     0
  7

 75
     0
147
1.0
 76
     0
 77
     2
 78
   300
148
0.0
149
0.0
100
AcDbLayout
  1
Model
 70
     1
 71
     0
 10
0.0
 20
0.0
 11
12.0
 21
9.0
 12
0.0
 22
0.0
 32
0.0
 14
0.0
 24
0.0
 34
0.0
 15
0.0
 25
0.0
 35
0.0
146
0.0
 13
0.0
 23
0.0
 33
0.0
 16
1.0
 26
0.0
 36
0.0
 17
0.0
 27
1.0
 37
0.0
 76
     0
330
19
331
85A2
  0
LAYOUT
  5
8547
102
{ACAD_REACTORS
330
8544
102
}
330
8544
100
AcDbPlotSettings
  1

  2
EPSON LP-9300
  4

  6

 40
0.0
 41
0.0
 42
0.0
 43
0.0
 44
0.0
 45
0.0
 46
0.0
 47
0.0
 48
0.0
 49
0.0
140
0.0
141
0.0
142
1.0
143
1.0
 70
   688
 72
     0
 73
     0
 74
     5
  7

 75
    16
147
1.0
 76
     0
 77
     2
 78
   300
148
0.0
149
0.0
100
AcDbLayout
  1
ﾚｲｱｳﾄ1
 70
     1
 71
     1
 10
0.0
 20
0.0
 11
12.0
 21
9.0
 12
0.0
 22
0.0
 32
0.0
 14
1.000000000000000E+20
 24
1.000000000000000E+20
 34
1.000000000000000E+20
 15
-1.000000000000000E+20
 25
-1.000000000000000E+20
 35
-1.000000000000000E+20
146
0.0
 13
0.0
 23
0.0
 33
0.0
 16
1.0
 26
0.0
 36
0.0
 17
0.0
 27
1.0
 37
0.0
 76
     0
330
16
  0
MATERIAL
  5
85AD
102
{ACAD_XDICTIONARY
360
85AE
102
}
102
{ACAD_REACTORS
330
85A4
102
}
330
85A4
100
AcDbMaterial
  1
ByBlock
 72
     0
 43
0.0208333333333333
 43
0.0
 43
0.0
 43
0.0
 43
0.0
 43
0.0208333333333333
 43
0.0
 43
0.0
 43
0.0
 43
0.0
 43
1.0
 43
0.0
 43
0.0
 43
0.0
 43
0.0
 43
1.0
 77
     0
 47
0.0208333333333333
 47
0.0
 47
0.0
 47
0.0
 47
0.0
 47
0.0208333333333333
 47
0.0
 47
0.0
 47
0.0
 47
0.0
 47
1.0
 47
0.0
 47
0.0
 47
0.0
 47
0.0
 47
1.0
171
     0
 49
0.0208333333333333
 49
0.0
 49
0.0
 49
0.0
 49
0.0
 49
0.0208333333333333
 49
0.0
 49
0.0
 49
0.0
 49
0.0
 49
1.0
 49
0.0
 49
0.0
 49
0.0
 49
0.0
 49
1.0
175
     0
142
0.0208333333333333
142
0.0
142
0.0
142
0.0
142
0.0
142
0.0208333333333333
142
0.0
142
0.0
142
0.0
142
0.0
142
1.0
142
0.0
142
0.0
142
0.0
142
0.0
142
1.0
179
     0
144
0.0208333333333333
144
0.0
144
0.0
144
0.0
144
0.0
144
0.0208333333333333
144
0.0
144
0.0
144
0.0
144
0.0
144
1.0
144
0.0
144
0.0
144
0.0
144
0.0
144
1.0
147
0.0208333333333333
147
0.0
147
0.0
147
0.0
147
0.0
147
0.0208333333333333
147
0.0
147
0.0
147
0.0
147
0.0
147
1.0
147
0.0
147
0.0
147
0.0
147
0.0
147
1.0
  0
MATERIAL
  5
85A5
102
{ACAD_XDICTIONARY
360
85A6
102
}
102
{ACAD_REACTORS
330
85A4
102
}
330
85A4
100
AcDbMaterial
  1
ByLayer
 72
     0
 43
0.0208333333333333
 43
0.0
 43
0.0
 43
0.0
 43
0.0
 43
0.0208333333333333
 43
0.0
 43
0.0
 43
0.0
 43
0.0
 43
1.0
 43
0.0
 43
0.0
 43
0.0
 43
0.0
 43
1.0
 77
     0
 47
0.0208333333333333
 47
0.0
 47
0.0
 47
0.0
 47
0.0
 47
0.0208333333333333
 47
0.0
 47
0.0
 47
0.0
 47
0.0
 47
1.0
 47
0.0
 47
0.0
 47
0.0
 47
0.0
 47
1.0
171
     0
 49
0.0208333333333333
 49
0.0
 49
0.0
 49
0.0
 49
0.0
 49
0.0208333333333333
 49
0.0
 49
0.0
 49
0.0
 49
0.0
 49
1.0
 49
0.0
 49
0.0
 49
0.0
 49
0.0
 49
1.0
175
     0
142
0.0208333333333333
142
0.0
142
0.0
142
0.0
142
0.0
142
0.0208333333333333
142
0.0
142
0.0
142
0.0
142
0.0
142
1.0
142
0.0
142
0.0
142
0.0
142
0.0
142
1.0
179
     0
144
0.0208333333333333
144
0.0
144
0.0
144
0.0
144
0.0
144
0.0208333333333333
144
0.0
144
0.0
144
0.0
144
0.0
144
1.0
144
0.0
144
0.0
144
0.0
144
0.0
144
1.0
147
0.0208333333333333
147
0.0
147
0.0
147
0.0
147
0.0
147
0.0208333333333333
147
0.0
147
0.0
147
0.0
147
0.0
147
1.0
147
0.0
147
0.0
147
0.0
147
0.0
147
1.0
  0
MATERIAL
  5
85B5
102
{ACAD_XDICTIONARY
360
85B6
102
}
102
{ACAD_REACTORS
330
85A4
102
}
330
85A4
100
AcDbMaterial
  1
Global
 72
     0
 43
0.0208333333333333
 43
0.0
 43
0.0
 43
0.0
 43
0.0
 43
0.0208333333333333
 43
0.0
 43
0.0
 43
0.0
 43
0.0
 43
1.0
 43
0.0
 43
0.0
 43
0.0
 43
0.0
 43
1.0
 77
     0
 47
0.0208333333333333
 47
0.0
 47
0.0
 47
0.0
 47
0.0
 47
0.0208333333333333
 47
0.0
 47
0.0
 47
0.0
 47
0.0
 47
1.0
 47
0.0
 47
0.0
 47
0.0
 47
0.0
 47
1.0
171
     0
 49
0.0208333333333333
 49
0.0
 49
0.0
 49
0.0
 49
0.0
 49
0.0208333333333333
 49
0.0
 49
0.0
 49
0.0
 49
0.0
 49
1.0
 49
0.0
 49
0.0
 49
0.0
 49
0.0
 49
1.0
175
     0
142
0.0208333333333333
142
0.0
142
0.0
142
0.0
142
0.0
142
0.0208333333333333
142
0.0
142
0.0
142
0.0
142
0.0
142
1.0
142
0.0
142
0.0
142
0.0
142
0.0
142
1.0
179
     0
144
0.0208333333333333
144
0.0
144
0.0
144
0.0
144
0.0
144
0.0208333333333333
144
0.0
144
0.0
144
0.0
144
0.0
144
1.0
144
0.0
144
0.0
144
0.0
144
0.0
144
1.0
147
0.0208333333333333
147
0.0
147
0.0
147
0.0
147
0.0
147
0.0208333333333333
147
0.0
147
0.0
147
0.0
147
0.0
147
1.0
147
0.0
147
0.0
147
0.0
147
0.0
147
1.0
  0
MLEADERSTYLE
  5
85EC
102
{ACAD_REACTORS
330
85EB
102
}
330
85EB
100
AcDbMLeaderStyle
179
     2
170
     2
171
     1
172
     0
 90
        2
 40
0.0
 41
0.0
173
     1
 91
-1056964608
340
13
 92
       -2
290
     1
 42
2.0
291
     1
 43
0.36
  3
Standard
 44
4.0
300

342
10
174
     1
178
     6
175
     1
176
     0
 93
-1056964608
 45
4.0
292
     0
297
     0
 46
4.0
 94
-1056964608
 47
1.0
 49
1.0
140
1.0
293
     1
141
0.0
294
     1
177
     0
142
1.0
295
     0
296
     0
143
0.125
271
     0
272
     9
273
     9
298
     1
  0
MLINESTYLE
  5
1C
102
{ACAD_REACTORS
330
E
102
}
330
E
100
AcDbMlineStyle
  2
STANDARD
 70
     0
  3

 62
     0
 51
90.0
 52
90.0
 71
     2
 49
0.5
 62
   256
  6
BYLAYER
 49
-0.5
 62
   256
  6
BYLAYER
  0
ACDBPLACEHOLDER
  5
8543
102
{ACAD_REACTORS
330
8542
102
}
330
8542
  0
SCALE
  5
85DA
102
{ACAD_REACTORS
330
85D9
102
}
330
85D9
100
AcDbScale
 70
     0
300
1:1
140
1.0
141
1.0
290
     1
  0
SCALE
  5
85DB
102
{ACAD_REACTORS
330
85D9
102
}
330
85D9
100
AcDbScale
 70
     0
300
1:2
140
1.0
141
2.0
290
     0
  0
SCALE
  5
85DC
102
{ACAD_REACTORS
330
85D9
102
}
330
85D9
100
AcDbScale
 70
     0
300
1:4
140
1.0
141
4.0
290
     0
  0
SCALE
  5
85DD
102
{ACAD_REACTORS
330
85D9
102
}
330
85D9
100
AcDbScale
 70
     0
300
1:5
140
1.0
141
5.0
290
     0
  0
SCALE
  5
85DE
102
{ACAD_REACTORS
330
85D9
102
}
330
85D9
100
AcDbScale
 70
     0
300
1:8
140
1.0
141
8.0
290
     0
  0
SCALE
  5
85DF
102
{ACAD_REACTORS
330
85D9
102
}
330
85D9
100
AcDbScale
 70
     0
300
1:10
140
1.0
141
10.0
290
     0
  0
SCALE
  5
85E0
102
{ACAD_REACTORS
330
85D9
102
}
330
85D9
100
AcDbScale
 70
     0
300
1:16
140
1.0
141
16.0
290
     0
  0
SCALE
  5
85E1
102
{ACAD_REACTORS
330
85D9
102
}
330
85D9
100
AcDbScale
 70
     0
300
1:20
140
1.0
141
20.0
290
     0
  0
SCALE
  5
85E2
102
{ACAD_REACTORS
330
85D9
102
}
330
85D9
100
AcDbScale
 70
     0
300
1:30
140
1.0
141
30.0
290
     0
  0
SCALE
  5
85E3
102
{ACAD_REACTORS
330
85D9
102
}
330
85D9
100
AcDbScale
 70
     0
300
1:40
140
1.0
141
40.0
290
     0
  0
SCALE
  5
85E4
102
{ACAD_REACTORS
330
85D9
102
}
330
85D9
100
AcDbScale
 70
     0
300
1:50
140
1.0
141
50.0
290
     0
  0
SCALE
  5
85E5
102
{ACAD_REACTORS
330
85D9
102
}
330
85D9
100
AcDbScale
 70
     0
300
1:100
140
1.0
141
100.0
290
     0
  0
SCALE
  5
85E6
102
{ACAD_REACTORS
330
85D9
102
}
330
85D9
100
AcDbScale
 70
     0
300
2:1
140
2.0
141
1.0
290
     0
  0
SCALE
  5
85E7
102
{ACAD_REACTORS
330
85D9
102
}
330
85D9
100
AcDbScale
 70
     0
300
4:1
140
4.0
141
1.0
290
     0
  0
SCALE
  5
85E8
102
{ACAD_REACTORS
330
85D9
102
}
330
85D9
100
AcDbScale
 70
     0
300
8:1
140
8.0
141
1.0
290
     0
  0
SCALE
  5
85E9
102
{ACAD_REACTORS
330
85D9
102
}
330
85D9
100
AcDbScale
 70
     0
300
10:1
140
10.0
141
1.0
290
     0
  0
SCALE
  5
85EA
102
{ACAD_REACTORS
330
85D9
102
}
330
85D9
100
AcDbScale
 70
     0
300
100:1
140
100.0
141
1.0
290
     0
  0
ACDBSECTIONVIEWSTYLE
  5
85EE
102
{ACAD_XDICTIONARY
360
8644
102
}
102
{ACAD_REACTORS
330
85ED
102
}
330
85ED
100
AcDbModelDocViewStyle
 70
     0
  3
Metric50
290
     0
100
AcDbSectionViewStyle
 70
     0
 71
     0
 90
      102
 71
     1
340
10
 62
   256
 40
5.0
340
0
340
0
 62
   256
 40
5.0
300
I, O, Q, S, X, Z
 40
10.0
 90
        0
 40
2.5
 90
        0
 71
     2
340
15
 90
       25
 62
   256
340
15
 90
       50
 62
   256
 40
5.0
 40
2.5
 40
5.0
 71
     3
340
10
 62
   256
 40
5.0
 90
        0
 40
15.0
 90
        1
300
%<\AcVar ViewSectionStartId>%-%<\AcVar ViewSectionEndId>% (%<\AcVar ViewScale \f "%sn">%)
 71
     4
 62
   256
 62
   257
300
ANSI31
 40
1.0
 90
        0
290
     0
290
     0
 90
        6
 40
0.0
 40
1.570796326794896
 40
0.2617993877991494
 40
1.308996938995747
 40
-0.2617993877991494
 40
1.832595714594046
  0
TABLESTYLE
  5
85D8
102
{ACAD_XDICTIONARY
360
8639
102
}
102
{ACAD_REACTORS
330
85D7
102
}
330
85D7
100
AcDbTableStyle
280
     0
  3
Standard
 70
     0
 71
     0
 40
1.5
 41
1.5
280
     0
281
     0
  7
STANDARD
140
4.5
170
     2
 62
     0
 63
     7
283
     0
 90
      512
 91
        0
  1

274
    -2
284
     1
 64
     0
275
    -2
285
     1
 65
     0
276
    -2
286
     1
 66
     0
277
    -2
287
     1
 67
     0
278
    -2
288
     1
 68
     0
279
    -2
289
     1
 69
     0
  7
STANDARD
140
6.0
170
     5
 62
     0
 63
     7
283
     0
 90
      512
 91
        0
  1

274
    -2
284
     1
 64
     0
275
    -2
285
     1
 65
     0
276
    -2
286
     1
 66
     0
277
    -2
287
     1
 67
     0
278
    -2
288
     1
 68
     0
279
    -2
289
     1
 69
     0
  7
STANDARD
140
4.5
170
     5
 62
     0
 63
     7
283
     0
 90
      512
 91
        0
  1

274
    -2
284
     1
 64
     0
275
    -2
285
     1
 65
     0
276
    -2
286
     1
 66
     0
277
    -2
287
     1
 67
     0
278
    -2
288
     1
 68
     0
279
    -2
289
     1
 69
     0
  0
VISUALSTYLE
  5
85C3
102
{ACAD_REACTORS
330
85BD
102
}
330
85BD
100
AcDbVisualStyle
  2
2dWireframe
 70
     4
177
     3
291
     0
 70
    58
 90
        0
176
     1
 90
        2
176
     1
 90
        0
176
     1
 90
        0
176
     1
 40
0.6
176
     1
 40
30.0
176
     1
 62
     7
420
 16777215
176
     1
 90
        1
176
     1
 90
        4
176
     1
 62
     7
176
     1
 62
   257
176
     1
 90
        1
176
     1
 90
        1
176
     1
 40
1.0
176
     1
 90
        0
176
     1
 62
   257
176
     1
 40
1.0
176
     1
 90
        1
176
     1
 90
        6
176
     1
 90
        2
176
     1
 62
     7
176
     1
 90
        5
176
     1
 90
        0
176
     1
 90
        0
176
     1
290
     0
176
     1
 90
        1
176
     1
 40
0.0
176
     1
 90
        0
176
     1
290
     1
176
     1
290
     1
176
     1
290
     0
176
     1
290
     0
176
     1
290
     0
176
     1
290
     0
176
     1
290
     0
176
     1
290
     0
176
     1
290
     0
176
     1
 90
       50
176
     1
 40
0.0
176
     1
 40
1.0
176
     1
 90
        0
176
     1
 62
    18
420
        0
176
     1
 90
       50
176
     1
 90
        3
176
     1
 62
     5
420
      255
176
     1
290
     0
176
     1
 90
       50
176
     1
 90
       50
176
     1
 90
       50
176
     1
290
     0
176
     1
 90
       50
176
     1
 62
   256
176
     0
 40
1.0
176
     0
 90
        2
176
     1
  1
strokes_ogs.tif
176
     1
290
     0
176
     1
 40
1.0
176
     1
 40
1.0
176
     1
1001
ACAD
1000
AcDbSavedByObjectVersion
1070
     0
  0
VISUALSTYLE
  5
85C2
102
{ACAD_REACTORS
330
85BD
102
}
330
85BD
100
AcDbVisualStyle
  2
Basic
 70
     7
177
     3
291
     1
 70
    58
 90
        1
176
     1
 90
        0
176
     1
 90
        1
176
     1
 90
        0
176
     1
 40
0.6
176
     1
 40
30.0
176
     1
 62
     7
420
 16777215
176
     1
 90
        0
176
     1
 90
        4
176
     1
 62
     7
176
     1
 62
   257
176
     1
 90
        1
176
     1
 90
        1
176
     1
 40
1.0
176
     1
 90
        8
176
     1
 62
     7
176
     1
 40
1.0
176
     1
 90
        1
176
     1
 90
        6
176
     1
 90
        2
176
     1
 62
     7
176
     1
 90
        5
176
     1
 90
        0
176
     1
 90
        0
176
     1
290
     0
176
     1
 90
        1
176
     1
 40
0.0
176
     1
 90
        0
176
     1
290
     0
176
     1
290
     1
176
     1
290
     1
176
     1
290
     0
176
     1
290
     0
176
     1
290
     0
176
     1
290
     0
176
     1
290
     0
176
     1
290
     0
176
     1
 90
       50
176
     1
 40
0.0
176
     1
 40
1.0
176
     1
 90
        0
176
     1
 62
    18
420
        0
176
     1
 90
       50
176
     1
 90
        3
176
     1
 62
     5
420
      255
176
     1
290
     0
176
     1
 90
       50
176
     1
 90
       50
176
     1
 90
       50
176
     1
290
     0
176
     1
 90
       50
176
     1
 62
   256
176
     0
 40
1.0
176
     0
 90
        2
176
     1
  1
strokes_ogs.tif
176
     1
290
     0
176
     1
 40
1.0
176
     1
 40
1.0
176
     1
1001
ACAD
1000
AcDbSavedByObjectVersion
1070
     0
  0
VISUALSTYLE
  5
85C9
102
{ACAD_REACTORS
330
85BD
102
}
330
85BD
100
AcDbVisualStyle
  2
Brighten
 70
    12
177
     3
291
     1
 70
    58
 90
        2
176
     1
 90
        2
176
     1
 90
        0
176
     1
 90
        0
176
     1
 40
0.6
176
     1
 40
30.0
176
     1
 62
     7
420
 16777215
176
     1
 90
        1
176
     1
 90
        4
176
     1
 62
     7
176
     1
 62
   257
176
     1
 90
        1
176
     1
 90
        1
176
     1
 40
1.0
176
     1
 90
        8
176
     1
 62
     7
176
     1
 40
1.0
176
     1
 90
        1
176
     1
 90
        6
176
     1
 90
        2
176
     1
 62
     7
176
     1
 90
        5
176
     1
 90
        0
176
     1
 90
        0
176
     1
290
     0
176
     1
 90
        1
176
     1
 40
50.0
176
     1
 90
        0
176
     1
290
     0
176
     1
290
     1
176
     1
290
     1
176
     1
290
     0
176
     1
290
     0
176
     1
290
     0
176
     1
290
     0
176
     1
290
     0
176
     1
290
     0
176
     1
 90
       50
176
     1
 40
0.0
176
     1
 40
1.0
176
     1
 90
        0
176
     1
 62
    18
420
        0
176
     1
 90
       50
176
     1
 90
        3
176
     1
 62
     5
420
      255
176
     1
290
     0
176
     1
 90
       50
176
     1
 90
       50
176
     1
 90
       50
176
     1
290
     0
176
     1
 90
       50
176
     1
 62
   256
176
     0
 40
1.0
176
     0
 90
        2
176
     1
  1
strokes_ogs.tif
176
     1
290
     0
176
     1
 40
1.0
176
     1
 40
1.0
176
     1
1001
ACAD
1000
AcDbSavedByObjectVersion
1070
     0
  0
VISUALSTYLE
  5
85CD
102
{ACAD_REACTORS
330
85BD
102
}
330
85BD
100
AcDbVisualStyle
  2
ColorChange
 70
    16
177
     3
291
     1
 70
    58
 90
        2
176
     1
 90
        2
176
     1
 90
        3
176
     1
 90
        0
176
     1
 40
0.6
176
     1
 40
30.0
176
     1
 62
     8
420
  8421504
176
     1
 90
        1
176
     1
 90
        4
176
     1
 62
     7
176
     1
 62
   257
176
     1
 90
        1
176
     1
 90
        1
176
     1
 40
1.0
176
     1
 90
        8
176
     1
 62
     8
420
  8421504
176
     1
 40
1.0
176
     1
 90
        1
176
     1
 90
        6
176
     1
 90
        2
176
     1
 62
     7
176
     1
 90
        5
176
     1
 90
        0
176
     1
 90
        0
176
     1
290
     0
176
     1
 90
        1
176
     1
 40
0.0
176
     1
 90
        0
176
     1
290
     0
176
     1
290
     1
176
     1
290
     1
176
     1
290
     0
176
     1
290
     0
176
     1
290
     0
176
     1
290
     0
176
     1
290
     0
176
     1
290
     0
176
     1
 90
       50
176
     1
 40
0.0
176
     1
 40
1.0
176
     1
 90
        0
176
     1
 62
    18
420
        0
176
     1
 90
       50
176
     1
 90
        3
176
     1
 62
     5
420
      255
176
     1
290
     0
176
     1
 90
       50
176
     1
 90
       50
176
     1
 90
       50
176
     1
290
     0
176
     1
 90
       50
176
     1
 62
   256
176
     0
 40
1.0
176
     0
 90
        2
176
     1
  1
strokes_ogs.tif
176
     1
290
     0
176
     1
 40
1.0
176
     1
 40
1.0
176
     1
1001
ACAD
1000
AcDbSavedByObjectVersion
1070
     0
  0
VISUALSTYLE
  5
85C6
102
{ACAD_REACTORS
330
85BD
102
}
330
85BD
100
AcDbVisualStyle
  2
Conceptual
 70
     9
177
     3
291
     0
 70
    58
 90
        3
176
     1
 90
        2
176
     1
 90
        0
176
     1
 90
        0
176
     1
 40
0.6
176
     1
 40
30.0
176
     1
 62
     7
420
 16777215
176
     1
 90
        2
176
     1
 90
        2
176
     1
 62
     7
176
     1
 62
   257
176
     1
 90
        1
176
     1
 90
        1
176
     1
 40
179.0
176
     1
 90
        8
176
     1
 62
     7
176
     1
 40
1.0
176
     1
 90
        1
176
     1
 90
        6
176
     1
 90
        2
176
     1
 62
     7
176
     1
 90
        3
176
     1
 90
        0
176
     1
 90
        0
176
     1
290
     0
176
     1
 90
        1
176
     1
 40
0.0
176
     1
 90
        0
176
     1
290
     0
176
     1
290
     1
176
     1
290
     1
176
     1
290
     0
176
     1
290
     0
176
     1
290
     0
176
     1
290
     0
176
     1
290
     0
176
     1
290
     0
176
     1
 90
       50
176
     1
 40
0.0
176
     1
 40
1.0
176
     1
 90
        0
176
     1
 62
    18
420
        0
176
     1
 90
       50
176
     1
 90
        3
176
     1
 62
     5
420
      255
176
     1
290
     0
176
     1
 90
       50
176
     1
 90
       50
176
     1
 90
       50
176
     1
290
     0
176
     1
 90
       50
176
     1
 62
   256
176
     0
 40
1.0
176
     0
 90
        2
176
     1
  1
strokes_ogs.tif
176
     1
290
     0
176
     1
 40
1.0
176
     1
 40
1.0
176
     1
1001
ACAD
1000
AcDbSavedByObjectVersion
1070
     0
  0
VISUALSTYLE
  5
85C8
102
{ACAD_REACTORS
330
85BD
102
}
330
85BD
100
AcDbVisualStyle
  2
Dim
 70
    11
177
     3
291
     1
 70
    58
 90
        2
176
     1
 90
        2
176
     1
 90
        0
176
     1
 90
        0
176
     1
 40
0.6
176
     1
 40
30.0
176
     1
 62
     7
420
 16777215
176
     1
 90
        1
176
     1
 90
        4
176
     1
 62
     7
176
     1
 62
   257
176
     1
 90
        1
176
     1
 90
        1
176
     1
 40
1.0
176
     1
 90
        8
176
     1
 62
     7
176
     1
 40
1.0
176
     1
 90
        1
176
     1
 90
        6
176
     1
 90
        2
176
     1
 62
     7
176
     1
 90
        5
176
     1
 90
        0
176
     1
 90
        0
176
     1
290
     0
176
     1
 90
        1
176
     1
 40
-50.0
176
     1
 90
        0
176
     1
290
     0
176
     1
290
     1
176
     1
290
     1
176
     1
290
     0
176
     1
290
     0
176
     1
290
     0
176
     1
290
     0
176
     1
290
     0
176
     1
290
     0
176
     1
 90
       50
176
     1
 40
0.0
176
     1
 40
1.0
176
     1
 90
        0
176
     1
 62
    18
420
        0
176
     1
 90
       50
176
     1
 90
        3
176
     1
 62
     5
420
      255
176
     1
290
     0
176
     1
 90
       50
176
     1
 90
       50
176
     1
 90
       50
176
     1
290
     0
176
     1
 90
       50
176
     1
 62
   256
176
     0
 40
1.0
176
     0
 90
        2
176
     1
  1
strokes_ogs.tif
176
     1
290
     0
176
     1
 40
1.0
176
     1
 40
1.0
176
     1
1001
ACAD
1000
AcDbSavedByObjectVersion
1070
     0
  0
VISUALSTYLE
  5
85D5
102
{ACAD_REACTORS
330
85BD
102
}
330
85BD
100
AcDbVisualStyle
  2
EdgeColorOff
 70
    22
177
     3
291
     1
 70
    58
 90
        2
176
     0
 90
        2
176
     0
 90
        0
176
     0
 90
        0
176
     0
 40
0.6
176
     0
 40
30.0
176
     0
 62
     7
420
 16777215
176
     0
 90
        1
176
     0
 90
        4
176
     0
 62
     7
176
     0
 62
   257
176
     0
 90
        1
176
     0
 90
        1
176
     0
 40
1.0
176
     0
 90
        8
176
     2
 62
     7
176
     0
 40
1.0
176
     0
 90
        1
176
     0
 90
        6
176
     0
 90
        2
176
     0
 62
     7
176
     0
 90
        5
176
     0
 90
        0
176
     0
 90
        0
176
     0
290
     0
176
     0
 90
        1
176
     0
 40
0.0
176
     0
 90
        0
176
     0
290
     0
176
     0
290
     1
176
     0
290
     1
176
     0
290
     0
176
     0
290
     0
176
     0
290
     0
176
     0
290
     0
176
     0
290
     0
176
     0
290
     0
176
     0
 90
       50
176
     0
 40
0.0
176
     0
 40
1.0
176
     0
 90
        0
176
     0
 62
    18
420
        0
176
     0
 90
       50
176
     0
 90
        3
176
     0
 62
     5
420
      255
176
     0
290
     0
176
     0
 90
       50
176
     0
 90
       50
176
     0
 90
       50
176
     0
290
     0
176
     0
 90
       50
176
     0
 62
   256
176
     0
 40
1.0
176
     0
 90
        2
176
     0
  1
strokes_ogs.tif
176
     0
290
     0
176
     0
 40
1.0
176
     0
 40
1.0
176
     0
1001
ACAD
1000
AcDbSavedByObjectVersion
1070
     0
  0
VISUALSTYLE
  5
85CC
102
{ACAD_REACTORS
330
85BD
102
}
330
85BD
100
AcDbVisualStyle
  2
Facepattern
 70
    15
177
     3
291
     1
 70
    58
 90
        2
176
     1
 90
        2
176
     1
 90
        0
176
     1
 90
        0
176
     1
 40
0.6
176
     1
 40
30.0
176
     1
 62
     7
420
 16777215
176
     1
 90
        1
176
     1
 90
        4
176
     1
 62
     7
176
     1
 62
   257
176
     1
 90
        1
176
     1
 90
        1
176
     1
 40
1.0
176
     1
 90
        8
176
     1
 62
     7
176
     1
 40
1.0
176
     1
 90
        1
176
     1
 90
        6
176
     1
 90
        2
176
     1
 62
     7
176
     1
 90
        5
176
     1
 90
        0
176
     1
 90
        0
176
     1
290
     0
176
     1
 90
        1
176
     1
 40
0.0
176
     1
 90
        0
176
     1
290
     0
176
     1
290
     1
176
     1
290
     1
176
     1
290
     0
176
     1
290
     0
176
     1
290
     0
176
     1
290
     0
176
     1
290
     0
176
     1
290
     0
176
     1
 90
       50
176
     1
 40
0.0
176
     1
 40
1.0
176
     1
 90
        0
176
     1
 62
    18
420
        0
176
     1
 90
       50
176
     1
 90
        3
176
     1
 62
     5
420
      255
176
     1
290
     0
176
     1
 90
       50
176
     1
 90
       50
176
     1
 90
       50
176
     1
290
     0
176
     1
 90
       50
176
     1
 62
   256
176
     0
 40
1.0
176
     0
 90
        2
176
     1
  1
strokes_ogs.tif
176
     1
290
     0
176
     1
 40
1.0
176
     1
 40
1.0
176
     1
1001
ACAD
1000
AcDbSavedByObjectVersion
1070
     0
  0
VISUALSTYLE
  5
85BE
102
{ACAD_REACTORS
330
85BD
102
}
330
85BD
100
AcDbVisualStyle
  2
Flat
 70
     0
177
     3
291
     1
 70
    58
 90
        2
176
     1
 90
        1
176
     1
 90
        1
176
     1
 90
        2
176
     1
 40
0.6
176
     1
 40
30.0
176
     1
 62
     7
420
 16777215
176
     1
 90
        0
176
     1
 90
        0
176
     1
 62
     7
176
     1
 62
   257
176
     1
 90
        1
176
     1
 90
        1
176
     1
 40
1.0
176
     1
 90
        8
176
     1
 62
     7
176
     1
 40
1.0
176
     1
 90
        1
176
     1
 90
        6
176
     1
 90
        2
176
     1
 62
     7
176
     1
 90
        5
176
     1
 90
        0
176
     1
 90
        0
176
     1
290
     0
176
     1
 90
       13
176
     1
 40
0.0
176
     1
 90
        0
176
     1
290
     0
176
     1
290
     1
176
     1
290
     1
176
     1
290
     0
176
     1
290
     0
176
     1
290
     0
176
     1
290
     0
176
     1
290
     0
176
     1
290
     0
176
     1
 90
       50
176
     1
 40
0.0
176
     1
 40
1.0
176
     1
 90
        0
176
     1
 62
    18
420
        0
176
     1
 90
       50
176
     1
 90
        3
176
     1
 62
     5
420
      255
176
     1
290
     0
176
     1
 90
       50
176
     1
 90
       50
176
     1
 90
       50
176
     1
290
     0
176
     1
 90
       50
176
     1
 62
   256
176
     0
 40
1.0
176
     0
 90
        2
176
     1
  1
strokes_ogs.tif
176
     1
290
     0
176
     1
 40
1.0
176
     1
 40
1.0
176
     1
1001
ACAD
1000
AcDbSavedByObjectVersion
1070
     0
  0
VISUALSTYLE
  5
85BF
102
{ACAD_REACTORS
330
85BD
102
}
330
85BD
100
AcDbVisualStyle
  2
FlatWithEdges
 70
     1
177
     3
291
     1
 70
    58
 90
        2
176
     1
 90
        1
176
     1
 90
        1
176
     1
 90
        2
176
     1
 40
0.6
176
     1
 40
30.0
176
     1
 62
     7
420
 16777215
176
     1
 90
        1
176
     1
 90
        0
176
     1
 62
     7
176
     1
 62
   257
176
     1
 90
        1
176
     1
 90
        1
176
     1
 40
1.0
176
     1
 90
        0
176
     1
 62
   257
176
     1
 40
1.0
176
     1
 90
        1
176
     1
 90
        6
176
     1
 90
        2
176
     1
 62
     7
176
     1
 90
        5
176
     1
 90
        0
176
     1
 90
        0
176
     1
290
     0
176
     1
 90
       13
176
     1
 40
0.0
176
     1
 90
        0
176
     1
290
     0
176
     1
290
     1
176
     1
290
     1
176
     1
290
     0
176
     1
290
     0
176
     1
290
     0
176
     1
290
     0
176
     1
290
     0
176
     1
290
     0
176
     1
 90
       50
176
     1
 40
0.0
176
     1
 40
1.0
176
     1
 90
        0
176
     1
 62
    18
420
        0
176
     1
 90
       50
176
     1
 90
        3
176
     1
 62
     5
420
      255
176
     1
290
     0
176
     1
 90
       50
176
     1
 90
       50
176
     1
 90
       50
176
     1
290
     0
176
     1
 90
       50
176
     1
 62
   256
176
     0
 40
1.0
176
     0
 90
        2
176
     1
  1
strokes_ogs.tif
176
     1
290
     0
176
     1
 40
1.0
176
     1
 40
1.0
176
     1
1001
ACAD
1000
AcDbSavedByObjectVersion
1070
     0
  0
VISUALSTYLE
  5
85C0
102
{ACAD_REACTORS
330
85BD
102
}
330
85BD
100
AcDbVisualStyle
  2
Gouraud
 70
     2
177
     3
291
     1
 70
    58
 90
        2
176
     1
 90
        2
176
     1
 90
        1
176
     1
 90
        2
176
     1
 40
0.6
176
     1
 40
30.0
176
     1
 62
     7
420
 16777215
176
     1
 90
        0
176
     1
 90
        0
176
     1
 62
     7
176
     1
 62
   257
176
     1
 90
        1
176
     1
 90
        1
176
     1
 40
1.0
176
     1
 90
        0
176
     1
 62
     7
176
     1
 40
1.0
176
     1
 90
        1
176
     1
 90
        6
176
     1
 90
        2
176
     1
 62
     7
176
     1
 90
        5
176
     1
 90
        0
176
     1
 90
        0
176
     1
290
     0
176
     1
 90
       13
176
     1
 40
0.0
176
     1
 90
        0
176
     1
290
     0
176
     1
290
     1
176
     1
290
     1
176
     1
290
     0
176
     1
290
     0
176
     1
290
     0
176
     1
290
     0
176
     1
290
     0
176
     1
290
     0
176
     1
 90
       50
176
     1
 40
0.0
176
     1
 40
1.0
176
     1
 90
        0
176
     1
 62
    18
420
        0
176
     1
 90
       50
176
     1
 90
        3
176
     1
 62
     5
420
      255
176
     1
290
     0
176
     1
 90
       50
176
     1
 90
       50
176
     1
 90
       50
176
     1
290
     0
176
     1
 90
       50
176
     1
 62
   256
176
     0
 40
1.0
176
     0
 90
        2
176
     1
  1
strokes_ogs.tif
176
     1
290
     0
176
     1
 40
1.0
176
     1
 40
1.0
176
     1
1001
ACAD
1000
AcDbSavedByObjectVersion
1070
     0
  0
VISUALSTYLE
  5
85C1
102
{ACAD_REACTORS
330
85BD
102
}
330
85BD
100
AcDbVisualStyle
  2
GouraudWithEdges
 70
     3
177
     3
291
     1
 70
    58
 90
        2
176
     1
 90
        2
176
     1
 90
        1
176
     1
 90
        2
176
     1
 40
0.6
176
     1
 40
30.0
176
     1
 62
     7
420
 16777215
176
     1
 90
        1
176
     1
 90
        0
176
     1
 62
     7
176
     1
 62
   257
176
     1
 90
        1
176
     1
 90
        1
176
     1
 40
1.0
176
     1
 90
        0
176
     1
 62
   257
176
     1
 40
1.0
176
     1
 90
        1
176
     1
 90
        6
176
     1
 90
        2
176
     1
 62
     7
176
     1
 90
        5
176
     1
 90
        0
176
     1
 90
        0
176
     1
290
     0
176
     1
 90
       13
176
     1
 40
0.0
176
     1
 90
        0
176
     1
290
     0
176
     1
290
     1
176
     1
290
     1
176
     1
290
     0
176
     1
290
     0
176
     1
290
     0
176
     1
290
     0
176
     1
290
     0
176
     1
290
     0
176
     1
 90
       50
176
     1
 40
0.0
176
     1
 40
1.0
176
     1
 90
        0
176
     1
 62
    18
420
        0
176
     1
 90
       50
176
     1
 90
        3
176
     1
 62
     5
420
      255
176
     1
290
     0
176
     1
 90
       50
176
     1
 90
       50
176
     1
 90
       50
176
     1
290
     0
176
     1
 90
       50
176
     1
 62
   256
176
     0
 40
1.0
176
     0
 90
        2
176
     1
  1
strokes_ogs.tif
176
     1
290
     0
176
     1
 40
1.0
176
     1
 40
1.0
176
     1
1001
ACAD
1000
AcDbSavedByObjectVersion
1070
     0
  0
VISUALSTYLE
  5
85C5
102
{ACAD_REACTORS
330
85BD
102
}
330
85BD
100
AcDbVisualStyle
  2
Hidden
 70
     6
177
     3
291
     0
 70
    58
 90
        1
176
     1
 90
        2
176
     1
 90
        2
176
     1
 90
        0
176
     1
 40
0.6
176
     1
 40
30.0
176
     1
 62
     7
420
 16777215
176
     1
 90
        2
176
     1
 90
        2
176
     1
 62
     7
176
     1
 62
   257
176
     1
 90
        2
176
     1
 90
        1
176
     1
 40
40.0
176
     1
 90
        0
176
     1
 62
   257
176
     1
 40
1.0
176
     1
 90
        1
176
     1
 90
        6
176
     1
 90
        2
176
     1
 62
     7
176
     1
 90
        3
176
     1
 90
        0
176
     1
 90
        0
176
     1
290
     0
176
     1
 90
        1
176
     1
 40
0.0
176
     1
 90
        0
176
     1
290
     0
176
     1
290
     1
176
     1
290
     1
176
     1
290
     0
176
     1
290
     0
176
     1
290
     0
176
     1
290
     0
176
     1
290
     0
176
     1
290
     0
176
     1
 90
       50
176
     1
 40
0.0
176
     1
 40
1.0
176
     1
 90
        0
176
     1
 62
    18
420
        0
176
     1
 90
       50
176
     1
 90
        3
176
     1
 62
     5
420
      255
176
     1
290
     0
176
     1
 90
       50
176
     1
 90
       50
176
     1
 90
       50
176
     1
290
     0
176
     1
 90
       50
176
     1
 62
   256
176
     0
 40
1.0
176
     0
 90
        2
176
     1
  1
strokes_ogs.tif
176
     1
290
     0
176
     1
 40
1.0
176
     1
 40
1.0
176
     1
1001
ACAD
1000
AcDbSavedByObjectVersion
1070
     0
  0
VISUALSTYLE
  5
85D3
102
{ACAD_REACTORS
330
85BD
102
}
330
85BD
100
AcDbVisualStyle
  2
JitterOff
 70
    20
177
     3
291
     1
 70
    58
 90
        2
176
     0
 90
        2
176
     0
 90
        0
176
     0
 90
        0
176
     0
 40
0.6
176
     0
 40
30.0
176
     0
 62
     7
420
 16777215
176
     0
 90
        1
176
     0
 90
        4
176
     0
 62
     7
176
     0
 62
   257
176
     0
 90
        1
176
     0
 90
        1
176
     0
 40
1.0
176
     0
 90
       10
176
     2
 62
     7
176
     0
 40
1.0
176
     0
 90
        1
176
     0
 90
        6
176
     0
 90
        2
176
     0
 62
     7
176
     0
 90
        5
176
     0
 90
        0
176
     0
 90
        0
176
     0
290
     0
176
     0
 90
        1
176
     0
 40
0.0
176
     0
 90
        0
176
     0
290
     0
176
     0
290
     1
176
     0
290
     1
176
     0
290
     0
176
     0
290
     0
176
     0
290
     0
176
     0
290
     0
176
     0
290
     0
176
     0
290
     0
176
     0
 90
       50
176
     0
 40
0.0
176
     0
 40
1.0
176
     0
 90
        0
176
     0
 62
    18
420
        0
176
     0
 90
       50
176
     0
 90
        3
176
     0
 62
     5
420
      255
176
     0
290
     0
176
     0
 90
       50
176
     0
 90
       50
176
     0
 90
       50
176
     0
290
     0
176
     0
 90
       50
176
     0
 62
   256
176
     0
 40
1.0
176
     0
 90
        2
176
     0
  1
strokes_ogs.tif
176
     0
290
     0
176
     0
 40
1.0
176
     0
 40
1.0
176
     0
1001
ACAD
1000
AcDbSavedByObjectVersion
1070
     0
  0
VISUALSTYLE
  5
85CB
102
{ACAD_REACTORS
330
85BD
102
}
330
85BD
100
AcDbVisualStyle
  2
Linepattern
 70
    14
177
     3
291
     1
 70
    58
 90
        2
176
     1
 90
        2
176
     1
 90
        0
176
     1
 90
        0
176
     1
 40
0.6
176
     1
 40
30.0
176
     1
 62
     7
420
 16777215
176
     1
 90
        1
176
     1
 90
        4
176
     1
 62
     7
176
     1
 62
   257
176
     1
 90
        7
176
     1
 90
        7
176
     1
 40
1.0
176
     1
 90
        8
176
     1
 62
     7
176
     1
 40
1.0
176
     1
 90
        1
176
     1
 90
        6
176
     1
 90
        2
176
     1
 62
     7
176
     1
 90
        5
176
     1
 90
        0
176
     1
 90
        0
176
     1
290
     0
176
     1
 90
        1
176
     1
 40
0.0
176
     1
 90
        0
176
     1
290
     0
176
     1
290
     1
176
     1
290
     1
176
     1
290
     0
176
     1
290
     0
176
     1
290
     0
176
     1
290
     0
176
     1
290
     0
176
     1
290
     0
176
     1
 90
       50
176
     1
 40
0.0
176
     1
 40
1.0
176
     1
 90
        0
176
     1
 62
    18
420
        0
176
     1
 90
       50
176
     1
 90
        3
176
     1
 62
     5
420
      255
176
     1
290
     0
176
     1
 90
       50
176
     1
 90
       50
176
     1
 90
       50
176
     1
290
     0
176
     1
 90
       50
176
     1
 62
   256
176
     0
 40
1.0
176
     0
 90
        2
176
     1
  1
strokes_ogs.tif
176
     1
290
     0
176
     1
 40
1.0
176
     1
 40
1.0
176
     1
1001
ACAD
1000
AcDbSavedByObjectVersion
1070
     0
  0
VISUALSTYLE
  5
85D4
102
{ACAD_REACTORS
330
85BD
102
}
330
85BD
100
AcDbVisualStyle
  2
OverhangOff
 70
    21
177
     3
291
     1
 70
    58
 90
        2
176
     0
 90
        2
176
     0
 90
        0
176
     0
 90
        0
176
     0
 40
0.6
176
     0
 40
30.0
176
     0
 62
     7
420
 16777215
176
     0
 90
        1
176
     0
 90
        4
176
     0
 62
     7
176
     0
 62
   257
176
     0
 90
        1
176
     0
 90
        1
176
     0
 40
1.0
176
     0
 90
        9
176
     2
 62
     7
176
     0
 40
1.0
176
     0
 90
        1
176
     0
 90
        6
176
     0
 90
        2
176
     0
 62
     7
176
     0
 90
        5
176
     0
 90
        0
176
     0
 90
        0
176
     0
290
     0
176
     0
 90
        1
176
     0
 40
0.0
176
     0
 90
        0
176
     0
290
     0
176
     0
290
     1
176
     0
290
     1
176
     0
290
     0
176
     0
290
     0
176
     0
290
     0
176
     0
290
     0
176
     0
290
     0
176
     0
290
     0
176
     0
 90
       50
176
     0
 40
0.0
176
     0
 40
1.0
176
     0
 90
        0
176
     0
 62
    18
420
        0
176
     0
 90
       50
176
     0
 90
        3
176
     0
 62
     5
420
      255
176
     0
290
     0
176
     0
 90
       50
176
     0
 90
       50
176
     0
 90
       50
176
     0
290
     0
176
     0
 90
       50
176
     0
 62
   256
176
     0
 40
1.0
176
     0
 90
        2
176
     0
  1
strokes_ogs.tif
176
     0
290
     0
176
     0
 40
1.0
176
     0
 40
1.0
176
     0
1001
ACAD
1000
AcDbSavedByObjectVersion
1070
     0
  0
VISUALSTYLE
  5
85C7
102
{ACAD_REACTORS
330
85BD
102
}
330
85BD
100
AcDbVisualStyle
  2
Realistic
 70
     8
177
     3
291
     0
 70
    58
 90
        2
176
     1
 90
        3
176
     1
 90
        0
176
     1
 90
        2
176
     1
 40
0.6
176
     1
 40
30.0
176
     1
 62
     7
420
 16777215
176
     1
 90
        0
176
     1
 90
        0
176
     1
 62
     7
176
     1
 62
   257
176
     1
 90
        1
176
     1
 90
        1
176
     1
 40
1.0
176
     1
 90
        8
176
     1
 62
   257
176
     1
 40
1.0
176
     1
 90
        1
176
     1
 90
        6
176
     1
 90
        2
176
     1
 62
     7
176
     1
 90
        3
176
     1
 90
        0
176
     1
 90
        0
176
     1
290
     0
176
     1
 90
       13
176
     1
 40
0.0
176
     1
 90
        0
176
     1
290
     0
176
     1
290
     1
176
     1
290
     1
176
     1
290
     0
176
     1
290
     0
176
     1
290
     0
176
     1
290
     0
176
     1
290
     0
176
     1
290
     0
176
     1
 90
       50
176
     1
 40
0.0
176
     1
 40
1.0
176
     1
 90
        0
176
     1
 62
    18
420
        0
176
     1
 90
       50
176
     1
 90
        3
176
     1
 62
     5
420
      255
176
     1
290
     0
176
     1
 90
       50
176
     1
 90
       50
176
     1
 90
       50
176
     1
290
     0
176
     1
 90
       50
176
     1
 62
   256
176
     0
 40
1.0
176
     0
 90
        2
176
     1
  1
strokes_ogs.tif
176
     1
290
     0
176
     1
 40
1.0
176
     1
 40
1.0
176
     1
1001
ACAD
1000
AcDbSavedByObjectVersion
1070
     0
  0
VISUALSTYLE
  5
85D2
102
{ACAD_REACTORS
330
85BD
102
}
330
85BD
100
AcDbVisualStyle
  2
Shaded
 70
    27
177
     3
291
     0
 70
    58
 90
        2
176
     1
 90
        2
176
     1
 90
        1
176
     1
 90
        2
176
     1
 40
0.6
176
     1
 40
30.0
176
     1
 62
     7
420
 16777215
176
     1
 90
        0
176
     1
 90
        4
176
     1
 62
     7
176
     1
 62
   257
176
     1
 90
        1
176
     1
 90
        1
176
     1
 40
1.0
176
     1
 90
        8
176
     1
 62
   257
176
     1
 40
1.0
176
     1
 90
        1
176
     1
 90
        6
176
     1
 90
        2
176
     1
 62
     8
420
  7895160
176
     1
 90
        3
176
     1
 90
        0
176
     1
 90
        0
176
     1
290
     0
176
     1
 90
        5
176
     1
 40
0.0
176
     1
 90
        0
176
     1
290
     0
176
     1
290
     1
176
     1
290
     1
176
     1
290
     0
176
     1
290
     0
176
     1
290
     0
176
     1
290
     0
176
     1
290
     0
176
     1
290
     0
176
     1
 90
       50
176
     1
 40
0.0
176
     1
 40
1.0
176
     1
 90
        0
176
     1
 62
    18
420
        0
176
     1
 90
       50
176
     1
 90
        3
176
     1
 62
     5
420
      255
176
     1
290
     0
176
     1
 90
       50
176
     1
 90
       50
176
     1
 90
       50
176
     1
290
     0
176
     1
 90
       50
176
     1
 62
   256
176
     0
 40
1.0
176
     0
 90
        2
176
     1
  1
strokes_ogs.tif
176
     1
290
     0
176
     1
 40
1.0
176
     1
 40
1.0
176
     1
1001
ACAD
1000
AcDbSavedByObjectVersion
1070
     0
  0
VISUALSTYLE
  5
85D1
102
{ACAD_REACTORS
330
85BD
102
}
330
85BD
100
AcDbVisualStyle
  2
Shaded with edges
 70
    26
177
     3
291
     0
 70
    58
 90
        2
176
     1
 90
        2
176
     1
 90
        1
176
     1
 90
        2
176
     1
 40
0.6
176
     1
 40
30.0
176
     1
 62
     7
420
 16777215
176
     1
 90
        1
176
     1
 90
        2
176
     1
 62
     7
176
     1
 62
   257
176
     1
 90
        2
176
     1
 90
        1
176
     1
 40
1.0
176
     1
 90
        8
176
     1
 62
   257
176
     1
 40
1.0
176
     1
 90
        1
176
     1
 90
        6
176
     1
 90
        2
176
     1
 62
     7
176
     1
 90
        3
176
     1
 90
        0
176
     1
 90
        0
176
     1
290
     0
176
     1
 90
        5
176
     1
 40
0.0
176
     1
 90
        0
176
     1
290
     0
176
     1
290
     1
176
     1
290
     1
176
     1
290
     0
176
     1
290
     0
176
     1
290
     0
176
     1
290
     0
176
     1
290
     0
176
     1
290
     0
176
     1
 90
       50
176
     1
 40
0.0
176
     1
 40
1.0
176
     1
 90
        0
176
     1
 62
    18
420
        0
176
     1
 90
       50
176
     1
 90
        3
176
     1
 62
     5
420
      255
176
     1
290
     0
176
     1
 90
       50
176
     1
 90
       50
176
     1
 90
       50
176
     1
290
     0
176
     1
 90
       50
176
     1
 62
   256
176
     0
 40
1.0
176
     0
 90
        2
176
     1
  1
strokes_ogs.tif
176
     1
290
     0
176
     1
 40
1.0
176
     1
 40
1.0
176
     1
1001
ACAD
1000
AcDbSavedByObjectVersion
1070
     0
  0
VISUALSTYLE
  5
85CE
102
{ACAD_REACTORS
330
85BD
102
}
330
85BD
100
AcDbVisualStyle
  2
Shades of Gray
 70
    23
177
     3
291
     0
 70
    58
 90
        2
176
     1
 90
        2
176
     1
 90
        3
176
     1
 90
        0
176
     1
 40
0.6
176
     1
 40
30.0
176
     1
 62
     7
420
 16777215
176
     1
 90
        2
176
     1
 90
        2
176
     1
 62
     7
176
     1
 62
     7
176
     1
 90
        1
176
     1
 90
        1
176
     1
 40
40.0
176
     1
 90
        8
176
     1
 62
     7
176
     1
 40
1.0
176
     1
 90
        1
176
     1
 90
        6
176
     1
 90
        2
176
     1
 62
     7
176
     1
 90
        3
176
     1
 90
        0
176
     1
 90
        0
176
     1
290
     0
176
     1
 90
        1
176
     1
 40
0.0
176
     1
 90
        0
176
     1
290
     0
176
     1
290
     1
176
     1
290
     1
176
     1
290
     0
176
     1
290
     0
176
     1
290
     0
176
     1
290
     0
176
     1
290
     0
176
     1
290
     0
176
     1
 90
       50
176
     1
 40
0.0
176
     1
 40
1.0
176
     1
 90
        0
176
     1
 62
    18
420
        0
176
     1
 90
       50
176
     1
 90
        3
176
     1
 62
     5
420
      255
176
     1
290
     0
176
     1
 90
       50
176
     1
 90
       50
176
     1
 90
       50
176
     1
290
     0
176
     1
 90
       50
176
     1
 62
   256
176
     0
 40
1.0
176
     0
 90
        2
176
     1
  1
strokes_ogs.tif
176
     1
290
     0
176
     1
 40
1.0
176
     1
 40
1.0
176
     1
1001
ACAD
1000
AcDbSavedByObjectVersion
1070
     0
  0
VISUALSTYLE
  5
85CF
102
{ACAD_REACTORS
330
85BD
102
}
330
85BD
100
AcDbVisualStyle
  2
Sketchy
 70
    24
177
     3
291
     0
 70
    58
 90
        1
176
     1
 90
        2
176
     1
 90
        2
176
     1
 90
        0
176
     1
 40
0.6
176
     1
 40
30.0
176
     1
 62
     7
420
 16777215
176
     1
 90
        2
176
     1
 90
        2
176
     1
 62
     7
176
     1
 62
     7
176
     1
 90
        1
176
     1
 90
        1
176
     1
 40
40.0
176
     1
 90
       11
176
     1
 62
     7
176
     1
 40
1.0
176
     1
 90
        1
176
     1
 90
        6
176
     1
 90
        2
176
     1
 62
     7
176
     1
 90
        6
176
     1
 90
        0
176
     1
 90
        0
176
     1
290
     0
176
     1
 90
        1
176
     1
 40
0.0
176
     1
 90
        0
176
     1
290
     0
176
     1
290
     1
176
     1
290
     1
176
     1
290
     0
176
     1
290
     0
176
     1
290
     0
176
     1
290
     0
176
     1
290
     0
176
     1
290
     0
176
     1
 90
       50
176
     1
 40
0.0
176
     1
 40
1.0
176
     1
 90
        0
176
     1
 62
    18
420
        0
176
     1
 90
       50
176
     1
 90
        3
176
     1
 62
     5
420
      255
176
     1
290
     0
176
     1
 90
       50
176
     1
 90
       50
176
     1
 90
       50
176
     1
290
     0
176
     1
 90
       50
176
     1
 62
   256
176
     0
 40
1.0
176
     0
 90
        2
176
     1
  1
strokes_ogs.tif
176
     1
290
     0
176
     1
 40
1.0
176
     1
 40
1.0
176
     1
1001
ACAD
1000
AcDbSavedByObjectVersion
1070
     0
  0
VISUALSTYLE
  5
85CA
102
{ACAD_REACTORS
330
85BD
102
}
330
85BD
100
AcDbVisualStyle
  2
Thicken
 70
    13
177
     3
291
     1
 70
    58
 90
        2
176
     1
 90
        2
176
     1
 90
        0
176
     1
 90
        0
176
     1
 40
0.6
176
     1
 40
30.0
176
     1
 62
     7
420
 16777215
176
     1
 90
        1
176
     1
 90
        4
176
     1
 62
     7
176
     1
 62
   257
176
     1
 90
        1
176
     1
 90
        1
176
     1
 40
1.0
176
     1
 90
       12
176
     1
 62
     7
176
     1
 40
1.0
176
     1
 90
        1
176
     1
 90
        6
176
     1
 90
        2
176
     1
 62
     7
176
     1
 90
        5
176
     1
 90
        0
176
     1
 90
        0
176
     1
290
     0
176
     1
 90
        1
176
     1
 40
0.0
176
     1
 90
        0
176
     1
290
     0
176
     1
290
     1
176
     1
290
     1
176
     1
290
     0
176
     1
290
     0
176
     1
290
     0
176
     1
290
     0
176
     1
290
     0
176
     1
290
     0
176
     1
 90
       50
176
     1
 40
0.0
176
     1
 40
1.0
176
     1
 90
        0
176
     1
 62
    18
420
        0
176
     1
 90
       50
176
     1
 90
        3
176
     1
 62
     5
420
      255
176
     1
290
     0
176
     1
 90
       50
176
     1
 90
       50
176
     1
 90
       50
176
     1
290
     0
176
     1
 90
       50
176
     1
 62
   256
176
     0
 40
1.0
176
     0
 90
        2
176
     1
  1
strokes_ogs.tif
176
     1
290
     0
176
     1
 40
1.0
176
     1
 40
1.0
176
     1
1001
ACAD
1000
AcDbSavedByObjectVersion
1070
     0
  0
VISUALSTYLE
  5
85C4
102
{ACAD_REACTORS
330
85BD
102
}
330
85BD
100
AcDbVisualStyle
  2
Wireframe
 70
     5
177
     3
291
     0
 70
    58
 90
        0
176
     1
 90
        2
176
     1
 90
        0
176
     1
 90
        0
176
     1
 40
0.6
176
     1
 40
30.0
176
     1
 62
     7
420
 16777215
176
     1
 90
        1
176
     1
 90
        4
176
     1
 62
     7
176
     1
 62
   257
176
     1
 90
        1
176
     1
 90
        1
176
     1
 40
1.0
176
     1
 90
        0
176
     1
 62
   257
176
     1
 40
1.0
176
     1
 90
        1
176
     1
 90
        6
176
     1
 90
        2
176
     1
 62
     7
176
     1
 90
        3
176
     1
 90
        0
176
     1
 90
        0
176
     1
290
     0
176
     1
 90
        1
176
     1
 40
0.0
176
     1
 90
        0
176
     1
290
     0
176
     1
290
     1
176
     1
290
     1
176
     1
290
     0
176
     1
290
     0
176
     1
290
     0
176
     1
290
     0
176
     1
290
     0
176
     1
290
     0
176
     1
 90
       50
176
     1
 40
0.0
176
     1
 40
1.0
176
     1
 90
        0
176
     1
 62
    18
420
        0
176
     1
 90
       50
176
     1
 90
        3
176
     1
 62
     5
420
      255
176
     1
290
     0
176
     1
 90
       50
176
     1
 90
       50
176
     1
 90
       50
176
     1
290
     0
176
     1
 90
       50
176
     1
 62
   256
176
     0
 40
1.0
176
     0
 90
        2
176
     1
  1
strokes_ogs.tif
176
     1
290
     0
176
     1
 40
1.0
176
     1
 40
1.0
176
     1
1001
ACAD
1000
AcDbSavedByObjectVersion
1070
     0
  0
VISUALSTYLE
  5
85D0
102
{ACAD_REACTORS
330
85BD
102
}
330
85BD
100
AcDbVisualStyle
  2
X-Ray
 70
    25
177
     3
291
     0
 70
    58
 90
        2
176
     1
 90
        2
176
     1
 90
        1
176
     1
 90
        1
176
     1
 40
0.5
176
     1
 40
30.0
176
     1
 62
     7
420
 16777215
176
     1
 90
        1
176
     1
 90
        0
176
     1
 62
     7
176
     1
 62
   257
176
     1
 90
        1
176
     1
 90
        1
176
     1
 40
1.0
176
     1
 90
        8
176
     1
 62
     7
176
     1
 40
1.0
176
     1
 90
        1
176
     1
 90
        6
176
     1
 90
        2
176
     1
 62
     7
176
     1
 90
        3
176
     1
 90
        0
176
     1
 90
        0
176
     1
290
     0
176
     1
 90
       13
176
     1
 40
0.0
176
     1
 90
        0
176
     1
290
     0
176
     1
290
     1
176
     1
290
     1
176
     1
290
     0
176
     1
290
     0
176
     1
290
     0
176
     1
290
     0
176
     1
290
     0
176
     1
290
     0
176
     1
 90
       50
176
     1
 40
0.0
176
     1
 40
1.0
176
     1
 90
        0
176
     1
 62
    18
420
        0
176
     1
 90
       50
176
     1
 90
        3
176
     1
 62
     5
420
      255
176
     1
290
     0
176
     1
 90
       50
176
     1
 90
       50
176
     1
 90
       50
176
     1
290
     0
176
     1
 90
       50
176
     1
 62
   256
176
     0
 40
1.0
176
     0
 90
        2
176
     1
  1
strokes_ogs.tif
176
     1
290
     0
176
     1
 40
1.0
176
     1
 40
1.0
176
     1
1001
ACAD
1000
AcDbSavedByObjectVersion
1070
     0
  0
DICTIONARYVAR
  5
8630
102
{ACAD_REACTORS
330
862A
102
}
330
862A
100
DictionaryVariables
280
     0
  1
1:1
  0
DICTIONARYVAR
  5
862C
102
{ACAD_REACTORS
330
862A
102
}
330
862A
100
DictionaryVariables
280
     0
  1
STANDARD
  0
DICTIONARYVAR
  5
862B
102
{ACAD_REACTORS
330
862A
102
}
330
862A
100
DictionaryVariables
280
     0
  1
STANDARD
  0
DICTIONARYVAR
  5
862D
102
{ACAD_REACTORS
330
862A
102
}
330
862A
100
DictionaryVariables
280
     0
  1
Metric50
  0
DICTIONARYVAR
  5
862E
102
{ACAD_REACTORS
330
862A
102
}
330
862A
100
DictionaryVariables
280
     0
  1
Metric50
  0
DICTIONARYVAR
  5
8632
102
{ACAD_REACTORS
330
862A
102
}
330
862A
100
DictionaryVariables
280
     0
  1
1
  0
DICTIONARYVAR
  5
8633
102
{ACAD_REACTORS
330
862A
102
}
330
862A
100
DictionaryVariables
280
     0
  1
15
  0
DICTIONARYVAR
  5
8631
102
{ACAD_REACTORS
330
862A
102
}
330
862A
100
DictionaryVariables
280
     0
  1
0
  0
DICTIONARYVAR
  5
8638
102
{ACAD_REACTORS
330
862A
102
}
330
862A
100
DictionaryVariables
280
     0
  1
0
  0
DICTIONARYVAR
  5
862F
102
{ACAD_REACTORS
330
862A
102
}
330
862A
100
DictionaryVariables
280
     0
  1
0
  0
DICTIONARY
  5
8643
102
{ACAD_REACTORS
330
8641
102
}
330
8641
100
AcDbDictionary
281
     1
  0
DICTIONARY
  5
8642
102
{ACAD_REACTORS
330
8641
102
}
330
8641
100
AcDbDictionary
281
     1
  3
2038807159616
350
863C
  3
2038807159632
350
863D
  3
2038807159648
350
863E
  3
2038807159664
350
863F
  3
2038807159680
350
8640
  0
DICTIONARY
  5
8646
330
85F0
100
AcDbDictionary
280
     1
281
     1
  3
ACAD_XREC_ROUNDTRIP
360
8647
  0
DICTIONARY
  5
85AE
330
85AD
100
AcDbDictionary
280
     1
281
     1
  3
BUMPTILE
360
85B0
  3
DIFFUSETILE
360
85AF
  3
OPACITYTILE
360
85B3
  3
REFLECTIONTILE
360
85B2
  3
REFRACTIONTILE
360
85B4
  3
SPECULARTILE
360
85B1
  0
DICTIONARY
  5
85A6
330
85A5
100
AcDbDictionary
280
     1
281
     1
  3
BUMPTILE
360
85A8
  3
DIFFUSETILE
360
85A7
  3
OPACITYTILE
360
85AB
  3
REFLECTIONTILE
360
85AA
  3
REFRACTIONTILE
360
85AC
  3
SPECULARTILE
360
85A9
  0
DICTIONARY
  5
85B6
330
85B5
100
AcDbDictionary
280
     1
281
     1
  3
BUMPTILE
360
85B8
  3
DIFFUSETILE
360
85B7
  3
OPACITYTILE
360
85BB
  3
REFLECTIONTILE
360
85BA
  3
REFRACTIONTILE
360
85BC
  3
SPECULARTILE
360
85B9
  0
DICTIONARY
  5
8644
330
85EE
100
AcDbDictionary
280
     1
281
     1
  3
ACAD_XREC_ROUNDTRIP
360
8645
  0
DICTIONARY
  5
8639
330
85D8
100
AcDbDictionary
280
     1
281
     1
  3
ACAD_ROUNDTRIP_2008_TABLESTYLE_CELLSTYLEMAP
360
863A
  0
XRECORD
  5
863C
102
{ACAD_REACTORS
330
8642
102
}
330
8642
100
AcDbXrecord
280
     1
  1
AcDb_Thumbnail_Schema
102
{ATTRRECORD
341
863D
  2
AcDbDs::TreatedAsObjectData
280
     1
291
     1
102
ATTRRECORD}
102
{ATTRRECORD
341
863E
  2
AcDbDs::Legacy
280
     1
291
     1
102
ATTRRECORD}
  2
AcDbDs::ID
280
    10
 91
        8
102
{ATTRRECORD
341
863F
  2
AcDs:Indexable
280
     1
291
     1
102
ATTRRECORD}
102
{ATTRRECORD
341
8640
  2
AcDbDs::HandleAttribute
280
     7
282
     1
102
ATTRRECORD}
  2
Thumbnail_Data
280
    15
 91
        0
  0
XRECORD
  5
863D
102
{ACAD_REACTORS
330
8642
102
}
330
8642
100
AcDbXrecord
280
     1
  1
AcDbDs::TreatedAsObjectDataSchema
  2
AcDbDs::TreatedAsObjectData
280
     1
 91
        0
  0
XRECORD
  5
863E
102
{ACAD_REACTORS
330
8642
102
}
330
8642
100
AcDbXrecord
280
     1
  1
AcDbDs::LegacySchema
  2
AcDbDs::Legacy
280
     1
 91
        0
  0
XRECORD
  5
863F
102
{ACAD_REACTORS
330
8642
102
}
330
8642
100
AcDbXrecord
280
     1
  1
AcDbDs::IndexedPropertySchema
  2
AcDs:Indexable
280
     1
 91
        0
  0
XRECORD
  5
8640
102
{ACAD_REACTORS
330
8642
102
}
330
8642
100
AcDbXrecord
280
     1
  1
AcDbDs::HandleAttributeSchema
  2
AcDbDs::HandleAttribute
280
     7
 91
        1
284
     1
  0
XRECORD
  5
8647
102
{ACAD_REACTORS
330
8646
102
}
330
8646
100
AcDbXrecord
280
     1
102
DISPLAYNAME
  1
Metric50
102
FLAGS
 90
        0
  0
XRECORD
  5
85B0
102
{ACAD_REACTORS
330
85AE
102
}
330
85AE
100
AcDbXrecord
280
     1
270
     1
271
     1
  0
XRECORD
  5
85AF
102
{ACAD_REACTORS
330
85AE
102
}
330
85AE
100
AcDbXrecord
280
     1
270
     1
271
     1
  0
XRECORD
  5
85B3
102
{ACAD_REACTORS
330
85AE
102
}
330
85AE
100
AcDbXrecord
280
     1
270
     1
271
     1
  0
XRECORD
  5
85B2
102
{ACAD_REACTORS
330
85AE
102
}
330
85AE
100
AcDbXrecord
280
     1
270
     1
271
     1
  0
XRECORD
  5
85B4
102
{ACAD_REACTORS
330
85AE
102
}
330
85AE
100
AcDbXrecord
280
     1
270
     1
271
     1
  0
XRECORD
  5
85B1
102
{ACAD_REACTORS
330
85AE
102
}
330
85AE
100
AcDbXrecord
280
     1
270
     1
271
     1
  0
XRECORD
  5
85A8
102
{ACAD_REACTORS
330
85A6
102
}
330
85A6
100
AcDbXrecord
280
     1
270
     1
271
     1
  0
XRECORD
  5
85A7
102
{ACAD_REACTORS
330
85A6
102
}
330
85A6
100
AcDbXrecord
280
     1
270
     1
271
     1
  0
XRECORD
  5
85AB
102
{ACAD_REACTORS
330
85A6
102
}
330
85A6
100
AcDbXrecord
280
     1
270
     1
271
     1
  0
XRECORD
  5
85AA
102
{ACAD_REACTORS
330
85A6
102
}
330
85A6
100
AcDbXrecord
280
     1
270
     1
271
     1
  0
XRECORD
  5
85AC
102
{ACAD_REACTORS
330
85A6
102
}
330
85A6
100
AcDbXrecord
280
     1
270
     1
271
     1
  0
XRECORD
  5
85A9
102
{ACAD_REACTORS
330
85A6
102
}
330
85A6
100
AcDbXrecord
280
     1
270
     1
271
     1
  0
XRECORD
  5
85B8
102
{ACAD_REACTORS
330
85B6
102
}
330
85B6
100
AcDbXrecord
280
     1
270
     1
271
     1
  0
XRECORD
  5
85B7
102
{ACAD_REACTORS
330
85B6
102
}
330
85B6
100
AcDbXrecord
280
     1
270
     1
271
     1
  0
XRECORD
  5
85BB
102
{ACAD_REACTORS
330
85B6
102
}
330
85B6
100
AcDbXrecord
280
     1
270
     1
271
     1
  0
XRECORD
  5
85BA
102
{ACAD_REACTORS
330
85B6
102
}
330
85B6
100
AcDbXrecord
280
     1
270
     1
271
     1
  0
XRECORD
  5
85BC
102
{ACAD_REACTORS
330
85B6
102
}
330
85B6
100
AcDbXrecord
280
     1
270
     1
271
     1
  0
XRECORD
  5
85B9
102
{ACAD_REACTORS
330
85B6
102
}
330
85B6
100
AcDbXrecord
280
     1
270
     1
271
     1
  0
XRECORD
  5
8645
102
{ACAD_REACTORS
330
8644
102
}
330
8644
100
AcDbXrecord
280
     1
102
DISPLAYNAME
  1
Metric50
102
FLAGS
 90
        0
  0
CELLSTYLEMAP
  5
863A
102
{ACAD_REACTORS
330
8639
102
}
330
8639
100
AcDbCellStyleMap
 90
        3
300
CELLSTYLE
  1
TABLEFORMAT_BEGIN
 90
        5
170
     1
 91
        0
 92
    32768
 62
   257
 93
        1
300
CONTENTFORMAT
  1
CONTENTFORMAT_BEGIN
 90
        0
 91
        0
 92
      512
 93
        0
300

 40
0.0
140
1.0
 94
        5
 62
     0
340
10
144
6.0
309
CONTENTFORMAT_END
171
     1
301
MARGIN
  1
CELLMARGIN_BEGIN
 40
1.5
 40
1.5
 40
1.5
 40
1.5
 40
4.5
 40
4.5
309
CELLMARGIN_END
 94
        6
 95
        1
302
GRIDFORMAT
  1
GRIDFORMAT_BEGIN
 90
        0
 91
        1
 62
     0
 92
       -2
340
0
 93
        0
 40
1.125
309
GRIDFORMAT_END
 95
        2
302
GRIDFORMAT
  1
GRIDFORMAT_BEGIN
 90
        0
 91
        1
 62
     0
 92
       -2
340
0
 93
        0
 40
1.125
309
GRIDFORMAT_END
 95
        4
302
GRIDFORMAT
  1
GRIDFORMAT_BEGIN
 90
        0
 91
        1
 62
     0
 92
       -2
340
0
 93
        0
 40
1.125
309
GRIDFORMAT_END
 95
        8
302
GRIDFORMAT
  1
GRIDFORMAT_BEGIN
 90
        0
 91
        1
 62
     0
 92
       -2
340
0
 93
        0
 40
1.125
309
GRIDFORMAT_END
 95
       16
302
GRIDFORMAT
  1
GRIDFORMAT_BEGIN
 90
        0
 91
        1
 62
     0
 92
       -2
340
0
 93
        0
 40
1.125
309
GRIDFORMAT_END
 95
       32
302
GRIDFORMAT
  1
GRIDFORMAT_BEGIN
 90
        0
 91
        1
 62
     0
 92
       -2
340
0
 93
        0
 40
1.125
309
GRIDFORMAT_END
309
TABLEFORMAT_END
  1
CELLSTYLE_BEGIN
 90
        1
 91
        1
300
_TITLE
309
CELLSTYLE_END
300
CELLSTYLE
  1
TABLEFORMAT_BEGIN
 90
        5
170
     1
 91
        0
 92
        0
 62
   257
 93
        1
300
CONTENTFORMAT
  1
CONTENTFORMAT_BEGIN
 90
        0
 91
        0
 92
      512
 93
        0
300

 40
0.0
140
1.0
 94
        5
 62
     0
340
10
144
4.5
309
CONTENTFORMAT_END
171
     1
301
MARGIN
  1
CELLMARGIN_BEGIN
 40
1.5
 40
1.5
 40
1.5
 40
1.5
 40
4.5
 40
4.5
309
CELLMARGIN_END
 94
        6
 95
        1
302
GRIDFORMAT
  1
GRIDFORMAT_BEGIN
 90
        0
 91
        1
 62
     0
 92
       -2
340
0
 93
        0
 40
1.125
309
GRIDFORMAT_END
 95
        2
302
GRIDFORMAT
  1
GRIDFORMAT_BEGIN
 90
        0
 91
        1
 62
     0
 92
       -2
340
0
 93
        0
 40
1.125
309
GRIDFORMAT_END
 95
        4
302
GRIDFORMAT
  1
GRIDFORMAT_BEGIN
 90
        0
 91
        1
 62
     0
 92
       -2
340
0
 93
        0
 40
1.125
309
GRIDFORMAT_END
 95
        8
302
GRIDFORMAT
  1
GRIDFORMAT_BEGIN
 90
        0
 91
        1
 62
     0
 92
       -2
340
0
 93
        0
 40
1.125
309
GRIDFORMAT_END
 95
       16
302
GRIDFORMAT
  1
GRIDFORMAT_BEGIN
 90
        0
 91
        1
 62
     0
 92
       -2
340
0
 93
        0
 40
1.125
309
GRIDFORMAT_END
 95
       32
302
GRIDFORMAT
  1
GRIDFORMAT_BEGIN
 90
        0
 91
        1
 62
     0
 92
       -2
340
0
 93
        0
 40
1.125
309
GRIDFORMAT_END
309
TABLEFORMAT_END
  1
CELLSTYLE_BEGIN
 90
        2
 91
        1
300
_HEADER
309
CELLSTYLE_END
300
CELLSTYLE
  1
TABLEFORMAT_BEGIN
 90
        5
170
     1
 91
        0
 92
        0
 62
   257
 93
        1
300
CONTENTFORMAT
  1
CONTENTFORMAT_BEGIN
 90
        0
 91
        0
 92
      512
 93
        0
300

 40
0.0
140
1.0
 94
        2
 62
     0
340
10
144
4.5
309
CONTENTFORMAT_END
171
     1
301
MARGIN
  1
CELLMARGIN_BEGIN
 40
1.5
 40
1.5
 40
1.5
 40
1.5
 40
4.5
 40
4.5
309
CELLMARGIN_END
 94
        6
 95
        1
302
GRIDFORMAT
  1
GRIDFORMAT_BEGIN
 90
        0
 91
        1
 62
     0
 92
       -2
340
0
 93
        0
 40
1.125
309
GRIDFORMAT_END
 95
        2
302
GRIDFORMAT
  1
GRIDFORMAT_BEGIN
 90
        0
 91
        1
 62
     0
 92
       -2
340
0
 93
        0
 40
1.125
309
GRIDFORMAT_END
 95
        4
302
GRIDFORMAT
  1
GRIDFORMAT_BEGIN
 90
        0
 91
        1
 62
     0
 92
       -2
340
0
 93
        0
 40
1.125
309
GRIDFORMAT_END
 95
        8
302
GRIDFORMAT
  1
GRIDFORMAT_BEGIN
 90
        0
 91
        1
 62
     0
 92
       -2
340
0
 93
        0
 40
1.125
309
GRIDFORMAT_END
 95
       16
302
GRIDFORMAT
  1
GRIDFORMAT_BEGIN
 90
        0
 91
        1
 62
     0
 92
       -2
340
0
 93
        0
 40
1.125
309
GRIDFORMAT_END
 95
       32
302
GRIDFORMAT
  1
GRIDFORMAT_BEGIN
 90
        0
 91
        1
 62
     0
 92
       -2
340
0
 93
        0
 40
1.125
309
GRIDFORMAT_END
309
TABLEFORMAT_END
  1
CELLSTYLE_BEGIN
 90
        3
 91
        2
300
_DATA
309
CELLSTYLE_END
  0
ENDSEC
  0
SECTION
  2
ACDSDATA
 70
     2
 71
     8
  0
ACDSSCHEMA
 90
        0
  1
AcDb_Thumbnail_Schema
  2
AcDbDs::ID
280
    10
 91
        8
  2
Thumbnail_Data
280
    15
 91
        0
101
ACDSRECORD
 95
        0
 90
        1
  2
AcDbDs::TreatedAsObjectData
280
     1
291
     1
101
ACDSRECORD
 95
        0
 90
        2
  2
AcDbDs::Legacy
280
     1
291
     1
101
ACDSRECORD
  1
AcDbDs::ID
 90
        3
  2
AcDs:Indexable
280
     1
291
     1
101
ACDSRECORD
  1
AcDbDs::ID
 90
        4
  2
AcDbDs::HandleAttribute
280
     7
282
     1
  0
ACDSSCHEMA
 90
        1
  1
AcDbDs::TreatedAsObjectDataSchema
  2
AcDbDs::TreatedAsObjectData
280
     1
 91
        0
  0
ACDSSCHEMA
 90
        2
  1
AcDbDs::LegacySchema
  2
AcDbDs::Legacy
280
     1
 91
        0
  0
ACDSSCHEMA
 90
        3
  1
AcDbDs::IndexedPropertySchema
  2
AcDs:Indexable
280
     1
 91
        0
  0
ACDSSCHEMA
 90
        4
  1
AcDbDs::HandleAttributeSchema
  2
AcDbDs::HandleAttribute
280
     7
 91
        1
284
     1
  0
ACDSRECORD
 90
        0
  2
AcDbDs::ID
280
    10
320
8546
  2
Thumbnail_Data
280
    15
 94
     1746
310
89504E470D0A1A0A0000000D49484452000001000000007C0803000000B13B9E5A00000300504C5445000000000000C8C8C80000000000000000000000000000000000000000000000000000330000660000990000CC0000FF0033000033330033660033990033CC0033FF0066000066330066660066990066CC0066FF0099
310
000099330099660099990099CC0099FF00CC0000CC3300CC6600CC9900CCCC00CCFF00FF0000FF3300FF6600FF9900FFCC00FFFF3300003300333300663300993300CC3300FF3333003333333333663333993333CC3333FF3366003366333366663366993366CC3366FF3399003399333399663399993399CC3399FF33CC00
310
33CC3333CC6633CC9933CCCC33CCFF33FF0033FF3333FF6633FF9933FFCC33FFFF6600006600336600666600996600CC6600FF6633006633336633666633996633CC6633FF6666006666336666666666996666CC6666FF6699006699336699666699996699CC6699FF66CC0066CC3366CC6666CC9966CCCC66CCFF66FF0066
310
FF3366FF6666FF9966FFCC66FFFF9900009900339900669900999900CC9900FF9933009933339933669933999933CC9933FF9966009966339966669966999966CC9966FF9999009999339999669999999999CC9999FF99CC0099CC3399CC6699CC9999CCCC99CCFF99FF0099FF3399FF6699FF9999FFCC99FFFFCC0000CC00
310
33CC0066CC0099CC00CCCC00FFCC3300CC3333CC3366CC3399CC33CCCC33FFCC6600CC6633CC6666CC6699CC66CCCC66FFCC9900CC9933CC9966CC9999CC99CCCC99FFCCCC00CCCC33CCCC66CCCC99CCCCCCCCCCFFCCFF00CCFF33CCFF66CCFF99CCFFCCCCFFFFFF0000FF0033FF0066FF0099FF00CCFF00FFFF3300FF3333
310
FF3366FF3399FF33CCFF33FFFF6600FF6633FF6666FF6699FF66CCFF66FFFF9900FF9933FF9966FF9999FF99CCFF99FFFFCC00FFCC33FFCC66FFCC99FFCCCCFFCCFFFFFF00FFFF33FFFF66FFFF99FFFFCCFFFFFF0000000D0D0D1A1A1A2828283535354343435050505D5D5D6B6B6B787878868686939393A1A1A1AEAEAEBB
310
BBBBC9C9C9D6D6D6E4E4E4F1F1F1FFFFFF00000000000000000000000000000000000000000000000000000000000008F1915C0000038D4944415478DAED9D5992E3200C86751C5EB8FF65B806EF33368B1608F14C7566A285AE4A3BB1E38A3E4BBF402604E003AD7EA8819656559D3600048000100002C0F77CD243F2F302
310
40BCBDBAF400F700AA6700220A7403F8D111804A005F76B200F01F00743F262E5DD9360C276FC762E4F4172D00806634A0D9D09F0ECDABB5F700EAD8843A1E4D7800BCD2B7EE01CD56F400B2C34A088C4E5EA53171B6AD8608463FC0C860A88E68989DBC0AE71A6735351CDE491FD9E6C735DD27D9D134806E2B1B07A252DA
310
02208D6E06567118903F3B007EEAFD5113B404A0FC6EDE00308B39806730F403383417004E11110002801B00C91F80AE73F9D08C7BC06DDEC66C3C227B00003204024000080001A03F750AE06AE94E07A601B4A14ECA49B63B0FA69B8D03005B0F080001C00380830806800010001C01D88F87FD00184692320082F002E055
310
41C83880F2A02666DB03C8F84F98FB07D7DF0880A52A9C9E0E86038009006B4B4F15C0EAFC80F499D3EA01003E01FCCDFC08ED00CAD233D8EDA47BE451DA01BC9B2051B8D1656C173B1E302FE81201E544C88C0734BBCB20C12609C1728BBC2C1BF642E00080EC361402420CF700164AAA01EC833A1F01C8A913BA3DA0A061
310
BD1A925A97F82500513ACBA60090E1707E0A00D5422700ECD674FB130C02CF3DC00C005A015A01F0EA884100CDF0A9015900C8BD666419401781A686B002689E2101E8D60022820D40D30031397002C0EA8819003DF7A792EEFACF3D33E2DE4CA41254DA0C8AFB55318B2219F0803214E0BAC80972578132BA05470FC873D4
310
A010C07DED0800A601530B18805503B219004D0412317EE644CC02F2664946B9540BA00C00330CF24879FD29C902531752C67E917A00D7FF71D1FBBC380C880C760190E120A04B0F07E849E17ABCB2406A59009B99B10003D0C40D432101F380BCF500D00DE0EE0C70003D0FC088883721A01F004800530BF31C191BF5009A
310
0627802C53DE210D9A0220333C3356DE35054300DECD0F998E7F9C3CA27C34084204598F571CC3C45235005E0C6EE1BE991F3047C6646759BE5167E48B93E5B04FD648F84BFA01F0FB416C9BD606C7BD52715FC4C5D7E78FDFAC8F10500EE05B4F1B00024000080001200004807FF4497DAE28F902C033CB5C00A855AEBB0C
310
BB15274D0080CDCF2691D59671A945AB00DC6BC0DE03E6E2DB3097D9F6A501080097DA360F60F322597ABB3AF000971A105DE1001000024000080001200004800010002C0350F4D3DBBF00AD8601DAED84834E0000000049454E44AE426082
  0
ENDSEC
  0
EOF
