  0
SECTION
  2
HEADER
  9
$ACADVER
  1
AC1027
  9
$ACADMAINTVER
 70
   125
  9
$DWGCODEPAGE
  3
ANSI_932
  9
$LASTSAVEDBY
  1
yasukiyo.ogawa
  9
$REQUIREDVERSIONS
160
                 0
  9
$INSBASE
 10
0.0
 20
0.0
 30
0.0
  9
$EXTMIN
 10
0.0
 20
0.0
 30
0.0
  9
$EXTMAX
 10
3150.0
 20
4425.0
 30
0.0
  9
$LIMMIN
 10
0.0
 20
0.0
  9
$LIMMAX
 10
297.0
 20
210.0
  9
$ORTHOMODE
 70
     1
  9
$REGENMODE
 70
     1
  9
$FILLMODE
 70
     0
  9
$QTEXTMODE
 70
     0
  9
$MIRRTEXT
 70
     1
  9
$LTSCALE
 40
100.0
  9
$ATTMODE
 70
     1
  9
$TEXTSIZE
 40
180.0
  9
$TRACEWID
 40
0.05
  9
$TEXTSTYLE
  7
STANDARD
  9
$CLAYER
  8
3
  9
$CELTYPE
  6
BYLAYER
  9
$CECOLOR
 62
   256
  9
$CELTSCALE
 40
1.0
  9
$DISPSILH
 70
     0
  9
$DIMSCALE
 40
15.0
  9
$DIMASZ
 40
2.0
  9
$DIMEXO
 40
0.5
  9
$DIMDLI
 40
10.0
  9
$DIMRND
 40
0.0
  9
$DIMDLE
 40
0.0
  9
$DIMEXE
 40
1.0
  9
$DIMTP
 40
1.0
  9
$DIMTM
 40
1.0
  9
$DIMTXT
 40
3.0
  9
$DIMCEN
 40
0.0
  9
$DIMTSZ
 40
0.0
  9
$DIMTOL
 70
     0
  9
$DIMLIM
 70
     0
  9
$DIMTIH
 70
     0
  9
$DIMTOH
 70
     0
  9
$DIMSE1
 70
     0
  9
$DIMSE2
 70
     0
  9
$DIMTAD
 70
     1
  9
$DIMZIN
 70
     8
  9
$DIMBLK
  1

  9
$DIMASO
 70
     1
  9
$DIMSHO
 70
     1
  9
$DIMPOST
  1

  9
$DIMAPOST
  1

  9
$DIMALT
 70
     0
  9
$DIMALTD
 70
     2
  9
$DIMALTF
 40
0.039
  9
$DIMLFAC
 40
1.0
  9
$DIMTOFL
 70
     1
  9
$DIMTVP
 40
0.0
  9
$DIMTIX
 70
     0
  9
$DIMSOXD
 70
     0
  9
$DIMSAH
 70
     1
  9
$DIMBLK1
  1
OPEN
  9
$DIMBLK2
  1
OPEN
  9
$DIMSTYLE
  2
IGA
  9
$DIMCLRD
 70
     0
  9
$DIMCLRE
 70
     0
  9
$DIMCLRT
 70
     0
  9
$DIMTFAC
 40
10.0
  9
$DIMGAP
 40
1.0
  9
$DIMJUST
 70
     0
  9
$DIMSD1
 70
     0
  9
$DIMSD2
 70
     0
  9
$DIMTOLJ
 70
     1
  9
$DIMTZIN
 70
     8
  9
$DIMALTZ
 70
     0
  9
$DIMALTTZ
 70
     0
  9
$DIMUPT
 70
     0
  9
$DIMDEC
 70
     0
  9
$DIMTDEC
 70
     0
  9
$DIMALTU
 70
     2
  9
$DIMALTTD
 70
     2
  9
$DIMTXSTY
  7
STANDARD
  9
$DIMAUNIT
 70
     0
  9
$DIMADEC
 70
     0
  9
$DIMALTRND
 40
0.0
  9
$DIMAZIN
 70
     0
  9
$DIMDSEP
 70
    46
  9
$DIMATFIT
 70
     3
  9
$DIMFRAC
 70
     0
  9
$DIMLDRBLK
  1
OPEN
  9
$DIMLUNIT
 70
     2
  9
$DIMLWD
 70
    -2
  9
$DIMLWE
 70
    -2
  9
$DIMTMOVE
 70
     2
  9
$DIMFXL
 40
1.0
  9
$DIMFXLON
 70
     0
  9
$DIMJOGANG
 40
0.7853981633974483
  9
$DIMTFILL
 70
     0
  9
$DIMTFILLCLR
 70
     0
  9
$DIMARCSYM
 70
     0
  9
$DIMLTYPE
  6

  9
$DIMLTEX1
  6

  9
$DIMLTEX2
  6

  9
$DIMTXTDIRECTION
 70
     0
  9
$LUNITS
 70
     2
  9
$LUPREC
 70
     3
  9
$SKETCHINC
 40
0.1
  9
$FILLETRAD
 40
50.0
  9
$AUNITS
 70
     0
  9
$AUPREC
 70
     0
  9
$MENU
  1
acad
  9
$ELEVATION
 40
0.0
  9
$PELEVATION
 40
0.0
  9
$THICKNESS
 40
0.0
  9
$LIMCHECK
 70
     0
  9
$CHAMFERA
 40
0.5
  9
$CHAMFERB
 40
0.5
  9
$CHAMFERC
 40
20.0
  9
$CHAMFERD
 40
0.0
  9
$SKPOLY
 70
     0
  9
$TDCREATE
 40
2451372.449930556
  9
$TDUCREATE
 40
2451372.074932523
  9
$TDUPDATE
 40
2460216.499826389
  9
$TDUUPDATE
 40
2460216.124831123
  9
$TDINDWG
 40
0.0452267361
  9
$TDUSRTIMER
 40
0.0452267361
  9
$USRTIMER
 70
     1
  9
$ANGBASE
 50
0.0
  9
$ANGDIR
 70
     0
  9
$PDMODE
 70
     0
  9
$PDSIZE
 40
0.0
  9
$PLINEWID
 40
0.0
  9
$SPLFRAME
 70
     0
  9
$SPLINETYPE
 70
     6
  9
$SPLINESEGS
 70
     8
  9
$HANDSEED
  5
8AAB
  9
$SURFTAB1
 70
     6
  9
$SURFTAB2
 70
     6
  9
$SURFTYPE
 70
     6
  9
$SURFU
 70
     6
  9
$SURFV
 70
     6
  9
$UCSBASE
  2

  9
$UCSNAME
  2

  9
$UCSORG
 10
0.0
 20
0.0
 30
0.0
  9
$UCSXDIR
 10
1.0
 20
0.0
 30
0.0
  9
$UCSYDIR
 10
0.0
 20
1.0
 30
0.0
  9
$UCSORTHOREF
  2

  9
$UCSORTHOVIEW
 70
     0
  9
$UCSORGTOP
 10
0.0
 20
0.0
 30
0.0
  9
$UCSORGBOTTOM
 10
0.0
 20
0.0
 30
0.0
  9
$UCSORGLEFT
 10
0.0
 20
0.0
 30
0.0
  9
$UCSORGRIGHT
 10
0.0
 20
0.0
 30
0.0
  9
$UCSORGFRONT
 10
0.0
 20
0.0
 30
0.0
  9
$UCSORGBACK
 10
0.0
 20
0.0
 30
0.0
  9
$PUCSBASE
  2

  9
$PUCSNAME
  2

  9
$PUCSORG
 10
0.0
 20
0.0
 30
0.0
  9
$PUCSXDIR
 10
1.0
 20
0.0
 30
0.0
  9
$PUCSYDIR
 10
0.0
 20
1.0
 30
0.0
  9
$PUCSORTHOREF
  2

  9
$PUCSORTHOVIEW
 70
     0
  9
$PUCSORGTOP
 10
0.0
 20
0.0
 30
0.0
  9
$PUCSORGBOTTOM
 10
0.0
 20
0.0
 30
0.0
  9
$PUCSORGLEFT
 10
0.0
 20
0.0
 30
0.0
  9
$PUCSORGRIGHT
 10
0.0
 20
0.0
 30
0.0
  9
$PUCSORGFRONT
 10
0.0
 20
0.0
 30
0.0
  9
$PUCSORGBACK
 10
0.0
 20
0.0
 30
0.0
  9
$USERI1
 70
     0
  9
$USERI2
 70
     0
  9
$USERI3
 70
     0
  9
$USERI4
 70
     0
  9
$USERI5
 70
     0
  9
$USERR1
 40
0.0
  9
$USERR2
 40
0.0
  9
$USERR3
 40
0.0
  9
$USERR4
 40
0.0
  9
$USERR5
 40
0.0
  9
$WORLDVIEW
 70
     1
  9
$SHADEDGE
 70
     3
  9
$SHADEDIF
 70
    70
  9
$TILEMODE
 70
     1
  9
$MAXACTVP
 70
    16
  9
$PINSBASE
 10
0.0
 20
0.0
 30
0.0
  9
$PLIMCHECK
 70
     0
  9
$PEXTMIN
 10
1.000000000000000E+20
 20
1.000000000000000E+20
 30
1.000000000000000E+20
  9
$PEXTMAX
 10
-1.000000000000000E+20
 20
-1.000000000000000E+20
 30
-1.000000000000000E+20
  9
$PLIMMIN
 10
0.0
 20
0.0
  9
$PLIMMAX
 10
12.0
 20
9.0
  9
$UNITMODE
 70
     0
  9
$VISRETAIN
 70
     0
  9
$PLINEGEN
 70
     0
  9
$PSLTSCALE
 70
     1
  9
$TREEDEPTH
 70
  3020
  9
$CMLSTYLE
  2
STANDARD
  9
$CMLJUST
 70
     0
  9
$CMLSCALE
 40
20.0
  9
$PROXYGRAPHICS
 70
     1
  9
$MEASUREMENT
 70
     1
  9
$CELWEIGHT
370
    -1
  9
$ENDCAPS
280
     0
  9
$JOINSTYLE
280
     0
  9
$LWDISPLAY
290
     0
  9
$INSUNITS
 70
     0
  9
$HYPERLINKBASE
  1

  9
$STYLESHEET
  1

  9
$XEDIT
290
     1
  9
$CEPSNTYPE
380
     0
  9
$PSTYLEMODE
290
     1
  9
$FINGERPRINTGUID
  2
{5D85B955-5373-4309-8DD3-9463C0257399}
  9
$VERSIONGUID
  2
{DAD99D6E-9F7C-4EDF-AA1F-023EA9D5803C}
  9
$EXTNAMES
290
     1
  9
$PSVPSCALE
 40
0.0
  9
$OLESTARTUP
290
     0
  9
$SORTENTS
280
   127
  9
$INDEXCTL
280
     0
  9
$HIDETEXT
280
     0
  9
$XCLIPFRAME
280
     2
  9
$HALOGAP
280
     0
  9
$OBSCOLOR
 70
   257
  9
$OBSLTYPE
280
     0
  9
$INTERSECTIONDISPLAY
280
     0
  9
$INTERSECTIONCOLOR
 70
   257
  9
$DIMASSOC
280
     1
  9
$PROJECTNAME
  1

  9
$CAMERADISPLAY
290
     0
  9
$LENSLENGTH
 40
50.0
  9
$CAMERAHEIGHT
 40
0.0
  9
$STEPSPERSEC
 40
2.0
  9
$STEPSIZE
 40
6.0
  9
$3DDWFPREC
 40
2.0
  9
$PSOLWIDTH
 40
0.25
  9
$PSOLHEIGHT
 40
4.0
  9
$LOFTANG1
 40
1.570796326794896
  9
$LOFTANG2
 40
1.570796326794896
  9
$LOFTMAG1
 40
0.0
  9
$LOFTMAG2
 40
0.0
  9
$LOFTPARAM
 70
     7
  9
$LOFTNORMALS
280
     1
  9
$LATITUDE
 40
37.795
  9
$LONGITUDE
 40
-122.394
  9
$NORTHDIRECTION
 40
0.0
  9
$TIMEZONE
 70
 -8000
  9
$LIGHTGLYPHDISPLAY
280
     1
  9
$TILEMODELIGHTSYNCH
280
     1
  9
$CMATERIAL
347
8A08
  9
$SOLIDHIST
280
     0
  9
$SHOWHIST
280
     1
  9
$DWFFRAME
280
     2
  9
$DGNFRAME
280
     0
  9
$REALWORLDSCALE
290
     1
  9
$INTERFERECOLOR
 62
     1
  9
$INTERFEREOBJVS
345
8A2A
  9
$INTERFEREVPVS
346
8A27
  9
$CSHADOW
280
     0
  9
$SHADOWPLANELOCATION
 40
0.0
  0
ENDSEC
  0
SECTION
  2
CLASSES
  0
CLASS
  1
ACDBDICTIONARYWDFLT
  2
AcDbDictionaryWithDefault
  3
ObjectDBX Classes
 90
        0
 91
        1
280
     0
281
     0
  0
CLASS
  1
MATERIAL
  2
AcDbMaterial
  3
ObjectDBX Classes
 90
     1153
 91
        3
280
     0
281
     0
  0
CLASS
  1
VISUALSTYLE
  2
AcDbVisualStyle
  3
ObjectDBX Classes
 90
     4095
 91
       24
280
     0
281
     0
  0
CLASS
  1
TABLESTYLE
  2
AcDbTableStyle
  3
ObjectDBX Classes
 90
     4095
 91
        1
280
     0
281
     0
  0
CLASS
  1
SCALE
  2
AcDbScale
  3
ObjectDBX Classes
 90
     1153
 91
       17
280
     0
281
     0
  0
CLASS
  1
MLEADERSTYLE
  2
AcDbMLeaderStyle
  3
ACDB_MLEADERSTYLE_CLASS
 90
     4095
 91
        1
280
     0
281
     0
  0
CLASS
  1
ACDBSECTIONVIEWSTYLE
  2
AcDbSectionViewStyle
  3
ObjectDBX Classes
 90
     1025
 91
        1
280
     0
281
     0
  0
CLASS
  1
ACDBDETAILVIEWSTYLE
  2
AcDbDetailViewStyle
  3
ObjectDBX Classes
 90
     1025
 91
        1
280
     0
281
     0
  0
CLASS
  1
SORTENTSTABLE
  2
AcDbSortentsTable
  3
ObjectDBX Classes
 90
        0
 91
        1
280
     0
281
     0
  0
CLASS
  1
DICTIONARYVAR
  2
AcDbDictionaryVar
  3
ObjectDBX Classes
 90
        0
 91
       10
280
     0
281
     0
  0
CLASS
  1
CELLSTYLEMAP
  2
AcDbCellStyleMap
  3
ObjectDBX Classes
 90
     1152
 91
        1
280
     0
281
     0
  0
ENDSEC
  0
SECTION
  2
TABLES
  0
TABLE
  2
VPORT
  5
8
330
0
100
AcDbSymbolTable
 70
     1
1001
ACAD
1000
DbSaveVer
1071
      278
  0
VPORT
  5
8A05
330
8
100
AcDbSymbolTableRecord
100
AcDbViewportTableRecord
  2
*Active
 70
     0
 10
0.0
 20
0.0
 11
1.0
 21
1.0
 12
2020.585139495969
 22
2212.500010302757
 13
0.0
 23
0.0
 14
10.0
 24
10.0
 15
10.0
 25
10.0
 16
0.0
 26
0.0
 36
1.0
 17
0.0
 27
0.0
 37
0.0
 40
4453.60692206448
 41
2.250314465408805
 42
50.0
 43
0.0
 44
0.0
 50
0.0
 51
0.0
 71
     0
 72
   100
 73
     1
 74
     0
 75
     0
 76
     0
 77
     0
 78
     0
281
     0
 65
     1
110
0.0
120
0.0
130
0.0
111
1.0
121
0.0
131
0.0
112
0.0
122
1.0
132
0.0
 79
     0
146
0.0
348
8A26
 60
     3
 61
     5
292
     1
282
     1
141
0.0
142
0.0
 63
   250
421
  3355443
1001
ACAD_NAV_VCDISPLAY
1070
     3
  0
ENDTAB
  0
TABLE
  2
LTYPE
  5
5
330
0
100
AcDbSymbolTable
 70
     2
  0
LTYPE
  5
13
330
5
100
AcDbSymbolTableRecord
100
AcDbLinetypeTableRecord
  2
BYBLOCK
 70
     0
  3

 72
    65
 73
     0
 40
0.0
  0
LTYPE
  5
14
330
5
100
AcDbSymbolTableRecord
100
AcDbLinetypeTableRecord
  2
BYLAYER
 70
     0
  3

 72
    65
 73
     0
 40
0.0
  0
LTYPE
  5
15
330
5
100
AcDbSymbolTableRecord
100
AcDbLinetypeTableRecord
  2
CONTINUOUS
 70
     0
  3
Solid line
 72
    65
 73
     0
 40
0.0
  0
LTYPE
  5
1F
330
5
100
AcDbSymbolTableRecord
100
AcDbLinetypeTableRecord
  2
CENTER
 70
     0
  3
____ _ ____ _ ____ _ ____ _ ____ _ ____ _ ____ 
 72
    65
 73
     4
 40
2.0
 49
1.25
 74
     0
 49
-0.25
 74
     0
 49
0.25
 74
     0
 49
-0.25
 74
     0
  0
ENDTAB
  0
TABLE
  2
LAYER
  5
2
102
{ACAD_XDICTIONARY
360
8A81
102
}
330
0
100
AcDbSymbolTable
 70
     6
  0
LAYER
  5
F
102
{ACAD_XDICTIONARY
360
8A74
102
}
330
2
100
AcDbSymbolTableRecord
100
AcDbLayerTableRecord
  2
0
 70
     0
 62
     7
  6
CONTINUOUS
370
    -3
390
89A4
347
8A18
348
0
  0
LAYER
  5
31
102
{ACAD_XDICTIONARY
360
8A76
102
}
330
2
100
AcDbSymbolTableRecord
100
AcDbLayerTableRecord
  2
3
 70
     0
 62
     2
  6
CONTINUOUS
370
    -3
390
89A4
347
8A18
348
0
  0
LAYER
  5
76D0
102
{ACAD_XDICTIONARY
360
8A78
102
}
330
2
100
AcDbSymbolTableRecord
100
AcDbLayerTableRecord
  2
2
 70
     0
 62
     3
  6
CENTER
370
    -3
390
89A4
347
8A18
348
0
  0
LAYER
  5
76D1
102
{ACAD_XDICTIONARY
360
8A7A
102
}
330
2
100
AcDbSymbolTableRecord
100
AcDbLayerTableRecord
  2
1
 70
     0
 62
     4
  6
CONTINUOUS
370
    -3
390
89A4
347
8A18
348
0
  0
LAYER
  5
76D2
102
{ACAD_XDICTIONARY
360
8A7C
102
}
330
2
100
AcDbSymbolTableRecord
100
AcDbLayerTableRecord
  2
4
 70
     0
 62
     7
  6
CONTINUOUS
370
    -3
390
89A4
347
8A18
348
0
  0
LAYER
  5
7FAB
330
2
100
AcDbSymbolTableRecord
100
AcDbLayerTableRecord
  2
DEFPOINTS
 70
     0
 62
     7
  6
CONTINUOUS
290
     0
370
    -3
390
89A4
347
8A18
348
0
  0
ENDTAB
  0
TABLE
  2
STYLE
  5
3
330
0
100
AcDbSymbolTable
 70
     1
  0
STYLE
  5
10
330
3
100
AcDbSymbolTableRecord
100
AcDbTextStyleTableRecord
  2
STANDARD
 70
     0
 40
0.0
 41
1.0
 50
0.0
 71
     0
 42
180.0
  3
simplex.shx
  4
extfont.shx
  0
ENDTAB
  0
TABLE
  2
VIEW
  5
6
330
0
100
AcDbSymbolTable
 70
     0
  0
ENDTAB
  0
TABLE
  2
UCS
  5
7
330
0
100
AcDbSymbolTable
 70
     0
  0
ENDTAB
  0
TABLE
  2
APPID
  5
9
330
0
100
AcDbSymbolTable
 70
     4
  0
APPID
  5
11
330
9
100
AcDbSymbolTableRecord
100
AcDbRegAppTableRecord
  2
ACAD
 70
     0
  0
APPID
  5
8A59
330
9
100
AcDbSymbolTableRecord
100
AcDbRegAppTableRecord
  2
AcadAnnoMonitorAlertIconDisabled
 70
     0
  0
APPID
  5
8A5A
330
9
100
AcDbSymbolTableRecord
100
AcDbRegAppTableRecord
  2
ACAD_EXEMPT_FROM_CAD_STANDARDS
 70
     0
  0
APPID
  5
8A87
330
9
100
AcDbSymbolTableRecord
100
AcDbRegAppTableRecord
  2
ACAD_NAV_VCDISPLAY
 70
     0
  0
ENDTAB
  0
TABLE
  2
DIMSTYLE
  5
A
330
0
100
AcDbSymbolTable
 70
     2
100
AcDbDimStyleTable
 71
     1
340
1D
  0
DIMSTYLE
105
1D
102
{ACAD_REACTORS
330
894F
330
895C
330
8969
330
8976
330
8983
102
}
330
A
100
AcDbSymbolTableRecord
100
AcDbDimStyleTableRecord
  2
IGA
 70
     0
 40
2.0
 41
2.0
 42
0.5
 43
10.0
 44
1.0
 47
1.0
 48
1.0
 73
     0
 74
     0
 77
     1
 78
     8
140
3.0
141
0.0
143
0.03937
146
10.0
147
1.0
173
     1
271
     1
272
     0
279
     2
284
     8
340
10
341
7E9D
343
7E9D
344
7E9D
  0
DIMSTYLE
105
7FAD
102
{ACAD_REACTORS
330
8636
330
8637
330
863C
330
8653
330
8670
330
867B
330
867C
330
8681
330
8683
330
8684
330
8686
330
868B
102
}
330
A
100
AcDbSymbolTableRecord
100
AcDbDimStyleTableRecord
  2
MATSU
 70
     0
 41
2.0
 42
1.0
 43
10.0
 44
1.0
 73
     0
 74
     0
 77
     1
 78
     8
140
3.0
141
0.0
143
0.03937
147
0.5
172
     1
173
     1
176
   256
177
   256
178
   256
284
     8
289
     0
340
10
341
7E9D
343
7E9D
344
7E9D
  0
ENDTAB
  0
TABLE
  2
BLOCK_RECORD
  5
1
330
0
100
AcDbSymbolTable
 70
    21
  0
BLOCK_RECORD
  5
19
102
{ACAD_XDICTIONARY
360
89D2
102
}
330
1
100
AcDbSymbolTableRecord
100
AcDbBlockTableRecord
  2
*MODEL_SPACE
340
89A7
 70
     0
280
     1
281
     0
  0
BLOCK_RECORD
  5
16
102
{ACAD_XDICTIONARY
360
89D0
102
}
330
1
100
AcDbSymbolTableRecord
100
AcDbBlockTableRecord
  2
*PAPER_SPACE
340
89A8
 70
     0
280
     1
281
     0
  0
BLOCK_RECORD
  5
7E9D
330
1
100
AcDbSymbolTableRecord
100
AcDbBlockTableRecord
  2
_OPEN
340
0
102
{BLKREFS
331
8962
331
8963
331
896F
331
8970
331
897C
331
897D
331
89DF
331
89E0
331
89EF
331
89F0
331
87E5
331
87E6
331
87F0
331
87F1
331
87FB
331
87FC
331
8850
331
8851
331
885B
331
885C
331
8A6E
331
8A6F
331
8866
331
8867
331
8885
331
8886
331
889B
331
889C
331
88A6
331
88A7
331
8948
331
8949
331
8955
331
8956
102
}
 70
     0
280
     1
281
     0
  0
BLOCK_RECORD
  5
839F
330
1
100
AcDbSymbolTableRecord
100
AcDbBlockTableRecord
  2
_DOT
340
0
 70
     0
280
     1
281
     0
  0
BLOCK_RECORD
  5
853A
330
1
100
AcDbSymbolTableRecord
100
AcDbBlockTableRecord
  2
YA_N
340
0
102
{BLKREFS
331
8696
331
8697
331
8698
331
8699
331
869A
331
869B
331
869C
102
}
 70
     0
280
     1
281
     0
  0
BLOCK_RECORD
  5
86E7
330
1
100
AcDbSymbolTableRecord
100
AcDbBlockTableRecord
  2
*D3
340
0
 70
     0
280
     1
281
     0
  0
BLOCK_RECORD
  5
86F3
330
1
100
AcDbSymbolTableRecord
100
AcDbBlockTableRecord
  2
*D4
340
0
 70
     0
280
     1
281
     0
  0
BLOCK_RECORD
  5
86FF
330
1
100
AcDbSymbolTableRecord
100
AcDbBlockTableRecord
  2
*D5
340
0
 70
     0
280
     1
281
     0
  0
BLOCK_RECORD
  5
870B
330
1
100
AcDbSymbolTableRecord
100
AcDbBlockTableRecord
  2
*D6
340
0
 70
     0
280
     1
281
     0
  0
BLOCK_RECORD
  5
875C
330
1
100
AcDbSymbolTableRecord
100
AcDbBlockTableRecord
  2
*D7
340
0
 70
     0
280
     1
281
     0
  0
BLOCK_RECORD
  5
8768
330
1
100
AcDbSymbolTableRecord
100
AcDbBlockTableRecord
  2
*D8
340
0
 70
     0
280
     1
281
     0
  0
BLOCK_RECORD
  5
8774
330
1
100
AcDbSymbolTableRecord
100
AcDbBlockTableRecord
  2
*D9
340
0
 70
     0
280
     1
281
     0
  0
BLOCK_RECORD
  5
8780
330
1
100
AcDbSymbolTableRecord
100
AcDbBlockTableRecord
  2
*D10
340
0
 70
     0
280
     1
281
     0
  0
BLOCK_RECORD
  5
878B
330
1
100
AcDbSymbolTableRecord
100
AcDbBlockTableRecord
  2
*D11
340
0
 70
     0
280
     1
281
     0
  0
BLOCK_RECORD
  5
8796
330
1
100
AcDbSymbolTableRecord
100
AcDbBlockTableRecord
  2
*D12
340
0
 70
     0
280
     1
281
     0
  0
BLOCK_RECORD
  5
87AE
330
1
100
AcDbSymbolTableRecord
100
AcDbBlockTableRecord
  2
*D13
340
0
 70
     0
280
     1
281
     0
  0
BLOCK_RECORD
  5
87BA
330
1
100
AcDbSymbolTableRecord
100
AcDbBlockTableRecord
  2
*D14
340
0
 70
     0
280
     1
281
     0
  0
BLOCK_RECORD
  5
8911
330
1
100
AcDbSymbolTableRecord
100
AcDbBlockTableRecord
  2
_NONE
340
0
 70
     0
280
     1
281
     0
  0
BLOCK_RECORD
  5
8943
330
1
100
AcDbSymbolTableRecord
100
AcDbBlockTableRecord
  2
*D16
340
0
 70
     0
280
     1
281
     0
  0
BLOCK_RECORD
  5
8950
330
1
100
AcDbSymbolTableRecord
100
AcDbBlockTableRecord
  2
*D17
340
0
 70
     0
280
     1
281
     0
  0
BLOCK_RECORD
  5
895D
330
1
100
AcDbSymbolTableRecord
100
AcDbBlockTableRecord
  2
*D18
340
0
 70
     0
280
     1
281
     0
  0
BLOCK_RECORD
  5
896A
330
1
100
AcDbSymbolTableRecord
100
AcDbBlockTableRecord
  2
*D19
340
0
 70
     0
280
     1
281
     0
  0
BLOCK_RECORD
  5
8977
330
1
100
AcDbSymbolTableRecord
100
AcDbBlockTableRecord
  2
*D20
340
0
 70
     0
280
     1
281
     0
  0
ENDTAB
  0
ENDSEC
  0
SECTION
  2
BLOCKS
  0
BLOCK
  5
1A
330
19
100
AcDbEntity
  8
0
100
AcDbBlockBegin
  2
*MODEL_SPACE
 70
     0
 10
0.0
 20
0.0
 30
0.0
  3
*MODEL_SPACE
  1

  0
ENDBLK
  5
1B
330
19
100
AcDbEntity
  8
0
100
AcDbBlockEnd
  0
BLOCK
  5
17
330
16
100
AcDbEntity
 67
     1
  8
0
100
AcDbBlockBegin
  2
*PAPER_SPACE
 70
     0
 10
0.0
 20
0.0
 30
0.0
  3
*PAPER_SPACE
  1

  0
ENDBLK
  5
18
330
16
100
AcDbEntity
 67
     1
  8
0
100
AcDbBlockEnd
  0
BLOCK
  5
7EA1
330
7E9D
100
AcDbEntity
  8
0
100
AcDbBlockBegin
  2
_OPEN
 70
     0
 10
0.0
 20
0.0
 30
0.0
  3
_OPEN
  1

  0
LINE
  5
7E9E
330
7E9D
100
AcDbEntity
  8
0
  6
ByBlock
 62
     0
100
AcDbLine
 10
-1.0
 20
0.1666666666666666
 30
0.0
 11
0.0
 21
0.0
 31
0.0
  0
LINE
  5
7E9F
330
7E9D
100
AcDbEntity
  8
0
  6
ByBlock
 62
     0
100
AcDbLine
 10
0.0
 20
0.0
 30
0.0
 11
-1.0
 21
-0.1666666666666666
 31
0.0
  0
LINE
  5
7EA0
330
7E9D
100
AcDbEntity
  8
0
  6
ByBlock
 62
     0
100
AcDbLine
 10
0.0
 20
0.0
 30
0.0
 11
-1.0
 21
0.0
 31
0.0
  0
ENDBLK
  5
7EA2
330
7E9D
100
AcDbEntity
  8
0
100
AcDbBlockEnd
  0
BLOCK
  5
83A5
330
839F
100
AcDbEntity
  8
0
100
AcDbBlockBegin
  2
_DOT
 70
     0
 10
0.0
 20
0.0
 30
0.0
  3
_DOT
  1

  0
LWPOLYLINE
  5
83A0
330
839F
100
AcDbEntity
  8
0
  6
ByBlock
 62
     0
100
AcDbPolyline
 90
        2
 70
     1
 43
0.25
 10
-0.125
 20
0.0
 42
1.0
 10
0.125
 20
0.0
 42
1.0
  0
LINE
  5
83A4
330
839F
100
AcDbEntity
  8
0
  6
ByBlock
 62
     0
100
AcDbLine
 10
-0.25
 20
0.0
 30
0.0
 11
-1.0
 21
0.0
 31
0.0
  0
ENDBLK
  5
83A6
330
839F
100
AcDbEntity
  8
0
100
AcDbBlockEnd
  0
BLOCK
  5
853B
330
853A
100
AcDbEntity
  8
0
100
AcDbBlockBegin
  2
YA_N
 70
     0
 10
0.0
 20
0.0
 30
0.0
  3
YA_N
  1

  0
ENDBLK
  5
853C
330
853A
100
AcDbEntity
  8
0
100
AcDbBlockEnd
  0
BLOCK
  5
87E1
330
86E7
100
AcDbEntity
  8
0
100
AcDbBlockBegin
  2
*D3
 70
     1
 10
0.0
 20
0.0
 30
0.0
  3
*D3
  1

  0
LINE
  5
87E2
330
86E7
100
AcDbEntity
  8
0
  6
ByBlock
440
 16777216
100
AcDbLine
 10
4504.642846935527
 20
1899.177692316725
 30
0.0
 11
4504.642846935527
 21
2065.107021541788
 31
0.0
  0
LINE
  5
87E3
330
86E7
100
AcDbEntity
  8
0
  6
ByBlock
440
 16777216
100
AcDbLine
 10
4928.642846935527
 20
1904.177692316725
 30
0.0
 11
4928.642846935527
 21
2065.107021541788
 31
0.0
  0
LINE
  5
87E4
330
86E7
100
AcDbEntity
  8
0
  6
ByBlock
440
 16777216
100
AcDbLine
 10
4534.642846935526
 20
2050.107021541788
 30
0.0
 11
4898.642846935526
 21
2050.107021541788
 31
0.0
  0
INSERT
  5
87E5
330
86E7
100
AcDbEntity
  8
0
  6
ByBlock
440
 16777216
100
AcDbBlockReference
  2
_OPEN
 10
4504.642846935527
 20
2050.107021541788
 30
0.0
 41
30.0
 42
30.0
 43
30.0
 50
180.0
  0
INSERT
  5
87E6
330
86E7
100
AcDbEntity
  8
0
  6
ByBlock
440
 16777216
100
AcDbBlockReference
  2
_OPEN
 10
4928.642846935527
 20
2050.107021541788
 30
0.0
 41
30.0
 42
30.0
 43
30.0
  0
MTEXT
  5
87E7
330
86E7
100
AcDbEntity
  8
0
  6
ByBlock
440
 16777216
100
AcDbMText
 10
4716.642846935527
 20
2080.107021541788
 30
0.0
 40
45.0
 41
0.0
 46
0.0
 71
     5
 72
     5
  1
\A1;424
 73
     1
 44
1.0
  0
POINT
  5
87E8
330
86E7
100
AcDbEntity
  8
DEFPOINTS
  6
ByBlock
 62
     0
440
 16777216
100
AcDbPoint
 10
4504.642846935527
 20
1884.177692316725
 30
0.0
  0
POINT
  5
87E9
330
86E7
100
AcDbEntity
  8
DEFPOINTS
  6
ByBlock
 62
     0
440
 16777216
100
AcDbPoint
 10
4928.642846935527
 20
1889.177692316725
 30
0.0
  0
POINT
  5
87EA
330
86E7
100
AcDbEntity
  8
DEFPOINTS
  6
ByBlock
 62
     0
440
 16777216
100
AcDbPoint
 10
4928.642846935527
 20
2050.107021541788
 30
0.0
  0
ENDBLK
  5
87EB
330
86E7
100
AcDbEntity
  8
0
100
AcDbBlockEnd
  0
BLOCK
  5
87EC
330
86F3
100
AcDbEntity
  8
0
100
AcDbBlockBegin
  2
*D4
 70
     1
 10
0.0
 20
0.0
 30
0.0
  3
*D4
  1

  0
LINE
  5
87ED
330
86F3
100
AcDbEntity
  8
0
  6
ByBlock
440
 16777216
100
AcDbLine
 10
6596.992786142482
 20
1779.177692316725
 30
0.0
 11
6769.271306560007
 21
1779.177692316725
 31
0.0
  0
LINE
  5
87EE
330
86F3
100
AcDbEntity
  8
0
  6
ByBlock
440
 16777216
100
AcDbLine
 10
6596.992786142482
 20
1379.177692316725
 30
0.0
 11
6769.271306560007
 21
1379.177692316725
 31
0.0
  0
LINE
  5
87EF
330
86F3
100
AcDbEntity
  8
0
  6
ByBlock
440
 16777216
100
AcDbLine
 10
6754.271306560006
 20
1749.177692316725
 30
0.0
 11
6754.271306560006
 21
1409.177692316725
 31
0.0
  0
INSERT
  5
87F0
330
86F3
100
AcDbEntity
  8
0
  6
ByBlock
440
 16777216
100
AcDbBlockReference
  2
_OPEN
 10
6754.271306560006
 20
1779.177692316725
 30
0.0
 41
30.0
 42
30.0
 43
30.0
 50
90.0
  0
INSERT
  5
87F1
330
86F3
100
AcDbEntity
  8
0
  6
ByBlock
440
 16777216
100
AcDbBlockReference
  2
_OPEN
 10
6754.271306560006
 20
1379.177692316725
 30
0.0
 41
30.0
 42
30.0
 43
30.0
 50
270.0
  0
MTEXT
  5
87F2
330
86F3
100
AcDbEntity
  8
0
  6
ByBlock
440
 16777216
100
AcDbMText
 10
6724.271306560007
 20
1579.177692316725
 30
0.0
 40
45.0
 41
0.0
 46
0.0
 71
     5
 72
     5
  1
\A1;φ400
 11
0.0
 21
1.0
 31
0.0
 73
     1
 44
1.0
  0
POINT
  5
87F3
330
86F3
100
AcDbEntity
  8
DEFPOINTS
  6
ByBlock
 62
     0
440
 16777216
100
AcDbPoint
 10
6581.992786142482
 20
1779.177692316725
 30
0.0
  0
POINT
  5
87F4
330
86F3
100
AcDbEntity
  8
DEFPOINTS
  6
ByBlock
 62
     0
440
 16777216
100
AcDbPoint
 10
6581.992786142482
 20
1379.177692316725
 30
0.0
  0
POINT
  5
87F5
330
86F3
100
AcDbEntity
  8
DEFPOINTS
  6
ByBlock
 62
     0
440
 16777216
100
AcDbPoint
 10
6754.271306560006
 20
1379.177692316725
 30
0.0
  0
ENDBLK
  5
87F6
330
86F3
100
AcDbEntity
  8
0
100
AcDbBlockEnd
  0
BLOCK
  5
87F7
330
86FF
100
AcDbEntity
  8
0
100
AcDbBlockBegin
  2
*D5
 70
     1
 10
0.0
 20
0.0
 30
0.0
  3
*D5
  1

  0
LINE
  5
87F8
330
86FF
100
AcDbEntity
  8
0
  6
ByBlock
440
 16777216
100
AcDbLine
 10
4504.642846935527
 20
1899.177692316725
 30
0.0
 11
4504.642846935527
 21
1969.472871515952
 31
0.0
  0
LINE
  5
87F9
330
86FF
100
AcDbEntity
  8
0
  6
ByBlock
440
 16777216
100
AcDbLine
 10
4916.642846935527
 20
1899.177692316725
 30
0.0
 11
4916.642846935527
 21
1969.472871515952
 31
0.0
  0
LINE
  5
87FA
330
86FF
100
AcDbEntity
  8
0
  6
ByBlock
440
 16777216
100
AcDbLine
 10
4534.642846935526
 20
1954.472871515952
 30
0.0
 11
4886.642846935527
 21
1954.472871515952
 31
0.0
  0
INSERT
  5
87FB
330
86FF
100
AcDbEntity
  8
0
  6
ByBlock
440
 16777216
100
AcDbBlockReference
  2
_OPEN
 10
4504.642846935527
 20
1954.472871515952
 30
0.0
 41
30.0
 42
30.0
 43
30.0
 50
180.0
  0
INSERT
  5
87FC
330
86FF
100
AcDbEntity
  8
0
  6
ByBlock
440
 16777216
100
AcDbBlockReference
  2
_OPEN
 10
4916.642846935527
 20
1954.472871515952
 30
0.0
 41
30.0
 42
30.0
 43
30.0
  0
MTEXT
  5
87FD
330
86FF
100
AcDbEntity
  8
0
  6
ByBlock
440
 16777216
100
AcDbMText
 10
4710.642846935527
 20
1984.472871515952
 30
0.0
 40
45.0
 41
0.0
 46
0.0
 71
     5
 72
     5
  1
\A1;412
 73
     1
 44
1.0
  0
POINT
  5
87FE
330
86FF
100
AcDbEntity
  8
DEFPOINTS
  6
ByBlock
 62
     0
440
 16777216
100
AcDbPoint
 10
4504.642846935527
 20
1884.177692316725
 30
0.0
  0
POINT
  5
87FF
330
86FF
100
AcDbEntity
  8
DEFPOINTS
  6
ByBlock
 62
     0
440
 16777216
100
AcDbPoint
 10
4916.642846935527
 20
1884.177692316725
 30
0.0
  0
POINT
  5
8800
330
86FF
100
AcDbEntity
  8
DEFPOINTS
  6
ByBlock
 62
     0
440
 16777216
100
AcDbPoint
 10
4916.642846935527
 20
1954.472871515952
 30
0.0
  0
ENDBLK
  5
8801
330
86FF
100
AcDbEntity
  8
0
100
AcDbBlockEnd
  0
BLOCK
  5
8802
330
870B
100
AcDbEntity
  8
0
100
AcDbBlockBegin
  2
*D6
 70
     1
 10
0.0
 20
0.0
 30
0.0
  3
*D6
  1

  0
LINE
  5
89DD
330
870B
100
AcDbEntity
  8
3
440
 16777216
100
AcDbLine
 10
1420.114622367029
 20
1174.177692316725
 30
0.0
 11
1695.836204997755
 21
1174.177692316725
 31
0.0
  0
LINE
  5
89DE
330
870B
100
AcDbEntity
  8
3
440
 16777216
100
AcDbLine
 10
1680.836204997755
 20
1549.177692316725
 30
0.0
 11
1680.836204997755
 21
1204.177692316725
 31
0.0
  0
INSERT
  5
89DF
330
870B
100
AcDbEntity
  8
3
440
 16777216
100
AcDbBlockReference
  2
_OPEN
 10
1680.836204997755
 20
1579.177692316725
 30
0.0
 41
30.0
 42
30.0
 43
30.0
 50
90.0
  0
INSERT
  5
89E0
330
870B
100
AcDbEntity
  8
3
440
 16777216
100
AcDbBlockReference
  2
_OPEN
 10
1680.836204997755
 20
1174.177692316725
 30
0.0
 41
30.0
 42
30.0
 43
30.0
 50
270.0
  0
MTEXT
  5
89E1
330
870B
100
AcDbEntity
  8
3
440
 16777216
100
AcDbMText
 10
1650.836204997755
 20
1376.677692316725
 30
0.0
 40
45.0
 41
0.0
 46
0.0
 71
     5
 72
     5
  1
\A1;405
 11
0.0000000000000001
 21
1.0
 31
0.0
 73
     1
 44
1.0
  0
POINT
  5
89E2
330
870B
100
AcDbEntity
  8
DEFPOINTS
 62
     0
440
 16777216
100
AcDbPoint
 10
1465.114622367029
 20
1579.177692316725
 30
0.0
  0
POINT
  5
89E3
330
870B
100
AcDbEntity
  8
DEFPOINTS
 62
     0
440
 16777216
100
AcDbPoint
 10
1405.114622367029
 20
1174.177692316725
 30
0.0
  0
POINT
  5
89E4
330
870B
100
AcDbEntity
  8
DEFPOINTS
 62
     0
440
 16777216
100
AcDbPoint
 10
1680.836204997755
 20
1174.177692316725
 30
0.0
  0
ENDBLK
  5
880B
330
870B
100
AcDbEntity
  8
0
100
AcDbBlockEnd
  0
BLOCK
  5
884C
330
875C
100
AcDbEntity
  8
0
100
AcDbBlockBegin
  2
*D7
 70
     1
 10
0.0
 20
0.0
 30
0.0
  3
*D7
  1

  0
LINE
  5
884D
330
875C
100
AcDbEntity
  8
0
  6
ByBlock
440
 16777216
100
AcDbLine
 10
6656.992786142481
 20
1553.877692316724
 30
0.0
 11
6656.992786142481
 21
2063.861173295055
 31
0.0
  0
LINE
  5
884E
330
875C
100
AcDbEntity
  8
0
  6
ByBlock
440
 16777216
100
AcDbLine
 10
6314.992786142482
 20
2009.358572203237
 30
0.0
 11
6314.992786142482
 21
2063.861173295055
 31
0.0
  0
LINE
  5
884F
330
875C
100
AcDbEntity
  8
0
  6
ByBlock
440
 16777216
100
AcDbLine
 10
6626.992786142482
 20
2048.861173295055
 30
0.0
 11
6344.992786142483
 21
2048.861173295055
 31
0.0
  0
INSERT
  5
8850
330
875C
100
AcDbEntity
  8
0
  6
ByBlock
440
 16777216
100
AcDbBlockReference
  2
_OPEN
 10
6656.992786142481
 20
2048.861173295055
 30
0.0
 41
30.0
 42
30.0
 43
30.0
  0
INSERT
  5
8851
330
875C
100
AcDbEntity
  8
0
  6
ByBlock
440
 16777216
100
AcDbBlockReference
  2
_OPEN
 10
6314.992786142482
 20
2048.861173295055
 30
0.0
 41
30.0
 42
30.0
 43
30.0
 50
180.0
  0
MTEXT
  5
8852
330
875C
100
AcDbEntity
  8
0
  6
ByBlock
440
 16777216
100
AcDbMText
 10
6485.992786142482
 20
2090.646887580769
 30
0.0
 40
45.0
 41
0.0
 46
0.0
 71
     5
 72
     5
  1
\A1;(342)
 73
     1
 44
1.0
  0
POINT
  5
8853
330
875C
100
AcDbEntity
  8
DEFPOINTS
  6
ByBlock
 62
     0
440
 16777216
100
AcDbPoint
 10
6656.992786142481
 20
1538.877692316725
 30
0.0
  0
POINT
  5
8854
330
875C
100
AcDbEntity
  8
DEFPOINTS
  6
ByBlock
 62
     0
440
 16777216
100
AcDbPoint
 10
6314.992786142482
 20
1994.358572203237
 30
0.0
  0
POINT
  5
8855
330
875C
100
AcDbEntity
  8
DEFPOINTS
  6
ByBlock
 62
     0
440
 16777216
100
AcDbPoint
 10
6314.992786142482
 20
2048.861173295055
 30
0.0
  0
ENDBLK
  5
8856
330
875C
100
AcDbEntity
  8
0
100
AcDbBlockEnd
  0
BLOCK
  5
8857
330
8768
100
AcDbEntity
  8
0
100
AcDbBlockBegin
  2
*D8
 70
     1
 10
0.0
 20
0.0
 30
0.0
  3
*D8
  1

  0
LINE
  5
8858
330
8768
100
AcDbEntity
  8
0
  6
ByBlock
440
 16777216
100
AcDbLine
 10
4198.642846935526
 20
3216.556286029656
 30
0.0
 11
4198.642846935526
 21
3406.984167016351
 31
0.0
  0
LINE
  5
8859
330
8768
100
AcDbEntity
  8
0
  6
ByBlock
440
 16777216
100
AcDbLine
 10
5178.642846935527
 20
3216.556286029656
 30
0.0
 11
5178.642846935527
 21
3406.984167016351
 31
0.0
  0
LINE
  5
885A
330
8768
100
AcDbEntity
  8
0
  6
ByBlock
440
 16777216
100
AcDbLine
 10
4228.642846935527
 20
3391.984167016352
 30
0.0
 11
5148.642846935526
 21
3391.984167016352
 31
0.0
  0
INSERT
  5
885B
330
8768
100
AcDbEntity
  8
0
  6
ByBlock
440
 16777216
100
AcDbBlockReference
  2
_OPEN
 10
4198.642846935526
 20
3391.984167016352
 30
0.0
 41
30.0
 42
30.0
 43
30.0
 50
180.0
  0
INSERT
  5
885C
330
8768
100
AcDbEntity
  8
0
  6
ByBlock
440
 16777216
100
AcDbBlockReference
  2
_OPEN
 10
5178.642846935527
 20
3391.984167016352
 30
0.0
 41
30.0
 42
30.0
 43
30.0
  0
MTEXT
  5
885D
330
8768
100
AcDbEntity
  8
0
  6
ByBlock
440
 16777216
100
AcDbMText
 10
4688.642846935527
 20
3421.984167016352
 30
0.0
 40
45.0
 41
0.0
 46
0.0
 71
     5
 72
     5
  1
\A1;980
 73
     1
 44
1.0
  0
POINT
  5
885E
330
8768
100
AcDbEntity
  8
DEFPOINTS
  6
ByBlock
 62
     0
440
 16777216
100
AcDbPoint
 10
4198.642846935526
 20
3201.556286029656
 30
0.0
  0
POINT
  5
885F
330
8768
100
AcDbEntity
  8
DEFPOINTS
  6
ByBlock
 62
     0
440
 16777216
100
AcDbPoint
 10
5178.642846935527
 20
3201.556286029656
 30
0.0
  0
POINT
  5
8860
330
8768
100
AcDbEntity
  8
DEFPOINTS
  6
ByBlock
 62
     0
440
 16777216
100
AcDbPoint
 10
5178.642846935527
 20
3391.984167016352
 30
0.0
  0
ENDBLK
  5
8861
330
8768
100
AcDbEntity
  8
0
100
AcDbBlockEnd
  0
BLOCK
  5
8862
330
8774
100
AcDbEntity
  8
0
100
AcDbBlockBegin
  2
*D9
 70
     1
 10
0.0
 20
0.0
 30
0.0
  3
*D9
  1

  0
LINE
  5
8863
330
8774
100
AcDbEntity
  8
0
  6
ByBlock
440
 16777216
100
AcDbLine
 10
5193.642846935527
 20
3201.556286029656
 30
0.0
 11
5436.922303435733
 21
3201.556286029656
 31
0.0
  0
LINE
  5
8864
330
8774
100
AcDbEntity
  8
0
  6
ByBlock
440
 16777216
100
AcDbLine
 10
5193.642846935527
 20
2521.556286029657
 30
0.0
 11
5436.922303435733
 21
2521.556286029657
 31
0.0
  0
LINE
  5
8865
330
8774
100
AcDbEntity
  8
0
  6
ByBlock
440
 16777216
100
AcDbLine
 10
5421.922303435732
 20
3171.556286029656
 30
0.0
 11
5421.922303435732
 21
2551.556286029657
 31
0.0
  0
INSERT
  5
8866
330
8774
100
AcDbEntity
  8
0
  6
ByBlock
440
 16777216
100
AcDbBlockReference
  2
_OPEN
 10
5421.922303435732
 20
3201.556286029656
 30
0.0
 41
30.0
 42
30.0
 43
30.0
 50
90.0
  0
INSERT
  5
8867
330
8774
100
AcDbEntity
  8
0
  6
ByBlock
440
 16777216
100
AcDbBlockReference
  2
_OPEN
 10
5421.922303435732
 20
2521.556286029657
 30
0.0
 41
30.0
 42
30.0
 43
30.0
 50
270.0
  0
MTEXT
  5
8868
330
8774
100
AcDbEntity
  8
0
  6
ByBlock
440
 16777216
100
AcDbMText
 10
5391.922303435733
 20
2861.556286029656
 30
0.0
 40
45.0
 41
0.0
 46
0.0
 71
     5
 72
     5
  1
\A1;680
 11
0.0
 21
1.0
 31
0.0
 73
     1
 44
1.0
  0
POINT
  5
8869
330
8774
100
AcDbEntity
  8
DEFPOINTS
  6
ByBlock
 62
     0
440
 16777216
100
AcDbPoint
 10
5178.642846935527
 20
3201.556286029656
 30
0.0
  0
POINT
  5
886A
330
8774
100
AcDbEntity
  8
DEFPOINTS
  6
ByBlock
 62
     0
440
 16777216
100
AcDbPoint
 10
5178.642846935527
 20
2521.556286029657
 30
0.0
  0
POINT
  5
886B
330
8774
100
AcDbEntity
  8
DEFPOINTS
  6
ByBlock
 62
     0
440
 16777216
100
AcDbPoint
 10
5421.922303435732
 20
2521.556286029657
 30
0.0
  0
ENDBLK
  5
886C
330
8774
100
AcDbEntity
  8
0
100
AcDbBlockEnd
  0
BLOCK
  5
88CA
330
8780
100
AcDbEntity
  8
0
100
AcDbBlockBegin
  2
*D10
 70
     1
 10
0.0
 20
0.0
 30
0.0
  3
*D10
  1

  0
LINE
  5
8A6C
330
8780
100
AcDbEntity
  8
3
440
 16777216
370
    -2
100
AcDbLine
 10
2011.464561573985
 20
1749.177692316725
 30
0.0
 11
2011.464561573985
 21
2063.861173295055
 31
0.0
  0
LINE
  5
8A6D
330
8780
100
AcDbEntity
  8
3
440
 16777216
370
    -2
100
AcDbLine
 10
2511.464561573985
 20
2048.861173295055
 30
0.0
 11
2041.464561573985
 21
2048.861173295055
 31
0.0
  0
INSERT
  5
8A6E
330
8780
100
AcDbEntity
  8
3
440
 16777216
370
    -2
100
AcDbBlockReference
  2
_OPEN
 10
2541.464561573985
 20
2048.861173295055
 30
0.0
 41
30.0
 42
30.0
 43
30.0
  0
INSERT
  5
8A6F
330
8780
100
AcDbEntity
  8
3
440
 16777216
370
    -2
100
AcDbBlockReference
  2
_OPEN
 10
2011.464561573985
 20
2048.861173295055
 30
0.0
 41
30.0
 42
30.0
 43
30.0
 50
180.0
  0
MTEXT
  5
8A70
330
8780
100
AcDbEntity
  8
3
440
 16777216
100
AcDbMText
 10
2276.464561573985
 20
2090.646887580769
 30
0.0
 40
45.0
 41
0.0
 46
0.0
 71
     5
 72
     1
  1
\A1;(530)
 73
     1
 44
1.0
  0
POINT
  5
8A71
330
8780
100
AcDbEntity
  8
DEFPOINTS
 62
     0
440
 16777216
100
AcDbPoint
 10
2541.464561573985
 20
1994.358572203237
 30
0.0
  0
POINT
  5
8A72
330
8780
100
AcDbEntity
  8
DEFPOINTS
 62
     0
440
 16777216
100
AcDbPoint
 10
2011.464561573985
 20
1734.177692316725
 30
0.0
  0
POINT
  5
8A73
330
8780
100
AcDbEntity
  8
DEFPOINTS
 62
     0
440
 16777216
100
AcDbPoint
 10
2011.464561573985
 20
2048.861173295055
 30
0.0
  0
ENDBLK
  5
88D3
330
8780
100
AcDbEntity
  8
0
100
AcDbBlockEnd
  0
BLOCK
  5
8877
330
878B
100
AcDbEntity
  8
0
100
AcDbBlockBegin
  2
*D11
 70
     1
 10
0.0
 20
0.0
 30
0.0
  3
*D11
  1

  0
LINE
  5
89ED
330
878B
100
AcDbEntity
  8
3
440
 16777216
100
AcDbLine
 10
1438.322339329045
 20
1564.177692316725
 30
0.0
 11
1438.322339329045
 21
2065.107021541788
 31
0.0
  0
LINE
  5
89EE
330
878B
100
AcDbEntity
  8
3
440
 16777216
100
AcDbLine
 10
1185.114622367029
 20
2050.107021541788
 30
0.0
 11
1408.322339329045
 21
2050.107021541788
 31
0.0
  0
INSERT
  5
89EF
330
878B
100
AcDbEntity
  8
3
440
 16777216
100
AcDbBlockReference
  2
_OPEN
 10
1155.114622367029
 20
2050.107021541788
 30
0.0
 41
30.0
 42
30.0
 43
30.0
 50
180.0
  0
INSERT
  5
89F0
330
878B
100
AcDbEntity
  8
3
440
 16777216
100
AcDbBlockReference
  2
_OPEN
 10
1438.322339329045
 20
2050.107021541788
 30
0.0
 41
30.0
 42
30.0
 43
30.0
  0
MTEXT
  5
89F1
330
878B
100
AcDbEntity
  8
3
440
 16777216
100
AcDbMText
 10
1296.718480848037
 20
2080.107021541788
 30
0.0
 40
45.0
 41
0.0
 46
0.0
 71
     5
 72
     5
  1
\A1;282
 73
     1
 44
1.0
  0
POINT
  5
89F2
330
878B
100
AcDbEntity
  8
DEFPOINTS
 62
     0
440
 16777216
100
AcDbPoint
 10
1155.114622367029
 20
1889.177692316725
 30
0.0
  0
POINT
  5
89F3
330
878B
100
AcDbEntity
  8
DEFPOINTS
 62
     0
440
 16777216
100
AcDbPoint
 10
1438.322339329045
 20
1549.177692316725
 30
0.0
  0
POINT
  5
89F4
330
878B
100
AcDbEntity
  8
DEFPOINTS
 62
     0
440
 16777216
100
AcDbPoint
 10
1438.322339329045
 20
2050.107021541788
 30
0.0
  0
ENDBLK
  5
8880
330
878B
100
AcDbEntity
  8
0
100
AcDbBlockEnd
  0
BLOCK
  5
8881
330
8796
100
AcDbEntity
  8
0
100
AcDbBlockBegin
  2
*D12
 70
     1
 10
0.0
 20
0.0
 30
0.0
  3
*D12
  1

  0
LINE
  5
8882
330
8796
100
AcDbEntity
  8
0
  6
ByBlock
440
 16777216
100
AcDbLine
 10
4958.642846935527
 20
1884.177692316725
 30
0.0
 11
5471.28120672885
 21
1884.177692316725
 31
0.0
  0
LINE
  5
8883
330
8796
100
AcDbEntity
  8
0
  6
ByBlock
440
 16777216
100
AcDbLine
 10
5253.642846935527
 20
1579.177692316725
 30
0.0
 11
5471.28120672885
 21
1579.177692316725
 31
0.0
  0
LINE
  5
8884
330
8796
100
AcDbEntity
  8
0
  6
ByBlock
440
 16777216
100
AcDbLine
 10
5456.28120672885
 20
1854.177692316724
 30
0.0
 11
5456.28120672885
 21
1609.177692316725
 31
0.0
  0
INSERT
  5
8885
330
8796
100
AcDbEntity
  8
0
  6
ByBlock
440
 16777216
100
AcDbBlockReference
  2
_OPEN
 10
5456.28120672885
 20
1884.177692316725
 30
0.0
 41
30.0
 42
30.0
 43
30.0
 50
90.0
  0
INSERT
  5
8886
330
8796
100
AcDbEntity
  8
0
  6
ByBlock
440
 16777216
100
AcDbBlockReference
  2
_OPEN
 10
5456.28120672885
 20
1579.177692316725
 30
0.0
 41
30.0
 42
30.0
 43
30.0
 50
270.0
  0
MTEXT
  5
8887
330
8796
100
AcDbEntity
  8
0
  6
ByBlock
440
 16777216
100
AcDbMText
 10
5426.281206728851
 20
1731.677692316725
 30
0.0
 40
45.0
 41
0.0
 46
0.0
 71
     5
 72
     5
  1
\A1;305
 11
0.0
 21
1.0
 31
0.0
 73
     1
 44
1.0
  0
POINT
  5
8888
330
8796
100
AcDbEntity
  8
DEFPOINTS
  6
ByBlock
 62
     0
440
 16777216
100
AcDbPoint
 10
4943.642846935527
 20
1884.177692316725
 30
0.0
  0
POINT
  5
8889
330
8796
100
AcDbEntity
  8
DEFPOINTS
  6
ByBlock
 62
     0
440
 16777216
100
AcDbPoint
 10
5238.642846935527
 20
1579.177692316725
 30
0.0
  0
POINT
  5
888A
330
8796
100
AcDbEntity
  8
DEFPOINTS
  6
ByBlock
 62
     0
440
 16777216
100
AcDbPoint
 10
5456.28120672885
 20
1579.177692316725
 30
0.0
  0
ENDBLK
  5
888B
330
8796
100
AcDbEntity
  8
0
100
AcDbBlockEnd
  0
BLOCK
  5
8897
330
87AE
100
AcDbEntity
  8
0
100
AcDbBlockBegin
  2
*D13
 70
     1
 10
0.0
 20
0.0
 30
0.0
  3
*D13
  1

  0
LINE
  5
8898
330
87AE
100
AcDbEntity
  8
0
  6
ByBlock
440
 16777216
100
AcDbLine
 10
5211.850563897542
 20
1564.177692316725
 30
0.0
 11
5211.850563897542
 21
2151.700591673486
 31
0.0
  0
LINE
  5
8899
330
87AE
100
AcDbEntity
  8
0
  6
ByBlock
440
 16777216
100
AcDbLine
 10
4198.642846935526
 20
1254.177692316725
 30
0.0
 11
4198.642846935526
 21
2151.700591673486
 31
0.0
  0
LINE
  5
889A
330
87AE
100
AcDbEntity
  8
0
  6
ByBlock
440
 16777216
100
AcDbLine
 10
5181.850563897543
 20
2136.700591673486
 30
0.0
 11
4228.642846935527
 21
2136.700591673486
 31
0.0
  0
INSERT
  5
889B
330
87AE
100
AcDbEntity
  8
0
  6
ByBlock
440
 16777216
100
AcDbBlockReference
  2
_OPEN
 10
5211.850563897542
 20
2136.700591673486
 30
0.0
 41
30.0
 42
30.0
 43
30.0
  0
INSERT
  5
889C
330
87AE
100
AcDbEntity
  8
0
  6
ByBlock
440
 16777216
100
AcDbBlockReference
  2
_OPEN
 10
4198.642846935526
 20
2136.700591673486
 30
0.0
 41
30.0
 42
30.0
 43
30.0
 50
180.0
  0
MTEXT
  5
889D
330
87AE
100
AcDbEntity
  8
0
  6
ByBlock
440
 16777216
100
AcDbMText
 10
4705.246705416535
 20
2166.700591673486
 30
0.0
 40
45.0
 41
0.0
 46
0.0
 71
     5
 72
     5
  1
\A1;1012
 73
     1
 44
1.0
  0
POINT
  5
889E
330
87AE
100
AcDbEntity
  8
DEFPOINTS
  6
ByBlock
 62
     0
440
 16777216
100
AcDbPoint
 10
5211.850563897542
 20
1549.177692316725
 30
0.0
  0
POINT
  5
889F
330
87AE
100
AcDbEntity
  8
DEFPOINTS
  6
ByBlock
 62
     0
440
 16777216
100
AcDbPoint
 10
4198.642846935526
 20
1239.177692316725
 30
0.0
  0
POINT
  5
88A0
330
87AE
100
AcDbEntity
  8
DEFPOINTS
  6
ByBlock
 62
     0
440
 16777216
100
AcDbPoint
 10
4198.642846935526
 20
2136.700591673486
 30
0.0
  0
ENDBLK
  5
88A1
330
87AE
100
AcDbEntity
  8
0
100
AcDbBlockEnd
  0
BLOCK
  5
88A2
330
87BA
100
AcDbEntity
  8
0
100
AcDbBlockBegin
  2
*D14
 70
     1
 10
0.0
 20
0.0
 30
0.0
  3
*D14
  1

  0
LINE
  5
88A3
330
87BA
100
AcDbEntity
  8
0
  6
ByBlock
440
 16777216
100
AcDbLine
 10
6049.992786142482
 20
1899.177692316725
 30
0.0
 11
6049.992786142482
 21
1954.271148908719
 31
0.0
  0
LINE
  5
88A4
330
87BA
100
AcDbEntity
  8
0
  6
ByBlock
440
 16777216
100
AcDbLine
 10
6579.992786142482
 20
1899.177692316725
 30
0.0
 11
6579.992786142482
 21
1954.271148908719
 31
0.0
  0
LINE
  5
88A5
330
87BA
100
AcDbEntity
  8
0
  6
ByBlock
440
 16777216
100
AcDbLine
 10
6079.992786142481
 20
1939.271148908719
 30
0.0
 11
6549.992786142482
 21
1939.271148908719
 31
0.0
  0
INSERT
  5
88A6
330
87BA
100
AcDbEntity
  8
0
  6
ByBlock
440
 16777216
100
AcDbBlockReference
  2
_OPEN
 10
6049.992786142482
 20
1939.271148908719
 30
0.0
 41
30.0
 42
30.0
 43
30.0
 50
180.0
  0
INSERT
  5
88A7
330
87BA
100
AcDbEntity
  8
0
  6
ByBlock
440
 16777216
100
AcDbBlockReference
  2
_OPEN
 10
6579.992786142482
 20
1939.271148908719
 30
0.0
 41
30.0
 42
30.0
 43
30.0
  0
MTEXT
  5
88A8
330
87BA
100
AcDbEntity
  8
0
  6
ByBlock
440
 16777216
100
AcDbMText
 10
6314.992786142482
 20
1969.27114890872
 30
0.0
 40
45.0
 41
0.0
 46
0.0
 71
     5
 72
     5
  1
\A1;530
 73
     1
 44
1.0
  0
POINT
  5
88A9
330
87BA
100
AcDbEntity
  8
DEFPOINTS
  6
ByBlock
 62
     0
440
 16777216
100
AcDbPoint
 10
6049.992786142482
 20
1884.177692316725
 30
0.0
  0
POINT
  5
88AA
330
87BA
100
AcDbEntity
  8
DEFPOINTS
  6
ByBlock
 62
     0
440
 16777216
100
AcDbPoint
 10
6579.992786142482
 20
1884.177692316725
 30
0.0
  0
POINT
  5
88AB
330
87BA
100
AcDbEntity
  8
DEFPOINTS
  6
ByBlock
 62
     0
440
 16777216
100
AcDbPoint
 10
6579.992786142482
 20
1939.271148908719
 30
0.0
  0
ENDBLK
  5
88AC
330
87BA
100
AcDbEntity
  8
0
100
AcDbBlockEnd
  0
BLOCK
  5
8912
330
8911
100
AcDbEntity
  8
0
100
AcDbBlockBegin
  2
_NONE
 70
     0
 10
0.0
 20
0.0
 30
0.0
  3
_NONE
  1

  0
CIRCLE
  5
8913
330
8911
100
AcDbEntity
  8
0
  6
ByBlock
 62
     0
100
AcDbCircle
 10
0.0
 20
0.0
 30
0.0
 40
0.25
  0
ENDBLK
  5
8914
330
8911
100
AcDbEntity
  8
0
100
AcDbBlockEnd
  0
BLOCK
  5
8944
330
8943
100
AcDbEntity
  8
0
100
AcDbBlockBegin
  2
*D16
 70
     1
 10
0.0
 20
0.0
 30
0.0
  3
*D16
  1

  0
LINE
  5
8945
330
8943
100
AcDbEntity
  8
0
  6
ByBlock
 62
     0
440
 16777216
100
AcDbLine
 10
425.1146223670294
 20
1166.677692316725
 30
0.0
 11
425.1146223670294
 21
1061.239491517175
 31
0.0
  0
LINE
  5
8946
330
8943
100
AcDbEntity
  8
0
  6
ByBlock
 62
     0
440
 16777216
100
AcDbLine
 10
1155.114622367029
 20
1166.677692316725
 30
0.0
 11
1155.114622367029
 21
1061.239491517175
 31
0.0
  0
LINE
  5
8947
330
8943
100
AcDbEntity
  8
0
  6
ByBlock
 62
     0
440
 16777216
100
AcDbLine
 10
455.1146223670293
 20
1076.239491517175
 30
0.0
 11
1125.114622367029
 21
1076.239491517175
 31
0.0
  0
INSERT
  5
8948
330
8943
100
AcDbEntity
  8
0
  6
ByBlock
 62
     0
440
 16777216
100
AcDbBlockReference
  2
_OPEN
 10
425.1146223670294
 20
1076.239491517175
 30
0.0
 41
30.0
 42
30.0
 43
30.0
 50
180.0
  0
INSERT
  5
8949
330
8943
100
AcDbEntity
  8
0
  6
ByBlock
 62
     0
440
 16777216
100
AcDbBlockReference
  2
_OPEN
 10
1155.114622367029
 20
1076.239491517175
 30
0.0
 41
30.0
 42
30.0
 43
30.0
  0
MTEXT
  5
894A
330
8943
100
AcDbEntity
  8
0
  6
ByBlock
 62
     0
440
 16777216
100
AcDbMText
 10
790.1146223670293
 20
1113.739491517175
 30
0.0
 40
45.0
 41
0.0
 46
0.0
 71
     5
 72
     5
  1
\A1;730
 73
     1
 44
1.0
  0
POINT
  5
894B
330
8943
100
AcDbEntity
  8
DEFPOINTS
  6
ByBlock
 62
     0
440
 16777216
100
AcDbPoint
 10
425.1146223670294
 20
1174.177692316725
 30
0.0
  0
POINT
  5
894C
330
8943
100
AcDbEntity
  8
DEFPOINTS
  6
ByBlock
 62
     0
440
 16777216
100
AcDbPoint
 10
1155.114622367029
 20
1174.177692316725
 30
0.0
  0
POINT
  5
894D
330
8943
100
AcDbEntity
  8
DEFPOINTS
  6
ByBlock
 62
     0
440
 16777216
100
AcDbPoint
 10
1155.114622367029
 20
1076.239491517175
 30
0.0
  0
ENDBLK
  5
894E
330
8943
100
AcDbEntity
  8
0
100
AcDbBlockEnd
  0
BLOCK
  5
8951
330
8950
100
AcDbEntity
  8
0
100
AcDbBlockBegin
  2
*D17
 70
     1
 10
0.0
 20
0.0
 30
0.0
  3
*D17
  1

  0
LINE
  5
8952
330
8950
100
AcDbEntity
  8
0
  6
ByBlock
 62
     0
440
 16777216
100
AcDbLine
 10
1155.114622367029
 20
1166.677692316725
 30
0.0
 11
1155.114622367029
 21
1061.239491517175
 31
0.0
  0
LINE
  5
8953
330
8950
100
AcDbEntity
  8
0
  6
ByBlock
 62
     0
440
 16777216
100
AcDbLine
 10
1405.114622367029
 20
1166.677692316725
 30
0.0
 11
1405.114622367029
 21
1061.239491517175
 31
0.0
  0
LINE
  5
8954
330
8950
100
AcDbEntity
  8
0
  6
ByBlock
 62
     0
440
 16777216
100
AcDbLine
 10
1185.114622367029
 20
1076.239491517175
 30
0.0
 11
1375.114622367029
 21
1076.239491517175
 31
0.0
  0
INSERT
  5
8955
330
8950
100
AcDbEntity
  8
0
  6
ByBlock
 62
     0
440
 16777216
100
AcDbBlockReference
  2
_OPEN
 10
1155.114622367029
 20
1076.239491517175
 30
0.0
 41
30.0
 42
30.0
 43
30.0
 50
180.0
  0
INSERT
  5
8956
330
8950
100
AcDbEntity
  8
0
  6
ByBlock
 62
     0
440
 16777216
100
AcDbBlockReference
  2
_OPEN
 10
1405.114622367029
 20
1076.239491517175
 30
0.0
 41
30.0
 42
30.0
 43
30.0
  0
MTEXT
  5
8957
330
8950
100
AcDbEntity
  8
0
  6
ByBlock
 62
     0
440
 16777216
100
AcDbMText
 10
1280.114622367029
 20
1113.739491517175
 30
0.0
 40
45.0
 41
0.0
 46
0.0
 71
     5
 72
     5
  1
\A1;250
 73
     1
 44
1.0
  0
POINT
  5
8958
330
8950
100
AcDbEntity
  8
DEFPOINTS
  6
ByBlock
 62
     0
440
 16777216
100
AcDbPoint
 10
1155.114622367029
 20
1174.177692316725
 30
0.0
  0
POINT
  5
8959
330
8950
100
AcDbEntity
  8
DEFPOINTS
  6
ByBlock
 62
     0
440
 16777216
100
AcDbPoint
 10
1405.114622367029
 20
1174.177692316725
 30
0.0
  0
POINT
  5
895A
330
8950
100
AcDbEntity
  8
DEFPOINTS
  6
ByBlock
 62
     0
440
 16777216
100
AcDbPoint
 10
1405.114622367029
 20
1076.239491517175
 30
0.0
  0
ENDBLK
  5
895B
330
8950
100
AcDbEntity
  8
0
100
AcDbBlockEnd
  0
BLOCK
  5
895E
330
895D
100
AcDbEntity
  8
0
100
AcDbBlockBegin
  2
*D18
 70
     1
 10
0.0
 20
0.0
 30
0.0
  3
*D18
  1

  0
LINE
  5
895F
330
895D
100
AcDbEntity
  8
0
  6
ByBlock
 62
     0
440
 16777216
100
AcDbLine
 10
2168.464561573985
 20
1166.677692316725
 30
0.0
 11
2168.464561573985
 21
1061.239491517175
 31
0.0
  0
LINE
  5
8960
330
895D
100
AcDbEntity
  8
0
  6
ByBlock
 62
     0
440
 16777216
100
AcDbLine
 10
2541.464561573985
 20
1166.677692316725
 30
0.0
 11
2541.464561573985
 21
1061.239491517175
 31
0.0
  0
LINE
  5
8961
330
895D
100
AcDbEntity
  8
0
  6
ByBlock
 62
     0
440
 16777216
100
AcDbLine
 10
2198.464561573985
 20
1076.239491517175
 30
0.0
 11
2511.464561573985
 21
1076.239491517175
 31
0.0
  0
INSERT
  5
8962
330
895D
100
AcDbEntity
  8
0
  6
ByBlock
 62
     0
440
 16777216
100
AcDbBlockReference
  2
_OPEN
 10
2168.464561573985
 20
1076.239491517175
 30
0.0
 41
30.0
 42
30.0
 43
30.0
 50
180.0
  0
INSERT
  5
8963
330
895D
100
AcDbEntity
  8
0
  6
ByBlock
 62
     0
440
 16777216
100
AcDbBlockReference
  2
_OPEN
 10
2541.464561573985
 20
1076.239491517175
 30
0.0
 41
30.0
 42
30.0
 43
30.0
  0
MTEXT
  5
8964
330
895D
100
AcDbEntity
  8
0
  6
ByBlock
 62
     0
440
 16777216
100
AcDbMText
 10
2354.964561573984
 20
1113.739491517175
 30
0.0
 40
45.0
 41
0.0
 46
0.0
 71
     5
 72
     5
  1
\A1;373
 73
     1
 44
1.0
  0
POINT
  5
8965
330
895D
100
AcDbEntity
  8
DEFPOINTS
  6
ByBlock
 62
     0
440
 16777216
100
AcDbPoint
 10
2168.464561573985
 20
1174.177692316725
 30
0.0
  0
POINT
  5
8966
330
895D
100
AcDbEntity
  8
DEFPOINTS
  6
ByBlock
 62
     0
440
 16777216
100
AcDbPoint
 10
2541.464561573985
 20
1174.177692316725
 30
0.0
  0
POINT
  5
8967
330
895D
100
AcDbEntity
  8
DEFPOINTS
  6
ByBlock
 62
     0
440
 16777216
100
AcDbPoint
 10
2541.464561573985
 20
1076.239491517175
 30
0.0
  0
ENDBLK
  5
8968
330
895D
100
AcDbEntity
  8
0
100
AcDbBlockEnd
  0
BLOCK
  5
896B
330
896A
100
AcDbEntity
  8
0
100
AcDbBlockBegin
  2
*D19
 70
     1
 10
0.0
 20
0.0
 30
0.0
  3
*D19
  1

  0
LINE
  5
896C
330
896A
100
AcDbEntity
  8
0
  6
ByBlock
 62
     0
440
 16777216
100
AcDbLine
 10
2541.464561573985
 20
1166.677692316725
 30
0.0
 11
2541.464561573985
 21
1061.239491517175
 31
0.0
  0
LINE
  5
896D
330
896A
100
AcDbEntity
  8
0
  6
ByBlock
 62
     0
440
 16777216
100
AcDbLine
 10
2848.464561573985
 20
1166.677692316725
 30
0.0
 11
2848.464561573985
 21
1061.239491517175
 31
0.0
  0
LINE
  5
896E
330
896A
100
AcDbEntity
  8
0
  6
ByBlock
 62
     0
440
 16777216
100
AcDbLine
 10
2571.464561573985
 20
1076.239491517175
 30
0.0
 11
2818.464561573985
 21
1076.239491517175
 31
0.0
  0
INSERT
  5
896F
330
896A
100
AcDbEntity
  8
0
  6
ByBlock
 62
     0
440
 16777216
100
AcDbBlockReference
  2
_OPEN
 10
2541.464561573985
 20
1076.239491517175
 30
0.0
 41
30.0
 42
30.0
 43
30.0
 50
180.0
  0
INSERT
  5
8970
330
896A
100
AcDbEntity
  8
0
  6
ByBlock
 62
     0
440
 16777216
100
AcDbBlockReference
  2
_OPEN
 10
2848.464561573985
 20
1076.239491517175
 30
0.0
 41
30.0
 42
30.0
 43
30.0
  0
MTEXT
  5
8971
330
896A
100
AcDbEntity
  8
0
  6
ByBlock
 62
     0
440
 16777216
100
AcDbMText
 10
2694.964561573985
 20
1113.739491517175
 30
0.0
 40
45.0
 41
0.0
 46
0.0
 71
     5
 72
     5
  1
\A1;307
 73
     1
 44
1.0
  0
POINT
  5
8972
330
896A
100
AcDbEntity
  8
DEFPOINTS
  6
ByBlock
 62
     0
440
 16777216
100
AcDbPoint
 10
2541.464561573985
 20
1174.177692316725
 30
0.0
  0
POINT
  5
8973
330
896A
100
AcDbEntity
  8
DEFPOINTS
  6
ByBlock
 62
     0
440
 16777216
100
AcDbPoint
 10
2848.464561573985
 20
1174.177692316725
 30
0.0
  0
POINT
  5
8974
330
896A
100
AcDbEntity
  8
DEFPOINTS
  6
ByBlock
 62
     0
440
 16777216
100
AcDbPoint
 10
2848.464561573985
 20
1076.239491517175
 30
0.0
  0
ENDBLK
  5
8975
330
896A
100
AcDbEntity
  8
0
100
AcDbBlockEnd
  0
BLOCK
  5
8978
330
8977
100
AcDbEntity
  8
0
100
AcDbBlockBegin
  2
*D20
 70
     1
 10
0.0
 20
0.0
 30
0.0
  3
*D20
  1

  0
LINE
  5
8979
330
8977
100
AcDbEntity
  8
0
  6
ByBlock
 62
     0
440
 16777216
100
AcDbLine
 10
1177.614622367029
 20
1884.177692316725
 30
0.0
 11
1804.143783752859
 21
1884.177692316725
 31
0.0
  0
LINE
  5
897A
330
8977
100
AcDbEntity
  8
0
  6
ByBlock
 62
     0
440
 16777216
100
AcDbLine
 10
1412.614622367029
 20
1174.177692316725
 30
0.0
 11
1804.143783752859
 21
1174.177692316725
 31
0.0
  0
LINE
  5
897B
330
8977
100
AcDbEntity
  8
0
  6
ByBlock
 62
     0
440
 16777216
100
AcDbLine
 10
1789.143783752859
 20
1854.177692316724
 30
0.0
 11
1789.143783752859
 21
1204.177692316725
 31
0.0
  0
INSERT
  5
897C
330
8977
100
AcDbEntity
  8
0
  6
ByBlock
 62
     0
440
 16777216
100
AcDbBlockReference
  2
_OPEN
 10
1789.143783752859
 20
1884.177692316725
 30
0.0
 41
30.0
 42
30.0
 43
30.0
 50
90.0
  0
INSERT
  5
897D
330
8977
100
AcDbEntity
  8
0
  6
ByBlock
 62
     0
440
 16777216
100
AcDbBlockReference
  2
_OPEN
 10
1789.143783752859
 20
1174.177692316725
 30
0.0
 41
30.0
 42
30.0
 43
30.0
 50
270.0
  0
MTEXT
  5
897E
330
8977
100
AcDbEntity
  8
0
  6
ByBlock
 62
     0
440
 16777216
100
AcDbMText
 10
1751.643783752859
 20
1529.177692316725
 30
0.0
 40
45.0
 41
0.0
 46
0.0
 71
     5
 72
     5
  1
\A1;710
 11
0.0
 21
1.0
 31
0.0
 73
     1
 44
1.0
  0
POINT
  5
897F
330
8977
100
AcDbEntity
  8
DEFPOINTS
  6
ByBlock
 62
     0
440
 16777216
100
AcDbPoint
 10
1170.114622367029
 20
1884.177692316725
 30
0.0
  0
POINT
  5
8980
330
8977
100
AcDbEntity
  8
DEFPOINTS
  6
ByBlock
 62
     0
440
 16777216
100
AcDbPoint
 10
1405.114622367029
 20
1174.177692316725
 30
0.0
  0
POINT
  5
8981
330
8977
100
AcDbEntity
  8
DEFPOINTS
  6
ByBlock
 62
     0
440
 16777216
100
AcDbPoint
 10
1789.143783752859
 20
1174.177692316725
 30
0.0
  0
ENDBLK
  5
8982
330
8977
100
AcDbEntity
  8
0
100
AcDbBlockEnd
  0
ENDSEC
  0
SECTION
  2
ENTITIES
  0
LINE
  5
831D
330
19
100
AcDbEntity
  8
4
100
AcDbLine
 10
2775.0
 20
750.0
 30
0.0
 11
2775.0
 21
450.0
 31
0.0
  0
LINE
  5
831E
330
19
100
AcDbEntity
  8
4
100
AcDbLine
 10
1725.0
 20
750.0
 30
0.0
 11
1725.0
 21
450.0
 31
0.0
  0
LINE
  5
831F
330
19
100
AcDbEntity
  8
4
100
AcDbLine
 10
975.0
 20
750.0
 30
0.0
 11
975.0
 21
450.0
 31
0.0
  0
LINE
  5
8322
330
19
100
AcDbEntity
  8
4
100
AcDbLine
 10
975.0
 20
450.0
 30
0.0
 11
2775.0
 21
450.0
 31
0.0
  0
LINE
  5
8323
330
19
100
AcDbEntity
  8
4
100
AcDbLine
 10
975.0
 20
600.0
 30
0.0
 11
2775.0
 21
600.0
 31
0.0
  0
TEXT
  5
8324
330
19
100
AcDbEntity
  8
4
100
AcDbText
 10
1032.753121270352
 20
647.3145387999193
 30
0.0
 40
75.0
  1
機器名称
100
AcDbText
  0
TEXT
  5
8325
330
19
100
AcDbEntity
  8
4
100
AcDbText
 10
1029.387159037196
 20
482.4677350980164
 30
0.0
 40
75.0
  1
機器型番
100
AcDbText
  0
TEXT
  5
8326
330
19
100
AcDbEntity
  8
4
100
AcDbText
 10
1765.683671544667
 20
634.5324550190777
 30
0.0
 40
60.0
  1
ミツヤリミットロードファン
100
AcDbText
  0
TEXT
  5
8327
330
19
100
AcDbEntity
  8
4
100
AcDbText
 10
1779.981743378221
 20
475.739376419915
 30
0.0
 40
75.0
  1
LL#2 1/2-5
100
AcDbText
  0
TEXT
  5
8329
330
19
100
AcDbEntity
  8
4
100
AcDbText
 10
1206.686190474767
 20
3575.143261998774
 30
0.0
 40
80.99999999999999
  1
床置ベット
100
AcDbText
  0
TEXT
  5
832A
330
19
100
AcDbEntity
  8
4
100
AcDbText
 10
442.5687705727723
 20
3800.821464298947
 30
0.0
 40
108.0
  1
遠心式両吸込両持リミットロードファン
100
AcDbText
  0
LINE
  5
832B
330
19
100
AcDbEntity
  8
4
100
AcDbLine
 10
375.0
 20
3704.113131397207
 30
0.0
 11
2775.0
 21
3704.113131397207
 31
0.0
  0
LINE
  5
832C
330
19
100
AcDbEntity
  8
4
100
AcDbLine
 10
375.0
 20
4004.113131397207
 30
0.0
 11
2775.0
 21
4004.113131397207
 31
0.0
  0
LINE
  5
832D
330
19
100
AcDbEntity
  8
4
100
AcDbLine
 10
975.0
 20
750.0
 30
0.0
 11
2775.0
 21
750.0
 31
0.0
  0
LINE
  5
832E
330
19
100
AcDbEntity
  8
4
100
AcDbLine
 10
375.0
 20
4004.113131397207
 30
0.0
 11
375.0
 21
3704.113131397207
 31
0.0
  0
TEXT
  5
832F
330
19
100
AcDbEntity
  8
4
100
AcDbText
 10
552.8979421107142
 20
3573.479216319515
 30
0.0
 40
80.99999999999999
  1
右回転上向
100
AcDbText
  0
TEXT
  5
8330
330
19
100
AcDbEntity
  8
4
100
AcDbText
 10
2203.454338873935
 20
4059.091622242963
 30
0.0
 40
84.00000000000002
  1
No.
100
AcDbText
  0
TEXT
  5
8331
330
19
100
AcDbEntity
  8
4
100
AcDbText
 10
1966.94409390002
 20
3575.143261998774
 30
0.0
 40
80.99999999999999
  1
縮尺：1/15
100
AcDbText
  0
LINE
  5
8332
330
19
100
AcDbEntity
  8
4
100
AcDbLine
 10
2775.0
 20
4004.113131397207
 30
0.0
 11
2775.0
 21
3704.113131397207
 31
0.0
  0
LINE
  5
8333
330
19
100
AcDbEntity
  8
4
100
AcDbLine
 10
3150.0
 20
4425.0
 30
0.0
 11
3150.0
 21
4425.0
 31
0.0
  0
LINE
  5
8334
330
19
100
AcDbEntity
  8
4
100
AcDbLine
 10
2160.926133539797
 20
4021.895374688102
 30
0.0
 11
2160.926133539797
 21
4179.978392324628
 31
0.0
  0
LINE
  5
8335
330
19
100
AcDbEntity
  8
4
100
AcDbLine
 10
2160.926133539797
 20
4179.978392324628
 30
0.0
 11
2775.0
 21
4179.978392324628
 31
0.0
  0
LINE
  5
8336
330
19
100
AcDbEntity
  8
4
100
AcDbLine
 10
2775.0
 20
4179.978392324628
 30
0.0
 11
2775.0
 21
4021.895374688102
 31
0.0
  0
LINE
  5
8337
330
19
100
AcDbEntity
  8
4
100
AcDbLine
 10
2775.0
 20
4021.895374688102
 30
0.0
 11
2160.926133539797
 21
4021.895374688102
 31
0.0
  0
LINE
  5
8338
330
19
100
AcDbEntity
  8
4
100
AcDbLine
 10
0.0
 20
0.0
 30
0.0
 11
0.0
 21
4425.0
 31
0.0
  0
LINE
  5
8339
330
19
100
AcDbEntity
  8
4
100
AcDbLine
 10
0.0
 20
4425.0
 30
0.0
 11
3150.0
 21
4425.0
 31
0.0
  0
LINE
  5
833A
330
19
100
AcDbEntity
  8
4
100
AcDbLine
 10
3150.0
 20
4425.0
 30
0.0
 11
3150.0
 21
0.0
 31
0.0
  0
LINE
  5
833B
330
19
100
AcDbEntity
  8
4
100
AcDbLine
 10
3150.0
 20
0.0
 30
0.0
 11
0.0
 21
0.0
 31
0.0
  0
LINE
  5
8633
330
19
100
AcDbEntity
  8
1
100
AcDbLine
 10
1170.114622367029
 20
1881.177692316725
 30
0.0
 11
704.119805054458
 21
1881.177692316725
 31
0.0
  0
LINE
  5
8634
330
19
100
AcDbEntity
  8
1
100
AcDbLine
 10
1170.114622367029
 20
1884.177692316725
 30
0.0
 11
1170.114622367029
 21
1881.177692316725
 31
0.0
  0
LINE
  5
8635
330
19
100
AcDbEntity
  8
1
100
AcDbLine
 10
704.119805054458
 20
1884.177692316725
 30
0.0
 11
704.119805054458
 21
1881.177692316725
 31
0.0
  0
DIMENSION
  5
8636
330
19
100
AcDbEntity
  8
3
100
AcDbDimension
280
     0
  2
*D3
 10
1155.114622367029
 20
2050.107021541788
 30
0.0
 11
943.1146223670294
 21
2080.107021541788
 31
0.0
 12
-3773.528224568498
 22
0.0
 32
0.0
 70
    32
 71
     5
 42
-1.0
 73
     0
 74
     0
 75
     0
  3
MATSU
100
AcDbAlignedDimension
 13
731.1146223670293
 23
1884.177692316725
 33
0.0
 14
1155.114622367029
 24
1889.177692316725
 34
0.0
100
AcDbRotatedDimension
1001
ACAD
1000
DSTYLE
1002
{
1070
    40
1040
15.0
1002
}
  0
DIMENSION
  5
8637
330
19
100
AcDbEntity
  8
3
100
AcDbDimension
280
     0
  2
*D4
 10
2980.74308199151
 20
1379.177692316725
 30
0.0
 11
2950.74308199151
 21
1579.177692316725
 31
0.0
 12
-3773.528224568498
 22
0.0
 32
0.0
 70
    32
  1
φ400
 71
     5
 42
-1.0
 73
     0
 74
     0
 75
     0
  3
MATSU
100
AcDbAlignedDimension
 13
2808.464561573984
 23
1779.177692316725
 33
0.0
 14
2808.464561573984
 24
1379.177692316725
 34
0.0
 50
90.0
100
AcDbRotatedDimension
1001
ACAD
1000
DSTYLE
1002
{
1070
    40
1040
15.0
1002
}
  0
LINE
  5
8638
330
19
100
AcDbEntity
  8
2
100
AcDbLine
 10
1996.756736569341
 20
1579.177692316725
 30
0.0
 11
2886.464561573985
 21
1579.177692316725
 31
0.0
  0
LINE
  5
8639
330
19
100
AcDbEntity
  8
1
100
AcDbLine
 10
2806.464561573985
 20
1884.177692316725
 30
0.0
 11
2806.464561573985
 21
1249.177692316725
 31
0.0
  0
LINE
  5
863A
330
19
100
AcDbEntity
  8
1
100
AcDbLine
 10
2276.464561573984
 20
1884.177692316725
 30
0.0
 11
2276.464561573985
 21
1249.177692316725
 31
0.0
  0
LINE
  5
863B
330
19
100
AcDbEntity
  8
1
100
AcDbLine
 10
1143.114622367029
 20
1859.177692316725
 30
0.0
 11
732.9179010555544
 21
1859.177692316725
 31
0.0
  0
DIMENSION
  5
863C
330
19
100
AcDbEntity
  8
3
100
AcDbDimension
280
     0
  2
*D5
 10
1143.114622367029
 20
1954.472871515952
 30
0.0
 11
937.1146223670294
 21
1984.472871515952
 31
0.0
 12
-3773.528224568498
 22
0.0
 32
0.0
 70
    32
 71
     5
 42
-1.0
 73
     0
 74
     0
 75
     0
  3
MATSU
100
AcDbAlignedDimension
 13
731.1146223670293
 23
1884.177692316725
 33
0.0
 14
1143.114622367029
 24
1884.177692316725
 34
0.0
100
AcDbRotatedDimension
1001
ACAD
1000
DSTYLE
1002
{
1070
    40
1040
15.0
1002
}
  0
LINE
  5
863D
330
19
100
AcDbEntity
  8
1
100
AcDbLine
 10
1143.114622367029
 20
1813.040142638851
 30
0.0
 11
1143.114622367029
 21
1884.177692316725
 31
0.0
  0
LINE
  5
863E
330
19
100
AcDbEntity
  8
1
100
AcDbLine
 10
1170.114622367029
 20
1884.177692316725
 30
0.0
 11
704.119805054458
 21
1884.177692316725
 31
0.0
  0
LINE
  5
863F
330
19
100
AcDbEntity
  8
2
100
AcDbLine
 10
1465.114622367029
 20
1579.177692316725
 30
0.0
 11
742.7343006525261
 21
1579.177692316725
 31
0.0
  0
LINE
  5
8640
330
19
100
AcDbEntity
  8
2
100
AcDbLine
 10
1155.114622367029
 20
1888.641413610776
 30
0.0
 11
1155.114622367029
 21
1174.177692316725
 31
0.0
  0
LINE
  5
8641
330
19
100
AcDbEntity
  8
2
100
AcDbLine
 10
2541.464561573985
 20
1904.887215533345
 30
0.0
 11
2541.464561573985
 21
1174.177692316725
 31
0.0
  0
CIRCLE
  5
864A
330
19
100
AcDbEntity
  8
1
100
AcDbCircle
 10
1155.114622367029
 20
1579.177692316725
 30
0.0
 40
200.0
  0
CIRCLE
  5
864B
330
19
100
AcDbEntity
  8
1
100
AcDbCircle
 10
1155.114622367029
 20
1579.177692316725
 30
0.0
 40
225.0
  0
LINE
  5
864C
330
19
100
AcDbEntity
  8
1
100
AcDbLine
 10
1405.114622367029
 20
1174.177692316725
 30
0.0
 11
425.1146223670294
 21
1174.177692316725
 31
0.0
  0
LINE
  5
864F
330
19
100
AcDbEntity
  8
1
100
AcDbLine
 10
1405.114622367029
 20
1249.177692316725
 30
0.0
 11
1405.114622367029
 21
1174.177692316725
 31
0.0
  0
LINE
  5
8650
330
19
100
AcDbEntity
  8
1
100
AcDbLine
 10
425.1146223670294
 20
1249.177692316725
 30
0.0
 11
425.1146223670294
 21
1174.177692316725
 31
0.0
  0
DIMENSION
  5
8653
330
19
100
AcDbEntity
  8
3
100
AcDbDimension
280
     0
  2
*D6
 10
1680.836204997755
 20
1174.177692316725
 30
0.0
 11
1650.836204997755
 21
1376.677692316725
 31
0.0
 70
    32
 71
     5
 42
-1.0
 73
     0
 74
     0
 75
     0
  3
MATSU
100
AcDbAlignedDimension
 13
1465.114622367029
 23
1579.177692316725
 33
0.0
 14
1405.114622367029
 24
1174.177692316725
 34
0.0
 50
90.0
100
AcDbRotatedDimension
1001
ACAD
1000
DSTYLE
1002
{
1070
   287
1070
     4
1070
    40
1040
15.0
1070
    75
1070
     1
1070
   279
1070
     1
1070
   289
1070
     3
1002
}
  0
LINE
  5
8657
330
19
100
AcDbEntity
  8
2
100
AcDbLine
 10
635.1146223670293
 20
1668.413692316725
 30
0.0
 11
635.1146223670292
 21
1174.177692316725
 31
0.0
  0
LINE
  5
8658
330
19
100
AcDbEntity
  8
2
100
AcDbLine
 10
452.6020732362867
 20
1456.177692316725
 30
0.0
 11
858.1914507096554
 21
1456.177692316725
 31
0.0
  0
LINE
  5
8659
330
19
100
AcDbEntity
  8
1
100
AcDbLine
 10
745.6760223670299
 20
1581.955692316725
 30
0.0
 11
743.5228223670292
 21
1579.409692316725
 31
0.0
  0
LINE
  5
865A
330
19
100
AcDbEntity
  8
1
100
AcDbLine
 10
2168.464561573985
 20
1174.177692316725
 30
0.0
 11
2848.464561573985
 21
1174.177692316725
 31
0.0
  0
LINE
  5
865D
330
19
100
AcDbEntity
  8
1
100
AcDbLine
 10
2848.464561573985
 20
1249.177692316725
 30
0.0
 11
2848.464561573985
 21
1174.177692316725
 31
0.0
  0
LINE
  5
865E
330
19
100
AcDbEntity
  8
1
100
AcDbLine
 10
2168.464561573985
 20
1249.177692316725
 30
0.0
 11
2168.464561573985
 21
1174.177692316725
 31
0.0
  0
LINE
  5
8664
330
19
100
AcDbEntity
  8
1
100
AcDbLine
 10
2196.464561573985
 20
1526.277692316725
 30
0.0
 11
2196.464561573985
 21
1466.277692316725
 31
0.0
  0
LINE
  5
8665
330
19
100
AcDbEntity
  8
1
100
AcDbLine
 10
2266.464561573985
 20
1536.277692316725
 30
0.0
 11
2266.464561573985
 21
1456.277692316725
 31
0.0
  0
LINE
  5
8666
330
19
100
AcDbEntity
  8
1
100
AcDbLine
 10
2883.464561573985
 20
1535.877692316725
 30
0.0
 11
2883.464561573985
 21
1475.877692316724
 31
0.0
  0
LINE
  5
8667
330
19
100
AcDbEntity
  8
1
100
AcDbLine
 10
2813.464561573985
 20
1545.877692316725
 30
0.0
 11
2813.464561573985
 21
1465.877692316725
 31
0.0
  0
LINE
  5
8668
330
19
100
AcDbEntity
  8
1
100
AcDbLine
 10
2813.464561573985
 20
1545.877692316725
 30
0.0
 11
2873.464561573985
 21
1545.877692316724
 31
0.0
  0
LINE
  5
8669
330
19
100
AcDbEntity
  8
1
100
AcDbLine
 10
2813.464561573985
 20
1465.877692316725
 30
0.0
 11
2873.464561573985
 21
1465.877692316724
 31
0.0
  0
LINE
  5
866A
330
19
100
AcDbEntity
  8
1
100
AcDbLine
 10
2206.464561573985
 20
1536.277692316725
 30
0.0
 11
2266.464561573985
 21
1536.277692316725
 31
0.0
  0
LINE
  5
866B
330
19
100
AcDbEntity
  8
1
100
AcDbLine
 10
2206.464561573985
 20
1456.277692316725
 30
0.0
 11
2266.464561573984
 21
1456.277692316725
 31
0.0
  0
LINE
  5
866C
330
19
100
AcDbEntity
  8
1
100
AcDbLine
 10
2206.464561573985
 20
1536.277692316725
 30
0.0
 11
2196.464561573985
 21
1526.277692316725
 31
0.0
  0
LINE
  5
866D
330
19
100
AcDbEntity
  8
1
100
AcDbLine
 10
2196.464561573985
 20
1466.277692316725
 30
0.0
 11
2206.464561573985
 21
1456.277692316725
 31
0.0
  0
LINE
  5
866E
330
19
100
AcDbEntity
  8
1
100
AcDbLine
 10
2873.464561573985
 20
1545.877692316724
 30
0.0
 11
2883.464561573985
 21
1535.877692316725
 31
0.0
  0
LINE
  5
866F
330
19
100
AcDbEntity
  8
1
100
AcDbLine
 10
2883.464561573985
 20
1475.877692316724
 30
0.0
 11
2873.464561573985
 21
1465.877692316724
 31
0.0
  0
DIMENSION
  5
8670
330
19
100
AcDbEntity
  8
3
100
AcDbDimension
280
     0
  2
*D7
 10
2541.464561573985
 20
2048.861173295055
 30
0.0
 11
2712.464561573985
 21
2090.646887580769
 31
0.0
 12
-3773.528224568498
 22
0.0
 32
0.0
 70
    32
  1
(<>)
 71
     5
 42
-1.0
 73
     0
 74
     0
 75
     0
  3
MATSU
100
AcDbAlignedDimension
 13
2883.464561573985
 23
1538.877692316725
 33
0.0
 14
2541.464561573985
 24
1994.358572203237
 34
0.0
100
AcDbRotatedDimension
1001
ACAD
1000
DSTYLE
1002
{
1070
    40
1040
15.0
1002
}
  0
LINE
  5
8671
330
19
100
AcDbEntity
  8
2
100
AcDbLine
 10
1155.114622367029
 20
2344.1428249329
 30
0.0
 11
1155.114622367029
 21
3231.037518977184
 31
0.0
  0
LINE
  5
8672
330
19
100
AcDbEntity
  8
2
100
AcDbLine
 10
731.1146223670293
 20
2894.556286029656
 30
0.0
 11
1536.547310379523
 21
2894.556286029656
 31
0.0
  0
LINE
  5
8673
330
19
100
AcDbEntity
  8
1
100
AcDbLine
 10
425.1146223670294
 20
3201.556286029656
 30
0.0
 11
1405.114622367029
 21
3201.556286029656
 31
0.0
  0
LINE
  5
8674
330
19
100
AcDbEntity
  8
1
100
AcDbLine
 10
425.1146223670294
 20
2521.556286029657
 30
0.0
 11
1405.114622367029
 21
2521.556286029657
 31
0.0
  0
LINE
  5
8675
330
19
100
AcDbEntity
  8
1
100
AcDbLine
 10
1405.114622367029
 20
2521.556286029656
 30
0.0
 11
1405.114622367029
 21
2629.556286029656
 31
0.0
  0
LINE
  5
8676
330
19
100
AcDbEntity
  8
1
100
AcDbLine
 10
425.1146223670294
 20
2521.556286029657
 30
0.0
 11
425.1146223670294
 21
3201.556286029656
 31
0.0
  0
LINE
  5
8677
330
19
100
AcDbEntity
  8
1
100
AcDbLine
 10
731.1146223670293
 20
3159.556286029657
 30
0.0
 11
1437.114622367029
 21
3159.556286029656
 31
0.0
  0
LINE
  5
8678
330
19
100
AcDbEntity
  8
1
100
AcDbLine
 10
731.1146223670293
 20
2629.556286029656
 30
0.0
 11
1437.114622367029
 21
2629.556286029656
 31
0.0
  0
LINE
  5
8679
330
19
100
AcDbEntity
  8
1
100
AcDbLine
 10
2011.464561573985
 20
1729.177692316725
 30
0.0
 11
2011.464561573985
 21
1306.177692316725
 31
0.0
  0
LINE
  5
867A
330
19
100
AcDbEntity
  8
1
100
AcDbLine
 10
492.6146223670293
 20
2364.556286029655
 30
0.0
 11
1305.114622367029
 21
2364.556286029655
 31
0.0
  0
DIMENSION
  5
867B
330
19
100
AcDbEntity
  8
3
100
AcDbDimension
280
     0
  2
*D8
 10
1405.114622367029
 20
3391.984167016352
 30
0.0
 11
915.1146223670293
 21
3421.984167016352
 31
0.0
 12
-3773.528224568498
 22
0.0
 32
0.0
 70
    32
 71
     5
 42
-1.0
 73
     0
 74
     0
 75
     0
  3
MATSU
100
AcDbAlignedDimension
 13
425.1146223670294
 23
3201.556286029656
 33
0.0
 14
1405.114622367029
 24
3201.556286029656
 34
0.0
100
AcDbRotatedDimension
1001
ACAD
1000
DSTYLE
1002
{
1070
    40
1040
15.0
1002
}
  0
DIMENSION
  5
867C
330
19
100
AcDbEntity
  8
3
100
AcDbDimension
280
     0
  2
*D9
 10
1648.394078867235
 20
2521.556286029657
 30
0.0
 11
1618.394078867235
 21
2861.556286029656
 31
0.0
 12
-3773.528224568498
 22
0.0
 32
0.0
 70
    32
 71
     5
 42
-1.0
 73
     0
 74
     0
 75
     0
  3
MATSU
100
AcDbAlignedDimension
 13
1405.114622367029
 23
3201.556286029656
 33
0.0
 14
1405.114622367029
 24
2521.556286029657
 34
0.0
 50
90.0
100
AcDbRotatedDimension
1001
ACAD
1000
DSTYLE
1002
{
1070
    40
1040
15.0
1002
}
  0
LINE
  5
867D
330
19
100
AcDbEntity
  8
1
100
AcDbLine
 10
2171.464561573985
 20
1599.177692316725
 30
0.0
 11
2276.464561573984
 21
1599.177692316725
 31
0.0
  0
LINE
  5
867E
330
19
100
AcDbEntity
  8
1
100
AcDbLine
 10
2171.464561573985
 20
1559.177692316725
 30
0.0
 11
2276.464561573984
 21
1559.177692316725
 31
0.0
  0
LINE
  5
867F
330
19
100
AcDbEntity
  8
1
100
AcDbLine
 10
1175.114622367029
 20
2524.556286029655
 30
0.0
 11
1175.114622367029
 21
2629.556286029656
 31
0.0
  0
LINE
  5
8680
330
19
100
AcDbEntity
  8
1
100
AcDbLine
 10
1135.114622367029
 20
2524.556286029655
 30
0.0
 11
1135.114622367029
 21
2629.556286029656
 31
0.0
  0
DIMENSION
  5
8681
330
19
100
AcDbEntity
  8
3
100
AcDbDimension
280
     0
  2
*D10
 10
2011.464561573985
 20
2048.861173295055
 30
0.0
 11
2276.464561573985
 21
2090.646887580769
 31
0.0
 70
    32
  1
(<>)
 71
     5
 42
530.0
 73
     0
 74
     0
 75
     0
  3
MATSU
100
AcDbAlignedDimension
 13
2541.464561573985
 23
1994.358572203237
 33
0.0
 14
2011.464561573985
 24
1734.177692316725
 34
0.0
100
AcDbRotatedDimension
1001
ACAD
1000
DSTYLE
1002
{
1070
   287
1070
     4
1070
    40
1040
15.0
1070
    75
1070
     1
1070
   279
1070
     1
1070
   289
1070
     3
1002
}
  0
LINE
  5
8682
330
19
100
AcDbEntity
  8
1
100
AcDbLine
 10
1305.114622367029
 20
2364.556286029657
 30
0.0
 11
1305.114622367029
 21
2556.556286029656
 31
0.0
  0
DIMENSION
  5
8683
330
19
100
AcDbEntity
  8
3
100
AcDbDimension
280
     0
  2
*D11
 10
1438.322339329045
 20
2050.107021541788
 30
0.0
 11
1296.718480848037
 21
2080.107021541788
 31
0.0
 70
    32
  1
282
 71
     5
 42
-1.0
 73
     0
 74
     0
 75
     0
  3
MATSU
100
AcDbAlignedDimension
 13
1155.114622367029
 23
1889.177692316725
 33
0.0
 14
1438.322339329045
 24
1549.177692316725
 34
0.0
100
AcDbRotatedDimension
1001
ACAD
1000
DSTYLE
1002
{
1070
   287
1070
     4
1070
    40
1040
15.0
1070
    75
1070
     1
1070
   279
1070
     1
1070
   289
1070
     3
1002
}
  0
DIMENSION
  5
8684
330
19
100
AcDbEntity
  8
3
100
AcDbDimension
280
     0
  2
*D12
 10
1682.752982160353
 20
1579.177692316725
 30
0.0
 11
1652.752982160353
 21
1731.677692316725
 31
0.0
 12
-3773.528224568498
 22
0.0
 32
0.0
 70
    32
 71
     5
 42
-1.0
 73
     0
 74
     0
 75
     0
  3
MATSU
100
AcDbAlignedDimension
 13
1170.114622367029
 23
1884.177692316725
 33
0.0
 14
1465.114622367029
 24
1579.177692316725
 34
0.0
 50
90.0
100
AcDbRotatedDimension
1001
ACAD
1000
DSTYLE
1002
{
1070
    40
1040
15.0
1002
}
  0
DIMENSION
  5
8686
330
19
100
AcDbEntity
  8
3
100
AcDbDimension
280
     0
  2
*D13
 10
425.1146223670294
 20
2136.700591673486
 30
0.0
 11
931.7184808480378
 21
2166.700591673486
 31
0.0
 12
-3773.528224568498
 22
0.0
 32
0.0
 70
    32
  1
1012
 71
     5
 42
-1.0
 73
     0
 74
     0
 75
     0
  3
MATSU
100
AcDbAlignedDimension
 13
1438.322339329045
 23
1549.177692316725
 33
0.0
 14
425.1146223670294
 24
1239.177692316725
 34
0.0
100
AcDbRotatedDimension
1001
ACAD
1000
DSTYLE
1002
{
1070
    40
1040
15.0
1002
}
  0
LINE
  5
8687
330
19
100
AcDbEntity
  8
1
100
AcDbLine
 10
2251.464561573984
 20
1884.177692316725
 30
0.0
 11
2831.464561573985
 21
1884.177692316725
 31
0.0
  0
LINE
  5
8688
330
19
100
AcDbEntity
  8
1
100
AcDbLine
 10
2251.464561573984
 20
1884.177692316725
 30
0.0
 11
2251.464561573984
 21
1881.177692316725
 31
0.0
  0
LINE
  5
8689
330
19
100
AcDbEntity
  8
1
100
AcDbLine
 10
2831.464561573985
 20
1884.177692316725
 30
0.0
 11
2831.464561573985
 21
1881.177692316725
 31
0.0
  0
LINE
  5
868A
330
19
100
AcDbEntity
  8
1
100
AcDbLine
 10
2251.464561573984
 20
1881.177692316725
 30
0.0
 11
2831.464561573985
 21
1881.177692316725
 31
0.0
  0
DIMENSION
  5
868B
330
19
100
AcDbEntity
  8
3
100
AcDbDimension
280
     0
  2
*D14
 10
2806.464561573985
 20
1939.271148908719
 30
0.0
 11
2541.464561573985
 21
1969.27114890872
 31
0.0
 12
-3773.528224568498
 22
0.0
 32
0.0
 70
    32
 71
     5
 42
-1.0
 73
     0
 74
     0
 75
     0
  3
MATSU
100
AcDbAlignedDimension
 13
2276.464561573984
 23
1884.177692316725
 33
0.0
 14
2806.464561573985
 24
1884.177692316725
 34
0.0
100
AcDbRotatedDimension
1001
ACAD
1000
DSTYLE
1002
{
1070
    40
1040
15.0
1002
}
  0
LINE
  5
868C
330
19
100
AcDbEntity
  8
1
100
AcDbLine
 10
1437.114622367029
 20
2629.556286029656
 30
0.0
 11
1437.114622367029
 21
3159.556286029656
 31
0.0
  0
LINE
  5
868D
330
19
100
AcDbEntity
  8
1
100
AcDbLine
 10
731.1146223670292
 20
2629.556286029656
 30
0.0
 11
731.1146223670293
 21
3159.556286029657
 31
0.0
  0
LINE
  5
868E
330
19
100
AcDbEntity
  8
1
100
AcDbLine
 10
1143.114622367029
 20
2629.556286029656
 30
0.0
 11
1143.114622367029
 21
3159.556286029656
 31
0.0
  0
LINE
  5
8691
330
19
100
AcDbEntity
  8
1
100
AcDbLine
 10
1405.114622367029
 20
3159.556286029656
 30
0.0
 11
1405.114622367029
 21
3201.556286029656
 31
0.0
  0
LINE
  5
8694
330
19
100
AcDbEntity
  8
1
100
AcDbLine
 10
1405.114622367029
 20
1249.177692316725
 30
0.0
 11
425.1146223670294
 21
1249.177692316725
 31
0.0
  0
LINE
  5
8695
330
19
100
AcDbEntity
  8
1
100
AcDbLine
 10
2168.464561573985
 20
1249.177692316725
 30
0.0
 11
2848.464561573985
 21
1249.177692316725
 31
0.0
  0
INSERT
  5
8696
330
19
100
AcDbEntity
  8
0
100
AcDbBlockReference
  2
YA_N
 10
11726.0309121532
 20
46.97352167509961
 30
0.0
  0
INSERT
  5
8697
330
19
100
AcDbEntity
  8
0
100
AcDbBlockReference
  2
YA_N
 10
11726.0309121532
 20
46.97352167509961
 30
0.0
  0
INSERT
  5
8698
330
19
100
AcDbEntity
  8
0
100
AcDbBlockReference
  2
YA_N
 10
13372.14134247164
 20
395.8333338643276
 30
0.0
  0
INSERT
  5
8699
330
19
100
AcDbEntity
  8
0
100
AcDbBlockReference
  2
YA_N
 10
11510.62727548383
 20
-1402.510486570387
 30
0.0
 41
10.0
 42
10.0
 43
10.0
  0
INSERT
  5
869A
330
19
100
AcDbEntity
  8
0
100
AcDbBlockReference
  2
YA_N
 10
11510.62727548383
 20
-1402.510486570387
 30
0.0
 41
10.0
 42
10.0
 43
10.0
  0
INSERT
  5
869B
330
19
100
AcDbEntity
  8
0
  6
ByBlock
 62
     2
100
AcDbBlockReference
  2
YA_N
 10
12881.94095417078
 20
-353.1251620733858
 30
0.0
 41
30.0
 42
30.0
 43
30.0
 50
90.0
  0
INSERT
  5
869C
330
19
100
AcDbEntity
  8
0
  6
ByBlock
 62
     2
100
AcDbBlockReference
  2
YA_N
 10
12881.94095417078
 20
-353.1251620733858
 30
0.0
 41
30.0
 42
30.0
 43
30.0
 50
90.0
  0
ARC
  5
869D
330
19
100
AcDbEntity
  8
1
100
AcDbCircle
 10
635.1146223670293
 20
1456.177692316725
 30
0.0
 40
150.0
100
AcDbArc
 50
103.3080567007366
 51
283.3080567007366
  0
CIRCLE
  5
869E
330
19
100
AcDbEntity
  8
1
100
AcDbCircle
 10
635.1146223670293
 20
1456.177692316725
 30
0.0
 40
75.0
  0
LINE
  5
869F
330
19
100
AcDbEntity
  8
1
100
AcDbLine
 10
800.1146223670293
 20
1324.177692316725
 30
0.0
 11
470.1146223670293
 21
1324.177692316724
 31
0.0
  0
ARC
  5
86A0
330
19
100
AcDbEntity
  8
1
100
AcDbCircle
 10
635.1146223670293
 20
1456.177692316725
 30
0.0
 40
142.5
100
AcDbArc
 50
180.0
 51
244.787
  0
ARC
  5
86A1
330
19
100
AcDbEntity
  8
1
100
AcDbCircle
 10
635.1146223670293
 20
1456.177692316725
 30
0.0
 40
142.5
100
AcDbArc
 50
295.1874
 51
180.0
  0
LINE
  5
86A2
330
19
100
AcDbEntity
  8
1
100
AcDbLine
 10
574.5733223670295
 20
1327.177692316725
 30
0.0
 11
695.6559223670292
 21
1327.177692316725
 31
0.0
  0
LINE
  5
86A3
330
19
100
AcDbEntity
  8
1
100
AcDbLine
 10
505.1146223670293
 20
1324.177692316725
 30
0.0
 11
555.1146223670293
 21
1324.177692316725
 31
0.0
  0
LINE
  5
86A4
330
19
100
AcDbEntity
  8
1
100
AcDbLine
 10
515.5890223670294
 20
1378.268992316725
 30
0.0
 11
505.1146223670293
 21
1339.177692316725
 31
0.0
  0
LINE
  5
86A5
330
19
100
AcDbEntity
  8
1
100
AcDbLine
 10
505.1146223670293
 20
1338.980292316725
 30
0.0
 11
505.1146223670293
 21
1324.177692316725
 31
0.0
  0
LINE
  5
86A6
330
19
100
AcDbEntity
  8
1
100
AcDbLine
 10
765.1146223670293
 20
1324.177692316725
 30
0.0
 11
715.1146223670293
 21
1324.177692316725
 31
0.0
  0
LINE
  5
86A7
330
19
100
AcDbEntity
  8
1
100
AcDbLine
 10
754.5974223670291
 20
1378.428292316725
 30
0.0
 11
765.1146223670293
 21
1339.177692316725
 31
0.0
  0
LINE
  5
86A8
330
19
100
AcDbEntity
  8
1
100
AcDbLine
 10
765.1146223670293
 20
1338.980292316725
 30
0.0
 11
765.1146223670293
 21
1324.177692316725
 31
0.0
  0
LINE
  5
86AA
330
19
100
AcDbEntity
  8
1
100
AcDbLine
 10
2276.464561573985
 20
1324.177692316725
 30
0.0
 11
2249.148776325004
 21
1324.177692316726
 31
0.0
  0
LINE
  5
86AB
330
19
100
AcDbEntity
  8
1
100
AcDbLine
 10
2249.148776325004
 20
1559.177692316725
 30
0.0
 11
2249.148776325004
 21
1536.277692316725
 31
0.0
  0
LINE
  5
86AC
330
19
100
AcDbEntity
  8
1
100
AcDbLine
 10
2239.148776325004
 20
1398.177692316725
 30
0.0
 11
2239.148776325004
 21
1456.177692316725
 31
0.0
  0
LINE
  5
86AD
330
19
100
AcDbEntity
  8
1
100
AcDbLine
 10
2249.148776325004
 20
1397.177692316725
 30
0.0
 11
2240.148776325004
 21
1397.177692316725
 31
0.0
  0
ARC
  5
86AE
330
19
100
AcDbEntity
  8
1
100
AcDbCircle
 10
2240.148776325004
 20
1398.177692316725
 30
0.0
 40
0.9999
100
AcDbArc
 50
179.9965
 51
270.007
  0
LINE
  5
86B0
330
19
100
AcDbEntity
  8
1
100
AcDbLine
 10
2232.148776325004
 20
1437.177692316725
 30
0.0
 11
2171.464561573985
 21
1437.177692316725
 31
0.0
  0
LINE
  5
86B1
330
19
100
AcDbEntity
  8
1
100
AcDbLine
 10
2196.464561573985
 20
1475.177692316725
 30
0.0
 11
2171.464561573985
 21
1475.177692316725
 31
0.0
  0
LINE
  5
86B2
330
19
100
AcDbEntity
  8
1
100
AcDbLine
 10
2232.148776325004
 20
1436.177692316725
 30
0.0
 11
2232.148776325004
 21
1456.177692316725
 31
0.0
  0
LINE
  5
86B3
330
19
100
AcDbEntity
  8
1
100
AcDbLine
 10
2239.148776325004
 20
1436.177692316725
 30
0.0
 11
2232.148776325004
 21
1436.177692316725
 31
0.0
  0
LINE
  5
86B4
330
19
100
AcDbEntity
  8
1
100
AcDbLine
 10
835.1146223670294
 20
1289.177692316725
 30
0.0
 11
435.1146223670293
 21
1289.177692316725
 31
0.0
  0
LINE
  5
86B5
330
19
100
AcDbEntity
  8
1
100
AcDbLine
 10
835.1146223670294
 20
1289.177692316725
 30
0.0
 11
835.1146223670294
 21
1249.177692316725
 31
0.0
  0
LINE
  5
86B6
330
19
100
AcDbEntity
  8
1
100
AcDbLine
 10
435.1146223670293
 20
1289.177692316725
 30
0.0
 11
435.1146223670293
 21
1249.177692316724
 31
0.0
  0
LINE
  5
86B7
330
19
100
AcDbEntity
  8
1
100
AcDbLine
 10
800.1146223670293
 20
1324.177692316725
 30
0.0
 11
810.1146223670294
 21
1289.177692316725
 31
0.0
  0
LINE
  5
86B8
330
19
100
AcDbEntity
  8
1
100
AcDbLine
 10
470.1146223670293
 20
1324.177692316725
 30
0.0
 11
460.1146223670293
 21
1289.177692316725
 31
0.0
  0
LINE
  5
86B9
330
19
100
AcDbEntity
  8
1
100
AcDbLine
 10
493.1146223670293
 20
2938.906997489109
 30
0.0
 11
731.1146223670293
 21
2938.906997489109
 31
0.0
  0
LINE
  5
86BA
330
19
100
AcDbEntity
  8
1
100
AcDbLine
 10
493.1146223670293
 20
2586.90729748911
 30
0.0
 11
767.1146223670294
 21
2586.90729748911
 31
0.0
  0
LINE
  5
86BB
330
19
100
AcDbEntity
  8
1
100
AcDbLine
 10
693.1146223670293
 20
2576.90729748911
 30
0.0
 11
577.1146223670293
 21
2576.90729748911
 31
0.0
  0
LINE
  5
86BC
330
19
100
AcDbEntity
  8
1
100
AcDbLine
 10
767.1146223670294
 20
2629.556286029657
 30
0.0
 11
767.1146223670294
 21
2586.907297489109
 31
0.0
  0
LINE
  5
86BD
330
19
100
AcDbEntity
  8
1
100
AcDbLine
 10
694.1146223670293
 20
2586.90729748911
 30
0.0
 11
694.1146223670293
 21
2577.90729748911
 31
0.0
  0
ARC
  5
86BE
330
19
100
AcDbEntity
  8
1
100
AcDbCircle
 10
693.1146223670293
 20
2577.90729748911
 30
0.0
 40
0.9999
100
AcDbArc
 50
269.9965
 51
0.0069999999999659
  0
LINE
  5
86BF
330
19
100
AcDbEntity
  8
1
100
AcDbLine
 10
493.1146223670293
 20
2938.906997489109
 30
0.0
 11
493.1146223670293
 21
2586.907297489109
 31
0.0
  0
LINE
  5
86C0
330
19
100
AcDbEntity
  8
2
100
AcDbLine
 10
635.1146223670293
 20
2980.863512603219
 30
0.0
 11
635.1146223670293
 21
2344.1428249329
 31
0.0
  0
LINE
  5
86C1
330
19
100
AcDbEntity
  8
1
100
AcDbLine
 10
654.1146223670294
 20
2569.907297489109
 30
0.0
 11
654.1146223670294
 21
2524.556286029655
 31
0.0
  0
LINE
  5
86C2
330
19
100
AcDbEntity
  8
1
100
AcDbLine
 10
616.1146223670293
 20
2569.907297489109
 30
0.0
 11
616.1146223670293
 21
2524.556286029655
 31
0.0
  0
LINE
  5
86C5
330
19
100
AcDbEntity
  8
1
100
AcDbLine
 10
655.1146223670293
 20
2569.907297489109
 30
0.0
 11
615.1146223670293
 21
2569.907297489109
 31
0.0
  0
LINE
  5
86C6
330
19
100
AcDbEntity
  8
1
100
AcDbLine
 10
655.1146223670293
 20
2576.90729748911
 30
0.0
 11
655.1146223670293
 21
2569.907297489109
 31
0.0
  0
LINE
  5
86C7
330
19
100
AcDbEntity
  8
1
100
AcDbLine
 10
615.1146223670293
 20
2576.90729748911
 30
0.0
 11
615.1146223670293
 21
2569.907297489109
 31
0.0
  0
LINE
  5
86C8
330
19
100
AcDbEntity
  8
1
100
AcDbLine
 10
576.1146223670293
 20
2586.90729748911
 30
0.0
 11
576.1146223670293
 21
2577.90729748911
 31
0.0
  0
ARC
  5
86C9
330
19
100
AcDbEntity
  8
1
100
AcDbCircle
 10
577.1146223670293
 20
2577.906297489109
 30
0.0
 40
0.9998000000000001
100
AcDbArc
 50
179.986
 51
270.007
  0
LINE
  5
86CA
330
19
100
AcDbEntity
  8
1
100
AcDbLine
 10
2203.464561573985
 20
1729.177692316725
 30
0.0
 11
2203.464561573985
 21
1694.523955875889
 31
0.0
  0
ARC
  5
86CB
330
19
100
AcDbEntity
  8
1
100
AcDbCircle
 10
1155.114622367029
 20
1579.177692316725
 30
0.0
 40
150.0
100
AcDbArc
 50
283.3080567007366
 51
103.3080567007366
  0
CIRCLE
  5
86CC
330
19
100
AcDbEntity
  8
1
100
AcDbCircle
 10
1155.114622367029
 20
1579.177692316725
 30
0.0
 40
75.0
  0
LINE
  5
86CD
330
19
100
AcDbEntity
  8
1
100
AcDbLine
 10
1137.850628912811
 20
1652.163680903663
 30
0.0
 11
617.8506289128108
 21
1529.163680903663
 31
0.0
  0
LINE
  5
86CE
330
19
100
AcDbEntity
  8
1
100
AcDbLine
 10
1172.378615821248
 20
1506.191703729786
 30
0.0
 11
652.3786158212478
 21
1383.191703729786
 31
0.0
  0
LINE
  5
86CF
330
19
100
AcDbEntity
  8
1
100
AcDbLine
 10
1120.586635458593
 20
1725.149669490602
 30
0.0
 11
600.5866354585933
 21
1602.149669490602
 31
0.0
  0
LINE
  5
86D0
330
19
100
AcDbEntity
  8
1
100
AcDbLine
 10
1189.642609275465
 20
1433.205715142848
 30
0.0
 11
669.6426092754655
 21
1310.205715142848
 31
0.0
  0
LINE
  5
86D1
330
19
100
AcDbEntity
  8
1
100
AcDbLine
 10
2011.464561573985
 20
1729.177692316725
 30
0.0
 11
2203.464561573985
 21
1729.177692316725
 31
0.0
  0
LINE
  5
86D2
330
19
100
AcDbEntity
  8
1
100
AcDbLine
 10
2011.464561573985
 20
1306.177692316725
 30
0.0
 11
2203.464561573985
 21
1306.177692316725
 31
0.0
  0
LINE
  5
86D3
330
19
100
AcDbEntity
  8
1
100
AcDbLine
 10
2111.464561573985
 20
1654.177692316725
 30
0.0
 11
2111.464561573985
 21
1381.177692316725
 31
0.0
  0
LINE
  5
86D4
330
19
100
AcDbEntity
  8
1
100
AcDbLine
 10
2171.464561573985
 20
1654.177692316725
 30
0.0
 11
2171.464561573985
 21
1381.177692316725
 31
0.0
  0
LINE
  5
86D5
330
19
100
AcDbEntity
  8
1
100
AcDbLine
 10
2111.464561573985
 20
1654.177692316725
 30
0.0
 11
2171.464561573985
 21
1654.177692316725
 31
0.0
  0
LINE
  5
86D6
330
19
100
AcDbEntity
  8
1
100
AcDbLine
 10
2111.464561573985
 20
1504.177692316725
 30
0.0
 11
2171.464561573985
 21
1504.177692316725
 31
0.0
  0
LINE
  5
86D7
330
19
100
AcDbEntity
  8
1
100
AcDbLine
 10
2111.464561573985
 20
1531.177692316725
 30
0.0
 11
2171.464561573985
 21
1531.177692316725
 31
0.0
  0
LINE
  5
86D8
330
19
100
AcDbEntity
  8
1
100
AcDbLine
 10
2111.464561573985
 20
1381.177692316725
 30
0.0
 11
2171.464561573985
 21
1381.177692316725
 31
0.0
  0
LINE
  5
86D9
330
19
100
AcDbEntity
  8
1
100
AcDbLine
 10
2203.464561573985
 20
1340.924298653145
 30
0.0
 11
2203.464561573985
 21
1306.177692316725
 31
0.0
  0
LINE
  5
86DA
330
19
100
AcDbEntity
  8
2
100
AcDbLine
 10
1991.663611938324
 20
1456.177692316725
 30
0.0
 11
2276.464561573984
 21
1456.177692316725
 31
0.0
  0
LINE
  5
86DB
330
19
100
AcDbEntity
  8
1
100
AcDbLine
 10
2249.148776325004
 20
1456.177692316725
 30
0.0
 11
2249.148776325004
 21
1324.177692316725
 31
0.0
  0
LINE
  5
86DC
330
19
100
AcDbEntity
  8
1
100
AcDbLine
 10
492.6146223670293
 20
2364.556286029656
 30
0.0
 11
492.6146223670293
 21
2556.556286029656
 31
0.0
  0
LINE
  5
86DD
330
19
100
AcDbEntity
  8
1
100
AcDbLine
 10
1305.114622367029
 20
2364.556286029655
 30
0.0
 11
1305.114622367029
 21
2556.556286029656
 31
0.0
  0
LINE
  5
86DE
330
19
100
AcDbEntity
  8
1
100
AcDbLine
 10
560.1146223670293
 20
2464.556286029655
 30
0.0
 11
560.1146223670293
 21
2524.556286029655
 31
0.0
  0
LINE
  5
86DF
330
19
100
AcDbEntity
  8
1
100
AcDbLine
 10
1230.114622367029
 20
2464.556286029655
 30
0.0
 11
1230.114622367029
 21
2524.556286029655
 31
0.0
  0
LINE
  5
86E0
330
19
100
AcDbEntity
  8
1
100
AcDbLine
 10
710.1146223670293
 20
2464.556286029655
 30
0.0
 11
710.1146223670293
 21
2524.556286029655
 31
0.0
  0
LINE
  5
86E1
330
19
100
AcDbEntity
  8
1
100
AcDbLine
 10
1080.114622367029
 20
2464.556286029655
 30
0.0
 11
1080.114622367029
 21
2524.556286029655
 31
0.0
  0
LINE
  5
86E2
330
19
100
AcDbEntity
  8
1
100
AcDbLine
 10
492.6146223670293
 20
2556.556286029656
 30
0.0
 11
1305.114622367029
 21
2556.556286029656
 31
0.0
  0
LINE
  5
86E3
330
19
100
AcDbEntity
  8
1
100
AcDbLine
 10
560.1146223670293
 20
2464.556286029656
 30
0.0
 11
710.1146223670293
 21
2464.556286029655
 31
0.0
  0
LINE
  5
86E4
330
19
100
AcDbEntity
  8
1
100
AcDbLine
 10
560.1146223670293
 20
2524.556286029655
 30
0.0
 11
710.1146223670293
 21
2524.556286029655
 31
0.0
  0
LINE
  5
86E5
330
19
100
AcDbEntity
  8
1
100
AcDbLine
 10
1080.114622367029
 20
2464.556286029655
 30
0.0
 11
1230.114622367029
 21
2464.556286029655
 31
0.0
  0
LINE
  5
86E6
330
19
100
AcDbEntity
  8
1
100
AcDbLine
 10
1080.114622367029
 20
2524.556286029655
 30
0.0
 11
1230.114622367029
 21
2524.556286029655
 31
0.0
  0
DIMENSION
  5
894F
330
19
100
AcDbEntity
  8
3
100
AcDbDimension
280
     0
  2
*D16
 10
1155.114622367029
 20
1076.239491517175
 30
0.0
 11
790.1146223670293
 21
1113.739491517175
 31
0.0
 70
    32
 71
     5
 42
-1.0
 73
     0
 74
     0
 75
     0
  3
IGA
100
AcDbAlignedDimension
 13
425.1146223670294
 23
1174.177692316725
 33
0.0
 14
1155.114622367029
 24
1174.177692316725
 34
0.0
100
AcDbRotatedDimension
1001
ACAD
1000
DSTYLE
1002
{
1070
   172
1070
     1
1070
    40
1040
15.0
1070
   271
1070
     0
1070
   143
1040
0.039
1002
}
  0
DIMENSION
  5
895C
330
19
100
AcDbEntity
  8
3
100
AcDbDimension
280
     0
  2
*D17
 10
1405.114622367029
 20
1076.239491517175
 30
0.0
 11
1280.114622367029
 21
1113.739491517175
 31
0.0
 70
    32
 71
     5
 42
-1.0
 73
     0
 74
     0
 75
     0
  3
IGA
100
AcDbAlignedDimension
 13
1155.114622367029
 23
1174.177692316725
 33
0.0
 14
1405.114622367029
 24
1174.177692316725
 34
0.0
100
AcDbRotatedDimension
1001
ACAD
1000
DSTYLE
1002
{
1070
   172
1070
     1
1070
    40
1040
15.0
1070
   271
1070
     0
1070
   143
1040
0.039
1002
}
  0
DIMENSION
  5
8969
330
19
100
AcDbEntity
  8
3
100
AcDbDimension
280
     0
  2
*D18
 10
2541.464561573985
 20
1076.239491517175
 30
0.0
 11
2354.964561573984
 21
1113.739491517175
 31
0.0
 70
    32
 71
     5
 42
-1.0
 73
     0
 74
     0
 75
     0
  3
IGA
100
AcDbAlignedDimension
 13
2168.464561573985
 23
1174.177692316725
 33
0.0
 14
2541.464561573985
 24
1174.177692316725
 34
0.0
100
AcDbRotatedDimension
1001
ACAD
1000
DSTYLE
1002
{
1070
   172
1070
     1
1070
    40
1040
15.0
1070
   271
1070
     0
1070
   143
1040
0.039
1002
}
  0
DIMENSION
  5
8976
330
19
100
AcDbEntity
  8
3
100
AcDbDimension
280
     0
  2
*D19
 10
2848.464561573985
 20
1076.239491517175
 30
0.0
 11
2694.964561573985
 21
1113.739491517175
 31
0.0
 70
    32
 71
     5
 42
-1.0
 73
     0
 74
     0
 75
     0
  3
IGA
100
AcDbAlignedDimension
 13
2541.464561573985
 23
1174.177692316725
 33
0.0
 14
2848.464561573985
 24
1174.177692316725
 34
0.0
100
AcDbRotatedDimension
1001
ACAD
1000
DSTYLE
1002
{
1070
   172
1070
     1
1070
    40
1040
15.0
1070
   271
1070
     0
1070
   143
1040
0.039
1002
}
  0
DIMENSION
  5
8983
330
19
100
AcDbEntity
  8
3
100
AcDbDimension
280
     0
  2
*D20
 10
1789.143783752859
 20
1174.177692316725
 30
0.0
 11
1751.643783752859
 21
1529.177692316725
 31
0.0
 70
    32
 71
     5
 42
-1.0
 73
     0
 74
     0
 75
     0
  3
IGA
100
AcDbAlignedDimension
 13
1170.114622367029
 23
1884.177692316725
 33
0.0
 14
1405.114622367029
 24
1174.177692316725
 34
0.0
 50
90.0
100
AcDbRotatedDimension
1001
ACAD
1000
DSTYLE
1002
{
1070
   172
1070
     1
1070
    40
1040
15.0
1070
   271
1070
     0
1070
   143
1040
0.039
1002
}
  0
LINE
  5
898C
330
19
100
AcDbEntity
  8
1
100
AcDbLine
 10
731.1146223670293
 20
2629.556286029656
 30
0.0
 11
1143.114622367029
 21
3159.556286029656
 31
0.0
  0
LINE
  5
898D
330
19
100
AcDbEntity
  8
1
100
AcDbLine
 10
731.1146223670293
 20
3159.556286029657
 30
0.0
 11
1143.114622367029
 21
2629.556286029656
 31
0.0
  0
LWPOLYLINE
  5
8992
330
19
100
AcDbEntity
  8
1
100
AcDbPolyline
 90
        3
 70
     0
 43
0.0
 10
731.1146223670293
 20
1884.177692316725
 10
753.1146223670293
 20
1579.177692316725
 42
0.3157825601736449
 10
1026.707305565888
 20
1249.177692316725
 42
0.4532193849935457
  0
LWPOLYLINE
  5
8997
330
19
100
AcDbEntity
  8
1
100
AcDbPolyline
 90
        4
 70
     0
 43
0.0
 10
1215.109477578637
 20
1249.177692316725
 42
0.3680545815635807
 10
1435.62578064388
 20
1590.188600013667
 42
0.3762546939936967
 10
1178.114622367029
 20
1815.925143660246
 42
0.0411445297571046
 10
1143.114622367029
 20
1813.040142638851
 42
0.3936265759256327
  0
ENDSEC
  0
SECTION
  2
OBJECTS
  0
DICTIONARY
  5
C
330
0
100
AcDbDictionary
281
     1
  3
ACAD_CIP_PREVIOUS_PRODUCT_INFO
350
8A56
  3
ACAD_COLOR
350
8A39
  3
ACAD_DETAILVIEWSTYLE
350
8A52
  3
ACAD_GROUP
350
D
  3
ACAD_LAYOUT
350
89A5
  3
ACAD_MATERIAL
350
8A07
  3
ACAD_MLEADERSTYLE
350
8A4E
  3
ACAD_MLINESTYLE
350
E
  3
ACAD_PLOTSETTINGS
350
89A6
  3
ACAD_PLOTSTYLENAME
350
89A3
  3
ACAD_SCALELIST
350
8A3C
  3
ACAD_SECTIONVIEWSTYLE
350
8A50
  3
ACAD_TABLESTYLE
350
8A3A
  3
ACAD_VISUALSTYLE
350
8A20
  3
ACDB_RECOMPOSE_DATA
350
8A9E
  3
AcDbVariableDictionary
350
8A8D
  3
AcDsDecomposeData
350
8AA4
  0
DICTIONARY
  5
8A81
330
2
100
AcDbDictionary
280
     1
281
     1
  3
ACAD_LAYERSTATES
360
8A82
  0
DICTIONARY
  5
8A74
330
F
100
AcDbDictionary
280
     1
281
     1
  3
ADSK_XREC_LAYER_RECONCILED
360
8A75
  0
DICTIONARY
  5
8A76
330
31
100
AcDbDictionary
280
     1
281
     1
  3
ADSK_XREC_LAYER_RECONCILED
360
8A77
  0
DICTIONARY
  5
8A78
330
76D0
100
AcDbDictionary
280
     1
281
     1
  3
ADSK_XREC_LAYER_RECONCILED
360
8A79
  0
DICTIONARY
  5
8A7A
330
76D1
100
AcDbDictionary
280
     1
281
     1
  3
ADSK_XREC_LAYER_RECONCILED
360
8A7B
  0
DICTIONARY
  5
8A7C
330
76D2
100
AcDbDictionary
280
     1
281
     1
  3
ADSK_XREC_LAYER_RECONCILED
360
8A7D
  0
DICTIONARY
  5
89D2
330
19
100
AcDbDictionary
280
     1
281
     1
  3
ACAD_LAYOUTSELFREF
360
89D3
  3
ACAD_SORTENTS
360
8A58
  0
DICTIONARY
  5
89D0
330
16
100
AcDbDictionary
280
     1
281
     1
  3
ACAD_LAYOUTSELFREF
360
89D1
  0
XRECORD
  5
8A56
102
{ACAD_REACTORS
330
C
102
}
330
C
100
AcDbXrecord
280
     1
300
ACDLT
300
2023
300

  0
DICTIONARY
  5
8A39
102
{ACAD_REACTORS
330
C
102
}
330
C
100
AcDbDictionary
281
     1
  0
DICTIONARY
  5
8A52
102
{ACAD_REACTORS
330
C
102
}
330
C
100
AcDbDictionary
281
     1
  3
Metric50
350
8A53
  0
DICTIONARY
  5
D
102
{ACAD_REACTORS
330
C
102
}
330
C
100
AcDbDictionary
281
     1
  0
DICTIONARY
  5
89A5
102
{ACAD_REACTORS
330
C
102
}
330
C
100
AcDbDictionary
281
     1
  3
Model
350
89A7
  3
ﾚｲｱｳﾄ1
350
89A8
  0
DICTIONARY
  5
8A07
102
{ACAD_REACTORS
330
C
102
}
330
C
100
AcDbDictionary
281
     1
  3
ByBlock
350
8A10
  3
ByLayer
350
8A08
  3
Global
350
8A18
  0
DICTIONARY
  5
8A4E
102
{ACAD_REACTORS
330
C
102
}
330
C
100
AcDbDictionary
281
     1
  3
Standard
350
8A4F
  0
DICTIONARY
  5
E
102
{ACAD_REACTORS
330
C
102
}
330
C
100
AcDbDictionary
281
     1
  3
STANDARD
350
1C
  0
DICTIONARY
  5
89A6
102
{ACAD_REACTORS
330
C
102
}
330
C
100
AcDbDictionary
281
     1
  0
ACDBDICTIONARYWDFLT
  5
89A3
102
{ACAD_REACTORS
330
C
102
}
330
C
100
AcDbDictionary
281
     1
  3
Normal
350
89A4
100
AcDbDictionaryWithDefault
340
89A4
  0
DICTIONARY
  5
8A3C
102
{ACAD_REACTORS
330
C
102
}
330
C
100
AcDbDictionary
281
     1
  3
A0
350
8A3D
  3
A1
350
8A3E
  3
A2
350
8A3F
  3
A3
350
8A40
  3
A4
350
8A41
  3
A5
350
8A42
  3
A6
350
8A43
  3
A7
350
8A44
  3
A8
350
8A45
  3
A9
350
8A46
  3
B0
350
8A47
  3
B1
350
8A48
  3
B2
350
8A49
  3
B3
350
8A4A
  3
B4
350
8A4B
  3
B5
350
8A4C
  3
B6
350
8A4D
  0
DICTIONARY
  5
8A50
102
{ACAD_REACTORS
330
C
102
}
330
C
100
AcDbDictionary
281
     1
  3
Metric50
350
8A51
  0
DICTIONARY
  5
8A3A
102
{ACAD_REACTORS
330
C
102
}
330
C
100
AcDbDictionary
281
     1
  3
Standard
350
8A3B
  0
DICTIONARY
  5
8A20
102
{ACAD_REACTORS
330
C
102
}
330
C
100
AcDbDictionary
281
     1
  3
2dWireframe
350
8A26
  3
Basic
350
8A25
  3
Brighten
350
8A2C
  3
ColorChange
350
8A30
  3
Conceptual
350
8A29
  3
Dim
350
8A2B
  3
EdgeColorOff
350
8A38
  3
Facepattern
350
8A2F
  3
Flat
350
8A21
  3
FlatWithEdges
350
8A22
  3
Gouraud
350
8A23
  3
GouraudWithEdges
350
8A24
  3
Hidden
350
8A28
  3
JitterOff
350
8A36
  3
Linepattern
350
8A2E
  3
OverhangOff
350
8A37
  3
Realistic
350
8A2A
  3
Shaded
350
8A35
  3
Shaded with edges
350
8A34
  3
Shades of Gray
350
8A31
  3
Sketchy
350
8A32
  3
Thicken
350
8A2D
  3
Wireframe
350
8A27
  3
X-Ray
350
8A33
  0
XRECORD
  5
8A9E
102
{ACAD_REACTORS
330
C
102
}
330
C
100
AcDbXrecord
280
     1
 90
        1
330
8653
330
8681
330
8683
330
8A3B
  0
DICTIONARY
  5
8A8D
102
{ACAD_REACTORS
330
C
102
}
330
C
100
AcDbDictionary
281
     1
  3
CANNOSCALE
350
8A93
  3
CMLEADERSTYLE
350
8A8F
  3
CTABLESTYLE
350
8A8E
  3
CVIEWDETAILSTYLE
350
8A90
  3
CVIEWSECTIONSTYLE
350
8A91
  3
LAYEREVAL
350
8A95
  3
LAYERNOTIFY
350
8A96
  3
LIGHTINGUNITS
350
8A94
  3
MARKUPASSISTMODE
350
8A9B
  3
MSLTSCALE
350
8A92
  0
DICTIONARY
  5
8AA4
102
{ACAD_REACTORS
330
C
102
}
330
C
100
AcDbDictionary
281
     1
  3
AcDsRecords
350
8AA6
  3
AcDsSchemas
350
8AA5
1001
ACAD
1070
     2
  0
DICTIONARY
  5
8A82
102
{ACAD_REACTORS
330
8A81
102
}
330
8A81
100
AcDbDictionary
281
     1
  0
XRECORD
  5
8A75
102
{ACAD_REACTORS
330
8A74
102
}
330
8A74
100
AcDbXrecord
280
     1
290
     1
  0
XRECORD
  5
8A77
102
{ACAD_REACTORS
330
8A76
102
}
330
8A76
100
AcDbXrecord
280
     1
290
     1
  0
XRECORD
  5
8A79
102
{ACAD_REACTORS
330
8A78
102
}
330
8A78
100
AcDbXrecord
280
     1
290
     1
  0
XRECORD
  5
8A7B
102
{ACAD_REACTORS
330
8A7A
102
}
330
8A7A
100
AcDbXrecord
280
     1
290
     1
  0
XRECORD
  5
8A7D
102
{ACAD_REACTORS
330
8A7C
102
}
330
8A7C
100
AcDbXrecord
280
     1
290
     1
  0
XRECORD
  5
89D3
102
{ACAD_REACTORS
330
89D2
102
}
330
89D2
100
AcDbXrecord
280
     1
340
19
  0
SORTENTSTABLE
  5
8A58
102
{ACAD_REACTORS
330
89D2
102
}
330
89D2
100
AcDbSortentsTable
330
19
331
864A
  5
864B
331
864B
  5
864C
331
864C
  5
864F
331
864F
  5
8650
331
8650
  5
8653
331
8653
  5
8657
331
8657
  5
8658
331
8658
  5
8659
331
8659
  5
865A
331
865A
  5
865D
331
865D
  5
865E
331
865E
  5
8664
331
8664
  5
8665
331
8665
  5
8666
331
8666
  5
8667
331
8667
  5
8668
331
8668
  5
8669
331
8669
  5
866A
331
866A
  5
866B
331
866B
  5
866C
331
866C
  5
866D
331
866D
  5
866E
331
866E
  5
866F
331
866F
  5
8670
331
8670
  5
8671
331
8671
  5
8672
331
8672
  5
8673
331
8673
  5
8674
331
8674
  5
8675
331
8675
  5
8676
331
8676
  5
8677
331
8677
  5
8678
331
8678
  5
8679
331
8679
  5
867A
331
867A
  5
867B
331
867B
  5
867C
331
867C
  5
867D
331
867D
  5
867E
331
867E
  5
867F
331
867F
  5
8680
331
8680
  5
8681
331
8681
  5
8682
331
8682
  5
8683
331
8683
  5
8684
331
8684
  5
8686
331
8686
  5
8687
331
8687
  5
8688
331
8688
  5
8689
331
8689
  5
868A
331
868A
  5
868B
331
868B
  5
868C
331
868C
  5
868D
331
868D
  5
868E
331
868E
  5
8691
331
8691
  5
8694
331
8694
  5
8695
331
8695
  5
8696
331
8696
  5
8697
331
8697
  5
8698
331
8698
  5
8699
331
8699
  5
869A
331
869A
  5
869B
331
869B
  5
869C
331
869C
  5
869D
331
869D
  5
869E
331
869E
  5
869F
331
869F
  5
86A0
331
86A0
  5
86A1
331
86A1
  5
86A2
331
86A2
  5
86A3
331
86A3
  5
86A4
331
86A4
  5
86A5
331
86A5
  5
86A6
331
86A6
  5
86A7
331
86A7
  5
86A8
331
86A8
  5
86AA
331
86AA
  5
86AB
331
86AB
  5
86AC
331
86AC
  5
86AD
331
86AD
  5
86AE
331
86AE
  5
86B0
331
86B0
  5
86B1
331
86B1
  5
86B2
331
86B2
  5
86B3
331
86B3
  5
86B4
331
86B4
  5
86B5
331
86B5
  5
86B6
331
86B6
  5
86B7
331
86B7
  5
86B8
331
86B8
  5
86B9
331
86B9
  5
86BA
331
86BA
  5
86BB
331
86BB
  5
86BC
331
86BC
  5
86BD
331
86BD
  5
86BE
331
86BE
  5
86BF
331
86BF
  5
86C0
331
86C0
  5
86C1
331
86C1
  5
86C2
331
86C2
  5
86C5
331
86C5
  5
86C6
331
86C6
  5
86C7
331
86C7
  5
86C8
331
86C8
  5
86C9
331
86C9
  5
86CA
331
86CA
  5
86CB
331
86CB
  5
86CC
331
86CC
  5
86CD
331
86CD
  5
86CE
331
86CE
  5
86CF
331
86CF
  5
86D0
331
86D0
  5
86D1
331
86D1
  5
86D2
331
86D2
  5
86D3
331
86D3
  5
86D4
331
86D4
  5
86D5
331
86D5
  5
86D6
331
86D6
  5
86D7
331
86D7
  5
86D8
331
86D8
  5
86D9
331
86D9
  5
86DA
331
86DA
  5
86DB
331
86DB
  5
86DC
331
86DC
  5
86DD
331
86DD
  5
86DE
331
86DE
  5
86DF
331
86DF
  5
86E0
331
86E0
  5
86E1
331
86E1
  5
86E2
331
86E2
  5
86E3
331
86E3
  5
86E4
331
86E4
  5
86E5
331
86E5
  5
86E6
331
86E6
  5
894F
331
894F
  5
895C
331
895C
  5
8969
331
8969
  5
8976
331
8976
  5
8983
331
8983
  5
898C
331
898C
  5
898D
331
898D
  5
8992
331
8992
  5
8997
331
8997
  5
8A57
  0
XRECORD
  5
89D1
102
{ACAD_REACTORS
330
89D0
102
}
330
89D0
100
AcDbXrecord
280
     1
340
16
  0
ACDBDETAILVIEWSTYLE
  5
8A53
102
{ACAD_XDICTIONARY
360
8AA9
102
}
102
{ACAD_REACTORS
330
8A52
102
}
330
8A52
100
AcDbModelDocViewStyle
 70
     0
  3
Metric50
290
     0
100
AcDbDetailViewStyle
 70
     0
 71
     0
 90
        3
 71
     1
340
10
 62
   256
 40
5.0
340
0
 62
   256
 40
5.0
300

 40
0.0
280
     1
 71
     2
340
15
 90
       25
 62
   256
 71
     3
340
10
 62
   256
 40
5.0
 90
        0
 40
15.0
 90
        1
300
%<\AcVar ViewDetailId>% (%<\AcVar ViewScale \f "%sn">%)
 71
     4
340
15
 90
       25
 62
   256
340
15
 90
       25
 62
   256
280
     0
  0
LAYOUT
  5
89A7
102
{ACAD_REACTORS
330
89A5
102
}
330
89A5
100
AcDbPlotSettings
  1

  2
EPSON LP-9300
  4

  6

 40
0.0
 41
0.0
 42
0.0
 43
0.0
 44
0.0
 45
0.0
 46
0.0
 47
0.0
 48
0.0
 49
0.0
140
0.0
141
0.0
142
1.0
143
1.0
 70
  1712
 72
     0
 73
     0
 74
     0
  7

 75
     0
147
1.0
 76
     0
 77
     2
 78
   300
148
0.0
149
0.0
100
AcDbLayout
  1
Model
 70
     1
 71
     0
 10
0.0
 20
0.0
 11
12.0
 21
9.0
 12
0.0
 22
0.0
 32
0.0
 14
0.0
 24
0.0
 34
0.0
 15
0.0
 25
0.0
 35
0.0
146
0.0
 13
0.0
 23
0.0
 33
0.0
 16
1.0
 26
0.0
 36
0.0
 17
0.0
 27
1.0
 37
0.0
 76
     0
330
19
331
8A05
  0
LAYOUT
  5
89A8
102
{ACAD_REACTORS
330
89A5
102
}
330
89A5
100
AcDbPlotSettings
  1

  2
EPSON LP-9300
  4

  6

 40
0.0
 41
0.0
 42
0.0
 43
0.0
 44
0.0
 45
0.0
 46
0.0
 47
0.0
 48
0.0
 49
0.0
140
0.0
141
0.0
142
1.0
143
1.0
 70
   688
 72
     0
 73
     0
 74
     5
  7

 75
    16
147
1.0
 76
     0
 77
     2
 78
   300
148
0.0
149
0.0
100
AcDbLayout
  1
ﾚｲｱｳﾄ1
 70
     1
 71
     1
 10
0.0
 20
0.0
 11
12.0
 21
9.0
 12
0.0
 22
0.0
 32
0.0
 14
1.000000000000000E+20
 24
1.000000000000000E+20
 34
1.000000000000000E+20
 15
-1.000000000000000E+20
 25
-1.000000000000000E+20
 35
-1.000000000000000E+20
146
0.0
 13
0.0
 23
0.0
 33
0.0
 16
1.0
 26
0.0
 36
0.0
 17
0.0
 27
1.0
 37
0.0
 76
     0
330
16
  0
MATERIAL
  5
8A10
102
{ACAD_XDICTIONARY
360
8A11
102
}
102
{ACAD_REACTORS
330
8A07
102
}
330
8A07
100
AcDbMaterial
  1
ByBlock
 72
     0
 43
0.0208333333333333
 43
0.0
 43
0.0
 43
0.0
 43
0.0
 43
0.0208333333333333
 43
0.0
 43
0.0
 43
0.0
 43
0.0
 43
1.0
 43
0.0
 43
0.0
 43
0.0
 43
0.0
 43
1.0
 77
     0
 47
0.0208333333333333
 47
0.0
 47
0.0
 47
0.0
 47
0.0
 47
0.0208333333333333
 47
0.0
 47
0.0
 47
0.0
 47
0.0
 47
1.0
 47
0.0
 47
0.0
 47
0.0
 47
0.0
 47
1.0
171
     0
 49
0.0208333333333333
 49
0.0
 49
0.0
 49
0.0
 49
0.0
 49
0.0208333333333333
 49
0.0
 49
0.0
 49
0.0
 49
0.0
 49
1.0
 49
0.0
 49
0.0
 49
0.0
 49
0.0
 49
1.0
175
     0
142
0.0208333333333333
142
0.0
142
0.0
142
0.0
142
0.0
142
0.0208333333333333
142
0.0
142
0.0
142
0.0
142
0.0
142
1.0
142
0.0
142
0.0
142
0.0
142
0.0
142
1.0
179
     0
144
0.0208333333333333
144
0.0
144
0.0
144
0.0
144
0.0
144
0.0208333333333333
144
0.0
144
0.0
144
0.0
144
0.0
144
1.0
144
0.0
144
0.0
144
0.0
144
0.0
144
1.0
147
0.0208333333333333
147
0.0
147
0.0
147
0.0
147
0.0
147
0.0208333333333333
147
0.0
147
0.0
147
0.0
147
0.0
147
1.0
147
0.0
147
0.0
147
0.0
147
0.0
147
1.0
  0
MATERIAL
  5
8A08
102
{ACAD_XDICTIONARY
360
8A09
102
}
102
{ACAD_REACTORS
330
8A07
102
}
330
8A07
100
AcDbMaterial
  1
ByLayer
 72
     0
 43
0.0208333333333333
 43
0.0
 43
0.0
 43
0.0
 43
0.0
 43
0.0208333333333333
 43
0.0
 43
0.0
 43
0.0
 43
0.0
 43
1.0
 43
0.0
 43
0.0
 43
0.0
 43
0.0
 43
1.0
 77
     0
 47
0.0208333333333333
 47
0.0
 47
0.0
 47
0.0
 47
0.0
 47
0.0208333333333333
 47
0.0
 47
0.0
 47
0.0
 47
0.0
 47
1.0
 47
0.0
 47
0.0
 47
0.0
 47
0.0
 47
1.0
171
     0
 49
0.0208333333333333
 49
0.0
 49
0.0
 49
0.0
 49
0.0
 49
0.0208333333333333
 49
0.0
 49
0.0
 49
0.0
 49
0.0
 49
1.0
 49
0.0
 49
0.0
 49
0.0
 49
0.0
 49
1.0
175
     0
142
0.0208333333333333
142
0.0
142
0.0
142
0.0
142
0.0
142
0.0208333333333333
142
0.0
142
0.0
142
0.0
142
0.0
142
1.0
142
0.0
142
0.0
142
0.0
142
0.0
142
1.0
179
     0
144
0.0208333333333333
144
0.0
144
0.0
144
0.0
144
0.0
144
0.0208333333333333
144
0.0
144
0.0
144
0.0
144
0.0
144
1.0
144
0.0
144
0.0
144
0.0
144
0.0
144
1.0
147
0.0208333333333333
147
0.0
147
0.0
147
0.0
147
0.0
147
0.0208333333333333
147
0.0
147
0.0
147
0.0
147
0.0
147
1.0
147
0.0
147
0.0
147
0.0
147
0.0
147
1.0
  0
MATERIAL
  5
8A18
102
{ACAD_XDICTIONARY
360
8A19
102
}
102
{ACAD_REACTORS
330
8A07
102
}
330
8A07
100
AcDbMaterial
  1
Global
 72
     0
 43
0.0208333333333333
 43
0.0
 43
0.0
 43
0.0
 43
0.0
 43
0.0208333333333333
 43
0.0
 43
0.0
 43
0.0
 43
0.0
 43
1.0
 43
0.0
 43
0.0
 43
0.0
 43
0.0
 43
1.0
 77
     0
 47
0.0208333333333333
 47
0.0
 47
0.0
 47
0.0
 47
0.0
 47
0.0208333333333333
 47
0.0
 47
0.0
 47
0.0
 47
0.0
 47
1.0
 47
0.0
 47
0.0
 47
0.0
 47
0.0
 47
1.0
171
     0
 49
0.0208333333333333
 49
0.0
 49
0.0
 49
0.0
 49
0.0
 49
0.0208333333333333
 49
0.0
 49
0.0
 49
0.0
 49
0.0
 49
1.0
 49
0.0
 49
0.0
 49
0.0
 49
0.0
 49
1.0
175
     0
142
0.0208333333333333
142
0.0
142
0.0
142
0.0
142
0.0
142
0.0208333333333333
142
0.0
142
0.0
142
0.0
142
0.0
142
1.0
142
0.0
142
0.0
142
0.0
142
0.0
142
1.0
179
     0
144
0.0208333333333333
144
0.0
144
0.0
144
0.0
144
0.0
144
0.0208333333333333
144
0.0
144
0.0
144
0.0
144
0.0
144
1.0
144
0.0
144
0.0
144
0.0
144
0.0
144
1.0
147
0.0208333333333333
147
0.0
147
0.0
147
0.0
147
0.0
147
0.0208333333333333
147
0.0
147
0.0
147
0.0
147
0.0
147
1.0
147
0.0
147
0.0
147
0.0
147
0.0
147
1.0
  0
MLEADERSTYLE
  5
8A4F
102
{ACAD_REACTORS
330
8A4E
102
}
330
8A4E
100
AcDbMLeaderStyle
179
     2
170
     2
171
     1
172
     0
 90
        2
 40
0.0
 41
0.0
173
     1
 91
-1056964608
340
13
 92
       -2
290
     1
 42
2.0
291
     1
 43
0.36
  3
Standard
 44
4.0
300

342
10
174
     1
178
     6
175
     1
176
     0
 93
-1056964608
 45
4.0
292
     0
297
     0
 46
4.0
 94
-1056964608
 47
1.0
 49
1.0
140
1.0
293
     1
141
0.0
294
     1
177
     0
142
1.0
295
     0
296
     0
143
0.125
271
     0
272
     9
273
     9
298
     1
  0
MLINESTYLE
  5
1C
102
{ACAD_REACTORS
330
E
102
}
330
E
100
AcDbMlineStyle
  2
STANDARD
 70
     0
  3

 62
     0
 51
90.0
 52
90.0
 71
     2
 49
0.5
 62
   256
  6
BYLAYER
 49
-0.5
 62
   256
  6
BYLAYER
  0
ACDBPLACEHOLDER
  5
89A4
102
{ACAD_REACTORS
330
89A3
102
}
330
89A3
  0
SCALE
  5
8A3D
102
{ACAD_REACTORS
330
8A3C
102
}
330
8A3C
100
AcDbScale
 70
     0
300
1:1
140
1.0
141
1.0
290
     1
  0
SCALE
  5
8A3E
102
{ACAD_REACTORS
330
8A3C
102
}
330
8A3C
100
AcDbScale
 70
     0
300
1:2
140
1.0
141
2.0
290
     0
  0
SCALE
  5
8A3F
102
{ACAD_REACTORS
330
8A3C
102
}
330
8A3C
100
AcDbScale
 70
     0
300
1:4
140
1.0
141
4.0
290
     0
  0
SCALE
  5
8A40
102
{ACAD_REACTORS
330
8A3C
102
}
330
8A3C
100
AcDbScale
 70
     0
300
1:5
140
1.0
141
5.0
290
     0
  0
SCALE
  5
8A41
102
{ACAD_REACTORS
330
8A3C
102
}
330
8A3C
100
AcDbScale
 70
     0
300
1:8
140
1.0
141
8.0
290
     0
  0
SCALE
  5
8A42
102
{ACAD_REACTORS
330
8A3C
102
}
330
8A3C
100
AcDbScale
 70
     0
300
1:10
140
1.0
141
10.0
290
     0
  0
SCALE
  5
8A43
102
{ACAD_REACTORS
330
8A3C
102
}
330
8A3C
100
AcDbScale
 70
     0
300
1:16
140
1.0
141
16.0
290
     0
  0
SCALE
  5
8A44
102
{ACAD_REACTORS
330
8A3C
102
}
330
8A3C
100
AcDbScale
 70
     0
300
1:20
140
1.0
141
20.0
290
     0
  0
SCALE
  5
8A45
102
{ACAD_REACTORS
330
8A3C
102
}
330
8A3C
100
AcDbScale
 70
     0
300
1:30
140
1.0
141
30.0
290
     0
  0
SCALE
  5
8A46
102
{ACAD_REACTORS
330
8A3C
102
}
330
8A3C
100
AcDbScale
 70
     0
300
1:40
140
1.0
141
40.0
290
     0
  0
SCALE
  5
8A47
102
{ACAD_REACTORS
330
8A3C
102
}
330
8A3C
100
AcDbScale
 70
     0
300
1:50
140
1.0
141
50.0
290
     0
  0
SCALE
  5
8A48
102
{ACAD_REACTORS
330
8A3C
102
}
330
8A3C
100
AcDbScale
 70
     0
300
1:100
140
1.0
141
100.0
290
     0
  0
SCALE
  5
8A49
102
{ACAD_REACTORS
330
8A3C
102
}
330
8A3C
100
AcDbScale
 70
     0
300
2:1
140
2.0
141
1.0
290
     0
  0
SCALE
  5
8A4A
102
{ACAD_REACTORS
330
8A3C
102
}
330
8A3C
100
AcDbScale
 70
     0
300
4:1
140
4.0
141
1.0
290
     0
  0
SCALE
  5
8A4B
102
{ACAD_REACTORS
330
8A3C
102
}
330
8A3C
100
AcDbScale
 70
     0
300
8:1
140
8.0
141
1.0
290
     0
  0
SCALE
  5
8A4C
102
{ACAD_REACTORS
330
8A3C
102
}
330
8A3C
100
AcDbScale
 70
     0
300
10:1
140
10.0
141
1.0
290
     0
  0
SCALE
  5
8A4D
102
{ACAD_REACTORS
330
8A3C
102
}
330
8A3C
100
AcDbScale
 70
     0
300
100:1
140
100.0
141
1.0
290
     0
  0
ACDBSECTIONVIEWSTYLE
  5
8A51
102
{ACAD_XDICTIONARY
360
8AA7
102
}
102
{ACAD_REACTORS
330
8A50
102
}
330
8A50
100
AcDbModelDocViewStyle
 70
     0
  3
Metric50
290
     0
100
AcDbSectionViewStyle
 70
     0
 71
     0
 90
      102
 71
     1
340
10
 62
   256
 40
5.0
340
0
340
0
 62
   256
 40
5.0
300
I, O, Q, S, X, Z
 40
10.0
 90
        0
 40
2.5
 90
        0
 71
     2
340
15
 90
       25
 62
   256
340
15
 90
       50
 62
   256
 40
5.0
 40
2.5
 40
5.0
 71
     3
340
10
 62
   256
 40
5.0
 90
        0
 40
15.0
 90
        1
300
%<\AcVar ViewSectionStartId>%-%<\AcVar ViewSectionEndId>% (%<\AcVar ViewScale \f "%sn">%)
 71
     4
 62
   256
 62
   257
300
ANSI31
 40
1.0
 90
        0
290
     0
290
     0
 90
        6
 40
0.0
 40
1.570796326794896
 40
0.2617993877991494
 40
1.308996938995747
 40
-0.2617993877991494
 40
1.832595714594046
  0
TABLESTYLE
  5
8A3B
102
{ACAD_XDICTIONARY
360
8A9C
102
}
102
{ACAD_REACTORS
330
8A3A
102
}
330
8A3A
100
AcDbTableStyle
280
     0
  3
Standard
 70
     0
 71
     0
 40
1.5
 41
1.5
280
     0
281
     0
  7
STANDARD
140
4.5
170
     2
 62
     0
 63
     7
283
     0
 90
      512
 91
        0
  1

274
    -2
284
     1
 64
     0
275
    -2
285
     1
 65
     0
276
    -2
286
     1
 66
     0
277
    -2
287
     1
 67
     0
278
    -2
288
     1
 68
     0
279
    -2
289
     1
 69
     0
  7
STANDARD
140
6.0
170
     5
 62
     0
 63
     7
283
     0
 90
      512
 91
        0
  1

274
    -2
284
     1
 64
     0
275
    -2
285
     1
 65
     0
276
    -2
286
     1
 66
     0
277
    -2
287
     1
 67
     0
278
    -2
288
     1
 68
     0
279
    -2
289
     1
 69
     0
  7
STANDARD
140
4.5
170
     5
 62
     0
 63
     7
283
     0
 90
      512
 91
        0
  1

274
    -2
284
     1
 64
     0
275
    -2
285
     1
 65
     0
276
    -2
286
     1
 66
     0
277
    -2
287
     1
 67
     0
278
    -2
288
     1
 68
     0
279
    -2
289
     1
 69
     0
  0
VISUALSTYLE
  5
8A26
102
{ACAD_REACTORS
330
8A20
102
}
330
8A20
100
AcDbVisualStyle
  2
2dWireframe
 70
     4
177
     3
291
     0
 70
    58
 90
        0
176
     1
 90
        2
176
     1
 90
        0
176
     1
 90
        0
176
     1
 40
0.6
176
     1
 40
30.0
176
     1
 62
     7
420
 16777215
176
     1
 90
        1
176
     1
 90
        4
176
     1
 62
     7
176
     1
 62
   257
176
     1
 90
        1
176
     1
 90
        1
176
     1
 40
1.0
176
     1
 90
        0
176
     1
 62
   257
176
     1
 40
1.0
176
     1
 90
        1
176
     1
 90
        6
176
     1
 90
        2
176
     1
 62
     7
176
     1
 90
        5
176
     1
 90
        0
176
     1
 90
        0
176
     1
290
     0
176
     1
 90
        1
176
     1
 40
0.0
176
     1
 90
        0
176
     1
290
     1
176
     1
290
     1
176
     1
290
     0
176
     1
290
     0
176
     1
290
     0
176
     1
290
     0
176
     1
290
     0
176
     1
290
     0
176
     1
290
     0
176
     1
 90
       50
176
     1
 40
0.0
176
     1
 40
1.0
176
     1
 90
        0
176
     1
 62
    18
420
        0
176
     1
 90
       50
176
     1
 90
        3
176
     1
 62
     5
420
      255
176
     1
290
     0
176
     1
 90
       50
176
     1
 90
       50
176
     1
 90
       50
176
     1
290
     0
176
     1
 90
       50
176
     1
 62
   256
176
     0
 40
1.0
176
     0
 90
        2
176
     1
  1
strokes_ogs.tif
176
     1
290
     0
176
     1
 40
1.0
176
     1
 40
1.0
176
     1
1001
ACAD
1000
AcDbSavedByObjectVersion
1070
     0
  0
VISUALSTYLE
  5
8A25
102
{ACAD_REACTORS
330
8A20
102
}
330
8A20
100
AcDbVisualStyle
  2
Basic
 70
     7
177
     3
291
     1
 70
    58
 90
        1
176
     1
 90
        0
176
     1
 90
        1
176
     1
 90
        0
176
     1
 40
0.6
176
     1
 40
30.0
176
     1
 62
     7
420
 16777215
176
     1
 90
        0
176
     1
 90
        4
176
     1
 62
     7
176
     1
 62
   257
176
     1
 90
        1
176
     1
 90
        1
176
     1
 40
1.0
176
     1
 90
        8
176
     1
 62
     7
176
     1
 40
1.0
176
     1
 90
        1
176
     1
 90
        6
176
     1
 90
        2
176
     1
 62
     7
176
     1
 90
        5
176
     1
 90
        0
176
     1
 90
        0
176
     1
290
     0
176
     1
 90
        1
176
     1
 40
0.0
176
     1
 90
        0
176
     1
290
     0
176
     1
290
     1
176
     1
290
     1
176
     1
290
     0
176
     1
290
     0
176
     1
290
     0
176
     1
290
     0
176
     1
290
     0
176
     1
290
     0
176
     1
 90
       50
176
     1
 40
0.0
176
     1
 40
1.0
176
     1
 90
        0
176
     1
 62
    18
420
        0
176
     1
 90
       50
176
     1
 90
        3
176
     1
 62
     5
420
      255
176
     1
290
     0
176
     1
 90
       50
176
     1
 90
       50
176
     1
 90
       50
176
     1
290
     0
176
     1
 90
       50
176
     1
 62
   256
176
     0
 40
1.0
176
     0
 90
        2
176
     1
  1
strokes_ogs.tif
176
     1
290
     0
176
     1
 40
1.0
176
     1
 40
1.0
176
     1
1001
ACAD
1000
AcDbSavedByObjectVersion
1070
     0
  0
VISUALSTYLE
  5
8A2C
102
{ACAD_REACTORS
330
8A20
102
}
330
8A20
100
AcDbVisualStyle
  2
Brighten
 70
    12
177
     3
291
     1
 70
    58
 90
        2
176
     1
 90
        2
176
     1
 90
        0
176
     1
 90
        0
176
     1
 40
0.6
176
     1
 40
30.0
176
     1
 62
     7
420
 16777215
176
     1
 90
        1
176
     1
 90
        4
176
     1
 62
     7
176
     1
 62
   257
176
     1
 90
        1
176
     1
 90
        1
176
     1
 40
1.0
176
     1
 90
        8
176
     1
 62
     7
176
     1
 40
1.0
176
     1
 90
        1
176
     1
 90
        6
176
     1
 90
        2
176
     1
 62
     7
176
     1
 90
        5
176
     1
 90
        0
176
     1
 90
        0
176
     1
290
     0
176
     1
 90
        1
176
     1
 40
50.0
176
     1
 90
        0
176
     1
290
     0
176
     1
290
     1
176
     1
290
     1
176
     1
290
     0
176
     1
290
     0
176
     1
290
     0
176
     1
290
     0
176
     1
290
     0
176
     1
290
     0
176
     1
 90
       50
176
     1
 40
0.0
176
     1
 40
1.0
176
     1
 90
        0
176
     1
 62
    18
420
        0
176
     1
 90
       50
176
     1
 90
        3
176
     1
 62
     5
420
      255
176
     1
290
     0
176
     1
 90
       50
176
     1
 90
       50
176
     1
 90
       50
176
     1
290
     0
176
     1
 90
       50
176
     1
 62
   256
176
     0
 40
1.0
176
     0
 90
        2
176
     1
  1
strokes_ogs.tif
176
     1
290
     0
176
     1
 40
1.0
176
     1
 40
1.0
176
     1
1001
ACAD
1000
AcDbSavedByObjectVersion
1070
     0
  0
VISUALSTYLE
  5
8A30
102
{ACAD_REACTORS
330
8A20
102
}
330
8A20
100
AcDbVisualStyle
  2
ColorChange
 70
    16
177
     3
291
     1
 70
    58
 90
        2
176
     1
 90
        2
176
     1
 90
        3
176
     1
 90
        0
176
     1
 40
0.6
176
     1
 40
30.0
176
     1
 62
     8
420
  8421504
176
     1
 90
        1
176
     1
 90
        4
176
     1
 62
     7
176
     1
 62
   257
176
     1
 90
        1
176
     1
 90
        1
176
     1
 40
1.0
176
     1
 90
        8
176
     1
 62
     8
420
  8421504
176
     1
 40
1.0
176
     1
 90
        1
176
     1
 90
        6
176
     1
 90
        2
176
     1
 62
     7
176
     1
 90
        5
176
     1
 90
        0
176
     1
 90
        0
176
     1
290
     0
176
     1
 90
        1
176
     1
 40
0.0
176
     1
 90
        0
176
     1
290
     0
176
     1
290
     1
176
     1
290
     1
176
     1
290
     0
176
     1
290
     0
176
     1
290
     0
176
     1
290
     0
176
     1
290
     0
176
     1
290
     0
176
     1
 90
       50
176
     1
 40
0.0
176
     1
 40
1.0
176
     1
 90
        0
176
     1
 62
    18
420
        0
176
     1
 90
       50
176
     1
 90
        3
176
     1
 62
     5
420
      255
176
     1
290
     0
176
     1
 90
       50
176
     1
 90
       50
176
     1
 90
       50
176
     1
290
     0
176
     1
 90
       50
176
     1
 62
   256
176
     0
 40
1.0
176
     0
 90
        2
176
     1
  1
strokes_ogs.tif
176
     1
290
     0
176
     1
 40
1.0
176
     1
 40
1.0
176
     1
1001
ACAD
1000
AcDbSavedByObjectVersion
1070
     0
  0
VISUALSTYLE
  5
8A29
102
{ACAD_REACTORS
330
8A20
102
}
330
8A20
100
AcDbVisualStyle
  2
Conceptual
 70
     9
177
     3
291
     0
 70
    58
 90
        3
176
     1
 90
        2
176
     1
 90
        0
176
     1
 90
        0
176
     1
 40
0.6
176
     1
 40
30.0
176
     1
 62
     7
420
 16777215
176
     1
 90
        2
176
     1
 90
        2
176
     1
 62
     7
176
     1
 62
   257
176
     1
 90
        1
176
     1
 90
        1
176
     1
 40
179.0
176
     1
 90
        8
176
     1
 62
     7
176
     1
 40
1.0
176
     1
 90
        1
176
     1
 90
        6
176
     1
 90
        2
176
     1
 62
     7
176
     1
 90
        3
176
     1
 90
        0
176
     1
 90
        0
176
     1
290
     0
176
     1
 90
        1
176
     1
 40
0.0
176
     1
 90
        0
176
     1
290
     0
176
     1
290
     1
176
     1
290
     1
176
     1
290
     0
176
     1
290
     0
176
     1
290
     0
176
     1
290
     0
176
     1
290
     0
176
     1
290
     0
176
     1
 90
       50
176
     1
 40
0.0
176
     1
 40
1.0
176
     1
 90
        0
176
     1
 62
    18
420
        0
176
     1
 90
       50
176
     1
 90
        3
176
     1
 62
     5
420
      255
176
     1
290
     0
176
     1
 90
       50
176
     1
 90
       50
176
     1
 90
       50
176
     1
290
     0
176
     1
 90
       50
176
     1
 62
   256
176
     0
 40
1.0
176
     0
 90
        2
176
     1
  1
strokes_ogs.tif
176
     1
290
     0
176
     1
 40
1.0
176
     1
 40
1.0
176
     1
1001
ACAD
1000
AcDbSavedByObjectVersion
1070
     0
  0
VISUALSTYLE
  5
8A2B
102
{ACAD_REACTORS
330
8A20
102
}
330
8A20
100
AcDbVisualStyle
  2
Dim
 70
    11
177
     3
291
     1
 70
    58
 90
        2
176
     1
 90
        2
176
     1
 90
        0
176
     1
 90
        0
176
     1
 40
0.6
176
     1
 40
30.0
176
     1
 62
     7
420
 16777215
176
     1
 90
        1
176
     1
 90
        4
176
     1
 62
     7
176
     1
 62
   257
176
     1
 90
        1
176
     1
 90
        1
176
     1
 40
1.0
176
     1
 90
        8
176
     1
 62
     7
176
     1
 40
1.0
176
     1
 90
        1
176
     1
 90
        6
176
     1
 90
        2
176
     1
 62
     7
176
     1
 90
        5
176
     1
 90
        0
176
     1
 90
        0
176
     1
290
     0
176
     1
 90
        1
176
     1
 40
-50.0
176
     1
 90
        0
176
     1
290
     0
176
     1
290
     1
176
     1
290
     1
176
     1
290
     0
176
     1
290
     0
176
     1
290
     0
176
     1
290
     0
176
     1
290
     0
176
     1
290
     0
176
     1
 90
       50
176
     1
 40
0.0
176
     1
 40
1.0
176
     1
 90
        0
176
     1
 62
    18
420
        0
176
     1
 90
       50
176
     1
 90
        3
176
     1
 62
     5
420
      255
176
     1
290
     0
176
     1
 90
       50
176
     1
 90
       50
176
     1
 90
       50
176
     1
290
     0
176
     1
 90
       50
176
     1
 62
   256
176
     0
 40
1.0
176
     0
 90
        2
176
     1
  1
strokes_ogs.tif
176
     1
290
     0
176
     1
 40
1.0
176
     1
 40
1.0
176
     1
1001
ACAD
1000
AcDbSavedByObjectVersion
1070
     0
  0
VISUALSTYLE
  5
8A38
102
{ACAD_REACTORS
330
8A20
102
}
330
8A20
100
AcDbVisualStyle
  2
EdgeColorOff
 70
    22
177
     3
291
     1
 70
    58
 90
        2
176
     0
 90
        2
176
     0
 90
        0
176
     0
 90
        0
176
     0
 40
0.6
176
     0
 40
30.0
176
     0
 62
     7
420
 16777215
176
     0
 90
        1
176
     0
 90
        4
176
     0
 62
     7
176
     0
 62
   257
176
     0
 90
        1
176
     0
 90
        1
176
     0
 40
1.0
176
     0
 90
        8
176
     2
 62
     7
176
     0
 40
1.0
176
     0
 90
        1
176
     0
 90
        6
176
     0
 90
        2
176
     0
 62
     7
176
     0
 90
        5
176
     0
 90
        0
176
     0
 90
        0
176
     0
290
     0
176
     0
 90
        1
176
     0
 40
0.0
176
     0
 90
        0
176
     0
290
     0
176
     0
290
     1
176
     0
290
     1
176
     0
290
     0
176
     0
290
     0
176
     0
290
     0
176
     0
290
     0
176
     0
290
     0
176
     0
290
     0
176
     0
 90
       50
176
     0
 40
0.0
176
     0
 40
1.0
176
     0
 90
        0
176
     0
 62
    18
420
        0
176
     0
 90
       50
176
     0
 90
        3
176
     0
 62
     5
420
      255
176
     0
290
     0
176
     0
 90
       50
176
     0
 90
       50
176
     0
 90
       50
176
     0
290
     0
176
     0
 90
       50
176
     0
 62
   256
176
     0
 40
1.0
176
     0
 90
        2
176
     0
  1
strokes_ogs.tif
176
     0
290
     0
176
     0
 40
1.0
176
     0
 40
1.0
176
     0
1001
ACAD
1000
AcDbSavedByObjectVersion
1070
     0
  0
VISUALSTYLE
  5
8A2F
102
{ACAD_REACTORS
330
8A20
102
}
330
8A20
100
AcDbVisualStyle
  2
Facepattern
 70
    15
177
     3
291
     1
 70
    58
 90
        2
176
     1
 90
        2
176
     1
 90
        0
176
     1
 90
        0
176
     1
 40
0.6
176
     1
 40
30.0
176
     1
 62
     7
420
 16777215
176
     1
 90
        1
176
     1
 90
        4
176
     1
 62
     7
176
     1
 62
   257
176
     1
 90
        1
176
     1
 90
        1
176
     1
 40
1.0
176
     1
 90
        8
176
     1
 62
     7
176
     1
 40
1.0
176
     1
 90
        1
176
     1
 90
        6
176
     1
 90
        2
176
     1
 62
     7
176
     1
 90
        5
176
     1
 90
        0
176
     1
 90
        0
176
     1
290
     0
176
     1
 90
        1
176
     1
 40
0.0
176
     1
 90
        0
176
     1
290
     0
176
     1
290
     1
176
     1
290
     1
176
     1
290
     0
176
     1
290
     0
176
     1
290
     0
176
     1
290
     0
176
     1
290
     0
176
     1
290
     0
176
     1
 90
       50
176
     1
 40
0.0
176
     1
 40
1.0
176
     1
 90
        0
176
     1
 62
    18
420
        0
176
     1
 90
       50
176
     1
 90
        3
176
     1
 62
     5
420
      255
176
     1
290
     0
176
     1
 90
       50
176
     1
 90
       50
176
     1
 90
       50
176
     1
290
     0
176
     1
 90
       50
176
     1
 62
   256
176
     0
 40
1.0
176
     0
 90
        2
176
     1
  1
strokes_ogs.tif
176
     1
290
     0
176
     1
 40
1.0
176
     1
 40
1.0
176
     1
1001
ACAD
1000
AcDbSavedByObjectVersion
1070
     0
  0
VISUALSTYLE
  5
8A21
102
{ACAD_REACTORS
330
8A20
102
}
330
8A20
100
AcDbVisualStyle
  2
Flat
 70
     0
177
     3
291
     1
 70
    58
 90
        2
176
     1
 90
        1
176
     1
 90
        1
176
     1
 90
        2
176
     1
 40
0.6
176
     1
 40
30.0
176
     1
 62
     7
420
 16777215
176
     1
 90
        0
176
     1
 90
        0
176
     1
 62
     7
176
     1
 62
   257
176
     1
 90
        1
176
     1
 90
        1
176
     1
 40
1.0
176
     1
 90
        8
176
     1
 62
     7
176
     1
 40
1.0
176
     1
 90
        1
176
     1
 90
        6
176
     1
 90
        2
176
     1
 62
     7
176
     1
 90
        5
176
     1
 90
        0
176
     1
 90
        0
176
     1
290
     0
176
     1
 90
       13
176
     1
 40
0.0
176
     1
 90
        0
176
     1
290
     0
176
     1
290
     1
176
     1
290
     1
176
     1
290
     0
176
     1
290
     0
176
     1
290
     0
176
     1
290
     0
176
     1
290
     0
176
     1
290
     0
176
     1
 90
       50
176
     1
 40
0.0
176
     1
 40
1.0
176
     1
 90
        0
176
     1
 62
    18
420
        0
176
     1
 90
       50
176
     1
 90
        3
176
     1
 62
     5
420
      255
176
     1
290
     0
176
     1
 90
       50
176
     1
 90
       50
176
     1
 90
       50
176
     1
290
     0
176
     1
 90
       50
176
     1
 62
   256
176
     0
 40
1.0
176
     0
 90
        2
176
     1
  1
strokes_ogs.tif
176
     1
290
     0
176
     1
 40
1.0
176
     1
 40
1.0
176
     1
1001
ACAD
1000
AcDbSavedByObjectVersion
1070
     0
  0
VISUALSTYLE
  5
8A22
102
{ACAD_REACTORS
330
8A20
102
}
330
8A20
100
AcDbVisualStyle
  2
FlatWithEdges
 70
     1
177
     3
291
     1
 70
    58
 90
        2
176
     1
 90
        1
176
     1
 90
        1
176
     1
 90
        2
176
     1
 40
0.6
176
     1
 40
30.0
176
     1
 62
     7
420
 16777215
176
     1
 90
        1
176
     1
 90
        0
176
     1
 62
     7
176
     1
 62
   257
176
     1
 90
        1
176
     1
 90
        1
176
     1
 40
1.0
176
     1
 90
        0
176
     1
 62
   257
176
     1
 40
1.0
176
     1
 90
        1
176
     1
 90
        6
176
     1
 90
        2
176
     1
 62
     7
176
     1
 90
        5
176
     1
 90
        0
176
     1
 90
        0
176
     1
290
     0
176
     1
 90
       13
176
     1
 40
0.0
176
     1
 90
        0
176
     1
290
     0
176
     1
290
     1
176
     1
290
     1
176
     1
290
     0
176
     1
290
     0
176
     1
290
     0
176
     1
290
     0
176
     1
290
     0
176
     1
290
     0
176
     1
 90
       50
176
     1
 40
0.0
176
     1
 40
1.0
176
     1
 90
        0
176
     1
 62
    18
420
        0
176
     1
 90
       50
176
     1
 90
        3
176
     1
 62
     5
420
      255
176
     1
290
     0
176
     1
 90
       50
176
     1
 90
       50
176
     1
 90
       50
176
     1
290
     0
176
     1
 90
       50
176
     1
 62
   256
176
     0
 40
1.0
176
     0
 90
        2
176
     1
  1
strokes_ogs.tif
176
     1
290
     0
176
     1
 40
1.0
176
     1
 40
1.0
176
     1
1001
ACAD
1000
AcDbSavedByObjectVersion
1070
     0
  0
VISUALSTYLE
  5
8A23
102
{ACAD_REACTORS
330
8A20
102
}
330
8A20
100
AcDbVisualStyle
  2
Gouraud
 70
     2
177
     3
291
     1
 70
    58
 90
        2
176
     1
 90
        2
176
     1
 90
        1
176
     1
 90
        2
176
     1
 40
0.6
176
     1
 40
30.0
176
     1
 62
     7
420
 16777215
176
     1
 90
        0
176
     1
 90
        0
176
     1
 62
     7
176
     1
 62
   257
176
     1
 90
        1
176
     1
 90
        1
176
     1
 40
1.0
176
     1
 90
        0
176
     1
 62
     7
176
     1
 40
1.0
176
     1
 90
        1
176
     1
 90
        6
176
     1
 90
        2
176
     1
 62
     7
176
     1
 90
        5
176
     1
 90
        0
176
     1
 90
        0
176
     1
290
     0
176
     1
 90
       13
176
     1
 40
0.0
176
     1
 90
        0
176
     1
290
     0
176
     1
290
     1
176
     1
290
     1
176
     1
290
     0
176
     1
290
     0
176
     1
290
     0
176
     1
290
     0
176
     1
290
     0
176
     1
290
     0
176
     1
 90
       50
176
     1
 40
0.0
176
     1
 40
1.0
176
     1
 90
        0
176
     1
 62
    18
420
        0
176
     1
 90
       50
176
     1
 90
        3
176
     1
 62
     5
420
      255
176
     1
290
     0
176
     1
 90
       50
176
     1
 90
       50
176
     1
 90
       50
176
     1
290
     0
176
     1
 90
       50
176
     1
 62
   256
176
     0
 40
1.0
176
     0
 90
        2
176
     1
  1
strokes_ogs.tif
176
     1
290
     0
176
     1
 40
1.0
176
     1
 40
1.0
176
     1
1001
ACAD
1000
AcDbSavedByObjectVersion
1070
     0
  0
VISUALSTYLE
  5
8A24
102
{ACAD_REACTORS
330
8A20
102
}
330
8A20
100
AcDbVisualStyle
  2
GouraudWithEdges
 70
     3
177
     3
291
     1
 70
    58
 90
        2
176
     1
 90
        2
176
     1
 90
        1
176
     1
 90
        2
176
     1
 40
0.6
176
     1
 40
30.0
176
     1
 62
     7
420
 16777215
176
     1
 90
        1
176
     1
 90
        0
176
     1
 62
     7
176
     1
 62
   257
176
     1
 90
        1
176
     1
 90
        1
176
     1
 40
1.0
176
     1
 90
        0
176
     1
 62
   257
176
     1
 40
1.0
176
     1
 90
        1
176
     1
 90
        6
176
     1
 90
        2
176
     1
 62
     7
176
     1
 90
        5
176
     1
 90
        0
176
     1
 90
        0
176
     1
290
     0
176
     1
 90
       13
176
     1
 40
0.0
176
     1
 90
        0
176
     1
290
     0
176
     1
290
     1
176
     1
290
     1
176
     1
290
     0
176
     1
290
     0
176
     1
290
     0
176
     1
290
     0
176
     1
290
     0
176
     1
290
     0
176
     1
 90
       50
176
     1
 40
0.0
176
     1
 40
1.0
176
     1
 90
        0
176
     1
 62
    18
420
        0
176
     1
 90
       50
176
     1
 90
        3
176
     1
 62
     5
420
      255
176
     1
290
     0
176
     1
 90
       50
176
     1
 90
       50
176
     1
 90
       50
176
     1
290
     0
176
     1
 90
       50
176
     1
 62
   256
176
     0
 40
1.0
176
     0
 90
        2
176
     1
  1
strokes_ogs.tif
176
     1
290
     0
176
     1
 40
1.0
176
     1
 40
1.0
176
     1
1001
ACAD
1000
AcDbSavedByObjectVersion
1070
     0
  0
VISUALSTYLE
  5
8A28
102
{ACAD_REACTORS
330
8A20
102
}
330
8A20
100
AcDbVisualStyle
  2
Hidden
 70
     6
177
     3
291
     0
 70
    58
 90
        1
176
     1
 90
        2
176
     1
 90
        2
176
     1
 90
        0
176
     1
 40
0.6
176
     1
 40
30.0
176
     1
 62
     7
420
 16777215
176
     1
 90
        2
176
     1
 90
        2
176
     1
 62
     7
176
     1
 62
   257
176
     1
 90
        2
176
     1
 90
        1
176
     1
 40
40.0
176
     1
 90
        0
176
     1
 62
   257
176
     1
 40
1.0
176
     1
 90
        1
176
     1
 90
        6
176
     1
 90
        2
176
     1
 62
     7
176
     1
 90
        3
176
     1
 90
        0
176
     1
 90
        0
176
     1
290
     0
176
     1
 90
        1
176
     1
 40
0.0
176
     1
 90
        0
176
     1
290
     0
176
     1
290
     1
176
     1
290
     1
176
     1
290
     0
176
     1
290
     0
176
     1
290
     0
176
     1
290
     0
176
     1
290
     0
176
     1
290
     0
176
     1
 90
       50
176
     1
 40
0.0
176
     1
 40
1.0
176
     1
 90
        0
176
     1
 62
    18
420
        0
176
     1
 90
       50
176
     1
 90
        3
176
     1
 62
     5
420
      255
176
     1
290
     0
176
     1
 90
       50
176
     1
 90
       50
176
     1
 90
       50
176
     1
290
     0
176
     1
 90
       50
176
     1
 62
   256
176
     0
 40
1.0
176
     0
 90
        2
176
     1
  1
strokes_ogs.tif
176
     1
290
     0
176
     1
 40
1.0
176
     1
 40
1.0
176
     1
1001
ACAD
1000
AcDbSavedByObjectVersion
1070
     0
  0
VISUALSTYLE
  5
8A36
102
{ACAD_REACTORS
330
8A20
102
}
330
8A20
100
AcDbVisualStyle
  2
JitterOff
 70
    20
177
     3
291
     1
 70
    58
 90
        2
176
     0
 90
        2
176
     0
 90
        0
176
     0
 90
        0
176
     0
 40
0.6
176
     0
 40
30.0
176
     0
 62
     7
420
 16777215
176
     0
 90
        1
176
     0
 90
        4
176
     0
 62
     7
176
     0
 62
   257
176
     0
 90
        1
176
     0
 90
        1
176
     0
 40
1.0
176
     0
 90
       10
176
     2
 62
     7
176
     0
 40
1.0
176
     0
 90
        1
176
     0
 90
        6
176
     0
 90
        2
176
     0
 62
     7
176
     0
 90
        5
176
     0
 90
        0
176
     0
 90
        0
176
     0
290
     0
176
     0
 90
        1
176
     0
 40
0.0
176
     0
 90
        0
176
     0
290
     0
176
     0
290
     1
176
     0
290
     1
176
     0
290
     0
176
     0
290
     0
176
     0
290
     0
176
     0
290
     0
176
     0
290
     0
176
     0
290
     0
176
     0
 90
       50
176
     0
 40
0.0
176
     0
 40
1.0
176
     0
 90
        0
176
     0
 62
    18
420
        0
176
     0
 90
       50
176
     0
 90
        3
176
     0
 62
     5
420
      255
176
     0
290
     0
176
     0
 90
       50
176
     0
 90
       50
176
     0
 90
       50
176
     0
290
     0
176
     0
 90
       50
176
     0
 62
   256
176
     0
 40
1.0
176
     0
 90
        2
176
     0
  1
strokes_ogs.tif
176
     0
290
     0
176
     0
 40
1.0
176
     0
 40
1.0
176
     0
1001
ACAD
1000
AcDbSavedByObjectVersion
1070
     0
  0
VISUALSTYLE
  5
8A2E
102
{ACAD_REACTORS
330
8A20
102
}
330
8A20
100
AcDbVisualStyle
  2
Linepattern
 70
    14
177
     3
291
     1
 70
    58
 90
        2
176
     1
 90
        2
176
     1
 90
        0
176
     1
 90
        0
176
     1
 40
0.6
176
     1
 40
30.0
176
     1
 62
     7
420
 16777215
176
     1
 90
        1
176
     1
 90
        4
176
     1
 62
     7
176
     1
 62
   257
176
     1
 90
        7
176
     1
 90
        7
176
     1
 40
1.0
176
     1
 90
        8
176
     1
 62
     7
176
     1
 40
1.0
176
     1
 90
        1
176
     1
 90
        6
176
     1
 90
        2
176
     1
 62
     7
176
     1
 90
        5
176
     1
 90
        0
176
     1
 90
        0
176
     1
290
     0
176
     1
 90
        1
176
     1
 40
0.0
176
     1
 90
        0
176
     1
290
     0
176
     1
290
     1
176
     1
290
     1
176
     1
290
     0
176
     1
290
     0
176
     1
290
     0
176
     1
290
     0
176
     1
290
     0
176
     1
290
     0
176
     1
 90
       50
176
     1
 40
0.0
176
     1
 40
1.0
176
     1
 90
        0
176
     1
 62
    18
420
        0
176
     1
 90
       50
176
     1
 90
        3
176
     1
 62
     5
420
      255
176
     1
290
     0
176
     1
 90
       50
176
     1
 90
       50
176
     1
 90
       50
176
     1
290
     0
176
     1
 90
       50
176
     1
 62
   256
176
     0
 40
1.0
176
     0
 90
        2
176
     1
  1
strokes_ogs.tif
176
     1
290
     0
176
     1
 40
1.0
176
     1
 40
1.0
176
     1
1001
ACAD
1000
AcDbSavedByObjectVersion
1070
     0
  0
VISUALSTYLE
  5
8A37
102
{ACAD_REACTORS
330
8A20
102
}
330
8A20
100
AcDbVisualStyle
  2
OverhangOff
 70
    21
177
     3
291
     1
 70
    58
 90
        2
176
     0
 90
        2
176
     0
 90
        0
176
     0
 90
        0
176
     0
 40
0.6
176
     0
 40
30.0
176
     0
 62
     7
420
 16777215
176
     0
 90
        1
176
     0
 90
        4
176
     0
 62
     7
176
     0
 62
   257
176
     0
 90
        1
176
     0
 90
        1
176
     0
 40
1.0
176
     0
 90
        9
176
     2
 62
     7
176
     0
 40
1.0
176
     0
 90
        1
176
     0
 90
        6
176
     0
 90
        2
176
     0
 62
     7
176
     0
 90
        5
176
     0
 90
        0
176
     0
 90
        0
176
     0
290
     0
176
     0
 90
        1
176
     0
 40
0.0
176
     0
 90
        0
176
     0
290
     0
176
     0
290
     1
176
     0
290
     1
176
     0
290
     0
176
     0
290
     0
176
     0
290
     0
176
     0
290
     0
176
     0
290
     0
176
     0
290
     0
176
     0
 90
       50
176
     0
 40
0.0
176
     0
 40
1.0
176
     0
 90
        0
176
     0
 62
    18
420
        0
176
     0
 90
       50
176
     0
 90
        3
176
     0
 62
     5
420
      255
176
     0
290
     0
176
     0
 90
       50
176
     0
 90
       50
176
     0
 90
       50
176
     0
290
     0
176
     0
 90
       50
176
     0
 62
   256
176
     0
 40
1.0
176
     0
 90
        2
176
     0
  1
strokes_ogs.tif
176
     0
290
     0
176
     0
 40
1.0
176
     0
 40
1.0
176
     0
1001
ACAD
1000
AcDbSavedByObjectVersion
1070
     0
  0
VISUALSTYLE
  5
8A2A
102
{ACAD_REACTORS
330
8A20
102
}
330
8A20
100
AcDbVisualStyle
  2
Realistic
 70
     8
177
     3
291
     0
 70
    58
 90
        2
176
     1
 90
        3
176
     1
 90
        0
176
     1
 90
        2
176
     1
 40
0.6
176
     1
 40
30.0
176
     1
 62
     7
420
 16777215
176
     1
 90
        0
176
     1
 90
        0
176
     1
 62
     7
176
     1
 62
   257
176
     1
 90
        1
176
     1
 90
        1
176
     1
 40
1.0
176
     1
 90
        8
176
     1
 62
   257
176
     1
 40
1.0
176
     1
 90
        1
176
     1
 90
        6
176
     1
 90
        2
176
     1
 62
     7
176
     1
 90
        3
176
     1
 90
        0
176
     1
 90
        0
176
     1
290
     0
176
     1
 90
       13
176
     1
 40
0.0
176
     1
 90
        0
176
     1
290
     0
176
     1
290
     1
176
     1
290
     1
176
     1
290
     0
176
     1
290
     0
176
     1
290
     0
176
     1
290
     0
176
     1
290
     0
176
     1
290
     0
176
     1
 90
       50
176
     1
 40
0.0
176
     1
 40
1.0
176
     1
 90
        0
176
     1
 62
    18
420
        0
176
     1
 90
       50
176
     1
 90
        3
176
     1
 62
     5
420
      255
176
     1
290
     0
176
     1
 90
       50
176
     1
 90
       50
176
     1
 90
       50
176
     1
290
     0
176
     1
 90
       50
176
     1
 62
   256
176
     0
 40
1.0
176
     0
 90
        2
176
     1
  1
strokes_ogs.tif
176
     1
290
     0
176
     1
 40
1.0
176
     1
 40
1.0
176
     1
1001
ACAD
1000
AcDbSavedByObjectVersion
1070
     0
  0
VISUALSTYLE
  5
8A35
102
{ACAD_REACTORS
330
8A20
102
}
330
8A20
100
AcDbVisualStyle
  2
Shaded
 70
    27
177
     3
291
     0
 70
    58
 90
        2
176
     1
 90
        2
176
     1
 90
        1
176
     1
 90
        2
176
     1
 40
0.6
176
     1
 40
30.0
176
     1
 62
     7
420
 16777215
176
     1
 90
        0
176
     1
 90
        4
176
     1
 62
     7
176
     1
 62
   257
176
     1
 90
        1
176
     1
 90
        1
176
     1
 40
1.0
176
     1
 90
        8
176
     1
 62
   257
176
     1
 40
1.0
176
     1
 90
        1
176
     1
 90
        6
176
     1
 90
        2
176
     1
 62
     8
420
  7895160
176
     1
 90
        3
176
     1
 90
        0
176
     1
 90
        0
176
     1
290
     0
176
     1
 90
        5
176
     1
 40
0.0
176
     1
 90
        0
176
     1
290
     0
176
     1
290
     1
176
     1
290
     1
176
     1
290
     0
176
     1
290
     0
176
     1
290
     0
176
     1
290
     0
176
     1
290
     0
176
     1
290
     0
176
     1
 90
       50
176
     1
 40
0.0
176
     1
 40
1.0
176
     1
 90
        0
176
     1
 62
    18
420
        0
176
     1
 90
       50
176
     1
 90
        3
176
     1
 62
     5
420
      255
176
     1
290
     0
176
     1
 90
       50
176
     1
 90
       50
176
     1
 90
       50
176
     1
290
     0
176
     1
 90
       50
176
     1
 62
   256
176
     0
 40
1.0
176
     0
 90
        2
176
     1
  1
strokes_ogs.tif
176
     1
290
     0
176
     1
 40
1.0
176
     1
 40
1.0
176
     1
1001
ACAD
1000
AcDbSavedByObjectVersion
1070
     0
  0
VISUALSTYLE
  5
8A34
102
{ACAD_REACTORS
330
8A20
102
}
330
8A20
100
AcDbVisualStyle
  2
Shaded with edges
 70
    26
177
     3
291
     0
 70
    58
 90
        2
176
     1
 90
        2
176
     1
 90
        1
176
     1
 90
        2
176
     1
 40
0.6
176
     1
 40
30.0
176
     1
 62
     7
420
 16777215
176
     1
 90
        1
176
     1
 90
        2
176
     1
 62
     7
176
     1
 62
   257
176
     1
 90
        2
176
     1
 90
        1
176
     1
 40
1.0
176
     1
 90
        8
176
     1
 62
   257
176
     1
 40
1.0
176
     1
 90
        1
176
     1
 90
        6
176
     1
 90
        2
176
     1
 62
     7
176
     1
 90
        3
176
     1
 90
        0
176
     1
 90
        0
176
     1
290
     0
176
     1
 90
        5
176
     1
 40
0.0
176
     1
 90
        0
176
     1
290
     0
176
     1
290
     1
176
     1
290
     1
176
     1
290
     0
176
     1
290
     0
176
     1
290
     0
176
     1
290
     0
176
     1
290
     0
176
     1
290
     0
176
     1
 90
       50
176
     1
 40
0.0
176
     1
 40
1.0
176
     1
 90
        0
176
     1
 62
    18
420
        0
176
     1
 90
       50
176
     1
 90
        3
176
     1
 62
     5
420
      255
176
     1
290
     0
176
     1
 90
       50
176
     1
 90
       50
176
     1
 90
       50
176
     1
290
     0
176
     1
 90
       50
176
     1
 62
   256
176
     0
 40
1.0
176
     0
 90
        2
176
     1
  1
strokes_ogs.tif
176
     1
290
     0
176
     1
 40
1.0
176
     1
 40
1.0
176
     1
1001
ACAD
1000
AcDbSavedByObjectVersion
1070
     0
  0
VISUALSTYLE
  5
8A31
102
{ACAD_REACTORS
330
8A20
102
}
330
8A20
100
AcDbVisualStyle
  2
Shades of Gray
 70
    23
177
     3
291
     0
 70
    58
 90
        2
176
     1
 90
        2
176
     1
 90
        3
176
     1
 90
        0
176
     1
 40
0.6
176
     1
 40
30.0
176
     1
 62
     7
420
 16777215
176
     1
 90
        2
176
     1
 90
        2
176
     1
 62
     7
176
     1
 62
     7
176
     1
 90
        1
176
     1
 90
        1
176
     1
 40
40.0
176
     1
 90
        8
176
     1
 62
     7
176
     1
 40
1.0
176
     1
 90
        1
176
     1
 90
        6
176
     1
 90
        2
176
     1
 62
     7
176
     1
 90
        3
176
     1
 90
        0
176
     1
 90
        0
176
     1
290
     0
176
     1
 90
        1
176
     1
 40
0.0
176
     1
 90
        0
176
     1
290
     0
176
     1
290
     1
176
     1
290
     1
176
     1
290
     0
176
     1
290
     0
176
     1
290
     0
176
     1
290
     0
176
     1
290
     0
176
     1
290
     0
176
     1
 90
       50
176
     1
 40
0.0
176
     1
 40
1.0
176
     1
 90
        0
176
     1
 62
    18
420
        0
176
     1
 90
       50
176
     1
 90
        3
176
     1
 62
     5
420
      255
176
     1
290
     0
176
     1
 90
       50
176
     1
 90
       50
176
     1
 90
       50
176
     1
290
     0
176
     1
 90
       50
176
     1
 62
   256
176
     0
 40
1.0
176
     0
 90
        2
176
     1
  1
strokes_ogs.tif
176
     1
290
     0
176
     1
 40
1.0
176
     1
 40
1.0
176
     1
1001
ACAD
1000
AcDbSavedByObjectVersion
1070
     0
  0
VISUALSTYLE
  5
8A32
102
{ACAD_REACTORS
330
8A20
102
}
330
8A20
100
AcDbVisualStyle
  2
Sketchy
 70
    24
177
     3
291
     0
 70
    58
 90
        1
176
     1
 90
        2
176
     1
 90
        2
176
     1
 90
        0
176
     1
 40
0.6
176
     1
 40
30.0
176
     1
 62
     7
420
 16777215
176
     1
 90
        2
176
     1
 90
        2
176
     1
 62
     7
176
     1
 62
     7
176
     1
 90
        1
176
     1
 90
        1
176
     1
 40
40.0
176
     1
 90
       11
176
     1
 62
     7
176
     1
 40
1.0
176
     1
 90
        1
176
     1
 90
        6
176
     1
 90
        2
176
     1
 62
     7
176
     1
 90
        6
176
     1
 90
        0
176
     1
 90
        0
176
     1
290
     0
176
     1
 90
        1
176
     1
 40
0.0
176
     1
 90
        0
176
     1
290
     0
176
     1
290
     1
176
     1
290
     1
176
     1
290
     0
176
     1
290
     0
176
     1
290
     0
176
     1
290
     0
176
     1
290
     0
176
     1
290
     0
176
     1
 90
       50
176
     1
 40
0.0
176
     1
 40
1.0
176
     1
 90
        0
176
     1
 62
    18
420
        0
176
     1
 90
       50
176
     1
 90
        3
176
     1
 62
     5
420
      255
176
     1
290
     0
176
     1
 90
       50
176
     1
 90
       50
176
     1
 90
       50
176
     1
290
     0
176
     1
 90
       50
176
     1
 62
   256
176
     0
 40
1.0
176
     0
 90
        2
176
     1
  1
strokes_ogs.tif
176
     1
290
     0
176
     1
 40
1.0
176
     1
 40
1.0
176
     1
1001
ACAD
1000
AcDbSavedByObjectVersion
1070
     0
  0
VISUALSTYLE
  5
8A2D
102
{ACAD_REACTORS
330
8A20
102
}
330
8A20
100
AcDbVisualStyle
  2
Thicken
 70
    13
177
     3
291
     1
 70
    58
 90
        2
176
     1
 90
        2
176
     1
 90
        0
176
     1
 90
        0
176
     1
 40
0.6
176
     1
 40
30.0
176
     1
 62
     7
420
 16777215
176
     1
 90
        1
176
     1
 90
        4
176
     1
 62
     7
176
     1
 62
   257
176
     1
 90
        1
176
     1
 90
        1
176
     1
 40
1.0
176
     1
 90
       12
176
     1
 62
     7
176
     1
 40
1.0
176
     1
 90
        1
176
     1
 90
        6
176
     1
 90
        2
176
     1
 62
     7
176
     1
 90
        5
176
     1
 90
        0
176
     1
 90
        0
176
     1
290
     0
176
     1
 90
        1
176
     1
 40
0.0
176
     1
 90
        0
176
     1
290
     0
176
     1
290
     1
176
     1
290
     1
176
     1
290
     0
176
     1
290
     0
176
     1
290
     0
176
     1
290
     0
176
     1
290
     0
176
     1
290
     0
176
     1
 90
       50
176
     1
 40
0.0
176
     1
 40
1.0
176
     1
 90
        0
176
     1
 62
    18
420
        0
176
     1
 90
       50
176
     1
 90
        3
176
     1
 62
     5
420
      255
176
     1
290
     0
176
     1
 90
       50
176
     1
 90
       50
176
     1
 90
       50
176
     1
290
     0
176
     1
 90
       50
176
     1
 62
   256
176
     0
 40
1.0
176
     0
 90
        2
176
     1
  1
strokes_ogs.tif
176
     1
290
     0
176
     1
 40
1.0
176
     1
 40
1.0
176
     1
1001
ACAD
1000
AcDbSavedByObjectVersion
1070
     0
  0
VISUALSTYLE
  5
8A27
102
{ACAD_REACTORS
330
8A20
102
}
330
8A20
100
AcDbVisualStyle
  2
Wireframe
 70
     5
177
     3
291
     0
 70
    58
 90
        0
176
     1
 90
        2
176
     1
 90
        0
176
     1
 90
        0
176
     1
 40
0.6
176
     1
 40
30.0
176
     1
 62
     7
420
 16777215
176
     1
 90
        1
176
     1
 90
        4
176
     1
 62
     7
176
     1
 62
   257
176
     1
 90
        1
176
     1
 90
        1
176
     1
 40
1.0
176
     1
 90
        0
176
     1
 62
   257
176
     1
 40
1.0
176
     1
 90
        1
176
     1
 90
        6
176
     1
 90
        2
176
     1
 62
     7
176
     1
 90
        3
176
     1
 90
        0
176
     1
 90
        0
176
     1
290
     0
176
     1
 90
        1
176
     1
 40
0.0
176
     1
 90
        0
176
     1
290
     0
176
     1
290
     1
176
     1
290
     1
176
     1
290
     0
176
     1
290
     0
176
     1
290
     0
176
     1
290
     0
176
     1
290
     0
176
     1
290
     0
176
     1
 90
       50
176
     1
 40
0.0
176
     1
 40
1.0
176
     1
 90
        0
176
     1
 62
    18
420
        0
176
     1
 90
       50
176
     1
 90
        3
176
     1
 62
     5
420
      255
176
     1
290
     0
176
     1
 90
       50
176
     1
 90
       50
176
     1
 90
       50
176
     1
290
     0
176
     1
 90
       50
176
     1
 62
   256
176
     0
 40
1.0
176
     0
 90
        2
176
     1
  1
strokes_ogs.tif
176
     1
290
     0
176
     1
 40
1.0
176
     1
 40
1.0
176
     1
1001
ACAD
1000
AcDbSavedByObjectVersion
1070
     0
  0
VISUALSTYLE
  5
8A33
102
{ACAD_REACTORS
330
8A20
102
}
330
8A20
100
AcDbVisualStyle
  2
X-Ray
 70
    25
177
     3
291
     0
 70
    58
 90
        2
176
     1
 90
        2
176
     1
 90
        1
176
     1
 90
        1
176
     1
 40
0.5
176
     1
 40
30.0
176
     1
 62
     7
420
 16777215
176
     1
 90
        1
176
     1
 90
        0
176
     1
 62
     7
176
     1
 62
   257
176
     1
 90
        1
176
     1
 90
        1
176
     1
 40
1.0
176
     1
 90
        8
176
     1
 62
     7
176
     1
 40
1.0
176
     1
 90
        1
176
     1
 90
        6
176
     1
 90
        2
176
     1
 62
     7
176
     1
 90
        3
176
     1
 90
        0
176
     1
 90
        0
176
     1
290
     0
176
     1
 90
       13
176
     1
 40
0.0
176
     1
 90
        0
176
     1
290
     0
176
     1
290
     1
176
     1
290
     1
176
     1
290
     0
176
     1
290
     0
176
     1
290
     0
176
     1
290
     0
176
     1
290
     0
176
     1
290
     0
176
     1
 90
       50
176
     1
 40
0.0
176
     1
 40
1.0
176
     1
 90
        0
176
     1
 62
    18
420
        0
176
     1
 90
       50
176
     1
 90
        3
176
     1
 62
     5
420
      255
176
     1
290
     0
176
     1
 90
       50
176
     1
 90
       50
176
     1
 90
       50
176
     1
290
     0
176
     1
 90
       50
176
     1
 62
   256
176
     0
 40
1.0
176
     0
 90
        2
176
     1
  1
strokes_ogs.tif
176
     1
290
     0
176
     1
 40
1.0
176
     1
 40
1.0
176
     1
1001
ACAD
1000
AcDbSavedByObjectVersion
1070
     0
  0
DICTIONARYVAR
  5
8A93
102
{ACAD_REACTORS
330
8A8D
102
}
330
8A8D
100
DictionaryVariables
280
     0
  1
1:1
  0
DICTIONARYVAR
  5
8A8F
102
{ACAD_REACTORS
330
8A8D
102
}
330
8A8D
100
DictionaryVariables
280
     0
  1
STANDARD
  0
DICTIONARYVAR
  5
8A8E
102
{ACAD_REACTORS
330
8A8D
102
}
330
8A8D
100
DictionaryVariables
280
     0
  1
STANDARD
  0
DICTIONARYVAR
  5
8A90
102
{ACAD_REACTORS
330
8A8D
102
}
330
8A8D
100
DictionaryVariables
280
     0
  1
Metric50
  0
DICTIONARYVAR
  5
8A91
102
{ACAD_REACTORS
330
8A8D
102
}
330
8A8D
100
DictionaryVariables
280
     0
  1
Metric50
  0
DICTIONARYVAR
  5
8A95
102
{ACAD_REACTORS
330
8A8D
102
}
330
8A8D
100
DictionaryVariables
280
     0
  1
1
  0
DICTIONARYVAR
  5
8A96
102
{ACAD_REACTORS
330
8A8D
102
}
330
8A8D
100
DictionaryVariables
280
     0
  1
15
  0
DICTIONARYVAR
  5
8A94
102
{ACAD_REACTORS
330
8A8D
102
}
330
8A8D
100
DictionaryVariables
280
     0
  1
0
  0
DICTIONARYVAR
  5
8A9B
102
{ACAD_REACTORS
330
8A8D
102
}
330
8A8D
100
DictionaryVariables
280
     0
  1
0
  0
DICTIONARYVAR
  5
8A92
102
{ACAD_REACTORS
330
8A8D
102
}
330
8A8D
100
DictionaryVariables
280
     0
  1
0
  0
DICTIONARY
  5
8AA6
102
{ACAD_REACTORS
330
8AA4
102
}
330
8AA4
100
AcDbDictionary
281
     1
  0
DICTIONARY
  5
8AA5
102
{ACAD_REACTORS
330
8AA4
102
}
330
8AA4
100
AcDbDictionary
281
     1
  3
2038676255216
350
8A9F
  3
2038676255232
350
8AA0
  3
2038676255248
350
8AA1
  3
2038676255264
350
8AA2
  3
2038676255280
350
8AA3
  0
DICTIONARY
  5
8AA9
330
8A53
100
AcDbDictionary
280
     1
281
     1
  3
ACAD_XREC_ROUNDTRIP
360
8AAA
  0
DICTIONARY
  5
8A11
330
8A10
100
AcDbDictionary
280
     1
281
     1
  3
BUMPTILE
360
8A13
  3
DIFFUSETILE
360
8A12
  3
OPACITYTILE
360
8A16
  3
REFLECTIONTILE
360
8A15
  3
REFRACTIONTILE
360
8A17
  3
SPECULARTILE
360
8A14
  0
DICTIONARY
  5
8A09
330
8A08
100
AcDbDictionary
280
     1
281
     1
  3
BUMPTILE
360
8A0B
  3
DIFFUSETILE
360
8A0A
  3
OPACITYTILE
360
8A0E
  3
REFLECTIONTILE
360
8A0D
  3
REFRACTIONTILE
360
8A0F
  3
SPECULARTILE
360
8A0C
  0
DICTIONARY
  5
8A19
330
8A18
100
AcDbDictionary
280
     1
281
     1
  3
BUMPTILE
360
8A1B
  3
DIFFUSETILE
360
8A1A
  3
OPACITYTILE
360
8A1E
  3
REFLECTIONTILE
360
8A1D
  3
REFRACTIONTILE
360
8A1F
  3
SPECULARTILE
360
8A1C
  0
DICTIONARY
  5
8AA7
330
8A51
100
AcDbDictionary
280
     1
281
     1
  3
ACAD_XREC_ROUNDTRIP
360
8AA8
  0
DICTIONARY
  5
8A9C
330
8A3B
100
AcDbDictionary
280
     1
281
     1
  3
ACAD_ROUNDTRIP_2008_TABLESTYLE_CELLSTYLEMAP
360
8A9D
  0
XRECORD
  5
8A9F
102
{ACAD_REACTORS
330
8AA5
102
}
330
8AA5
100
AcDbXrecord
280
     1
  1
AcDb_Thumbnail_Schema
102
{ATTRRECORD
341
8AA0
  2
AcDbDs::TreatedAsObjectData
280
     1
291
     1
102
ATTRRECORD}
102
{ATTRRECORD
341
8AA1
  2
AcDbDs::Legacy
280
     1
291
     1
102
ATTRRECORD}
  2
AcDbDs::ID
280
    10
 91
        8
102
{ATTRRECORD
341
8AA2
  2
AcDs:Indexable
280
     1
291
     1
102
ATTRRECORD}
102
{ATTRRECORD
341
8AA3
  2
AcDbDs::HandleAttribute
280
     7
282
     1
102
ATTRRECORD}
  2
Thumbnail_Data
280
    15
 91
        0
  0
XRECORD
  5
8AA0
102
{ACAD_REACTORS
330
8AA5
102
}
330
8AA5
100
AcDbXrecord
280
     1
  1
AcDbDs::TreatedAsObjectDataSchema
  2
AcDbDs::TreatedAsObjectData
280
     1
 91
        0
  0
XRECORD
  5
8AA1
102
{ACAD_REACTORS
330
8AA5
102
}
330
8AA5
100
AcDbXrecord
280
     1
  1
AcDbDs::LegacySchema
  2
AcDbDs::Legacy
280
     1
 91
        0
  0
XRECORD
  5
8AA2
102
{ACAD_REACTORS
330
8AA5
102
}
330
8AA5
100
AcDbXrecord
280
     1
  1
AcDbDs::IndexedPropertySchema
  2
AcDs:Indexable
280
     1
 91
        0
  0
XRECORD
  5
8AA3
102
{ACAD_REACTORS
330
8AA5
102
}
330
8AA5
100
AcDbXrecord
280
     1
  1
AcDbDs::HandleAttributeSchema
  2
AcDbDs::HandleAttribute
280
     7
 91
        1
284
     1
  0
XRECORD
  5
8AAA
102
{ACAD_REACTORS
330
8AA9
102
}
330
8AA9
100
AcDbXrecord
280
     1
102
DISPLAYNAME
  1
Metric50
102
FLAGS
 90
        0
  0
XRECORD
  5
8A13
102
{ACAD_REACTORS
330
8A11
102
}
330
8A11
100
AcDbXrecord
280
     1
270
     1
271
     1
  0
XRECORD
  5
8A12
102
{ACAD_REACTORS
330
8A11
102
}
330
8A11
100
AcDbXrecord
280
     1
270
     1
271
     1
  0
XRECORD
  5
8A16
102
{ACAD_REACTORS
330
8A11
102
}
330
8A11
100
AcDbXrecord
280
     1
270
     1
271
     1
  0
XRECORD
  5
8A15
102
{ACAD_REACTORS
330
8A11
102
}
330
8A11
100
AcDbXrecord
280
     1
270
     1
271
     1
  0
XRECORD
  5
8A17
102
{ACAD_REACTORS
330
8A11
102
}
330
8A11
100
AcDbXrecord
280
     1
270
     1
271
     1
  0
XRECORD
  5
8A14
102
{ACAD_REACTORS
330
8A11
102
}
330
8A11
100
AcDbXrecord
280
     1
270
     1
271
     1
  0
XRECORD
  5
8A0B
102
{ACAD_REACTORS
330
8A09
102
}
330
8A09
100
AcDbXrecord
280
     1
270
     1
271
     1
  0
XRECORD
  5
8A0A
102
{ACAD_REACTORS
330
8A09
102
}
330
8A09
100
AcDbXrecord
280
     1
270
     1
271
     1
  0
XRECORD
  5
8A0E
102
{ACAD_REACTORS
330
8A09
102
}
330
8A09
100
AcDbXrecord
280
     1
270
     1
271
     1
  0
XRECORD
  5
8A0D
102
{ACAD_REACTORS
330
8A09
102
}
330
8A09
100
AcDbXrecord
280
     1
270
     1
271
     1
  0
XRECORD
  5
8A0F
102
{ACAD_REACTORS
330
8A09
102
}
330
8A09
100
AcDbXrecord
280
     1
270
     1
271
     1
  0
XRECORD
  5
8A0C
102
{ACAD_REACTORS
330
8A09
102
}
330
8A09
100
AcDbXrecord
280
     1
270
     1
271
     1
  0
XRECORD
  5
8A1B
102
{ACAD_REACTORS
330
8A19
102
}
330
8A19
100
AcDbXrecord
280
     1
270
     1
271
     1
  0
XRECORD
  5
8A1A
102
{ACAD_REACTORS
330
8A19
102
}
330
8A19
100
AcDbXrecord
280
     1
270
     1
271
     1
  0
XRECORD
  5
8A1E
102
{ACAD_REACTORS
330
8A19
102
}
330
8A19
100
AcDbXrecord
280
     1
270
     1
271
     1
  0
XRECORD
  5
8A1D
102
{ACAD_REACTORS
330
8A19
102
}
330
8A19
100
AcDbXrecord
280
     1
270
     1
271
     1
  0
XRECORD
  5
8A1F
102
{ACAD_REACTORS
330
8A19
102
}
330
8A19
100
AcDbXrecord
280
     1
270
     1
271
     1
  0
XRECORD
  5
8A1C
102
{ACAD_REACTORS
330
8A19
102
}
330
8A19
100
AcDbXrecord
280
     1
270
     1
271
     1
  0
XRECORD
  5
8AA8
102
{ACAD_REACTORS
330
8AA7
102
}
330
8AA7
100
AcDbXrecord
280
     1
102
DISPLAYNAME
  1
Metric50
102
FLAGS
 90
        0
  0
CELLSTYLEMAP
  5
8A9D
102
{ACAD_REACTORS
330
8A9C
102
}
330
8A9C
100
AcDbCellStyleMap
 90
        3
300
CELLSTYLE
  1
TABLEFORMAT_BEGIN
 90
        5
170
     1
 91
        0
 92
    32768
 62
   257
 93
        1
300
CONTENTFORMAT
  1
CONTENTFORMAT_BEGIN
 90
        0
 91
        0
 92
      512
 93
        0
300

 40
0.0
140
1.0
 94
        5
 62
     0
340
10
144
6.0
309
CONTENTFORMAT_END
171
     1
301
MARGIN
  1
CELLMARGIN_BEGIN
 40
1.5
 40
1.5
 40
1.5
 40
1.5
 40
4.5
 40
4.5
309
CELLMARGIN_END
 94
        6
 95
        1
302
GRIDFORMAT
  1
GRIDFORMAT_BEGIN
 90
        0
 91
        1
 62
     0
 92
       -2
340
0
 93
        0
 40
1.125
309
GRIDFORMAT_END
 95
        2
302
GRIDFORMAT
  1
GRIDFORMAT_BEGIN
 90
        0
 91
        1
 62
     0
 92
       -2
340
0
 93
        0
 40
1.125
309
GRIDFORMAT_END
 95
        4
302
GRIDFORMAT
  1
GRIDFORMAT_BEGIN
 90
        0
 91
        1
 62
     0
 92
       -2
340
0
 93
        0
 40
1.125
309
GRIDFORMAT_END
 95
        8
302
GRIDFORMAT
  1
GRIDFORMAT_BEGIN
 90
        0
 91
        1
 62
     0
 92
       -2
340
0
 93
        0
 40
1.125
309
GRIDFORMAT_END
 95
       16
302
GRIDFORMAT
  1
GRIDFORMAT_BEGIN
 90
        0
 91
        1
 62
     0
 92
       -2
340
0
 93
        0
 40
1.125
309
GRIDFORMAT_END
 95
       32
302
GRIDFORMAT
  1
GRIDFORMAT_BEGIN
 90
        0
 91
        1
 62
     0
 92
       -2
340
0
 93
        0
 40
1.125
309
GRIDFORMAT_END
309
TABLEFORMAT_END
  1
CELLSTYLE_BEGIN
 90
        1
 91
        1
300
_TITLE
309
CELLSTYLE_END
300
CELLSTYLE
  1
TABLEFORMAT_BEGIN
 90
        5
170
     1
 91
        0
 92
        0
 62
   257
 93
        1
300
CONTENTFORMAT
  1
CONTENTFORMAT_BEGIN
 90
        0
 91
        0
 92
      512
 93
        0
300

 40
0.0
140
1.0
 94
        5
 62
     0
340
10
144
4.5
309
CONTENTFORMAT_END
171
     1
301
MARGIN
  1
CELLMARGIN_BEGIN
 40
1.5
 40
1.5
 40
1.5
 40
1.5
 40
4.5
 40
4.5
309
CELLMARGIN_END
 94
        6
 95
        1
302
GRIDFORMAT
  1
GRIDFORMAT_BEGIN
 90
        0
 91
        1
 62
     0
 92
       -2
340
0
 93
        0
 40
1.125
309
GRIDFORMAT_END
 95
        2
302
GRIDFORMAT
  1
GRIDFORMAT_BEGIN
 90
        0
 91
        1
 62
     0
 92
       -2
340
0
 93
        0
 40
1.125
309
GRIDFORMAT_END
 95
        4
302
GRIDFORMAT
  1
GRIDFORMAT_BEGIN
 90
        0
 91
        1
 62
     0
 92
       -2
340
0
 93
        0
 40
1.125
309
GRIDFORMAT_END
 95
        8
302
GRIDFORMAT
  1
GRIDFORMAT_BEGIN
 90
        0
 91
        1
 62
     0
 92
       -2
340
0
 93
        0
 40
1.125
309
GRIDFORMAT_END
 95
       16
302
GRIDFORMAT
  1
GRIDFORMAT_BEGIN
 90
        0
 91
        1
 62
     0
 92
       -2
340
0
 93
        0
 40
1.125
309
GRIDFORMAT_END
 95
       32
302
GRIDFORMAT
  1
GRIDFORMAT_BEGIN
 90
        0
 91
        1
 62
     0
 92
       -2
340
0
 93
        0
 40
1.125
309
GRIDFORMAT_END
309
TABLEFORMAT_END
  1
CELLSTYLE_BEGIN
 90
        2
 91
        1
300
_HEADER
309
CELLSTYLE_END
300
CELLSTYLE
  1
TABLEFORMAT_BEGIN
 90
        5
170
     1
 91
        0
 92
        0
 62
   257
 93
        1
300
CONTENTFORMAT
  1
CONTENTFORMAT_BEGIN
 90
        0
 91
        0
 92
      512
 93
        0
300

 40
0.0
140
1.0
 94
        2
 62
     0
340
10
144
4.5
309
CONTENTFORMAT_END
171
     1
301
MARGIN
  1
CELLMARGIN_BEGIN
 40
1.5
 40
1.5
 40
1.5
 40
1.5
 40
4.5
 40
4.5
309
CELLMARGIN_END
 94
        6
 95
        1
302
GRIDFORMAT
  1
GRIDFORMAT_BEGIN
 90
        0
 91
        1
 62
     0
 92
       -2
340
0
 93
        0
 40
1.125
309
GRIDFORMAT_END
 95
        2
302
GRIDFORMAT
  1
GRIDFORMAT_BEGIN
 90
        0
 91
        1
 62
     0
 92
       -2
340
0
 93
        0
 40
1.125
309
GRIDFORMAT_END
 95
        4
302
GRIDFORMAT
  1
GRIDFORMAT_BEGIN
 90
        0
 91
        1
 62
     0
 92
       -2
340
0
 93
        0
 40
1.125
309
GRIDFORMAT_END
 95
        8
302
GRIDFORMAT
  1
GRIDFORMAT_BEGIN
 90
        0
 91
        1
 62
     0
 92
       -2
340
0
 93
        0
 40
1.125
309
GRIDFORMAT_END
 95
       16
302
GRIDFORMAT
  1
GRIDFORMAT_BEGIN
 90
        0
 91
        1
 62
     0
 92
       -2
340
0
 93
        0
 40
1.125
309
GRIDFORMAT_END
 95
       32
302
GRIDFORMAT
  1
GRIDFORMAT_BEGIN
 90
        0
 91
        1
 62
     0
 92
       -2
340
0
 93
        0
 40
1.125
309
GRIDFORMAT_END
309
TABLEFORMAT_END
  1
CELLSTYLE_BEGIN
 90
        3
 91
        2
300
_DATA
309
CELLSTYLE_END
  0
ENDSEC
  0
SECTION
  2
ACDSDATA
 70
     2
 71
     8
  0
ACDSSCHEMA
 90
        0
  1
AcDb_Thumbnail_Schema
  2
AcDbDs::ID
280
    10
 91
        8
  2
Thumbnail_Data
280
    15
 91
        0
101
ACDSRECORD
 95
        0
 90
        1
  2
AcDbDs::TreatedAsObjectData
280
     1
291
     1
101
ACDSRECORD
 95
        0
 90
        2
  2
AcDbDs::Legacy
280
     1
291
     1
101
ACDSRECORD
  1
AcDbDs::ID
 90
        3
  2
AcDs:Indexable
280
     1
291
     1
101
ACDSRECORD
  1
AcDbDs::ID
 90
        4
  2
AcDbDs::HandleAttribute
280
     7
282
     1
  0
ACDSSCHEMA
 90
        1
  1
AcDbDs::TreatedAsObjectDataSchema
  2
AcDbDs::TreatedAsObjectData
280
     1
 91
        0
  0
ACDSSCHEMA
 90
        2
  1
AcDbDs::LegacySchema
  2
AcDbDs::Legacy
280
     1
 91
        0
  0
ACDSSCHEMA
 90
        3
  1
AcDbDs::IndexedPropertySchema
  2
AcDs:Indexable
280
     1
 91
        0
  0
ACDSSCHEMA
 90
        4
  1
AcDbDs::HandleAttributeSchema
  2
AcDbDs::HandleAttribute
280
     7
 91
        1
284
     1
  0
ACDSRECORD
 90
        0
  2
AcDbDs::ID
280
    10
320
89A7
  2
Thumbnail_Data
280
    15
 94
     1731
310
89504E470D0A1A0A0000000D49484452000001000000007C0803000000B13B9E5A00000300504C5445000000000000C8C8C80000000000000000000000000000000000000000000000000000330000660000990000CC0000FF0033000033330033660033990033CC0033FF0066000066330066660066990066CC0066FF0099
310
000099330099660099990099CC0099FF00CC0000CC3300CC6600CC9900CCCC00CCFF00FF0000FF3300FF6600FF9900FFCC00FFFF3300003300333300663300993300CC3300FF3333003333333333663333993333CC3333FF3366003366333366663366993366CC3366FF3399003399333399663399993399CC3399FF33CC00
310
33CC3333CC6633CC9933CCCC33CCFF33FF0033FF3333FF6633FF9933FFCC33FFFF6600006600336600666600996600CC6600FF6633006633336633666633996633CC6633FF6666006666336666666666996666CC6666FF6699006699336699666699996699CC6699FF66CC0066CC3366CC6666CC9966CCCC66CCFF66FF0066
310
FF3366FF6666FF9966FFCC66FFFF9900009900339900669900999900CC9900FF9933009933339933669933999933CC9933FF9966009966339966669966999966CC9966FF9999009999339999669999999999CC9999FF99CC0099CC3399CC6699CC9999CCCC99CCFF99FF0099FF3399FF6699FF9999FFCC99FFFFCC0000CC00
310
33CC0066CC0099CC00CCCC00FFCC3300CC3333CC3366CC3399CC33CCCC33FFCC6600CC6633CC6666CC6699CC66CCCC66FFCC9900CC9933CC9966CC9999CC99CCCC99FFCCCC00CCCC33CCCC66CCCC99CCCCCCCCCCFFCCFF00CCFF33CCFF66CCFF99CCFFCCCCFFFFFF0000FF0033FF0066FF0099FF00CCFF00FFFF3300FF3333
310
FF3366FF3399FF33CCFF33FFFF6600FF6633FF6666FF6699FF66CCFF66FFFF9900FF9933FF9966FF9999FF99CCFF99FFFFCC00FFCC33FFCC66FFCC99FFCCCCFFCCFFFFFF00FFFF33FFFF66FFFF99FFFFCCFFFFFF0000000D0D0D1A1A1A2828283535354343435050505D5D5D6B6B6B787878868686939393A1A1A1AEAEAEBB
310
BBBBC9C9C9D6D6D6E4E4E4F1F1F1FFFFFF00000000000000000000000000000000000000000000000000000000000008F1915C0000037E4944415478DAED9D5BB6EB200840198E3FCC7F324EC3FFDB5411C4246DEF79ACC3C38FD4A44956D902A2B22CC00F94F64305AC9466EAB50920012480049000FECE2FBDE9FCA20050
310
8FB7901A101E408B0C4059816D00DF3A023009E08FBD2C01FC3E80A1C64AABF91348C7DBD360841FA0E7ED03181880C587714A2EAFB5110034AA8A273D68C09533A4B6EE12B306882B4E4CA0518CC73601C2C1B79BB7A413CC3820E270B8B91A0E2BEFAF227EA52E4F3F21BB4757009A062005654AB33FF43221B2747CCB98
310
B7899BA5F8E04A03BEEBF99C13340FA0D61A1A40AD5F23601240BD2B2100DCDC960012405400251200BC291FFA4293007056CE4AEF27A200E05A59BE4C00410050F551090AA0D78FCF78004AAF0C08C1001CDEBE748F1F14006BC0F0840B00FF710001288F82FD584679540201B8308104100840D06E7002881A081180B0A1
310
7002200017C3E11091204B2B078608B1006CAD3F14C03980D73362BE01742F5078580CE314BFF85A5300160F304E230198F3E0548A9C29F10F60CC079C76811100C0B9064028007FFAB5092001FCDA2F8D9921A200D48BEFFC02F83447467EB1DE653F3F80A5E9B56B00D51F807734E085A6180730249417370017673E00D4
310
6902F52D00D215B833817B009B01F83101D5FD5D0158470C3E009C4E05699DE847548955155D68C03A23A25A7C6D7A5C3500C119009120463DC33D0052111F000ED9CB40F02600183193F14810952F20D5160070992E74088074BF2F14016E00FAC1218002BC1642AD7CF877E50411C482890460DD074CB186EC65883A9786
310
1800F07CA91F00725678A4083DAF145CC380E3EAF1EDCC21A24C22E30084F18F4419AD01559AC0AE010F53B10C00BB060003E816C1006005B0FB00B4AC015DABFB91842F20BDDD0430555E6B009AEE0584D7C3A1F9DBF2F80B2708B6BBC1992230431DCE9CDD003CF97803809C2203D3077082485531303A1B0BC8E0578836
310
574735807313B03B1A5459314881E1A2242FC6029601DCA5C8A00670F58069004B63C2D2B6EC04AA1E342E0FA17D13287A926B9B193BB19959ABA601CC8A90B2829CEC5D4B05B16EB42E2025009300FE6B6DF4FCBE4C904800092001248004900012806900E17794FC5CB21000F64D9779CF496F00E0E46F93C4869BB4CDB2
310
5F00E17DC0B906CCDDB761EEB31DCB073000DE6BDB3D80938B62EFED1640037267E90C85134002480009200124800490001240027006C0D05F6FFF03F4EECB93E2D030140000000049454E44AE426082
  0
ENDSEC
  0
EOF
