  0
SECTION
  2
HEADER
  9
$ACADVER
  1
AC1009
  9
$INSBASE
 10
0.0
 20
0.0
 30
0.0
  9
$EXTMIN
 10
0.0
 20
0.0
 30
0.0
  9
$EXTMAX
 10
4200.0
 20
5900.0
 30
0.0
  9
$LIMMIN
 10
0.0
 20
0.0
  9
$LIMMAX
 10
297.0
 20
210.0
  9
$ORTHOMODE
 70
     0
  9
$REGENMODE
 70
     1
  9
$FILLMODE
 70
     0
  9
$QTEXTMODE
 70
     0
  9
$MIRRTEXT
 70
     1
  9
$DRAGMODE
 70
     2
  9
$LTSCALE
 40
100.0
  9
$OSMODE
 70
    37
  9
$ATTMODE
 70
     1
  9
$TEXTSIZE
 40
180.0
  9
$TRACEWID
 40
0.05
  9
$TEXTSTYLE
  7
STANDARD
  9
$CLAYER
  8
3
  9
$CELTYPE
  6
BYLAYER
  9
$CECOLOR
 62
   256
  9
$DIMSCALE
 40
20.0
  9
$DIMASZ
 40
2.0
  9
$DIMEXO
 40
0.5
  9
$DIMDLI
 40
10.0
  9
$DIMRND
 40
0.0
  9
$DIMDLE
 40
0.0
  9
$DIMEXE
 40
1.0
  9
$DIMTP
 40
1.0
  9
$DIMTM
 40
1.0
  9
$DIMTXT
 40
3.0
  9
$DIMCEN
 40
0.0
  9
$DIMTSZ
 40
0.0
  9
$DIMTOL
 70
     0
  9
$DIMLIM
 70
     0
  9
$DIMTIH
 70
     0
  9
$DIMTOH
 70
     0
  9
$DIMSE1
 70
     0
  9
$DIMSE2
 70
     0
  9
$DIMTAD
 70
     1
  9
$DIMZIN
 70
     8
  9
$DIMBLK
  1

  9
$DIMASO
 70
     1
  9
$DIMSHO
 70
     1
  9
$DIMPOST
  1

  9
$DIMAPOST
  1

  9
$DIMALT
 70
     0
  9
$DIMALTD
 70
     2
  9
$DIMALTF
 40
0.039
  9
$DIMLFAC
 40
1.0
  9
$DIMTOFL
 70
     1
  9
$DIMTVP
 40
0.0
  9
$DIMTIX
 70
     0
  9
$DIMSOXD
 70
     0
  9
$DIMSAH
 70
     1
  9
$DIMBLK1
  1
OPEN
  9
$DIMBLK2
  1
OPEN
  9
$DIMSTYLE
  2
IGA
  9
$DIMCLRD
 70
     0
  9
$DIMCLRE
 70
     0
  9
$DIMCLRT
 70
     0
  9
$DIMTFAC
 40
10.0
  9
$DIMGAP
 40
1.0
  9
$LUNITS
 70
     2
  9
$LUPREC
 70
     3
  9
$SKETCHINC
 40
0.1
  9
$FILLETRAD
 40
50.0
  9
$AUNITS
 70
     0
  9
$AUPREC
 70
     0
  9
$MENU
  1
acad
  9
$ELEVATION
 40
0.0
  9
$PELEVATION
 40
0.0
  9
$THICKNESS
 40
0.0
  9
$LIMCHECK
 70
     0
  9
$BLIPMODE
 70
     0
  9
$CHAMFERA
 40
0.5
  9
$CHAMFERB
 40
0.5
  9
$SKPOLY
 70
     0
  9
$TDCREATE
 40
2451019.6149035878
  9
$TDUPDATE
 40
2454953.6392402658
  9
$TDINDWG
 40
0.0072808333
  9
$TDUSRTIMER
 40
0.0072808333
  9
$USRTIMER
 70
     1
  9
$ANGBASE
 50
0.0
  9
$ANGDIR
 70
     0
  9
$PDMODE
 70
     0
  9
$PDSIZE
 40
0.0
  9
$PLINEWID
 40
0.0
  9
$COORDS
 70
     1
  9
$SPLFRAME
 70
     0
  9
$SPLINETYPE
 70
     6
  9
$SPLINESEGS
 70
     8
  9
$ATTDIA
 70
     0
  9
$ATTREQ
 70
     1
  9
$HANDLING
 70
 10241
  9
$HANDSEED
  5
82FE
  9
$SURFTAB1
 70
     6
  9
$SURFTAB2
 70
     6
  9
$SURFTYPE
 70
     6
  9
$SURFU
 70
     6
  9
$SURFV
 70
     6
  9
$UCSNAME
  2

  9
$UCSORG
 10
0.0
 20
0.0
 30
0.0
  9
$UCSXDIR
 10
1.0
 20
0.0
 30
0.0
  9
$UCSYDIR
 10
0.0
 20
1.0
 30
0.0
  9
$PUCSNAME
  2

  9
$PUCSORG
 10
0.0
 20
0.0
 30
0.0
  9
$PUCSXDIR
 10
1.0
 20
0.0
 30
0.0
  9
$PUCSYDIR
 10
0.0
 20
1.0
 30
0.0
  9
$USERI1
 70
     0
  9
$USERI2
 70
     0
  9
$USERI3
 70
     0
  9
$USERI4
 70
     0
  9
$USERI5
 70
     0
  9
$USERR1
 40
0.0
  9
$USERR2
 40
0.0
  9
$USERR3
 40
0.0
  9
$USERR4
 40
0.0
  9
$USERR5
 40
0.0
  9
$WORLDVIEW
 70
     1
  9
$SHADEDGE
 70
     3
  9
$SHADEDIF
 70
    70
  9
$TILEMODE
 70
     1
  9
$MAXACTVP
 70
    16
  9
$PLIMCHECK
 70
     0
  9
$PEXTMIN
 10
1.0000000000000000E+020
 20
1.0000000000000000E+020
 30
1.0000000000000000E+020
  9
$PEXTMAX
 10
-1.0000000000000000E+020
 20
-1.0000000000000000E+020
 30
-1.0000000000000000E+020
  9
$PLIMMIN
 10
0.0
 20
0.0
  9
$PLIMMAX
 10
12.0
 20
9.0
  9
$UNITMODE
 70
     0
  9
$VISRETAIN
 70
     0
  9
$PLINEGEN
 70
     0
  9
$PSLTSCALE
 70
     1
  0
ENDSEC
  0
SECTION
  2
TABLES
  0
TABLE
  2
VPORT
 70
     2
  0
VPORT
  2
*ACTIVE
 70
     0
 10
0.0
 20
0.0
 11
1.0
 21
1.0
 12
3940.8793378371629
 22
666.91383653761102
 13
0.0
 23
0.0
 14
10.0
 24
10.0
 15
10.0
 25
10.0
 16
0.0
 26
0.0
 36
1.0
 17
0.0
 27
0.0
 37
0.0
 40
1733.46190163545
 41
3.1666666666666661
 42
50.0
 43
0.0
 44
0.0
 50
0.0
 51
0.0
 71
     0
 72
   100
 73
     1
 74
     0
 75
     0
 76
     0
 77
     0
 78
     0
  0
ENDTAB
  0
TABLE
  2
LTYPE
 70
     2
  0
LTYPE
  2
CONTINUOUS
 70
     0
  3
Solid line
 72
    65
 73
     0
 40
0.0
  0
LTYPE
  2
CENTER
 70
     0
  3
____ _ ____ _ ____ _ ____ _ ____ _ ____ _ ____ 
 72
    65
 73
     4
 40
2.0
 49
1.25
 49
-0.25
 49
0.25
 49
-0.25
  0
ENDTAB
  0
TABLE
  2
LAYER
 70
     6
  0
LAYER
  2
0
 70
     0
 62
     7
  6
CONTINUOUS
  0
LAYER
  2
3
 70
     0
 62
     2
  6
CONTINUOUS
  0
LAYER
  2
2
 70
     0
 62
     3
  6
CENTER
  0
LAYER
  2
1
 70
     0
 62
     4
  6
CONTINUOUS
  0
LAYER
  2
4
 70
     0
 62
     7
  6
CONTINUOUS
  0
LAYER
  2
DEFPOINTS
 70
     0
 62
     7
  6
CONTINUOUS
  0
ENDTAB
  0
TABLE
  2
STYLE
 70
     1
  0
STYLE
  2
STANDARD
 70
     0
 40
0.0
 41
1.0
 50
0.0
 71
     0
 42
180.0
  3
simplex.shx
  4
extfont.shx
  0
ENDTAB
  0
TABLE
  2
VIEW
 70
     0
  0
ENDTAB
  0
TABLE
  2
UCS
 70
     0
  0
ENDTAB
  0
TABLE
  2
APPID
 70
     1
  0
APPID
  2
ACAD
 70
     0
  0
ENDTAB
  0
TABLE
  2
DIMSTYLE
 70
     1
  0
DIMSTYLE
  2
IGA
 70
     0
  3

  4

  5

  6
OPEN
  7
OPEN
 40
2.0
 41
2.0
 42
0.5
 43
10.0
 44
1.0
 45
0.0
 46
0.0
 47
1.0
 48
1.0
140
3.0
141
0.0
142
0.0
143
0.03937
144
1.0
145
0.0
146
10.0
147
1.0
 71
     0
 72
     0
 73
     0
 74
     0
 75
     0
 76
     0
 77
     1
 78
     8
170
     0
171
     2
172
     0
173
     1
174
     0
175
     0
176
     0
177
     0
178
     0
  0
ENDTAB
  0
ENDSEC
  0
SECTION
  2
BLOCKS
  0
BLOCK
  8
0
  2
$MODEL_SPACE
 70
     0
 10
0.0
 20
0.0
 30
0.0
  3
$MODEL_SPACE
  1

  0
ENDBLK
  5
1B
  8
0
  0
BLOCK
 67
     1
  8
0
  2
$PAPER_SPACE
 70
     0
 10
0.0
 20
0.0
 30
0.0
  3
$PAPER_SPACE
  1

  0
ENDBLK
  5
18
 67
     1
  8
0
  0
BLOCK
  8
0
  2
_OPEN
 70
     0
 10
0.0
 20
0.0
 30
0.0
  3
_OPEN
  1

  0
LINE
  5
7B13
  8
0
  6
BYBLOCK
 62
     0
 10
-1.0
 20
0.1666666666666666
 30
0.0
 11
0.0
 21
0.0
 31
0.0
  0
LINE
  5
7B14
  8
0
  6
BYBLOCK
 62
     0
 10
0.0
 20
0.0
 30
0.0
 11
-1.0
 21
-0.1666666666666666
 31
0.0
  0
LINE
  5
7B15
  8
0
  6
BYBLOCK
 62
     0
 10
0.0
 20
0.0
 30
0.0
 11
-1.0
 21
0.0
 31
0.0
  0
ENDBLK
  5
7B17
  8
0
  0
BLOCK
  8
0
  2
*D1
 70
     1
 10
0.0
 20
0.0
 30
0.0
  3
*D1
  1

  0
LINE
  5
81D8
  8
3
 62
     0
 10
983.02685075327088
 20
2250.6729791784092
 30
0.0
 11
768.59300103407236
 21
2250.6729791784092
 31
0.0
  0
LINE
  5
81D9
  8
3
 62
     0
 10
1330.4046203925479
 20
2532.680696140425
 30
0.0
 11
768.59300103407259
 21
2532.680696140425
 31
0.0
  0
LINE
  5
81DA
  8
3
 62
     0
 10
788.59300103407236
 20
2290.6729791784092
 30
0.0
 11
788.59300103407247
 21
2492.680696140425
 31
0.0
  0
INSERT
  5
81DB
  8
3
 62
     0
  2
_OPEN
 10
788.59300103407236
 20
2250.6729791784092
 30
0.0
 41
40.0
 42
40.0
 43
40.0
 50
270.0
  0
INSERT
  5
81DC
  8
3
 62
     0
  2
_OPEN
 10
788.59300103407247
 20
2532.680696140425
 30
0.0
 41
40.0
 42
40.0
 43
40.0
 50
90.0
  0
TEXT
  8
3
  40
60
  5
82E8
  62
0
  72
0
  71
0
 10
618.593
 20
2285.48
 30
0.000000
  1
282
  0
POINT
  5
81DE
  8
DEFPOINTS
 62
     0
 10
993.02685075327099
 20
2250.6729791784092
 30
0.0
  0
POINT
  5
81DF
  8
DEFPOINTS
 62
     0
 10
1340.4046203925479
 20
2532.680696140425
 30
0.0
  0
POINT
  5
81E0
  8
DEFPOINTS
 62
     0
 10
788.59300103407247
 20
2532.680696140425
 30
0.0
  0
ENDBLK
  5
805E
  8
0
  0
BLOCK
  8
0
  2
*D2
 70
     1
 10
0.0
 20
0.0
 30
0.0
  3
*D2
  1

  0
LINE
  5
81E1
  8
3
 62
     0
 10
1005.4046203925481
 20
2275.6729791784092
 30
0.0
 11
1005.4046203925481
 21
2655.9534958240019
 31
0.0
  0
LINE
  5
81E2
  8
3
 62
     0
 10
1310.4046203925479
 20
2581.0284067068169
 30
0.0
 11
1310.4046203925479
 21
2655.9534958240019
 31
0.0
  0
LINE
  5
81E3
  8
3
 62
     0
 10
1045.4046203925479
 20
2635.9534958240019
 30
0.0
 11
1270.4046203925479
 21
2635.9534958240019
 31
0.0
  0
INSERT
  5
81E4
  8
3
 62
     0
  2
_OPEN
 10
1005.4046203925481
 20
2635.9534958240019
 30
0.0
 41
40.0
 42
40.0
 43
40.0
 50
180.0
  0
INSERT
  5
81E5
  8
3
 62
     0
  2
_OPEN
 10
1310.4046203925479
 20
2635.9534958240019
 30
0.0
 41
40.0
 42
40.0
 43
40.0
  0
TEXT
  8
3
  40
60
  5
82E9
  62
0
  72
0
  71
0
 10
1037.90
 20
2579.75
 30
0.000000
  1
305
  0
POINT
  5
81E7
  8
DEFPOINTS
 62
     0
 10
1005.4046203925481
 20
2265.6729791784092
 30
0.0
  0
POINT
  5
81E8
  8
DEFPOINTS
 62
     0
 10
1310.4046203925479
 20
2571.0284067068178
 30
0.0
  0
POINT
  5
81E9
  8
DEFPOINTS
 62
     0
 10
1310.4046203925479
 20
2635.9534958240019
 30
0.0
  0
ENDBLK
  5
80D2
  8
0
  0
BLOCK
  8
0
  2
*D3
 70
     1
 10
0.0
 20
0.0
 30
0.0
  3
*D3
  1

  0
LINE
  5
81ED
  8
3
 62
     0
 10
983.02685075327088
 20
2250.6729791784092
 30
0.0
 11
655.88068786873384
 21
2250.6729791784092
 31
0.0
  0
LINE
  5
81EE
  8
3
 62
     0
 10
1085.4046203925479
 20
1720.6729791784089
 30
0.0
 11
655.88068786873373
 21
1720.6729791784089
 31
0.0
  0
LINE
  5
81EF
  8
3
 62
     0
 10
675.88068786873384
 20
2210.6729791784092
 30
0.0
 11
675.88068786873373
 21
1760.6729791784089
 31
0.0
  0
INSERT
  5
81F0
  8
3
 62
     0
  2
_OPEN
 10
675.88068786873384
 20
2250.6729791784092
 30
0.0
 41
40.0
 42
40.0
 43
40.0
 50
90.0
  0
INSERT
  5
81F1
  8
3
 62
     0
  2
_OPEN
 10
675.88068786873373
 20
1720.6729791784089
 30
0.0
 41
40.0
 42
40.0
 43
40.0
 50
270.0
  0
TEXT
  8
3
  40
60
  5
82EA
  62
0
  72
0
  71
0
 10
505.881
 20
1879.47
 30
0.000000
  1
530
  0
POINT
  5
81F3
  8
DEFPOINTS
 62
     0
 10
993.02685075327099
 20
2250.6729791784092
 30
0.0
  0
POINT
  5
81F4
  8
DEFPOINTS
 62
     0
 10
1095.4046203925479
 20
1720.6729791784089
 30
0.0
  0
POINT
  5
81F5
  8
DEFPOINTS
 62
     0
 10
675.88068786873373
 20
1720.6729791784089
 30
0.0
  0
ENDBLK
  5
8069
  8
0
  0
BLOCK
  8
0
  2
*D4
 70
     1
 10
0.0
 20
0.0
 30
0.0
  3
*D4
  1

  0
LINE
  5
81F6
  8
3
 62
     0
 10
995.40462039254817
 20
1826.6729791784089
 30
0.0
 11
861.76326447418444
 21
1826.6729791784089
 31
0.0
  0
LINE
  5
81F7
  8
3
 62
     0
 10
995.40462039254817
 20
2238.6729791784092
 30
0.0
 11
861.76326447418444
 21
2238.6729791784092
 31
0.0
  0
LINE
  5
81F8
  8
3
 62
     0
 10
881.76326447418433
 20
1866.6729791784089
 30
0.0
 11
881.76326447418433
 21
2198.6729791784092
 31
0.0
  0
INSERT
  5
81F9
  8
3
 62
     0
  2
_OPEN
 10
881.76326447418433
 20
1826.6729791784089
 30
0.0
 41
40.0
 42
40.0
 43
40.0
 50
270.0
  0
INSERT
  5
81FA
  8
3
 62
     0
  2
_OPEN
 10
881.76326447418433
 20
2238.6729791784092
 30
0.0
 41
40.0
 42
40.0
 43
40.0
 50
90.0
  0
TEXT
  8
3
  40
60
  5
82EB
  62
0
  72
0
  71
0
 10
711.763
 20
1926.47
 30
0.000000
  1
412
  0
POINT
  5
81FC
  8
DEFPOINTS
 62
     0
 10
1005.4046203925481
 20
1826.6729791784089
 30
0.0
  0
POINT
  5
81FD
  8
DEFPOINTS
 62
     0
 10
1005.4046203925481
 20
2238.6729791784092
 30
0.0
  0
POINT
  5
81FE
  8
DEFPOINTS
 62
     0
 10
881.76326447418433
 20
2238.6729791784092
 30
0.0
  0
ENDBLK
  5
80BA
  8
0
  0
BLOCK
  8
0
  2
*D5
 70
     1
 10
0.0
 20
0.0
 30
0.0
  3
*D5
  1

  0
LINE
  5
81FF
  8
3
 62
     0
 10
995.40462039254817
 20
1826.6729791784089
 30
0.0
 11
768.59300103407259
 21
1826.6729791784089
 31
0.0
  0
LINE
  5
8200
  8
3
 62
     0
 10
983.02685075327088
 20
2250.6729791784092
 30
0.0
 11
768.59300103407259
 21
2250.6729791784092
 31
0.0
  0
LINE
  5
8201
  8
3
 62
     0
 10
788.59300103407247
 20
1866.6729791784089
 30
0.0
 11
788.59300103407247
 21
2210.6729791784092
 31
0.0
  0
INSERT
  5
8202
  8
3
 62
     0
  2
_OPEN
 10
788.59300103407247
 20
1826.6729791784089
 30
0.0
 41
40.0
 42
40.0
 43
40.0
 50
270.0
  0
INSERT
  5
8203
  8
3
 62
     0
  2
_OPEN
 10
788.59300103407247
 20
2250.6729791784092
 30
0.0
 41
40.0
 42
40.0
 43
40.0
 50
90.0
  0
TEXT
  8
3
  40
60
  5
82EC
  62
0
  72
0
  71
0
 10
618.593
 20
1932.47
 30
0.000000
  1
424
  0
POINT
  5
8205
  8
DEFPOINTS
 62
     0
 10
1005.4046203925481
 20
1826.6729791784089
 30
0.0
  0
POINT
  5
8206
  8
DEFPOINTS
 62
     0
 10
993.02685075327099
 20
2250.6729791784092
 30
0.0
  0
POINT
  5
8207
  8
DEFPOINTS
 62
     0
 10
788.59300103407247
 20
2250.6729791784092
 30
0.0
  0
ENDBLK
  5
8099
  8
0
  0
BLOCK
  8
0
  2
*D6
 70
     1
 10
0.0
 20
0.0
 30
0.0
  3
*D6
  1

  0
LINE
  5
821C
  8
3
 62
     0
 10
2025.4046203925479
 20
1599.6729791784089
 30
0.0
 11
2025.4046203925479
 21
1468.9802803625209
 31
0.0
  0
LINE
  5
821D
  8
3
 62
     0
 10
1310.4046203925479
 20
1569.744436644
 30
0.0
 11
1310.4046203925479
 21
1468.9802803625209
 31
0.0
  0
LINE
  5
821E
  8
3
 62
     0
 10
1985.4046203925479
 20
1488.9802803625209
 30
0.0
 11
1350.4046203925479
 21
1488.9802803625209
 31
0.0
  0
INSERT
  5
821F
  8
3
 62
     0
  2
_OPEN
 10
2025.4046203925479
 20
1488.9802803625209
 30
0.0
 41
40.0
 42
40.0
 43
40.0
  0
INSERT
  5
8220
  8
3
 62
     0
  2
_OPEN
 10
1310.4046203925479
 20
1488.9802803625209
 30
0.0
 41
40.0
 42
40.0
 43
40.0
 50
180.0
  0
TEXT
  8
3
  40
60
  5
82ED
  62
0
  72
0
  71
0
 10
1547.90
 20
1432.78
 30
0.000000
  1
715
  0
POINT
  5
8222
  8
DEFPOINTS
 62
     0
 10
2025.4046203925479
 20
1609.6729791784089
 30
0.0
  0
POINT
  5
8223
  8
DEFPOINTS
 62
     0
 10
1310.4046203925479
 20
1579.744436644
 30
0.0
  0
POINT
  5
8224
  8
DEFPOINTS
 62
     0
 10
1310.4046203925479
 20
1488.9802803625209
 30
0.0
  0
ENDBLK
  5
80A4
  8
0
  0
BLOCK
  8
0
  2
*D7
 70
     1
 10
0.0
 20
0.0
 30
0.0
  3
*D7
  1

  0
LINE
  5
8225
  8
3
 62
     0
 10
1310.4046203925479
 20
1569.744436644
 30
0.0
 11
1310.4046203925479
 21
1468.9802803625209
 31
0.0
  0
LINE
  5
8226
  8
3
 62
     0
 10
1095.4046203925479
 20
1599.6729791784089
 30
0.0
 11
1095.4046203925479
 21
1468.9802803625209
 31
0.0
  0
LINE
  5
8227
  8
3
 62
     0
 10
1270.4046203925479
 20
1488.9802803625209
 30
0.0
 11
1135.4046203925479
 21
1488.9802803625209
 31
0.0
  0
INSERT
  5
8228
  8
3
 62
     0
  2
_OPEN
 10
1310.4046203925479
 20
1488.9802803625209
 30
0.0
 41
40.0
 42
40.0
 43
40.0
  0
INSERT
  5
8229
  8
3
 62
     0
  2
_OPEN
 10
1095.4046203925479
 20
1488.9802803625209
 30
0.0
 41
40.0
 42
40.0
 43
40.0
 50
180.0
  0
TEXT
  8
3
  40
60
  5
82EE
  62
0
  72
0
  71
0
 10
1082.90
 20
1432.78
 30
0.000000
  1
215
  0
POINT
  5
822B
  8
DEFPOINTS
 62
     0
 10
1310.4046203925479
 20
1579.744436644
 30
0.0
  0
POINT
  5
822C
  8
DEFPOINTS
 62
     0
 10
1095.4046203925479
 20
1609.6729791784089
 30
0.0
  0
POINT
  5
822D
  8
DEFPOINTS
 62
     0
 10
1095.4046203925479
 20
1488.9802803625209
 30
0.0
  0
ENDBLK
  5
80C7
  8
0
  0
BLOCK
  8
0
  2
*D8
 70
     1
 10
0.0
 20
0.0
 30
0.0
  3
*D8
  1

  0
LINE
  5
822E
  8
3
 62
     0
 10
1310.4046203925479
 20
2581.0284067068169
 30
0.0
 11
1310.4046203925479
 21
2655.9534958240019
 31
0.0
  0
LINE
  5
822F
  8
3
 62
     0
 10
1652.4123373545631
 20
2230.6729791784092
 30
0.0
 11
1652.4123373545631
 21
2655.9534958240019
 31
0.0
  0
LINE
  5
8230
  8
3
 62
     0
 10
1350.4046203925479
 20
2635.9534958240019
 30
0.0
 11
1612.4123373545631
 21
2635.9534958240019
 31
0.0
  0
INSERT
  5
8231
  8
3
 62
     0
  2
_OPEN
 10
1310.4046203925479
 20
2635.9534958240019
 30
0.0
 41
40.0
 42
40.0
 43
40.0
 50
180.0
  0
INSERT
  5
8232
  8
3
 62
     0
  2
_OPEN
 10
1652.4123373545631
 20
2635.9534958240019
 30
0.0
 41
40.0
 42
40.0
 43
40.0
  0
TEXT
  8
3
  40
60
  5
82EF
  62
0
  72
0
  71
0
 10
1361.41
 20
2579.75
 30
0.000000
  1
342
  0
POINT
  5
8234
  8
DEFPOINTS
 62
     0
 10
1310.4046203925479
 20
2571.0284067068178
 30
0.0
  0
POINT
  5
8235
  8
DEFPOINTS
 62
     0
 10
1652.4123373545631
 20
2220.6729791784092
 30
0.0
  0
POINT
  5
8236
  8
DEFPOINTS
 62
     0
 10
1652.4123373545631
 20
2635.9534958240019
 30
0.0
  0
ENDBLK
  5
80AF
  8
0
  0
BLOCK
  8
0
  2
*D9
 70
     1
 10
0.0
 20
0.0
 30
0.0
  3
*D9
  1

  0
LINE
  5
8237
  8
3
 62
     0
 10
1085.4046203925479
 20
3421.85804484654
 30
0.0
 11
789.2621452505208
 21
3421.85804484654
 31
0.0
  0
LINE
  5
8238
  8
3
 62
     0
 10
1085.4046203925479
 20
4281.85804484654
 30
0.0
 11
789.26214525052092
 21
4281.85804484654
 31
0.0
  0
LINE
  5
8239
  8
3
 62
     0
 10
809.26214525052069
 20
3461.8580448465409
 30
0.0
 11
809.26214525052092
 21
4241.85804484654
 31
0.0
  0
INSERT
  5
823A
  8
3
 62
     0
  2
_OPEN
 10
809.26214525052069
 20
3421.85804484654
 30
0.0
 41
40.0
 42
40.0
 43
40.0
 50
270.0
  0
INSERT
  5
823B
  8
3
 62
     0
  2
_OPEN
 10
809.26214525052092
 20
4281.85804484654
 30
0.0
 41
40.0
 42
40.0
 43
40.0
 50
90.0
  0
TEXT
  8
3
  40
60
  5
82F0
  62
0
  72
0
  71
0
 10
639.262
 20
3745.66
 30
0.000000
  1
860
  0
POINT
  5
823D
  8
DEFPOINTS
 62
     0
 10
1095.4046203925479
 20
3421.85804484654
 30
0.0
  0
POINT
  5
823E
  8
DEFPOINTS
 62
     0
 10
1095.4046203925479
 20
4281.85804484654
 30
0.0
  0
POINT
  5
823F
  8
DEFPOINTS
 62
     0
 10
809.26214525052092
 20
4281.85804484654
 30
0.0
  0
ENDBLK
  5
80DD
  8
0
  0
BLOCK
  8
0
  2
*D10
 70
     1
 10
0.0
 20
0.0
 30
0.0
  3
*D10
  1

  0
LINE
  5
8240
  8
3
 62
     0
 10
1525.4046203925479
 20
4291.85804484654
 30
0.0
 11
1525.4046203925479
 21
4416.6084862552252
 31
0.0
  0
LINE
  5
8241
  8
3
 62
     0
 10
2025.4046203925479
 20
3851.8580448465391
 30
0.0
 11
2025.4046203925479
 21
4416.6084862552252
 31
0.0
  0
LINE
  5
8242
  8
3
 62
     0
 10
1565.4046203925479
 20
4396.6084862552252
 30
0.0
 11
1985.4046203925479
 21
4396.6084862552252
 31
0.0
  0
INSERT
  5
8243
  8
3
 62
     0
  2
_OPEN
 10
1525.4046203925479
 20
4396.6084862552252
 30
0.0
 41
40.0
 42
40.0
 43
40.0
 50
180.0
  0
INSERT
  5
8244
  8
3
 62
     0
  2
_OPEN
 10
2025.4046203925479
 20
4396.6084862552252
 30
0.0
 41
40.0
 42
40.0
 43
40.0
  0
TEXT
  8
3
  40
60
  5
82F1
  62
0
  72
0
  71
0
 10
1655.40
 20
4340.41
 30
0.000000
  1
500
  0
POINT
  5
8246
  8
DEFPOINTS
 62
     0
 10
1525.4046203925479
 20
4281.85804484654
 30
0.0
  0
POINT
  5
8247
  8
DEFPOINTS
 62
     0
 10
2025.4046203925479
 20
3841.85804484654
 30
0.0
  0
POINT
  5
8248
  8
DEFPOINTS
 62
     0
 10
2025.4046203925479
 20
4396.6084862552252
 30
0.0
  0
ENDBLK
  5
80FE
  8
0
  0
BLOCK
  8
0
  2
*D11
 70
     1
 10
0.0
 20
0.0
 30
0.0
  3
*D11
  1

  0
LINE
  5
8249
  8
3
 62
     0
 10
2025.4046203925479
 20
3411.8580448465391
 30
0.0
 11
2025.4046203925479
 21
3183.6828906223109
 31
0.0
  0
LINE
  5
824A
  8
3
 62
     0
 10
1095.4046203925479
 20
3411.85804484654
 30
0.0
 11
1095.4046203925479
 21
3183.6828906223109
 31
0.0
  0
LINE
  5
824B
  8
3
 62
     0
 10
1985.4046203925479
 20
3203.6828906223109
 30
0.0
 11
1135.4046203925479
 21
3203.6828906223109
 31
0.0
  0
INSERT
  5
824C
  8
3
 62
     0
  2
_OPEN
 10
2025.4046203925479
 20
3203.6828906223109
 30
0.0
 41
40.0
 42
40.0
 43
40.0
  0
INSERT
  5
824D
  8
3
 62
     0
  2
_OPEN
 10
1095.4046203925479
 20
3203.6828906223109
 30
0.0
 41
40.0
 42
40.0
 43
40.0
 50
180.0
  0
TEXT
  8
3
  40
60
  5
82F2
  62
0
  72
0
  71
0
 10
1440.40
 20
3147.48
 30
0.000000
  1
930
  0
POINT
  5
824F
  8
DEFPOINTS
 62
     0
 10
2025.4046203925479
 20
3421.8580448465391
 30
0.0
  0
POINT
  5
8250
  8
DEFPOINTS
 62
     0
 10
1095.4046203925479
 20
3421.85804484654
 30
0.0
  0
POINT
  5
8251
  8
DEFPOINTS
 62
     0
 10
1095.4046203925479
 20
3203.6828906223109
 30
0.0
  0
ENDBLK
  5
80F3
  8
0
  0
BLOCK
  8
0
  2
*D12
 70
     1
 10
0.0
 20
0.0
 30
0.0
  3
*D12
  1

  0
LINE
  5
8252
  8
3
 62
     0
 10
2035.4046203925479
 20
3421.8580448465391
 30
0.0
 11
2120.7485585529148
 21
3421.8580448465391
 31
0.0
  0
LINE
  5
8253
  8
3
 62
     0
 10
2035.4046203925479
 20
3841.85804484654
 30
0.0
 11
2120.7485585529148
 21
3841.85804484654
 31
0.0
  0
LINE
  5
8254
  8
3
 62
     0
 10
2100.7485585529148
 20
3461.8580448465391
 30
0.0
 11
2100.7485585529148
 21
3801.8580448465391
 31
0.0
  0
INSERT
  5
8255
  8
3
 62
     0
  2
_OPEN
 10
2100.7485585529148
 20
3421.8580448465391
 30
0.0
 41
40.0
 42
40.0
 43
40.0
 50
270.0
  0
INSERT
  5
8256
  8
3
 62
     0
  2
_OPEN
 10
2100.7485585529148
 20
3841.85804484654
 30
0.0
 41
40.0
 42
40.0
 43
40.0
 50
90.0
  0
TEXT
  8
3
  40
60
  5
82F3
  62
0
  72
0
  71
0
 10
1930.75
 20
3525.66
 30
0.000000
  1
420
  0
POINT
  5
8258
  8
DEFPOINTS
 62
     0
 10
2025.4046203925479
 20
3421.8580448465391
 30
0.0
  0
POINT
  5
8259
  8
DEFPOINTS
 62
     0
 10
2025.4046203925479
 20
3841.85804484654
 30
0.0
  0
POINT
  5
825A
  8
DEFPOINTS
 62
     0
 10
2100.7485585529148
 20
3841.85804484654
 30
0.0
  0
ENDBLK
  5
8053
  8
0
  0
BLOCK
  8
0
  2
*D13
 70
     1
 10
0.0
 20
0.0
 30
0.0
  3
*D13
  1

  0
LINE
  5
825B
  8
3
 62
     0
 10
1095.4046203925479
 20
4291.85804484654
 30
0.0
 11
1095.4046203925479
 21
4416.6084862552252
 31
0.0
  0
LINE
  5
825C
  8
3
 62
     0
 10
1525.4046203925479
 20
4291.85804484654
 30
0.0
 11
1525.4046203925479
 21
4416.6084862552252
 31
0.0
  0
LINE
  5
825D
  8
3
 62
     0
 10
1135.4046203925479
 20
4396.6084862552252
 30
0.0
 11
1485.4046203925479
 21
4396.6084862552252
 31
0.0
  0
INSERT
  5
825E
  8
3
 62
     0
  2
_OPEN
 10
1095.4046203925479
 20
4396.6084862552252
 30
0.0
 41
40.0
 42
40.0
 43
40.0
 50
180.0
  0
INSERT
  5
825F
  8
3
 62
     0
  2
_OPEN
 10
1525.4046203925479
 20
4396.6084862552252
 30
0.0
 41
40.0
 42
40.0
 43
40.0
  0
TEXT
  8
3
  40
60
  5
82F4
  62
0
  72
0
  71
0
 10
1190.40
 20
4340.41
 30
0.000000
  1
430
  0
POINT
  5
8261
  8
DEFPOINTS
 62
     0
 10
1095.4046203925479
 20
4281.85804484654
 30
0.0
  0
POINT
  5
8262
  8
DEFPOINTS
 62
     0
 10
1525.4046203925479
 20
4281.85804484654
 30
0.0
  0
POINT
  5
8263
  8
DEFPOINTS
 62
     0
 10
1525.4046203925479
 20
4396.6084862552252
 30
0.0
  0
ENDBLK
  5
80E8
  8
0
  0
BLOCK
  8
0
  2
*D14
 70
     1
 10
0.0
 20
0.0
 30
0.0
  3
*D14
  1

  0
LINE
  5
8264
  8
3
 62
     0
 10
2559.866864727629
 20
1599.6729791784089
 30
0.0
 11
2559.866864727629
 21
1467.490802090932
 31
0.0
  0
LINE
  5
8265
  8
3
 62
     0
 10
3224.8668647276322
 20
1569.744436644
 30
0.0
 11
3224.8668647276322
 21
1467.490802090932
 31
0.0
  0
LINE
  5
8266
  8
3
 62
     0
 10
2599.8668647276299
 20
1487.490802090932
 30
0.0
 11
3184.8668647276331
 21
1487.490802090932
 31
0.0
  0
INSERT
  5
8267
  8
3
 62
     0
  2
_OPEN
 10
2559.866864727629
 20
1487.490802090932
 30
0.0
 41
40.0
 42
40.0
 43
40.0
 50
180.0
  0
INSERT
  5
8268
  8
3
 62
     0
  2
_OPEN
 10
3224.8668647276322
 20
1487.490802090932
 30
0.0
 41
40.0
 42
40.0
 43
40.0
  0
TEXT
  8
3
  40
60
  5
82F5
  62
0
  72
0
  71
0
 10
2772.37
 20
1431.29
 30
0.000000
  1
665
  0
POINT
  5
826A
  8
DEFPOINTS
 62
     0
 10
2559.866864727629
 20
1609.6729791784089
 30
0.0
  0
POINT
  5
826B
  8
DEFPOINTS
 62
     0
 10
3224.8668647276322
 20
1579.744436644
 30
0.0
  0
POINT
  5
826C
  8
DEFPOINTS
 62
     0
 10
3224.8668647276322
 20
1487.490802090932
 30
0.0
  0
ENDBLK
  5
8138
  8
0
  0
BLOCK
  8
0
  2
*D15
 70
     1
 10
0.0
 20
0.0
 30
0.0
  3
*D15
  1

  0
LINE
  5
826D
  8
3
 62
     0
 10
3224.8668647276322
 20
1569.744436644
 30
0.0
 11
3224.8668647276322
 21
1467.490802090932
 31
0.0
  0
LINE
  5
826E
  8
3
 62
     0
 10
3419.8668647276322
 20
1599.6729791784089
 30
0.0
 11
3419.8668647276322
 21
1467.490802090932
 31
0.0
  0
LINE
  5
826F
  8
3
 62
     0
 10
3264.8668647276322
 20
1487.490802090932
 30
0.0
 11
3379.8668647276309
 21
1487.490802090932
 31
0.0
  0
INSERT
  5
8270
  8
3
 62
     0
  2
_OPEN
 10
3224.8668647276322
 20
1487.490802090932
 30
0.0
 41
40.0
 42
40.0
 43
40.0
 50
180.0
  0
INSERT
  5
8271
  8
3
 62
     0
  2
_OPEN
 10
3419.8668647276322
 20
1487.490802090932
 30
0.0
 41
40.0
 42
40.0
 43
40.0
  0
TEXT
  8
3
  40
60
  5
82F6
  62
0
  72
0
  71
0
 10
3202.37
 20
1431.29
 30
0.000000
  1
195
  0
POINT
  5
8273
  8
DEFPOINTS
 62
     0
 10
3224.8668647276322
 20
1579.744436644
 30
0.0
  0
POINT
  5
8274
  8
DEFPOINTS
 62
     0
 10
3419.8668647276322
 20
1609.6729791784089
 30
0.0
  0
POINT
  5
8275
  8
DEFPOINTS
 62
     0
 10
3419.8668647276322
 20
1487.490802090932
 30
0.0
  0
ENDBLK
  5
810B
  8
0
  0
BLOCK
  8
0
  2
*D16
 70
     1
 10
0.0
 20
0.0
 30
0.0
  3
*D16
  1

  0
LINE
  5
8276
  8
3
 62
     0
 10
2464.8668647276299
 20
2410.6729791784092
 30
0.0
 11
2464.8668647276299
 21
2789.6483673304178
 31
0.0
  0
LINE
  5
8277
  8
3
 62
     0
 10
3224.8668647276322
 20
2754.6148580841532
 30
0.0
 11
3224.8668647276322
 21
2789.6483673304178
 31
0.0
  0
LINE
  5
8278
  8
3
 62
     0
 10
2504.8668647276299
 20
2769.6483673304178
 30
0.0
 11
3184.8668647276322
 21
2769.6483673304178
 31
0.0
  0
INSERT
  5
8279
  8
3
 62
     0
  2
_OPEN
 10
2464.8668647276299
 20
2769.6483673304178
 30
0.0
 41
40.0
 42
40.0
 43
40.0
 50
180.0
  0
INSERT
  5
827A
  8
3
 62
     0
  2
_OPEN
 10
3224.8668647276322
 20
2769.6483673304178
 30
0.0
 41
40.0
 42
40.0
 43
40.0
  0
TEXT
  8
3
  40
60
  5
82F7
  62
0
  72
0
  71
0
 10
2724.87
 20
2713.45
 30
0.000000
  1
760
  0
POINT
  5
827C
  8
DEFPOINTS
 62
     0
 10
2464.8668647276299
 20
2400.6729791784092
 30
0.0
  0
POINT
  5
827D
  8
DEFPOINTS
 62
     0
 10
3224.8668647276322
 20
2744.6148580841532
 30
0.0
  0
POINT
  5
827E
  8
DEFPOINTS
 62
     0
 10
3224.8668647276322
 20
2769.6483673304178
 30
0.0
  0
ENDBLK
  5
8171
  8
0
  0
BLOCK
  8
0
  2
*D17
 70
     1
 10
0.0
 20
0.0
 30
0.0
  3
*D17
  1

  0
LINE
  5
829D
  8
3
 62
     0
 10
3413.4668647276299
 20
2450.6729791784092
 30
0.0
 11
3577.1276829578119
 21
2450.6729791784092
 31
0.0
  0
LINE
  5
829E
  8
3
 62
     0
 10
3413.4668647276299
 20
2050.6729791784092
 30
0.0
 11
3577.1276829578119
 21
2050.6729791784092
 31
0.0
  0
LINE
  5
829F
  8
3
 62
     0
 10
3557.1276829578128
 20
2410.6729791784092
 30
0.0
 11
3557.1276829578128
 21
2090.6729791784092
 31
0.0
  0
INSERT
  5
82A0
  8
3
 62
     0
  2
_OPEN
 10
3557.1276829578128
 20
2450.6729791784092
 30
0.0
 41
40.0
 42
40.0
 43
40.0
 50
90.0
  0
INSERT
  5
82A1
  8
3
 62
     0
  2
_OPEN
 10
3557.1276829578128
 20
2050.6729791784092
 30
0.0
 41
40.0
 42
40.0
 43
40.0
 50
270.0
  0
TEXT
  8
3
  40
60
  5
82F8
  62
0
  72
0
  71
0
 10
3387.13
 20
2144.47
 30
0.000000
  1
400
  0
POINT
  5
82A3
  8
DEFPOINTS
 62
     0
 10
3403.4668647276299
 20
2450.6729791784092
 30
0.0
  0
POINT
  5
82A4
  8
DEFPOINTS
 62
     0
 10
3403.4668647276299
 20
2050.6729791784092
 30
0.0
  0
POINT
  5
82A5
  8
DEFPOINTS
 62
     0
 10
3557.1276829578128
 20
2050.6729791784092
 30
0.0
  0
ENDBLK
  5
8122
  8
0
  0
BLOCK
  8
0
  2
*D18
 70
     1
 10
0.0
 20
0.0
 30
0.0
  3
*D18
  1

  0
LINE
  5
82A6
  8
3
 62
     0
 10
3224.8668647276322
 20
2754.6148580841532
 30
0.0
 11
3224.8668647276322
 21
2789.6483673304178
 31
0.0
  0
LINE
  5
82A7
  8
3
 62
     0
 10
3377.8668647276309
 20
2485.6729791784101
 30
0.0
 11
3377.8668647276309
 21
2789.6483673304178
 31
0.0
  0
LINE
  5
82A8
  8
3
 62
     0
 10
3264.8668647276309
 20
2769.6483673304178
 30
0.0
 11
3337.8668647276299
 21
2769.6483673304178
 31
0.0
  0
LINE
  5
82A9
  8
3
 62
     0
 10
3377.8668647276309
 20
2769.6483673304178
 30
0.0
 11
3600.7240075847731
 21
2769.6483673304178
 31
0.0
  0
INSERT
  5
82AA
  8
3
 62
     0
  2
_OPEN
 10
3224.8668647276322
 20
2769.6483673304178
 30
0.0
 41
40.0
 42
40.0
 43
40.0
 50
180.0
  0
INSERT
  5
82AB
  8
3
 62
     0
  2
_OPEN
 10
3377.8668647276309
 20
2769.6483673304178
 30
0.0
 41
40.0
 42
40.0
 43
40.0
  0
TEXT
  8
3
  40
60
  5
82F9
  62
0
  72
0
  71
0
 10
3389.30
 20
2713.45
 30
0.000000
  1
153
  0
POINT
  5
82AD
  8
DEFPOINTS
 62
     0
 10
3224.8668647276322
 20
2744.6148580841532
 30
0.0
  0
POINT
  5
82AE
  8
DEFPOINTS
 62
     0
 10
3377.8668647276309
 20
2475.6729791784092
 30
0.0
  0
POINT
  5
82AF
  8
DEFPOINTS
 62
     0
 10
3377.8668647276309
 20
2769.6483673304178
 30
0.0
  0
ENDBLK
  5
8166
  8
0
  0
BLOCK
  8
0
  2
*D19
 70
     1
 10
0.0
 20
0.0
 30
0.0
  3
*D19
  1

  0
LINE
  5
82B0
  8
3
 62
     0
 10
3074.8668647276309
 20
2553.8806961404262
 30
0.0
 11
3074.8668647276309
 21
2657.591904425552
 31
0.0
  0
LINE
  5
82B1
  8
3
 62
     0
 10
3374.8668647276322
 20
2553.8806961404262
 30
0.0
 11
3374.8668647276322
 21
2657.591904425552
 31
0.0
  0
LINE
  5
82B2
  8
3
 62
     0
 10
3114.8668647276309
 20
2637.591904425552
 30
0.0
 11
3334.8668647276322
 21
2637.591904425552
 31
0.0
  0
INSERT
  5
82B3
  8
3
 62
     0
  2
_OPEN
 10
3074.8668647276309
 20
2637.591904425552
 30
0.0
 41
40.0
 42
40.0
 43
40.0
 50
180.0
  0
INSERT
  5
82B4
  8
3
 62
     0
  2
_OPEN
 10
3374.8668647276322
 20
2637.591904425552
 30
0.0
 41
40.0
 42
40.0
 43
40.0
  0
TEXT
  8
3
  40
60
  5
82FA
  62
0
  72
0
  71
0
 10
3104.87
 20
2581.39
 30
0.000000
  1
300
  0
POINT
  5
82B6
  8
DEFPOINTS
 62
     0
 10
3074.8668647276309
 20
2543.8806961404262
 30
0.0
  0
POINT
  5
82B7
  8
DEFPOINTS
 62
     0
 10
3374.8668647276322
 20
2543.8806961404262
 30
0.0
  0
POINT
  5
82B8
  8
DEFPOINTS
 62
     0
 10
3374.8668647276322
 20
2637.591904425552
 30
0.0
  0
ENDBLK
  5
8143
  8
0
  0
BLOCK
  8
0
  2
_DOT
 70
     0
 10
0.0
 20
0.0
 30
0.0
  3
_DOT
  1

  0
POLYLINE
  5
817B
  8
0
  6
BYBLOCK
 62
     0
 66
     1
 10
0.0
 20
0.0
 30
0.0
 70
     1
 40
0.5
 41
0.5
  0
VERTEX
  5
82C3
  8
0
  6
BYBLOCK
 62
     0
 10
-0.25
 20
0.0
 30
0.0
 42
1.0
  0
VERTEX
  5
82C4
  8
0
  6
BYBLOCK
 62
     0
 10
0.25
 20
0.0
 30
0.0
 42
1.0
  0
SEQEND
  5
82C5
  8
0
  6
BYBLOCK
 62
     0
  0
LINE
  5
817F
  8
0
  6
BYBLOCK
 62
     0
 10
-0.5
 20
0.0
 30
0.0
 11
-1.0
 21
0.0
 31
0.0
  0
ENDBLK
  5
8180
  8
0
  0
BLOCK
  8
0
  2
*D21
 70
     1
 10
0.0
 20
0.0
 30
0.0
  3
*D21
  1

  0
LINE
  5
82C6
  8
3
 62
     0
 10
1085.4046203925479
 20
1684.6729791784089
 30
0.0
 11
656.02959195785661
 21
1684.6729791784089
 31
0.0
  0
LINE
  5
82C7
  8
3
 62
     0
 10
1085.4046203925479
 20
1609.6729791784089
 30
0.0
 11
656.02959195785661
 21
1609.6729791784089
 31
0.0
  0
LINE
  5
82C8
  8
3
 62
     0
 10
676.02959195785661
 20
1724.6729791784089
 30
0.0
 11
676.02959195785661
 21
1764.6729791784089
 31
0.0
  0
LINE
  5
82C9
  8
3
 62
     0
 10
676.02959195785661
 20
1569.6729791784089
 30
0.0
 11
676.02959195785661
 21
1392.530122035552
 31
0.0
  0
LINE
  5
82CA
  8
3
 62
     0
 10
676.02959195785661
 20
1684.6729791784089
 30
0.0
 11
676.02959195785661
 21
1609.6729791784089
 31
0.0
  0
INSERT
  5
82CB
  8
3
 62
     0
  2
_DOT
 10
676.02959195785661
 20
1684.6729791784089
 30
0.0
 41
40.0
 42
40.0
 43
40.0
 50
270.0
  0
INSERT
  5
82CC
  8
3
 62
     0
  2
_OPEN
 10
676.02959195785661
 20
1609.6729791784089
 30
0.0
 41
40.0
 42
40.0
 43
40.0
 50
90.0
  0
TEXT
  8
3
  40
60
  5
82FB
  62
0
  72
0
  71
0
 10
506.030
 20
1354.90
 30
0.000000
  1
75
  0
POINT
  5
82CE
  8
DEFPOINTS
 62
     0
 10
1095.4046203925479
 20
1684.6729791784089
 30
0.0
  0
POINT
  5
82CF
  8
DEFPOINTS
 62
     0
 10
1095.4046203925479
 20
1609.6729791784089
 30
0.0
  0
POINT
  5
82D0
  8
DEFPOINTS
 62
     0
 10
676.02959195785661
 20
1609.6729791784089
 30
0.0
  0
ENDBLK
  5
819D
  8
0
  0
BLOCK
  8
0
  2
*D22
 70
     1
 10
0.0
 20
0.0
 30
0.0
  3
*D22
  1

  0
LINE
  5
82D1
  8
3
 62
     0
 10
1085.4046203925479
 20
1684.6729791784089
 30
0.0
 11
656.02959195785661
 21
1684.6729791784089
 31
0.0
  0
LINE
  5
82D2
  8
3
 62
     0
 10
1085.4046203925479
 20
1720.6729791784089
 30
0.0
 11
656.02959195785661
 21
1720.6729791784089
 31
0.0
  0
LINE
  5
82D3
  8
3
 62
     0
 10
676.02959195785661
 20
1644.6729791784089
 30
0.0
 11
676.02959195785661
 21
1604.6729791784089
 31
0.0
  0
LINE
  5
82D4
  8
3
 62
     0
 10
676.02959195785661
 20
1760.6729791784089
 30
0.0
 11
676.02959195785672
 21
1800.6729791784089
 31
0.0
  0
LINE
  5
82D5
  8
3
 62
     0
 10
676.02959195785661
 20
1702.6729791784089
 30
0.0
 11
580.31530624357094
 21
1731.3872648926949
 31
0.0
  0
LINE
  5
82D6
  8
3
 62
     0
 10
580.31530624357094
 20
1731.3872648926949
 30
0.0
 11
580.31530624357094
 21
1945.6729791784089
 31
0.0
  0
TEXT
  8
3
  40
60
  5
82FC
  62
0
  72
0
  71
0
 10
394.601
 20
1732.33
 30
0.000000
  1
(36)
  0
LINE
  5
82D8
  8
3
 62
     0
 10
676.02959195785661
 20
1684.6729791784089
 30
0.0
 11
676.02959195785661
 21
1720.6729791784089
 31
0.0
  0
LINE
  5
82D9
  8
3
 62
     0
 10
676.02959195785661
 20
1684.6729791784089
 30
0.0
 11
676.02959195785661
 21
1720.6729791784089
 31
0.0
  0
INSERT
  5
82DA
  8
3
 62
     0
  2
_DOT
 10
676.02959195785661
 20
1684.6729791784089
 30
0.0
 41
40.0
 42
40.0
 43
40.0
 50
90.0
  0
INSERT
  5
82DB
  8
3
 62
     0
  2
_OPEN
 10
676.02959195785661
 20
1720.6729791784089
 30
0.0
 41
40.0
 42
40.0
 43
40.0
 50
270.0
  0
POINT
  5
82DC
  8
DEFPOINTS
 62
     0
 10
1095.4046203925479
 20
1684.6729791784089
 30
0.0
  0
POINT
  5
82DD
  8
DEFPOINTS
 62
     0
 10
1095.4046203925479
 20
1720.6729791784089
 30
0.0
  0
POINT
  5
82DE
  8
DEFPOINTS
 62
     0
 10
676.02959195785661
 20
1720.6729791784089
 30
0.0
  0
ENDBLK
  5
81AE
  8
0
  0
BLOCK
  8
0
  2
*D23
 70
     1
 10
0.0
 20
0.0
 30
0.0
  3
*D23
  1

  0
LINE
  5
82DF
  8
3
 62
     0
 10
1320.4046203925479
 20
2532.680696140425
 30
0.0
 11
416.70858030473778
 21
2532.680696140425
 31
0.0
  0
LINE
  5
82E0
  8
3
 62
     0
 10
1085.4046203925479
 20
1609.6729791784089
 30
0.0
 11
416.7085803047375
 21
1609.6729791784101
 31
0.0
  0
LINE
  5
82E1
  8
3
 62
     0
 10
436.70858030473778
 20
2492.680696140425
 30
0.0
 11
436.7085803047375
 21
1649.6729791784089
 31
0.0
  0
INSERT
  5
82E2
  8
3
 62
     0
  2
_OPEN
 10
436.70858030473778
 20
2532.680696140425
 30
0.0
 41
40.0
 42
40.0
 43
40.0
 50
90.0
  0
INSERT
  5
82E3
  8
3
 62
     0
  2
_OPEN
 10
436.7085803047375
 20
1609.6729791784101
 30
0.0
 41
40.0
 42
40.0
 43
40.0
 50
270.0
  0
TEXT
  8
3
  40
60
  5
82FD
  62
0
  72
0
  71
0
 10
266.709
 20
1964.98
 30
0.000000
  1
923
  0
POINT
  5
82E5
  8
DEFPOINTS
 62
     0
 10
1330.4046203925479
 20
2532.680696140425
 30
0.0
  0
POINT
  5
82E6
  8
DEFPOINTS
 62
     0
 10
1095.4046203925479
 20
1609.6729791784089
 30
0.0
  0
POINT
  5
82E7
  8
DEFPOINTS
 62
     0
 10
436.7085803047375
 20
1609.6729791784101
 30
0.0
  0
ENDBLK
  5
81BB
  8
0
  0
ENDSEC
  0
SECTION
  2
ENTITIES
  0
LINE
  5
7CA7
  8
1
 10
1010.4046203925481
 20
2108.6729791784092
 30
0.0
 11
1090.58357184537
 21
2096.0501528734162
 31
0.0
  0
LINE
  5
7CA8
  8
1
 10
1076.5421700704219
 20
2240.6729791784092
 30
0.0
 11
1005.4046203925481
 21
2240.6729791784092
 31
0.0
  0
LINE
  5
7CA9
  8
1
 10
1076.5421700704219
 20
2238.6729791784092
 30
0.0
 11
1005.4046203925481
 21
2238.6729791784092
 31
0.0
  0
LINE
  5
7CAA
  8
1
 10
1065.0582195160739
 20
2248.6729791784092
 30
0.0
 11
1030.4046203925479
 21
2248.6729791784092
 31
0.0
  0
DIMENSION
  5
7CAB
  8
3
  2
*D1
 10
788.59300103407247
 20
2532.680696140425
 30
0.0
 11
738.59300103407213
 21
2391.6768376594168
 31
0.0
 70
     0
 13
993.02685075327099
 23
2250.6729791784092
 33
0.0
 14
1340.4046203925479
 24
2532.680696140425
 34
0.0
 50
270.0
1001
ACAD
1000
DSTYLE
1002
{
1070
   287
1070
     3
1070
    40
1040
20.0
1070
   143
1040
0.039
1070
   172
1070
     1
1070
   271
1070
     0
1070
   279
1070
     0
1070
   288
1070
     1
1002
}
  0
ARC
  5
7CAC
  8
1
 10
1333.4046203925479
 20
2273.6729791784078
 30
0.0
 40
258.54745134352208
 50
97.523820438639603
 51
179.99999999999969
  0
ARC
  5
7CAD
  8
1
 10
1333.404620392547
 20
2273.6729791784078
 30
0.0
 40
269.74745134352202
 50
97.523820438639163
 51
179.99999999999969
  0
DIMENSION
  5
7CAE
  8
3
  2
*D2
 10
1310.4046203925479
 20
2635.9534958240019
 30
0.0
 11
1157.9046203925479
 21
2685.9534958240019
 31
0.0
 70
     0
 13
1005.4046203925481
 23
2265.6729791784092
 33
0.0
 14
1310.4046203925479
 24
2571.0284067068178
 34
0.0
1001
ACAD
1000
DSTYLE
1002
{
1070
   287
1070
     3
1070
    40
1040
20.0
1070
   143
1040
0.039
1070
   172
1070
     1
1070
   271
1070
     0
1070
   279
1070
     0
1070
   288
1070
     1
1002
}
  0
LINE
  5
7CB0
  8
1
 10
1310.3132176242971
 20
1849.8695038833141
 30
0.0
 11
1005.4046203925481
 21
1826.6729791784089
 31
0.0
  0
POLYLINE
  5
7CB1
  8
1
 66
     1
 10
0.0
 20
0.0
 30
0.0
  0
VERTEX
  5
81EA
  8
1
 10
1005.4046203925481
 20
1824.667783025963
 30
0.0
  0
VERTEX
  5
81EB
  8
1
 10
1186.70111553728
 20
1837.744907265911
 30
0.0
 42
0.3908423130543746
  0
SEQEND
  5
81EC
  8
1
  0
LINE
  5
7CB5
  8
1
 10
1030.4046203925479
 20
1818.4502771047059
 30
0.0
 11
1105.4046203925479
 21
1823.8601131702801
 31
0.0
  0
DIMENSION
  5
7CB7
  8
3
  2
*D3
 10
675.88068786873373
 20
1720.6729791784089
 30
0.0
 11
625.8806878687335
 21
1985.6729791784089
 31
0.0
 70
     0
 13
993.02685075327099
 23
2250.6729791784092
 33
0.0
 14
1095.4046203925479
 24
1720.6729791784089
 34
0.0
 50
270.0
1001
ACAD
1000
DSTYLE
1002
{
1070
   287
1070
     3
1070
    40
1040
20.0
1070
   143
1040
0.039
1070
   172
1070
     1
1070
   271
1070
     0
1070
   279
1070
     0
1070
   288
1070
     1
1002
}
  0
LINE
  5
7CB9
  8
2
 10
1671.62051491738
 20
2250.6729791784092
 30
0.0
 11
993.02685075327099
 21
2250.6729791784092
 31
0.0
  0
LINE
  5
7CBA
  8
1
 10
1005.4046203925481
 20
2265.6729791784092
 30
0.0
 11
1005.4046203925481
 21
1799.678161865837
 31
0.0
  0
LINE
  5
7CBB
  8
1
 10
1030.4046203925479
 20
2240.6729791784092
 30
0.0
 11
1030.4046203925479
 21
1823.6781618658381
 31
0.0
  0
LINE
  5
7CBC
  8
1
 10
1008.4046203925481
 20
2265.6729791784092
 30
0.0
 11
1008.4046203925481
 21
1804.232257080758
 31
0.0
  0
DIMENSION
  5
7CBD
  8
3
  2
*D4
 10
881.76326447418433
 20
2238.6729791784092
 30
0.0
 11
831.76326447418398
 21
2032.6729791784089
 31
0.0
 70
     0
 13
1005.4046203925481
 23
1826.6729791784089
 33
0.0
 14
1005.4046203925481
 24
2238.6729791784092
 34
0.0
 50
270.0
1001
ACAD
1000
DSTYLE
1002
{
1070
   287
1070
     3
1070
    40
1040
20.0
1070
   143
1040
0.039
1070
   172
1070
     1
1070
   271
1070
     0
1070
   279
1070
     0
1070
   288
1070
     1
1002
}
  0
DIMENSION
  5
7CBE
  8
3
  2
*D5
 10
788.59300103407247
 20
2250.6729791784092
 30
0.0
 11
738.59300103407224
 21
2038.6729791784089
 31
0.0
 70
     0
 13
1005.4046203925481
 23
1826.6729791784089
 33
0.0
 14
993.02685075327099
 24
2250.6729791784092
 34
0.0
 50
270.0
1001
ACAD
1000
DSTYLE
1002
{
1070
   287
1070
     3
1070
    40
1040
20.0
1070
   143
1040
0.039
1070
   172
1070
     1
1070
   271
1070
     0
1070
   279
1070
     0
1070
   288
1070
     1
1002
}
  0
POLYLINE
  5
7CC0
  8
1
 66
     1
 10
0.0
 20
0.0
 30
0.0
 70
     1
  0
VERTEX
  5
8208
  8
1
 10
1005.4046203925481
 20
1824.678161865837
 30
0.0
  0
VERTEX
  5
8209
  8
1
 10
1005.4046203925481
 20
1799.678161865837
 30
0.0
  0
VERTEX
  5
820A
  8
1
 10
1006.4046203925481
 20
1799.678161865837
 30
0.0
 42
0.4142135623730951
  0
VERTEX
  5
820B
  8
1
 10
1008.4046203925481
 20
1801.678161865837
 30
0.0
  0
VERTEX
  5
820C
  8
1
 10
1008.4046203925481
 20
1817.678161865837
 30
0.0
 42
-0.4142135623730951
  0
VERTEX
  5
820D
  8
1
 10
1012.4046203925481
 20
1821.6781618658381
 30
0.0
  0
VERTEX
  5
820E
  8
1
 10
1028.4046203925479
 20
1821.6781618658381
 30
0.0
 42
0.4142135623730951
  0
VERTEX
  5
820F
  8
1
 10
1030.4046203925479
 20
1823.6781618658381
 30
0.0
  0
VERTEX
  5
8210
  8
1
 10
1030.4046203925479
 20
1824.678161865837
 30
0.0
  0
SEQEND
  5
8211
  8
1
  0
LINE
  5
7CCB
  8
1
 10
1030.4046203925479
 20
1818.4502771047059
 30
0.0
 11
1030.4046203925479
 21
1824.678161865837
 31
0.0
  0
POLYLINE
  5
7CCC
  8
1
 66
     1
 10
0.0
 20
0.0
 30
0.0
 70
     1
  0
VERTEX
  5
8212
  8
1
 10
1005.4046203925481
 20
2240.6729791784092
 30
0.0
  0
VERTEX
  5
8213
  8
1
 10
1005.4046203925481
 20
2265.6729791784092
 30
0.0
  0
VERTEX
  5
8214
  8
1
 10
1006.4046203925481
 20
2265.6729791784092
 30
0.0
 42
-0.4142135623730951
  0
VERTEX
  5
8215
  8
1
 10
1008.4046203925481
 20
2263.6729791784092
 30
0.0
  0
VERTEX
  5
8216
  8
1
 10
1008.4046203925481
 20
2247.6729791784092
 30
0.0
 42
0.4142135623730951
  0
VERTEX
  5
8217
  8
1
 10
1012.4046203925481
 20
2243.6729791784092
 30
0.0
  0
VERTEX
  5
8218
  8
1
 10
1028.4046203925479
 20
2243.6729791784092
 30
0.0
 42
-0.4142135623730951
  0
VERTEX
  5
8219
  8
1
 10
1030.4046203925479
 20
2241.6729791784092
 30
0.0
  0
VERTEX
  5
821A
  8
1
 10
1030.4046203925479
 20
2240.6729791784092
 30
0.0
  0
SEQEND
  5
821B
  8
1
  0
LINE
  5
7CD7
  8
1
 10
1030.4046203925479
 20
2248.6729791784092
 30
0.0
 11
1030.4046203925479
 21
2240.6729791784092
 31
0.0
  0
LINE
  5
7CD8
  8
1
 10
1125.4046203925479
 20
2192.2729791784091
 30
0.0
 11
1125.4046203925479
 21
1795.6729791784089
 31
0.0
  0
LINE
  5
7CD9
  8
2
 10
1310.4046203925479
 20
2571.0284067068178
 30
0.0
 11
1310.4046203925479
 21
1579.744436644
 31
0.0
  0
ARC
  5
7CDA
  8
1
 10
1280.4046203925479
 20
2220.6729791784092
 30
0.0
 40
383.20771696201541
 50
304.12868006961349
 51
0.0000000000001272
  0
ARC
  5
7CDB
  8
1
 10
1870.4046203925479
 20
1965.6729791784089
 30
0.0
 40
97.0
 50
180.0
 51
261.61590000000001
  0
ARC
  5
7CDC
  8
1
 10
1870.4046203925479
 20
1965.6729791784089
 30
0.0
 40
100.8
 50
180.0
 51
254.20289999999989
  0
ARC
  5
7CDD
  8
1
 10
1870.4046203925479
 20
1965.6729791784089
 30
0.0
 40
97.0
 50
278.34679999999992
 51
180.0
  0
ARC
  5
7CDE
  8
1
 10
1870.4046203925479
 20
1965.6729791784089
 30
0.0
 40
100.8
 50
285.4276999999999
 51
180.0
  0
LINE
  5
7CDF
  8
2
 10
1870.4046203925479
 20
2066.8978791784089
 30
0.0
 11
1870.4046203925479
 21
1864.184579178409
 31
0.0
  0
CIRCLE
  5
7CE0
  8
1
 10
1870.4046203925479
 20
1965.6729791784089
 30
0.0
 40
76.200000000000003
  0
ARC
  5
7CE1
  8
1
 10
1870.4046203925479
 20
1965.6729791784089
 30
0.0
 40
150.0
 50
243.02715656635621
 51
63.027156566356233
  0
LINE
  5
7CE2
  8
1
 10
1495.4046203925479
 20
2192.2729791784091
 30
0.0
 11
1495.4046203925479
 21
1795.6729791784089
 31
0.0
  0
ARC
  5
7CE3
  8
1
 10
1280.4046203925479
 20
2220.6729791784092
 30
0.0
 40
372.00771696201542
 50
274.61143090996092
 51
0.000000000000687
  0
LINE
  5
7CE4
  8
1
 10
1834.477194576225
 20
1898.4743179252821
 30
0.0
 11
1280.4650988789449
 21
2194.6740948008028
 31
0.0
  0
LINE
  5
7CE5
  8
1
 10
1802.3693998327251
 20
1831.9897387801591
 30
0.0
 11
1242.3693998327251
 21
2116.9897387801589
 31
0.0
  0
LINE
  5
7CE6
  8
1
 10
2025.4046203925479
 20
1720.6729791784089
 30
0.0
 11
1095.4046203925479
 21
1720.6729791784089
 31
0.0
  0
LINE
  5
7CE7
  8
1
 10
2025.4046203925479
 20
1795.6729791784089
 30
0.0
 11
1095.4046203925479
 21
1795.6729791784089
 31
0.0
  0
LINE
  5
7CE8
  8
1
 10
2025.4046203925479
 20
1720.6729791784089
 30
0.0
 11
1095.4046203925479
 21
1720.6729791784089
 31
0.0
  0
LINE
  5
7CE9
  8
1
 10
2025.4046203925479
 20
1684.6729791784089
 30
0.0
 11
1095.4046203925479
 21
1684.6729791784089
 31
0.0
  0
LINE
  5
7CEA
  8
1
 10
2025.4046203925479
 20
1609.6729791784089
 30
0.0
 11
1095.4046203925479
 21
1609.6729791784089
 31
0.0
  0
DIMENSION
  5
7CEB
  8
3
  2
*D6
 10
1310.4046203925479
 20
1488.9802803625209
 30
0.0
 11
1667.9046203925479
 21
1538.9802803625209
 31
0.0
 70
     0
 13
2025.4046203925479
 23
1609.6729791784089
 33
0.0
 14
1310.4046203925479
 24
1579.744436644
 34
0.0
1001
ACAD
1000
DSTYLE
1002
{
1070
   287
1070
     3
1070
    40
1040
20.0
1070
   143
1040
0.039
1070
   172
1070
     1
1070
   271
1070
     0
1070
   279
1070
     0
1070
   288
1070
     1
1002
}
  0
LINE
  5
7CEC
  8
1
 10
1095.4046203925479
 20
1684.6729791784089
 30
0.0
 11
1095.4046203925479
 21
1609.6729791784089
 31
0.0
  0
DIMENSION
  5
7CED
  8
3
  2
*D7
 10
1095.4046203925479
 20
1488.9802803625209
 30
0.0
 11
1202.9046203925479
 21
1538.9802803625209
 31
0.0
 70
     0
 13
1310.4046203925479
 23
1579.744436644
 33
0.0
 14
1095.4046203925479
 24
1609.6729791784089
 34
0.0
1001
ACAD
1000
DSTYLE
1002
{
1070
   287
1070
     3
1070
    40
1040
20.0
1070
   143
1040
0.039
1070
   172
1070
     1
1070
   271
1070
     0
1070
   279
1070
     0
1070
   288
1070
     1
1002
}
  0
LINE
  5
7CEE
  8
1
 10
1095.4046203925479
 20
1795.6729791784089
 30
0.0
 11
1095.4046203925479
 21
1720.6729791784089
 31
0.0
  0
LINE
  5
7CEF
  8
1
 10
1105.4046203925479
 20
1870.6729791784089
 30
0.0
 11
1105.4046203925479
 21
1795.6729791784089
 31
0.0
  0
LINE
  5
7CF0
  8
1
 10
1125.4046203925479
 20
1800.6729791784089
 30
0.0
 11
1105.4046203925479
 21
1800.6729791784089
 31
0.0
  0
LINE
  5
7CF1
  8
1
 10
1125.4046203925479
 20
1870.6729791784089
 30
0.0
 11
1105.4046203925479
 21
1870.6729791784089
 31
0.0
  0
LINE
  5
7CF2
  8
1
 10
1515.4046203925479
 20
1870.6729791784089
 30
0.0
 11
1515.4046203925479
 21
1795.6729791784089
 31
0.0
  0
LINE
  5
7CF3
  8
1
 10
1515.4046203925479
 20
1800.6729791784089
 30
0.0
 11
1495.4046203925479
 21
1800.6729791784089
 31
0.0
  0
LINE
  5
7CF4
  8
1
 10
1515.4046203925479
 20
1870.6729791784089
 30
0.0
 11
1495.4046203925479
 21
1870.6729791784089
 31
0.0
  0
LINE
  5
7CF5
  8
1
 10
2025.4046203925479
 20
1684.6729791784089
 30
0.0
 11
2025.4046203925479
 21
1609.6729791784089
 31
0.0
  0
LINE
  5
7CF6
  8
1
 10
1885.1132203925481
 20
1869.6729791784089
 30
0.0
 11
1855.6322203925481
 21
1869.6729791784089
 31
0.0
  0
LINE
  5
7CF7
  8
1
 10
1842.7869203925479
 20
1868.6729791784089
 30
0.0
 11
1897.6740203925481
 21
1868.6729791784089
 31
0.0
  0
LINE
  5
7CF8
  8
1
 10
2020.4046203925479
 20
1825.6729791784089
 30
0.0
 11
1720.4046203925479
 21
1825.6729791784089
 31
0.0
  0
LINE
  5
7CF9
  8
1
 10
1992.017132233738
 20
1865.6729791784089
 30
0.0
 11
1748.7921085513581
 21
1865.6729791784089
 31
0.0
  0
LINE
  5
7CFA
  8
1
 10
1770.4046203925479
 20
1865.6729791784089
 30
0.0
 11
1810.4046203925479
 21
1865.6729791784089
 31
0.0
  0
LINE
  5
7CFB
  8
1
 10
1772.4046203925479
 20
1877.6729791784089
 30
0.0
 11
1808.4046203925479
 21
1877.6729791784089
 31
0.0
  0
LINE
  5
7CFC
  8
1
 10
1737.9046203925479
 20
1825.6729791784089
 30
0.0
 11
1748.7921085513581
 21
1865.6729791784089
 31
0.0
  0
LINE
  5
7CFD
  8
1
 10
1720.4046203925479
 20
1825.6729791784089
 30
0.0
 11
1720.4046203925479
 21
1795.6729791784089
 31
0.0
  0
ARC
  5
7CFE
  8
1
 10
1772.4046203925479
 20
1875.6729791784089
 30
0.0
 40
2.0
 50
90.0
 51
180.0
  0
LINE
  5
7CFF
  8
1
 10
1771.4954203925481
 20
1877.712479178409
 30
0.0
 11
1787.6141203925481
 21
1907.846779178409
 31
0.0
  0
LINE
  5
7D00
  8
1
 10
1784.4046203925479
 20
1877.6729791784089
 30
0.0
 11
1784.4046203925479
 21
1865.6729791784089
 31
0.0
  0
LINE
  5
7D01
  8
1
 10
1770.4046203925479
 20
1865.6729791784089
 30
0.0
 11
1770.4046203925479
 21
1875.6729791784089
 31
0.0
  0
LINE
  5
7D02
  8
1
 10
1816.658020392548
 20
1879.926479178409
 30
0.0
 11
1810.4046203925479
 21
1873.6729791784089
 31
0.0
  0
ARC
  5
7D03
  8
1
 10
1808.4046203925479
 20
1875.6729791784089
 30
0.0
 40
2.0
 50
0.0
 51
90.0
  0
LINE
  5
7D04
  8
1
 10
1810.4046203925479
 20
1865.6729791784089
 30
0.0
 11
1810.4046203925479
 21
1875.6729791784089
 31
0.0
  0
LINE
  5
7D05
  8
1
 10
1796.4046203925479
 20
1865.6729791784089
 30
0.0
 11
1796.4046203925479
 21
1877.6729791784089
 31
0.0
  0
LINE
  5
7D06
  8
1
 10
1790.4046203925479
 20
1879.0534791784089
 30
0.0
 11
1790.4046203925479
 21
1861.706379178409
 31
0.0
  0
LINE
  5
7D07
  8
1
 10
2025.4046203925479
 20
1795.6729791784089
 30
0.0
 11
2025.4046203925479
 21
1720.6729791784089
 31
0.0
  0
LINE
  5
7D08
  8
1
 10
1969.5124203925479
 20
1877.341079178409
 30
0.0
 11
1953.111620392548
 21
1908.0030791784091
 31
0.0
  0
LINE
  5
7D09
  8
1
 10
1968.4046203925479
 20
1877.6729791784089
 30
0.0
 11
1932.4046203925479
 21
1877.6729791784089
 31
0.0
  0
LINE
  5
7D0A
  8
1
 10
1970.4046203925479
 20
1865.6729791784089
 30
0.0
 11
1930.4046203925479
 21
1865.6729791784089
 31
0.0
  0
LINE
  5
7D0B
  8
1
 10
1923.8550203925481
 20
1880.222679178409
 30
0.0
 11
1930.4046203925479
 21
1873.6729791784089
 31
0.0
  0
ARC
  5
7D0C
  8
1
 10
1932.4046203925479
 20
1875.6729791784089
 30
0.0
 40
2.0
 50
90.0
 51
180.0
  0
LINE
  5
7D0D
  8
1
 10
1930.4046203925479
 20
1865.6729791784089
 30
0.0
 11
1930.4046203925479
 21
1875.6729791784089
 31
0.0
  0
LINE
  5
7D0E
  8
1
 10
1944.4046203925479
 20
1865.6729791784089
 30
0.0
 11
1944.4046203925479
 21
1877.6729791784089
 31
0.0
  0
LINE
  5
7D0F
  8
1
 10
1950.4046203925479
 20
1879.0534791784089
 30
0.0
 11
1950.4046203925479
 21
1861.706379178409
 31
0.0
  0
LINE
  5
7D10
  8
1
 10
2002.9046203925479
 20
1825.6729791784089
 30
0.0
 11
1992.017132233738
 21
1865.6729791784089
 31
0.0
  0
LINE
  5
7D11
  8
1
 10
2020.4046203925479
 20
1825.6729791784089
 30
0.0
 11
2020.4046203925479
 21
1795.6729791784089
 31
0.0
  0
ARC
  5
7D12
  8
1
 10
1968.4046203925479
 20
1875.6729791784089
 30
0.0
 40
2.0
 50
0.0
 51
90.0
  0
LINE
  5
7D13
  8
1
 10
1970.4046203925479
 20
1865.6729791784089
 30
0.0
 11
1970.4046203925479
 21
1875.6729791784089
 31
0.0
  0
LINE
  5
7D14
  8
1
 10
1956.4046203925479
 20
1877.6729791784089
 30
0.0
 11
1956.4046203925479
 21
1865.6729791784089
 31
0.0
  0
ARC
  5
7D15
  8
1
 10
1340.4046203925479
 20
2220.6729791784101
 30
0.0
 40
312.00771696201508
 50
0.0000000000006361
 51
97.523820438639532
  0
ARC
  5
7D16
  8
1
 10
1340.4046203925479
 20
2220.6729791784101
 30
0.0
 40
323.20771696201558
 50
0.0000000000000254
 51
97.523820438639163
  0
LINE
  5
7D17
  8
1
 10
1903.5868583408289
 20
2034.2687449715229
 30
0.0
 11
1338.0564853494479
 21
2307.8361173393369
 31
0.0
  0
LINE
  5
7D18
  8
1
 10
1938.439840952371
 20
2099.3562195766581
 30
0.0
 11
1378.439840952371
 21
2384.3562195766581
 31
0.0
  0
ARC
  5
7D19
  8
1
 10
1310.4046203925479
 20
2250.6729791784092
 30
0.0
 40
150.0
 50
63.027156566356233
 51
243.02715656635621
  0
DIMENSION
  5
7D1A
  8
3
  2
*D8
 10
1652.4123373545631
 20
2635.9534958240019
 30
0.0
 11
1481.4084788735549
 21
2685.9534958240019
 31
0.0
 70
     0
 13
1310.4046203925479
 23
2571.0284067068178
 33
0.0
 14
1652.4123373545631
 24
2220.6729791784092
 34
0.0
1001
ACAD
1000
DSTYLE
1002
{
1070
   287
1070
     3
1070
    40
1040
20.0
1070
   143
1040
0.039
1070
   172
1070
     1
1070
   271
1070
     0
1070
   279
1070
     0
1070
   288
1070
     1
1002
}
  0
LINE
  5
7D1B
  8
1
 10
1535.4046203925479
 20
2192.2729791784091
 30
0.0
 11
1085.4046203925479
 21
2192.2729791784091
 31
0.0
  0
LINE
  5
7D1C
  8
1
 10
1500.4046203925479
 20
2195.4729791784098
 30
0.0
 11
1120.4046203925479
 21
2195.4729791784098
 31
0.0
  0
LINE
  5
7D1D
  8
1
 10
1085.4046203925479
 20
2192.2729791784091
 30
0.0
 11
1085.4046203925479
 21
2152.2729791784091
 31
0.0
  0
ARC
  5
7D1E
  8
1
 10
1287.4046203925479
 20
2273.6729791784128
 30
0.0
 40
212.5474513435226
 50
180.00000000000091
 51
214.11961763194941
  0
ARC
  5
7D1F
  8
1
 10
1095.4046203925479
 20
2126.6729791784101
 30
0.0
 40
31.0
 50
261.05317790537509
 51
60.965851948496237
  0
LINE
  5
7D20
  8
1
 10
1125.4046203925479
 20
2152.2729791784091
 30
0.0
 11
1074.4093935903429
 21
2152.2729791784091
 31
0.0
  0
LINE
  5
7D21
  8
1
 10
1125.4046203925479
 20
2146.2729791784091
 30
0.0
 11
1076.2320567191939
 21
2146.2729791784091
 31
0.0
  0
LINE
  5
7D22
  8
1
 10
1120.4046203925479
 20
2195.4729791784098
 30
0.0
 11
1120.4046203925479
 21
2192.2729791784091
 31
0.0
  0
ARC
  5
7D23
  8
1
 10
1287.4046203925479
 20
2273.6729791784242
 30
0.0
 40
223.74745134352219
 50
180.00000000000389
 51
186.41523178444569
  0
CIRCLE
  5
7D24
  8
1
 10
1310.4046203925479
 20
2250.6729791784092
 30
0.0
 40
63.5
  0
LINE
  5
7D25
  8
1
 10
1535.4046203925479
 20
2192.2729791784091
 30
0.0
 11
1535.4046203925479
 21
2152.2729791784091
 31
0.0
  0
LINE
  5
7D26
  8
1
 10
1634.3431655066549
 20
2146.2729791784091
 30
0.0
 11
1495.4046203925479
 21
2146.2729791784091
 31
0.0
  0
LINE
  5
7D27
  8
1
 10
1637.0132317034779
 20
2152.27297917841
 30
0.0
 11
1495.4046203925479
 21
2152.2729791784091
 31
0.0
  0
LINE
  5
7D28
  8
1
 10
1500.4046203925479
 20
2195.4729791784098
 30
0.0
 11
1500.4046203925479
 21
2192.2729791784091
 31
0.0
  0
LINE
  5
7D29
  8
2
 10
1971.0200203925481
 20
1965.6729791784089
 30
0.0
 11
1762.359120392548
 21
1965.6729791784089
 31
0.0
  0
DIMENSION
  5
7D2A
  8
3
  2
*D9
 10
809.26214525052092
 20
4281.85804484654
 30
0.0
 11
759.26214525052023
 21
3851.85804484654
 31
0.0
 70
     0
 13
1095.4046203925479
 23
3421.85804484654
 33
0.0
 14
1095.4046203925479
 24
4281.85804484654
 34
0.0
 50
270.0
1001
ACAD
1000
DSTYLE
1002
{
1070
   287
1070
     3
1070
    40
1040
20.0
1070
   143
1040
0.039
1070
   172
1070
     1
1070
   271
1070
     0
1070
   279
1070
     0
1070
   288
1070
     1
1002
}
  0
LINE
  5
7D2B
  8
2
 10
1687.578723855253
 20
4086.8580448465409
 30
0.0
 11
902.30014653367471
 21
4086.8580448465409
 31
0.0
  0
LINE
  5
7D2C
  8
1
 10
1663.6123373545629
 20
4236.85804484654
 30
0.0
 11
1008.4046203925481
 21
4236.85804484654
 31
0.0
  0
LINE
  5
7D2D
  8
1
 10
1663.6123373545629
 20
3936.8580448465409
 30
0.0
 11
1008.4046203925481
 21
3936.8580448465409
 31
0.0
  0
LINE
  5
7D2E
  8
1
 10
1005.4046203925481
 20
3909.85804484654
 30
0.0
 11
1005.4046203925481
 21
4263.8580448465391
 31
0.0
  0
LINE
  5
7D2F
  8
1
 10
1008.4046203925481
 20
3909.85804484654
 30
0.0
 11
1008.4046203925481
 21
4263.8580448465391
 31
0.0
  0
LINE
  5
7D30
  8
1
 10
1008.4046203925481
 20
3909.85804484654
 30
0.0
 11
1005.4046203925481
 21
3909.85804484654
 31
0.0
  0
LINE
  5
7D31
  8
1
 10
1008.4046203925481
 20
4263.8580448465391
 30
0.0
 11
1005.4046203925481
 21
4263.8580448465391
 31
0.0
  0
LINE
  5
7D32
  8
2
 10
1310.4046203925479
 20
4336.8433400022468
 30
0.0
 11
1310.4046203925479
 21
3336.9099505211489
 31
0.0
  0
LINE
  5
7D33
  8
1
 10
1095.4046203925479
 20
3936.8580448465409
 30
0.0
 11
1095.4046203925479
 21
3421.85804484654
 31
0.0
  0
LINE
  5
7D34
  8
1
 10
1120.4046203925479
 20
3871.8580448465409
 30
0.0
 11
1120.4046203925479
 21
3446.8580448465391
 31
0.0
  0
LINE
  5
7D35
  8
1
 10
1330.4046203925479
 20
3936.8580448465409
 30
0.0
 11
1330.4046203925479
 21
3851.4580448465399
 31
0.0
  0
LINE
  5
7D36
  8
1
 10
1290.4046203925479
 20
3936.8580448465409
 30
0.0
 11
1290.4046203925479
 21
3851.4580448465399
 31
0.0
  0
DIMENSION
  5
7D37
  8
3
  2
*D10
 10
2025.4046203925479
 20
4396.6084862552252
 30
0.0
 11
1775.4046203925479
 21
4446.6084862552243
 31
0.0
 70
     0
 13
1525.4046203925479
 23
4281.85804484654
 33
0.0
 14
2025.4046203925479
 24
3841.85804484654
 34
0.0
1001
ACAD
1000
DSTYLE
1002
{
1070
   287
1070
     3
1070
    40
1040
20.0
1070
   143
1040
0.039
1070
   172
1070
     1
1070
   271
1070
     0
1070
   279
1070
     0
1070
   288
1070
     1
1002
}
  0
LINE
  5
7D38
  8
1
 10
1525.4046203925479
 20
3936.85804484654
 30
0.0
 11
1525.4046203925479
 21
3461.85804484654
 31
0.0
  0
LINE
  5
7D39
  8
1
 10
1500.4046203925479
 20
3871.85804484654
 30
0.0
 11
1500.4046203925479
 21
3446.85804484654
 31
0.0
  0
LINE
  5
7D3A
  8
1
 10
2020.4046203925479
 20
3448.8580448465409
 30
0.0
 11
1160.4046203925479
 21
3448.85804484654
 31
0.0
  0
LINE
  5
7D3B
  8
1
 10
2020.4046203925479
 20
3326.8580448465418
 30
0.0
 11
1160.4046203925479
 21
3326.85804484654
 31
0.0
  0
LINE
  5
7D3C
  8
1
 10
1770.4046203925479
 20
3461.8580448465391
 30
0.0
 11
1500.4046203925479
 21
3461.85804484654
 31
0.0
  0
LINE
  5
7D3D
  8
1
 10
2025.4046203925479
 20
3801.8580448465391
 30
0.0
 11
1525.4046203925479
 21
3801.85804484654
 31
0.0
  0
LINE
  5
7D3E
  8
1
 10
2025.4046203925479
 20
3841.85804484654
 30
0.0
 11
1525.4046203925479
 21
3841.85804484654
 31
0.0
  0
LINE
  5
7D3F
  8
1
 10
2025.4046203925479
 20
3421.8580448465391
 30
0.0
 11
1330.4046203925479
 21
3421.85804484654
 31
0.0
  0
LINE
  5
7D40
  8
1
 10
1794.2046203925479
 20
3356.8580448465409
 30
0.0
 11
1373.9046203925479
 21
3356.85804484654
 31
0.0
  0
LINE
  5
7D41
  8
1
 10
1373.9046203925479
 20
3406.85804484654
 30
0.0
 11
1794.2046203925479
 21
3406.8580448465409
 31
0.0
  0
DIMENSION
  5
7D42
  8
3
  2
*D11
 10
1095.4046203925479
 20
3203.6828906223109
 30
0.0
 11
1560.4046203925479
 21
3253.6828906223109
 31
0.0
 70
     0
 13
2025.4046203925479
 23
3421.8580448465391
 33
0.0
 14
1095.4046203925479
 24
3421.85804484654
 34
0.0
1001
ACAD
1000
DSTYLE
1002
{
1070
   287
1070
     3
1070
    40
1040
20.0
1070
   143
1040
0.039
1070
   172
1070
     1
1070
   271
1070
     0
1070
   279
1070
     0
1070
   288
1070
     1
1002
}
  0
LINE
  5
7D43
  8
1
 10
1160.4046203925479
 20
3326.85804484654
 30
0.0
 11
1160.4046203925479
 21
3448.85804484654
 31
0.0
  0
LINE
  5
7D44
  8
1
 10
1373.9046203925479
 20
3406.85804484654
 30
0.0
 11
1373.9046203925479
 21
3356.85804484654
 31
0.0
  0
LINE
  5
7D45
  8
1
 10
1246.9046203925479
 20
3406.85804484654
 30
0.0
 11
1246.9046203925479
 21
3356.85804484654
 31
0.0
  0
LINE
  5
7D46
  8
1
 10
1373.9046203925479
 20
3356.85804484654
 30
0.0
 11
1246.9046203925479
 21
3356.8580448465391
 31
0.0
  0
LINE
  5
7D47
  8
1
 10
1410.4046203925479
 20
3859.35804484654
 30
0.0
 11
1330.4046203925479
 21
3859.35804484654
 31
0.0
  0
LINE
  5
7D48
  8
1
 10
1410.4046203925479
 20
3794.35804484654
 30
0.0
 11
1330.4046203925479
 21
3794.35804484654
 31
0.0
  0
LINE
  5
7D49
  8
2
 10
1418.3118514622711
 20
3826.85804484654
 30
0.0
 11
1202.497389322825
 21
3826.85804484654
 31
0.0
  0
LINE
  5
7D4A
  8
1
 10
1402.4046203925479
 20
3851.4580448465399
 30
0.0
 11
1218.4046203925479
 21
3851.4580448465399
 31
0.0
  0
LINE
  5
7D4B
  8
1
 10
1402.4046203925479
 20
3802.2580448465401
 30
0.0
 11
1218.4046203925479
 21
3802.2580448465401
 31
0.0
  0
LINE
  5
7D4C
  8
1
 10
1410.4046203925491
 20
3524.3580448465409
 30
0.0
 11
1330.4046203925479
 21
3524.3580448465409
 31
0.0
  0
LINE
  5
7D4D
  8
1
 10
1410.4046203925491
 20
3459.35804484654
 30
0.0
 11
1330.4046203925479
 21
3459.35804484654
 31
0.0
  0
LINE
  5
7D4E
  8
2
 10
1418.311851462272
 20
3491.85804484654
 30
0.0
 11
1202.4973893228259
 21
3491.85804484654
 31
0.0
  0
LINE
  5
7D4F
  8
1
 10
1402.4046203925491
 20
3516.4580448465399
 30
0.0
 11
1218.4046203925491
 21
3516.4580448465399
 31
0.0
  0
LINE
  5
7D50
  8
1
 10
1402.4046203925491
 20
3467.2580448465401
 30
0.0
 11
1218.4046203925491
 21
3467.2580448465401
 31
0.0
  0
LINE
  5
7D51
  8
1
 10
1500.4046203925479
 20
3446.85804484654
 30
0.0
 11
1330.4046203925479
 21
3446.85804484654
 31
0.0
  0
LINE
  5
7D52
  8
1
 10
1290.4046203925479
 20
3802.2580448465401
 30
0.0
 11
1290.4046203925479
 21
3516.4580448465399
 31
0.0
  0
LINE
  5
7D53
  8
1
 10
1330.4046203925479
 20
3802.2580448465401
 30
0.0
 11
1330.4046203925479
 21
3516.4580448465399
 31
0.0
  0
LINE
  5
7D54
  8
1
 10
1290.4046203925479
 20
3524.3580448465409
 30
0.0
 11
1210.4046203925479
 21
3524.3580448465409
 31
0.0
  0
LINE
  5
7D55
  8
1
 10
1290.4046203925479
 20
3459.35804484654
 30
0.0
 11
1210.4046203925479
 21
3459.35804484654
 31
0.0
  0
LINE
  5
7D56
  8
1
 10
1290.4046203925479
 20
3446.85804484654
 30
0.0
 11
1120.4046203925479
 21
3446.85804484654
 31
0.0
  0
LINE
  5
7D57
  8
1
 10
1290.4046203925479
 20
3421.85804484654
 30
0.0
 11
1095.4046203925479
 21
3421.85804484654
 31
0.0
  0
LINE
  5
7D58
  8
1
 10
1210.4046203925491
 20
3524.3580448465409
 30
0.0
 11
1210.4046203925479
 21
3459.35804484654
 31
0.0
  0
LINE
  5
7D59
  8
1
 10
1120.4046203925479
 20
3461.8580448465409
 30
0.0
 11
1095.4046203925479
 21
3461.85804484654
 31
0.0
  0
LINE
  5
7D5A
  8
1
 10
1218.4046203925491
 20
3516.4580448465399
 30
0.0
 11
1218.4046203925479
 21
3467.2580448465401
 31
0.0
  0
LINE
  5
7D5B
  8
1
 10
1373.9046203925479
 20
3406.85804484654
 30
0.0
 11
1246.9046203925479
 21
3406.85804484654
 31
0.0
  0
LINE
  5
7D5C
  8
1
 10
1290.4046203925479
 20
3467.2580448465401
 30
0.0
 11
1290.4046203925479
 21
3406.85804484654
 31
0.0
  0
LINE
  5
7D5D
  8
1
 10
1330.4046203925479
 20
3467.2580448465401
 30
0.0
 11
1330.4046203925479
 21
3406.85804484654
 31
0.0
  0
LINE
  5
7D5E
  8
1
 10
1290.4046203925479
 20
3859.35804484654
 30
0.0
 11
1210.4046203925479
 21
3859.35804484654
 31
0.0
  0
LINE
  5
7D5F
  8
1
 10
1290.4046203925479
 20
3794.35804484654
 30
0.0
 11
1210.4046203925479
 21
3794.35804484654
 31
0.0
  0
LINE
  5
7D60
  8
1
 10
1210.4046203925479
 20
3859.35804484654
 30
0.0
 11
1210.4046203925479
 21
3794.35804484654
 31
0.0
  0
LINE
  5
7D61
  8
1
 10
1218.4046203925479
 20
3851.4580448465399
 30
0.0
 11
1218.4046203925479
 21
3802.2580448465401
 31
0.0
  0
LINE
  5
7D62
  8
1
 10
1410.4046203925491
 20
3524.3580448465409
 30
0.0
 11
1410.4046203925491
 21
3459.35804484654
 31
0.0
  0
LINE
  5
7D63
  8
1
 10
1402.4046203925491
 20
3516.4580448465399
 30
0.0
 11
1402.4046203925491
 21
3467.2580448465401
 31
0.0
  0
LINE
  5
7D64
  8
1
 10
1410.4046203925479
 20
3859.35804484654
 30
0.0
 11
1410.4046203925479
 21
3794.35804484654
 31
0.0
  0
LINE
  5
7D65
  8
1
 10
1402.4046203925479
 20
3851.4580448465399
 30
0.0
 11
1402.4046203925479
 21
3802.2580448465401
 31
0.0
  0
LINE
  5
7D66
  8
1
 10
2020.4046203925479
 20
3326.8580448465418
 30
0.0
 11
2020.4046203925479
 21
3448.8580448465409
 31
0.0
  0
LINE
  5
7D67
  8
2
 10
1870.4046203925479
 20
3728.1887448465409
 30
0.0
 11
1870.4046203925479
 21
3351.5400448465398
 31
0.0
  0
LINE
  5
7D68
  8
1
 10
1946.604620392548
 20
3406.85804484654
 30
0.0
 11
1946.604620392548
 21
3356.85804484654
 31
0.0
  0
LINE
  5
7D69
  8
1
 10
1794.2046203925479
 20
3406.85804484654
 30
0.0
 11
1794.2046203925479
 21
3356.8580448465409
 31
0.0
  0
LINE
  5
7D6A
  8
1
 10
1946.604620392548
 20
3356.85804484654
 30
0.0
 11
1794.2046203925479
 21
3356.8580448465409
 31
0.0
  0
DIMENSION
  5
7D6B
  8
3
  2
*D12
 10
2100.7485585529148
 20
3841.85804484654
 30
0.0
 11
2050.7485585529148
 21
3631.85804484654
 31
0.0
 70
     0
 13
2025.4046203925479
 23
3421.8580448465391
 33
0.0
 14
2025.4046203925479
 24
3841.85804484654
 34
0.0
 50
270.0
1001
ACAD
1000
DSTYLE
1002
{
1070
   287
1070
     3
1070
    40
1040
20.0
1070
   143
1040
0.039
1070
   172
1070
     1
1070
   271
1070
     0
1070
   279
1070
     0
1070
   288
1070
     1
1002
}
  0
LINE
  5
7D6C
  8
1
 10
1770.4046203925479
 20
3549.85804484654
 30
0.0
 11
1770.4046203925479
 21
3722.8580448465409
 31
0.0
  0
LINE
  5
7D6D
  8
1
 10
1970.4046203925479
 20
3427.85804484654
 30
0.0
 11
1970.4046203925479
 21
3722.8580448465409
 31
0.0
  0
LINE
  5
7D6E
  8
1
 10
1855.804620392548
 20
3416.85804484654
 30
0.0
 11
1885.0045203925481
 21
3416.85804484654
 31
0.0
  0
LINE
  5
7D6F
  8
1
 10
1770.4046203925479
 20
3427.85804484654
 30
0.0
 11
1970.4046203925479
 21
3427.85804484654
 31
0.0
  0
LINE
  5
7D70
  8
1
 10
1946.6046203925489
 20
3406.85804484654
 30
0.0
 11
1794.2046203925479
 21
3406.8580448465409
 31
0.0
  0
LINE
  5
7D71
  8
1
 10
1907.4046203925479
 20
3421.85804484654
 30
0.0
 11
1833.4046203925479
 21
3421.85804484654
 31
0.0
  0
LINE
  5
7D72
  8
1
 10
1770.4046203925479
 20
3549.85804484654
 30
0.0
 11
1770.4046203925479
 21
3427.85804484654
 31
0.0
  0
ARC
  5
7D73
  8
1
 10
1833.404520392548
 20
3424.85804484654
 30
0.0
 40
2.9998999999999989
 50
179.9987999999999
 51
270.00119999999998
  0
LINE
  5
7D74
  8
1
 10
1830.4046203925479
 20
3427.85804484654
 30
0.0
 11
1830.4046203925479
 21
3424.85804484654
 31
0.0
  0
LINE
  5
7D75
  8
1
 10
1856.4046203925479
 20
3416.85804484654
 30
0.0
 11
1856.4046203925479
 21
3406.85804484654
 31
0.0
  0
LINE
  5
7D76
  8
1
 10
1855.804620392548
 20
3421.85804484654
 30
0.0
 11
1855.804620392548
 21
3416.85804484654
 31
0.0
  0
LINE
  5
7D77
  8
1
 10
1884.4046203925479
 20
3416.85804484654
 30
0.0
 11
1884.4046203925479
 21
3406.85804484654
 31
0.0
  0
LINE
  5
7D78
  8
1
 10
1885.0045203925481
 20
3421.85804484654
 30
0.0
 11
1885.0045203925481
 21
3416.85804484654
 31
0.0
  0
ARC
  5
7D79
  8
1
 10
1907.4046203925479
 20
3424.85804484654
 30
0.0
 40
2.9998999999999989
 50
269.9987999999999
 51
0.0011999999999613
  0
LINE
  5
7D7A
  8
1
 10
1910.4046203925479
 20
3427.85804484654
 30
0.0
 11
1910.4046203925479
 21
3424.85804484654
 31
0.0
  0
LINE
  5
7D7B
  8
1
 10
2025.4046203925479
 20
3461.85804484654
 30
0.0
 11
2025.4046203925479
 21
3421.85804484654
 31
0.0
  0
POINT
  5
7D7C
  8
1
 10
2025.4046203925479
 20
3421.8580448465391
 30
0.0
  0
POINT
  5
7D7D
  8
1
 10
2025.4046203925479
 20
3421.8580448465391
 30
0.0
  0
LINE
  5
7D7E
  8
1
 10
2025.4046203925479
 20
3461.8580448465391
 30
0.0
 11
1970.4046203925479
 21
3461.8580448465391
 31
0.0
  0
LINE
  5
7D7F
  8
1
 10
1970.4046203925479
 20
3722.8580448465409
 30
0.0
 11
1770.4046203925479
 21
3722.8580448465409
 31
0.0
  0
LINE
  5
7D80
  8
1
 10
1812.4046203925479
 20
3801.8580448465391
 30
0.0
 11
1812.4046203925479
 21
3722.8580448465409
 31
0.0
  0
LINE
  5
7D81
  8
1
 10
1772.4046203925479
 20
3801.8580448465391
 30
0.0
 11
1772.4046203925479
 21
3722.8580448465409
 31
0.0
  0
LINE
  5
7D82
  8
1
 10
1968.4046203925479
 20
3801.8580448465391
 30
0.0
 11
1968.4046203925479
 21
3722.8580448465409
 31
0.0
  0
LINE
  5
7D83
  8
1
 10
1928.4046203925479
 20
3801.8580448465391
 30
0.0
 11
1928.4046203925479
 21
3722.8580448465409
 31
0.0
  0
LINE
  5
7D84
  8
1
 10
2025.4046203925479
 20
3841.85804484654
 30
0.0
 11
2025.4046203925479
 21
3801.8580448465391
 31
0.0
  0
DIMENSION
  5
7D85
  8
3
  2
*D13
 10
1525.4046203925479
 20
4396.6084862552252
 30
0.0
 11
1310.4046203925479
 21
4446.6084862552243
 31
0.0
 70
     0
 13
1095.4046203925479
 23
4281.85804484654
 33
0.0
 14
1525.4046203925479
 24
4281.85804484654
 34
0.0
1001
ACAD
1000
DSTYLE
1002
{
1070
   287
1070
     3
1070
    40
1040
20.0
1070
   143
1040
0.039
1070
   172
1070
     1
1070
   271
1070
     0
1070
   279
1070
     0
1070
   288
1070
     1
1002
}
  0
LINE
  5
7D86
  8
1
 10
1485.4046203925479
 20
4239.85804484654
 30
0.0
 11
1135.4046203925479
 21
4239.85804484654
 31
0.0
  0
LINE
  5
7D87
  8
1
 10
1485.4046203925479
 20
4279.85804484654
 30
0.0
 11
1135.4046203925479
 21
4279.85804484654
 31
0.0
  0
LINE
  5
7D88
  8
1
 10
1500.4046203925479
 20
3871.85804484654
 30
0.0
 11
1120.4046203925479
 21
3871.8580448465409
 31
0.0
  0
LINE
  5
7D89
  8
1
 10
1135.4046203925479
 20
3936.8580448465409
 30
0.0
 11
1135.4046203925479
 21
3886.2301480799438
 31
0.0
  0
LINE
  5
7D8A
  8
1
 10
1135.4046203925479
 20
3894.85804484654
 30
0.0
 11
1135.4046203925479
 21
3871.85804484654
 31
0.0
  0
LINE
  5
7D8B
  8
1
 10
1135.4046203925479
 20
4281.85804484654
 30
0.0
 11
1135.4046203925479
 21
4236.85804484654
 31
0.0
  0
LINE
  5
7D8C
  8
1
 10
1095.4046203925479
 20
4281.85804484654
 30
0.0
 11
1095.4046203925479
 21
4236.85804484654
 31
0.0
  0
LINE
  5
7D8D
  8
1
 10
1135.4046203925479
 20
4281.85804484654
 30
0.0
 11
1095.4046203925479
 21
4281.85804484654
 31
0.0
  0
POINT
  5
7D8E
  8
1
 10
1095.4046203925479
 20
4281.85804484654
 30
0.0
  0
POINT
  5
7D8F
  8
1
 10
1095.4046203925479
 20
4281.85804484654
 30
0.0
  0
LINE
  5
7D90
  8
1
 10
1663.6123373545629
 20
3936.8580448465409
 30
0.0
 11
1663.6123373545629
 21
4236.85804484654
 31
0.0
  0
LINE
  5
7D91
  8
1
 10
1485.4046203925479
 20
3936.8580448465409
 30
0.0
 11
1485.4046203925479
 21
3879.1354073919861
 31
0.0
  0
LINE
  5
7D92
  8
1
 10
1485.4046203925479
 20
3894.85804484654
 30
0.0
 11
1485.4046203925479
 21
3871.85804484654
 31
0.0
  0
LINE
  5
7D93
  8
1
 10
1485.4046203925479
 20
4281.85804484654
 30
0.0
 11
1485.4046203925479
 21
4236.85804484654
 31
0.0
  0
LINE
  5
7D94
  8
1
 10
1525.4046203925479
 20
4281.85804484654
 30
0.0
 11
1525.4046203925479
 21
4236.85804484654
 31
0.0
  0
LINE
  5
7D95
  8
1
 10
1525.4046203925479
 20
4281.85804484654
 30
0.0
 11
1485.4046203925479
 21
4281.85804484654
 31
0.0
  0
POINT
  5
7D96
  8
1
 10
1525.4046203925479
 20
4281.85804484654
 30
0.0
  0
LINE
  5
7D97
  8
1
 10
3376.8668647276322
 20
1824.678161865837
 30
0.0
 11
3072.8668647276322
 21
2240.6781618658379
 31
0.0
  0
LINE
  5
7D98
  8
1
 10
3376.8668647276322
 20
2240.6781618658379
 30
0.0
 11
3072.8668647276322
 21
1824.678161865837
 31
0.0
  0
LINE
  5
7D99
  8
1
 10
3072.8668647276322
 20
2240.6781618658379
 30
0.0
 11
3072.8668647276322
 21
1824.678161865837
 31
0.0
  0
LINE
  5
7D9A
  8
1
 10
3376.8668647276322
 20
2240.6781618658379
 30
0.0
 11
3376.8668647276322
 21
1824.678161865837
 31
0.0
  0
LINE
  5
7D9B
  8
1
 10
3047.8668647276322
 20
2265.678161865837
 30
0.0
 11
3047.8668647276322
 21
1799.678161865837
 31
0.0
  0
LINE
  5
7D9C
  8
1
 10
3401.8668647276322
 20
2265.678161865837
 30
0.0
 11
3401.8668647276322
 21
1799.678161865837
 31
0.0
  0
LINE
  5
7D9D
  8
1
 10
2544.8668647276299
 20
2314.1729791784101
 30
0.0
 11
2544.8668647276299
 21
1889.4729791784091
 31
0.0
  0
LINE
  5
7D9E
  8
1
 10
2494.866864727629
 20
2314.1729791784101
 30
0.0
 11
2494.866864727629
 21
1889.4729791784091
 31
0.0
  0
LINE
  5
7D9F
  8
1
 10
2999.8668647276299
 20
2192.2729791784091
 30
0.0
 11
2999.8668647276299
 21
1795.6729791784089
 31
0.0
  0
LINE
  5
7DA0
  8
1
 10
2598.0668647276311
 20
2192.2729791784091
 30
0.0
 11
2598.0668647276311
 21
1795.6729791784089
 31
0.0
  0
LINE
  5
7DA1
  8
2
 10
3224.8668647276322
 20
2744.6148580841532
 30
0.0
 11
3224.8668647276322
 21
2728.7928710726928
 31
0.0
  0
LINE
  5
7DA2
  8
1
 10
2594.8668647276299
 20
2192.2729791784091
 30
0.0
 11
2594.8668647276299
 21
1795.6729791784089
 31
0.0
  0
DIMENSION
  5
7DA3
  8
3
  2
*D14
 10
3224.8668647276322
 20
1487.490802090932
 30
0.0
 11
2892.3668647276309
 21
1537.490802090932
 31
0.0
 70
     0
 13
2559.866864727629
 23
1609.6729791784089
 33
0.0
 14
3224.8668647276322
 24
1579.744436644
 34
0.0
1001
ACAD
1000
DSTYLE
1002
{
1070
   287
1070
     3
1070
    40
1040
20.0
1070
   143
1040
0.039
1070
   172
1070
     1
1070
   271
1070
     0
1070
   279
1070
     0
1070
   288
1070
     1
1002
}
  0
LINE
  5
7DA4
  8
1
 10
2559.866864727629
 20
1684.6729791784089
 30
0.0
 11
3419.8668647276322
 21
1684.6729791784089
 31
0.0
  0
LINE
  5
7DA5
  8
1
 10
2559.866864727629
 20
1609.6729791784089
 30
0.0
 11
3419.8668647276322
 21
1609.6729791784089
 31
0.0
  0
LINE
  5
7DA6
  8
1
 10
2559.866864727629
 20
1720.6729791784089
 30
0.0
 11
3419.8668647276322
 21
1720.6729791784089
 31
0.0
  0
LINE
  5
7DA7
  8
1
 10
2599.8668647276299
 20
1720.6729791784089
 30
0.0
 11
3419.8668647276322
 21
1720.6729791784089
 31
0.0
  0
LINE
  5
7DA8
  8
1
 10
2559.866864727629
 20
1795.6729791784089
 30
0.0
 11
3419.8668647276322
 21
1795.6729791784089
 31
0.0
  0
LINE
  5
7DA9
  8
1
 10
2559.866864727629
 20
1684.6729791784089
 30
0.0
 11
2559.866864727629
 21
1609.6729791784089
 31
0.0
  0
LINE
  5
7DAA
  8
1
 10
2494.866864727629
 20
1889.4729791784091
 30
0.0
 11
2544.8668647276299
 21
1889.4729791784091
 31
0.0
  0
LINE
  5
7DAB
  8
1
 10
2559.866864727629
 20
1795.6729791784089
 30
0.0
 11
2559.866864727629
 21
1720.6729791784089
 31
0.0
  0
DIMENSION
  5
7DAC
  8
3
  2
*D15
 10
3419.8668647276322
 20
1487.490802090932
 30
0.0
 11
3322.3668647276322
 21
1537.490802090932
 31
0.0
 70
     0
 13
3224.8668647276322
 23
1579.744436644
 33
0.0
 14
3419.8668647276322
 24
1609.6729791784089
 34
0.0
1001
ACAD
1000
DSTYLE
1002
{
1070
   287
1070
     3
1070
    40
1040
20.0
1070
   143
1040
0.039
1070
   172
1070
     1
1070
   271
1070
     0
1070
   279
1070
     0
1070
   288
1070
     1
1002
}
  0
LINE
  5
7DAD
  8
1
 10
3072.8668647276322
 20
1824.678161865837
 30
0.0
 11
3376.8668647276322
 21
1824.678161865837
 31
0.0
  0
LINE
  5
7DAE
  8
1
 10
3047.8668647276322
 20
1799.678161865837
 30
0.0
 11
3401.8668647276322
 21
1799.678161865837
 31
0.0
  0
LINE
  5
7DAF
  8
1
 10
3419.8668647276322
 20
1684.6729791784089
 30
0.0
 11
3419.8668647276322
 21
1609.6729791784089
 31
0.0
  0
LINE
  5
7DB0
  8
1
 10
3419.8668647276322
 20
1795.6729791784089
 30
0.0
 11
3419.8668647276322
 21
1720.6729791784089
 31
0.0
  0
DIMENSION
  5
7DB1
  8
3
  2
*D16
 10
3224.8668647276322
 20
2769.6483673304178
 30
0.0
 11
2844.8668647276309
 21
2819.6483673304169
 31
0.0
 70
     0
 13
2464.8668647276299
 23
2400.6729791784092
 33
0.0
 14
3224.8668647276322
 24
2744.6148580841532
 34
0.0
1001
ACAD
1000
DSTYLE
1002
{
1070
   287
1070
     3
1070
    40
1040
20.0
1070
   143
1040
0.039
1070
   172
1070
     1
1070
   271
1070
     0
1070
   279
1070
     0
1070
   288
1070
     1
1002
}
  0
LINE
  5
7DB2
  8
1
 10
2989.3972695811931
 20
2230.6729791784092
 30
0.0
 11
3047.8668647276322
 21
2230.6729791784092
 31
0.0
  0
LINE
  5
7DB3
  8
1
 10
2986.26686472763
 20
2270.6729791784092
 30
0.0
 11
3047.8668647276299
 21
2270.6729791784092
 31
0.0
  0
LINE
  5
7DB4
  8
2
 10
2477.856088124006
 20
2250.6729791784092
 30
0.0
 11
3475.8926333613631
 21
2250.6729791784092
 31
0.0
  0
POLYLINE
  5
7DB5
  8
1
 66
     1
 10
0.0
 20
0.0
 30
0.0
 70
     1
  0
VERTEX
  5
827F
  8
1
 10
2999.8668647276299
 20
2152.2729791784081
 30
0.0
  0
VERTEX
  5
8280
  8
1
 10
3039.866864727629
 20
2152.2729791784081
 30
0.0
  0
VERTEX
  5
8281
  8
1
 10
3039.866864727629
 20
2154.2729791784091
 30
0.0
 42
0.4142135623730951
  0
VERTEX
  5
8282
  8
1
 10
3036.8668647276299
 20
2157.2729791784091
 30
0.0
  0
VERTEX
  5
8283
  8
1
 10
3009.366864727629
 20
2157.2729791784091
 30
0.0
 42
-0.4142135623730951
  0
VERTEX
  5
8284
  8
1
 10
3004.8668647276299
 20
2161.7729791784091
 30
0.0
  0
VERTEX
  5
8285
  8
1
 10
3004.8668647276299
 20
2189.2729791784091
 30
0.0
 42
0.4142135623730951
  0
VERTEX
  5
8286
  8
1
 10
3001.8668647276299
 20
2192.2729791784091
 30
0.0
  0
VERTEX
  5
8287
  8
1
 10
2999.8668647276299
 20
2192.2729791784091
 30
0.0
  0
SEQEND
  5
8288
  8
1
  0
LINE
  5
7DC0
  8
1
 10
2664.76686472763
 20
2230.6729791784092
 30
0.0
 11
2929.9668647276299
 21
2230.6729791784092
 31
0.0
  0
LINE
  5
7DC1
  8
1
 10
2664.76686472763
 20
2270.6729791784092
 30
0.0
 11
2929.9668647276299
 21
2270.6729791784092
 31
0.0
  0
LINE
  5
7DC2
  8
1
 10
2584.866864727629
 20
2192.2729791784091
 30
0.0
 11
3009.8668647276299
 21
2192.2729791784091
 31
0.0
  0
LINE
  5
7DC3
  8
1
 10
2584.866864727629
 20
2195.4729791784089
 30
0.0
 11
3009.8668647276299
 21
2195.4729791784089
 31
0.0
  0
LINE
  5
7DC4
  8
1
 10
2586.8668647276299
 20
2400.6729791784092
 30
0.0
 11
2586.8668647276299
 21
1970.6729791784089
 31
0.0
  0
LINE
  5
7DC5
  8
1
 10
2464.8668647276299
 20
2400.6729791784092
 30
0.0
 11
2464.8668647276299
 21
1970.6729791784089
 31
0.0
  0
LINE
  5
7DC6
  8
2
 10
2629.8668647276299
 20
2348.7663150978942
 30
0.0
 11
2629.8668647276299
 21
2136.7966182092032
 31
0.0
  0
LINE
  5
7DC7
  8
2
 10
2482.339524387673
 20
1965.6729791784089
 30
0.0
 11
2610.2164517175579
 21
1965.6729791784089
 31
0.0
  0
LINE
  5
7DC8
  8
1
 10
2464.8668647276299
 20
1970.6729791784089
 30
0.0
 11
2586.8668647276299
 21
1970.6729791784089
 31
0.0
  0
LINE
  5
7DC9
  8
1
 10
2494.866864727629
 20
2032.1729791784089
 30
0.0
 11
2544.8668647276299
 21
2032.1729791784089
 31
0.0
  0
LINE
  5
7DCA
  8
1
 10
2544.8668647276309
 20
1951.6729791784089
 30
0.0
 11
2594.8668647276299
 21
1951.6729791784089
 31
0.0
  0
LINE
  5
7DCB
  8
1
 10
2544.8668647276309
 20
1979.6729791784089
 30
0.0
 11
2594.8668647276299
 21
1979.6729791784089
 31
0.0
  0
LINE
  5
7DCC
  8
1
 10
2464.8668647276299
 20
2400.6729791784092
 30
0.0
 11
2586.8668647276299
 21
2400.6729791784092
 31
0.0
  0
LINE
  5
7DCD
  8
1
 10
2494.866864727629
 20
2314.1729791784101
 30
0.0
 11
2544.8668647276299
 21
2314.1729791784101
 31
0.0
  0
ARC
  5
7DCE
  8
1
 10
2840.515763309586
 20
2285.682235611449
 30
0.0
 40
194.8824391137272
 50
176.8950460354223
 51
199.54871276881059
  0
ARC
  5
7DCF
  8
1
 10
2419.217966145673
 20
2285.682235611449
 30
0.0
 40
194.8824391137272
 50
340.45128723118921
 51
3.1049539645776858
  0
LINE
  5
7DD0
  8
1
 10
2602.8668647276299
 20
2220.4729791784089
 30
0.0
 11
2656.8668647276299
 21
2220.4729791784089
 31
0.0
  0
LINE
  5
7DD1
  8
1
 10
2614.0360156813972
 20
2280.6729791784092
 30
0.0
 11
2608.4668647276289
 21
2280.6729791784092
 31
0.0
  0
LINE
  5
7DD2
  8
1
 10
2656.8668647276299
 20
2201.4729791784089
 30
0.0
 11
2602.8668647276299
 21
2201.4729791784089
 31
0.0
  0
POLYLINE
  5
7DD3
  8
1
 66
     1
 10
0.0
 20
0.0
 30
0.0
 70
     1
  0
VERTEX
  5
8289
  8
1
 10
2597.3668647276299
 20
2195.4729791784089
 30
0.0
  0
VERTEX
  5
828A
  8
1
 10
2662.3668647276299
 20
2195.4729791784089
 30
0.0
  0
VERTEX
  5
828B
  8
1
 10
2662.3668647276299
 20
2201.4729791784089
 30
0.0
  0
VERTEX
  5
828C
  8
1
 10
2597.3668647276299
 20
2201.4729791784089
 30
0.0
  0
SEQEND
  5
828D
  8
1
  0
LINE
  5
7DD9
  8
1
 10
2602.8668647276299
 20
2201.4729791784089
 30
0.0
 11
2602.8668647276299
 21
2220.4729791784089
 31
0.0
  0
LINE
  5
7DDA
  8
1
 10
2584.866864727629
 20
2195.4729791784089
 30
0.0
 11
2584.866864727629
 21
2192.2729791784091
 31
0.0
  0
LINE
  5
7DDB
  8
1
 10
2544.8668647276309
 20
2230.6729791784092
 30
0.0
 11
2606.1755730559012
 21
2230.6729791784092
 31
0.0
  0
LINE
  5
7DDC
  8
1
 10
2544.8668647276309
 20
2270.6729791784092
 30
0.0
 11
2608.4668647276289
 21
2270.6729791784092
 31
0.0
  0
LINE
  5
7DDD
  8
1
 10
2608.4668647276289
 20
2280.6729791784092
 30
0.0
 11
2608.4668647276289
 21
2239.1632130461348
 31
0.0
  0
LINE
  5
7DDE
  8
1
 10
2664.76686472763
 20
2280.6729791784092
 30
0.0
 11
2664.76686472763
 21
2220.6729791784092
 31
0.0
  0
LINE
  5
7DDF
  8
1
 10
2664.76686472763
 20
2220.6729791784092
 30
0.0
 11
2656.7959721793468
 21
2220.6729791784092
 31
0.0
  0
LINE
  5
7DE0
  8
1
 10
2656.8668647276299
 20
2201.4729791784089
 30
0.0
 11
2656.8668647276299
 21
2220.4729791784089
 31
0.0
  0
LINE
  5
7DE1
  8
1
 10
2664.76686472763
 20
2280.6729791784092
 30
0.0
 11
2645.6977137738631
 21
2280.6729791784092
 31
0.0
  0
POLYLINE
  5
7DE2
  8
1
 66
     1
 10
0.0
 20
0.0
 30
0.0
 70
     1
  0
VERTEX
  5
828E
  8
1
 10
2635.5709482288198
 20
2308.5386357413649
 30
0.0
  0
VERTEX
  5
828F
  8
1
 10
2630.8282271154708
 20
2308.5386357413649
 30
0.0
  0
VERTEX
  5
8290
  8
1
 10
2630.8282271154708
 20
2301.4729791784089
 30
0.0
  0
VERTEX
  5
8291
  8
1
 10
2635.5709482288198
 20
2301.4729791784089
 30
0.0
  0
SEQEND
  5
8292
  8
1
  0
ARC
  5
7DE8
  8
1
 10
2616.8099120138581
 20
2296.400567460309
 30
0.0
 40
3.0
 50
108.0376136626346
 51
183.10495396457819
  0
ARC
  5
7DE9
  8
1
 10
2642.9238174414008
 20
2296.400567460309
 30
0.0
 40
3.0
 50
356.89504603542167
 51
71.962386337365331
  0
ARC
  5
7DEA
  8
1
 10
2629.8668647276299
 20
2256.304981629346
 30
0.0
 40
45.167997549063401
 50
71.962386337365885
 51
108.0376136626341
  0
LINE
  5
7DEB
  8
2
 10
2964.8668647276299
 20
2348.7663150978942
 30
0.0
 11
2964.8668647276299
 21
2133.4931943615879
 31
0.0
  0
ARC
  5
7DEC
  8
1
 10
3175.515763309586
 20
2285.682235611449
 30
0.0
 40
194.8824391137272
 50
176.8950460354223
 51
199.54871276881059
  0
ARC
  5
7DED
  8
1
 10
2754.2179661456739
 20
2285.682235611449
 30
0.0
 40
194.8824391137272
 50
340.45128723118921
 51
3.1049539645776889
  0
LINE
  5
7DEE
  8
1
 10
2937.866864727629
 20
2201.4729791784089
 30
0.0
 11
2991.866864727629
 21
2201.4729791784089
 31
0.0
  0
LINE
  5
7DEF
  8
1
 10
2991.866864727629
 20
2220.4729791784089
 30
0.0
 11
2937.866864727629
 21
2220.4729791784089
 31
0.0
  0
LINE
  5
7DF0
  8
1
 10
2929.9668647276299
 20
2280.6729791784092
 30
0.0
 11
2949.0360156813972
 21
2280.6729791784092
 31
0.0
  0
POLYLINE
  5
7DF1
  8
1
 66
     1
 10
0.0
 20
0.0
 30
0.0
 70
     1
  0
VERTEX
  5
8293
  8
1
 10
2932.366864727629
 20
2195.4729791784089
 30
0.0
  0
VERTEX
  5
8294
  8
1
 10
2997.366864727629
 20
2195.4729791784089
 30
0.0
  0
VERTEX
  5
8295
  8
1
 10
2997.366864727629
 20
2201.4729791784089
 30
0.0
  0
VERTEX
  5
8296
  8
1
 10
2932.366864727629
 20
2201.4729791784089
 30
0.0
  0
SEQEND
  5
8297
  8
1
  0
LINE
  5
7DF7
  8
1
 10
2929.9668647276299
 20
2280.6729791784092
 30
0.0
 11
2929.9668647276299
 21
2220.6729791784092
 31
0.0
  0
LINE
  5
7DF8
  8
1
 10
2937.866864727629
 20
2201.4729791784089
 30
0.0
 11
2937.866864727629
 21
2220.4729791784089
 31
0.0
  0
LINE
  5
7DF9
  8
1
 10
2929.9668647276299
 20
2220.6729791784092
 30
0.0
 11
2937.9377572759131
 21
2220.6729791784092
 31
0.0
  0
LINE
  5
7DFA
  8
1
 10
2991.866864727629
 20
2201.4729791784089
 30
0.0
 11
2991.866864727629
 21
2220.4729791784089
 31
0.0
  0
LINE
  5
7DFB
  8
1
 10
3009.8668647276299
 20
2195.4729791784089
 30
0.0
 11
3009.8668647276299
 21
2192.2729791784091
 31
0.0
  0
LINE
  5
7DFC
  8
1
 10
2986.26686472763
 20
2280.6729791784092
 30
0.0
 11
2986.26686472763
 21
2239.1632130461348
 31
0.0
  0
LINE
  5
7DFD
  8
1
 10
2980.6977137738631
 20
2280.6729791784092
 30
0.0
 11
2986.26686472763
 21
2280.6729791784092
 31
0.0
  0
ARC
  5
7DFE
  8
1
 10
2977.9238174414008
 20
2296.400567460309
 30
0.0
 40
3.0
 50
356.89504603542167
 51
71.962386337365317
  0
ARC
  5
7DFF
  8
1
 10
2964.8668647276299
 20
2256.304981629346
 30
0.0
 40
45.167997549063401
 50
71.962386337365871
 51
108.0376136626341
  0
ARC
  5
7E00
  8
1
 10
2951.809912013859
 20
2296.400567460309
 30
0.0
 40
3.0
 50
108.0376136626346
 51
183.10495396457819
  0
POLYLINE
  5
7E01
  8
1
 66
     1
 10
0.0
 20
0.0
 30
0.0
 70
     1
  0
VERTEX
  5
8298
  8
1
 10
2959.1627812264392
 20
2308.5386357413649
 30
0.0
  0
VERTEX
  5
8299
  8
1
 10
2963.9055023397891
 20
2308.5386357413649
 30
0.0
  0
VERTEX
  5
829A
  8
1
 10
2963.9055023397891
 20
2301.4729791784089
 30
0.0
  0
VERTEX
  5
829B
  8
1
 10
2959.1627812264392
 20
2301.4729791784089
 30
0.0
  0
SEQEND
  5
829C
  8
1
  0
DIMENSION
  5
7E07
  8
3
  2
*D17
 10
3557.1276829578128
 20
2050.6729791784092
 30
0.0
 11
3507.1276829578119
 21
2250.6729791784101
 31
0.0
 70
     0
 13
3403.4668647276299
 23
2450.6729791784092
 33
0.0
 14
3403.4668647276299
 24
2050.6729791784092
 34
0.0
 50
90.0
1001
ACAD
1000
DSTYLE
1002
{
1070
   287
1070
     3
1070
    40
1040
20.0
1070
   143
1040
0.039
1070
   172
1070
     1
1070
   271
1070
     0
1070
   279
1070
     0
1070
   288
1070
     1
1002
}
  0
LINE
  5
7E08
  8
1
 10
3403.4668647276299
 20
2450.6729791784092
 30
0.0
 11
3403.4668647276299
 21
2050.6729791784092
 31
0.0
  0
LINE
  5
7E09
  8
1
 10
3072.8668647276322
 20
2543.8806961404248
 30
0.0
 11
3072.8668647276322
 21
2265.678161865837
 31
0.0
  0
LINE
  5
7E0A
  8
1
 10
3376.8668647276322
 20
2543.8806961404248
 30
0.0
 11
3376.8668647276331
 21
2265.678161865837
 31
0.0
  0
LINE
  5
7E0B
  8
1
 10
3374.8668647276322
 20
2543.8806961404248
 30
0.0
 11
3374.8668647276322
 21
2265.678161865837
 31
0.0
  0
LINE
  5
7E0C
  8
1
 10
3074.8668647276309
 20
2543.8806961404248
 30
0.0
 11
3074.8668647276309
 21
2265.678161865837
 31
0.0
  0
LINE
  5
7E0D
  8
1
 10
3072.8668647276322
 20
2240.6781618658379
 30
0.0
 11
3376.8668647276322
 21
2240.6781618658379
 31
0.0
  0
LINE
  5
7E0E
  8
1
 10
3047.8668647276322
 20
2265.678161865837
 30
0.0
 11
3401.8668647276322
 21
2265.678161865837
 31
0.0
  0
LINE
  5
7E0F
  8
1
 10
3022.8668647276299
 20
2147.7729791784091
 30
0.0
 11
3047.8668647276322
 21
2147.7729791784091
 31
0.0
  0
LINE
  5
7E10
  8
1
 10
3022.8668647276299
 20
2152.2729791784091
 30
0.0
 11
3047.8668647276322
 21
2152.2729791784091
 31
0.0
  0
LINE
  5
7E11
  8
1
 10
3022.8668647276299
 20
2152.2729791784091
 30
0.0
 11
3022.8668647276299
 21
2147.7729791784091
 31
0.0
  0
LINE
  5
7E12
  8
1
 10
3403.4668647276299
 20
2050.6729791784092
 30
0.0
 11
3401.8668647276322
 21
2050.6729791784092
 31
0.0
  0
DIMENSION
  5
7E13
  8
3
  2
*D18
 10
3377.8668647276309
 20
2769.6483673304178
 30
0.0
 11
3509.295436156202
 21
2819.6483673304169
 31
0.0
 70
     0
 13
3224.8668647276322
 23
2744.6148580841532
 33
0.0
 14
3377.8668647276309
 24
2475.6729791784092
 34
0.0
1001
ACAD
1000
DSTYLE
1002
{
1070
   287
1070
     3
1070
    40
1040
20.0
1070
   143
1040
0.039
1070
   172
1070
     1
1070
   271
1070
     0
1070
   279
1070
     0
1070
   288
1070
     1
1002
}
  0
DIMENSION
  5
7E14
  8
3
  2
*D19
 10
3374.8668647276322
 20
2637.591904425552
 30
0.0
 11
3224.8668647276322
 21
2687.591904425552
 31
0.0
 70
     0
 13
3074.8668647276309
 23
2543.8806961404262
 33
0.0
 14
3374.8668647276322
 24
2543.8806961404262
 34
0.0
1001
ACAD
1000
DSTYLE
1002
{
1070
   287
1070
     3
1070
    40
1040
20.0
1070
   143
1040
0.039
1070
   172
1070
     1
1070
   271
1070
     0
1070
   279
1070
     0
1070
   288
1070
     1
1002
}
  0
LINE
  5
7E15
  8
1
 10
3074.8668647276309
 20
2532.680696140425
 30
0.0
 11
3374.8668647276322
 21
2532.680696140425
 31
0.0
  0
LINE
  5
7E16
  8
1
 10
3072.8668647276322
 20
2543.8806961404248
 30
0.0
 11
3074.8668647276309
 21
2543.8806961404262
 31
0.0
  0
POLYLINE
  5
7E17
  8
1
 66
     1
 10
0.0
 20
0.0
 30
0.0
 70
     1
  0
VERTEX
  5
82B9
  8
1
 10
3377.8668647276309
 20
2450.6729791784092
 30
0.0
  0
VERTEX
  5
82BA
  8
1
 10
3402.8668647276309
 20
2450.6729791784092
 30
0.0
  0
VERTEX
  5
82BB
  8
1
 10
3402.8668647276309
 20
2451.6729791784092
 30
0.0
 42
0.4142135623730951
  0
VERTEX
  5
82BC
  8
1
 10
3400.8668647276309
 20
2453.6729791784092
 30
0.0
  0
VERTEX
  5
82BD
  8
1
 10
3384.8668647276309
 20
2453.6729791784092
 30
0.0
 42
-0.4142135623730951
  0
VERTEX
  5
82BE
  8
1
 10
3380.8668647276299
 20
2457.6729791784092
 30
0.0
  0
VERTEX
  5
82BF
  8
1
 10
3380.8668647276299
 20
2473.6729791784101
 30
0.0
 42
0.4142135623730951
  0
VERTEX
  5
82C0
  8
1
 10
3378.8668647276309
 20
2475.6729791784092
 30
0.0
  0
VERTEX
  5
82C1
  8
1
 10
3377.8668647276309
 20
2475.6729791784092
 30
0.0
  0
SEQEND
  5
82C2
  8
1
  0
LINE
  5
7E22
  8
1
 10
3377.8668647276309
 20
2450.6729791784092
 30
0.0
 11
3402.8668647276309
 21
2450.6729791784092
 31
0.0
  0
LINE
  5
7E23
  8
1
 10
3402.8668647276309
 20
2450.6729791784092
 30
0.0
 11
3401.2668647276319
 21
2450.6729791784092
 31
0.0
  0
LINE
  5
7E24
  8
1
 10
3374.8668647276322
 20
2543.8806961404262
 30
0.0
 11
3376.8668647276331
 21
2543.8806961404262
 31
0.0
  0
LINE
  5
802A
  8
4
 10
3700.0
 20
1000.0
 30
0.0
 11
3700.0
 21
600.0
 31
0.0
  0
LINE
  5
802B
  8
4
 10
2300.0
 20
1000.0
 30
0.0
 11
2300.0
 21
600.0
 31
0.0
  0
LINE
  5
802C
  8
4
 10
1300.0
 20
1000.0
 30
0.0
 11
1300.0
 21
600.0
 31
0.0
  0
LINE
  5
802F
  8
4
 10
1300.0
 20
600.0
 30
0.0
 11
3700.0
 21
600.0
 31
0.0
  0
LINE
  5
8030
  8
4
 10
1300.0
 20
800.0
 30
0.0
 11
3700.0
 21
800.0
 31
0.0
  0
TEXT
  5
8031
  8
4
 10
1377.0041616938031
 20
863.08605173322564
 30
0.0
 40
100.0
  1
機器名称
  0
TEXT
  5
8032
  8
4
 10
1372.516212049595
 20
643.29031346402189
 30
0.0
 40
100.0
  1
機器型番
  0
TEXT
  5
8033
  8
4
 10
2299.8546179137529
 20
845.45519073107846
 30
0.0
 40
90.0
  1
ミツヤリミットロードファン
  0
TEXT
  5
8034
  8
4
 10
2373.3089911709608
 20
634.31916855988675
 30
0.0
 40
100.0
  1
LL#2 1/2-1
  0
TEXT
  5
8036
  8
4
 10
1506.8135401616159
 20
4766.8576826650306
 30
0.0
 40
107.9999999999999
  1
床置防振ベット
  0
TEXT
  5
8037
  8
4
 10
632.33518665889278
 20
5067.7619523985959
 30
0.0
 40
144.0
  1
遠心式片吸込片持リミットロードファン
  0
LINE
  5
8038
  8
4
 10
500.0
 20
4938.8175085296089
 30
0.0
 11
3700.0
 21
4938.8175085296089
 31
0.0
  0
LINE
  5
8039
  8
4
 10
500.0
 20
5338.8175085296098
 30
0.0
 11
3700.0
 21
5338.8175085296098
 31
0.0
  0
LINE
  5
803A
  8
4
 10
1300.0
 20
1000.0
 30
0.0
 11
3700.0
 21
1000.0
 31
0.0
  0
LINE
  5
803B
  8
4
 10
500.0
 20
5338.8175085296098
 30
0.0
 11
500.0
 21
4938.8175085296089
 31
0.0
  0
TEXT
  5
803C
  8
4
 10
635.0958756762119
 20
4764.638955092687
 30
0.0
 40
107.9999999999999
  1
右回転左横向
  0
TEXT
  5
803D
  8
4
 10
2937.9391184985789
 20
5412.1221629906177
 30
0.0
 40
112.0
  1
No.
  0
TEXT
  5
803E
  8
4
 10
2622.5921252000262
 20
4766.8576826650306
 30
0.0
 40
107.9999999999999
  1
縮尺：1/20
  0
LINE
  5
803F
  8
4
 10
3700.0
 20
5338.8175085296098
 30
0.0
 11
3700.0
 21
4938.8175085296089
 31
0.0
  0
LINE
  5
8040
  8
4
 10
4200.0
 20
5900.0
 30
0.0
 11
4200.0
 21
5900.0
 31
0.0
  0
LINE
  5
8041
  8
4
 10
2881.2348447197292
 20
5362.5271662508021
 30
0.0
 11
2881.2348447197292
 21
5573.3045230995049
 31
0.0
  0
LINE
  5
8042
  8
4
 10
2881.2348447197292
 20
5573.3045230995049
 30
0.0
 11
3700.0
 21
5573.3045230995049
 31
0.0
  0
LINE
  5
8043
  8
4
 10
3700.0
 20
5573.3045230995049
 30
0.0
 11
3700.0
 21
5362.5271662508021
 31
0.0
  0
LINE
  5
8044
  8
4
 10
3700.0
 20
5362.5271662508021
 30
0.0
 11
2881.2348447197292
 21
5362.5271662508021
 31
0.0
  0
LINE
  5
8045
  8
4
 10
0.0
 20
0.0
 30
0.0
 11
0.0
 21
5900.0
 31
0.0
  0
LINE
  5
8046
  8
4
 10
0.0
 20
5900.0
 30
0.0
 11
4200.0
 21
5900.0
 31
0.0
  0
LINE
  5
8047
  8
4
 10
4200.0
 20
5900.0
 30
0.0
 11
4200.0
 21
0.0
 31
0.0
  0
LINE
  5
8048
  8
4
 10
4200.0
 20
0.0
 30
0.0
 11
0.0
 21
0.0
 31
0.0
  0
LINE
  5
8172
  8
2
 10
3224.8668647276322
 20
2652.0629035095312
 30
0.0
 11
3224.8668647276322
 21
1579.744436644
 31
0.0
  0
DIMENSION
  5
819E
  8
3
  2
*D21
 10
676.02959195785661
 20
1609.6729791784089
 30
0.0
 11
626.02959195785627
 21
1461.1015506069809
 31
0.0
 70
     0
 13
1095.4046203925479
 23
1684.6729791784089
 33
0.0
 14
1095.4046203925479
 24
1609.6729791784089
 34
0.0
 50
90.0
1001
ACAD
1000
DSTYLE
1002
{
1070
   287
1070
     3
1070
    40
1040
20.0
1070
   143
1040
0.039
1070
   172
1070
     1
1070
   271
1070
     0
1070
   279
1070
     0
1070
     6
1000
DOT
1002
}
  0
DIMENSION
  5
81AF
  8
3
  2
*D22
 10
676.02959195785661
 20
1720.6729791784089
 30
0.0
 11
514.60102052928505
 21
1751.3872648926949
 31
0.0
 70
     0
 13
1095.4046203925479
 23
1684.6729791784089
 33
0.0
 14
1095.4046203925479
 24
1720.6729791784089
 34
0.0
 50
90.0
1001
ACAD
1000
DSTYLE
1002
{
1070
   287
1070
     4
1070
     3
1000
(<>)
1070
    40
1040
20.0
1070
   143
1040
0.039
1070
   172
1070
     1
1070
   271
1070
     0
1070
   279
1070
     1
1070
     6
1000
DOT
1002
}
  0
DIMENSION
  5
81BC
  8
3
  2
*D23
 10
436.7085803047375
 20
1609.6729791784101
 30
0.0
 11
386.70858030473732
 21
2071.1768376594182
 31
0.0
 70
     0
 13
1330.4046203925479
 23
2532.680696140425
 33
0.0
 14
1095.4046203925479
 24
1609.6729791784089
 34
0.0
 50
90.0
1001
ACAD
1000
DSTYLE
1002
{
1070
   287
1070
     3
1070
    40
1040
20.0
1070
   143
1040
0.039
1070
   172
1070
     1
1070
   271
1070
     0
1070
   279
1070
     0
1002
}
  0
ENDSEC
  0
EOF
